  0
SECTION
  2
HEADER
  9
$ACADVER
  1
AC1014
  9
$ACADMAINTVER
 70
               0
  9
$DWGCODEPAGE
  3
ANSI_932
  9
$INSBASE
 10
0.0
 20
0.0
 30
0.0
  9
$EXTMIN
 10
-4075.0000000045511
 20
25.000000003184141
 30
0.0
  9
$EXTMAX
 10
-25.000000004551111
 20
2745.0000000031837
 30
0.0
  9
$LIMMIN
 10
0.0
 20
0.0
  9
$LIMMAX
 10
0.0
 20
0.0
  9
$ORTHOMODE
 70
               0
  9
$REGENMODE
 70
               1
  9
$FILLMODE
 70
               1
  9
$QTEXTMODE
 70
               0
  9
$MIRRTEXT
 70
               1
  9
$DRAGMODE
 70
               2
  9
$LTSCALE
 40
127.0
  9
$OSMODE
 70
               0
  9
$ATTMODE
 70
               1
  9
$TEXTSIZE
 40
0.2
  9
$TRACEWID
 40
1.0
  9
$TEXTSTYLE
  7
STANDARD
  9
$CLAYER
  8
0
  9
$CELTYPE
  6
CONTINUOUS
  9
$CECOLOR
 62
             256
  9
$CELTSCALE
 40
1.0
  9
$DELOBJ
 70
               1
  9
$DISPSILH
 70
               0
  9
$DIMSCALE
 40
1.0
  9
$DIMASZ
 40
31.75
  9
$DIMEXO
 40
9.9999999627470952
  9
$DIMDLI
 40
7.9999999938532707
  9
$DIMRND
 40
0.0
  9
$DIMDLE
 40
0.0
  9
$DIMEXE
 40
19.99999992549419
  9
$DIMTP
 40
0.0
  9
$DIMTM
 40
0.0
  9
$DIMTXT
 40
33.86768
  9
$DIMCEN
 40
0.0
  9
$DIMTSZ
 40
0.0
  9
$DIMTOL
 70
               0
  9
$DIMLIM
 70
               0
  9
$DIMTIH
 70
               0
  9
$DIMTOH
 70
               0
  9
$DIMSE1
 70
               0
  9
$DIMSE2
 70
               0
  9
$DIMTAD
 70
               1
  9
$DIMZIN
 70
              11
  9
$DIMBLK
  1
VW_OPENARROW
  9
$DIMASO
 70
               1
  9
$DIMSHO
 70
               1
  9
$DIMPOST
  1
<>
  9
$DIMAPOST
  1
[]
  9
$DIMALT
 70
               0
  9
$DIMALTD
 70
               1
  9
$DIMALTF
 40
1.0
  9
$DIMLFAC
 40
1.0
  9
$DIMTOFL
 70
               1
  9
$DIMTVP
 40
0.0
  9
$DIMTIX
 70
               1
  9
$DIMSOXD
 70
               0
  9
$DIMSAH
 70
               0
  9
$DIMBLK1
  1

  9
$DIMBLK2
  1

  9
$DIMSTYLE
  2
CAD
  9
$DIMCLRD
 70
               0
  9
$DIMCLRE
 70
               0
  9
$DIMCLRT
 70
               0
  9
$DIMTFAC
 40
0.7
  9
$DIMGAP
 40
0.099999999627471
  9
$DIMJUST
 70
               0
  9
$DIMSD1
 70
               0
  9
$DIMSD2
 70
               0
  9
$DIMTOLJ
 70
               1
  9
$DIMTZIN
 70
              11
  9
$DIMALTZ
 70
              11
  9
$DIMALTTZ
 70
              11
  9
$DIMFIT
 70
               0
  9
$DIMUPT
 70
               0
  9
$DIMUNIT
 70
               2
  9
$DIMDEC
 70
               4
  9
$DIMTDEC
 70
               4
  9
$DIMALTU
 70
               2
  9
$DIMALTTD
 70
               2
  9
$DIMTXSTY
  7
________
  9
$DIMAUNIT
 70
               0
  9
$LUNITS
 70
               2
  9
$LUPREC
 70
               4
  9
$SKETCHINC
 40
0.1
  9
$FILLETRAD
 40
0.0
  9
$AUNITS
 70
               0
  9
$AUPREC
 70
               0
  9
$MENU
  1
acad
  9
$ELEVATION
 40
0.0
  9
$PELEVATION
 40
0.0
  9
$THICKNESS
 40
0.0
  9
$LIMCHECK
 70
               0
  9
$BLIPMODE
 70
               0
  9
$CHAMFERA
 40
0.0
  9
$CHAMFERB
 40
0.0
  9
$CHAMFERC
 40
0.0
  9
$CHAMFERD
 40
0.0
  9
$SKPOLY
 70
               0
  9
$TDCREATE
 40
2459605.495023148
  9
$TDUPDATE
 40
2459605.495023148
  9
$TDINDWG
 40
0.0000000000
  9
$TDUSRTIMER
 40
0.0000000000
  9
$USRTIMER
 70
               1
  9
$ANGBASE
 50
0.0
  9
$ANGDIR
 70
               0
  9
$PDMODE
 70
               1
  9
$PDSIZE
 40
-2.0
  9
$PLINEWID
 40
0.0
  9
$COORDS
 70
               0
  9
$SPLFRAME
 70
               0
  9
$SPLINETYPE
 70
               6
  9
$SPLINESEGS
 70
               8
  9
$ATTDIA
 70
               0
  9
$ATTREQ
 70
               1
  9
$HANDLING
 70
               1
  9
$HANDSEED
  5
31C
  9
$SURFTAB1
 70
               6
  9
$SURFTAB2
 70
               6
  9
$SURFTYPE
 70
               6
  9
$SURFU
 70
               6
  9
$SURFV
 70
               6
  9
$UCSNAME
  2

  9
$UCSORG
 10
0.0
 20
0.0
 30
0.0
  9
$UCSXDIR
 10
1.0
 20
0.0
 30
0.0
  9
$UCSYDIR
 10
0.0
 20
1.0
 30
0.0
  9
$PUCSNAME
  2

  9
$PUCSORG
 10
0.0
 20
0.0
 30
0.0
  9
$PUCSXDIR
 10
1.0
 20
0.0
 30
0.0
  9
$PUCSYDIR
 10
0.0
 20
1.0
 30
0.0
  9
$USERI1
 70
               0
  9
$USERI2
 70
               0
  9
$USERI3
 70
               0
  9
$USERI4
 70
               0
  9
$USERI5
 70
               0
  9
$USERR1
 40
0.0
  9
$USERR2
 40
0.0
  9
$USERR3
 40
0.0
  9
$USERR4
 40
0.0
  9
$USERR5
 40
0.0
  9
$WORLDVIEW
 70
               1
  9
$SHADEDGE
 70
               3
  9
$SHADEDIF
 70
              70
  9
$TILEMODE
 70
               1
  9
$MAXACTVP
 70
              16
  9
$PINSBASE
 10
0.0
 20
0.0
 30
0.0
  9
$PLIMCHECK
 70
               0
  9
$PEXTMIN
 10
1.0000000000000000E+20
 20
1.0000000000000000E+20
 30
1.0000000000000000E+20
  9
$PEXTMAX
 10
-1.0000000000000000E+20
 20
-1.0000000000000000E+20
 30
-1.0000000000000000E+20
  9
$PLIMMIN
 10
0.0
 20
0.0
  9
$PLIMMAX
 10
12.0
 20
9.0
  9
$UNITMODE
 70
               0
  9
$VISRETAIN
 70
               0
  9
$PLINEGEN
 70
               1
  9
$PSLTSCALE
 70
               0
  9
$TREEDEPTH
 70
            3020
  9
$PICKSTYLE
 70
               1
  9
$CMLSTYLE
  2
STANDARD
  9
$CMLJUST
 70
               0
  9
$CMLSCALE
 40
1.0
  9
$PROXYGRAPHICS
 70
               0
  9
$MEASUREMENT
 70
               1
  0
ENDSEC
  0
SECTION
  2
CLASSES
  0
CLASS
  1
LWPOLYLINE
  2
AcDbPolyline
  3
"AutoCAD"
 90
        0
280
               0
281
               1
  0
CLASS
  1
IMAGE
  2
AcDbRasterImage
  3
ISM
 90
      127
280
               0
281
               1
  0
CLASS
  1
OLE2FRAME
  2
AcDbOle2Frame
  3
""
 90
        0
280
               0
281
               1
  0
CLASS
  1
HATCH
  2
AcDbHatch
  3
"ACAD_SEDONA"
 90
        0
280
               0
281
               1
  0
CLASS
  1
DICTIONARYVAR
  2
AcDbDictionaryVar
  3
"AutoCAD"
 90
        0
280
               0
281
               0
  0
CLASS
  1
RASTERVARIABLES
  2
AcDbRasterVariables
  3
ISM
 90
        0
280
               0
281
               0
  0
CLASS
  1
IMAGEDEF
  2
AcDbRasterImageDef
  3
ISM
 90
        0
280
               0
281
               0
  0
CLASS
  1
IMAGEDEF_REACTOR
  2
AcDbRasterImageDefReactor
  3
ISM
 90
        1
280
               0
281
               0
  0
CLASS
  1
IDBUFFER
  2
AcDbIdBuffer
  3
"Acad"
 90
        0
280
               0
281
               0
  0
CLASS
  1
SPATIAL_FILTER
  2
AcDbSpatialFilter
  3
"Acad"
 90
        0
280
               0
281
               0
  0
CLASS
  1
XRECORD
  2
AcDbXrecord
  3
"<Built In>"
 90
        0
280
               0
281
               0
  0
CLASS
  1
SORTENTSTABLE
  2
AcDbSortentsTable
  3
"AutoCAD"
 90
        0
280
               0
281
               0
  0
CLASS
  1
LAYER_INDEX
  2
AcDbLayerIndex
  3
"Acad"
 90
        0
280
               0
281
               0
  0
CLASS
  1
SPATIAL_INDEX
  2
AcDbSpatialIndex
  3
"Acad"
 90
        0
280
               0
281
               0
  0
CLASS
  1
OBJECT_PTR
  2
CAseDLPNTableRecord
  3
"ASE-LPNTableRecord"
 90
        1
280
               0
281
               0
  0
CLASS
  1
LAYOUT
  2
AcDbLayout
  3
"AutoCAD 2000"
 90
        1
280
               0
281
               0
  0
CLASS
  1
PLOTSETTINGS
  2
AcDbPlotSettings
  3
"AutoCAD 2000"
 90
        1
280
               0
281
               0
  0
CLASS
  1
ACDBDICTIONARYWDFLT
  2
AcDbDictionaryWithDefault
  3
"AutoCAD 2000"
 90
        1
280
               0
281
               0
  0
CLASS
  1
ACDBPLACEHOLDER
  2
AcDbPlaceHolder
  3
"AutoCAD 2000"
 90
        1
280
               0
281
               0
  0
ENDSEC
  0
SECTION
  2
TABLES
  0
TABLE
  2
VPORT
  5
7
100
AcDbSymbolTable
 70
               1
  0
VPORT
  5
15
100
AcDbSymbolTableRecord
100
AcDbViewportTableRecord
  2
*ACTIVE
 70
               0
 10
0.0
 20
0.0
 11
1.0
 21
1.0
 12
-2050.0000000045511
 22
1385.0000000031839
 13
0.0
 23
0.0
 14
1.0
 24
1.0
 15
0.0
 25
0.0
 16
0.0
 26
0.0
 36
1.0
 17
0.0
 27
0.0
 37
0.0
 40
2719.9999999999995
 41
0.688564
 42
50.0
 43
0.0
 44
0.0
 50
0.0
 51
0.0
 71
               0
 72
             100
 73
               1
 74
               1
 75
               0
 76
               0
 77
               0
 78
               0
  0
ENDTAB
  0
TABLE
  2
LTYPE
  5
4
100
AcDbSymbolTable
 70
              15
  0
LTYPE
  5
11
100
AcDbSymbolTableRecord
100
AcDbLinetypeTableRecord
  2
BYBLOCK
 70
              64
  3

 72
              65
 73
               0
 40
0.0
  0
LTYPE
  5
12
100
AcDbSymbolTableRecord
100
AcDbLinetypeTableRecord
  2
BYLAYER
 70
              64
  3

 72
              65
 73
               0
 40
0.0
  0
LTYPE
  5
13
100
AcDbSymbolTableRecord
100
AcDbLinetypeTableRecord
  2
CONTINUOUS
 70
              64
  3
Solid line
 72
              65
 73
               0
 40
0.0
  0
LTYPE
  5
3D
100
AcDbSymbolTableRecord
100
AcDbLinetypeTableRecord
  2
STYLE_01
 70
               0
  3

 72
              65
 73
               2
 40
0.166656494140625
 49
0.08331298828125
 74
               0
 49
-0.083343505859375
 74
               0
  0
LTYPE
  5
3E
100
AcDbSymbolTableRecord
100
AcDbLinetypeTableRecord
  2
STYLE_02
 70
               0
  3

 72
              65
 73
               2
 40
0.27777099609375
 49
0.194427490234375
 74
               0
 49
-0.083343505859375
 74
               0
  0
LTYPE
  5
3F
100
AcDbSymbolTableRecord
100
AcDbLinetypeTableRecord
  2
STYLE_03
 70
               0
  3

 72
              65
 73
               2
 40
0.5
 49
0.416656494140625
 74
               0
 49
-0.083343505859375
 74
               0
  0
LTYPE
  5
40
100
AcDbSymbolTableRecord
100
AcDbLinetypeTableRecord
  2
STYLE_04
 70
               0
  3

 72
              65
 73
               2
 40
0.611083984375
 49
0.52777099609375
 74
               0
 49
-0.08331298828125
 74
               0
  0
LTYPE
  5
41
100
AcDbSymbolTableRecord
100
AcDbLinetypeTableRecord
  2
STYLE_05
 70
               0
  3

 72
              65
 73
               2
 40
0.08331298828125
 49
0.02777099609375
 74
               0
 49
-0.0555419921875
 74
               0
  0
LTYPE
  5
42
100
AcDbSymbolTableRecord
100
AcDbLinetypeTableRecord
  2
STYLE_06
 70
               0
  3

 72
              65
 73
               4
 40
1.3055419921875
 49
0.111114501953125
 74
               0
 49
-0.111114501953125
 74
               0
 49
0.97222900390625
 74
               0
 49
-0.111083984375
 74
               0
  0
LTYPE
  5
43
100
AcDbSymbolTableRecord
100
AcDbLinetypeTableRecord
  2
STYLE_07
 70
               0
  3

 72
              65
 73
               6
 40
0.75
 49
0.25
 74
               0
 49
-0.08331298828125
 74
               0
 49
0.25
 74
               0
 49
-0.083343505859375
 74
               0
 49
0.02777099609375
 74
               0
 49
-0.055572509765625
 74
               0
  0
LTYPE
  5
44
100
AcDbSymbolTableRecord
100
AcDbLinetypeTableRecord
  2
STYLE_08
 70
               0
  3

 72
              65
 73
               6
 40
0.5
 49
0.25
 74
               0
 49
-0.08331298828125
 74
               0
 49
0.02777099609375
 74
               0
 49
-0.055572509765625
 74
               0
 49
0.02777099609375
 74
               0
 49
-0.055572509765625
 74
               0
  0
LTYPE
  5
45
100
AcDbSymbolTableRecord
100
AcDbLinetypeTableRecord
  2
STYLE_09
 70
               0
  3

 72
              65
 73
               4
 40
2.0
 49
1.5
 74
               0
 49
-0.111114501953125
 74
               0
 49
0.27777099609375
 74
               0
 49
-0.111114501953125
 74
               0
  0
LTYPE
  5
46
100
AcDbSymbolTableRecord
100
AcDbLinetypeTableRecord
  2
STYLE_10
 70
               0
  3

 72
              65
 73
               6
 40
2.375
 49
1.5
 74
               0
 49
-0.111114501953125
 74
               0
 49
0.27777099609375
 74
               0
 49
-0.111114501953125
 74
               0
 49
0.25
 74
               0
 49
-0.125
 74
               0
  0
LTYPE
  5
47
100
AcDbSymbolTableRecord
100
AcDbLinetypeTableRecord
  2
STYLE_11
 70
               0
  3

 72
              65
 73
               4
 40
3.0
 49
0.166656494140625
 74
               0
 49
-0.111114501953125
 74
               0
 49
2.611114501953125
 74
               0
 49
-0.111114501953125
 74
               0
  0
LTYPE
  5
48
100
AcDbSymbolTableRecord
100
AcDbLinetypeTableRecord
  2
STYLE_12
 70
               0
  3

 72
              65
 73
               4
 40
1.02777099609375
 49
0.611114501953125
 74
               0
 49
-0.138885498046875
 74
               0
 49
0.138885498046875
 74
               0
 49
-0.138885498046875
 74
               0
  0
ENDTAB
  0
TABLE
  2
LAYER
  5
2
100
AcDbSymbolTable
 70
              10
  0
LAYER
  5
14
100
AcDbSymbolTableRecord
100
AcDbLayerTableRecord
  2
0
 70
               0
 62
               7
  6
CONTINUOUS
  0
LAYER
  5
50
100
AcDbSymbolTableRecord
100
AcDbLayerTableRecord
  2
DEFPOINTS
 70
               0
 62
               7
  6
CONTINUOUS
  0
LAYER
  5
51
100
AcDbSymbolTableRecord
100
AcDbLayerTableRecord
  2
OBJECT
 70
               0
 62
               7
  6
CONTINUOUS
  0
LAYER
  5
52
100
AcDbSymbolTableRecord
100
AcDbLayerTableRecord
  2
DIMENTION
 70
               0
 62
               7
  6
CONTINUOUS
  0
LAYER
  5
53
100
AcDbSymbolTableRecord
100
AcDbLayerTableRecord
  2
CENTER
 70
               0
 62
               7
  6
STYLE_09
  0
LAYER
  5
54
100
AcDbSymbolTableRecord
100
AcDbLayerTableRecord
  2
HIDDEN
 70
               0
 62
               7
  6
STYLE_02
  0
LAYER
  5
55
100
AcDbSymbolTableRecord
100
AcDbLayerTableRecord
  2
FRAME
 70
               0
 62
               7
  6
CONTINUOUS
  0
LAYER
  5
56
100
AcDbSymbolTableRecord
100
AcDbLayerTableRecord
  2
OUTLINE
 70
               0
 62
               7
  6
CONTINUOUS
  0
LAYER
  5
57
100
AcDbSymbolTableRecord
100
AcDbLayerTableRecord
  2
TEXT
 70
               0
 62
               7
  6
CONTINUOUS
  0
LAYER
  5
58
100
AcDbSymbolTableRecord
100
AcDbLayerTableRecord
  2
_____1
 70
               0
 62
               7
  6
CONTINUOUS
  0
ENDTAB
  0
TABLE
  2
STYLE
  5
3
100
AcDbSymbolTable
 70
               2
  0
STYLE
  5
17
100
AcDbSymbolTableRecord
100
AcDbTextStyleTableRecord
  2
STANDARD
 70
               0
 40
0.0
 41
1.0
 50
0.0
 71
               0
 42
0.0
  3
txt
  4
BIGFONT.SHX
  0
STYLE
  5
3C
100
AcDbSymbolTableRecord
100
AcDbTextStyleTableRecord
  2
________
 70
               0
 40
0.0
 41
1.0
 50
0.0
 71
               0
 42
0.0
  3
ＭＳ Ｐゴシック
  4

1001
ACAD
1000
ＭＳ Ｐゴシック
1071
        0
  0
ENDTAB
  0
TABLE
  2
VIEW
  5
5
100
AcDbSymbolTable
 70
               0
  0
ENDTAB
  0
TABLE
  2
UCS
  5
6
100
AcDbSymbolTable
 70
               0
  0
ENDTAB
  0
TABLE
  2
APPID
  5
8
100
AcDbSymbolTable
 70
               1
  0
APPID
  5
16
100
AcDbSymbolTableRecord
100
AcDbRegAppTableRecord
  2
ACAD
 70
               0
  0
ENDTAB
  0
TABLE
  2
DIMSTYLE
  5
9
100
AcDbSymbolTable
 70
               2
  0
DIMSTYLE
105
18
100
AcDbSymbolTableRecord
100
AcDbDimStyleTableRecord
  2
STANDARD
 70
               0
  3

  4

  5

  6

  7

 40
1.0
 41
0.18
 42
0.0625
 43
0.38
 44
0.18
 45
0.0
 46
0.0
 47
0.0
 48
0.0
 71
               0
 72
               0
 73
               1
 74
               1
 75
               0
 76
               0
 77
               0
 78
               0
140
0.18
141
0.09
142
0.0
143
25.399999999999999
144
1.0
145
0.0
146
1.0
147
0.09
170
               0
171
               2
172
               0
173
               0
174
               0
175
               0
176
               0
177
               0
178
               0
270
               2
271
               4
272
               4
273
               2
274
               2
275
               0
280
               0
281
               0
282
               0
283
               1
284
               0
285
               0
286
               0
287
               0
288
               0
340
17
  0
DIMSTYLE
105
4F
100
AcDbSymbolTableRecord
100
AcDbDimStyleTableRecord
  2
CAD
 70
               0
  3
<>
  4
[]
  5
VW_OPENARROW
  6

  7

 40
1.0
 41
31.75
 42
9.9999999627470952
 43
7.9999999938532707
 44
19.99999992549419
 45
0.0
 46
0.0
 47
0.0
 48
0.0
 71
               0
 72
               0
 73
               0
 74
               0
 75
               0
 76
               0
 77
               1
 78
              11
140
33.86768
141
0.0
142
0.0
143
1.0
144
1.0
145
0.0
146
0.7
147
0.099999999627471
170
               0
171
               1
172
               1
173
               0
174
               1
175
               0
176
               0
177
               0
178
               0
270
               2
271
               4
272
               4
273
               2
274
               2
275
               0
280
               0
281
               0
282
               0
283
               1
284
              11
285
              11
286
              11
287
               0
288
               0
340
3C
  0
ENDTAB
  0
TABLE
  2
BLOCK_RECORD
  5
1
100
AcDbSymbolTable
 70
              32
  0
BLOCK_RECORD
  5
A
100
AcDbSymbolTableRecord
100
AcDbBlockTableRecord
  2
*MODEL_SPACE
  0
BLOCK_RECORD
  5
B
100
AcDbSymbolTableRecord
100
AcDbBlockTableRecord
  2
*PAPER_SPACE
  0
BLOCK_RECORD
  5
49
100
AcDbSymbolTableRecord
100
AcDbBlockTableRecord
  2
VW_OPENARROW
  0
BLOCK_RECORD
  5
1D
100
AcDbSymbolTableRecord
100
AcDbBlockTableRecord
  2
*U1
  0
BLOCK_RECORD
  5
1E
100
AcDbSymbolTableRecord
100
AcDbBlockTableRecord
  2
*U2
  0
BLOCK_RECORD
  5
1F
100
AcDbSymbolTableRecord
100
AcDbBlockTableRecord
  2
*U3
  0
BLOCK_RECORD
  5
20
100
AcDbSymbolTableRecord
100
AcDbBlockTableRecord
  2
*U4
  0
BLOCK_RECORD
  5
21
100
AcDbSymbolTableRecord
100
AcDbBlockTableRecord
  2
*U5
  0
BLOCK_RECORD
  5
22
100
AcDbSymbolTableRecord
100
AcDbBlockTableRecord
  2
*U6
  0
BLOCK_RECORD
  5
23
100
AcDbSymbolTableRecord
100
AcDbBlockTableRecord
  2
*U7
  0
BLOCK_RECORD
  5
24
100
AcDbSymbolTableRecord
100
AcDbBlockTableRecord
  2
*U8
  0
BLOCK_RECORD
  5
25
100
AcDbSymbolTableRecord
100
AcDbBlockTableRecord
  2
*U9
  0
BLOCK_RECORD
  5
26
100
AcDbSymbolTableRecord
100
AcDbBlockTableRecord
  2
*U10
  0
BLOCK_RECORD
  5
27
100
AcDbSymbolTableRecord
100
AcDbBlockTableRecord
  2
*D11
  0
BLOCK_RECORD
  5
28
100
AcDbSymbolTableRecord
100
AcDbBlockTableRecord
  2
*D12
  0
BLOCK_RECORD
  5
29
100
AcDbSymbolTableRecord
100
AcDbBlockTableRecord
  2
*D13
  0
BLOCK_RECORD
  5
2A
100
AcDbSymbolTableRecord
100
AcDbBlockTableRecord
  2
*D14
  0
BLOCK_RECORD
  5
2B
100
AcDbSymbolTableRecord
100
AcDbBlockTableRecord
  2
*D15
  0
BLOCK_RECORD
  5
2C
100
AcDbSymbolTableRecord
100
AcDbBlockTableRecord
  2
*D16
  0
BLOCK_RECORD
  5
2D
100
AcDbSymbolTableRecord
100
AcDbBlockTableRecord
  2
*D17
  0
BLOCK_RECORD
  5
2E
100
AcDbSymbolTableRecord
100
AcDbBlockTableRecord
  2
*D18
  0
BLOCK_RECORD
  5
2F
100
AcDbSymbolTableRecord
100
AcDbBlockTableRecord
  2
*D19
  0
BLOCK_RECORD
  5
30
100
AcDbSymbolTableRecord
100
AcDbBlockTableRecord
  2
*D20
  0
BLOCK_RECORD
  5
31
100
AcDbSymbolTableRecord
100
AcDbBlockTableRecord
  2
*D21
  0
BLOCK_RECORD
  5
32
100
AcDbSymbolTableRecord
100
AcDbBlockTableRecord
  2
*D22
  0
BLOCK_RECORD
  5
33
100
AcDbSymbolTableRecord
100
AcDbBlockTableRecord
  2
*D23
  0
BLOCK_RECORD
  5
34
100
AcDbSymbolTableRecord
100
AcDbBlockTableRecord
  2
*D24
  0
BLOCK_RECORD
  5
35
100
AcDbSymbolTableRecord
100
AcDbBlockTableRecord
  2
*D25
  0
BLOCK_RECORD
  5
36
100
AcDbSymbolTableRecord
100
AcDbBlockTableRecord
  2
*U26
  0
BLOCK_RECORD
  5
37
100
AcDbSymbolTableRecord
100
AcDbBlockTableRecord
  2
*U27
  0
BLOCK_RECORD
  5
38
100
AcDbSymbolTableRecord
100
AcDbBlockTableRecord
  2
*U28
  0
BLOCK_RECORD
  5
39
100
AcDbSymbolTableRecord
100
AcDbBlockTableRecord
  2
*U29
  0
BLOCK_RECORD
  5
3A
100
AcDbSymbolTableRecord
100
AcDbBlockTableRecord
  2
*U30
  0
BLOCK_RECORD
  5
3B
100
AcDbSymbolTableRecord
100
AcDbBlockTableRecord
  2
*U31
  0
ENDTAB
  0
ENDSEC
  0
SECTION
  2
BLOCKS
  0
BLOCK
  5
D
100
AcDbEntity
  8
0
100
AcDbBlockBegin
  2
*MODEL_SPACE
 70
               0
 10
0.0
 20
0.0
 30
0.0
  3
*MODEL_SPACE
  1

  0
ENDBLK
  5
E
100
AcDbEntity
  8
0
100
AcDbBlockEnd
  0
BLOCK
  5
F
100
AcDbEntity
 67
               1
  8
0
100
AcDbBlockBegin
  2
*PAPER_SPACE
 70
               0
 10
0.0
 20
0.0
 30
0.0
  3
*PAPER_SPACE
  1

  0
ENDBLK
  5
10
100
AcDbEntity
 67
               1
  8
0
100
AcDbBlockEnd
  0
BLOCK
  5
4A
100
AcDbEntity
  8
0
  6
BYBLOCK
 62
               0
100
AcDbBlockBegin
  2
VW_OPENARROW
 70
               0
 10
0.0
 20
0.0
 30
0.0
  3
VW_OPENARROW
  1

  0
LINE
  5
4B
100
AcDbEntity
  8
0
  6
BYBLOCK
 62
               0
100
AcDbLine
 10
0.0
 20
0.0
 30
0.0
 11
-1.0
 21
0.0
 31
0.0
  0
LINE
  5
4C
100
AcDbEntity
  8
0
  6
BYBLOCK
 62
               0
100
AcDbLine
 10
0.0
 20
0.0
 30
0.0
 11
-0.9921874999999999
 21
-0.2658558393652545
 31
0.0
  0
LINE
  5
4D
100
AcDbEntity
  8
0
  6
BYBLOCK
 62
               0
100
AcDbLine
 10
0.0
 20
0.0
 30
0.0
 11
-0.9921874999999999
 21
0.2658558393652548
 31
0.0
  0
ENDBLK
  5
4E
100
AcDbEntity
  8
0
100
AcDbBlockEnd
  0
BLOCK
  5
59
100
AcDbEntity
  8
CENTER
100
AcDbBlockBegin
  2
*U1
 70
               1
 10
0.0
 20
0.0
 30
0.0
  3
*U1
  1

  0
LINE
  5
5A
100
AcDbEntity
  8
CENTER
 62
               4
100
AcDbLine
 10
-1031.0
 20
443.99999999999989
 30
0.0
 11
-1029.0
 21
443.99999999999989
 31
0.0
  0
LINE
  5
5B
100
AcDbEntity
  8
CENTER
 62
               4
100
AcDbLine
 10
-1030.0
 20
442.99999999999989
 30
0.0
 11
-1030.0
 21
444.99999999999989
 31
0.0
  0
LINE
  5
5C
100
AcDbEntity
  8
CENTER
 62
               4
100
AcDbLine
 10
-1068.0
 20
443.99999999999989
 30
0.0
 11
-1033.0
 21
443.99999999999989
 31
0.0
  0
LINE
  5
5D
100
AcDbEntity
  8
CENTER
 62
               4
100
AcDbLine
 10
-1027.0
 20
443.99999999999989
 30
0.0
 11
-991.99999999999989
 21
443.99999999999989
 31
0.0
  0
LINE
  5
5E
100
AcDbEntity
  8
CENTER
 62
               4
100
AcDbLine
 10
-1030.0
 20
481.99999999999989
 30
0.0
 11
-1030.0
 21
446.99999999999989
 31
0.0
  0
LINE
  5
5F
100
AcDbEntity
  8
CENTER
 62
               4
100
AcDbLine
 10
-1030.0
 20
440.99999999999989
 30
0.0
 11
-1030.0
 21
405.99999999999989
 31
0.0
  0
ENDBLK
  5
60
100
AcDbEntity
  8
CENTER
100
AcDbBlockEnd
  0
BLOCK
  5
61
100
AcDbEntity
  8
CENTER
100
AcDbBlockBegin
  2
*U2
 70
               1
 10
0.0
 20
0.0
 30
0.0
  3
*U2
  1

  0
LINE
  5
62
100
AcDbEntity
  8
CENTER
 62
               4
100
AcDbLine
 10
-824.99999999999989
 20
443.99999999999989
 30
0.0
 11
-822.99999999999989
 21
443.99999999999989
 31
0.0
  0
LINE
  5
63
100
AcDbEntity
  8
CENTER
 62
               4
100
AcDbLine
 10
-823.99999999999989
 20
442.99999999999989
 30
0.0
 11
-823.99999999999989
 21
444.99999999999989
 31
0.0
  0
LINE
  5
64
100
AcDbEntity
  8
CENTER
 62
               4
100
AcDbLine
 10
-861.99999999999989
 20
443.99999999999989
 30
0.0
 11
-826.99999999999989
 21
443.99999999999989
 31
0.0
  0
LINE
  5
65
100
AcDbEntity
  8
CENTER
 62
               4
100
AcDbLine
 10
-820.99999999999989
 20
443.99999999999989
 30
0.0
 11
-785.99999999999989
 21
443.99999999999989
 31
0.0
  0
LINE
  5
66
100
AcDbEntity
  8
CENTER
 62
               4
100
AcDbLine
 10
-823.99999999999989
 20
481.99999999999989
 30
0.0
 11
-823.99999999999989
 21
446.99999999999989
 31
0.0
  0
LINE
  5
67
100
AcDbEntity
  8
CENTER
 62
               4
100
AcDbLine
 10
-823.99999999999989
 20
440.99999999999989
 30
0.0
 11
-823.99999999999989
 21
405.99999999999989
 31
0.0
  0
ENDBLK
  5
68
100
AcDbEntity
  8
CENTER
100
AcDbBlockEnd
  0
BLOCK
  5
69
100
AcDbEntity
  8
CENTER
100
AcDbBlockBegin
  2
*U3
 70
               1
 10
0.0
 20
0.0
 30
0.0
  3
*U3
  1

  0
LINE
  5
6A
100
AcDbEntity
  8
CENTER
 62
               4
100
AcDbLine
 10
-915.99999999999989
 20
553.99999999999989
 30
0.0
 11
-913.99999999999989
 21
553.99999999999989
 31
0.0
  0
LINE
  5
6B
100
AcDbEntity
  8
CENTER
 62
               4
100
AcDbLine
 10
-914.99999999999989
 20
552.99999999999989
 30
0.0
 11
-914.99999999999989
 21
554.99999999999989
 31
0.0
  0
LINE
  5
6C
100
AcDbEntity
  8
CENTER
 62
               4
100
AcDbLine
 10
-933.99999999999989
 20
553.99999999999989
 30
0.0
 11
-917.99999999999989
 21
553.99999999999989
 31
0.0
  0
LINE
  5
6D
100
AcDbEntity
  8
CENTER
 62
               4
100
AcDbLine
 10
-911.99999999999989
 20
553.99999999999989
 30
0.0
 11
-895.99999999999989
 21
553.99999999999989
 31
0.0
  0
LINE
  5
6E
100
AcDbEntity
  8
CENTER
 62
               4
100
AcDbLine
 10
-914.99999999999989
 20
572.99999999999989
 30
0.0
 11
-914.99999999999989
 21
556.99999999999989
 31
0.0
  0
LINE
  5
6F
100
AcDbEntity
  8
CENTER
 62
               4
100
AcDbLine
 10
-914.99999999999989
 20
550.99999999999989
 30
0.0
 11
-914.99999999999989
 21
534.99999999999989
 31
0.0
  0
ENDBLK
  5
70
100
AcDbEntity
  8
CENTER
100
AcDbBlockEnd
  0
BLOCK
  5
71
100
AcDbEntity
  8
CENTER
100
AcDbBlockBegin
  2
*U4
 70
               1
 10
0.0
 20
0.0
 30
0.0
  3
*U4
  1

  0
LINE
  5
72
100
AcDbEntity
  8
CENTER
 62
               4
100
AcDbLine
 10
-1035.0
 20
593.99999999999989
 30
0.0
 11
-984.99999999999989
 21
593.99999999999989
 31
0.0
  0
LINE
  5
73
100
AcDbEntity
  8
CENTER
 62
               4
100
AcDbLine
 10
-1009.9999999999999
 20
568.99999999999989
 30
0.0
 11
-1009.9999999999999
 21
618.99999999999989
 31
0.0
  0
ENDBLK
  5
74
100
AcDbEntity
  8
CENTER
100
AcDbBlockEnd
  0
BLOCK
  5
75
100
AcDbEntity
  8
OBJECT
100
AcDbBlockBegin
  2
*U5
 70
               1
 10
0.0
 20
0.0
 30
0.0
  3
*U5
  1

  0
LWPOLYLINE
  5
76
100
AcDbEntity
  8
OBJECT
 62
               7
100
AcDbPolyline
 90
        7
 70
             129
 10
-1327.9999999999998
 20
617.99999999999989
 10
-1327.9999999999998
 20
270.0
 10
-987.99999999999989
 20
270.0
 10
-987.99999999999989
 20
577.99999999999989
 10
-1023.0
 20
577.99999999999989
 42
-0.4142135623731018
 10
-1028.0
 20
582.99999999999989
 10
-1028.0
 20
617.99999999999989
  0
LWPOLYLINE
  5
77
100
AcDbEntity
  8
OBJECT
 62
               7
100
AcDbPolyline
 90
        7
 70
             129
 10
-1327.9999999999998
 20
605.99999999999989
 10
-1327.9999999999998
 20
282.0
 10
-987.99999999999989
 20
282.0
 10
-987.99999999999989
 20
577.99999999999989
 10
-1023.0
 20
577.99999999999989
 42
-0.4142135623731018
 10
-1028.0
 20
582.99999999999989
 10
-1028.0
 20
605.99999999999989
  0
LWPOLYLINE
  5
78
100
AcDbEntity
  8
OBJECT
 62
               7
100
AcDbPolyline
 90
        5
 70
             129
 10
-1311.9999999999998
 20
363.99999999999994
 42
-0.4142135623730948
 10
-1245.0
 20
430.99999999999989
 42
-0.414213562373095
 10
-1178.0
 20
363.99999999999989
 42
-0.4142135623730946
 10
-1245.0
 20
297.0
 42
-0.414213562373095
 10
-1311.9999999999998
 20
363.99999999999994
 42
-0.414213562373095
  0
LWPOLYLINE
  5
79
100
AcDbEntity
  8
OBJECT
 62
               7
100
AcDbPolyline
 90
        5
 70
             129
 10
-1311.9999999999998
 20
523.99999999999989
 42
-0.414213562373095
 10
-1245.0
 20
590.99999999999989
 42
-0.414213562373095
 10
-1178.0
 20
523.99999999999977
 42
-0.414213562373095
 10
-1245.0
 20
456.99999999999989
 42
-0.414213562373094
 10
-1311.9999999999998
 20
523.99999999999989
 42
-0.414213562373094
  0
LWPOLYLINE
  5
7A
100
AcDbEntity
  8
OBJECT
 62
               7
100
AcDbPolyline
 90
        5
 70
             129
 10
-1152.0
 20
523.99999999999989
 42
-0.414213562373095
 10
-1085.0
 20
590.99999999999989
 42
-0.414213562373095
 10
-1017.9999999999999
 20
523.99999999999989
 42
-0.414213562373095
 10
-1085.0
 20
456.99999999999989
 42
-0.414213562373095
 10
-1152.0
 20
523.99999999999989
 42
-0.414213562373095
  0
LWPOLYLINE
  5
7B
100
AcDbEntity
  8
OBJECT
 62
               7
100
AcDbPolyline
 90
        5
 70
             129
 10
-1152.0
 20
363.99999999999994
 42
-0.4142135623730948
 10
-1085.0
 20
430.99999999999989
 42
-0.414213562373095
 10
-1017.9999999999999
 20
363.99999999999994
 42
-0.4142135623730948
 10
-1085.0
 20
297.0
 42
-0.414213562373095
 10
-1152.0
 20
363.99999999999994
 42
-0.414213562373095
  0
ENDBLK
  5
7C
100
AcDbEntity
  8
OBJECT
100
AcDbBlockEnd
  0
BLOCK
  5
7D
100
AcDbEntity
  8
OBJECT
100
AcDbBlockBegin
  2
*U6
 70
               1
 10
0.0
 20
0.0
 30
0.0
  3
*U6
  1

  0
POLYLINE
  5
7E
100
AcDbEntity
  8
OBJECT
 62
               7
100
AcDb2dPolyline
 66
               1
 10
0.0
 20
0.0
 30
0.0
 70
               1
 75
               5
  0
VERTEX
  5
7F
100
AcDbEntity
  8
OBJECT
 62
               7
100
AcDbVertex
100
AcDb2dVertex
 10
-982.99999999999989
 20
605.99999999999989
 30
0.0
  0
VERTEX
  5
80
100
AcDbEntity
  8
OBJECT
 62
               7
100
AcDbVertex
100
AcDb2dVertex
 10
-782.99999999999989
 20
605.99999999999989
 30
0.0
  0
VERTEX
  5
81
100
AcDbEntity
  8
OBJECT
 62
               7
100
AcDbVertex
100
AcDb2dVertex
 10
-782.99999999999989
 20
282.0
 30
0.0
  0
VERTEX
  5
82
100
AcDbEntity
  8
OBJECT
 62
               7
100
AcDbVertex
100
AcDb2dVertex
 10
-982.99999999999989
 20
282.0
 30
0.0
  0
SEQEND
  5
83
100
AcDbEntity
  8
OBJECT
 62
               7
  0
LWPOLYLINE
  5
84
100
AcDbEntity
  8
OBJECT
 62
               7
100
AcDbPolyline
 90
        5
 70
             129
 10
-961.99999999999989
 20
523.99999999999989
 42
-0.414213562373095
 10
-894.99999999999989
 20
590.99999999999989
 42
-0.414213562373095
 10
-827.99999999999989
 20
523.99999999999989
 42
-0.414213562373095
 10
-894.99999999999989
 20
456.99999999999989
 42
-0.414213562373095
 10
-961.99999999999989
 20
523.99999999999989
 42
-0.414213562373095
  0
LWPOLYLINE
  5
85
100
AcDbEntity
  8
OBJECT
 62
               7
100
AcDbPolyline
 90
        5
 70
             129
 10
-961.99999999999989
 20
363.99999999999994
 42
-0.4142135623730943
 10
-894.99999999999989
 20
430.99999999999989
 42
-0.4142135623730955
 10
-827.99999999999989
 20
363.99999999999994
 42
-0.4142135623730943
 10
-894.99999999999989
 20
297.0
 42
-0.4142135623730955
 10
-961.99999999999989
 20
363.99999999999994
 42
-0.4142135623730955
  0
ENDBLK
  5
86
100
AcDbEntity
  8
OBJECT
100
AcDbBlockEnd
  0
BLOCK
  5
87
100
AcDbEntity
  8
OBJECT
100
AcDbBlockBegin
  2
*U7
 70
               1
 10
0.0
 20
0.0
 30
0.0
  3
*U7
  1

  0
LWPOLYLINE
  5
88
100
AcDbEntity
  8
OBJECT
 62
               7
100
AcDbPolyline
 90
        6
 70
             129
 10
864.49999999999989
 20
-1140.0
 10
899.49999999999989
 20
-1140.0
 10
899.49999999999989
 20
-1180.0
 42
-0.414213562373095
 10
894.49999999999989
 20
-1185.0
 10
869.49999999999989
 20
-1185.0
 42
-0.4142135623730884
 10
864.49999999999989
 20
-1180.0
  0
LWPOLYLINE
  5
89
100
AcDbEntity
  8
OBJECT
 62
               7
100
AcDbPolyline
 90
       12
 70
             129
 10
844.49999999999989
 20
-1038.0
 10
846.87297945872342
 20
-1038.0
 42
-0.3858711978005422
 10
850.85389355920336
 20
-1041.6097143038746
 10
860.14610644079642
 20
-1136.3902856961254
 42
0.3858711978005496
 10
864.12702054127635
 20
-1140.0
 10
899.87297945872342
 20
-1140.0
 42
0.3858711978005658
 10
903.85389355920336
 20
-1136.3902856961254
 10
913.14610644079653
 20
-1041.6097143038744
 42
-0.3858711978005496
 10
917.12702054127647
 20
-1038.0
 10
919.49999999999989
 20
-1038.0
 10
919.49999999999989
 20
-1035.0
 10
844.49999999999989
 20
-1035.0
  0
LINE
  5
8A
100
AcDbEntity
  8
OBJECT
 62
               7
100
AcDbLine
 10
846.49999999999989
 20
-1038.0
 30
0.0
 11
917.49999999999989
 21
-1038.0
 31
0.0
  0
LINE
  5
8B
100
AcDbEntity
  8
OBJECT
 62
               7
100
AcDbLine
 10
890.49999999999989
 20
-1183.0
 30
0.0
 11
890.49999999999989
 21
-1166.0
 31
0.0
  0
LINE
  5
8C
100
AcDbEntity
  8
OBJECT
 62
               7
100
AcDbLine
 10
872.99999999999989
 20
-1183.0
 30
0.0
 11
872.99999999999989
 21
-1166.0
 31
0.0
  0
SPLINE
  5
8D
100
AcDbEntity
  8
OBJECT
 62
               7
100
AcDbSpline
210
0.0
220
0.0
230
1.0
 70
               8
 71
               2
 72
              10
 73
               7
 74
               0
 42
0.000001
 43
0.000001
 40
0.0
 40
0.0
 40
0.0
 40
0.2391095954640664
 40
0.2391095954640664
 40
0.7708424925849841
 40
0.7708424925849841
 40
1.0
 40
1.0
 40
1.0
 10
865.49999999999989
 20
-1163.0
 30
0.0
 10
867.49999999999989
 20
-1162.0
 30
0.0
 10
872.99999999999989
 20
-1166.0
 30
0.0
 10
881.99999999999989
 20
-1160.5
 30
0.0
 10
890.49999999999989
 20
-1166.0
 30
0.0
 10
894.49999999999989
 20
-1162.0
 30
0.0
 10
897.49999999999989
 20
-1163.0
 30
0.0
  0
ENDBLK
  5
8E
100
AcDbEntity
  8
OBJECT
100
AcDbBlockEnd
  0
BLOCK
  5
8F
100
AcDbEntity
  8
OBJECT
100
AcDbBlockBegin
  2
*U8
 70
               1
 10
0.0
 20
0.0
 30
0.0
  3
*U8
  1

  0
POLYLINE
  5
90
100
AcDbEntity
  8
OBJECT
 62
               7
100
AcDb2dPolyline
 66
               1
 10
0.0
 20
0.0
 30
0.0
 70
               1
 75
               5
  0
VERTEX
  5
91
100
AcDbEntity
  8
OBJECT
 62
               7
100
AcDbVertex
100
AcDb2dVertex
 10
990.99999999999989
 20
-1035.0
 30
0.0
  0
VERTEX
  5
92
100
AcDbEntity
  8
OBJECT
 62
               7
100
AcDbVertex
100
AcDb2dVertex
 10
1039.0
 20
-1035.0
 30
0.0
  0
VERTEX
  5
93
100
AcDbEntity
  8
OBJECT
 62
               7
100
AcDbVertex
100
AcDb2dVertex
 10
1039.0
 20
-1055.0
 30
0.0
  0
VERTEX
  5
94
100
AcDbEntity
  8
OBJECT
 62
               7
100
AcDbVertex
100
AcDb2dVertex
 10
1036.5
 20
-1075.0
 30
0.0
  0
VERTEX
  5
95
100
AcDbEntity
  8
OBJECT
 62
               7
100
AcDbVertex
100
AcDb2dVertex
 10
993.49999999999989
 20
-1075.0
 30
0.0
  0
VERTEX
  5
96
100
AcDbEntity
  8
OBJECT
 62
               7
100
AcDbVertex
100
AcDb2dVertex
 10
990.99999999999989
 20
-1055.0
 30
0.0
  0
SEQEND
  5
97
100
AcDbEntity
  8
OBJECT
 62
               7
  0
LINE
  5
98
100
AcDbEntity
  8
OBJECT
 62
               7
100
AcDbLine
 10
990.99999999999989
 20
-1055.0
 30
0.0
 11
1039.0
 21
-1055.0
 31
0.0
  0
LINE
  5
99
100
AcDbEntity
  8
OBJECT
 62
               7
100
AcDbLine
 10
996.49999999999989
 20
-1075.0
 30
0.0
 11
993.99999999999989
 21
-1055.0
 31
0.0
  0
LINE
  5
9A
100
AcDbEntity
  8
OBJECT
 62
               7
100
AcDbLine
 10
1033.5
 20
-1075.0
 30
0.0
 11
1036.0
 21
-1055.0
 31
0.0
  0
ENDBLK
  5
9B
100
AcDbEntity
  8
OBJECT
100
AcDbBlockEnd
  0
BLOCK
  5
9C
100
AcDbEntity
  8
OBJECT
100
AcDbBlockBegin
  2
*U9
 70
               1
 10
0.0
 20
0.0
 30
0.0
  3
*U9
  1

  0
POLYLINE
  5
9D
100
AcDbEntity
  8
OBJECT
 62
               7
100
AcDb2dPolyline
 66
               1
 10
0.0
 20
0.0
 30
0.0
 70
               1
 75
               5
  0
VERTEX
  5
9E
100
AcDbEntity
  8
OBJECT
 62
               7
100
AcDbVertex
100
AcDb2dVertex
 10
1084.0
 20
-1035.0
 30
0.0
  0
VERTEX
  5
9F
100
AcDbEntity
  8
OBJECT
 62
               7
100
AcDbVertex
100
AcDb2dVertex
 10
1106.0
 20
-1035.0
 30
0.0
  0
VERTEX
  5
A0
100
AcDbEntity
  8
OBJECT
 62
               7
100
AcDbVertex
100
AcDb2dVertex
 10
1106.0
 20
-1047.0
 30
0.0
  0
VERTEX
  5
A1
100
AcDbEntity
  8
OBJECT
 62
               7
100
AcDbVertex
100
AcDb2dVertex
 10
1104.0
 20
-1059.0
 30
0.0
  0
VERTEX
  5
A2
100
AcDbEntity
  8
OBJECT
 62
               7
100
AcDbVertex
100
AcDb2dVertex
 10
1086.0
 20
-1059.0
 30
0.0
  0
VERTEX
  5
A3
100
AcDbEntity
  8
OBJECT
 62
               7
100
AcDbVertex
100
AcDb2dVertex
 10
1084.0
 20
-1047.0
 30
0.0
  0
SEQEND
  5
A4
100
AcDbEntity
  8
OBJECT
 62
               7
  0
LINE
  5
A5
100
AcDbEntity
  8
OBJECT
 62
               7
100
AcDbLine
 10
1084.0
 20
-1047.0
 30
0.0
 11
1106.0
 21
-1047.0
 31
0.0
  0
LINE
  5
A6
100
AcDbEntity
  8
OBJECT
 62
               7
100
AcDbLine
 10
1088.0
 20
-1059.0
 30
0.0
 11
1086.0
 21
-1047.0
 31
0.0
  0
LINE
  5
A7
100
AcDbEntity
  8
OBJECT
 62
               7
100
AcDbLine
 10
1102.0
 20
-1059.0
 30
0.0
 11
1104.0
 21
-1047.0
 31
0.0
  0
ENDBLK
  5
A8
100
AcDbEntity
  8
OBJECT
100
AcDbBlockEnd
  0
BLOCK
  5
A9
100
AcDbEntity
  8
OBJECT
100
AcDbBlockBegin
  2
*U10
 70
               1
 10
0.0
 20
0.0
 30
0.0
  3
*U10
  1

  0
LWPOLYLINE
  5
AA
100
AcDbEntity
  8
OBJECT
 62
               7
100
AcDbPolyline
 90
        6
 70
             129
 10
1130.5
 20
-1140.0
 10
1165.5
 20
-1140.0
 10
1165.5
 20
-1180.0
 42
-0.414213562373095
 10
1160.5
 20
-1185.0
 10
1135.5
 20
-1185.0
 42
-0.414213562373095
 10
1130.5
 20
-1180.0
  0
LWPOLYLINE
  5
AB
100
AcDbEntity
  8
OBJECT
 62
               7
100
AcDbPolyline
 90
       12
 70
             129
 10
1110.5
 20
-1038.0
 10
1112.8729794587234
 20
-1038.0
 42
-0.3858711978005813
 10
1116.8538935592032
 20
-1041.6097143038746
 10
1126.1461064407965
 20
-1136.3902856961254
 42
0.3858711978005489
 10
1130.1270205412764
 20
-1140.0
 10
1165.8729794587236
 20
-1140.0
 42
0.3858711978005813
 10
1169.8538935592035
 20
-1136.3902856961254
 10
1179.1461064407965
 20
-1041.6097143038746
 42
-0.385871197800565
 10
1183.1270205412764
 20
-1038.0
 10
1185.5
 20
-1038.0
 10
1185.5
 20
-1035.0
 10
1110.5
 20
-1035.0
  0
LINE
  5
AC
100
AcDbEntity
  8
OBJECT
 62
               7
100
AcDbLine
 10
1112.5
 20
-1038.0
 30
0.0
 11
1183.5
 21
-1038.0
 31
0.0
  0
LINE
  5
AD
100
AcDbEntity
  8
OBJECT
 62
               7
100
AcDbLine
 10
1156.5
 20
-1183.0
 30
0.0
 11
1156.5
 21
-1166.0
 31
0.0
  0
LINE
  5
AE
100
AcDbEntity
  8
OBJECT
 62
               7
100
AcDbLine
 10
1139.0
 20
-1183.0
 30
0.0
 11
1139.0
 21
-1166.0
 31
0.0
  0
SPLINE
  5
AF
100
AcDbEntity
  8
OBJECT
 62
               7
100
AcDbSpline
210
0.0
220
0.0
230
1.0
 70
               8
 71
               2
 72
              10
 73
               7
 74
               0
 42
0.000001
 43
0.000001
 40
0.0
 40
0.0
 40
0.0
 40
0.2391095954640664
 40
0.2391095954640664
 40
0.7708424925849841
 40
0.7708424925849841
 40
1.0
 40
1.0
 40
1.0
 10
1131.5
 20
-1163.0
 30
0.0
 10
1133.5
 20
-1162.0
 30
0.0
 10
1139.0
 20
-1166.0
 30
0.0
 10
1148.0
 20
-1160.5
 30
0.0
 10
1156.5
 20
-1166.0
 30
0.0
 10
1160.5
 20
-1162.0
 30
0.0
 10
1163.5
 20
-1163.0
 30
0.0
  0
ENDBLK
  5
B0
100
AcDbEntity
  8
OBJECT
100
AcDbBlockEnd
  0
BLOCK
  5
B1
100
AcDbEntity
  8
DIMENTION
100
AcDbBlockBegin
  2
*D11
 70
               1
 10
0.0
 20
0.0
 30
0.0
  3
*D11
  1

  0
LINE
  5
B2
100
AcDbEntity
  8
DIMENTION
 62
               0
100
AcDbLine
 10
-973.59999996729812
 20
375.00000000318391
 30
0.0
 11
-1006.4359999300452
 21
375.00000000318391
 31
0.0
  0
LINE
  5
B3
100
AcDbEntity
  8
DIMENTION
 62
               0
100
AcDbLine
 10
-973.59999996729812
 20
249.00000000318391
 30
0.0
 11
-1006.4359999300452
 21
249.00000000318391
 31
0.0
  0
LINE
  5
B4
100
AcDbEntity
  8
DIMENTION
 62
               0
100
AcDbLine
 10
-986.43600000455103
 20
375.00000000318391
 30
0.0
 11
-986.43600000455103
 21
249.00000000318391
 31
0.0
  0
LINE
  5
B5
100
AcDbEntity
  8
DIMENTION
 62
               0
100
AcDbLine
 10
-986.43600000455103
 20
375.00000000318391
 30
0.0
 11
-977.92861314486299
 21
343.25000000318391
 31
0.0
  0
LINE
  5
B6
100
AcDbEntity
  8
DIMENTION
 62
               0
100
AcDbLine
 10
-986.43600000455103
 20
375.00000000318391
 30
0.0
 11
-994.94338686423907
 21
343.25000000318391
 31
0.0
  0
LINE
  5
B7
100
AcDbEntity
  8
DIMENTION
 62
               0
100
AcDbLine
 10
-986.43600000455103
 20
249.00000000318391
 30
0.0
 11
-994.94338686423907
 21
280.75000000318391
 31
0.0
  0
LINE
  5
B8
100
AcDbEntity
  8
DIMENTION
 62
               0
100
AcDbLine
 10
-986.43600000455103
 20
249.00000000318391
 30
0.0
 11
-977.92861314486299
 21
280.75000000318391
 31
0.0
  0
POINT
  5
B9
100
AcDbEntity
  8
DEFPOINTS
 62
               0
100
AcDbPoint
 10
-963.60000000455102
 20
249.00000000318391
 30
0.0
  0
POINT
  5
BA
100
AcDbEntity
  8
DEFPOINTS
 62
               0
100
AcDbPoint
 10
-963.60000000455102
 20
375.00000000318391
 30
0.0
  0
POINT
  5
BB
100
AcDbEntity
  8
DEFPOINTS
 62
               0
100
AcDbPoint
 10
-986.43600000455103
 20
375.00000000318391
 30
0.0
  0
ENDBLK
  5
BC
100
AcDbEntity
  8
DIMENTION
100
AcDbBlockEnd
  0
BLOCK
  5
BD
100
AcDbEntity
  8
DIMENTION
100
AcDbBlockBegin
  2
*D12
 70
               1
 10
0.0
 20
0.0
 30
0.0
  3
*D12
  1

  0
LINE
  5
BE
100
AcDbEntity
  8
DIMENTION
 62
               0
100
AcDbLine
 10
-2935.6000000418039
 20
1988.0000000031837
 30
0.0
 11
-2574.6000000790568
 21
1988.0000000031837
 31
0.0
  0
LINE
  5
BF
100
AcDbEntity
  8
DIMENTION
 62
               0
100
AcDbLine
 10
-2756.6000000418039
 20
1878.0000000031837
 30
0.0
 11
-2574.6000000790568
 21
1878.0000000031837
 31
0.0
  0
LINE
  5
C0
100
AcDbEntity
  8
DIMENTION
 62
               0
100
AcDbLine
 10
-2594.600000004551
 20
1988.0000000031837
 30
0.0
 11
-2594.600000004551
 21
1878.0000000031837
 31
0.0
  0
LINE
  5
C1
100
AcDbEntity
  8
DIMENTION
 62
               0
100
AcDbLine
 10
-2594.600000004551
 20
1988.0000000031837
 30
0.0
 11
-2586.0926131448628
 21
1956.2500000031837
 31
0.0
  0
LINE
  5
C2
100
AcDbEntity
  8
DIMENTION
 62
               0
100
AcDbLine
 10
-2594.600000004551
 20
1988.0000000031837
 30
0.0
 11
-2603.1073868642393
 21
1956.2500000031837
 31
0.0
  0
LINE
  5
C3
100
AcDbEntity
  8
DIMENTION
 62
               0
100
AcDbLine
 10
-2594.600000004551
 20
1878.0000000031837
 30
0.0
 11
-2603.1073868642393
 21
1909.7500000031837
 31
0.0
  0
LINE
  5
C4
100
AcDbEntity
  8
DIMENTION
 62
               0
100
AcDbLine
 10
-2594.600000004551
 20
1878.0000000031837
 30
0.0
 11
-2586.0926131448628
 21
1909.7500000031837
 31
0.0
  0
MTEXT
  5
C5
100
AcDbEntity
  8
DIMENTION
 62
               0
100
AcDbMText
 10
-2637.9346000045512
 20
1901.2490512561847
 30
0.0
 40
33.86768
 41
0.0
 71
               1
 72
               1
  1
110
  7
________
 11
0.0
 21
1.0
 31
0.0
  0
POINT
  5
C6
100
AcDbEntity
  8
DEFPOINTS
 62
               0
100
AcDbPoint
 10
-2766.600000004551
 20
1878.0000000031837
 30
0.0
  0
POINT
  5
C7
100
AcDbEntity
  8
DEFPOINTS
 62
               0
100
AcDbPoint
 10
-2945.600000004551
 20
1988.0000000031837
 30
0.0
  0
POINT
  5
C8
100
AcDbEntity
  8
DEFPOINTS
 62
               0
100
AcDbPoint
 10
-2594.600000004551
 20
1988.0000000031837
 30
0.0
  0
ENDBLK
  5
C9
100
AcDbEntity
  8
DIMENTION
100
AcDbBlockEnd
  0
BLOCK
  5
CA
100
AcDbEntity
  8
DIMENTION
100
AcDbBlockBegin
  2
*D13
 70
               1
 10
0.0
 20
0.0
 30
0.0
  3
*D13
  1

  0
LINE
  5
CB
100
AcDbEntity
  8
DIMENTION
 62
               0
100
AcDbLine
 10
-2803.6000000418039
 20
2059.5000000031837
 30
0.0
 11
-2395.5999000790566
 21
2059.5000000031837
 31
0.0
  0
LINE
  5
CC
100
AcDbEntity
  8
DIMENTION
 62
               0
100
AcDbLine
 10
-2803.6000000418039
 20
1696.5000000031839
 30
0.0
 11
-2395.5999000790566
 21
1696.5000000031839
 31
0.0
  0
LINE
  5
CD
100
AcDbEntity
  8
DIMENTION
 62
               0
100
AcDbLine
 10
-2415.5999000045508
 20
2059.5000000031837
 30
0.0
 11
-2415.5999000045508
 21
1696.5000000031839
 31
0.0
  0
LINE
  5
CE
100
AcDbEntity
  8
DIMENTION
 62
               0
100
AcDbLine
 10
-2415.5999000045508
 20
2059.5000000031837
 30
0.0
 11
-2407.092513144863
 21
2027.7500000031837
 31
0.0
  0
LINE
  5
CF
100
AcDbEntity
  8
DIMENTION
 62
               0
100
AcDbLine
 10
-2415.5999000045508
 20
2059.5000000031837
 30
0.0
 11
-2424.1072868642391
 21
2027.7500000031837
 31
0.0
  0
LINE
  5
D0
100
AcDbEntity
  8
DIMENTION
 62
               0
100
AcDbLine
 10
-2415.5999000045508
 20
1696.5000000031839
 30
0.0
 11
-2424.1072868642391
 21
1728.2500000031839
 31
0.0
  0
LINE
  5
D1
100
AcDbEntity
  8
DIMENTION
 62
               0
100
AcDbLine
 10
-2415.5999000045508
 20
1696.5000000031839
 30
0.0
 11
-2407.092513144863
 21
1728.2500000031839
 31
0.0
  0
POINT
  5
D2
100
AcDbEntity
  8
DEFPOINTS
 62
               0
100
AcDbPoint
 10
-2813.600000004551
 20
1696.5000000031839
 30
0.0
  0
POINT
  5
D3
100
AcDbEntity
  8
DEFPOINTS
 62
               0
100
AcDbPoint
 10
-2813.600000004551
 20
2059.5000000031837
 30
0.0
  0
POINT
  5
D4
100
AcDbEntity
  8
DEFPOINTS
 62
               0
100
AcDbPoint
 10
-2415.5999000045508
 20
2059.5000000031837
 30
0.0
  0
ENDBLK
  5
D5
100
AcDbEntity
  8
DIMENTION
100
AcDbBlockEnd
  0
BLOCK
  5
D6
100
AcDbEntity
  8
DIMENTION
100
AcDbBlockBegin
  2
*D14
 70
               1
 10
0.0
 20
0.0
 30
0.0
  3
*D14
  1

  0
LINE
  5
D7
100
AcDbEntity
  8
DIMENTION
 62
               0
100
AcDbLine
 10
-2819.6000000418039
 20
2043.5000000031837
 30
0.0
 11
-2476.6000000790568
 21
2043.5000000031837
 31
0.0
  0
LINE
  5
D8
100
AcDbEntity
  8
DIMENTION
 62
               0
100
AcDbLine
 10
-2819.6000000418039
 20
1712.5000000031839
 30
0.0
 11
-2476.6000000790568
 21
1712.5000000031839
 31
0.0
  0
LINE
  5
D9
100
AcDbEntity
  8
DIMENTION
 62
               0
100
AcDbLine
 10
-2496.600000004551
 20
2043.5000000031837
 30
0.0
 11
-2496.600000004551
 21
1712.5000000031839
 31
0.0
  0
LINE
  5
DA
100
AcDbEntity
  8
DIMENTION
 62
               0
100
AcDbLine
 10
-2496.600000004551
 20
2043.5000000031837
 30
0.0
 11
-2488.0926131448628
 21
2011.7500000031837
 31
0.0
  0
LINE
  5
DB
100
AcDbEntity
  8
DIMENTION
 62
               0
100
AcDbLine
 10
-2496.600000004551
 20
2043.5000000031837
 30
0.0
 11
-2505.1073868642393
 21
2011.7500000031837
 31
0.0
  0
LINE
  5
DC
100
AcDbEntity
  8
DIMENTION
 62
               0
100
AcDbLine
 10
-2496.600000004551
 20
1712.5000000031839
 30
0.0
 11
-2505.1073868642393
 21
1744.2500000031839
 31
0.0
  0
LINE
  5
DD
100
AcDbEntity
  8
DIMENTION
 62
               0
100
AcDbLine
 10
-2496.600000004551
 20
1712.5000000031839
 30
0.0
 11
-2488.0926131448628
 21
1744.2500000031839
 31
0.0
  0
POINT
  5
DE
100
AcDbEntity
  8
DEFPOINTS
 62
               0
100
AcDbPoint
 10
-2829.600000004551
 20
1712.5000000031839
 30
0.0
  0
POINT
  5
DF
100
AcDbEntity
  8
DEFPOINTS
 62
               0
100
AcDbPoint
 10
-2829.600000004551
 20
2043.5000000031837
 30
0.0
  0
POINT
  5
E0
100
AcDbEntity
  8
DEFPOINTS
 62
               0
100
AcDbPoint
 10
-2496.600000004551
 20
2043.5000000031837
 30
0.0
  0
ENDBLK
  5
E1
100
AcDbEntity
  8
DIMENTION
100
AcDbBlockEnd
  0
BLOCK
  5
E2
100
AcDbEntity
  8
DIMENTION
100
AcDbBlockBegin
  2
*D15
 70
               1
 10
0.0
 20
0.0
 30
0.0
  3
*D15
  1

  0
LINE
  5
E3
100
AcDbEntity
  8
DIMENTION
 62
               0
100
AcDbLine
 10
-2813.600000004551
 20
2069.4999999659308
 30
0.0
 11
-2813.600000004551
 21
2241.9999999286779
 31
0.0
  0
LINE
  5
E4
100
AcDbEntity
  8
DIMENTION
 62
               0
100
AcDbLine
 10
-3079.600000004551
 20
1925.9999999659308
 30
0.0
 11
-3079.600000004551
 21
2241.9999999286779
 31
0.0
  0
LINE
  5
E5
100
AcDbEntity
  8
DIMENTION
 62
               0
100
AcDbLine
 10
-2813.600000004551
 20
2222.0000000031837
 30
0.0
 11
-3079.600000004551
 21
2222.0000000031837
 31
0.0
  0
LINE
  5
E6
100
AcDbEntity
  8
DIMENTION
 62
               0
100
AcDbLine
 10
-2813.600000004551
 20
2222.0000000031837
 30
0.0
 11
-2845.350000004551
 21
2213.4926131434959
 31
0.0
  0
LINE
  5
E7
100
AcDbEntity
  8
DIMENTION
 62
               0
100
AcDbLine
 10
-2813.600000004551
 20
2222.0000000031837
 30
0.0
 11
-2845.350000004551
 21
2230.507386862872
 31
0.0
  0
LINE
  5
E8
100
AcDbEntity
  8
DIMENTION
 62
               0
100
AcDbLine
 10
-3079.600000004551
 20
2222.0000000031837
 30
0.0
 11
-3047.850000004551
 21
2230.507386862872
 31
0.0
  0
LINE
  5
E9
100
AcDbEntity
  8
DIMENTION
 62
               0
100
AcDbLine
 10
-3079.600000004551
 20
2222.0000000031837
 30
0.0
 11
-3047.850000004551
 21
2213.4926131434959
 31
0.0
  0
POINT
  5
EA
100
AcDbEntity
  8
DEFPOINTS
 62
               0
100
AcDbPoint
 10
-3079.600000004551
 20
1916.0000000031837
 30
0.0
  0
POINT
  5
EB
100
AcDbEntity
  8
DEFPOINTS
 62
               0
100
AcDbPoint
 10
-2813.600000004551
 20
2059.5000000031837
 30
0.0
  0
POINT
  5
EC
100
AcDbEntity
  8
DEFPOINTS
 62
               0
100
AcDbPoint
 10
-2813.600000004551
 20
2222.0000000031837
 30
0.0
  0
ENDBLK
  5
ED
100
AcDbEntity
  8
DIMENTION
100
AcDbBlockEnd
  0
BLOCK
  5
EE
100
AcDbEntity
  8
DIMENTION
100
AcDbBlockBegin
  2
*D16
 70
               1
 10
0.0
 20
0.0
 30
0.0
  3
*D16
  1

  0
LINE
  5
EF
100
AcDbEntity
  8
DIMENTION
 62
               0
100
AcDbLine
 10
-2964.600000004551
 20
2016.9999999659308
 30
0.0
 11
-2964.600000004551
 21
2168.9999999286779
 31
0.0
  0
LINE
  5
F0
100
AcDbEntity
  8
DIMENTION
 62
               0
100
AcDbLine
 10
-2813.600000004551
 20
2069.4999999659308
 30
0.0
 11
-2813.600000004551
 21
2168.9999999286779
 31
0.0
  0
LINE
  5
F1
100
AcDbEntity
  8
DIMENTION
 62
               0
100
AcDbLine
 10
-2964.600000004551
 20
2149.0000000031837
 30
0.0
 11
-2813.600000004551
 21
2149.0000000031837
 31
0.0
  0
LINE
  5
F2
100
AcDbEntity
  8
DIMENTION
 62
               0
100
AcDbLine
 10
-2964.600000004551
 20
2149.0000000031837
 30
0.0
 11
-2932.850000004551
 21
2157.507386862872
 31
0.0
  0
LINE
  5
F3
100
AcDbEntity
  8
DIMENTION
 62
               0
100
AcDbLine
 10
-2964.600000004551
 20
2149.0000000031837
 30
0.0
 11
-2932.850000004551
 21
2140.4926131434959
 31
0.0
  0
LINE
  5
F4
100
AcDbEntity
  8
DIMENTION
 62
               0
100
AcDbLine
 10
-2813.600000004551
 20
2149.0000000031837
 30
0.0
 11
-2845.350000004551
 21
2140.4926131434959
 31
0.0
  0
LINE
  5
F5
100
AcDbEntity
  8
DIMENTION
 62
               0
100
AcDbLine
 10
-2813.600000004551
 20
2149.0000000031837
 30
0.0
 11
-2845.350000004551
 21
2157.507386862872
 31
0.0
  0
POINT
  5
F6
100
AcDbEntity
  8
DEFPOINTS
 62
               0
100
AcDbPoint
 10
-2813.600000004551
 20
2059.5000000031837
 30
0.0
  0
POINT
  5
F7
100
AcDbEntity
  8
DEFPOINTS
 62
               0
100
AcDbPoint
 10
-2964.600000004551
 20
2007.0000000031837
 30
0.0
  0
POINT
  5
F8
100
AcDbEntity
  8
DEFPOINTS
 62
               0
100
AcDbPoint
 10
-2964.600000004551
 20
2149.0000000031837
 30
0.0
  0
ENDBLK
  5
F9
100
AcDbEntity
  8
DIMENTION
100
AcDbBlockEnd
  0
BLOCK
  5
FA
100
AcDbEntity
  8
DIMENTION
100
AcDbBlockBegin
  2
*D17
 70
               1
 10
0.0
 20
0.0
 30
0.0
  3
*D17
  1

  0
LINE
  5
FB
100
AcDbEntity
  8
DIMENTION
 62
               0
100
AcDbLine
 10
-3389.5999999672977
 20
2043.0000000031837
 30
0.0
 11
-3502.435999930045
 21
2043.0000000031837
 31
0.0
  0
LINE
  5
FC
100
AcDbEntity
  8
DIMENTION
 62
               0
100
AcDbLine
 10
-3389.5999999672977
 20
1713.0000000031839
 30
0.0
 11
-3502.435999930045
 21
1713.0000000031839
 31
0.0
  0
LINE
  5
FD
100
AcDbEntity
  8
DIMENTION
 62
               0
100
AcDbLine
 10
-3482.4360000045508
 20
2043.0000000031837
 30
0.0
 11
-3482.4360000045508
 21
1713.0000000031839
 31
0.0
  0
LINE
  5
FE
100
AcDbEntity
  8
DIMENTION
 62
               0
100
AcDbLine
 10
-3482.4360000045508
 20
2043.0000000031837
 30
0.0
 11
-3473.9286131448625
 21
2011.2500000031837
 31
0.0
  0
LINE
  5
FF
100
AcDbEntity
  8
DIMENTION
 62
               0
100
AcDbLine
 10
-3482.4360000045508
 20
2043.0000000031837
 30
0.0
 11
-3490.9433868642391
 21
2011.2500000031837
 31
0.0
  0
LINE
  5
100
100
AcDbEntity
  8
DIMENTION
 62
               0
100
AcDbLine
 10
-3482.4360000045508
 20
1713.0000000031839
 30
0.0
 11
-3490.9433868642391
 21
1744.7500000031839
 31
0.0
  0
LINE
  5
101
100
AcDbEntity
  8
DIMENTION
 62
               0
100
AcDbLine
 10
-3482.4360000045508
 20
1713.0000000031839
 30
0.0
 11
-3473.9286131448625
 21
1744.7500000031839
 31
0.0
  0
MTEXT
  5
102
100
AcDbEntity
  8
DIMENTION
 62
               0
100
AcDbMText
 10
-3525.7706000045509
 20
1846.2490512561847
 30
0.0
 40
33.86768
 41
0.0
 71
               1
 72
               1
  1
330
  7
________
 11
0.0
 21
1.0
 31
0.0
  0
POINT
  5
103
100
AcDbEntity
  8
DEFPOINTS
 62
               0
100
AcDbPoint
 10
-3379.6000000045506
 20
1713.0000000031839
 30
0.0
  0
POINT
  5
104
100
AcDbEntity
  8
DEFPOINTS
 62
               0
100
AcDbPoint
 10
-3379.6000000045506
 20
2043.0000000031837
 30
0.0
  0
POINT
  5
105
100
AcDbEntity
  8
DEFPOINTS
 62
               0
100
AcDbPoint
 10
-3482.4360000045508
 20
2043.0000000031837
 30
0.0
  0
ENDBLK
  5
106
100
AcDbEntity
  8
DIMENTION
100
AcDbBlockEnd
  0
BLOCK
  5
107
100
AcDbEntity
  8
DIMENTION
100
AcDbBlockBegin
  2
*D18
 70
               1
 10
0.0
 20
0.0
 30
0.0
  3
*D18
  1

  0
LINE
  5
108
100
AcDbEntity
  8
DIMENTION
 62
               0
100
AcDbLine
 10
-3394.6000000045506
 20
1688.0000000404368
 30
0.0
 11
-3394.6000000045506
 21
1538.0000000776897
 31
0.0
  0
LINE
  5
109
100
AcDbEntity
  8
DIMENTION
 62
               0
100
AcDbLine
 10
-3034.600000004551
 20
1686.5000000404368
 30
0.0
 11
-3034.600000004551
 21
1538.0000000776897
 31
0.0
  0
LINE
  5
10A
100
AcDbEntity
  8
DIMENTION
 62
               0
100
AcDbLine
 10
-3394.6000000045506
 20
1558.0000000031839
 30
0.0
 11
-3034.600000004551
 21
1558.0000000031839
 31
0.0
  0
LINE
  5
10B
100
AcDbEntity
  8
DIMENTION
 62
               0
100
AcDbLine
 10
-3394.6000000045506
 20
1558.0000000031839
 30
0.0
 11
-3362.8500000045506
 21
1566.507386862872
 31
0.0
  0
LINE
  5
10C
100
AcDbEntity
  8
DIMENTION
 62
               0
100
AcDbLine
 10
-3394.6000000045506
 20
1558.0000000031839
 30
0.0
 11
-3362.8500000045506
 21
1549.4926131434959
 31
0.0
  0
LINE
  5
10D
100
AcDbEntity
  8
DIMENTION
 62
               0
100
AcDbLine
 10
-3034.600000004551
 20
1558.0000000031839
 30
0.0
 11
-3066.350000004551
 21
1549.4926131434959
 31
0.0
  0
LINE
  5
10E
100
AcDbEntity
  8
DIMENTION
 62
               0
100
AcDbLine
 10
-3034.600000004551
 20
1558.0000000031839
 30
0.0
 11
-3066.350000004551
 21
1566.507386862872
 31
0.0
  0
MTEXT
  5
10F
100
AcDbEntity
  8
DIMENTION
 62
               0
100
AcDbMText
 10
-3246.3509487515498
 20
1601.3346000031838
 30
0.0
 40
33.86768
 41
0.0
 71
               1
 72
               1
  1
360
  7
________
  0
POINT
  5
110
100
AcDbEntity
  8
DEFPOINTS
 62
               0
100
AcDbPoint
 10
-3034.600000004551
 20
1696.5000000031839
 30
0.0
  0
POINT
  5
111
100
AcDbEntity
  8
DEFPOINTS
 62
               0
100
AcDbPoint
 10
-3394.6000000045506
 20
1698.0000000031839
 30
0.0
  0
POINT
  5
112
100
AcDbEntity
  8
DEFPOINTS
 62
               0
100
AcDbPoint
 10
-3394.6000000045506
 20
1558.0000000031839
 30
0.0
  0
ENDBLK
  5
113
100
AcDbEntity
  8
DIMENTION
100
AcDbBlockEnd
  0
BLOCK
  5
114
100
AcDbEntity
  8
DIMENTION
100
AcDbBlockBegin
  2
*D19
 70
               1
 10
0.0
 20
0.0
 30
0.0
  3
*D19
  1

  0
LINE
  5
115
100
AcDbEntity
  8
DIMENTION
 62
               0
100
AcDbLine
 10
-3034.600000004551
 20
1686.5000000404368
 30
0.0
 11
-3034.600000004551
 21
1538.0000000776897
 31
0.0
  0
LINE
  5
116
100
AcDbEntity
  8
DIMENTION
 62
               0
100
AcDbLine
 10
-2813.600000004551
 20
1686.5000000404368
 30
0.0
 11
-2813.600000004551
 21
1538.0000000776897
 31
0.0
  0
LINE
  5
117
100
AcDbEntity
  8
DIMENTION
 62
               0
100
AcDbLine
 10
-3034.600000004551
 20
1558.0000000031839
 30
0.0
 11
-2813.600000004551
 21
1558.0000000031839
 31
0.0
  0
LINE
  5
118
100
AcDbEntity
  8
DIMENTION
 62
               0
100
AcDbLine
 10
-3034.600000004551
 20
1558.0000000031839
 30
0.0
 11
-3002.850000004551
 21
1566.507386862872
 31
0.0
  0
LINE
  5
119
100
AcDbEntity
  8
DIMENTION
 62
               0
100
AcDbLine
 10
-3034.600000004551
 20
1558.0000000031839
 30
0.0
 11
-3002.850000004551
 21
1549.4926131434959
 31
0.0
  0
LINE
  5
11A
100
AcDbEntity
  8
DIMENTION
 62
               0
100
AcDbLine
 10
-2813.600000004551
 20
1558.0000000031839
 30
0.0
 11
-2845.350000004551
 21
1549.4926131434959
 31
0.0
  0
LINE
  5
11B
100
AcDbEntity
  8
DIMENTION
 62
               0
100
AcDbLine
 10
-2813.600000004551
 20
1558.0000000031839
 30
0.0
 11
-2845.350000004551
 21
1566.507386862872
 31
0.0
  0
POINT
  5
11C
100
AcDbEntity
  8
DEFPOINTS
 62
               0
100
AcDbPoint
 10
-2813.600000004551
 20
1696.5000000031839
 30
0.0
  0
POINT
  5
11D
100
AcDbEntity
  8
DEFPOINTS
 62
               0
100
AcDbPoint
 10
-3034.600000004551
 20
1696.5000000031839
 30
0.0
  0
POINT
  5
11E
100
AcDbEntity
  8
DEFPOINTS
 62
               0
100
AcDbPoint
 10
-3034.600000004551
 20
1558.0000000031839
 30
0.0
  0
ENDBLK
  5
11F
100
AcDbEntity
  8
DIMENTION
100
AcDbBlockEnd
  0
BLOCK
  5
120
100
AcDbEntity
  8
DIMENTION
100
AcDbBlockBegin
  2
*D20
 70
               1
 10
0.0
 20
0.0
 30
0.0
  3
*D20
  1

  0
LINE
  5
121
100
AcDbEntity
  8
DIMENTION
 62
               0
100
AcDbLine
 10
-3414.6000000045506
 20
1688.0000000404368
 30
0.0
 11
-3414.6000000045506
 21
1453.0000000776897
 31
0.0
  0
LINE
  5
122
100
AcDbEntity
  8
DIMENTION
 62
               0
100
AcDbLine
 10
-2813.600000004551
 20
1686.5000000404368
 30
0.0
 11
-2813.600000004551
 21
1453.0000000776897
 31
0.0
  0
LINE
  5
123
100
AcDbEntity
  8
DIMENTION
 62
               0
100
AcDbLine
 10
-3414.6000000045506
 20
1473.0000000031839
 30
0.0
 11
-2813.600000004551
 21
1473.0000000031839
 31
0.0
  0
LINE
  5
124
100
AcDbEntity
  8
DIMENTION
 62
               0
100
AcDbLine
 10
-3414.6000000045506
 20
1473.0000000031839
 30
0.0
 11
-3382.8500000045506
 21
1481.5073868628722
 31
0.0
  0
LINE
  5
125
100
AcDbEntity
  8
DIMENTION
 62
               0
100
AcDbLine
 10
-3414.6000000045506
 20
1473.0000000031839
 30
0.0
 11
-3382.8500000045506
 21
1464.4926131434959
 31
0.0
  0
LINE
  5
126
100
AcDbEntity
  8
DIMENTION
 62
               0
100
AcDbLine
 10
-2813.600000004551
 20
1473.0000000031839
 30
0.0
 11
-2845.350000004551
 21
1464.4926131434959
 31
0.0
  0
LINE
  5
127
100
AcDbEntity
  8
DIMENTION
 62
               0
100
AcDbLine
 10
-2813.600000004551
 20
1473.0000000031839
 30
0.0
 11
-2845.350000004551
 21
1481.5073868628722
 31
0.0
  0
POINT
  5
128
100
AcDbEntity
  8
DEFPOINTS
 62
               0
100
AcDbPoint
 10
-2813.600000004551
 20
1696.5000000031839
 30
0.0
  0
POINT
  5
129
100
AcDbEntity
  8
DEFPOINTS
 62
               0
100
AcDbPoint
 10
-3414.6000000045506
 20
1698.0000000031839
 30
0.0
  0
POINT
  5
12A
100
AcDbEntity
  8
DEFPOINTS
 62
               0
100
AcDbPoint
 10
-3414.6000000045506
 20
1473.0000000031839
 30
0.0
  0
ENDBLK
  5
12B
100
AcDbEntity
  8
DIMENTION
100
AcDbBlockEnd
  0
BLOCK
  5
12C
100
AcDbEntity
  8
DIMENTION
100
AcDbBlockBegin
  2
*D21
 70
               1
 10
0.0
 20
0.0
 30
0.0
  3
*D21
  1

  0
LINE
  5
12D
100
AcDbEntity
  8
DIMENTION
 62
               0
100
AcDbLine
 10
-3384.6000000418035
 20
1198.0000000031839
 30
0.0
 11
-3263.6000000790564
 21
1198.0000000031839
 31
0.0
  0
LINE
  5
12E
100
AcDbEntity
  8
DIMENTION
 62
               0
100
AcDbLine
 10
-3384.6000000418035
 20
1049.0000000031839
 30
0.0
 11
-3263.6000000790564
 21
1049.0000000031839
 31
0.0
  0
LINE
  5
12F
100
AcDbEntity
  8
DIMENTION
 62
               0
100
AcDbLine
 10
-3283.6000000045506
 20
1198.0000000031839
 30
0.0
 11
-3283.6000000045506
 21
1049.0000000031839
 31
0.0
  0
LINE
  5
130
100
AcDbEntity
  8
DIMENTION
 62
               0
100
AcDbLine
 10
-3283.6000000045506
 20
1198.0000000031839
 30
0.0
 11
-3275.0926131448628
 21
1166.2500000031839
 31
0.0
  0
LINE
  5
131
100
AcDbEntity
  8
DIMENTION
 62
               0
100
AcDbLine
 10
-3283.6000000045506
 20
1198.0000000031839
 30
0.0
 11
-3292.1073868642388
 21
1166.2500000031839
 31
0.0
  0
LINE
  5
132
100
AcDbEntity
  8
DIMENTION
 62
               0
100
AcDbLine
 10
-3283.6000000045506
 20
1049.0000000031839
 30
0.0
 11
-3292.1073868642388
 21
1080.7500000031839
 31
0.0
  0
LINE
  5
133
100
AcDbEntity
  8
DIMENTION
 62
               0
100
AcDbLine
 10
-3283.6000000045506
 20
1049.0000000031839
 30
0.0
 11
-3275.0926131448628
 21
1080.7500000031839
 31
0.0
  0
POINT
  5
134
100
AcDbEntity
  8
DEFPOINTS
 62
               0
100
AcDbPoint
 10
-3394.6000000045506
 20
1049.0000000031839
 30
0.0
  0
POINT
  5
135
100
AcDbEntity
  8
DEFPOINTS
 62
               0
100
AcDbPoint
 10
-3394.6000000045506
 20
1198.0000000031839
 30
0.0
  0
POINT
  5
136
100
AcDbEntity
  8
DEFPOINTS
 62
               0
100
AcDbPoint
 10
-3283.6000000045506
 20
1198.0000000031839
 30
0.0
  0
ENDBLK
  5
137
100
AcDbEntity
  8
DIMENTION
100
AcDbBlockEnd
  0
BLOCK
  5
138
100
AcDbEntity
  8
DIMENTION
100
AcDbBlockBegin
  2
*D22
 70
               1
 10
0.0
 20
0.0
 30
0.0
  3
*D22
  1

  0
LINE
  5
139
100
AcDbEntity
  8
DIMENTION
 62
               0
100
AcDbLine
 10
-2834.6000000418039
 20
399.00000000318391
 30
0.0
 11
-2626.6000000790568
 21
399.00000000318391
 31
0.0
  0
LINE
  5
13A
100
AcDbEntity
  8
DIMENTION
 62
               0
100
AcDbLine
 10
-2803.6000000418039
 20
1049.0000000031839
 30
0.0
 11
-2626.6000000790568
 21
1049.0000000031839
 31
0.0
  0
LINE
  5
13B
100
AcDbEntity
  8
DIMENTION
 62
               0
100
AcDbLine
 10
-2646.600000004551
 20
399.00000000318391
 30
0.0
 11
-2646.600000004551
 21
1049.0000000031839
 31
0.0
  0
LINE
  5
13C
100
AcDbEntity
  8
DIMENTION
 62
               0
100
AcDbLine
 10
-2646.600000004551
 20
399.00000000318391
 30
0.0
 11
-2655.1073868642388
 21
430.75000000318391
 31
0.0
  0
LINE
  5
13D
100
AcDbEntity
  8
DIMENTION
 62
               0
100
AcDbLine
 10
-2646.600000004551
 20
399.00000000318391
 30
0.0
 11
-2638.0926131448628
 21
430.75000000318391
 31
0.0
  0
LINE
  5
13E
100
AcDbEntity
  8
DIMENTION
 62
               0
100
AcDbLine
 10
-2646.600000004551
 20
1049.0000000031839
 30
0.0
 11
-2638.0926131448628
 21
1017.2500000031839
 31
0.0
  0
LINE
  5
13F
100
AcDbEntity
  8
DIMENTION
 62
               0
100
AcDbLine
 10
-2646.600000004551
 20
1049.0000000031839
 30
0.0
 11
-2655.1073868642388
 21
1017.2500000031839
 31
0.0
  0
MTEXT
  5
140
100
AcDbEntity
  8
DIMENTION
 62
               0
100
AcDbMText
 10
-2689.9346000045507
 20
692.24905125618488
 30
0.0
 40
33.86768
 41
0.0
 71
               1
 72
               1
  1
650
  7
________
 11
0.0
 21
1.0
 31
0.0
  0
POINT
  5
141
100
AcDbEntity
  8
DEFPOINTS
 62
               0
100
AcDbPoint
 10
-2813.600000004551
 20
1049.0000000031839
 30
0.0
  0
POINT
  5
142
100
AcDbEntity
  8
DEFPOINTS
 62
               0
100
AcDbPoint
 10
-2844.600000004551
 20
399.00000000318391
 30
0.0
  0
POINT
  5
143
100
AcDbEntity
  8
DEFPOINTS
 62
               0
100
AcDbPoint
 10
-2646.600000004551
 20
399.00000000318391
 30
0.0
  0
ENDBLK
  5
144
100
AcDbEntity
  8
DIMENTION
100
AcDbBlockEnd
  0
BLOCK
  5
145
100
AcDbEntity
  8
DIMENTION
100
AcDbBlockBegin
  2
*D23
 70
               1
 10
0.0
 20
0.0
 30
0.0
  3
*D23
  1

  0
LINE
  5
146
100
AcDbEntity
  8
DIMENTION
 62
               0
100
AcDbLine
 10
-2803.6000000418039
 20
1049.0000000031839
 30
0.0
 11
-2548.6000000790568
 21
1049.0000000031839
 31
0.0
  0
LINE
  5
147
100
AcDbEntity
  8
DIMENTION
 62
               0
100
AcDbLine
 10
-2864.1000000418039
 20
249.00000000318391
 30
0.0
 11
-2548.6000000790568
 21
249.00000000318391
 31
0.0
  0
LINE
  5
148
100
AcDbEntity
  8
DIMENTION
 62
               0
100
AcDbLine
 10
-2568.600000004551
 20
1049.0000000031839
 30
0.0
 11
-2568.600000004551
 21
249.00000000318391
 31
0.0
  0
LINE
  5
149
100
AcDbEntity
  8
DIMENTION
 62
               0
100
AcDbLine
 10
-2568.600000004551
 20
1049.0000000031839
 30
0.0
 11
-2560.0926131448628
 21
1017.2500000031839
 31
0.0
  0
LINE
  5
14A
100
AcDbEntity
  8
DIMENTION
 62
               0
100
AcDbLine
 10
-2568.600000004551
 20
1049.0000000031839
 30
0.0
 11
-2577.1073868642388
 21
1017.2500000031839
 31
0.0
  0
LINE
  5
14B
100
AcDbEntity
  8
DIMENTION
 62
               0
100
AcDbLine
 10
-2568.600000004551
 20
249.00000000318391
 30
0.0
 11
-2577.1073868642388
 21
280.75000000318391
 31
0.0
  0
LINE
  5
14C
100
AcDbEntity
  8
DIMENTION
 62
               0
100
AcDbLine
 10
-2568.600000004551
 20
249.00000000318391
 30
0.0
 11
-2560.0926131448628
 21
280.75000000318391
 31
0.0
  0
MTEXT
  5
14D
100
AcDbEntity
  8
DIMENTION
 62
               0
100
AcDbMText
 10
-2611.9346000045507
 20
617.24905125618488
 30
0.0
 40
33.86768
 41
0.0
 71
               1
 72
               1
  1
800
  7
________
 11
0.0
 21
1.0
 31
0.0
  0
POINT
  5
14E
100
AcDbEntity
  8
DEFPOINTS
 62
               0
100
AcDbPoint
 10
-2874.100000004551
 20
249.00000000318391
 30
0.0
  0
POINT
  5
14F
100
AcDbEntity
  8
DEFPOINTS
 62
               0
100
AcDbPoint
 10
-2813.600000004551
 20
1049.0000000031839
 30
0.0
  0
POINT
  5
150
100
AcDbEntity
  8
DEFPOINTS
 62
               0
100
AcDbPoint
 10
-2568.600000004551
 20
1049.0000000031839
 30
0.0
  0
ENDBLK
  5
151
100
AcDbEntity
  8
DIMENTION
100
AcDbBlockEnd
  0
BLOCK
  5
152
100
AcDbEntity
  8
DIMENTION
100
AcDbBlockBegin
  2
*D24
 70
               1
 10
0.0
 20
0.0
 30
0.0
  3
*D24
  1

  0
LINE
  5
153
100
AcDbEntity
  8
DIMENTION
 62
               0
100
AcDbLine
 10
-3111.0999999672981
 20
359.00000000318391
 30
0.0
 11
-3192.5999999300452
 21
359.00000000318391
 31
0.0
  0
LINE
  5
154
100
AcDbEntity
  8
DIMENTION
 62
               0
100
AcDbLine
 10
-3111.0999999672981
 20
249.00000000318391
 30
0.0
 11
-3192.5999999300452
 21
249.00000000318391
 31
0.0
  0
LINE
  5
155
100
AcDbEntity
  8
DIMENTION
 62
               0
100
AcDbLine
 10
-3172.600000004551
 20
359.00000000318391
 30
0.0
 11
-3172.600000004551
 21
249.00000000318391
 31
0.0
  0
LINE
  5
156
100
AcDbEntity
  8
DIMENTION
 62
               0
100
AcDbLine
 10
-3172.600000004551
 20
359.00000000318391
 30
0.0
 11
-3164.0926131448632
 21
327.25000000318391
 31
0.0
  0
LINE
  5
157
100
AcDbEntity
  8
DIMENTION
 62
               0
100
AcDbLine
 10
-3172.600000004551
 20
359.00000000318391
 30
0.0
 11
-3181.1073868642388
 21
327.25000000318391
 31
0.0
  0
LINE
  5
158
100
AcDbEntity
  8
DIMENTION
 62
               0
100
AcDbLine
 10
-3172.600000004551
 20
249.00000000318391
 30
0.0
 11
-3181.1073868642388
 21
280.75000000318391
 31
0.0
  0
LINE
  5
159
100
AcDbEntity
  8
DIMENTION
 62
               0
100
AcDbLine
 10
-3172.600000004551
 20
249.00000000318391
 30
0.0
 11
-3164.0926131448632
 21
280.75000000318391
 31
0.0
  0
MTEXT
  5
15A
100
AcDbEntity
  8
DIMENTION
 62
               0
100
AcDbMText
 10
-3215.9346000045507
 20
272.24905125618466
 30
0.0
 40
33.86768
 41
0.0
 71
               1
 72
               1
  1
110
  7
________
 11
0.0
 21
1.0
 31
0.0
  0
POINT
  5
15B
100
AcDbEntity
  8
DEFPOINTS
 62
               0
100
AcDbPoint
 10
-3101.100000004551
 20
249.00000000318391
 30
0.0
  0
POINT
  5
15C
100
AcDbEntity
  8
DEFPOINTS
 62
               0
100
AcDbPoint
 10
-3101.100000004551
 20
359.00000000318391
 30
0.0
  0
POINT
  5
15D
100
AcDbEntity
  8
DEFPOINTS
 62
               0
100
AcDbPoint
 10
-3172.600000004551
 20
359.00000000318391
 30
0.0
  0
ENDBLK
  5
15E
100
AcDbEntity
  8
DIMENTION
100
AcDbBlockEnd
  0
BLOCK
  5
15F
100
AcDbEntity
  8
DIMENTION
100
AcDbBlockBegin
  2
*D25
 70
               1
 10
0.0
 20
0.0
 30
0.0
  3
*D25
  1

  0
LINE
  5
160
100
AcDbEntity
  8
DIMENTION
 62
               0
100
AcDbLine
 10
-1177.5999999672981
 20
249.00000000318391
 30
0.0
 11
-1434.5999999300452
 21
249.00000000318391
 31
0.0
  0
LINE
  5
161
100
AcDbEntity
  8
DIMENTION
 62
               0
100
AcDbLine
 10
-1224.5999999672981
 20
1198.0000000031839
 30
0.0
 11
-1434.5999999300452
 21
1198.0000000031839
 31
0.0
  0
LINE
  5
162
100
AcDbEntity
  8
DIMENTION
 62
               0
100
AcDbLine
 10
-1414.600000004551
 20
249.00000000318391
 30
0.0
 11
-1414.600000004551
 21
1198.0000000031839
 31
0.0
  0
LINE
  5
163
100
AcDbEntity
  8
DIMENTION
 62
               0
100
AcDbLine
 10
-1414.600000004551
 20
249.00000000318391
 30
0.0
 11
-1423.1073868642393
 21
280.75000000318391
 31
0.0
  0
LINE
  5
164
100
AcDbEntity
  8
DIMENTION
 62
               0
100
AcDbLine
 10
-1414.600000004551
 20
249.00000000318391
 30
0.0
 11
-1406.092613144863
 21
280.75000000318391
 31
0.0
  0
LINE
  5
165
100
AcDbEntity
  8
DIMENTION
 62
               0
100
AcDbLine
 10
-1414.600000004551
 20
1198.0000000031839
 30
0.0
 11
-1406.092613144863
 21
1166.2500000031839
 31
0.0
  0
LINE
  5
166
100
AcDbEntity
  8
DIMENTION
 62
               0
100
AcDbLine
 10
-1414.600000004551
 20
1198.0000000031839
 30
0.0
 11
-1423.1073868642393
 21
1166.2500000031839
 31
0.0
  0
POINT
  5
167
100
AcDbEntity
  8
DEFPOINTS
 62
               0
100
AcDbPoint
 10
-1214.600000004551
 20
1198.0000000031839
 30
0.0
  0
POINT
  5
168
100
AcDbEntity
  8
DEFPOINTS
 62
               0
100
AcDbPoint
 10
-1167.600000004551
 20
249.00000000318391
 30
0.0
  0
POINT
  5
169
100
AcDbEntity
  8
DEFPOINTS
 62
               0
100
AcDbPoint
 10
-1414.600000004551
 20
249.00000000318391
 30
0.0
  0
ENDBLK
  5
16A
100
AcDbEntity
  8
DIMENTION
100
AcDbBlockEnd
  0
BLOCK
  5
16B
100
AcDbEntity
  8
_____1
100
AcDbBlockBegin
  2
*U26
 70
               1
 10
0.0
 20
0.0
 30
0.0
  3
*U26
  1

  0
HATCH
  5
16C
100
AcDbEntity
  8
_____1
  6
CONTINUOUS
 62
               7
100
AcDbHatch
 10
0.0
 20
0.0
 30
0.0
210
0.0
220
0.0
230
1.0
  2
SOLID
 70
               1
 71
               0
 91
        1
 92
        1
 93
       12
 72
               1
 10
-1322.8988353183693
 20
-1338.261524158974
 11
-1308.0033558014438
 21
-1338.261524158974
 72
               1
 10
-1308.0033558014438
 20
-1338.261524158974
 11
-1308.0033558014438
 21
-1329.410271904504
 72
               1
 10
-1308.0033558014438
 20
-1329.410271904504
 11
-1326.278213121059
 21
-1329.410271904504
 72
               1
 10
-1326.278213121059
 20
-1329.410271904504
 11
-1329.7705927478792
 21
-1320.2491455590389
 72
               1
 10
-1329.7705927478792
 20
-1320.2491455590389
 11
-1341.0096447608942
 21
-1320.2491455590389
 72
               1
 10
-1341.0096447608942
 20
-1320.2491455590389
 11
-1337.6813130111641
 21
-1329.410271904504
 72
               1
 10
-1337.6813130111641
 20
-1329.410271904504
 11
-1371.536993900819
 21
-1329.410271904504
 72
               1
 10
-1371.536993900819
 20
-1329.410271904504
 11
-1371.536993900819
 21
-1338.261524158974
 72
               1
 10
-1371.536993900819
 20
-1338.261524158974
 11
-1334.4586923039515
 21
-1338.261524158974
 72
               1
 10
-1334.4586923039515
 20
-1338.261524158974
 11
-1320.029833391814
 21
-1377.9572904259737
 72
               1
 10
-1320.029833391814
 20
-1377.9572904259737
 11
-1307.7664001082467
 21
-1377.9354074994592
 72
               1
 10
-1307.7664001082467
 20
-1377.9354074994592
 11
-1322.8988353183693
 21
-1338.261524158974
 97
        0
 75
               0
 76
               1
 98
        1
 10
0.0
 20
0.0
  0
HATCH
  5
16D
100
AcDbEntity
  8
_____1
  6
CONTINUOUS
 62
               7
100
AcDbHatch
 10
0.0
 20
0.0
 30
0.0
210
0.0
220
0.0
230
1.0
  2
SOLID
 70
               1
 71
               0
 91
        1
 92
        1
 93
       12
 72
               1
 10
-1346.9262780543113
 20
-1354.1376402567837
 11
-1336.7881658096092
 21
-1354.1376402567837
 72
               1
 10
-1336.7881658096092
 20
-1354.1376402567837
 11
-1336.7881658096092
 21
-1345.260864975834
 72
               1
 10
-1336.7881658096092
 20
-1345.260864975834
 11
-1370.7349867602413
 21
-1345.260864975834
 72
               1
 10
-1370.7349867602413
 20
-1345.260864975834
 11
-1370.7349867602413
 21
-1354.0574416590637
 72
               1
 10
-1370.7349867602413
 20
-1354.0574416590637
 11
-1359.6599826243166
 21
-1354.0574416590637
 72
               1
 10
-1359.6599826243166
 20
-1354.0574416590637
 11
-1359.6599826243166
 21
-1367.4837916454785
 72
               1
 10
-1359.6599826243166
 20
-1367.4837916454785
 11
-1371.3656552421191
 21
-1368.3732881653889
 72
               1
 10
-1371.3656552421191
 20
-1368.3732881653889
 11
-1371.3656552421191
 21
-1377.9937443340289
 72
               1
 10
-1371.3656552421191
 20
-1377.9937443340289
 11
-1332.3260804834738
 21
-1374.8877761325944
 72
               1
 10
-1332.3260804834738
 20
-1374.8877761325944
 11
-1332.3260804834738
 21
-1365.7485327136496
 72
               1
 10
-1332.3260804834738
 20
-1365.7485327136496
 11
-1346.9262780543113
 21
-1366.8604033635286
 72
               1
 10
-1346.9262780543113
 20
-1366.8604033635286
 11
-1346.9262780543113
 21
-1354.1376402567837
 97
        0
 75
               0
 76
               1
 98
        1
 10
0.0
 20
0.0
  0
SOLID
  5
16E
100
AcDbEntity
  8
_____1
  6
CONTINUOUS
 62
               7
100
AcDbTrace
 10
-1308.418940934954
 20
-1320.2746685855188
 30
0.0
 11
-1318.998161339649
 21
-1320.2746685855188
 31
0.0
 12
-1308.418940934954
 22
-1326.9532044298141
 32
0.0
 13
-1318.998161339649
 23
-1326.9532044298141
 33
0.0
  0
ENDBLK
  5
16F
100
AcDbEntity
  8
_____1
100
AcDbBlockEnd
  0
BLOCK
  5
170
100
AcDbEntity
  8
_____1
100
AcDbBlockBegin
  2
*U27
 70
               1
 10
0.0
 20
0.0
 30
0.0
  3
*U27
  1

  0
HATCH
  5
171
100
AcDbEntity
  8
_____1
  6
CONTINUOUS
 62
               7
100
AcDbHatch
 10
0.0
 20
0.0
 30
0.0
210
0.0
220
0.0
230
1.0
  2
SOLID
 70
               1
 71
               0
 91
        1
 92
        1
 93
       16
 72
               1
 10
-1170.9219318087494
 20
-1343.7953861269739
 11
-1170.9219318087494
 21
-1334.5066763941645
 72
               1
 10
-1170.9219318087494
 20
-1334.5066763941645
 11
-1182.0188082895095
 21
-1334.5066763941645
 72
               1
 10
-1182.0188082895095
 20
-1334.5066763941645
 11
-1182.0188082895095
 21
-1320.0122004475297
 72
               1
 10
-1182.0188082895095
 20
-1320.0122004475297
 11
-1193.119324870232
 21
-1320.0122004475297
 72
               1
 10
-1193.119324870232
 20
-1320.0122004475297
 11
-1193.119324870232
 21
-1334.5066763941645
 72
               1
 10
-1193.119324870232
 20
-1334.5066763941645
 11
-1203.3121232678593
 21
-1334.5066763941645
 72
               1
 10
-1203.3121232678593
 20
-1334.5066763941645
 11
-1203.3121232678593
 21
-1343.7953861269739
 72
               1
 10
-1203.3121232678593
 20
-1343.7953861269739
 11
-1193.119324870232
 21
-1343.7953861269739
 72
               1
 10
-1193.119324870232
 20
-1343.7953861269739
 11
-1193.119324870232
 21
-1367.8009459363986
 72
               1
 10
-1193.119324870232
 20
-1367.8009459363986
 11
-1205.1202900158041
 21
-1367.8009459363986
 72
               1
 10
-1205.1202900158041
 20
-1367.8009459363986
 11
-1205.1202900158041
 21
-1377.9937443340289
 72
               1
 10
-1205.1202900158041
 20
-1377.9937443340289
 11
-1170.9219318087494
 21
-1377.9937443340289
 72
               1
 10
-1170.9219318087494
 20
-1377.9937443340289
 11
-1170.9219318087494
 21
-1367.8009459363986
 72
               1
 10
-1170.9219318087494
 20
-1367.8009459363986
 11
-1182.0188082895095
 21
-1367.8009459363986
 72
               1
 10
-1182.0188082895095
 20
-1367.8009459363986
 11
-1182.0188082895095
 21
-1343.7953861269739
 72
               1
 10
-1182.0188082895095
 20
-1343.7953861269739
 11
-1170.9219318087494
 21
-1343.7953861269739
 97
        0
 75
               0
 76
               1
 98
        1
 10
0.0
 20
0.0
  0
SOLID
  5
172
100
AcDbEntity
  8
_____1
  6
CONTINUOUS
 62
               7
100
AcDbTrace
 10
-1210.5557105595294
 20
-1319.7861756359046
 30
0.0
 11
-1230.0335785900093
 21
-1319.7861756359046
 31
0.0
 12
-1210.5557105595294
 22
-1328.1671566039395
 32
0.0
 13
-1230.0335785900093
 23
-1328.1671566039395
 33
0.0
  0
HATCH
  5
173
100
AcDbEntity
  8
_____1
  6
CONTINUOUS
 62
               7
100
AcDbHatch
 10
0.0
 20
0.0
 30
0.0
210
0.0
220
0.0
230
1.0
  2
SOLID
 70
               1
 71
               0
 91
        1
 92
        1
 93
       17
 72
               1
 10
-1205.1202900158041
 20
-1363.0435786641845
 11
-1204.2125612510267
 21
-1362.1395005810543
 72
               1
 10
-1204.2125612510267
 20
-1362.1395005810543
 11
-1204.2125612510267
 21
-1351.9467021834243
 72
               1
 10
-1204.2125612510267
 20
-1351.9467021834243
 11
-1212.542506747784
 21
-1347.0325778157239
 72
               1
 10
-1212.542506747784
 20
-1347.0325778157239
 11
-1205.3463042457442
 21
-1335.6404193888791
 72
               1
 10
-1205.3463042457442
 20
-1335.6404193888791
 11
-1205.3463042457442
 21
-1335.4071037956442
 72
               1
 10
-1205.3463042457442
 20
-1335.4071037956442
 11
-1205.3463042457442
 21
-1334.528548738994
 72
               1
 10
-1205.3463042457442
 20
-1334.528548738994
 11
-1205.3463042457442
 21
-1334.2806515825396
 72
               1
 10
-1205.3463042457442
 20
-1334.2806515825396
 11
-1235.9210487569844
 21
-1334.2806515825396
 72
               1
 10
-1235.9210487569844
 20
-1334.2806515825396
 11
-1235.9210487569844
 21
-1343.5693613153489
 72
               1
 10
-1235.9210487569844
 20
-1343.5693613153489
 11
-1220.5917518616793
 21
-1343.5693613153489
 72
               1
 10
-1220.5917518616793
 20
-1343.5693613153489
 11
-1236.1470629869214
 21
-1356.9300942672694
 72
               1
 10
-1236.1470629869214
 20
-1356.9300942672694
 11
-1236.1470629869214
 21
-1370.9688804906889
 72
               1
 10
-1236.1470629869214
 20
-1370.9688804906889
 11
-1225.2069436016416
 21
-1360.4771600470146
 72
               1
 10
-1225.2069436016416
 20
-1360.4771600470146
 11
-1225.7319010410017
 21
-1377.9937443340289
 72
               1
 10
-1225.7319010410017
 20
-1377.9937443340289
 11
-1213.7272957954642
 21
-1377.9937443340289
 72
               1
 10
-1213.7272957954642
 20
-1377.9937443340289
 11
-1214.0517408679968
 21
-1356.7806279533988
 72
               1
 10
-1214.0517408679968
 20
-1356.7806279533988
 11
-1205.1202900158041
 21
-1363.0435786641845
 97
        0
 75
               0
 76
               1
 98
        1
 10
0.0
 20
0.0
  0
ENDBLK
  5
174
100
AcDbEntity
  8
_____1
100
AcDbBlockEnd
  0
BLOCK
  5
175
100
AcDbEntity
  8
_____1
100
AcDbBlockBegin
  2
*U28
 70
               1
 10
0.0
 20
0.0
 30
0.0
  3
*U28
  1

  0
SOLID
  5
176
100
AcDbEntity
  8
_____1
  6
CONTINUOUS
 62
               7
100
AcDbTrace
 10
-1587.2334557317336
 20
-1320.3184132751894
 30
0.0
 11
-1573.2165312714585
 21
-1320.3184132751894
 31
0.0
 12
-1587.2334557317336
 22
-1328.8634527019994
 32
0.0
 13
-1573.2165312714585
 23
-1328.8634527019994
 33
0.0
  0
SOLID
  5
177
100
AcDbEntity
  8
_____1
  6
CONTINUOUS
 62
               7
100
AcDbTrace
 10
-1587.2334557317336
 20
-1335.8627935188595
 30
0.0
 11
-1573.2165312714585
 21
-1335.8627935188595
 31
0.0
 12
-1587.2334557317336
 22
-1344.4078329456695
 32
0.0
 13
-1573.2165312714585
 23
-1344.4078329456695
 33
0.0
  0
HATCH
  5
178
100
AcDbEntity
  8
_____1
  6
CONTINUOUS
 62
               7
100
AcDbHatch
 10
0.0
 20
0.0
 30
0.0
210
0.0
220
0.0
230
1.0
  2
SOLID
 70
               1
 71
               0
 91
        1
 92
        1
 93
        6
 72
               1
 10
-1587.2334557317336
 20
-1362.9998339745136
 11
-1573.8545011166311
 21
-1349.7266009836139
 72
               1
 10
-1573.8545011166311
 20
-1349.7266009836139
 11
-1573.2165312714585
 21
-1350.000010584869
 72
               1
 10
-1573.2165312714585
 20
-1350.000010584869
 11
-1573.1873681450134
 21
-1365.6136585446839
 72
               1
 10
-1573.1873681450134
 20
-1365.6136585446839
 11
-1586.4387393727686
 21
-1377.9901042340693
 72
               1
 10
-1586.4387393727686
 20
-1377.9901042340693
 11
-1587.2334557317336
 21
-1377.9682213075489
 72
               1
 10
-1587.2334557317336
 20
-1377.9682213075489
 11
-1587.2334557317336
 21
-1362.9998339745136
 97
        0
 75
               0
 76
               1
 98
        1
 10
0.0
 20
0.0
  0
ENDBLK
  5
179
100
AcDbEntity
  8
_____1
100
AcDbBlockEnd
  0
BLOCK
  5
17A
100
AcDbEntity
  8
_____1
100
AcDbBlockBegin
  2
*U29
 70
               1
 10
0.0
 20
0.0
 30
0.0
  3
*U29
  1

  0
SOLID
  5
17B
100
AcDbEntity
  8
_____1
  6
CONTINUOUS
 62
               7
100
AcDbTrace
 10
-1658.2986828689386
 20
-1320.3184026934987
 30
0.0
 11
-1644.2781183087011
 21
-1320.3184026934987
 31
0.0
 12
-1658.2986828689386
 22
-1328.8634421203087
 32
0.0
 13
-1644.2781183087011
 23
-1328.8634421203087
 33
0.0
  0
SOLID
  5
17C
100
AcDbEntity
  8
_____1
  6
CONTINUOUS
 62
               7
100
AcDbTrace
 10
-1658.2986828689386
 20
-1335.8627829371687
 30
0.0
 11
-1644.2781183087011
 21
-1335.8627829371687
 31
0.0
 12
-1658.2986828689386
 22
-1344.4078223639845
 32
0.0
 13
-1644.2781183087011
 23
-1344.4078223639845
 33
0.0
  0
HATCH
  5
17D
100
AcDbEntity
  8
_____1
  6
CONTINUOUS
 62
               7
100
AcDbHatch
 10
0.0
 20
0.0
 30
0.0
210
0.0
220
0.0
230
1.0
  2
SOLID
 70
               1
 71
               0
 91
        1
 92
        1
 93
        6
 72
               1
 10
-1658.2986828689386
 20
-1362.9998233928286
 11
-1644.9197282538362
 21
-1349.7265904019289
 72
               1
 10
-1644.9197282538362
 20
-1349.7265904019289
 11
-1644.2781183087011
 21
-1350.0000000031839
 72
               1
 10
-1644.2781183087011
 20
-1350.0000000031839
 11
-1644.2525952822184
 21
-1365.6136479629988
 72
               1
 10
-1644.2525952822184
 20
-1365.6136479629988
 11
-1657.5039665099707
 21
-1377.9900936523843
 72
               1
 10
-1657.5039665099707
 20
-1377.9900936523843
 11
-1658.2986828689386
 21
-1377.9682107258639
 72
               1
 10
-1658.2986828689386
 20
-1377.9682107258639
 11
-1658.2986828689386
 21
-1362.9998233928286
 97
        0
 75
               0
 76
               1
 98
        1
 10
0.0
 20
0.0
  0
ENDBLK
  5
17E
100
AcDbEntity
  8
_____1
100
AcDbBlockEnd
  0
BLOCK
  5
17F
100
AcDbEntity
  8
_____1
100
AcDbBlockBegin
  2
*U30
 70
               1
 10
0.0
 20
0.0
 30
0.0
  3
*U30
  1

  0
HATCH
  5
180
100
AcDbEntity
  8
_____1
  6
CONTINUOUS
 62
               7
100
AcDbHatch
 10
0.0
 20
0.0
 30
0.0
210
0.0
220
0.0
230
1.0
  2
SOLID
 70
               1
 71
               0
 91
        1
 92
        1
 93
        8
 72
               1
 10
-1487.263125980626
 20
-1343.5985350234791
 11
-1476.8260916898739
 21
-1343.5985350234791
 72
               1
 10
-1476.8260916898739
 20
-1343.5985350234791
 11
-1471.9338396670089
 21
-1328.3567275075095
 72
               1
 10
-1471.9338396670089
 20
-1328.3567275075095
 11
-1479.5966627738362
 21
-1328.3567275075095
 72
               1
 10
-1479.5966627738362
 20
-1328.3567275075095
 11
-1475.6157796157111
 21
-1320.041363573969
 72
               1
 10
-1475.6157796157111
 20
-1320.041363573969
 11
-1486.1439645491314
 21
-1320.041363573969
 72
               1
 10
-1486.1439645491314
 20
-1320.041363573969
 11
-1490.2998264659188
 21
-1334.1530576135044
 72
               1
 10
-1490.2998264659188
 20
-1334.1530576135044
 11
-1482.7463650832535
 21
-1334.1530576135044
 72
               1
 10
-1482.7463650832535
 20
-1334.1530576135044
 11
-1487.263125980626
 21
-1343.5985350234791
 97
        0
 75
               0
 76
               1
 98
        1
 10
0.0
 20
0.0
  0
HATCH
  5
181
100
AcDbEntity
  8
_____1
  6
CONTINUOUS
 62
               7
100
AcDbHatch
 10
0.0
 20
0.0
 30
0.0
210
0.0
220
0.0
230
1.0
  2
SOLID
 70
               1
 71
               0
 91
        1
 92
        1
 93
        8
 72
               1
 10
-1467.107204678641
 20
-1343.5985350234791
 11
-1456.6701598062039
 21
-1343.5985350234791
 72
               1
 10
-1456.6701598062039
 20
-1343.5985350234791
 11
-1451.7815584649861
 21
-1328.3567275075095
 72
               1
 10
-1451.7815584649861
 20
-1328.3567275075095
 11
-1459.4370907902039
 21
-1328.3567275075095
 72
               1
 10
-1459.4370907902039
 20
-1328.3567275075095
 11
-1455.4635089953763
 21
-1320.041363573969
 72
               1
 10
-1455.4635089953763
 20
-1320.041363573969
 11
-1465.9916833471086
 21
-1320.041363573969
 72
               1
 10
-1465.9916833471086
 20
-1320.041363573969
 11
-1470.1402544822863
 21
-1334.1530576135044
 72
               1
 10
-1470.1402544822863
 20
-1334.1530576135044
 11
-1462.5904437812685
 21
-1334.1530576135044
 72
               1
 10
-1462.5904437812685
 20
-1334.1530576135044
 11
-1467.107204678641
 21
-1343.5985350234791
 97
        0
 75
               0
 76
               1
 98
        1
 10
0.0
 20
0.0
  0
HATCH
  5
182
100
AcDbEntity
  8
_____1
  6
CONTINUOUS
 62
               7
100
AcDbHatch
 10
0.0
 20
0.0
 30
0.0
210
0.0
220
0.0
230
1.0
  2
SOLID
 70
               1
 71
               0
 91
        1
 92
        1
 93
       32
 72
               1
 10
-1457.1732449007313
 20
-1345.3665971817245
 11
-1458.0481598574163
 21
-1348.6402427785238
 72
               1
 10
-1458.0481598574163
 20
-1348.6402427785238
 11
-1464.3074704682365
 21
-1348.6402427785238
 72
               1
 10
-1464.3074704682365
 20
-1348.6402427785238
 11
-1466.3671744726012
 21
-1343.7261184108293
 72
               1
 10
-1466.3671744726012
 20
-1343.7261184108293
 11
-1476.0678292389639
 21
-1343.7261184108293
 72
               1
 10
-1476.0678292389639
 20
-1343.7261184108293
 11
-1474.2705933725913
 21
-1348.6402427785238
 72
               1
 10
-1474.2705933725913
 20
-1348.6402427785238
 11
-1488.1635639637936
 21
-1348.6402427785238
 72
               1
 10
-1488.1635639637936
 20
-1348.6402427785238
 11
-1488.1635639637936
 21
-1350.3317570206937
 72
               1
 10
-1488.1635639637936
 20
-1350.3317570206937
 11
-1492.5673230370387
 21
-1377.742207077609
 72
               1
 10
-1492.5673230370387
 20
-1377.742207077609
 11
-1482.9979023396763
 21
-1377.742207077609
 72
               1
 10
-1482.9979023396763
 20
-1377.742207077609
 11
-1481.1605724652861
 21
-1366.3172348426745
 72
               1
 10
-1481.1605724652861
 20
-1366.3172348426745
 11
-1473.0420702169313
 21
-1369.8023236878789
 72
               1
 10
-1473.0420702169313
 20
-1369.8023236878789
 11
-1473.0420702169313
 21
-1361.618193823339
 72
               1
 10
-1473.0420702169313
 20
-1361.618193823339
 11
-1479.9247585280166
 21
-1358.6544117358442
 72
               1
 10
-1479.9247585280166
 20
-1358.6544117358442
 11
-1479.3706379622113
 21
-1355.1911952354692
 72
               1
 10
-1479.3706379622113
 20
-1355.1911952354692
 11
-1471.8718627324738
 21
-1355.1911952354692
 72
               1
 10
-1471.8718627324738
 20
-1355.1911952354692
 11
-1467.559243720206
 21
-1366.9697756693788
 72
               1
 10
-1467.559243720206
 20
-1366.9697756693788
 11
-1479.2794979012313
 21
-1376.5428364667093
 72
               1
 10
-1479.2794979012313
 20
-1376.5428364667093
 11
-1478.5868630665036
 21
-1377.2354818831191
 72
               1
 10
-1478.5868630665036
 20
-1377.2354818831191
 11
-1470.5266764893513
 21
-1377.1115385957341
 72
               1
 10
-1470.5266764893513
 20
-1377.1115385957341
 11
-1465.3318517387888
 21
-1373.039525958314
 72
               1
 10
-1465.3318517387888
 20
-1373.039525958314
 11
-1463.516394209234
 21
-1377.9937443340289
 72
               1
 10
-1463.516394209234
 20
-1377.9937443340289
 11
-1452.0075832766113
 21
-1377.9937443340289
 72
               1
 10
-1452.0075832766113
 20
-1377.9937443340289
 11
-1456.8633708097361
 21
-1366.4047242220042
 72
               1
 10
-1456.8633708097361
 20
-1366.4047242220042
 11
-1451.8799893075761
 21
-1362.4967594616739
 72
               1
 10
-1451.8799893075761
 20
-1362.4967594616739
 11
-1453.8959380405911
 21
-1355.8218637173438
 72
               1
 10
-1453.8959380405911
 20
-1355.8218637173438
 11
-1459.4152184453715
 21
-1360.3240430514938
 72
               1
 10
-1459.4152184453715
 20
-1360.3240430514938
 11
-1461.5624118290689
 21
-1355.1911952354692
 72
               1
 10
-1461.5624118290689
 20
-1355.1911952354692
 11
-1451.5044981820836
 21
-1355.1911952354692
 72
               1
 10
-1451.5044981820836
 20
-1355.1911952354692
 11
-1451.5044981820836
 21
-1352.4206241515037
 72
               1
 10
-1451.5044981820836
 20
-1352.4206241515037
 11
-1451.5044981820836
 21
-1348.6402427785238
 72
               1
 10
-1451.5044981820836
 20
-1348.6402427785238
 11
-1451.5044981820836
 21
-1345.3665971817245
 72
               1
 10
-1451.5044981820836
 20
-1345.3665971817245
 11
-1457.1732449007313
 21
-1345.3665971817245
 97
        0
 75
               0
 76
               1
 98
        1
 10
0.0
 20
0.0
  0
ENDBLK
  5
183
100
AcDbEntity
  8
_____1
100
AcDbBlockEnd
  0
BLOCK
  5
184
100
AcDbEntity
  8
_____1
100
AcDbBlockBegin
  2
*U31
 70
               1
 10
0.0
 20
0.0
 30
0.0
  3
*U31
  1

  0
HATCH
  5
185
100
AcDbEntity
  8
_____1
  6
CONTINUOUS
 62
               7
100
AcDbHatch
 10
0.0
 20
0.0
 30
0.0
210
0.0
220
0.0
230
1.0
  2
SOLID
 70
               1
 71
               0
 91
        1
 92
        1
 93
       10
 72
               1
 10
-1873.6160028927104
 20
-1297.3736886443692
 11
-1873.6160028927104
 21
-1305.5359461640739
 72
               1
 10
-1873.6160028927104
 20
-1305.5359461640739
 11
-1909.2761998486631
 21
-1297.1914191040939
 72
               1
 10
-1909.2761998486631
 20
-1297.1914191040939
 11
-1944.6739286666175
 21
-1297.1914191040939
 72
               1
 10
-1944.6739286666175
 20
-1297.1914191040939
 11
-1944.6739286666175
 21
-1377.9937443340289
 72
               1
 10
-1944.6739286666175
 20
-1377.9937443340289
 11
-1910.6323275550428
 21
-1377.9937443340289
 72
               1
 10
-1910.6323275550428
 20
-1377.9937443340289
 11
-1910.6323275550428
 21
-1370.0101162546339
 72
               1
 10
-1910.6323275550428
 20
-1370.0101162546339
 11
-1876.5214587273176
 21
-1377.9937443340289
 72
               1
 10
-1876.5214587273176
 20
-1377.9937443340289
 11
-1839.9353007617176
 21
-1377.9937443340289
 72
               1
 10
-1839.9353007617176
 20
-1377.9937443340289
 11
-1839.9353007617176
 21
-1297.3736886443692
 72
               1
 10
-1839.9353007617176
 20
-1297.3736886443692
 11
-1873.6160028927104
 21
-1297.3736886443692
 97
        0
 75
               0
 76
               1
 98
        1
 10
0.0
 20
0.0
  0
HATCH
  5
186
100
AcDbEntity
  8
_____1
  6
CONTINUOUS
 62
               7
100
AcDbHatch
 10
0.0
 20
0.0
 30
0.0
210
0.0
220
0.0
230
1.0
  2
SOLID
 70
               1
 71
               0
 91
        1
 92
        1
 93
        1
 72
               4
 94
        2
 73
               0
 74
               0
 95
      107
 96
      104
 40
0.0
 40
0.0
 40
0.0
 40
0.0003765905969367
 40
0.0003765905969367
 40
0.0143604422883689
 40
0.0143604422883689
 40
0.0346322236208141
 40
0.0346322236208141
 40
0.0350235091012214
 40
0.0350235091012214
 40
0.0395509187515347
 40
0.0395509187515347
 40
0.0523198084587733
 40
0.0523198084587733
 40
0.0716099717453291
 40
0.0716099717453291
 40
0.0888213070370096
 40
0.0888213070370096
 40
0.1081003173462599
 40
0.1081003173462599
 40
0.137639785470028
 40
0.137639785470028
 40
0.1733609950596551
 40
0.1733609950596551
 40
0.2090821149689118
 40
0.2090821149689118
 40
0.2426207693931011
 40
0.2426207693931011
 40
0.2717922268276759
 40
0.2717922268276759
 40
0.294421467159365
 40
0.294421467159365
 40
0.3071703961999769
 40
0.3071703961999769
 40
0.3116751603979823
 40
0.3116751603979823
 40
0.3150341278643155
 40
0.3150341278643155
 40
0.3245075991028989
 40
0.3245075991028989
 40
0.3412955502218847
 40
0.3412955502218847
 40
0.3629390225707256
 40
0.3629390225707256
 40
0.3878217666751594
 40
0.3878217666751594
 40
0.4143239651402795
 40
0.4408261667705796
 40
0.4408261667705796
 40
0.4657088827156795
 40
0.4657088827156795
 40
0.4873526244634485
 40
0.4873526244634485
 40
0.5041377837587223
 40
0.5041377837587223
 40
0.5135886206223239
 40
0.5135886206223239
 40
0.5169280462608266
 40
0.5169280462608266
 40
0.5217879486534596
 40
0.5217879486534596
 40
0.5355011054524848
 40
0.5355011054524848
 40
0.5598166058173635
 40
0.5598166058173635
 40
0.5911702444716704
 40
0.5911702444716704
 40
0.6272159282628665
 40
0.6272159282628665
 40
0.6656076599412966
 40
0.6656076599412966
 40
0.7039992952348181
 40
0.7039992952348181
 40
0.7400453036511258
 40
0.7400453036511258
 40
0.7713976228856277
 40
0.7713976228856277
 40
0.7957186280498418
 40
0.7957186280498418
 40
0.8094206686172696
 40
0.8094206686172696
 40
0.8142622095491157
 40
0.8142622095491157
 40
0.8242370939273678
 40
0.8242370939273678
 40
0.8410537029972786
 40
0.8410537029972786
 40
0.8606395975404346
 40
0.8606395975404346
 40
0.8831565044058367
 40
0.8831565044058367
 40
0.9071389332484332
 40
0.9071389332484332
 40
0.9311213018815965
 40
0.9311213018815965
 40
0.9536384115328334
 40
0.9536384115328334
 40
0.9732234818649053
 40
0.9732234818649053
 40
0.9884162525535525
 40
0.9884162525535525
 40
0.9969756011043813
 40
0.9969756011043813
 40
1.0
 40
1.0
 40
1.0
 10
-1916.7749787296336
 20
-1355.4135686076452
 10
-1916.778604409023
 20
-1355.4280713252053
 10
-1916.7822300884122
 20
-1355.4425740427655
 10
-1916.8972367656995
 20
-1355.8770315462418
 10
-1917.1849828830241
 20
-1356.4752242926888
 10
-1917.4727290003486
 20
-1357.0734170391361
 10
-1918.2056361545824
 20
-1357.704958357335
 10
-1918.2175830653596
 20
-1357.7148843976345
 10
-1918.2295299761367
 20
-1357.7248104379339
 10
-1918.3114802964606
 20
-1357.7676271783248
 10
-1918.5481066059542
 20
-1357.8912577782298
 10
-1918.7847329154481
 20
-1358.0148883781346
 10
-1919.4466049004814
 20
-1358.3606978984044
 10
-1920.1084768855148
 20
-1358.7065074186739
 10
-1920.8039804602613
 20
-1359.0698884998608
 10
-1921.4994840350075
 20
-1359.4332695810476
 10
-1922.0150767858372
 20
-1359.7026523104128
 10
-1922.5306695366671
 20
-1359.9720350397779
 10
-1923.3716675529436
 20
-1360.4114328797427
 10
-1924.21266556922
 20
-1360.8508307197076
 10
-1925.4502477849735
 20
-1361.4974326638953
 10
-1926.687830000727
 20
-1362.1440346080831
 10
-1927.9638136963883
 20
-1362.8107002468255
 10
-1929.2397973920497
 20
-1363.4773658855677
 10
-1930.4773732973363
 20
-1364.1239645327132
 10
-1931.7149492026228
 20
-1364.7705631798588
 10
-1932.8373610873305
 20
-1365.3569918611947
 10
-1933.9597729720383
 20
-1365.9434205425305
 10
-1934.8900458042319
 20
-1366.4294619660909
 10
-1935.8203186364256
 20
-1366.9155033896513
 10
-1936.4823795396351
 20
-1367.2614116143618
 10
-1937.1444404428448
 20
-1367.6073198390723
 10
-1937.3794732778272
 20
-1367.7301178933067
 10
-1937.6145061128095
 20
-1367.8529159475413
 10
-1937.6964564331336
 20
-1367.8957326879322
 10
-1937.6964564331336
 20
-1367.8271338242903
 10
-1937.6964564331336
 20
-1367.6290589921859
 10
-1937.6964564331336
 20
-1367.4309841600816
 10
-1937.6964564331336
 20
-1366.876945251264
 10
-1937.6964564331336
 20
-1366.3229063424465
 10
-1937.6964564331336
 20
-1365.5441234797586
 10
-1937.6964564331336
 20
-1364.7653406170707
 10
-1937.6964564331336
 20
-1363.8258142618524
 10
-1937.6964564331336
 20
-1362.8862879066339
 10
-1937.6964564331336
 20
-1361.8503341784203
 10
-1937.6964564331336
 20
-1360.814380450207
 10
-1937.6964564331336
 20
-1358.6781856960999
 10
-1937.6964564331336
 20
-1357.6422317165977
 10
-1937.6964564331336
 20
-1356.6062777370955
 10
-1937.6964564331336
 20
-1355.6667538687793
 10
-1937.6964564331336
 20
-1354.7272300004631
 10
-1937.6964564331336
 20
-1353.9484232628697
 10
-1937.6964564331336
 20
-1353.1696165252763
 10
-1937.6964564331336
 20
-1352.6158231386278
 10
-1937.6964564331336
 20
-1352.0620297519793
 10
-1937.6964564331336
 20
-1351.865506376238
 10
-1937.6964564331336
 20
-1351.6689830004968
 10
-1937.6964564331336
 20
-1351.6003841368549
 10
-1937.6083828585381
 20
-1351.5543599775581
 10
-1937.3544966044201
 20
-1351.4216879308419
 10
-1937.1006103503018
 20
-1351.2890158841255
 10
-1936.3895906513251
 20
-1350.917461941413
 10
-1935.6785709523483
 20
-1350.5459079987002
 10
-1934.6786665075692
 20
-1350.0233930257275
 10
-1933.6787620627902
 20
-1349.5008780527548
 10
-1932.4725141947131
 20
-1348.8705352480206
 10
-1931.266266326636
 20
-1348.2401924432863
 10
-1929.9362130801537
 20
-1347.5451532925272
 10
-1928.6061598336712
 20
-1346.850114141768
 10
-1927.2348357832227
 20
-1346.133508317183
 10
-1925.8635117327742
 20
-1345.4169024925982
 10
-1924.5334652682723
 20
-1344.7218668858654
 10
-1923.2034188037705
 20
-1344.0268312791327
 10
-1921.9971413119467
 20
-1343.3964729940699
 10
-1920.7908638201229
 20
-1342.7661147090073
 10
-1919.7910818381088
 20
-1342.2436637307778
 10
-1918.7912998560946
 20
-1341.7212127525486
 10
-1918.0797703573076
 20
-1341.3493924063432
 10
-1917.3682408585205
 20
-1340.9775720601378
 10
-1917.1156465813733
 20
-1340.8455751552483
 10
-1916.8630523042261
 20
-1340.7135782503585
 10
-1916.7749787296336
 20
-1340.6675540910619
 10
-1916.7749787296336
 20
-1340.8291381114213
 10
-1916.7749787296336
 20
-1341.4594758076166
 10
-1916.7749787296336
 20
-1342.0898135038119
 10
-1916.7749787296336
 20
-1342.7945727787965
 10
-1916.7749787296336
 20
-1343.499332053781
 10
-1916.7749787296336
 20
-1344.3495276673657
 10
-1916.7749787296336
 20
-1345.1997232809504
 10
-1916.7749787296336
 20
-1346.1371802215376
 10
-1916.7749787296336
 20
-1347.0746371621246
 10
-1916.7749787296336
 20
-1348.0411828641736
 10
-1916.7749787296336
 20
-1349.0077285662228
 10
-1916.7749787296336
 20
-1349.9451807266882
 10
-1916.7749787296336
 20
-1350.8826328871535
 10
-1916.7749787296336
 20
-1351.7328493803457
 10
-1916.7749787296336
 20
-1352.5830658735381
 10
-1916.7749787296336
 20
-1353.2877388335041
 10
-1916.7749787296336
 20
-1353.9924117934702
 10
-1916.7749787296336
 20
-1354.4939167285791
 10
-1916.7749787296336
 20
-1354.9954216636879
 10
-1916.7749787296336
 20
-1355.1734568355041
 10
-1916.7749787296336
 20
-1355.3514920073205
 10
-1916.7749787296336
 20
-1355.4135686076452
 97
        0
 75
               0
 76
               1
 98
        1
 10
0.0
 20
0.0
  0
SOLID
  5
187
100
AcDbEntity
  8
_____1
  6
CONTINUOUS
 62
               7
100
AcDbTrace
 10
-1916.7749750784003
 20
-1336.2419247443145
 30
0.0
 11
-1937.6964601945929
 21
-1336.2419247443145
 31
0.0
 12
-1916.7749750784003
 22
-1325.8850890512792
 32
0.0
 13
-1937.6964601945929
 23
-1325.8850890512792
 33
0.0
  0
SOLID
  5
188
100
AcDbEntity
  8
_____1
  6
CONTINUOUS
 62
               7
100
AcDbTrace
 10
-1916.7749750784003
 20
-1320.9964771283794
 30
0.0
 11
-1937.6964601945929
 21
-1319.4434983184988
 31
0.0
 12
-1916.7749750784003
 22
-1310.6396414353442
 32
0.0
 13
-1937.6964601945929
 23
-1309.083011943819
 33
0.0
  0
SOLID
  5
189
100
AcDbEntity
  8
_____1
  6
CONTINUOUS
 62
               7
100
AcDbTrace
 10
-1893.4766422486077
 20
-1366.0037206517138
 30
0.0
 11
-1893.4766422486077
 21
-1366.0000805517543
 31
0.0
 12
-1893.4729915669602
 22
-1366.0000805517543
 32
0.0
 13
-1893.4729915669602
 23
-1366.0000805517543
 33
0.0
  0
HATCH
  5
18A
100
AcDbEntity
  8
_____1
  6
CONTINUOUS
 62
               7
100
AcDbHatch
 10
0.0
 20
0.0
 30
0.0
210
0.0
220
0.0
230
1.0
  2
SOLID
 70
               1
 71
               0
 91
        1
 92
        1
 93
        1
 72
               4
 94
        2
 73
               0
 74
               0
 95
      106
 96
      103
 40
0.0
 40
0.0
 40
0.0
 40
0.0003687219168029
 40
0.0003687219168029
 40
0.0138428385244202
 40
0.0138428385244202
 40
0.0327049076512977
 40
0.0327049076512977
 40
0.0330609961699796
 40
0.0330609961699796
 40
0.0363852112049545
 40
0.0363852112049545
 40
0.0457606683477899
 40
0.0457606683477899
 40
0.0623749285558707
 40
0.0623749285558707
 40
0.0837944739704289
 40
0.0837944739704289
 40
0.1084197771007859
 40
0.1084197771007859
 40
0.1346477794499273
 40
0.160875784931507
 40
0.160875784931507
 40
0.1855010601938266
 40
0.1855010601938266
 40
0.2069208722200547
 40
0.2069208722200547
 40
0.2235323694891161
 40
0.2235323694891161
 40
0.2328854264359239
 40
0.2328854264359239
 40
0.2361903018260468
 40
0.2361903018260468
 40
0.2407821203975321
 40
0.2407821203975321
 40
0.2537388267212896
 40
0.2537388267212896
 40
0.2767130260220251
 40
0.2767130260220251
 40
0.3063371230974684
 40
0.3063371230974684
 40
0.3403944408957156
 40
0.3403944408957156
 40
0.3766683929775303
 40
0.3766683929775303
 40
0.4129422539912527
 40
0.4129422539912527
 40
0.4469998785075368
 40
0.4469998785075368
 40
0.4766227289455406
 40
0.4766227289455406
 40
0.4996021293877213
 40
0.4996021293877213
 40
0.5125483326777568
 40
0.5125483326777568
 40
0.5171228026505161
 40
0.5171228026505161
 40
0.5207479929523609
 40
0.5207479929523609
 40
0.5309723063472964
 40
0.5309723063472964
 40
0.5490908258610063
 40
0.5490908258610063
 40
0.5724497023145779
 40
0.5724497023145779
 40
0.5993045865953292
 40
0.5993045865953292
 40
0.6279072788859862
 40
0.6565099745926758
 40
0.6565099745926758
 40
0.6833648284821954
 40
0.6833648284821954
 40
0.7067239956865344
 40
0.7067239956865344
 40
0.7248395021040166
 40
0.7248395021040166
 40
0.735039387183535
 40
0.735039387183535
 40
0.7386434868242245
 40
0.7386434868242245
 40
0.7429153374910417
 40
0.7429153374910417
 40
0.7549691923390302
 40
0.7549691923390302
 40
0.7763424994666156
 40
0.7763424994666156
 40
0.8039023250293178
 40
0.8039023250293178
 40
0.8355864548531987
 40
0.8355864548531987
 40
0.8693327590628788
 40
0.8693327590628788
 40
0.9030789785503014
 40
0.9030789785503014
 40
0.9347633937194251
 40
0.9347633937194251
 40
0.9623220595131069
 40
0.9623220595131069
 40
0.9837002053553071
 40
0.9837002053553071
 40
0.9957442890438137
 40
0.9957442890438137
 40
1.0
 40
1.0
 40
1.0
 10
-1893.2870747666334
 20
-1365.0194396215379
 10
-1893.2969413695641
 20
-1365.0313865323151
 10
-1893.3068079724947
 20
-1365.0433334430923
 10
-1893.6082578300689
 20
-1365.3970945949618
 10
-1894.1353804555984
 20
-1365.8123091418377
 10
-1894.6625030811281
 20
-1366.2275236887135
 10
-1895.5656656699539
 20
-1366.4702661263725
 10
-1895.580168387514
 20
-1366.4739512431292
 10
-1895.5946711050742
 20
-1366.477636359886
 10
-1895.6665387736268
 20
-1366.477636359886
 10
-1895.8740520708861
 20
-1366.477636359886
 10
-1896.0815653681454
 20
-1366.477636359886
 10
-1896.6620047887263
 20
-1366.477636359886
 10
-1897.242444209307
 20
-1366.477636359886
 10
-1898.05833685941
 20
-1366.477636359886
 10
-1898.874229509513
 20
-1366.477636359886
 10
-1899.858525241392
 20
-1366.477636359886
 10
-1900.842820973271
 20
-1366.477636359886
 10
-1901.9281389395392
 20
-1366.477636359886
 10
-1903.0134569058075
 20
-1366.477636359886
 10
-1905.2514434904817
 20
-1366.477636359886
 10
-1906.3367617200133
 20
-1366.477636359886
 10
-1907.4220799495452
 20
-1366.477636359886
 10
-1908.4063730760138
 20
-1366.477636359886
 10
-1909.3906662024824
 20
-1366.477636359886
 10
-1910.2065838651581
 20
-1366.477636359886
 10
-1911.0225015278338
 20
-1366.477636359886
 10
-1911.6026837268651
 20
-1366.477636359886
 10
-1912.1828659258963
 20
-1366.477636359886
 10
-1912.3887538383351
 20
-1366.477636359886
 10
-1912.5946417507741
 20
-1366.477636359886
 10
-1912.6665094193268
 20
-1366.477636359886
 10
-1912.620469913526
 20
-1366.3895474387896
 10
-1912.4877536280492
 20
-1366.1356169459095
 10
-1912.3550373425724
 20
-1365.8816864530295
 10
-1911.9833595072469
 20
-1365.1705428614414
 10
-1911.6116816719216
 20
-1364.4593992698533
 10
-1911.0889924692142
 20
-1363.4593205953406
 10
-1910.5663032665066
 20
-1362.4592419208282
 10
-1909.9357502774449
 20
-1361.2527838684209
 10
-1909.3051972883832
 20
-1360.0463258160135
 10
-1908.6099263806564
 20
-1358.7160408125619
 10
-1907.9146554729293
 20
-1357.3857558091102
 10
-1907.1978107000859
 20
-1356.0141928104031
 10
-1906.4809659272426
 20
-1354.6426298116962
 10
-1905.785698564722
 20
-1353.3123515914081
 10
-1905.0904312022014
 20
-1351.9820733711199
 10
-1904.4598627276462
 20
-1350.7755856898034
 10
-1903.8292942530909
 20
-1349.5690980084871
 10
-1903.3066690664655
 20
-1348.5691418180786
 10
-1902.7840438798403
 20
-1347.5691856276699
 10
-1902.4120995521939
 20
-1346.8575321474405
 10
-1902.0401552245478
 20
-1346.145878667211
 10
-1901.9081143060187
 20
-1345.8932403764243
 10
-1901.7760733874895
 20
-1345.6406020856377
 10
-1901.7300338816885
 20
-1345.5525131645411
 10
-1901.6516592963169
 20
-1345.5525131645411
 10
-1901.4253576928363
 20
-1345.5525131645411
 10
-1901.199056089356
 20
-1345.5525131645411
 10
-1900.5660635373779
 20
-1345.5525131645411
 10
-1899.9330709854
 20
-1345.5525131645411
 10
-1899.0433072091728
 20
-1345.5525131645411
 10
-1898.1535434329455
 20
-1345.5525131645411
 10
-1897.0801293174845
 20
-1345.5525131645411
 10
-1896.0067152020238
 20
-1345.5525131645411
 10
-1894.8231322736153
 20
-1345.5525131645411
 10
-1893.6395493452069
 20
-1345.5525131645411
 10
-1891.198934891238
 20
-1345.5525131645411
 10
-1890.0153516757318
 20
-1345.5525131645411
 10
-1888.8317684602259
 20
-1345.5525131645411
 10
-1887.7583571860691
 20
-1345.5525131645411
 10
-1886.6849459119126
 20
-1345.5525131645411
 10
-1885.7951548584676
 20
-1345.5525131645411
 10
-1884.9053638050227
 20
-1345.5525131645411
 10
-1884.2726517634997
 20
-1345.5525131645411
 10
-1883.6399397219766
 20
-1345.5525131645411
 10
-1883.4154106660662
 20
-1345.5525131645411
 10
-1883.1908816101559
 20
-1345.5525131645411
 10
-1883.1125070247842
 20
-1345.5525131645411
 10
-1883.1553391116793
 20
-1345.6344634848649
 10
-1883.2788094959351
 20
-1345.870698473014
 10
-1883.4022798801907
 20
-1346.1069334611632
 10
-1883.7480641596558
 20
-1346.7685200080418
 10
-1884.0938484391206
 20
-1347.4301065549207
 10
-1884.5801236273714
 20
-1348.3604933357378
 10
-1885.0663988156221
 20
-1349.2908801165549
 10
-1885.6530232797804
 20
-1350.4132644370879
 10
-1886.2396477439388
 20
-1351.5356487576212
 10
-1886.8864814450944
 20
-1352.7732309733747
 10
-1887.5333151462501
 20
-1354.0108131891284
 10
-1888.2002197332522
 20
-1355.2867968847911
 10
-1888.8671243202546
 20
-1356.5627805804538
 10
-1889.5139547231865
 20
-1357.800356485739
 10
-1890.1607851261183
 20
-1359.0379323910242
 10
-1890.7474239969451
 20
-1360.1603442757335
 10
-1891.3340628677722
 20
-1361.2827561604427
 10
-1891.82027849973
 20
-1362.2130289926349
 10
-1892.3064941316877
 20
-1363.1433018248269
 10
-1892.6525263378403
 20
-1363.8053627280378
 10
-1892.9985585439931
 20
-1364.4674236312489
 10
-1893.1214006118657
 20
-1364.7024564662315
 10
-1893.2442426797386
 20
-1364.9374893012139
 10
-1893.2870747666334
 20
-1365.0194396215379
 97
        0
 75
               0
 76
               1
 98
        1
 10
0.0
 20
0.0
  0
HATCH
  5
18B
100
AcDbEntity
  8
_____1
  6
CONTINUOUS
 62
               7
100
AcDbHatch
 10
0.0
 20
0.0
 30
0.0
210
0.0
220
0.0
230
1.0
  2
SOLID
 70
               1
 71
               0
 91
        1
 92
        1
 93
        1
 72
               4
 94
        2
 73
               0
 74
               0
 95
      410
 96
      407
 40
0.0
 40
0.0
 40
0.0
 40
0.002384478517627
 40
0.002384478517627
 40
0.0076716774181628
 40
0.0076716774181628
 40
0.0139752913569067
 40
0.0139752913569067
 40
0.0214744903236639
 40
0.0214744903236639
 40
0.0332828751163564
 40
0.0332828751163564
 40
0.047463778718176
 40
0.047463778718176
 40
0.0608548505524855
 40
0.0608548505524855
 40
0.0718842806135552
 40
0.0718842806135552
 40
0.0783615765119866
 40
0.0783615765119866
 40
0.0807296899636073
 40
0.0807296899636073
 40
0.0822924975045602
 40
0.0822924975045602
 40
0.0865472266162754
 40
0.0865472266162754
 40
0.0937753110603815
 40
0.0937753110603815
 40
0.1025523410448086
 40
0.1025523410448086
 40
0.111846502927013
 40
0.111846502927013
 40
0.1206237030612788
 40
0.1206237030612788
 40
0.1278500053937154
 40
0.1278500053937154
 40
0.132090284702164
 40
0.132090284702164
 40
0.1336406167433278
 40
0.1336406167433278
 40
0.1371163685869894
 40
0.1371163685869894
 40
0.1427002213100119
 40
0.1427002213100119
 40
0.148799741829818
 40
0.148799741829818
 40
0.1552586216828336
 40
0.1552586216828336
 40
0.1613577622248967
 40
0.1613577622248967
 40
0.1663812618277373
 40
0.1663812618277373
 40
0.1693314317996273
 40
0.1693314317996273
 40
0.1704100203502404
 40
0.1704100203502404
 40
0.172392094845379
 40
0.172392094845379
 40
0.1755736410901368
 40
0.1755736410901368
 40
0.179047699835674
 40
0.179047699835674
 40
0.1827264458837773
 40
0.1827264458837773
 40
0.1862005719767562
 40
0.1862005719767562
 40
0.189390124532762
 40
0.189390124532762
 40
0.1913528299612042
 40
0.1913528299612042
 40
0.1942228730479685
 40
0.1942228730479685
 40
0.1988297507548364
 40
0.1988297507548364
 40
0.2038601864473983
 40
0.2038601864473983
 40
0.2091870092733016
 40
0.2091870092733016
 40
0.2142175424849364
 40
0.2142175424849364
 40
0.2188360133273359
 40
0.2188360133273359
 40
0.22167801001318
 40
0.22167801001318
 40
0.2216878335246942
 40
0.2216878335246942
 40
0.2234719646174993
 40
0.2234719646174993
 40
0.2263357800757083
 40
0.2263357800757083
 40
0.2294628957524303
 40
0.2294628957524303
 40
0.2327742572694067
 40
0.2327742572694067
 40
0.2359014335677913
 40
0.2359014335677913
 40
0.238772455772702
 40
0.238772455772702
 40
0.2405391521251872
 40
0.2405391521251872
 40
0.2420955321824553
 40
0.2420955321824553
 40
0.2463327625291478
 40
0.2463327625291478
 40
0.253531119451731
 40
0.253531119451731
 40
0.2622720514423055
 40
0.2622720514423055
 40
0.2715279884809045
 40
0.2715279884809045
 40
0.2802690899215325
 40
0.2802690899215325
 40
0.2874656720618765
 40
0.2874656720618765
 40
0.291688512034164
 40
0.291688512034164
 40
0.2932324679006303
 40
0.2932324679006303
 40
0.2950144523483984
 40
0.2950144523483984
 40
0.297877239785067
 40
0.297877239785067
 40
0.3010044051277037
 40
0.3010044051277037
 40
0.3043158105345857
 40
0.3043158105345857
 40
0.3074427810663026
 40
0.3074427810663026
 40
0.3103151710084655
 40
0.3103151710084655
 40
0.3120837865011233
 40
0.3120837865011233
 40
0.3120936100126375
 40
0.3120936100126375
 40
0.3121034335241597
 40
0.3121034335241597
 40
0.3133017649254496
 40
0.3133017649254496
 40
0.3165642111096105
 40
0.3165642111096105
 40
0.3221065701868401
 40
0.3221065701868401
 40
0.3288366315442373
 40
0.3288366315442373
 40
0.3359632199054259
 40
0.3359632199054259
 40
0.3426934117305167
 40
0.3426934117305167
 40
0.3482344043180657
 40
0.3482344043180657
 40
0.3514857706651124
 40
0.3514857706651124
 40
0.3526745360880279
 40
0.3526745360880279
 40
0.3553981214894338
 40
0.3553981214894338
 40
0.3597736064043729
 40
0.3597736064043729
 40
0.3645531665659015
 40
0.3645531665659015
 40
0.3696143192800102
 40
0.3696143192800102
 40
0.3743935816924769
 40
0.3743935816924769
 40
0.3787837430788084
 40
0.3787837430788084
 40
0.3814868953664493
 40
0.3814868953664493
 40
0.3826852267677385
 40
0.3826852267677385
 40
0.3859476729519044
 40
0.3859476729519044
 40
0.3914900320291376
 40
0.3914900320291376
 40
0.3982200933865349
 40
0.3982200933865349
 40
0.4053466817477234
 40
0.4053466817477234
 40
0.4120768735728142
 40
0.4120768735728142
 40
0.4176178661603633
 40
0.4176178661603633
 40
0.4208692325074063
 40
0.4208692325074063
 40
0.4220579979303175
 40
0.4220579979303175
 40
0.4235614022142729
 40
0.4235614022142729
 40
0.4259766460183294
 40
0.4259766460183294
 40
0.4286149371542009
 40
0.4286149371542009
 40
0.4321560671893246
 40
0.4321560671893246
 40
0.4359763114338507
 40
0.4359763114338507
 40
0.437962263075803
 40
0.437962263075803
 40
0.4391605944770929
 40
0.4391605944770929
 40
0.4424230406612538
 40
0.4424230406612538
 40
0.4479653997384834
 40
0.4479653997384834
 40
0.4546954610958806
 40
0.4546954610958806
 40
0.4618220494570692
 40
0.4618220494570692
 40
0.4685522412821599
 40
0.4685522412821599
 40
0.474093233869709
 40
0.474093233869709
 40
0.4773446002167557
 40
0.4773446002167557
 40
0.4785333656396712
 40
0.4785333656396712
 40
0.4804147103458591
 40
0.4804147103458591
 40
0.4834371216781739
 40
0.4834371216781739
 40
0.4867386521545634
 40
0.4867386521545634
 40
0.4902346955908976
 40
0.4902346955908976
 40
0.4935360203940593
 40
0.4935360203940593
 40
0.4965685696503512
 40
0.4965685696503512
 40
0.4984357999724669
 40
0.4984357999724669
 40
0.5022709202274301
 40
0.5022709202274301
 40
0.5084321042365343
 40
0.5084321042365343
 40
0.5151622724830766
 40
0.5151622724830766
 40
0.5222889553024626
 40
0.5222889553024626
 40
0.5290187042842171
 40
0.5290187042842171
 40
0.5345615985828388
 40
0.5345615985828388
 40
0.5378167954794211
 40
0.5378167954794211
 40
0.5390069025363351
 40
0.5390069025363351
 40
0.5406442352732955
 40
0.5406442352732955
 40
0.5451018585435864
 40
0.5451018585435864
 40
0.5526746267672962
 40
0.5526746267672962
 40
0.5618702046937141
 40
0.5618702046937141
 40
0.5716075748519787
 40
0.5716075748519787
 40
0.5808033310421313
 40
0.5808033310421313
 40
0.5883742321710676
 40
0.5883742321710676
 40
0.5928167165740799
 40
0.5928167165740799
 40
0.5944409788953387
 40
0.5944409788953387
 40
0.5944606259183842
 40
0.5944606259183842
 40
0.5944704494299063
 40
0.5944704494299063
 40
0.5957607592946819
 40
0.5957607592946819
 40
0.5992736159970961
 40
0.5992736159970961
 40
0.6052413813279577
 40
0.6052413813279577
 40
0.6124880115595168
 40
0.6124880115595168
 40
0.6201616044026627
 40
0.6201616044026627
 40
0.6274083751160228
 40
0.6274083751160228
 40
0.6333746690716767
 40
0.6333746690716767
 40
0.6368755954991121
 40
0.6368755954991121
 40
0.6381556051445549
 40
0.6381556051445549
 40
0.6400140402851813
 40
0.6400140402851813
 40
0.6429971256118475
 40
0.6429971256118475
 40
0.6462544768714381
 40
0.6462544768714381
 40
0.6497037472929321
 40
0.6497037472929321
 40
0.6529611616989154
 40
0.6529611616989154
 40
0.6559517539130407
 40
0.6559517539130407
 40
0.6577920282053907
 40
0.6577920282053907
 40
0.6603016766200783
 40
0.6603016766200783
 40
0.6671383731250349
 40
0.6671383731250349
 40
0.6787624834460387
 40
0.6787624834460387
 40
0.6928811705375753
 40
0.6928811705375753
 40
0.7078316741567371
 40
0.7078316741567371
 40
0.7219494817058703
 40
0.7219494817058703
 40
0.7335774807865613
 40
0.7335774807865613
 40
0.7404063006199799
 40
0.7404063006199799
 40
0.7429029319858695
 40
0.7429029319858695
 40
0.7429127554973843
 40
0.7429127554973843
 40
0.7429324025204214
 40
0.7429324025204214
 40
0.7431040272339781
 40
0.7431040272339781
 40
0.7464102013119423
 40
0.7464102013119423
 40
0.7497015563969051
 40
0.7497015563969051
 40
0.7541141459187386
 40
0.7541141459187386
 40
0.7542940028575498
 40
0.7542940028575498
 40
0.7544416826176572
 40
0.7544416826176572
 40
0.7544613296406868
 40
0.7544613296406868
 40
0.7544809766637158
 40
0.7544809766637158
 40
0.7564585124124498
 40
0.7564585124124498
 40
0.7618456461889178
 40
0.7618456461889178
 40
0.7710051338576059
 40
0.7710051338576059
 40
0.782130281223017
 40
0.782130281223017
 40
0.7939108777382553
 40
0.7939108777382553
 40
0.805035332047805
 40
0.805035332047805
 40
0.8141978839549929
 40
0.8141978839549929
 40
0.8195788111252139
 40
0.8195788111252139
 40
0.8215460897880523
 40
0.8215460897880523
 40
0.8238876235431208
 40
0.8238876235431208
 40
0.8290795993163761
 40
0.8290795993163761
 40
0.8352696843632227
 40
0.8352696843632227
 40
0.84263382179907
 40
0.84263382179907
 40
0.8542295360739157
 40
0.8542295360739157
 40
0.8681550397912101
 40
0.8681550397912101
 40
0.8813049367119776
 40
0.8813049367119776
 40
0.8921357253293759
 40
0.8921357253293759
 40
0.8984963643016355
 40
0.8984963643016355
 40
0.9008218277276283
 40
0.9008218277276283
 40
0.9027054387719431
 40
0.9027054387719431
 40
0.9057289354464265
 40
0.9057289354464265
 40
0.9090304134876081
 40
0.9090304134876081
 40
0.9125264105868209
 40
0.9125264105868209
 40
0.9158279526298336
 40
0.9158279526298336
 40
0.9188590578862984
 40
0.9188590578862984
 40
0.9207242620604241
 40
0.9207242620604241
 40
0.9230618500921123
 40
0.9230618500921123
 40
0.9294298257148025
 40
0.9294298257148025
 40
0.9402569921841567
 40
0.9402569921841567
 40
0.9534077083462876
 40
0.9534077083462876
 40
0.9673332120635814
 40
0.9673332120635814
 40
0.9804831089843483
 40
0.9804831089843483
 40
0.9913138976017516
 40
0.9913138976017516
 40
0.9976745365740112
 40
0.9976745365740112
 40
1.0
 40
1.0
 40
1.0
 10
-1881.2642426589227
 20
-1326.0673592483186
 10
-1881.4942508950553
 20
-1326.067667120137
 10
-1882.1491186211379
 20
-1326.0685436770809
 10
-1882.8039863472204
 20
-1326.0694202340248
 10
-1884.1111892290082
 20
-1326.0711699580088
 10
-1885.4183921107963
 20
-1326.0729196819927
 10
-1886.4504497458233
 20
-1326.0743011171332
 10
-1887.4825073808504
 20
-1326.0756825522737
 10
-1889.2333898530615
 20
-1326.0780261525665
 10
-1890.9842723252725
 20
-1326.0803697528595
 10
-1893.6154615632477
 20
-1326.0838916659281
 10
-1896.2466508012226
 20
-1326.087413578997
 10
-1898.8779710079659
 20
-1326.0909356673737
 10
-1901.5092912147093
 20
-1326.0944577557505
 10
-1903.8473752139089
 20
-1326.0975873400785
 10
-1906.1854592131087
 20
-1326.1007169244062
 10
-1907.9403781350197
 20
-1326.1030659275862
 10
-1909.6952970569309
 20
-1326.1054149307658
 10
-1910.3440917345788
 20
-1326.1062833587839
 10
-1910.9928864122267
 20
-1326.1071517868022
 10
-1911.2228946483592
 20
-1326.1074596586209
 10
-1911.1570380677294
 20
-1325.9718561171194
 10
-1910.9695345681589
 20
-1325.5857726256527
 10
-1910.7820310685886
 20
-1325.1996891341857
 10
-1910.2797640873223
 20
-1324.1654844915047
 10
-1909.7774971060562
 20
-1323.1312798488239
 10
-1909.1079575747031
 20
-1321.7526487271039
 10
-1908.4384180433497
 20
-1320.3740176053839
 10
-1907.6850382692182
 20
-1318.8227532595822
 10
-1906.9316584950866
 20
-1317.2714889137806
 10
-1906.178282294366
 20
-1315.7202319258968
 10
-1905.4249060936454
 20
-1314.168974938013
 10
-1904.7553354044362
 20
-1312.7902796599778
 10
-1904.085764715227
 20
-1311.4115843819429
 10
-1903.5838178051633
 20
-1310.3780387893976
 10
-1903.0818708950997
 20
-1309.3444931968525
 10
-1902.8963899053672
 20
-1308.9625742018445
 10
-1902.7109089156347
 20
-1308.5806552068366
 10
-1902.6450523350049
 20
-1308.4450516653351
 10
-1902.3622528673386
 20
-1308.4450516653351
 10
-1901.3552055238256
 20
-1308.4450516653351
 10
-1900.3481581803128
 20
-1308.4450516653351
 10
-1899.283045325732
 20
-1308.4450516653351
 10
-1898.217932471151
 20
-1308.4450516653351
 10
-1897.0195215052549
 20
-1308.4450516653351
 10
-1895.8211105393589
 20
-1308.4450516653351
 10
-1894.6226399219522
 20
-1308.4450516653351
 10
-1893.4241693045458
 20
-1308.4450516653351
 10
-1892.3592571107019
 20
-1308.4450516653351
 10
-1891.2943449168583
 20
-1308.4450516653351
 10
-1890.495043198106
 20
-1308.4450516653351
 10
-1889.6957414793537
 20
-1308.4450516653351
 10
-1889.4002391091378
 20
-1308.4450516653351
 10
-1889.1047367389219
 20
-1308.4450516653351
 10
-1888.9999763558806
 20
-1308.4450516653351
 10
-1889.0730813381454
 20
-1308.5890646925775
 10
-1889.3329182707953
 20
-1309.1009299868447
 10
-1889.5927552034452
 20
-1309.6127952811121
 10
-1889.8673432390401
 20
-1310.1537194838756
 10
-1890.141931274635
 20
-1310.6946436866394
 10
-1890.4509034301964
 20
-1311.3033028241766
 10
-1890.759875585758
 20
-1311.911961961714
 10
-1891.0688462758119
 20
-1312.5206182122733
 10
-1891.3778169658658
 20
-1313.1292744628327
 10
-1891.6524177797569
 20
-1313.6702238381772
 10
-1891.9270185936482
 20
-1314.2111732135215
 10
-1892.1881876200569
 20
-1314.7256626634726
 10
-1892.4493566464657
 20
-1315.2401521134238
 10
-1892.5178759871512
 20
-1315.3751316643504
 10
-1892.2840158003594
 20
-1315.3751316643504
 10
-1891.4528068769496
 20
-1315.3751316643504
 10
-1890.6215979535395
 20
-1315.3751316643504
 10
-1889.7432007868217
 20
-1315.3751316643504
 10
-1888.8648036201039
 20
-1315.3751316643504
 10
-1887.8764129007054
 20
-1315.3751316643504
 10
-1886.8880221813072
 20
-1315.3751316643504
 10
-1885.8996361500181
 20
-1315.3751316643504
 10
-1884.9112501187287
 20
-1315.3751316643504
 10
-1884.0328120747056
 20
-1315.3751316643504
 10
-1883.1543740306824
 20
-1315.3751316643504
 10
-1882.3189037876518
 20
-1315.3751316643504
 10
-1881.483433544621
 20
-1315.3751316643504
 10
-1881.2642426589227
 20
-1315.3751316643504
 10
-1881.2642426589227
 20
-1315.373105954953
 10
-1881.2642426589227
 20
-1315.3714861725055
 10
-1881.2642426589227
 20
-1315.2261095290166
 10
-1881.2642426589227
 20
-1314.7093975354881
 10
-1881.2642426589227
 20
-1314.1926855419595
 10
-1881.2642426589227
 20
-1313.6466394898257
 10
-1881.2642426589227
 20
-1313.1005934376919
 10
-1881.2642426589227
 20
-1312.4861710889631
 10
-1881.2642426589227
 20
-1311.8717487402344
 10
-1881.2642426589227
 20
-1311.2573293058183
 10
-1881.2642426589227
 20
-1310.6429098714023
 10
-1881.2642426589227
 20
-1310.0968384083387
 10
-1881.2642426589227
 20
-1309.5507669452752
 10
-1881.2642426589227
 20
-1309.0314059487164
 10
-1881.2642426589227
 20
-1308.5120449521573
 10
-1881.2642426589227
 20
-1308.375787320266
 10
-1881.1141131652987
 20
-1308.375787320266
 10
-1880.6866721233532
 20
-1308.375787320266
 10
-1880.2592310814077
 20
-1308.375787320266
 10
-1879.1142416689522
 20
-1308.375787320266
 10
-1877.9692522564965
 20
-1308.375787320266
 10
-1876.4429411446479
 20
-1308.375787320266
 10
-1874.9166300327993
 20
-1308.375787320266
 10
-1873.1991930976351
 20
-1308.375787320266
 10
-1871.4817561624709
 20
-1308.375787320266
 10
-1869.7643273734075
 20
-1308.375787320266
 10
-1868.0468985843443
 20
-1308.375787320266
 10
-1866.5205164437089
 20
-1308.375787320266
 10
-1864.9941343030732
 20
-1308.375787320266
 10
-1863.8498745386946
 20
-1308.375787320266
 10
-1862.7056147743162
 20
-1308.375787320266
 10
-1862.2827843327846
 20
-1308.375787320266
 10
-1861.8599538912526
 20
-1308.375787320266
 10
-1861.7098243976284
 20
-1308.375787320266
 10
-1861.7098243976284
 20
-1308.5207758798329
 10
-1861.7098243976284
 20
-1309.0370793402117
 10
-1861.7098243976284
 20
-1309.5533828005907
 10
-1861.7098243976284
 20
-1310.0994558884699
 10
-1861.7098243976284
 20
-1310.6455289763494
 10
-1861.7098243976284
 20
-1311.2599427202863
 10
-1861.7098243976284
 20
-1311.874356464223
 10
-1861.7098243976284
 20
-1312.4888007909158
 10
-1861.7098243976284
 20
-1313.1032451176086
 10
-1861.7098243976284
 20
-1313.6492153286631
 10
-1861.7098243976284
 20
-1314.1951855397174
 10
-1861.7098243976284
 20
-1314.715155353731
 10
-1861.7098243976284
 20
-1315.2351251677446
 10
-1861.7098243976284
 20
-1315.3714861725055
 10
-1861.7098243976284
 20
-1315.3735118819088
 10
-1861.7098243976284
 20
-1315.3751316643504
 10
-1861.707798688225
 20
-1315.3751316643504
 10
-1861.7061789057805
 20
-1315.3751316643504
 10
-1861.5905870324268
 20
-1315.3751316643504
 10
-1861.2614797424876
 20
-1315.3751316643504
 10
-1860.9323724525484
 20
-1315.3751316643504
 10
-1860.0507903732341
 20
-1315.3751316643504
 10
-1859.1692082939198
 20
-1315.3751316643504
 10
-1857.9940284110094
 20
-1315.3751316643504
 10
-1856.8188485280989
 20
-1315.3751316643504
 10
-1855.4965117379734
 20
-1315.3751316643504
 10
-1854.1741749478479
 20
-1315.3751316643504
 10
-1852.8518444297965
 20
-1315.3751316643504
 10
-1851.529513911745
 20
-1315.3751316643504
 10
-1850.3542793403758
 20
-1315.3751316643504
 10
-1849.1790447690066
 20
-1315.3751316643504
 10
-1848.2980244806245
 20
-1315.3751316643504
 10
-1847.4170041922423
 20
-1315.3751316643504
 10
-1847.091446823948
 20
-1315.3751316643504
 10
-1846.7658894556535
 20
-1315.3751316643504
 10
-1846.6502975823
 20
-1315.3751316643504
 10
-1846.6502975823
 20
-1315.5967322090123
 10
-1846.6502975823
 20
-1316.3858505254752
 10
-1846.6502975823
 20
-1317.1749688419384
 10
-1846.6502975823
 20
-1318.0095870632806
 10
-1846.6502975823
 20
-1318.8442052846228
 10
-1846.6502975823
 20
-1319.7832753789266
 10
-1846.6502975823
 20
-1320.7223454732307
 10
-1846.6502975823
 20
-1321.6614623102203
 10
-1846.6502975823
 20
-1322.6005791472098
 10
-1846.6502975823
 20
-1323.4350401315919
 10
-1846.6502975823
 20
-1324.269501115974
 10
-1846.6502975823
 20
-1325.0642230880935
 10
-1846.6502975823
 20
-1325.8589450602128
 10
-1846.6502975823
 20
-1326.0673592483186
 10
-1846.7658894556535
 20
-1326.0673592483186
 10
-1847.0949967455927
 20
-1326.0673592483186
 10
-1847.4241040355321
 20
-1326.0673592483186
 10
-1848.305686114848
 20
-1326.0673592483186
 10
-1849.1872681941636
 20
-1326.0673592483186
 10
-1850.3624480770741
 20
-1326.0673592483186
 10
-1851.5376279599845
 20
-1326.0673592483186
 10
-1852.8599647501101
 20
-1326.0673592483186
 10
-1854.1823015402354
 20
-1326.0673592483186
 10
-1855.5046320582869
 20
-1326.0673592483186
 10
-1856.8269625763385
 20
-1326.0673592483186
 10
-1858.0021971477076
 20
-1326.0673592483186
 10
-1859.1774317190768
 20
-1326.0673592483186
 10
-1860.058452007459
 20
-1326.0673592483186
 10
-1860.9394722958411
 20
-1326.0673592483186
 10
-1861.2650296641341
 20
-1326.0673592483186
 10
-1861.5905870324268
 20
-1326.0673592483186
 10
-1861.7061789057805
 20
-1326.0673592483186
 10
-1861.7061789057805
 20
-1326.1896815400999
 10
-1861.7061789057805
 20
-1326.6252705460165
 10
-1861.7061789057805
 20
-1327.0608595519329
 10
-1861.7061789057805
 20
-1327.5215642571352
 10
-1861.7061789057805
 20
-1327.9822689623375
 10
-1861.7061789057805
 20
-1328.5006305316083
 10
-1861.7061789057805
 20
-1329.0189921008791
 10
-1861.7061789057805
 20
-1329.8147391012708
 10
-1861.7061789057805
 20
-1330.6104861016624
 10
-1861.7061789057805
 20
-1331.2324265767775
 10
-1861.7061789057805
 20
-1331.8543670518925
 10
-1861.7061789057805
 20
-1331.9694105467925
 10
-1861.5905870324268
 20
-1331.9694105467925
 10
-1861.2614797424876
 20
-1331.9694105467925
 10
-1860.9323724525484
 20
-1331.9694105467925
 10
-1860.0507903732341
 20
-1331.9694105467925
 10
-1859.1692082939198
 20
-1331.9694105467925
 10
-1857.9940284110094
 20
-1331.9694105467925
 10
-1856.8188485280989
 20
-1331.9694105467925
 10
-1855.4965117379734
 20
-1331.9694105467925
 10
-1854.1741749478479
 20
-1331.9694105467925
 10
-1852.8518444297965
 20
-1331.9694105467925
 10
-1851.529513911745
 20
-1331.9694105467925
 10
-1850.3542793403758
 20
-1331.9694105467925
 10
-1849.1790447690066
 20
-1331.9694105467925
 10
-1848.2980244806245
 20
-1331.9694105467925
 10
-1847.4170041922423
 20
-1331.9694105467925
 10
-1847.091446823948
 20
-1331.9694105467925
 10
-1846.7658894556535
 20
-1331.9694105467925
 10
-1846.6502975823
 20
-1331.9694105467925
 10
-1846.6502975823
 20
-1332.1224834085328
 10
-1846.6502975823
 20
-1332.6675750243373
 10
-1846.6502975823
 20
-1333.2126666401418
 10
-1846.6502975823
 20
-1333.7891877845141
 10
-1846.6502975823
 20
-1334.3657089288861
 10
-1846.6502975823
 20
-1335.0143812817853
 10
-1846.6502975823
 20
-1335.6630536346845
 10
-1846.6502975823
 20
-1336.3117582755783
 10
-1846.6502975823
 20
-1336.9604629164721
 10
-1846.6502975823
 20
-1337.5368754477927
 10
-1846.6502975823
 20
-1338.1132879791135
 10
-1846.6502975823
 20
-1338.6622503778544
 10
-1846.6502975823
 20
-1339.2112127765956
 10
-1846.6502975823
 20
-1339.3551770265478
 10
-1846.9623365354032
 20
-1339.3551770265478
 10
-1848.0735055251728
 20
-1339.3551770265478
 10
-1849.1846745149423
 20
-1339.3551770265478
 10
-1850.3599125831809
 20
-1339.3551770265478
 10
-1851.5351506514194
 20
-1339.3551770265478
 10
-1852.8574689226341
 20
-1339.3551770265478
 10
-1854.1797871938488
 20
-1339.3551770265478
 10
-1855.5021712841203
 20
-1339.3551770265478
 10
-1856.8245553743916
 20
-1339.3551770265478
 10
-1857.9995720349775
 20
-1339.3551770265478
 10
-1859.1745886955637
 20
-1339.3551770265478
 10
-1860.0565326171375
 20
-1339.3551770265478
 10
-1860.9384765387113
 20
-1339.3551770265478
 10
-1861.264531785569
 20
-1339.3551770265478
 10
-1861.5905870324268
 20
-1339.3551770265478
 10
-1861.7061789057805
 20
-1339.3551770265478
 10
-1861.7062068941286
 20
-1339.5131152690012
 10
-1861.7062865811235
 20
-1339.9627889825908
 10
-1861.7063662681187
 20
-1340.4124626961805
 10
-1861.7065797262499
 20
-1341.6170069270706
 10
-1861.7067931843812
 20
-1342.8215511579606
 10
-1861.7070777315676
 20
-1344.4272509350237
 10
-1861.7073622787539
 20
-1346.0329507120869
 10
-1861.7076824571545
 20
-1347.8397174207234
 10
-1861.7080026355552
 20
-1349.64648412936
 10
-1861.7083228124347
 20
-1351.4532422681905
 10
-1861.7086429893141
 20
-1353.2600004070212
 10
-1861.7089275497431
 20
-1354.8657749073202
 10
-1861.7092121101721
 20
-1356.4715494076192
 10
-1861.7094254322756
 20
-1357.6753260389373
 10
-1861.7096387543793
 20
-1358.8791026702552
 10
-1861.7097175818299
 20
-1359.3239259703207
 10
-1861.7097964092802
 20
-1359.7687492703863
 10
-1861.7098243976284
 20
-1359.9266875128396
 10
-1861.7098243976284
 20
-1359.9307389316468
 10
-1861.7098243976284
 20
-1359.9339784965359
 10
-1861.707798688225
 20
-1359.9339784965359
 10
-1861.7061789057805
 20
-1359.9339784965359
 10
-1861.5817147264097
 20
-1359.9339784965359
 10
-1861.2273466590109
 20
-1359.9339784965359
 10
-1860.8729785916119
 20
-1359.9339784965359
 10
-1859.9237302849012
 20
-1359.9339784965359
 10
-1858.9744819781906
 20
-1359.9339784965359
 10
-1857.7091006369544
 20
-1359.9339784965359
 10
-1856.4437192957182
 20
-1359.9339784965359
 10
-1855.0198859529378
 20
-1359.9339784965359
 10
-1853.5960526101571
 20
-1359.9339784965359
 10
-1852.1722260208658
 20
-1359.9339784965359
 10
-1850.7483994315746
 20
-1359.9339784965359
 10
-1849.4829592042427
 20
-1359.9339784965359
 10
-1848.2175189769107
 20
-1359.9339784965359
 10
-1847.2688755816466
 20
-1359.9339784965359
 10
-1846.3202321863828
 20
-1359.9339784965359
 10
-1845.969686516456
 20
-1359.9339784965359
 10
-1845.6191408465293
 20
-1359.9339784965359
 10
-1845.4946766671585
 20
-1359.9339784965359
 10
-1845.5269489183966
 20
-1360.0819308596081
 10
-1845.6416541342596
 20
-1360.607797729519
 10
-1845.7563593501229
 20
-1361.1336645994297
 10
-1845.8775764518482
 20
-1361.6893852559251
 10
-1845.9987935535733
 20
-1362.2451059124207
 10
-1846.1351895517794
 20
-1362.8704143267341
 10
-1846.2715855499855
 20
-1363.4957227410475
 10
-1846.4079809012428
 20
-1364.1210281894155
 10
-1846.5443762524999
 20
-1364.7463336377832
 10
-1846.6655989952119
 20
-1365.3020801554298
 10
-1846.7868217379241
 20
-1365.8578266730765
 10
-1846.9021150076128
 20
-1366.3863894798906
 10
-1847.0174082773015
 20
-1366.9149522867049
 10
-1847.0476561935006
 20
-1367.0536240715328
 10
-1847.2901472324218
 20
-1367.0536240715328
 10
-1847.9789833280224
 20
-1367.0536240715328
 10
-1848.6678194236229
 20
-1367.0536240715328
 10
-1850.5160721601842
 20
-1367.0536240715328
 10
-1852.3643248967458
 20
-1367.0536240715328
 10
-1854.8297637885685
 20
-1367.0536240715328
 10
-1857.295202680391
 20
-1367.0536240715328
 10
-1860.0691894847002
 20
-1367.0536240715328
 10
-1862.8431762890095
 20
-1367.0536240715328
 10
-1865.6173011699082
 20
-1367.0536240715328
 10
-1868.3914260508068
 20
-1367.0536240715328
 10
-1870.8564004690429
 20
-1367.0536240715328
 10
-1873.3213748872793
 20
-1367.0536240715328
 10
-1875.1715352108909
 20
-1367.0536240715328
 10
-1877.0216955345024
 20
-1367.0536240715328
 10
-1877.7057010208914
 20
-1367.0536240715328
 10
-1878.3897065072804
 20
-1367.0536240715328
 10
-1878.6321975461988
 20
-1367.0536240715328
 10
-1878.6321975461988
 20
-1367.0515994874747
 10
-1878.6321975461988
 20
-1367.0499785796876
 10
-1878.636246714324
 20
-1367.0499785796876
 10
-1878.6394885298919
 20
-1367.0499785796876
 10
-1878.6713329733689
 20
-1367.049817749165
 10
-1878.7031774168458
 20
-1367.0496569186421
 10
-1879.4027369920202
 20
-1367.0046500633946
 10
-1879.8736828166657
 20
-1366.7234901967763
 10
-1880.3446286413114
 20
-1366.442330330158
 10
-1880.7739513986335
 20
-1365.9078367124891
 10
-1881.2032741559556
 20
-1365.3733430948203
 10
-1881.2605971670778
 20
-1364.3716678866303
 10
-1881.2605971670778
 20
-1364.3382955531858
 10
-1881.2605971670778
 20
-1364.3049232197413
 10
-1881.2585725830138
 20
-1364.2745544588045
 10
-1881.2569516752326
 20
-1364.2502408420528
 10
-1881.2569516752326
 20
-1364.2461916739305
 10
-1881.2569516752326
 20
-1364.2429498583624
 10
-1881.2610008433578
 20
-1364.2429498583624
 10
-1881.2642426589227
 20
-1364.2429498583624
 10
-1881.2642426589227
 20
-1364.0518734129898
 10
-1881.2642426589227
 20
-1363.5090890149454
 10
-1881.2642426589227
 20
-1362.9663046169007
 10
-1881.2642426589227
 20
-1361.5099309520228
 10
-1881.2642426589227
 20
-1360.0535572871447
 10
-1881.2642426589227
 20
-1358.1108574586033
 10
-1881.2642426589227
 20
-1356.1681576300618
 10
-1881.2642426589227
 20
-1353.9823303086157
 10
-1881.2642426589227
 20
-1351.7965029871696
 10
-1881.2642426589227
 20
-1349.6105668650657
 10
-1881.2642426589227
 20
-1347.4246307429617
 10
-1881.2642426589227
 20
-1345.4822969071715
 10
-1881.2642426589227
 20
-1343.5399630713812
 10
-1881.2642426589227
 20
-1342.0820862789865
 10
-1881.2642426589227
 20
-1340.6242094865916
 10
-1881.2642426589227
 20
-1340.085231479253
 10
-1881.2642426589227
 20
-1339.5462534719145
 10
-1881.2642426589227
 20
-1339.3551770265478
 10
-1881.490108619691
 20
-1339.3551770265478
 10
-1882.1331826704923
 20
-1339.3551770265478
 10
-1882.7762567212937
 20
-1339.3551770265478
 10
-1884.0599178622081
 20
-1339.3551770265478
 10
-1885.3435790031224
 20
-1339.3551770265478
 10
-1886.3570500562582
 20
-1339.3551770265478
 10
-1887.3705211093938
 20
-1339.3551770265478
 10
-1889.0898715049575
 20
-1339.3551770265478
 10
-1890.8092219005212
 20
-1339.3551770265478
 10
-1893.393025398994
 20
-1339.3551770265478
 10
-1895.9768288974669
 20
-1339.3551770265478
 10
-1898.5607610060611
 20
-1339.3551770265478
 10
-1901.144693114655
 20
-1339.3551770265478
 10
-1903.4406699792867
 20
-1339.3551770265478
 10
-1905.7366468439182
 20
-1339.3551770265478
 10
-1907.459960995757
 20
-1339.3551770265478
 10
-1909.1832751475959
 20
-1339.3551770265478
 10
-1909.8203855209986
 20
-1339.3551770265478
 10
-1910.4574958944013
 20
-1339.3551770265478
 10
-1910.6833618551696
 20
-1339.3551770265478
 10
-1910.6833618551696
 20
-1339.2016944420179
 10
-1910.6833618551696
 20
-1338.6561715139874
 10
-1910.6833618551696
 20
-1338.1106485859566
 10
-1910.6833618551696
 20
-1337.5341559847989
 10
-1910.6833618551696
 20
-1336.9576633836411
 10
-1910.6833618551696
 20
-1336.3089819461625
 10
-1910.6833618551696
 20
-1335.660300508684
 10
-1910.6833618551696
 20
-1335.0116221480125
 10
-1910.6833618551696
 20
-1334.362943787341
 10
-1910.6833618551696
 20
-1333.7864243583831
 10
-1910.6833618551696
 20
-1333.2099049294252
 10
-1910.6833618551696
 20
-1332.6615852947054
 10
-1910.6833618551696
 20
-1332.1132656599857
 10
-1910.6833618551696
 20
-1331.9694105467925
 10
-1910.4574958944013
 20
-1331.9694105467925
 10
-1909.8158860962133
 20
-1331.9694105467925
 10
-1909.1742762980252
 20
-1331.9694105467925
 10
-1907.4527389499135
 20
-1331.9694105467925
 10
-1905.7312016018018
 20
-1331.9694105467925
 10
-1903.4347921076865
 20
-1331.9694105467925
 10
-1901.1383826135711
 20
-1331.9694105467925
 10
-1898.5545791150982
 20
-1331.9694105467925
 10
-1895.9707756166254
 20
-1331.9694105467925
 10
-1893.3868435080315
 20
-1331.9694105467925
 10
-1890.8029113994376
 20
-1331.9694105467925
 10
-1888.5069345348061
 20
-1331.9694105467925
 10
-1886.2109576701744
 20
-1331.9694105467925
 10
-1884.4876435183339
 20
-1331.9694105467925
 10
-1882.7643293664935
 20
-1331.9694105467925
 10
-1882.1272189930924
 20
-1331.9694105467925
 10
-1881.490108619691
 20
-1331.9694105467925
 10
-1881.2642426589227
 20
-1331.9694105467925
 97
        0
 75
               0
 76
               1
 98
        1
 10
0.0
 20
0.0
  0
INSERT
  5
18C
100
AcDbEntity
  8
_____1
 62
              31
100
AcDbBlockReference
  2
*U26
 10
0.0
 20
0.0
 30
0.0
  0
INSERT
  5
18D
100
AcDbEntity
  8
_____1
 62
              31
100
AcDbBlockReference
  2
*U27
 10
0.0
 20
0.0
 30
0.0
  0
HATCH
  5
18E
100
AcDbEntity
  8
_____1
  6
CONTINUOUS
 62
               7
100
AcDbHatch
 10
0.0
 20
0.0
 30
0.0
210
0.0
220
0.0
230
1.0
  2
SOLID
 70
               1
 71
               0
 91
        1
 92
        1
 93
       22
 72
               1
 10
-1420.2662819625639
 20
-1338.8557387327937
 11
-1420.2662819625639
 21
-1330.1612435738041
 72
               1
 10
-1420.2662819625639
 20
-1330.1612435738041
 11
-1425.5850500005113
 21
-1330.1612435738041
 72
               1
 10
-1425.5850500005113
 20
-1330.1612435738041
 11
-1425.304349617646
 21
-1320.0085497658793
 72
               1
 10
-1425.304349617646
 20
-1320.0085497658793
 11
-1435.6320327659212
 21
-1320.0085497658793
 72
               1
 10
-1435.6320327659212
 20
-1320.0085497658793
 11
-1435.2674831036888
 21
-1330.1612435738041
 72
               1
 10
-1435.2674831036888
 20
-1330.1612435738041
 11
-1444.3265279249138
 21
-1330.1612435738041
 72
               1
 10
-1444.3265279249138
 20
-1330.1612435738041
 11
-1444.3265279249138
 21
-1338.8557387327937
 72
               1
 10
-1444.3265279249138
 20
-1338.8557387327937
 11
-1434.9503182310839
 21
-1338.8557387327937
 72
               1
 10
-1434.9503182310839
 20
-1338.8557387327937
 11
-1434.8737703150114
 21
-1340.9227335187741
 72
               1
 10
-1434.8737703150114
 20
-1340.9227335187741
 11
-1444.4541218939489
 21
-1354.899553389344
 72
               1
 10
-1444.4541218939489
 20
-1354.899553389344
 11
-1444.4541218939489
 21
-1372.9155720892443
 72
               1
 10
-1444.4541218939489
 20
-1372.9155720892443
 11
-1443.6958594430389
 21
-1372.9155720892443
 72
               1
 10
-1443.6958594430389
 20
-1372.9155720892443
 11
-1434.6769086298286
 21
-1357.1087237075792
 72
               1
 10
-1434.6769086298286
 20
-1357.1087237075792
 11
-1435.6320327659212
 21
-1377.8296964569388
 72
               1
 10
-1435.6320327659212
 20
-1377.8296964569388
 11
-1425.304349617646
 21
-1377.8296964569388
 72
               1
 10
-1425.304349617646
 20
-1377.8296964569388
 11
-1425.5558868740688
 21
-1354.2579434442089
 72
               1
 10
-1425.5558868740688
 20
-1354.2579434442089
 11
-1420.7438440306087
 21
-1358.1112326332991
 72
               1
 10
-1420.7438440306087
 20
-1358.1112326332991
 11
-1420.2662819625639
 21
-1357.5279489410545
 72
               1
 10
-1420.2662819625639
 20
-1357.5279489410545
 11
-1420.2662819625639
 21
-1346.4638862683839
 72
               1
 10
-1420.2662819625639
 20
-1346.4638862683839
 11
-1425.6798301614535
 21
-1342.4975846734842
 72
               1
 10
-1425.6798301614535
 20
-1342.4975846734842
 11
-1425.7199347511562
 21
-1338.8557387327937
 72
               1
 10
-1425.7199347511562
 20
-1338.8557387327937
 11
-1420.2662819625639
 21
-1338.8557387327937
 97
        0
 75
               0
 76
               1
 98
        1
 10
0.0
 20
0.0
  0
HATCH
  5
18F
100
AcDbEntity
  8
_____1
  6
CONTINUOUS
 62
               7
100
AcDbHatch
 10
0.0
 20
0.0
 30
0.0
210
0.0
220
0.0
230
1.0
  2
SOLID
 70
               1
 71
               0
 91
        1
 92
        1
 93
       32
 72
               1
 10
-1388.1677217678912
 20
-1377.9937443340289
 11
-1378.4670670015314
 21
-1377.9937443340289
 72
               1
 10
-1378.4670670015314
 20
-1377.9937443340289
 11
-1384.2014307546765
 21
-1353.426773177189
 72
               1
 10
-1384.2014307546765
 20
-1353.426773177189
 11
-1378.8206857821915
 21
-1353.426773177189
 72
               1
 10
-1378.8206857821915
 20
-1353.426773177189
 11
-1378.8206857821915
 21
-1344.6083241491237
 72
               1
 10
-1378.8206857821915
 20
-1344.6083241491237
 11
-1393.5156635139715
 21
-1344.6083241491237
 72
               1
 10
-1393.5156635139715
 20
-1344.6083241491237
 11
-1393.3990004265088
 21
-1337.9297883048341
 72
               1
 10
-1393.3990004265088
 20
-1337.9297883048341
 11
-1378.8206857821915
 21
-1337.9297883048341
 72
               1
 10
-1378.8206857821915
 20
-1337.9297883048341
 11
-1378.8206857821915
 21
-1329.1149899584193
 72
               1
 10
-1378.8206857821915
 20
-1329.1149899584193
 11
-1393.2458940126789
 21
-1329.1149899584193
 72
               1
 10
-1393.2458940126789
 20
-1329.1149899584193
 11
-1393.0818461355886
 21
-1319.7898157358641
 72
               1
 10
-1393.0818461355886
 20
-1319.7898157358641
 11
-1403.6647066402491
 21
-1319.7898157358641
 72
               1
 10
-1403.6647066402491
 20
-1319.7898157358641
 11
-1403.5006587631588
 21
-1329.1149899584193
 72
               1
 10
-1403.5006587631588
 20
-1329.1149899584193
 11
-1409.2167902714341
 21
-1329.1149899584193
 72
               1
 10
-1409.2167902714341
 20
-1329.1149899584193
 11
-1407.6929745880016
 21
-1320.1689469613191
 72
               1
 10
-1407.6929745880016
 20
-1320.1689469613191
 11
-1415.6547303225639
 21
-1320.1689469613191
 72
               1
 10
-1415.6547303225639
 20
-1320.1689469613191
 11
-1417.7727605798161
 21
-1337.9297883048341
 72
               1
 10
-1417.7727605798161
 20
-1337.9297883048341
 11
-1415.3776806213464
 21
-1337.9297883048341
 72
               1
 10
-1415.3776806213464
 20
-1337.9297883048341
 11
-1410.7150935100688
 21
-1337.9297883048341
 72
               1
 10
-1410.7150935100688
 20
-1337.9297883048341
 11
-1403.3439016676787
 21
-1337.9297883048341
 72
               1
 10
-1403.3439016676787
 20
-1337.9297883048341
 11
-1403.230899843554
 21
-1344.6083241491237
 72
               1
 10
-1403.230899843554
 20
-1344.6083241491237
 11
-1417.1894874692537
 21
-1344.6083241491237
 72
               1
 10
-1417.1894874692537
 20
-1344.6083241491237
 11
-1417.1894874692537
 21
-1353.426773177189
 72
               1
 10
-1417.1894874692537
 20
-1353.426773177189
 11
-1413.0482071156887
 21
-1353.426773177189
 72
               1
 10
-1413.0482071156887
 20
-1353.426773177189
 11
-1418.0242978362389
 21
-1377.9937443340289
 72
               1
 10
-1418.0242978362389
 20
-1377.9937443340289
 11
-1408.3236536515612
 21
-1377.9937443340289
 72
               1
 10
-1408.3236536515612
 20
-1377.9937443340289
 11
-1404.8640772511487
 21
-1353.426773177189
 72
               1
 10
-1404.8640772511487
 20
-1353.426773177189
 11
-1403.3329707861062
 21
-1353.426773177189
 72
               1
 10
-1403.3329707861062
 20
-1353.426773177189
 11
-1403.6647066402491
 21
-1377.9900936523843
 72
               1
 10
-1403.6647066402491
 20
-1377.9900936523843
 11
-1393.0818461355886
 21
-1377.9900936523843
 72
               1
 10
-1393.0818461355886
 20
-1377.9900936523843
 11
-1393.409941889769
 21
-1353.426773177189
 72
               1
 10
-1393.409941889769
 20
-1353.426773177189
 11
-1392.3855606192137
 21
-1353.426773177189
 72
               1
 10
-1392.3855606192137
 20
-1353.426773177189
 11
-1388.1677217678912
 21
-1377.9937443340289
 97
        0
 75
               0
 76
               1
 98
        1
 10
0.0
 20
0.0
  0
HATCH
  5
190
100
AcDbEntity
  8
_____1
  6
CONTINUOUS
 62
               7
100
AcDbHatch
 10
0.0
 20
0.0
 30
0.0
210
0.0
220
0.0
230
1.0
  2
SOLID
 70
               1
 71
               0
 91
        1
 92
        1
 93
       30
 72
               1
 10
-1533.8889759300264
 20
-1332.8078713703787
 11
-1527.881202575626
 21
-1320.6829735191097
 72
               1
 10
-1527.881202575626
 20
-1320.6829735191097
 11
-1528.4535448046163
 21
-1320.0122004475297
 72
               1
 10
-1528.4535448046163
 20
-1320.0122004475297
 11
-1562.0868515642937
 21
-1320.0122004475297
 72
               1
 10
-1562.0868515642937
 20
-1320.0122004475297
 11
-1567.1468021458963
 21
-1328.6301371087648
 72
               1
 10
-1567.1468021458963
 20
-1328.6301371087648
 11
-1566.8332879549387
 21
-1329.0712452687544
 72
               1
 10
-1566.8332879549387
 20
-1329.0712452687544
 11
-1554.7266117668487
 21
-1329.0712452687544
 72
               1
 10
-1554.7266117668487
 20
-1329.0712452687544
 11
-1551.6680389367236
 21
-1324.3904364942948
 72
               1
 10
-1551.6680389367236
 20
-1324.3904364942948
 11
-1543.1011377467662
 21
-1324.3904364942948
 72
               1
 10
-1543.1011377467662
 20
-1324.3904364942948
 11
-1547.2898028899583
 21
-1332.8078713703787
 72
               1
 10
-1547.2898028899583
 20
-1332.8078713703787
 11
-1567.4092702838884
 21
-1332.8078713703787
 72
               1
 10
-1567.4092702838884
 20
-1332.8078713703787
 11
-1567.4092702838884
 21
-1339.5811979572989
 72
               1
 10
-1567.4092702838884
 20
-1339.5811979572989
 11
-1554.7266117668487
 21
-1339.5811979572989
 72
               1
 10
-1554.7266117668487
 20
-1339.5811979572989
 11
-1554.7266117668487
 21
-1344.6775918652743
 72
               1
 10
-1554.7266117668487
 20
-1344.6775918652743
 11
-1567.4092702838884
 21
-1344.6775918652743
 72
               1
 10
-1567.4092702838884
 20
-1344.6775918652743
 11
-1567.4092702838884
 21
-1352.2638670560293
 72
               1
 10
-1567.4092702838884
 20
-1352.2638670560293
 11
-1554.7266117668487
 21
-1352.2638670560293
 72
               1
 10
-1554.7266117668487
 20
-1352.2638670560293
 11
-1554.7266117668487
 21
-1357.8378230320438
 72
               1
 10
-1554.7266117668487
 20
-1357.8378230320438
 11
-1567.4092702838884
 21
-1357.8378230320438
 72
               1
 10
-1567.4092702838884
 20
-1357.8378230320438
 11
-1567.4092702838884
 21
-1365.1944227295294
 72
               1
 10
-1567.4092702838884
 20
-1365.1944227295294
 11
-1554.7266117668487
 21
-1365.1944227295294
 72
               1
 10
-1554.7266117668487
 20
-1365.1944227295294
 11
-1554.7266117668487
 21
-1370.742866260749
 72
               1
 10
-1554.7266117668487
 20
-1370.742866260749
 11
-1561.9738391584813
 21
-1370.742866260749
 72
               1
 10
-1561.9738391584813
 20
-1370.742866260749
 11
-1561.0697610753512
 21
-1377.9937443340289
 72
               1
 10
-1561.0697610753512
 20
-1377.9937443340289
 11
-1541.7996961933111
 21
-1377.9937443340289
 72
               1
 10
-1541.7996961933111
 20
-1377.9937443340289
 11
-1541.0705968688435
 21
-1377.0860155692544
 72
               1
 10
-1541.0705968688435
 20
-1377.0860155692544
 11
-1541.0705968688435
 21
-1365.3110752353043
 72
               1
 10
-1541.0705968688435
 20
-1365.3110752353043
 11
-1523.586815808231
 21
-1365.3110752353043
 72
               1
 10
-1523.586815808231
 20
-1365.3110752353043
 11
-1522.9488565447434
 21
-1364.403357052209
 72
               1
 10
-1522.9488565447434
 20
-1364.403357052209
 11
-1522.9488565447434
 21
-1332.8078713703787
 72
               1
 10
-1522.9488565447434
 20
-1332.8078713703787
 11
-1533.8889759300264
 21
-1332.8078713703787
 97
        0
 75
               0
 76
               1
 98
        1
 10
0.0
 20
0.0
  0
SOLID
  5
191
100
AcDbEntity
  8
_____1
  6
CONTINUOUS
 62
               7
100
AcDbTrace
 10
-1541.0122706159561
 20
-1339.6395242101892
 30
0.0
 11
-1533.0395734181334
 21
-1339.6395242101892
 31
0.0
 12
-1541.0122706159561
 22
-1344.7322780181994
 32
0.0
 13
-1533.0395734181334
 23
-1344.7322780181994
 33
0.0
  0
SOLID
  5
192
100
AcDbEntity
  8
_____1
  6
CONTINUOUS
 62
               7
100
AcDbTrace
 10
-1532.9848978468963
 20
-1357.8378230320438
 30
0.0
 11
-1540.957584463031
 21
-1357.8378230320438
 31
0.0
 12
-1532.9848978468963
 22
-1352.2638670560293
 32
0.0
 13
-1540.957584463031
 23
-1352.2638670560293
 33
0.0
  0
INSERT
  5
193
100
AcDbEntity
  8
_____1
 62
              31
100
AcDbBlockReference
  2
*U28
 10
0.0
 20
0.0
 30
0.0
  0
INSERT
  5
194
100
AcDbEntity
  8
_____1
 62
              31
100
AcDbBlockReference
  2
*U29
 10
0.0
 20
0.0
 30
0.0
  0
HATCH
  5
195
100
AcDbEntity
  8
_____1
  6
CONTINUOUS
 62
               7
100
AcDbHatch
 10
0.0
 20
0.0
 30
0.0
210
0.0
220
0.0
230
1.0
  2
SOLID
 70
               1
 71
               0
 91
        1
 92
        1
 93
       35
 72
               1
 10
-1607.8231944120987
 20
-1370.8121128135235
 11
-1607.8231944120987
 21
-1350.0000000031839
 72
               1
 10
-1607.8231944120987
 20
-1350.0000000031839
 11
-1592.832934734231
 21
-1350.0000000031839
 72
               1
 10
-1592.832934734231
 20
-1350.0000000031839
 11
-1592.832934734231
 21
-1342.1913612641395
 72
               1
 10
-1592.832934734231
 20
-1342.1913612641395
 11
-1607.8231944120987
 21
-1342.1913612641395
 72
               1
 10
-1607.8231944120987
 20
-1342.1913612641395
 11
-1607.8231944120987
 21
-1336.3950311581443
 72
               1
 10
-1607.8231944120987
 20
-1336.3950311581443
 11
-1592.832934734231
 21
-1336.3950311581443
 72
               1
 10
-1592.832934734231
 20
-1336.3950311581443
 11
-1592.832934734231
 21
-1328.5863818374089
 72
               1
 10
-1592.832934734231
 20
-1328.5863818374089
 11
-1607.8231944120987
 21
-1328.5863818374089
 72
               1
 10
-1607.8231944120987
 20
-1328.5863818374089
 11
-1607.8231944120987
 21
-1320.5262058419444
 72
               1
 10
-1607.8231944120987
 20
-1320.5262058419444
 11
-1621.6833617768934
 21
-1320.5262058419444
 72
               1
 10
-1621.6833617768934
 20
-1320.5262058419444
 11
-1621.6833617768934
 21
-1328.5863818374089
 72
               1
 10
-1621.6833617768934
 20
-1328.5863818374089
 11
-1628.9378905318238
 21
-1328.5863818374089
 72
               1
 10
-1628.9378905318238
 20
-1328.5863818374089
 11
-1626.8307911561408
 21
-1319.9538636129541
 72
               1
 10
-1626.8307911561408
 20
-1319.9538636129541
 11
-1636.1668962602712
 21
-1319.9538636129541
 72
               1
 10
-1636.1668962602712
 20
-1319.9538636129541
 11
-1640.1660010815783
 21
-1336.336704905254
 72
               1
 10
-1640.1660010815783
 20
-1336.336704905254
 11
-1640.0639301390261
 21
-1336.336704905254
 72
               1
 10
-1640.0639301390261
 20
-1336.336704905254
 11
-1640.0748610205983
 21
-1336.3950311581443
 72
               1
 10
-1640.0748610205983
 20
-1336.3950311581443
 11
-1621.6833617768934
 21
-1336.3950311581443
 72
               1
 10
-1621.6833617768934
 20
-1336.3950311581443
 11
-1621.6833617768934
 21
-1342.1913612641395
 72
               1
 10
-1621.6833617768934
 20
-1342.1913612641395
 11
-1640.0748610205983
 21
-1342.1913612641395
 72
               1
 10
-1640.0748610205983
 20
-1342.1913612641395
 11
-1640.0748610205983
 21
-1350.0000000031839
 72
               1
 10
-1640.0748610205983
 20
-1350.0000000031839
 11
-1621.6833617768934
 21
-1350.0000000031839
 72
               1
 10
-1621.6833617768934
 20
-1350.0000000031839
 11
-1621.6833617768934
 21
-1354.7245640489937
 72
               1
 10
-1621.6833617768934
 20
-1354.7245640489937
 11
-1632.8239829473184
 21
-1354.7318548306093
 72
               1
 10
-1632.8239829473184
 20
-1354.7318548306093
 11
-1642.6595118826381
 21
-1377.5307638292036
 72
               1
 10
-1642.6595118826381
 20
-1377.5307638292036
 11
-1642.3605898365911
 21
-1377.9718614075143
 72
               1
 10
-1642.3605898365911
 20
-1377.9718614075143
 11
-1629.7034437643433
 21
-1377.9791521891241
 72
               1
 10
-1629.7034437643433
 20
-1377.9791521891241
 11
-1621.6833617768934
 21
-1358.2716298287387
 72
               1
 10
-1621.6833617768934
 20
-1358.2716298287387
 11
-1621.6833617768934
 21
-1370.8121128135235
 72
               1
 10
-1621.6833617768934
 20
-1370.8121128135235
 11
-1621.6833617768934
 21
-1377.443263868189
 72
               1
 10
-1621.6833617768934
 20
-1377.443263868189
 11
-1621.6833617768934
 21
-1377.559926955649
 72
               1
 10
-1621.6833617768934
 20
-1377.559926955649
 11
-1621.2386029352533
 21
-1377.9937337523438
 72
               1
 10
-1621.2386029352533
 20
-1377.9937337523438
 11
-1592.832934734231
 21
-1377.9937337523438
 72
               1
 10
-1592.832934734231
 20
-1377.9937337523438
 11
-1591.9288566511009
 21
-1370.8121128135235
 72
               1
 10
-1591.9288566511009
 20
-1370.8121128135235
 11
-1607.8231944120987
 21
-1370.8121128135235
 97
        0
 75
               0
 76
               1
 98
        1
 10
0.0
 20
0.0
  0
INSERT
  5
196
100
AcDbEntity
  8
_____1
 62
              31
100
AcDbBlockReference
  2
*U30
 10
0.0
 20
0.0
 30
0.0
  0
HATCH
  5
197
100
AcDbEntity
  8
_____1
  6
CONTINUOUS
 62
               7
100
AcDbHatch
 10
0.0
 20
0.0
 30
0.0
210
0.0
220
0.0
230
1.0
  2
SOLID
 70
               1
 71
               0
 91
        1
 92
        1
 93
       22
 72
               1
 10
-1492.552741473816
 20
-1338.9359479122045
 11
-1492.552741473816
 21
-1330.2450928531744
 72
               1
 10
-1492.552741473816
 20
-1330.2450928531744
 11
-1497.8751601934136
 21
-1330.2450928531744
 72
               1
 10
-1497.8751601934136
 20
-1330.2450928531744
 11
-1497.5944598105486
 21
-1320.0887483635991
 72
               1
 10
-1497.5944598105486
 20
-1320.0887483635991
 11
-1507.9221323771387
 21
-1320.0887483635991
 72
               1
 10
-1507.9221323771387
 20
-1320.0887483635991
 11
-1507.5575827149034
 21
-1330.2450928531744
 72
               1
 10
-1507.5575827149034
 20
-1330.2450928531744
 11
-1516.6166381178161
 21
-1330.2450928531744
 72
               1
 10
-1516.6166381178161
 20
-1330.2450928531744
 11
-1516.6166381178161
 21
-1338.9359479122045
 72
               1
 10
-1516.6166381178161
 20
-1338.9359479122045
 11
-1507.2404284239863
 21
-1338.9359479122045
 72
               1
 10
-1507.2404284239863
 20
-1338.9359479122045
 11
-1507.1638699262289
 21
-1341.0065827981443
 72
               1
 10
-1507.1638699262289
 20
-1341.0065827981443
 11
-1516.7442215051663
 21
-1354.9834026687142
 72
               1
 10
-1516.7442215051663
 20
-1354.9834026687142
 11
-1516.7442215051663
 21
-1372.9957812686491
 72
               1
 10
-1516.7442215051663
 20
-1372.9957812686491
 11
-1515.9859590542535
 21
-1372.9957812686491
 72
               1
 10
-1515.9859590542535
 20
-1372.9957812686491
 11
-1506.967018822731
 21
-1357.196213086909
 72
               1
 10
-1506.967018822731
 20
-1357.196213086909
 11
-1507.9221323771387
 21
-1377.9135457363091
 72
               1
 10
-1507.9221323771387
 20
-1377.9135457363091
 11
-1497.5944598105486
 21
-1377.9135457363091
 72
               1
 10
-1497.5944598105486
 20
-1377.9135457363091
 11
-1497.842346385321
 21
-1354.3381526236196
 72
               1
 10
-1497.842346385321
 20
-1354.3381526236196
 11
-1493.0303035418638
 21
-1358.1950819126694
 72
               1
 10
-1493.0303035418638
 20
-1358.1950819126694
 11
-1492.552741473816
 21
-1357.6117982204189
 72
               1
 10
-1492.552741473816
 20
-1357.6117982204189
 11
-1492.552741473816
 21
-1346.5477355477542
 72
               1
 10
-1492.552741473816
 20
-1346.5477355477542
 11
-1497.9699403543561
 21
-1342.5777938528893
 72
               1
 10
-1497.9699403543561
 20
-1342.5777938528893
 11
-1498.006394262411
 21
-1338.9359479122045
 72
               1
 10
-1498.006394262411
 20
-1338.9359479122045
 11
-1492.552741473816
 21
-1338.9359479122045
 97
        0
 75
               0
 76
               1
 98
        1
 10
0.0
 20
0.0
  0
HATCH
  5
198
100
AcDbEntity
  8
_____1
  6
CONTINUOUS
 62
               7
100
AcDbHatch
 10
0.0
 20
0.0
 30
0.0
210
0.0
220
0.0
230
1.0
  2
SOLID
 70
               1
 71
               0
 91
        1
 92
        1
 93
       22
 72
               1
 10
-1680.528879156823
 20
-1336.923628697464
 11
-1665.7063074560108
 21
-1336.923628697464
 72
               1
 10
-1665.7063074560108
 20
-1336.923628697464
 11
-1665.7063074560108
 21
-1327.9374916923491
 72
               1
 10
-1665.7063074560108
 20
-1327.9374916923491
 11
-1691.9975960814284
 21
-1327.9374916923491
 72
               1
 10
-1691.9975960814284
 20
-1327.9374916923491
 11
-1691.4799400053632
 21
-1320.114271390079
 72
               1
 10
-1691.4799400053632
 20
-1320.114271390079
 11
-1705.8468219829629
 21
-1320.114271390079
 72
               1
 10
-1705.8468219829629
 20
-1320.114271390079
 11
-1705.3291553252157
 21
-1327.9374916923491
 72
               1
 10
-1705.3291553252157
 20
-1327.9374916923491
 11
-1731.6204439506332
 21
-1327.9374916923491
 72
               1
 10
-1731.6204439506332
 20
-1327.9374916923491
 11
-1731.6204439506332
 21
-1336.923628697464
 72
               1
 10
-1731.6204439506332
 20
-1336.923628697464
 11
-1716.9582800269457
 21
-1336.923628697464
 72
               1
 10
-1716.9582800269457
 20
-1336.923628697464
 11
-1732.5901496499455
 21
-1373.9508948230537
 72
               1
 10
-1732.5901496499455
 20
-1373.9508948230537
 11
-1732.1854953980107
 21
-1374.6253079945993
 72
               1
 10
-1732.1854953980107
 20
-1374.6253079945993
 11
-1719.4918954177081
 21
-1374.6253079945993
 72
               1
 10
-1719.4918954177081
 20
-1374.6253079945993
 11
-1717.8331949836306
 21
-1369.8715914040295
 72
               1
 10
-1717.8331949836306
 20
-1369.8715914040295
 11
-1705.9853468335732
 21
-1369.8715914040295
 72
               1
 10
-1705.9853468335732
 20
-1369.8715914040295
 11
-1706.2004301819381
 21
-1377.9937443340289
 72
               1
 10
-1706.2004301819381
 20
-1377.9937443340289
 11
-1691.1263212247031
 21
-1377.9937443340289
 72
               1
 10
-1691.1263212247031
 20
-1377.9937443340289
 11
-1691.3158921282759
 21
-1369.8715914040295
 72
               1
 10
-1691.3158921282759
 20
-1369.8715914040295
 11
-1679.1362975423881
 21
-1369.8715914040295
 72
               1
 10
-1679.1362975423881
 20
-1369.8715914040295
 11
-1677.4010491922381
 21
-1374.6253079945993
 72
               1
 10
-1677.4010491922381
 20
-1374.6253079945993
 11
-1664.7037985302909
 21
-1374.6253079945993
 72
               1
 10
-1664.7037985302909
 20
-1374.6253079945993
 11
-1664.2991442783532
 21
-1373.9508948230537
 72
               1
 10
-1664.2991442783532
 20
-1373.9508948230537
 11
-1680.528879156823
 21
-1336.923628697464
 97
        0
 75
               0
 76
               1
 98
        1
 10
0.0
 20
0.0
  0
SOLID
  5
199
100
AcDbEntity
  8
_____1
  6
CONTINUOUS
 62
               7
100
AcDbTrace
 10
-1715.0735547812433
 20
-1361.9681619223545
 30
0.0
 11
-1706.3316642509355
 21
-1336.923628697464
 31
0.0
 12
-1705.7775542668182
 22
-1361.9681619223545
 32
0.0
 13
-1705.114071976848
 23
-1336.923628697464
 33
0.0
  0
SOLID
  5
19A
100
AcDbEntity
  8
_____1
  6
CONTINUOUS
 62
               7
100
AcDbTrace
 10
-1691.5018123501957
 20
-1361.9681619223545
 30
0.0
 11
-1692.0850854607581
 21
-1336.923628697464
 31
0.0
 12
-1682.0162409322006
 22
-1361.9681619223545
 32
0.0
 13
-1691.1591350327956
 23
-1336.923628697464
 33
0.0
  0
LWPOLYLINE
  5
19B
102
{ACAD_REACTORS
330
19C
102
}
100
AcDbEntity
  8
_____1
 62
               4
100
AcDbPolyline
 90
       12
 70
             129
 10
-1742.5459817726905
 20
-1320.4350657809584
 10
-1755.5020604726703
 20
-1320.4350657809584
 10
-1788.7052005356181
 20
-1320.4350657809584
 10
-1801.4863004769356
 20
-1320.4350657809584
 10
-1803.0392792868104
 20
-1320.4350657809584
 10
-1803.0392792868104
 20
-1378.0265475604394
 10
-1788.7052005356181
 20
-1378.0265475604394
 10
-1788.7052005356181
 20
-1375.1320226074042
 10
-1755.5020604726703
 20
-1375.1320226074042
 10
-1755.5020604726703
 20
-1378.0265475604394
 10
-1741.1716324031254
 20
-1378.0265475604394
 10
-1741.1716324031254
 20
-1320.4350657809584
  0
HATCH
  5
19C
100
AcDbEntity
  8
_____1
  6
CONTINUOUS
 62
               7
100
AcDbHatch
 10
0.0
 20
0.0
 30
0.0
210
0.0
220
0.0
230
1.0
  2
SOLID
 70
               1
 71
               1
 91
        1
 92
        1
 93
       12
 72
               1
 10
-1742.5459817726905
 20
-1320.4350657809584
 11
-1755.5020604726703
 21
-1320.4350657809584
 72
               1
 10
-1755.5020604726703
 20
-1320.4350657809584
 11
-1788.7052005356181
 21
-1320.4350657809584
 72
               1
 10
-1788.7052005356181
 20
-1320.4350657809584
 11
-1801.4863004769356
 21
-1320.4350657809584
 72
               1
 10
-1801.4863004769356
 20
-1320.4350657809584
 11
-1803.0392792868104
 21
-1320.4350657809584
 72
               1
 10
-1803.0392792868104
 20
-1320.4350657809584
 11
-1803.0392792868104
 21
-1378.0265475604394
 72
               1
 10
-1803.0392792868104
 20
-1378.0265475604394
 11
-1788.7052005356181
 21
-1378.0265475604394
 72
               1
 10
-1788.7052005356181
 20
-1378.0265475604394
 11
-1788.7052005356181
 21
-1375.1320226074042
 72
               1
 10
-1788.7052005356181
 20
-1375.1320226074042
 11
-1755.5020604726703
 21
-1375.1320226074042
 72
               1
 10
-1755.5020604726703
 20
-1375.1320226074042
 11
-1755.5020604726703
 21
-1378.0265475604394
 72
               1
 10
-1755.5020604726703
 20
-1378.0265475604394
 11
-1741.1716324031254
 21
-1378.0265475604394
 72
               1
 10
-1741.1716324031254
 20
-1378.0265475604394
 11
-1741.1716324031254
 21
-1320.4350657809584
 72
               1
 10
-1741.1716324031254
 20
-1320.4350657809584
 11
-1742.5459817726905
 21
-1320.4350657809584
 97
        1
330
19B
 75
               0
 76
               1
 98
        1
 10
0.0
 20
0.0
  0
SOLID
  5
19D
100
AcDbEntity
  8
_____1
  6
CONTINUOUS
 62
               7
100
AcDbTrace
 10
-1755.5020604726703
 20
-1328.9946761893091
 30
0.0
 11
-1755.5020604726703
 21
-1343.3287549405043
 31
0.0
 12
-1788.7052005356181
 22
-1328.9946761893091
 32
0.0
 13
-1788.7052005356181
 23
-1343.3287549405043
 33
0.0
  0
SOLID
  5
19E
100
AcDbEntity
  8
_____1
  6
CONTINUOUS
 62
               7
100
AcDbTrace
 10
-1788.7052005356181
 20
-1366.5687615174093
 30
0.0
 11
-1788.7052005356181
 21
-1351.8883653488488
 31
0.0
 12
-1755.5020604726703
 22
-1366.5687615174093
 32
0.0
 13
-1755.5020604726703
 23
-1351.8883653488488
 33
0.0
  0
HATCH
  5
19F
100
AcDbEntity
  8
_____1
  6
CONTINUOUS
 62
               7
100
AcDbHatch
 10
0.0
 20
0.0
 30
0.0
210
0.0
220
0.0
230
1.0
  2
SOLID
 70
               1
 71
               0
 91
        1
 92
        1
 93
       18
 72
               1
 10
-1261.6399951534117
 20
-1321.2954097561146
 11
-1261.742066095964
 21
-1320.8214983697142
 72
               1
 10
-1261.742066095964
 20
-1320.8214983697142
 11
-1262.113906539809
 21
-1320.8214983697142
 72
               1
 10
-1262.113906539809
 20
-1320.8214983697142
 11
-1272.5290790674169
 21
-1320.8214983697142
 72
               1
 10
-1272.5290790674169
 20
-1320.8214983697142
 11
-1273.2399461470116
 21
-1320.8214983697142
 72
               1
 10
-1273.2399461470116
 20
-1320.8214983697142
 11
-1283.6551186746192
 21
-1320.8214983697142
 72
               1
 10
-1283.6551186746192
 20
-1320.8214983697142
 11
-1284.1363208426264
 21
-1320.8214983697142
 72
               1
 10
-1284.1363208426264
 20
-1320.8214983697142
 11
-1284.2675654933091
 21
-1321.433934606719
 72
               1
 10
-1284.2675654933091
 20
-1321.433934606719
 11
-1306.3155028226092
 21
-1343.5146751624238
 72
               1
 10
-1306.3155028226092
 20
-1343.5146751624238
 11
-1305.7832546016364
 21
-1344.4005315823688
 72
               1
 10
-1305.7832546016364
 20
-1344.4005315823688
 11
-1291.5840606010893
 21
-1344.2255528237094
 72
               1
 10
-1291.5840606010893
 20
-1344.2255528237094
 11
-1286.9798103243841
 21
-1338.5677475683187
 72
               1
 10
-1286.9798103243841
 20
-1338.5677475683187
 11
-1285.7148226789841
 21
-1344.8671521871593
 72
               1
 10
-1285.7148226789841
 20
-1344.8671521871593
 11
-1260.1635748412943
 21
-1344.8671521871593
 72
               1
 10
-1260.1635748412943
 20
-1344.8671521871593
 11
-1258.8803549510214
 21
-1338.4583858441595
 72
               1
 10
-1258.8803549510214
 20
-1338.4583858441595
 11
-1254.1886152949867
 21
-1344.2255528237094
 72
               1
 10
-1254.1886152949867
 20
-1344.2255528237094
 11
-1239.9894212944394
 21
-1344.4005315823688
 72
               1
 10
-1239.9894212944394
 20
-1344.4005315823688
 11
-1239.4571730734665
 21
-1343.5146751624238
 72
               1
 10
-1239.4571730734665
 20
-1343.5146751624238
 11
-1261.6399951534117
 21
-1321.2954097561146
 97
        0
 75
               0
 76
               1
 98
        1
 10
0.0
 20
0.0
  0
SOLID
  5
1A0
100
AcDbEntity
  8
_____1
  6
CONTINUOUS
 62
               7
100
AcDbTrace
 10
-1284.7779307877615
 20
-1335.866433618819
 30
0.0
 11
-1278.5222708585916
 21
-1328.1817381671592
 31
0.0
 12
-1260.9910944266669
 22
-1335.866433618819
 32
0.0
 13
-1267.2467649375217
 23
-1328.1817381671592
 33
0.0
  0
HATCH
  5
1A1
100
AcDbEntity
  8
_____1
  6
CONTINUOUS
 62
               7
100
AcDbHatch
 10
0.0
 20
0.0
 30
0.0
210
0.0
220
0.0
230
1.0
  2
SOLID
 70
               1
 71
               0
 91
        1
 92
        1
 93
       14
 72
               1
 10
-1304.0370647882294
 20
-1360.1089491214439
 11
-1292.7469773039368
 21
-1360.1089491214439
 72
               1
 10
-1292.7469773039368
 20
-1360.1089491214439
 11
-1300.8982933603843
 21
-1377.5562762740044
 72
               1
 10
-1300.8982933603843
 20
-1377.5562762740044
 11
-1300.5118713533166
 21
-1377.9937337523438
 72
               1
 10
-1300.5118713533166
 20
-1377.9937337523438
 11
-1289.1160622448242
 21
-1377.9937337523438
 72
               1
 10
-1289.1160622448242
 20
-1377.9937337523438
 11
-1288.3067643226368
 21
-1377.9937337523438
 72
               1
 10
-1288.3067643226368
 20
-1377.9937337523438
 11
-1257.5388088078641
 21
-1377.9937337523438
 72
               1
 10
-1257.5388088078641
 20
-1377.9937337523438
 11
-1256.7659647937317
 21
-1377.9937337523438
 72
               1
 10
-1256.7659647937317
 20
-1377.9937337523438
 11
-1245.3373524588319
 21
-1377.9937337523438
 72
               1
 10
-1245.3373524588319
 20
-1377.9937337523438
 11
-1244.9509304517642
 21
-1377.5562762740044
 72
               1
 10
-1244.9509304517642
 20
-1377.5562762740044
 11
-1253.1022465082115
 21
-1360.1089491214439
 72
               1
 10
-1253.1022465082115
 20
-1360.1089491214439
 11
-1241.6699834916642
 21
-1360.1089491214439
 72
               1
 10
-1241.6699834916642
 20
-1360.1089491214439
 11
-1241.6699834916642
 21
-1351.1191720163638
 72
               1
 10
-1241.6699834916642
 20
-1351.1191720163638
 11
-1304.0370647882294
 21
-1351.1191720163638
 72
               1
 10
-1304.0370647882294
 20
-1351.1191720163638
 11
-1304.0370647882294
 21
-1360.1089491214439
 97
        0
 75
               0
 76
               1
 98
        1
 10
0.0
 20
0.0
  0
SOLID
  5
1A2
100
AcDbEntity
  8
_____1
  6
CONTINUOUS
 62
               7
100
AcDbTrace
 10
-1260.8343373311866
 20
-1369.8898024855237
 30
0.0
 11
-1285.0148864809616
 21
-1369.8898024855237
 31
0.0
 12
-1264.807919126014
 22
-1360.1089491214439
 32
0.0
 13
-1281.0412941044492
 23
-1360.1089491214439
 33
0.0
  0
ENDBLK
  5
1A3
100
AcDbEntity
  8
_____1
100
AcDbBlockEnd
  0
ENDSEC
  0
SECTION
  2
ENTITIES
  0
LINE
  5
1A4
100
AcDbEntity
  8
OBJECT
  6
CONTINUOUS
 62
               5
100
AcDbLine
 10
-4075.0000000045511
 20
25.000000003184141
 30
0.0
 11
-4075.0000000045511
 21
2745.0000000031837
 31
0.0
  0
LINE
  5
1A5
100
AcDbEntity
  8
OBJECT
  6
CONTINUOUS
 62
               5
100
AcDbLine
 10
-25.000000004551111
 20
25.000000003184141
 30
0.0
 11
-4075.0000000045511
 21
25.000000003184141
 31
0.0
  0
LINE
  5
1A6
100
AcDbEntity
  8
OBJECT
  6
CONTINUOUS
 62
               5
100
AcDbLine
 10
-25.000000004551111
 20
2745.0000000031837
 30
0.0
 11
-25.000000004551111
 21
25.000000003184141
 31
0.0
  0
LINE
  5
1A7
100
AcDbEntity
  8
OBJECT
  6
CONTINUOUS
 62
               5
100
AcDbLine
 10
-4075.0000000045511
 20
2745.0000000031837
 30
0.0
 11
-25.000000004551111
 21
2745.0000000031837
 31
0.0
  0
LINE
  5
1A8
100
AcDbEntity
  8
OBJECT
  6
CONTINUOUS
 62
               7
100
AcDbLine
 10
-785.24000000455112
 20
25.000000003184141
 30
0.0
 11
-785.24000000455112
 21
165.00000000318391
 31
0.0
  0
LINE
  5
1A9
100
AcDbEntity
  8
OBJECT
  6
CONTINUOUS
 62
               7
100
AcDbLine
 10
-1005.2400000045511
 20
25.000000003184141
 30
0.0
 11
-1005.2400000045511
 21
165.00000000318391
 31
0.0
  0
LINE
  5
1AA
100
AcDbEntity
  8
OBJECT
  6
CONTINUOUS
 62
               7
100
AcDbLine
 10
-1605.2400000045511
 20
25.000000003184141
 30
0.0
 11
-1605.2400000045511
 21
165.00000000318391
 31
0.0
  0
LINE
  5
1AB
100
AcDbEntity
  8
OBJECT
  6
CONTINUOUS
 62
               7
100
AcDbLine
 10
-2725.0000000045511
 20
25.000000003184141
 30
0.0
 11
-2725.0000000045511
 21
165.00000000318391
 31
0.0
  0
MTEXT
  5
1AC
100
AcDbEntity
  8
OBJECT
 62
               7
100
AcDbMText
 10
-2700.2400000045509
 20
159.87000000318403
 30
0.0
 40
28.2224
 41
109.36099999999999
 71
               1
 72
               1
  1
品　名
  7
________
  0
MTEXT
  5
1AD
100
AcDbEntity
  8
OBJECT
 62
               7
100
AcDbMText
 10
-1585.2400000045511
 20
154.87000000318403
 30
0.0
 40
28.2224
 41
0.0
 71
               1
 72
               1
  1
形　式
  7
________
  0
MTEXT
  5
1AE
100
AcDbEntity
  8
OBJECT
 62
               7
100
AcDbMText
 10
-980.24000000455112
 20
154.87000000318403
 30
0.0
 40
28.2224
 41
0.0
 71
               1
 72
               1
  1
尺　度
  7
________
  0
MTEXT
  5
1AF
100
AcDbEntity
  8
OBJECT
 62
               7
100
AcDbMText
 10
-760.24000000455112
 20
154.87000000318403
 30
0.0
 40
28.2224
 41
0.0
 71
               1
 72
               1
  1
図　番
  7
________
  0
LINE
  5
1B0
100
AcDbEntity
  8
OBJECT
  6
CONTINUOUS
 62
               7
100
AcDbLine
 10
-3145.0000000045511
 20
25.000000003184141
 30
0.0
 11
-3145.0000000045511
 21
165.00000000318391
 31
0.0
  0
MTEXT
  5
1B1
100
AcDbEntity
  8
TEXT
 62
               4
100
AcDbMText
 10
-934.28800000455112
 20
99.986000003184017
 30
0.0
 40
39.511200000000002
 41
0.0
 71
               1
 72
               1
  1
1/10
  7
________
  0
LINE
  5
1B2
100
AcDbEntity
  8
OBJECT
  6
CONTINUOUS
 62
               5
100
AcDbLine
 10
-4075.0000000045511
 20
165.00000000318391
 30
0.0
 11
-25.000000004551111
 21
165.00000000318391
 31
0.0
  0
MTEXT
  5
1B3
100
AcDbEntity
  8
OBJECT
 62
               7
100
AcDbMText
 10
-3135.2400000045509
 20
156.89120000318394
 30
0.0
 40
28.2224
 41
0.0
 71
               1
 72
               1
  1
検  図
  7
________
  0
MTEXT
  5
1B4
100
AcDbEntity
  8
OBJECT
 62
               7
100
AcDbMText
 10
-3135.2400000045509
 20
111.81000000318409
 30
0.0
 40
28.2224
 41
0.0
 71
               1
 72
               1
  1
担  当
  7
________
  0
MTEXT
  5
1B5
100
AcDbEntity
  8
OBJECT
 62
               7
100
AcDbMText
 10
-3135.2400000045509
 20
66.940000003183968
 30
0.0
 40
28.2224
 41
0.0
 71
               1
 72
               1
  1
年月日
  7
________
  0
LINE
  5
1B6
100
AcDbEntity
  8
OBJECT
  6
CONTINUOUS
 62
               7
100
AcDbLine
 10
-3145.0000000045511
 20
116.06000000318409
 30
0.0
 11
-2725.0000000045511
 21
116.06000000318409
 31
0.0
  0
LINE
  5
1B7
100
AcDbEntity
  8
OBJECT
  6
CONTINUOUS
 62
               7
100
AcDbLine
 10
-3145.0000000045511
 20
71.670000003183986
 30
0.0
 11
-2725.0000000045511
 21
71.670000003183986
 31
0.0
  0
LINE
  5
1B8
100
AcDbEntity
  8
CENTER
 62
               4
100
AcDbLine
 10
-1034.600000004551
 20
349.04170000318413
 30
0.0
 11
-1034.600000004551
 21
1229.0000000031839
 31
0.0
  0
LINE
  5
1B9
100
AcDbEntity
  8
CENTER
 62
               4
100
AcDbLine
 10
-1167.600000004551
 20
234.00000000318391
 30
0.0
 11
-1167.600000004551
 21
414.00000000318403
 31
0.0
  0
LINE
  5
1BA
100
AcDbEntity
  8
CENTER
 62
               4
100
AcDbLine
 10
-901.60000000455102
 20
234.00000000318391
 30
0.0
 11
-901.60000000455102
 21
414.00000000318403
 31
0.0
  0
LINE
  5
1BB
100
AcDbEntity
  8
CENTER
 62
               4
100
AcDbLine
 10
-1034.600000004551
 20
410.00000000318403
 30
0.0
 11
-1034.600000004551
 21
346.50000000318391
 31
0.0
  0
LINE
  5
1BC
100
AcDbEntity
  8
CENTER
 62
               4
100
AcDbLine
 10
-954.60000000455102
 20
408.00000000318391
 30
0.0
 11
-954.60000000455102
 21
365.50000000318391
 31
0.0
  0
LINE
  5
1BD
100
AcDbEntity
  8
CENTER
 62
               4
100
AcDbLine
 10
-3456.6000000045506
 20
1878.0000000031837
 30
0.0
 11
-2766.600000004551
 21
1878.0000000031837
 31
0.0
  0
INSERT
  5
1BE
100
AcDbEntity
  8
CENTER
 62
               4
100
AcDbBlockReference
  2
*U1
 10
-2049.600000004551
 20
1434.0000000031839
 30
0.0
  0
INSERT
  5
1BF
100
AcDbEntity
  8
CENTER
 62
               4
100
AcDbBlockReference
  2
*U2
 10
-2049.600000004551
 20
1434.0000000031839
 30
0.0
  0
LINE
  5
1C0
100
AcDbEntity
  8
CENTER
 62
               4
100
AcDbLine
 10
-3302.600000004551
 20
234.00000000318391
 30
0.0
 11
-3302.600000004551
 21
414.00000000318403
 31
0.0
  0
LINE
  5
1C1
100
AcDbEntity
  8
CENTER
 62
               4
100
AcDbLine
 10
-3079.600000004551
 20
410.00000000318403
 30
0.0
 11
-3079.600000004551
 21
346.50000000318391
 31
0.0
  0
LINE
  5
1C2
100
AcDbEntity
  8
CENTER
 62
               4
100
AcDbLine
 10
-2886.600000004551
 20
234.00000000318391
 30
0.0
 11
-2886.600000004551
 21
414.00000000318403
 31
0.0
  0
LINE
  5
1C3
100
AcDbEntity
  8
CENTER
 62
               4
100
AcDbLine
 10
-2964.600000004551
 20
408.00000000318391
 30
0.0
 11
-2964.600000004551
 21
365.50000000318391
 31
0.0
  0
INSERT
  5
1C4
100
AcDbEntity
  8
CENTER
 62
               4
100
AcDbBlockReference
  2
*U3
 10
-2049.600000004551
 20
1434.0000000031839
 30
0.0
  0
INSERT
  5
1C5
100
AcDbEntity
  8
CENTER
 62
               4
100
AcDbBlockReference
  2
*U4
 10
-2049.600000004551
 20
1434.0000000031839
 30
0.0
  0
POLYLINE
  5
1C6
100
AcDbEntity
  8
OBJECT
 62
               7
100
AcDb2dPolyline
 66
               1
 10
0.0
 20
0.0
 30
0.0
 70
               1
 75
               5
  0
VERTEX
  5
1C7
100
AcDbEntity
  8
OBJECT
 62
               7
100
AcDbVertex
100
AcDb2dVertex
 10
-3394.6000000045506
 20
1049.0000000031839
 30
0.0
  0
VERTEX
  5
1C8
100
AcDbEntity
  8
OBJECT
 62
               7
100
AcDbVertex
100
AcDb2dVertex
 10
-3034.600000004551
 20
1049.0000000031839
 30
0.0
  0
VERTEX
  5
1C9
100
AcDbEntity
  8
OBJECT
 62
               7
100
AcDbVertex
100
AcDb2dVertex
 10
-3034.600000004551
 20
749.00000000318391
 30
0.0
  0
VERTEX
  5
1CA
100
AcDbEntity
  8
OBJECT
 62
               7
100
AcDbVertex
100
AcDb2dVertex
 10
-3394.6000000045506
 20
749.00000000318391
 30
0.0
  0
SEQEND
  5
1CB
100
AcDbEntity
  8
OBJECT
 62
               7
  0
POLYLINE
  5
1CC
100
AcDbEntity
  8
OBJECT
 62
               7
100
AcDb2dPolyline
 66
               1
 10
0.0
 20
0.0
 30
0.0
 70
               1
 75
               5
  0
VERTEX
  5
1CD
100
AcDbEntity
  8
OBJECT
 62
               7
100
AcDbVertex
100
AcDb2dVertex
 10
-3344.600000004551
 20
749.00000000318391
 30
0.0
  0
VERTEX
  5
1CE
100
AcDbEntity
  8
OBJECT
 62
               7
100
AcDbVertex
100
AcDb2dVertex
 10
-2844.600000004551
 20
749.00000000318391
 30
0.0
  0
VERTEX
  5
1CF
100
AcDbEntity
  8
OBJECT
 62
               7
100
AcDbVertex
100
AcDb2dVertex
 10
-2844.600000004551
 20
399.00000000318391
 30
0.0
  0
VERTEX
  5
1D0
100
AcDbEntity
  8
OBJECT
 62
               7
100
AcDbVertex
100
AcDb2dVertex
 10
-3344.600000004551
 20
399.00000000318391
 30
0.0
  0
SEQEND
  5
1D1
100
AcDbEntity
  8
OBJECT
 62
               7
  0
POLYLINE
  5
1D2
100
AcDbEntity
  8
OBJECT
 62
               7
100
AcDb2dPolyline
 66
               1
 10
0.0
 20
0.0
 30
0.0
 75
               5
  0
VERTEX
  5
1D3
100
AcDbEntity
  8
OBJECT
 62
               7
100
AcDbVertex
100
AcDb2dVertex
 10
-3035.600000004551
 20
1049.0000000031839
 30
0.0
  0
VERTEX
  5
1D4
100
AcDbEntity
  8
OBJECT
 62
               7
100
AcDbVertex
100
AcDb2dVertex
 10
-3035.600000004551
 20
1049.0000000031839
 30
0.0
  0
VERTEX
  5
1D5
100
AcDbEntity
  8
OBJECT
 62
               7
100
AcDbVertex
100
AcDb2dVertex
 10
-2813.600000004551
 20
1049.0000000031839
 30
0.0
  0
VERTEX
  5
1D6
100
AcDbEntity
  8
OBJECT
 62
               7
100
AcDbVertex
100
AcDb2dVertex
 10
-2813.600000004551
 20
1037.0000000031839
 30
0.0
  0
VERTEX
  5
1D7
100
AcDbEntity
  8
OBJECT
 62
               7
100
AcDbVertex
100
AcDb2dVertex
 10
-3034.600000004551
 20
1037.0000000031839
 30
0.0
  0
SEQEND
  5
1D8
100
AcDbEntity
  8
OBJECT
 62
               7
  0
POLYLINE
  5
1D9
100
AcDbEntity
  8
OBJECT
 62
               7
100
AcDb2dPolyline
 66
               1
 10
0.0
 20
0.0
 30
0.0
 75
               5
  0
VERTEX
  5
1DA
100
AcDbEntity
  8
OBJECT
 62
               7
100
AcDbVertex
100
AcDb2dVertex
 10
-2814.600000004551
 20
1037.0000000031839
 30
0.0
  0
VERTEX
  5
1DB
100
AcDbEntity
  8
OBJECT
 62
               7
100
AcDbVertex
100
AcDb2dVertex
 10
-2814.600000004551
 20
749.00000000318391
 30
0.0
  0
VERTEX
  5
1DC
100
AcDbEntity
  8
OBJECT
 62
               7
100
AcDbVertex
100
AcDb2dVertex
 10
-3034.600000004551
 20
749.00000000318391
 30
0.0
  0
VERTEX
  5
1DD
100
AcDbEntity
  8
OBJECT
 62
               7
100
AcDbVertex
100
AcDb2dVertex
 10
-3034.600000004551
 20
1037.0000000031839
 30
0.0
  0
SEQEND
  5
1DE
100
AcDbEntity
  8
OBJECT
 62
               7
  0
POLYLINE
  5
1DF
100
AcDbEntity
  8
OBJECT
 62
               7
100
AcDb2dPolyline
 66
               1
 10
0.0
 20
0.0
 30
0.0
 70
               1
 75
               5
  0
VERTEX
  5
1E0
100
AcDbEntity
  8
OBJECT
 62
               7
100
AcDbVertex
100
AcDb2dVertex
 10
-3414.6000000045506
 20
1198.0000000031839
 30
0.0
  0
VERTEX
  5
1E1
100
AcDbEntity
  8
OBJECT
 62
               7
100
AcDbVertex
100
AcDb2dVertex
 10
-3394.6000000045506
 20
1198.0000000031839
 30
0.0
  0
VERTEX
  5
1E2
100
AcDbEntity
  8
OBJECT
 62
               7
100
AcDbVertex
100
AcDb2dVertex
 10
-3394.6000000045506
 20
1018.0000000031839
 30
0.0
  0
VERTEX
  5
1E3
100
AcDbEntity
  8
OBJECT
 62
               7
100
AcDbVertex
100
AcDb2dVertex
 10
-3414.6000000045506
 20
1018.0000000031839
 30
0.0
  0
SEQEND
  5
1E4
100
AcDbEntity
  8
OBJECT
 62
               7
  0
POLYLINE
  5
1E5
100
AcDbEntity
  8
OBJECT
 62
               7
100
AcDb2dPolyline
 66
               1
 10
0.0
 20
0.0
 30
0.0
 70
               1
 75
               5
  0
VERTEX
  5
1E6
100
AcDbEntity
  8
OBJECT
 62
               7
100
AcDbVertex
100
AcDb2dVertex
 10
-1216.100000004551
 20
1049.0000000031839
 30
0.0
  0
VERTEX
  5
1E7
100
AcDbEntity
  8
OBJECT
 62
               7
100
AcDbVertex
100
AcDb2dVertex
 10
-853.10000000455102
 20
1049.0000000031839
 30
0.0
  0
VERTEX
  5
1E8
100
AcDbEntity
  8
OBJECT
 62
               7
100
AcDbVertex
100
AcDb2dVertex
 10
-853.10000000455102
 20
1037.0000000031839
 30
0.0
  0
VERTEX
  5
1E9
100
AcDbEntity
  8
OBJECT
 62
               7
100
AcDbVertex
100
AcDb2dVertex
 10
-1216.100000004551
 20
1037.0000000031839
 30
0.0
  0
SEQEND
  5
1EA
100
AcDbEntity
  8
OBJECT
 62
               7
  0
POLYLINE
  5
1EB
100
AcDbEntity
  8
OBJECT
 62
               7
100
AcDb2dPolyline
 66
               1
 10
0.0
 20
0.0
 30
0.0
 75
               5
  0
VERTEX
  5
1EC
100
AcDbEntity
  8
OBJECT
 62
               7
100
AcDbVertex
100
AcDb2dVertex
 10
-854.60000000455102
 20
1037.0000000031839
 30
0.0
  0
VERTEX
  5
1ED
100
AcDbEntity
  8
OBJECT
 62
               7
100
AcDbVertex
100
AcDb2dVertex
 10
-854.60000000455102
 20
749.00000000318391
 30
0.0
  0
VERTEX
  5
1EE
100
AcDbEntity
  8
OBJECT
 62
               7
100
AcDbVertex
100
AcDb2dVertex
 10
-1214.600000004551
 20
749.00000000318391
 30
0.0
  0
VERTEX
  5
1EF
100
AcDbEntity
  8
OBJECT
 62
               7
100
AcDbVertex
100
AcDb2dVertex
 10
-1214.600000004551
 20
1037.0000000031839
 30
0.0
  0
SEQEND
  5
1F0
100
AcDbEntity
  8
OBJECT
 62
               7
  0
POLYLINE
  5
1F1
100
AcDbEntity
  8
OBJECT
 62
               7
100
AcDb2dPolyline
 66
               1
 10
0.0
 20
0.0
 30
0.0
 70
               1
 75
               5
  0
VERTEX
  5
1F2
100
AcDbEntity
  8
OBJECT
 62
               7
100
AcDbVertex
100
AcDb2dVertex
 10
-1211.100000004551
 20
749.00000000318391
 30
0.0
  0
VERTEX
  5
1F3
100
AcDbEntity
  8
OBJECT
 62
               7
100
AcDbVertex
100
AcDb2dVertex
 10
-858.10000000455102
 20
749.00000000318391
 30
0.0
  0
VERTEX
  5
1F4
100
AcDbEntity
  8
OBJECT
 62
               7
100
AcDbVertex
100
AcDb2dVertex
 10
-858.10000000455102
 20
401.00000000318391
 30
0.0
  0
VERTEX
  5
1F5
100
AcDbEntity
  8
OBJECT
 62
               7
100
AcDbVertex
100
AcDb2dVertex
 10
-1211.100000004551
 20
401.00000000318391
 30
0.0
  0
SEQEND
  5
1F6
100
AcDbEntity
  8
OBJECT
 62
               7
  0
POLYLINE
  5
1F7
100
AcDbEntity
  8
OBJECT
 62
               7
100
AcDb2dPolyline
 66
               1
 10
0.0
 20
0.0
 30
0.0
 75
               5
  0
VERTEX
  5
1F8
100
AcDbEntity
  8
OBJECT
 62
               7
100
AcDbVertex
100
AcDb2dVertex
 10
-859.60000000455102
 20
401.00000000318391
 30
0.0
  0
VERTEX
  5
1F9
100
AcDbEntity
  8
OBJECT
 62
               7
100
AcDbVertex
100
AcDb2dVertex
 10
-859.60000000455102
 20
399.00000000318391
 30
0.0
  0
VERTEX
  5
1FA
100
AcDbEntity
  8
OBJECT
 62
               7
100
AcDbVertex
100
AcDb2dVertex
 10
-1209.600000004551
 20
399.00000000318391
 30
0.0
  0
VERTEX
  5
1FB
100
AcDbEntity
  8
OBJECT
 62
               7
100
AcDbVertex
100
AcDb2dVertex
 10
-1209.600000004551
 20
401.00000000318391
 30
0.0
  0
SEQEND
  5
1FC
100
AcDbEntity
  8
OBJECT
 62
               7
  0
POLYLINE
  5
1FD
100
AcDbEntity
  8
OBJECT
 62
               7
100
AcDb2dPolyline
 66
               1
 10
0.0
 20
0.0
 30
0.0
 75
               5
  0
VERTEX
  5
1FE
100
AcDbEntity
  8
OBJECT
 62
               7
100
AcDbVertex
100
AcDb2dVertex
 10
-859.60000000455102
 20
749.00000000318391
 30
0.0
  0
VERTEX
  5
1FF
100
AcDbEntity
  8
OBJECT
 62
               7
100
AcDbVertex
100
AcDb2dVertex
 10
-859.60000000455102
 20
749.00000000318391
 30
0.0
  0
VERTEX
  5
200
100
AcDbEntity
  8
OBJECT
 62
               7
100
AcDbVertex
100
AcDb2dVertex
 10
-1209.600000004551
 20
749.00000000318391
 30
0.0
  0
VERTEX
  5
201
100
AcDbEntity
  8
OBJECT
 62
               7
100
AcDbVertex
100
AcDb2dVertex
 10
-1209.600000004551
 20
749.00000000318391
 30
0.0
  0
SEQEND
  5
202
100
AcDbEntity
  8
OBJECT
 62
               7
  0
LINE
  5
203
100
AcDbEntity
  8
OBJECT
 62
               7
100
AcDbLine
 10
-1211.100000004551
 20
748.00000000318391
 30
0.0
 11
-858.10000000455102
 21
748.00000000318391
 31
0.0
  0
LWPOLYLINE
  5
204
100
AcDbEntity
  8
OBJECT
 62
               7
100
AcDbPolyline
 90
        5
 70
             129
 10
-919.60000000455102
 20
559.00000000318391
 42
-0.414213562373095
 10
-914.60000000455102
 20
564.00000000318391
 42
-0.414213562373095
 10
-909.60000000455102
 20
559.00000000318391
 42
-0.414213562373095
 10
-914.60000000455102
 20
554.00000000318391
 42
-0.414213562373095
 10
-919.60000000455102
 20
559.00000000318391
 42
-0.414213562373095
  0
POLYLINE
  5
205
100
AcDbEntity
  8
OBJECT
 62
               7
100
AcDb2dPolyline
 66
               1
 10
0.0
 20
0.0
 30
0.0
 70
               1
 75
               5
  0
VERTEX
  5
206
100
AcDbEntity
  8
OBJECT
 62
               7
100
AcDbVertex
100
AcDb2dVertex
 10
-1214.600000004551
 20
1198.0000000031839
 30
0.0
  0
VERTEX
  5
207
100
AcDbEntity
  8
OBJECT
 62
               7
100
AcDbVertex
100
AcDb2dVertex
 10
-854.60000000455102
 20
1198.0000000031839
 30
0.0
  0
VERTEX
  5
208
100
AcDbEntity
  8
OBJECT
 62
               7
100
AcDbVertex
100
AcDb2dVertex
 10
-854.60000000455102
 20
1049.0000000031839
 30
0.0
  0
VERTEX
  5
209
100
AcDbEntity
  8
OBJECT
 62
               7
100
AcDbVertex
100
AcDb2dVertex
 10
-1214.600000004551
 20
1049.0000000031839
 30
0.0
  0
SEQEND
  5
20A
100
AcDbEntity
  8
OBJECT
 62
               7
  0
LWPOLYLINE
  5
20B
100
AcDbEntity
  8
OBJECT
 62
               7
100
AcDbPolyline
 90
        6
 70
             129
 10
-2904.100000004551
 20
294.00000000318391
 10
-2869.100000004551
 20
294.00000000318391
 10
-2869.100000004551
 20
254.00000000318391
 42
-0.414213562373095
 10
-2874.100000004551
 20
249.00000000318391
 10
-2899.100000004551
 20
249.00000000318391
 42
-0.414213562373095
 10
-2904.100000004551
 20
254.00000000318391
  0
LWPOLYLINE
  5
20C
100
AcDbEntity
  8
OBJECT
 62
               7
100
AcDbPolyline
 90
       12
 70
             129
 10
-2924.100000004551
 20
396.00000000318391
 10
-2921.7270205458276
 20
396.00000000318391
 42
-0.3858711978005658
 10
-2917.7461064453478
 20
392.39028569930952
 10
-2908.4538935637543
 20
297.60971430705854
 42
0.3858711978005275
 10
-2904.4729794632744
 20
294.00000000318391
 10
-2868.7270205458271
 20
294.00000000318391
 42
0.3858711978005658
 10
-2864.7461064453473
 20
297.60971430705854
 10
-2855.4538935637543
 20
392.39028569930929
 42
-0.3858711978005658
 10
-2851.4729794632744
 20
396.00000000318391
 10
-2849.100000004551
 20
396.00000000318391
 10
-2849.100000004551
 20
399.00000000318391
 10
-2924.100000004551
 20
399.00000000318391
  0
LINE
  5
20D
100
AcDbEntity
  8
OBJECT
 62
               7
100
AcDbLine
 10
-2922.100000004551
 20
396.00000000318391
 30
0.0
 11
-2851.100000004551
 21
396.00000000318391
 31
0.0
  0
LINE
  5
20E
100
AcDbEntity
  8
OBJECT
 62
               7
100
AcDbLine
 10
-2878.100000004551
 20
251.00000000318391
 30
0.0
 11
-2878.100000004551
 21
268.00000000318391
 31
0.0
  0
LINE
  5
20F
100
AcDbEntity
  8
OBJECT
 62
               7
100
AcDbLine
 10
-2895.600000004551
 20
251.00000000318391
 30
0.0
 11
-2895.600000004551
 21
268.00000000318391
 31
0.0
  0
SPLINE
  5
210
100
AcDbEntity
  8
OBJECT
 62
               7
100
AcDbSpline
210
0.0
220
0.0
230
1.0
 70
               8
 71
               2
 72
              10
 73
               7
 74
               0
 42
0.000001
 43
0.000001
 40
0.0
 40
0.0
 40
0.0
 40
0.2391095954640664
 40
0.2391095954640664
 40
0.7708424925849841
 40
0.7708424925849841
 40
1.0
 40
1.0
 40
1.0
 10
-2903.100000004551
 20
271.00000000318391
 30
0.0
 10
-2901.100000004551
 20
272.00000000318391
 30
0.0
 10
-2895.600000004551
 20
268.00000000318391
 30
0.0
 10
-2886.600000004551
 20
273.50000000318391
 30
0.0
 10
-2878.100000004551
 20
268.00000000318391
 30
0.0
 10
-2874.100000004551
 20
272.00000000318391
 30
0.0
 10
-2871.100000004551
 20
271.00000000318391
 30
0.0
  0
POLYLINE
  5
211
100
AcDbEntity
  8
OBJECT
 62
               7
100
AcDb2dPolyline
 66
               1
 10
0.0
 20
0.0
 30
0.0
 70
               1
 75
               5
  0
VERTEX
  5
212
100
AcDbEntity
  8
OBJECT
 62
               7
100
AcDbVertex
100
AcDb2dVertex
 10
-3103.600000004551
 20
399.00000000318391
 30
0.0
  0
VERTEX
  5
213
100
AcDbEntity
  8
OBJECT
 62
               7
100
AcDbVertex
100
AcDb2dVertex
 10
-3055.600000004551
 20
399.00000000318391
 30
0.0
  0
VERTEX
  5
214
100
AcDbEntity
  8
OBJECT
 62
               7
100
AcDbVertex
100
AcDb2dVertex
 10
-3055.600000004551
 20
379.00000000318391
 30
0.0
  0
VERTEX
  5
215
100
AcDbEntity
  8
OBJECT
 62
               7
100
AcDbVertex
100
AcDb2dVertex
 10
-3058.100000004551
 20
359.00000000318391
 30
0.0
  0
VERTEX
  5
216
100
AcDbEntity
  8
OBJECT
 62
               7
100
AcDbVertex
100
AcDb2dVertex
 10
-3101.100000004551
 20
359.00000000318391
 30
0.0
  0
VERTEX
  5
217
100
AcDbEntity
  8
OBJECT
 62
               7
100
AcDbVertex
100
AcDb2dVertex
 10
-3103.600000004551
 20
379.00000000318391
 30
0.0
  0
SEQEND
  5
218
100
AcDbEntity
  8
OBJECT
 62
               7
  0
LINE
  5
219
100
AcDbEntity
  8
OBJECT
 62
               7
100
AcDbLine
 10
-3103.600000004551
 20
379.00000000318391
 30
0.0
 11
-3055.600000004551
 21
379.00000000318391
 31
0.0
  0
LINE
  5
21A
100
AcDbEntity
  8
OBJECT
 62
               7
100
AcDbLine
 10
-3098.100000004551
 20
359.00000000318391
 30
0.0
 11
-3100.600000004551
 21
379.00000000318391
 31
0.0
  0
LINE
  5
21B
100
AcDbEntity
  8
OBJECT
 62
               7
100
AcDbLine
 10
-3061.100000004551
 20
359.00000000318391
 30
0.0
 11
-3058.600000004551
 21
379.00000000318391
 31
0.0
  0
LWPOLYLINE
  5
21C
100
AcDbEntity
  8
OBJECT
 62
               7
100
AcDbPolyline
 90
        6
 70
             129
 10
-3320.100000004551
 20
294.00000000318391
 10
-3285.100000004551
 20
294.00000000318391
 10
-3285.100000004551
 20
254.00000000318391
 42
-0.414213562373095
 10
-3290.100000004551
 20
249.00000000318391
 10
-3315.100000004551
 20
249.00000000318391
 42
-0.414213562373095
 10
-3320.100000004551
 20
254.00000000318391
  0
LWPOLYLINE
  5
21D
100
AcDbEntity
  8
OBJECT
 62
               7
100
AcDbPolyline
 90
       12
 70
             129
 10
-3340.100000004551
 20
396.00000000318391
 10
-3337.7270205458271
 20
396.00000000318391
 42
-0.3858711978005341
 10
-3333.7461064453473
 20
392.39028569930929
 10
-3324.4538935637547
 20
297.60971430705854
 42
0.3858711978005341
 10
-3320.4729794632749
 20
294.00000000318391
 10
-3284.7270205458271
 20
294.00000000318391
 42
0.3858711978005975
 10
-3280.7461064453473
 20
297.60971430705854
 10
-3271.4538935637547
 20
392.39028569930929
 42
-0.3858711978005813
 10
-3267.4729794632749
 20
396.00000000318391
 10
-3265.100000004551
 20
396.00000000318391
 10
-3265.100000004551
 20
399.00000000318391
 10
-3340.100000004551
 20
399.00000000318391
  0
LINE
  5
21E
100
AcDbEntity
  8
OBJECT
 62
               7
100
AcDbLine
 10
-3338.100000004551
 20
396.00000000318391
 30
0.0
 11
-3267.100000004551
 21
396.00000000318391
 31
0.0
  0
LINE
  5
21F
100
AcDbEntity
  8
OBJECT
 62
               7
100
AcDbLine
 10
-3294.100000004551
 20
251.00000000318391
 30
0.0
 11
-3294.100000004551
 21
268.00000000318391
 31
0.0
  0
LINE
  5
220
100
AcDbEntity
  8
OBJECT
 62
               7
100
AcDbLine
 10
-3311.600000004551
 20
251.00000000318391
 30
0.0
 11
-3311.600000004551
 21
268.00000000318391
 31
0.0
  0
SPLINE
  5
221
100
AcDbEntity
  8
OBJECT
 62
               7
100
AcDbSpline
210
0.0
220
0.0
230
1.0
 70
               8
 71
               2
 72
              10
 73
               7
 74
               0
 42
0.000001
 43
0.000001
 40
0.0
 40
0.0
 40
0.0
 40
0.2391095954640664
 40
0.2391095954640664
 40
0.7708424925849841
 40
0.7708424925849841
 40
1.0
 40
1.0
 40
1.0
 10
-3319.100000004551
 20
271.00000000318391
 30
0.0
 10
-3317.100000004551
 20
272.00000000318391
 30
0.0
 10
-3311.600000004551
 20
268.00000000318391
 30
0.0
 10
-3302.600000004551
 20
273.50000000318391
 30
0.0
 10
-3294.100000004551
 20
268.00000000318391
 30
0.0
 10
-3290.100000004551
 20
272.00000000318391
 30
0.0
 10
-3287.100000004551
 20
271.00000000318391
 30
0.0
  0
LINE
  5
222
100
AcDbEntity
  8
OBJECT
 62
               7
100
AcDbLine
 10
-3034.600000004551
 20
2048.0000000031837
 30
0.0
 11
-3033.600000004551
 21
2048.0000000031837
 31
0.0
  0
LINE
  5
223
100
AcDbEntity
  8
OBJECT
 62
               7
100
AcDbLine
 10
-3034.600000004551
 20
1708.0000000031839
 30
0.0
 11
-3033.600000004551
 21
1708.0000000031839
 31
0.0
  0
POLYLINE
  5
224
100
AcDbEntity
  8
OBJECT
 62
               7
100
AcDb2dPolyline
 66
               1
 10
0.0
 20
0.0
 30
0.0
 70
               1
 75
               5
  0
VERTEX
  5
225
100
AcDbEntity
  8
OBJECT
 62
               7
100
AcDbVertex
100
AcDb2dVertex
 10
-3394.6000000045506
 20
2058.0000000031837
 30
0.0
  0
VERTEX
  5
226
100
AcDbEntity
  8
OBJECT
 62
               7
100
AcDbVertex
100
AcDb2dVertex
 10
-3034.600000004551
 20
2058.0000000031837
 30
0.0
  0
VERTEX
  5
227
100
AcDbEntity
  8
OBJECT
 62
               7
100
AcDbVertex
100
AcDb2dVertex
 10
-3034.600000004551
 20
1698.0000000031839
 30
0.0
  0
VERTEX
  5
228
100
AcDbEntity
  8
OBJECT
 62
               7
100
AcDbVertex
100
AcDb2dVertex
 10
-3394.6000000045506
 20
1698.0000000031839
 30
0.0
  0
SEQEND
  5
229
100
AcDbEntity
  8
OBJECT
 62
               7
  0
LINE
  5
22A
100
AcDbEntity
  8
OBJECT
 62
               7
100
AcDbLine
 10
-3035.600000004551
 20
1713.0000000031839
 30
0.0
 11
-3035.600000004551
 21
2043.0000000031837
 31
0.0
  0
POLYLINE
  5
22B
100
AcDbEntity
  8
OBJECT
 62
               7
100
AcDb2dPolyline
 66
               1
 10
0.0
 20
0.0
 30
0.0
 70
               1
 75
               5
  0
VERTEX
  5
22C
100
AcDbEntity
  8
OBJECT
 62
               7
100
AcDbVertex
100
AcDb2dVertex
 10
-3034.600000004551
 20
2059.5000000031837
 30
0.0
  0
VERTEX
  5
22D
100
AcDbEntity
  8
OBJECT
 62
               7
100
AcDbVertex
100
AcDb2dVertex
 10
-2813.600000004551
 20
2059.5000000031837
 30
0.0
  0
VERTEX
  5
22E
100
AcDbEntity
  8
OBJECT
 62
               7
100
AcDbVertex
100
AcDb2dVertex
 10
-2813.600000004551
 20
1696.5000000031839
 30
0.0
  0
VERTEX
  5
22F
100
AcDbEntity
  8
OBJECT
 62
               7
100
AcDbVertex
100
AcDb2dVertex
 10
-3034.600000004551
 20
1696.5000000031839
 30
0.0
  0
SEQEND
  5
230
100
AcDbEntity
  8
OBJECT
 62
               7
  0
POLYLINE
  5
231
100
AcDbEntity
  8
OBJECT
 62
               7
100
AcDb2dPolyline
 66
               1
 10
0.0
 20
0.0
 30
0.0
 70
               1
 75
               5
  0
VERTEX
  5
232
100
AcDbEntity
  8
OBJECT
 62
               7
100
AcDbVertex
100
AcDb2dVertex
 10
-3034.600000004551
 20
2043.5000000031837
 30
0.0
  0
VERTEX
  5
233
100
AcDbEntity
  8
OBJECT
 62
               7
100
AcDbVertex
100
AcDb2dVertex
 10
-2829.600000004551
 20
2043.5000000031837
 30
0.0
  0
VERTEX
  5
234
100
AcDbEntity
  8
OBJECT
 62
               7
100
AcDbVertex
100
AcDb2dVertex
 10
-2829.600000004551
 20
1712.5000000031839
 30
0.0
  0
VERTEX
  5
235
100
AcDbEntity
  8
OBJECT
 62
               7
100
AcDbVertex
100
AcDb2dVertex
 10
-3034.600000004551
 20
1712.5000000031839
 30
0.0
  0
SEQEND
  5
236
100
AcDbEntity
  8
OBJECT
 62
               7
  0
POLYLINE
  5
237
100
AcDbEntity
  8
OBJECT
 62
               7
100
AcDb2dPolyline
 66
               1
 10
0.0
 20
0.0
 30
0.0
 70
               1
 75
               5
  0
VERTEX
  5
238
100
AcDbEntity
  8
OBJECT
 62
               7
100
AcDbVertex
100
AcDb2dVertex
 10
-3414.6000000045506
 20
2058.0000000031837
 30
0.0
  0
VERTEX
  5
239
100
AcDbEntity
  8
OBJECT
 62
               7
100
AcDbVertex
100
AcDb2dVertex
 10
-3394.6000000045506
 20
2058.0000000031837
 30
0.0
  0
VERTEX
  5
23A
100
AcDbEntity
  8
OBJECT
 62
               7
100
AcDbVertex
100
AcDb2dVertex
 10
-3394.6000000045506
 20
1698.0000000031839
 30
0.0
  0
VERTEX
  5
23B
100
AcDbEntity
  8
OBJECT
 62
               7
100
AcDbVertex
100
AcDb2dVertex
 10
-3414.6000000045506
 20
1698.0000000031839
 30
0.0
  0
SEQEND
  5
23C
100
AcDbEntity
  8
OBJECT
 62
               7
  0
LWPOLYLINE
  5
23D
100
AcDbEntity
  8
OBJECT
 62
               7
100
AcDbPolyline
 90
        5
 70
             129
 10
-2975.600000004551
 20
1988.0000000031837
 42
-0.414213562373095
 10
-2964.600000004551
 20
1999.0000000031837
 42
-0.414213562373095
 10
-2953.600000004551
 20
1988.0000000031837
 42
-0.414213562373095
 10
-2964.600000004551
 20
1977.0000000031837
 42
-0.414213562373095
 10
-2975.600000004551
 20
1988.0000000031837
 42
-0.414213562373095
  0
LWPOLYLINE
  5
23E
100
AcDbEntity
  8
OBJECT
 62
               7
100
AcDbPolyline
 90
        5
 70
             129
 10
-3070.100000004551
 20
2028.0000000031837
 42
-0.414213562373095
 10
-3059.600000004551
 20
2038.5000000031837
 42
-0.414213562373095
 10
-3049.100000004551
 20
2028.0000000031837
 42
-0.414213562373095
 10
-3059.600000004551
 20
2017.5000000031837
 42
-0.414213562373095
 10
-3070.100000004551
 20
2028.0000000031837
 42
-0.414213562373095
  0
POLYLINE
  5
23F
100
AcDbEntity
  8
HIDDEN
 62
               7
100
AcDb2dPolyline
 66
               1
 10
0.0
 20
0.0
 30
0.0
 75
               5
  0
VERTEX
  5
240
100
AcDbEntity
  8
HIDDEN
 62
               7
100
AcDbVertex
100
AcDb2dVertex
 10
-2828.9360000045508
 20
1049.0000000031839
 30
0.0
  0
VERTEX
  5
241
100
AcDbEntity
  8
HIDDEN
 62
               7
100
AcDbVertex
100
AcDb2dVertex
 10
-2828.9360000045508
 20
823.99990000318394
 30
0.0
  0
VERTEX
  5
242
100
AcDbEntity
  8
HIDDEN
 62
               7
100
AcDbVertex
100
AcDb2dVertex
 10
-2843.9360000045508
 20
823.99990000318394
 30
0.0
  0
VERTEX
  5
243
100
AcDbEntity
  8
HIDDEN
 62
               7
100
AcDbVertex
100
AcDb2dVertex
 10
-2843.9360000045508
 20
825.49990000318394
 30
0.0
  0
VERTEX
  5
244
100
AcDbEntity
  8
HIDDEN
 62
               7
100
AcDbVertex
100
AcDb2dVertex
 10
-2830.4360000045508
 20
825.49990000318394
 30
0.0
  0
VERTEX
  5
245
100
AcDbEntity
  8
HIDDEN
 62
               7
100
AcDbVertex
100
AcDb2dVertex
 10
-2830.4360000045508
 20
1049.0000000031839
 30
0.0
  0
SEQEND
  5
246
100
AcDbEntity
  8
HIDDEN
 62
               7
  0
POLYLINE
  5
247
100
AcDbEntity
  8
OBJECT
 62
               7
100
AcDb2dPolyline
 66
               1
 10
0.0
 20
0.0
 30
0.0
 75
               5
  0
VERTEX
  5
248
100
AcDbEntity
  8
OBJECT
 62
               7
100
AcDbVertex
100
AcDb2dVertex
 10
-2828.9360000045508
 20
1049.0000000031839
 30
0.0
  0
VERTEX
  5
249
100
AcDbEntity
  8
OBJECT
 62
               7
100
AcDbVertex
100
AcDb2dVertex
 10
-2828.9360000045508
 20
1052.4999000031839
 30
0.0
  0
VERTEX
  5
24A
100
AcDbEntity
  8
OBJECT
 62
               7
100
AcDbVertex
100
AcDb2dVertex
 10
-2811.9360000045508
 20
1052.4999000031839
 30
0.0
  0
VERTEX
  5
24B
100
AcDbEntity
  8
OBJECT
 62
               7
100
AcDbVertex
100
AcDb2dVertex
 10
-2811.9360000045508
 20
1036.9999000031839
 30
0.0
  0
VERTEX
  5
24C
100
AcDbEntity
  8
OBJECT
 62
               7
100
AcDbVertex
100
AcDb2dVertex
 10
-2810.4360000045508
 20
1036.9999000031839
 30
0.0
  0
VERTEX
  5
24D
100
AcDbEntity
  8
OBJECT
 62
               7
100
AcDbVertex
100
AcDb2dVertex
 10
-2810.4360000045508
 20
1053.9999000031839
 30
0.0
  0
VERTEX
  5
24E
100
AcDbEntity
  8
OBJECT
 62
               7
100
AcDbVertex
100
AcDb2dVertex
 10
-2830.4360000045508
 20
1053.9999000031839
 30
0.0
  0
VERTEX
  5
24F
100
AcDbEntity
  8
OBJECT
 62
               7
100
AcDbVertex
100
AcDb2dVertex
 10
-2830.4360000045508
 20
1049.0000000031839
 30
0.0
  0
SEQEND
  5
250
100
AcDbEntity
  8
OBJECT
 62
               7
  0
LINE
  5
251
100
AcDbEntity
  8
OBJECT
 62
               7
100
AcDbLine
 10
-3619.6000000045506
 20
249.00000000318391
 30
0.0
 11
-2397.600000004551
 21
249.00000000318391
 31
0.0
  0
LINE
  5
252
100
AcDbEntity
  8
OBJECT
 62
               7
100
AcDbLine
 10
-1518.436000004551
 20
249.00000000318391
 30
0.0
 11
-626.43600000455103
 21
249.00000000318391
 31
0.0
  0
POLYLINE
  5
253
100
AcDbEntity
  8
OBJECT
 62
               7
100
AcDb2dPolyline
 66
               1
 10
0.0
 20
0.0
 30
0.0
 70
               1
 75
               5
  0
VERTEX
  5
254
100
AcDbEntity
  8
OBJECT
 62
               7
100
AcDbVertex
100
AcDb2dVertex
 10
-2975.600000004551
 20
399.00000000318391
 30
0.0
  0
VERTEX
  5
255
100
AcDbEntity
  8
OBJECT
 62
               7
100
AcDbVertex
100
AcDb2dVertex
 10
-2953.600000004551
 20
399.00000000318391
 30
0.0
  0
VERTEX
  5
256
100
AcDbEntity
  8
OBJECT
 62
               7
100
AcDbVertex
100
AcDb2dVertex
 10
-2953.600000004551
 20
387.00000000318391
 30
0.0
  0
VERTEX
  5
257
100
AcDbEntity
  8
OBJECT
 62
               7
100
AcDbVertex
100
AcDb2dVertex
 10
-2955.600000004551
 20
375.00000000318391
 30
0.0
  0
VERTEX
  5
258
100
AcDbEntity
  8
OBJECT
 62
               7
100
AcDbVertex
100
AcDb2dVertex
 10
-2973.600000004551
 20
375.00000000318391
 30
0.0
  0
VERTEX
  5
259
100
AcDbEntity
  8
OBJECT
 62
               7
100
AcDbVertex
100
AcDb2dVertex
 10
-2975.600000004551
 20
387.00000000318391
 30
0.0
  0
SEQEND
  5
25A
100
AcDbEntity
  8
OBJECT
 62
               7
  0
LINE
  5
25B
100
AcDbEntity
  8
OBJECT
 62
               7
100
AcDbLine
 10
-2975.600000004551
 20
387.00000000318391
 30
0.0
 11
-2953.600000004551
 21
387.00000000318391
 31
0.0
  0
LINE
  5
25C
100
AcDbEntity
  8
OBJECT
 62
               7
100
AcDbLine
 10
-2971.600000004551
 20
375.00000000318391
 30
0.0
 11
-2973.600000004551
 21
387.00000000318391
 31
0.0
  0
LINE
  5
25D
100
AcDbEntity
  8
OBJECT
 62
               7
100
AcDbLine
 10
-2957.600000004551
 20
375.00000000318391
 30
0.0
 11
-2955.600000004551
 21
387.00000000318391
 31
0.0
  0
LWPOLYLINE
  5
25E
102
{ACAD_REACTORS
330
25F
102
}
100
AcDbEntity
  8
OBJECT
 62
               7
100
AcDbPolyline
 90
        6
 70
             129
 10
-1174.600000004551
 20
1054.9999000031839
 10
-1134.600000004551
 20
1054.9999000031839
 10
-1134.600000004551
 20
1042.9999000031839
 42
-0.414213562373095
 10
-1139.600000004551
 20
1037.9999000031839
 10
-1169.600000004551
 20
1037.9999000031839
 42
-0.4142135623731018
 10
-1174.600000004551
 20
1042.9999000031839
  0
HATCH
  5
25F
100
AcDbEntity
  8
OBJECT
  6
CONTINUOUS
 62
               7
100
AcDbHatch
 10
0.0
 20
0.0
 30
0.0
210
0.0
220
0.0
230
1.0
  2
SOLID
 70
               1
 71
               1
 91
        1
 92
        1
 93
        6
 72
               1
 10
-1174.600000004551
 20
1054.9999000031839
 11
-1134.600000004551
 21
1054.9999000031839
 72
               1
 10
-1134.600000004551
 20
1054.9999000031839
 11
-1134.600000004551
 21
1042.9999000031839
 72
               2
 10
-1139.600000004551
 20
1042.9999000031839
 40
5.0
 50
360.0
 51
450.0
 73
               0
 72
               1
 10
-1139.600000004551
 20
1037.9999000031839
 11
-1169.600000004551
 21
1037.9999000031839
 72
               2
 10
-1169.600000004551
 20
1042.9999000031839
 40
4.9999999999999432
 50
450.0
 51
180.0
 73
               0
 72
               1
 10
-1174.600000004551
 20
1042.9999000031839
 11
-1174.600000004551
 21
1054.9999000031839
 97
        1
330
25E
 75
               0
 76
               1
 98
        1
 10
0.0
 20
0.0
  0
POLYLINE
  5
260
100
AcDbEntity
  8
OBJECT
 62
               7
100
AcDb2dPolyline
 66
               1
 10
0.0
 20
0.0
 30
0.0
 70
               1
 75
               5
  0
VERTEX
  5
261
100
AcDbEntity
  8
OBJECT
 62
               7
100
AcDbVertex
100
AcDb2dVertex
 10
-1194.9360000045513
 20
1025.4999000031839
 30
0.0
  0
VERTEX
  5
262
100
AcDbEntity
  8
OBJECT
 62
               7
100
AcDbVertex
100
AcDb2dVertex
 10
-1119.4360000045513
 20
1025.4999000031839
 30
0.0
  0
VERTEX
  5
263
100
AcDbEntity
  8
OBJECT
 62
               7
100
AcDbVertex
100
AcDb2dVertex
 10
-1119.4360000045513
 20
1005.9999000031839
 30
0.0
  0
VERTEX
  5
264
100
AcDbEntity
  8
OBJECT
 62
               7
100
AcDbVertex
100
AcDb2dVertex
 10
-1194.9360000045513
 20
1005.9999000031839
 30
0.0
  0
SEQEND
  5
265
100
AcDbEntity
  8
OBJECT
 62
               7
  0
SPLINE
  5
266
100
AcDbEntity
  8
OBJECT
 62
               7
100
AcDbSpline
210
0.0
220
0.0
230
1.0
 70
               9
 71
               2
 72
              26
 73
              23
 74
               0
 42
0.000001
 43
0.000001
 40
0.0
 40
0.0
 40
0.0
 40
0.1098196105455002
 40
0.2196392210910005
 40
0.2196392210910005
 40
0.3058387036673297
 40
0.3058387036673297
 40
0.3598217732763789
 40
0.3598217732763789
 40
0.4138005174236707
 40
0.4138005174236707
 40
0.4999999999999999
 40
0.4999999999999999
 40
0.6098196105455002
 40
0.7196392210910004
 40
0.7196392210910004
 40
0.8058387036673296
 40
0.8058387036673296
 40
0.8598217732763789
 40
0.8598217732763789
 40
0.9138005174236707
 40
0.9138005174236707
 40
1.0
 40
1.0
 40
1.0
 10
-922.93600000455103
 20
1011.5305493052199
 30
0.0
 10
-914.81422173964029
 20
1013.3727000031839
 30
0.0
 10
-896.05777826946178
 20
1013.3727000031839
 30
0.0
 10
-887.93600000455103
 20
1011.5305493052199
 30
0.0
 10
-879.81422173964029
 20
1009.688398607256
 30
0.0
 10
-875.12511087209577
 20
1006.4977000031839
 30
0.0
 10
-870.43600000455103
 20
1003.3070013991119
 30
0.0
 10
-870.43600000455103
 20
999.62270000318392
 30
0.0
 10
-870.43600000455103
 20
995.93839860725598
 30
0.0
 10
-875.12511087209577
 20
992.74770000318392
 30
0.0
 10
-879.81422173964029
 20
989.55700139911187
 30
0.0
 10
-887.93600000455103
 20
987.71485070114795
 30
0.0
 10
-896.05777826946178
 20
985.87270000318392
 30
0.0
 10
-914.81422173964029
 20
985.87270000318392
 30
0.0
 10
-922.93600000455103
 20
987.71485070114795
 30
0.0
 10
-931.05777826946178
 20
989.55700139911187
 30
0.0
 10
-935.74688913700629
 20
992.74770000318392
 30
0.0
 10
-940.43600000455103
 20
995.93839860725598
 30
0.0
 10
-940.43600000455103
 20
999.62270000318392
 30
0.0
 10
-940.43600000455103
 20
1003.3070013991119
 30
0.0
 10
-935.74688913700629
 20
1006.4977000031839
 30
0.0
 10
-931.05777826946178
 20
1009.688398607256
 30
0.0
 10
-922.93600000455103
 20
1011.5305493052199
 30
0.0
  0
POLYLINE
  5
267
100
AcDbEntity
  8
OBJECT
 62
               7
100
AcDb2dPolyline
 66
               1
 10
0.0
 20
0.0
 30
0.0
 70
               1
 75
               5
  0
VERTEX
  5
268
100
AcDbEntity
  8
OBJECT
 62
               7
100
AcDbVertex
100
AcDb2dVertex
 10
-947.43600000455103
 20
469.49980000318396
 30
0.0
  0
VERTEX
  5
269
100
AcDbEntity
  8
OBJECT
 62
               7
100
AcDbVertex
100
AcDb2dVertex
 10
-881.43600000455103
 20
469.49980000318396
 30
0.0
  0
VERTEX
  5
26A
100
AcDbEntity
  8
OBJECT
 62
               7
100
AcDbVertex
100
AcDb2dVertex
 10
-881.43600000455103
 20
429.49980000318396
 30
0.0
  0
VERTEX
  5
26B
100
AcDbEntity
  8
OBJECT
 62
               7
100
AcDbVertex
100
AcDb2dVertex
 10
-947.43600000455103
 20
429.49980000318396
 30
0.0
  0
SEQEND
  5
26C
100
AcDbEntity
  8
OBJECT
 62
               7
  0
POLYLINE
  5
26D
100
AcDbEntity
  8
OBJECT
 62
               7
100
AcDb2dPolyline
 66
               1
 10
0.0
 20
0.0
 30
0.0
 75
               5
  0
VERTEX
  5
26E
100
AcDbEntity
  8
OBJECT
 62
               7
100
AcDbVertex
100
AcDb2dVertex
 10
-3377.6000000045506
 20
1713.0000000031839
 30
0.0
  0
VERTEX
  5
26F
100
AcDbEntity
  8
OBJECT
 62
               7
100
AcDbVertex
100
AcDb2dVertex
 10
-3379.6000000045506
 20
1713.0000000031839
 30
0.0
  0
VERTEX
  5
270
100
AcDbEntity
  8
OBJECT
 62
               7
100
AcDbVertex
100
AcDb2dVertex
 10
-3379.6000000045506
 20
2043.0000000031837
 30
0.0
  0
VERTEX
  5
271
100
AcDbEntity
  8
OBJECT
 62
               7
100
AcDbVertex
100
AcDb2dVertex
 10
-3377.6000000045506
 20
2043.0000000031837
 30
0.0
  0
SEQEND
  5
272
100
AcDbEntity
  8
OBJECT
 62
               7
  0
POLYLINE
  5
273
100
AcDbEntity
  8
OBJECT
 62
               7
100
AcDb2dPolyline
 66
               1
 10
0.0
 20
0.0
 30
0.0
 75
               5
  0
VERTEX
  5
274
100
AcDbEntity
  8
OBJECT
 62
               7
100
AcDbVertex
100
AcDb2dVertex
 10
-3037.600000004551
 20
1713.0000000031839
 30
0.0
  0
VERTEX
  5
275
100
AcDbEntity
  8
OBJECT
 62
               7
100
AcDbVertex
100
AcDb2dVertex
 10
-3034.600000004551
 20
1713.0000000031839
 30
0.0
  0
VERTEX
  5
276
100
AcDbEntity
  8
OBJECT
 62
               7
100
AcDbVertex
100
AcDb2dVertex
 10
-3034.600000004551
 20
2043.0000000031837
 30
0.0
  0
VERTEX
  5
277
100
AcDbEntity
  8
OBJECT
 62
               7
100
AcDbVertex
100
AcDb2dVertex
 10
-3077.600000004551
 20
2043.0000000031837
 30
0.0
  0
SEQEND
  5
278
100
AcDbEntity
  8
OBJECT
 62
               7
  0
INSERT
  5
279
100
AcDbEntity
  8
OBJECT
 62
               7
100
AcDbBlockReference
  2
*U5
 10
-2049.600000004551
 20
1434.0000000031839
 30
0.0
  0
INSERT
  5
27A
100
AcDbEntity
  8
OBJECT
 62
               7
100
AcDbBlockReference
  2
*U6
 10
-2049.600000004551
 20
1434.0000000031839
 30
0.0
  0
POLYLINE
  5
27B
102
{ACAD_REACTORS
330
281
102
}
100
AcDbEntity
  8
OBJECT
 62
               7
100
AcDb2dPolyline
 66
               1
 10
0.0
 20
0.0
 30
0.0
 70
               1
 75
               5
  0
VERTEX
  5
27C
100
AcDbEntity
  8
OBJECT
 62
               7
100
AcDbVertex
100
AcDb2dVertex
 10
-2831.600000004551
 20
1778.0000000031839
 30
0.0
  0
VERTEX
  5
27D
100
AcDbEntity
  8
OBJECT
 62
               7
100
AcDbVertex
100
AcDb2dVertex
 10
-2811.600000004551
 20
1778.0000000031839
 30
0.0
  0
VERTEX
  5
27E
100
AcDbEntity
  8
OBJECT
 62
               7
100
AcDbVertex
100
AcDb2dVertex
 10
-2811.600000004551
 20
1738.0000000031839
 30
0.0
  0
VERTEX
  5
27F
100
AcDbEntity
  8
OBJECT
 62
               7
100
AcDbVertex
100
AcDb2dVertex
 10
-2831.600000004551
 20
1738.0000000031839
 30
0.0
  0
SEQEND
  5
280
100
AcDbEntity
  8
OBJECT
 62
               7
  0
HATCH
  5
281
100
AcDbEntity
  8
OBJECT
  6
CONTINUOUS
 62
               7
100
AcDbHatch
 10
0.0
 20
0.0
 30
0.0
210
0.0
220
0.0
230
1.0
  2
SOLID
 70
               1
 71
               1
 91
        1
 92
        1
 93
        4
 72
               1
 10
-2831.600000004551
 20
1778.0000000031839
 11
-2811.600000004551
 21
1778.0000000031839
 72
               1
 10
-2811.600000004551
 20
1778.0000000031839
 11
-2811.600000004551
 21
1738.0000000031839
 72
               1
 10
-2811.600000004551
 20
1738.0000000031839
 11
-2831.600000004551
 21
1738.0000000031839
 72
               1
 10
-2831.600000004551
 20
1738.0000000031839
 11
-2831.600000004551
 21
1778.0000000031839
 97
        1
330
27B
 75
               0
 76
               1
 98
        1
 10
0.0
 20
0.0
  0
LWPOLYLINE
  5
282
100
AcDbEntity
  8
OBJECT
 62
               7
100
AcDbPolyline
 90
       10
 70
             128
 10
-3070.5000000045511
 20
1049.0000000031839
 10
-3070.5000000045511
 20
1075.4999000031839
 10
-3070.5000000045511
 20
1075.4999000031839
 10
-3070.5000000045511
 20
1075.4999000031839
 42
-0.414213562373095
 10
-3067.5000000045511
 20
1078.4999000031839
 10
-3051.7000000045509
 20
1078.4999000031839
 10
-3051.7000000045509
 20
1078.4999000031839
 10
-3051.7000000045509
 20
1078.4999000031839
 42
-0.414213562373095
 10
-3048.7000000045509
 20
1075.4999000031839
 10
-3048.7000000045509
 20
1049.0000000031839
  0
POLYLINE
  5
283
100
AcDbEntity
  8
OBJECT
 62
               7
100
AcDb2dPolyline
 66
               1
 10
0.0
 20
0.0
 30
0.0
 70
               1
 75
               5
  0
VERTEX
  5
284
100
AcDbEntity
  8
OBJECT
 62
               7
100
AcDbVertex
100
AcDb2dVertex
 10
-3125.5000000045511
 20
1077.2999000031839
 30
0.0
  0
VERTEX
  5
285
100
AcDbEntity
  8
OBJECT
 62
               7
100
AcDbVertex
100
AcDb2dVertex
 10
-3082.5000000045511
 20
1077.2999000031839
 30
0.0
  0
VERTEX
  5
286
100
AcDbEntity
  8
OBJECT
 62
               7
100
AcDbVertex
100
AcDb2dVertex
 10
-3082.5000000045511
 20
1059.699900003184
 30
0.0
  0
VERTEX
  5
287
100
AcDbEntity
  8
OBJECT
 62
               7
100
AcDbVertex
100
AcDb2dVertex
 10
-3125.5000000045511
 20
1059.699900003184
 30
0.0
  0
SEQEND
  5
288
100
AcDbEntity
  8
OBJECT
 62
               7
  0
POLYLINE
  5
289
100
AcDbEntity
  8
OBJECT
 62
               7
100
AcDb2dPolyline
 66
               1
 10
0.0
 20
0.0
 30
0.0
 70
               1
 75
               5
  0
VERTEX
  5
28A
100
AcDbEntity
  8
OBJECT
 62
               7
100
AcDbVertex
100
AcDb2dVertex
 10
-3111.7500000045511
 20
1086.2999000031839
 30
0.0
  0
VERTEX
  5
28B
100
AcDbEntity
  8
OBJECT
 62
               7
100
AcDbVertex
100
AcDb2dVertex
 10
-3096.2500000045511
 20
1086.2999000031839
 30
0.0
  0
VERTEX
  5
28C
100
AcDbEntity
  8
OBJECT
 62
               7
100
AcDbVertex
100
AcDb2dVertex
 10
-3096.2500000045511
 20
1080.2999000031839
 30
0.0
  0
VERTEX
  5
28D
100
AcDbEntity
  8
OBJECT
 62
               7
100
AcDbVertex
100
AcDb2dVertex
 10
-3111.7500000045511
 20
1080.2999000031839
 30
0.0
  0
SEQEND
  5
28E
100
AcDbEntity
  8
OBJECT
 62
               7
  0
POLYLINE
  5
28F
100
AcDbEntity
  8
OBJECT
 62
               7
100
AcDb2dPolyline
 66
               1
 10
0.0
 20
0.0
 30
0.0
 70
               1
 75
               5
  0
VERTEX
  5
290
100
AcDbEntity
  8
OBJECT
 62
               7
100
AcDbVertex
100
AcDb2dVertex
 10
-3108.7500000045511
 20
1094.2999000031839
 30
0.0
  0
VERTEX
  5
291
100
AcDbEntity
  8
OBJECT
 62
               7
100
AcDbVertex
100
AcDb2dVertex
 10
-3099.2500000045511
 20
1094.2999000031839
 30
0.0
  0
VERTEX
  5
292
100
AcDbEntity
  8
OBJECT
 62
               7
100
AcDbVertex
100
AcDb2dVertex
 10
-3099.2500000045511
 20
1086.2999000031839
 30
0.0
  0
VERTEX
  5
293
100
AcDbEntity
  8
OBJECT
 62
               7
100
AcDbVertex
100
AcDb2dVertex
 10
-3108.7500000045511
 20
1086.2999000031839
 30
0.0
  0
SEQEND
  5
294
100
AcDbEntity
  8
OBJECT
 62
               7
  0
LINE
  5
295
100
AcDbEntity
  8
OBJECT
 62
               7
100
AcDbLine
 10
-3108.7500000045511
 20
1094.2999000031839
 30
0.0
 11
-3125.2500000045511
 21
1094.2999000031839
 31
0.0
  0
LINE
  5
296
100
AcDbEntity
  8
OBJECT
 62
               7
100
AcDbLine
 10
-3125.2500000045511
 20
1094.2999000031839
 30
0.0
 11
-3125.2500000045511
 21
1087.7999000031839
 31
0.0
  0
LINE
  5
297
100
AcDbEntity
  8
OBJECT
 62
               7
100
AcDbLine
 10
-3125.2500000045511
 20
1087.7999000031839
 30
0.0
 11
-3111.7500000045511
 21
1083.2999000031839
 31
0.0
  0
LINE
  5
298
100
AcDbEntity
  8
OBJECT
 62
               7
100
AcDbLine
 10
-3108.0000000045511
 20
1080.2999000031839
 30
0.0
 11
-3108.0000000045511
 21
1077.2999000031839
 31
0.0
  0
LINE
  5
299
100
AcDbEntity
  8
OBJECT
 62
               7
100
AcDbLine
 10
-3099.5000000045511
 20
1080.2999000031839
 30
0.0
 11
-3099.5000000045511
 21
1077.2999000031839
 31
0.0
  0
POLYLINE
  5
29A
100
AcDbEntity
  8
OBJECT
 62
               7
100
AcDb2dPolyline
 66
               1
 10
0.0
 20
0.0
 30
0.0
 70
               1
 75
               5
  0
VERTEX
  5
29B
100
AcDbEntity
  8
OBJECT
 62
               7
100
AcDbVertex
100
AcDb2dVertex
 10
-3082.5000000045511
 20
1075.399900003184
 30
0.0
  0
VERTEX
  5
29C
100
AcDbEntity
  8
OBJECT
 62
               7
100
AcDbVertex
100
AcDb2dVertex
 10
-3070.5000000045511
 20
1075.399900003184
 30
0.0
  0
VERTEX
  5
29D
100
AcDbEntity
  8
OBJECT
 62
               7
100
AcDbVertex
100
AcDb2dVertex
 10
-3070.5000000045511
 20
1061.5999000031838
 30
0.0
  0
VERTEX
  5
29E
100
AcDbEntity
  8
OBJECT
 62
               7
100
AcDbVertex
100
AcDb2dVertex
 10
-3082.5000000045511
 20
1061.5999000031838
 30
0.0
  0
SEQEND
  5
29F
100
AcDbEntity
  8
OBJECT
 62
               7
  0
LWPOLYLINE
  5
2A0
100
AcDbEntity
  8
OBJECT
 62
               7
100
AcDbPolyline
 90
       13
 70
             128
 10
-3127.5000000045511
 20
1061.8519000031838
 10
-3127.5000000045511
 20
1060.4999000031839
 10
-3138.766600004551
 20
1060.4999000031839
 10
-3138.766600004551
 20
1060.4999000031839
 10
-3138.766600004551
 20
1060.4999000031839
 42
-0.414213562373095
 10
-3140.5000000045511
 20
1062.2333000031838
 10
-3140.5000000045511
 20
1062.4999000031839
 10
-3140.5000000045511
 20
1074.4999000031839
 10
-3140.5000000045511
 20
1074.4999000031839
 10
-3140.5000000045511
 20
1074.7665000031841
 42
-0.414213562373095
 10
-3138.766600004551
 20
1076.4999000031839
 10
-3127.5000000045511
 20
1076.4999000031839
 10
-3127.5000000045511
 20
1075.1479000031838
  0
LINE
  5
2A1
100
AcDbEntity
  8
OBJECT
 62
               7
100
AcDbLine
 10
-3127.5000000045511
 20
1075.1479000031838
 30
0.0
 11
-3127.5000000045511
 21
1074.2919000031839
 31
0.0
  0
LINE
  5
2A2
100
AcDbEntity
  8
OBJECT
 62
               7
100
AcDbLine
 10
-3127.5000000045511
 20
1061.8519000031838
 30
0.0
 11
-3127.5000000045511
 21
1062.707900003184
 31
0.0
  0
LINE
  5
2A3
100
AcDbEntity
  8
OBJECT
 62
               7
100
AcDbLine
 10
-3127.5000000045511
 20
1075.1479000031838
 30
0.0
 11
-3125.5000000045511
 21
1075.0780000031839
 31
0.0
  0
LINE
  5
2A4
100
AcDbEntity
  8
OBJECT
 62
               7
100
AcDbLine
 10
-3127.5000000045511
 20
1074.2919000031839
 30
0.0
 11
-3125.5000000045511
 21
1074.2220000031839
 31
0.0
  0
LINE
  5
2A5
100
AcDbEntity
  8
OBJECT
 62
               7
100
AcDbLine
 10
-3127.5000000045511
 20
1062.707900003184
 30
0.0
 11
-3125.5000000045511
 21
1062.777800003184
 31
0.0
  0
LINE
  5
2A6
100
AcDbEntity
  8
OBJECT
 62
               7
100
AcDbLine
 10
-3127.5000000045511
 20
1061.8519000031838
 30
0.0
 11
-3125.5000000045511
 21
1061.921700003184
 31
0.0
  0
LWPOLYLINE
  5
2A7
100
AcDbEntity
  8
OBJECT
 62
               7
100
AcDbPolyline
 90
       14
 70
             128
 10
-3139.100000004551
 20
1060.532300003184
 10
-3139.100000004551
 20
1060.4999000031839
 10
-3139.600000004551
 20
1060.4999000031839
 10
-3139.600000004551
 20
1051.4999000031839
 10
-3139.600000004551
 20
1051.4999000031839
 10
-3139.600000004551
 20
1051.4999000031839
 42
0.414213562373095
 10
-3138.600000004551
 20
1050.4999000031839
 10
-3130.600000004551
 20
1050.4999000031839
 10
-3130.600000004551
 20
1050.4999000031839
 10
-3130.600000004551
 20
1050.4999000031839
 42
0.414213562373095
 10
-3129.600000004551
 20
1051.4999000031839
 10
-3129.600000004551
 20
1060.4999000031839
 10
-3130.100000004551
 20
1060.4999000031839
 10
-3130.100000004551
 20
1060.4999000031839
  0
INSERT
  5
2A8
100
AcDbEntity
  8
OBJECT
 62
               7
100
AcDbBlockReference
  2
*U7
 10
-2049.600000004551
 20
1434.0000000031839
 30
0.0
  0
INSERT
  5
2A9
100
AcDbEntity
  8
OBJECT
 62
               7
100
AcDbBlockReference
  2
*U8
 10
-2049.600000004551
 20
1434.0000000031839
 30
0.0
  0
INSERT
  5
2AA
100
AcDbEntity
  8
OBJECT
 62
               7
100
AcDbBlockReference
  2
*U9
 10
-2049.600000004551
 20
1434.0000000031839
 30
0.0
  0
INSERT
  5
2AB
100
AcDbEntity
  8
OBJECT
 62
               7
100
AcDbBlockReference
  2
*U10
 10
-2049.600000004551
 20
1434.0000000031839
 30
0.0
  0
POLYLINE
  5
2AC
100
AcDbEntity
  8
HIDDEN
 62
               7
100
AcDb2dPolyline
 66
               1
 10
0.0
 20
0.0
 30
0.0
 70
               1
 75
               5
  0
VERTEX
  5
2AD
100
AcDbEntity
  8
HIDDEN
 62
               7
100
AcDbVertex
100
AcDb2dVertex
 10
-3133.600000004551
 20
1952.0000000031837
 30
0.0
  0
VERTEX
  5
2AE
100
AcDbEntity
  8
HIDDEN
 62
               7
100
AcDbVertex
100
AcDb2dVertex
 10
-3045.600000004551
 20
1952.0000000031837
 30
0.0
  0
VERTEX
  5
2AF
100
AcDbEntity
  8
HIDDEN
 62
               7
100
AcDbVertex
100
AcDb2dVertex
 10
-3045.600000004551
 20
1804.0000000031837
 30
0.0
  0
VERTEX
  5
2B0
100
AcDbEntity
  8
HIDDEN
 62
               7
100
AcDbVertex
100
AcDb2dVertex
 10
-3133.600000004551
 20
1804.0000000031837
 30
0.0
  0
SEQEND
  5
2B1
100
AcDbEntity
  8
HIDDEN
 62
               7
  0
LWPOLYLINE
  5
2B2
100
AcDbEntity
  8
HIDDEN
 62
               7
100
AcDbPolyline
 90
        5
 70
             129
 10
-3109.600000004551
 20
1878.0000000031837
 42
-0.414213562373095
 10
-3079.600000004551
 20
1908.0000000031837
 42
-0.4142135623730973
 10
-3049.600000004551
 20
1878.0000000031837
 42
-0.414213562373095
 10
-3079.600000004551
 20
1848.0000000031837
 42
-0.414213562373095
 10
-3109.600000004551
 20
1878.0000000031837
 42
-0.414213562373095
  0
LWPOLYLINE
  5
2B3
100
AcDbEntity
  8
HIDDEN
 62
               7
100
AcDbPolyline
 90
        5
 70
             129
 10
-2903.600000004551
 20
1878.0000000031837
 42
-0.414213562373095
 10
-2873.600000004551
 20
1908.0000000031837
 42
-0.414213562373095
 10
-2843.600000004551
 20
1878.0000000031837
 42
-0.414213562373095
 10
-2873.600000004551
 20
1848.0000000031837
 42
-0.414213562373095
 10
-2903.600000004551
 20
1878.0000000031837
 42
-0.414213562373095
  0
MTEXT
  5
2B4
100
AcDbEntity
  8
DIMENTION
 62
               4
100
AcDbMText
 10
-1038.8887000045511
 20
272.45820000318395
 30
0.0
 40
33.859439999999999
 41
0.0
 71
               1
 72
               1
  1
120
  7
________
 11
0.0
 21
1.0
 31
0.0
  0
DIMENSION
  5
2B5
100
AcDbEntity
  8
DIMENTION
 62
               4
100
AcDbDimension
  2
*D11
 10
-986.43600000455103
 20
375.00000000318391
 30
0.0
 11
-986.43600000455103
 21
312.00000000318391
 31
0.0
  1
 
  3
CAD
100
AcDbAlignedDimension
 13
-963.60000000455102
 23
249.00000000318391
 33
0.0
 14
-963.60000000455102
 24
375.00000000318391
 34
0.0
 50
90.0
100
AcDbRotatedDimension
1001
ACAD
1000
DSTYLE
1002
{
1070
             271
1070
               1
1070
             340
1005
3C
1070
             147
1040
0.9999999999999999
1002
}
  0
MTEXT
  5
2B6
100
AcDbEntity
  8
DIMENTION
 62
               4
100
AcDbMText
 10
-1591.018600004551
 20
1471.7790000031839
 30
0.0
 40
33.861600000000003
 41
0.0
 71
               1
 72
               1
  1
電源スイッチ
  7
________
  0
LINE
  5
2B7
100
AcDbEntity
  8
DIMENTION
 62
               4
100
AcDbLine
 10
-1591.018600004551
 20
1415.724300003184
 30
0.0
 11
-1330.1927000045512
 21
1415.724300003184
 31
0.0
  0
LINE
  5
2B8
100
AcDbEntity
  8
DIMENTION
 62
               4
100
AcDbLine
 10
-1330.1927000045512
 20
1415.724300003184
 30
0.0
 11
-1154.600000004551
 21
1054.9999000031839
 31
0.0
  0
LINE
  5
2B9
100
AcDbEntity
  8
DIMENTION
 62
               4
100
AcDbLine
 10
-1154.600000004551
 20
1054.9999000031839
 30
0.0
 11
-1169.2392858690787
 21
1072.4463215252483
 31
0.0
  0
LINE
  5
2BA
100
AcDbEntity
  8
DIMENTION
 62
               4
100
AcDbLine
 10
-1154.600000004551
 20
1054.9999000031839
 30
0.0
 11
-1158.5547826954621
 21
1077.4285871786869
 31
0.0
  0
LINE
  5
2BB
100
AcDbEntity
  8
DIMENTION
 62
               4
100
AcDbLine
 10
-506.43600000455126
 20
759.00000000318391
 30
0.0
 11
-732.43600000455103
 21
759.00000000318391
 31
0.0
  0
LINE
  5
2BC
100
AcDbEntity
  8
DIMENTION
 62
               4
100
AcDbLine
 10
-732.43600000455103
 20
759.00000000318391
 30
0.0
 11
-909.60000000455102
 21
564.00000000318391
 31
0.0
  0
LINE
  5
2BD
100
AcDbEntity
  8
DIMENTION
 62
               4
100
AcDbLine
 10
-909.60000000455102
 20
564.00000000318391
 30
0.0
 11
-898.90793265707885
 21
584.10885403284021
 31
0.0
  0
LINE
  5
2BE
100
AcDbEntity
  8
DIMENTION
 62
               4
100
AcDbLine
 10
-909.60000000455102
 20
564.00000000318391
 30
0.0
 11
-890.28597104783785
 21
576.0687447601232
 31
0.0
  0
MTEXT
  5
2BF
100
AcDbEntity
  8
DIMENTION
 62
               4
100
AcDbMText
 10
-727.28260000455111
 20
811.84120000318399
 30
0.0
 40
33.767119999999998
 41
0.0
 71
               1
 72
               1
  1
電源ランプ
  7
________
  0
DIMENSION
  5
2C0
100
AcDbEntity
  8
DIMENTION
 62
               4
100
AcDbDimension
  2
*D12
 10
-2594.600000004551
 20
1988.0000000031837
 30
0.0
 11
-2594.600000004551
 21
1933.0000000031837
 31
0.0
  3
CAD
100
AcDbAlignedDimension
 13
-2766.600000004551
 23
1878.0000000031837
 33
0.0
 14
-2945.600000004551
 24
1988.0000000031837
 34
0.0
 50
90.0
100
AcDbRotatedDimension
1001
ACAD
1000
DSTYLE
1002
{
1070
             271
1070
               1
1070
             340
1005
3C
1070
             147
1040
0.9999999999999999
1002
}
  0
MTEXT
  5
2C1
100
AcDbEntity
  8
DIMENTION
 62
               4
100
AcDbMText
 10
-2549.7548000045508
 20
1837.288800003184
 30
0.0
 40
33.771679999999996
 41
0.0
 71
               1
 72
               1
  1
330
  7
________
 11
0.0
 21
1.0
 31
0.0
  0
MTEXT
  5
2C2
100
AcDbEntity
  8
DIMENTION
 62
               4
100
AcDbMText
 10
-2467.7336000045511
 20
1837.4583000031839
 30
0.0
 40
33.771679999999996
 41
0.0
 71
               1
 72
               1
  1
360
  7
________
 11
0.0
 21
1.0
 31
0.0
  0
DIMENSION
  5
2C3
100
AcDbEntity
  8
DIMENTION
 62
               4
100
AcDbDimension
  2
*D13
 10
-2415.5999000045508
 20
2059.5000000031837
 30
0.0
 11
-2414.5999000045508
 21
1878.0000000031839
 31
0.0
 70
             128
  1
 
  3
CAD
100
AcDbAlignedDimension
 13
-2813.600000004551
 23
1696.5000000031839
 33
0.0
 14
-2813.600000004551
 24
2059.5000000031837
 34
0.0
 50
90.0
100
AcDbRotatedDimension
1001
ACAD
1000
DSTYLE
1002
{
1070
             271
1070
               1
1070
             340
1005
3C
1070
             147
1040
0.9999999999999999
1002
}
  0
DIMENSION
  5
2C4
100
AcDbEntity
  8
DIMENTION
 62
               4
100
AcDbDimension
  2
*D14
 10
-2496.600000004551
 20
2043.5000000031837
 30
0.0
 11
-2496.600000004551
 21
1878.0000000031839
 31
0.0
  1
 
  3
CAD
100
AcDbAlignedDimension
 13
-2829.600000004551
 23
1712.5000000031839
 33
0.0
 14
-2829.600000004551
 24
2043.5000000031837
 34
0.0
 50
90.0
100
AcDbRotatedDimension
1001
ACAD
1000
DSTYLE
1002
{
1070
             271
1070
               1
1070
             340
1005
3C
1070
             147
1040
0.9999999999999999
1002
}
  0
MTEXT
  5
2C5
100
AcDbEntity
  8
DIMENTION
 62
               4
100
AcDbMText
 10
-2730.8603000045509
 20
2253.170800003184
 30
0.0
 40
34.462240000000001
 41
0.0
 71
               1
 72
               1
  1
給水接続口　15A
  7
________
  0
LINE
  5
2C6
100
AcDbEntity
  8
DIMENTION
 62
               4
100
AcDbLine
 10
-2957.0092000045511
 20
1995.9612000031839
 30
0.0
 11
-2732.600000004551
 21
2196.0000000031841
 31
0.0
  0
LINE
  5
2C7
100
AcDbEntity
  8
DIMENTION
 62
               4
100
AcDbLine
 10
-2957.0092000045511
 20
1995.9612000031839
 30
0.0
 11
-2938.6285187948915
 21
2023.2116805393005
 31
0.0
  0
LINE
  5
2C8
100
AcDbEntity
  8
DIMENTION
 62
               4
100
AcDbLine
 10
-2957.0092000045511
 20
1995.9612000031839
 30
0.0
 11
-2927.4658228700646
 21
2010.3704678079644
 31
0.0
  0
LINE
  5
2C9
100
AcDbEntity
  8
DIMENTION
 62
               4
100
AcDbLine
 10
-2732.600000004551
 20
2196.0000000031841
 30
0.0
 11
-2388.4360000045508
 21
2196.0000000031841
 31
0.0
  0
MTEXT
  5
2CA
100
AcDbEntity
  8
DIMENTION
 62
               4
100
AcDbMText
 10
-2980.0097000045507
 20
2273.9945000031839
 30
0.0
 40
33.350559999999994
 41
0.0
 71
               1
 72
               1
  1
265
  7
________
  0
MTEXT
  5
2CB
100
AcDbEntity
  8
DIMENTION
 62
               4
100
AcDbMText
 10
-2930.7089000045507
 20
2200.6631000031839
 30
0.0
 40
34.217039999999997
 41
0.0
 71
               1
 72
               1
  1
150
  7
________
  0
DIMENSION
  5
2CC
100
AcDbEntity
  8
DIMENTION
 62
               4
100
AcDbDimension
  2
*D15
 10
-2813.600000004551
 20
2222.0000000031837
 30
0.0
 11
-2944.5989929244729
 21
2223.0000000031837
 31
0.0
 70
             128
  1
 
  3
CAD
100
AcDbAlignedDimension
 13
-3079.600000004551
 23
1916.0000000031837
 33
0.0
 14
-2813.600000004551
 24
2059.5000000031837
 34
0.0
100
AcDbRotatedDimension
1001
ACAD
1000
DSTYLE
1002
{
1070
             271
1070
               1
1070
             340
1005
3C
1070
             147
1040
0.9999999999999999
1002
}
  0
DIMENSION
  5
2CD
100
AcDbEntity
  8
DIMENTION
 62
               4
100
AcDbDimension
  2
*D16
 10
-2964.600000004551
 20
2149.0000000031837
 30
0.0
 11
-2889.100000004551
 21
2149.0000000031837
 31
0.0
  1
 
  3
CAD
100
AcDbAlignedDimension
 13
-2813.600000004551
 23
2059.5000000031837
 33
0.0
 14
-2964.600000004551
 24
2007.0000000031837
 34
0.0
100
AcDbRotatedDimension
1001
ACAD
1000
DSTYLE
1002
{
1070
             271
1070
               1
1070
             340
1005
3C
1070
             147
1040
0.9999999999999999
1002
}
  0
LINE
  5
2CE
100
AcDbEntity
  8
DIMENTION
 62
               4
100
AcDbLine
 10
-3224.600000004551
 20
2310.0000000031841
 30
0.0
 11
-3361.6278000045509
 21
2310.0000000031841
 31
0.0
  0
LINE
  5
2CF
100
AcDbEntity
  8
DIMENTION
 62
               4
100
AcDbLine
 10
-3066.8000000045508
 20
2035.6426000031838
 30
0.0
 11
-3224.600000004551
 21
2310.0000000031841
 31
0.0
  0
LINE
  5
2D0
100
AcDbEntity
  8
DIMENTION
 62
               4
100
AcDbLine
 10
-3066.8000000045508
 20
2035.6426000031838
 30
0.0
 11
-3089.633433651114
 21
2059.2873127121256
 31
0.0
  0
LINE
  5
2D1
100
AcDbEntity
  8
DIMENTION
 62
               4
100
AcDbLine
 10
-3066.8000000045508
 20
2035.6426000031838
 30
0.0
 11
-3074.7519772436299
 21
2067.5362386975939
 31
0.0
  0
LINE
  5
2D2
100
AcDbEntity
  8
DIMENTION
 62
               4
100
AcDbLine
 10
-3702.4360000045508
 20
2275.8058000031838
 30
0.0
 11
-3450.6000000045506
 21
2275.8058000031838
 31
0.0
  0
LINE
  5
2D3
100
AcDbEntity
  8
DIMENTION
 62
               4
100
AcDbLine
 10
-3450.6000000045506
 20
2275.8058000031838
 30
0.0
 11
-3101.850000004551
 21
1901.2500000031837
 31
0.0
  0
LINE
  5
2D4
100
AcDbEntity
  8
DIMENTION
 62
               4
100
AcDbLine
 10
-3101.850000004551
 20
1901.2500000031837
 30
0.0
 11
-3129.4171172795564
 21
1919.1522952841385
 31
0.0
  0
LINE
  5
2D5
100
AcDbEntity
  8
DIMENTION
 62
               4
100
AcDbLine
 10
-3101.850000004551
 20
1901.2500000031837
 30
0.0
 11
-3116.7726762333332
 21
1930.5374011400436
 31
0.0
  0
MTEXT
  5
2D6
100
AcDbEntity
  8
DIMENTION
 62
               4
100
AcDbMText
 10
-3361.6278000045509
 20
2366.4759000031836
 30
0.0
 40
33.889119999999998
 41
0.0
 71
               1
 72
               1
  1
給水口
  7
________
  0
MTEXT
  5
2D7
100
AcDbEntity
  8
DIMENTION
 62
               4
100
AcDbMText
 10
-3700.0181000045509
 20
2330.7501000031839
 30
0.0
 40
34.462240000000001
 41
0.0
 71
               1
 72
               1
  1
排水口　40A
  7
________
  0
DIMENSION
  5
2D8
100
AcDbEntity
  8
DIMENTION
 62
               4
100
AcDbDimension
  2
*D17
 10
-3482.4360000045508
 20
2043.0000000031837
 30
0.0
 11
-3482.4360000045508
 21
1878.0000000031839
 31
0.0
  3
CAD
100
AcDbAlignedDimension
 13
-3379.6000000045506
 23
1713.0000000031839
 33
0.0
 14
-3379.6000000045506
 24
2043.0000000031837
 34
0.0
 50
90.0
100
AcDbRotatedDimension
1001
ACAD
1000
DSTYLE
1002
{
1070
             271
1070
               1
1070
             340
1005
3C
1070
             147
1040
0.9999999999999999
1002
}
  0
MTEXT
  5
2D9
100
AcDbEntity
  8
DIMENTION
 62
               4
100
AcDbMText
 10
-2713.5161000045509
 20
1529.0835000031839
 30
0.0
 40
33.971599999999995
 41
0.0
 71
               1
 72
               1
  1
氷水槽
  7
________
  0
LINE
  5
2DA
100
AcDbEntity
  8
DIMENTION
 62
               4
100
AcDbLine
 10
-2727.4360000045508
 20
1483.4999000031839
 30
0.0
 11
-2574.4360000045508
 21
1483.4999000031839
 31
0.0
  0
LINE
  5
2DB
100
AcDbEntity
  8
DIMENTION
 62
               4
100
AcDbLine
 10
-2879.4360000045508
 20
1746.4999000031839
 30
0.0
 11
-2727.4360000045508
 21
1483.4999000031839
 31
0.0
  0
LINE
  5
2DC
100
AcDbEntity
  8
DIMENTION
 62
               4
100
AcDbLine
 10
-2879.4360000045508
 20
1746.4999000031839
 30
0.0
 11
-2856.1933868642391
 21
1723.257286862872
 31
0.0
  0
LINE
  5
2DD
100
AcDbEntity
  8
DIMENTION
 62
               4
100
AcDbLine
 10
-2879.4360000045508
 20
1746.4999000031839
 30
0.0
 11
-2870.9286131448625
 21
1714.7499000031839
 31
0.0
  0
MTEXT
  5
2DE
100
AcDbEntity
  8
DIMENTION
 62
               4
100
AcDbMText
 10
-3661.3328000045508
 20
1593.7101000031839
 30
0.0
 40
33.949999999999996
 41
0.0
 71
               1
 72
               1
  1
噴流槽
  7
________
  0
LINE
  5
2DF
100
AcDbEntity
  8
DIMENTION
 62
               4
100
AcDbLine
 10
-3520.9360000045508
 20
1550.4999000031839
 30
0.0
 11
-3657.4360000045508
 21
1550.4999000031839
 31
0.0
  0
LINE
  5
2E0
100
AcDbEntity
  8
DIMENTION
 62
               4
100
AcDbLine
 10
-3356.9360000045508
 20
1740.9999000031839
 30
0.0
 11
-3520.9360000045508
 21
1550.4999000031839
 31
0.0
  0
LINE
  5
2E1
100
AcDbEntity
  8
DIMENTION
 62
               4
100
AcDbLine
 10
-3356.9360000045508
 20
1740.9999000031839
 30
0.0
 11
-3371.3452678093317
 21
1711.4565228686972
 31
0.0
  0
LINE
  5
2E2
100
AcDbEntity
  8
DIMENTION
 62
               4
100
AcDbLine
 10
-3356.9360000045508
 20
1740.9999000031839
 30
0.0
 11
-3384.1864805406676
 21
1722.6192187935244
 31
0.0
  0
DIMENSION
  5
2E3
100
AcDbEntity
  8
DIMENTION
 62
               4
100
AcDbDimension
  2
*D18
 10
-3394.6000000045506
 20
1558.0000000031839
 30
0.0
 11
-3214.6000000045506
 21
1558.0000000031839
 31
0.0
  3
CAD
100
AcDbAlignedDimension
 13
-3034.600000004551
 23
1696.5000000031839
 33
0.0
 14
-3394.6000000045506
 24
1698.0000000031839
 34
0.0
100
AcDbRotatedDimension
1001
ACAD
1000
DSTYLE
1002
{
1070
             271
1070
               1
1070
             340
1005
3C
1070
             147
1040
0.9999999999999999
1002
}
  0
MTEXT
  5
2E4
100
AcDbEntity
  8
DIMENTION
 62
               4
100
AcDbMText
 10
-2960.6943000045512
 20
1610.9078000031839
 30
0.0
 40
33.687919999999998
 41
0.0
 71
               1
 72
               1
  1
220
  7
________
  0
DIMENSION
  5
2E5
100
AcDbEntity
  8
DIMENTION
 62
               4
100
AcDbDimension
  2
*D19
 10
-3034.600000004551
 20
1558.0000000031839
 30
0.0
 11
-2924.100000004551
 21
1558.0000000031839
 31
0.0
  1
 
  3
CAD
100
AcDbAlignedDimension
 13
-2813.600000004551
 23
1696.5000000031839
 33
0.0
 14
-3034.600000004551
 24
1696.5000000031839
 34
0.0
100
AcDbRotatedDimension
1001
ACAD
1000
DSTYLE
1002
{
1070
             271
1070
               1
1070
             340
1005
3C
1070
             147
1040
0.9999999999999999
1002
}
  0
DIMENSION
  5
2E6
100
AcDbEntity
  8
DIMENTION
 62
               4
100
AcDbDimension
  2
*D20
 10
-3414.6000000045506
 20
1473.0000000031839
 30
0.0
 11
-3114.1000000045506
 21
1473.0000000031839
 31
0.0
  1
 
  3
CAD
100
AcDbAlignedDimension
 13
-2813.600000004551
 23
1696.5000000031839
 33
0.0
 14
-3414.6000000045506
 24
1698.0000000031839
 34
0.0
100
AcDbRotatedDimension
1001
ACAD
1000
DSTYLE
1002
{
1070
             271
1070
               1
1070
             340
1005
3C
1070
             147
1040
0.9999999999999999
1002
}
  0
MTEXT
  5
2E7
100
AcDbEntity
  8
DIMENTION
 62
               4
100
AcDbMText
 10
-3160.247700004551
 20
1525.6479000031838
 30
0.0
 40
33.687919999999998
 41
0.0
 71
               1
 72
               1
  1
600
  7
________
  0
MTEXT
  5
2E8
100
AcDbEntity
  8
DIMENTION
 62
               4
100
AcDbMText
 10
-3336.6192000045512
 20
1084.296900003184
 30
0.0
 40
33.894159999999999
 41
0.0
 71
               1
 72
               1
  1
150
  7
________
 11
0.0
 21
1.0
 31
0.0
  0
DIMENSION
  5
2E9
100
AcDbEntity
  8
DIMENTION
 62
               4
100
AcDbDimension
  2
*D21
 10
-3283.6000000045506
 20
1198.0000000031839
 30
0.0
 11
-3283.6000000045506
 21
1123.5000000031839
 31
0.0
  1
 
  3
CAD
100
AcDbAlignedDimension
 13
-3394.6000000045506
 23
1049.0000000031839
 33
0.0
 14
-3394.6000000045506
 24
1198.0000000031839
 34
0.0
 50
90.0
100
AcDbRotatedDimension
1001
ACAD
1000
DSTYLE
1002
{
1070
             271
1070
               1
1070
             340
1005
3C
1070
             147
1040
0.9999999999999999
1002
}
  0
DIMENSION
  5
2EA
100
AcDbEntity
  8
DIMENTION
 62
               4
100
AcDbDimension
  2
*D22
 10
-2646.600000004551
 20
399.00000000318391
 30
0.0
 11
-2646.600000004551
 21
724.00000000318391
 31
0.0
  3
CAD
100
AcDbAlignedDimension
 13
-2813.600000004551
 23
1049.0000000031839
 33
0.0
 14
-2844.600000004551
 24
399.00000000318391
 34
0.0
 50
90.0
100
AcDbRotatedDimension
1001
ACAD
1000
DSTYLE
1002
{
1070
             271
1070
               1
1070
             340
1005
3C
1070
             147
1040
0.9999999999999999
1002
}
  0
DIMENSION
  5
2EB
100
AcDbEntity
  8
DIMENTION
 62
               4
100
AcDbDimension
  2
*D23
 10
-2568.600000004551
 20
1049.0000000031839
 30
0.0
 11
-2568.600000004551
 21
649.00000000318391
 31
0.0
  3
CAD
100
AcDbAlignedDimension
 13
-2874.100000004551
 23
249.00000000318391
 33
0.0
 14
-2813.600000004551
 24
1049.0000000031839
 34
0.0
 50
90.0
100
AcDbRotatedDimension
1001
ACAD
1000
DSTYLE
1002
{
1070
             271
1070
               1
1070
             340
1005
3C
1070
             147
1040
0.9999999999999999
1002
}
  0
DIMENSION
  5
2EC
100
AcDbEntity
  8
DIMENTION
 62
               4
100
AcDbDimension
  2
*D24
 10
-3172.600000004551
 20
359.00000000318391
 30
0.0
 11
-3172.600000004551
 21
304.00000000318391
 31
0.0
  3
CAD
100
AcDbAlignedDimension
 13
-3101.100000004551
 23
249.00000000318391
 33
0.0
 14
-3101.100000004551
 24
359.00000000318391
 34
0.0
 50
90.0
100
AcDbRotatedDimension
1001
ACAD
1000
DSTYLE
1002
{
1070
             271
1070
               1
1070
             340
1005
3C
1070
             147
1040
0.9999999999999999
1002
}
  0
MTEXT
  5
2ED
100
AcDbEntity
  8
DIMENTION
 62
               4
100
AcDbMText
 10
-1469.1052000045511
 20
687.45820000318395
 30
0.0
 40
33.910639999999994
 41
0.0
 71
               1
 72
               1
  1
950
  7
________
 11
0.0
 21
1.0
 31
0.0
  0
DIMENSION
  5
2EE
100
AcDbEntity
  8
DIMENTION
 62
               4
100
AcDbDimension
  2
*D25
 10
-1414.600000004551
 20
249.00000000318391
 30
0.0
 11
-1414.600000004551
 21
723.50000000318391
 31
0.0
  1
 
  3
CAD
100
AcDbAlignedDimension
 13
-1214.600000004551
 23
1198.0000000031839
 33
0.0
 14
-1167.600000004551
 24
249.00000000318391
 34
0.0
 50
90.0
100
AcDbRotatedDimension
1001
ACAD
1000
DSTYLE
1002
{
1070
             271
1070
               1
1070
             340
1005
3C
1070
             147
1040
0.9999999999999999
1002
}
  0
MTEXT
  5
2EF
100
AcDbEntity
  8
TEXT
 62
               4
100
AcDbMText
 10
-1354.2925000045511
 20
128.00000000318414
 30
0.0
 40
50.799999999999997
 41
0.0
 71
               1
 72
               1
  1
NA26
  7
________
  0
MTEXT
  5
2F0
100
AcDbEntity
  8
TEXT
 62
               4
100
AcDbMText
 10
-2951.600000004551
 20
65.00320000318402
 30
0.0
 40
25.602079999999997
 41
0.0
 71
               1
 72
               1
  1
2021.7.19
  7
________
  0
MTEXT
  5
2F1
100
AcDbEntity
  8
TEXT
 62
               4
100
AcDbMText
 10
-2950.4934000045509
 20
111.40940000318392
 30
0.0
 40
25.399999999999999
 41
0.0
 71
               1
 72
               1
  1
田　中
  7
________
  0
MTEXT
  5
2F2
100
AcDbEntity
  8
TEXT
 62
               4
100
AcDbMText
 10
-2953.2680000045511
 20
155.15620000318404
 30
0.0
 40
25.399999999999999
 41
0.0
 71
               1
 72
               1
  1
大　谷
  7
________
  0
MTEXT
  5
2F4
100
AcDbEntity
  8
TEXT
 62
               4
100
AcDbMText
 10
-589.00000000455111
 20
137.00000000318414
 30
0.0
 40
67.733279999999993
 41
0.0
 71
               1
 72
               1
  1
A340-085C
  7
________
  0
MTEXT
  5
2F5
100
AcDbEntity
  8
TEXT
 62
               4
100
AcDbMText
 10
-2134.0000000045511
 20
120.31250000318414
 30
0.0
 40
50.799999999999997
 41
0.0
 71
               1
 72
               1
  1
ヌードルアフター
  7
________
  0
MTEXT
  5
2F6
100
AcDbEntity
  8
TEXT
 62
               4
100
AcDbMText
 10
-485.56399999999985
 20
2186.0
 30
0.0
 40
33.866639999999997
 41
0.0
 71
               1
 72
               1
  1
給水装置　形式認証番号\P　　　　　          ＴＣ３００４
  7
________
  0
MTEXT
  5
2F7
100
AcDbEntity
  8
TEXT
 62
               4
100
AcDbMText
 10
-2275.0
 20
1940.0
 30
0.0
 40
50.800000000000004
 41
0.0
 71
               1
 72
               1
  1
注意\P本製品には冷却機能はありません。\P各槽の水温が上昇した状態で放置すると雑菌が繁殖する恐れがあります。\Pご使用の際は水や氷を継ぎ足し、定期的に水を入れ替える作業が必要となります。\P予めご了承ください。
  7
________
  0
POLYLINE
  5
2F8
100
AcDbEntity
  8
TEXT
 62
               4
100
AcDb2dPolyline
 66
               1
 10
0.0
 20
0.0
 30
0.0
 70
               1
 75
               5
  0
VERTEX
  5
2F9
100
AcDbEntity
  8
TEXT
 62
               4
100
AcDbVertex
100
AcDb2dVertex
 10
-1175.0000000045511
 20
2745.0000000031837
 30
0.0
  0
VERTEX
  5
2FA
100
AcDbEntity
  8
TEXT
 62
               4
100
AcDbVertex
100
AcDb2dVertex
 10
-25.000000004551111
 20
2745.0000000031837
 30
0.0
  0
VERTEX
  5
2FB
100
AcDbEntity
  8
TEXT
 62
               4
100
AcDbVertex
100
AcDb2dVertex
 10
-25.000000004551111
 20
2205.0000000031837
 30
0.0
  0
VERTEX
  5
2FC
100
AcDbEntity
  8
TEXT
 62
               4
100
AcDbVertex
100
AcDb2dVertex
 10
-1175.0000000045511
 20
2205.0000000031837
 30
0.0
  0
SEQEND
  5
2FD
100
AcDbEntity
  8
TEXT
 62
               4
  0
MTEXT
  5
2FE
100
AcDbEntity
  8
TEXT
 62
               4
100
AcDbMText
 10
-1155.0000000045511
 20
2731.0000000031837
 30
0.0
 40
33.77008
 41
0.0
 71
               1
 72
               1
  1
麺 洗 噴 流 槽
  7
________
  0
MTEXT
  5
2FF
100
AcDbEntity
  8
TEXT
 62
               4
100
AcDbMText
 10
-1155.0000000045511
 20
2641.3829000031837
 30
0.0
 40
33.77008
 41
0.0
 71
               1
 72
               1
  1
冷　　水　　槽
  7
________
  0
MTEXT
  5
300
100
AcDbEntity
  8
TEXT
 62
               4
100
AcDbMText
 10
-1155.0000000045511
 20
2538.4814000031838
 30
0.0
 40
33.77008
 41
0.0
 71
               1
 72
               1
  1
噴 流 ポ ン プ
  7
________
  0
MTEXT
  5
301
100
AcDbEntity
  8
TEXT
 62
               4
100
AcDbMText
 10
-1155.0000000045511
 20
2469.3829000031837
 30
0.0
 40
33.77008
 41
0.0
 71
               1
 72
               1
  1
電　　　　　源
  7
________
  0
MTEXT
  5
302
100
AcDbEntity
  8
TEXT
 62
               4
100
AcDbMText
 10
-1155.0000000045511
 20
2401.3829000031837
 30
0.0
 40
33.77008
 41
0.0
 71
               1
 72
               1
  1
最大消費電力
  7
________
  0
MTEXT
  5
303
100
AcDbEntity
  8
TEXT
 62
               4
100
AcDbMText
 10
-1155.0000000045511
 20
2263.3829000031837
 30
0.0
 40
33.697439999999993
 41
0.0
 71
               1
 72
               1
  1
質　　　　　量
  7
________
  0
LINE
  5
304
100
AcDbEntity
  8
TEXT
 62
               4
100
AcDbLine
 10
-875.00000000455088
 20
2745.0000000031837
 30
0.0
 11
-875.00000000455088
 21
2205.0000000031837
 31
0.0
  0
MTEXT
  5
305
100
AcDbEntity
  8
TEXT
 62
               4
100
AcDbMText
 10
-856.15240000455105
 20
2733.9746000031837
 30
0.0
 40
33.77008
 41
0.0
 71
               1
 72
               1
  1
テボ検出自動噴流方式　　容量：30Ｌ
  7
________
  0
MTEXT
  5
306
100
AcDbEntity
  8
TEXT
 62
               4
100
AcDbMText
 10
-848.80500000455095
 20
2655.9608000031835
 30
0.0
 40
33.77008
 41
0.0
 71
               1
 72
               1
  1
冷水：製氷機の氷を2～3kg投入\P容量：11Ｌ
  7
________
  0
MTEXT
  5
307
100
AcDbEntity
  8
TEXT
 62
               4
100
AcDbMText
 10
-853.00000000455088
 20
2539.4892000031832
 30
0.0
 40
33.77008
 41
0.0
 71
               1
 72
               1
  1
電動機定格出力：0.25kW
  7
________
  0
MTEXT
  5
308
100
AcDbEntity
  8
TEXT
 62
               4
100
AcDbMText
 10
-851.00000000455088
 20
2468.723400003184
 30
0.0
 40
34.319199999999995
 41
451.56379999999996
 71
               1
 72
               1
  1
単相100Ｖ　50/60Hz
  7
________
  0
MTEXT
  5
309
100
AcDbEntity
  8
TEXT
 62
               4
100
AcDbMText
 10
-845.41490000455087
 20
2401.2383000031837
 30
0.0
 40
33.697439999999993
 41
0.0
 71
               1
 72
               1
  1
0.2ｋＷ
  7
________
  0
MTEXT
  5
30A
100
AcDbEntity
  8
TEXT
 62
               4
100
AcDbMText
 10
-845.41490000455087
 20
2261.1218000031836
 30
0.0
 40
33.697439999999993
 41
0.0
 71
               1
 72
               1
  1
40kg
  7
________
  0
POLYLINE
  5
30B
100
AcDbEntity
  8
TEXT
 62
               6
100
AcDb2dPolyline
 66
               1
 10
0.0
 20
0.0
 30
0.0
 70
               1
 75
               5
  0
VERTEX
  5
30C
100
AcDbEntity
  8
TEXT
 62
               6
100
AcDbVertex
100
AcDb2dVertex
 10
-2275.0
 20
1940.0
 30
0.0
  0
VERTEX
  5
30D
100
AcDbEntity
  8
TEXT
 62
               6
100
AcDbVertex
100
AcDb2dVertex
 10
-79.805180867513172
 20
1940.0
 30
0.0
  0
VERTEX
  5
30E
100
AcDbEntity
  8
TEXT
 62
               6
100
AcDbVertex
100
AcDb2dVertex
 10
-79.805180867513172
 20
1622.5
 30
0.0
  0
VERTEX
  5
30F
100
AcDbEntity
  8
TEXT
 62
               6
100
AcDbVertex
100
AcDb2dVertex
 10
-2275.0
 20
1622.5
 30
0.0
  0
SEQEND
  5
310
100
AcDbEntity
  8
TEXT
 62
               6
  0
MTEXT
  5
311
100
AcDbEntity
  8
TEXT
 62
               4
100
AcDbMText
 10
-540.0
 20
505.0
 30
0.0
 40
33.866639999999997
 41
0.0
 71
               1
 72
               1
  1
注）アジャスト調整範囲：\P　　基準高さ（800）に対して\P　　-20，+30\P\P注）指示なき寸法公差は\P　　±5とする
  7
________
  0
LINE
  5
312
100
AcDbEntity
  8
TEXT
 62
               4
100
AcDbLine
 10
-1175.0000000045511
 20
2675.0000000031837
 30
0.0
 11
-25.000000004551111
 21
2675.0000000031837
 31
0.0
  0
LINE
  5
313
100
AcDbEntity
  8
TEXT
 62
               4
100
AcDbLine
 10
-1175.0000000045511
 20
2555.0000000031837
 30
0.0
 11
-25.000000004551111
 21
2555.0000000031837
 31
0.0
  0
LINE
  5
314
100
AcDbEntity
  8
TEXT
 62
               4
100
AcDbLine
 10
-1175.0000000045511
 20
2485.0000000031837
 30
0.0
 11
-25.000000004551111
 21
2485.0000000031837
 31
0.0
  0
LINE
  5
315
100
AcDbEntity
  8
TEXT
 62
               4
100
AcDbLine
 10
-1175.0000000045511
 20
2345.0000000031837
 30
0.0
 11
-25.000000004551111
 21
2345.0000000031837
 31
0.0
  0
LINE
  5
316
100
AcDbEntity
  8
TEXT
 62
               4
100
AcDbLine
 10
-1130.0000000045511
 20
2415.0000000031837
 30
0.0
 11
-25.000000004551111
 21
2415.0000000031837
 31
0.0
  0
LINE
  5
317
100
AcDbEntity
  8
TEXT
 62
               4
100
AcDbLine
 10
-1175.0000000045511
 20
2415.0000000031837
 30
0.0
 11
-25.000000004551111
 21
2415.0000000031837
 31
0.0
  0
LINE
  5
318
100
AcDbEntity
  8
TEXT
 62
               4
100
AcDbLine
 10
-1175.0000000045511
 20
2275.0000000031837
 30
0.0
 11
-25.000000004551111
 21
2275.0000000031837
 31
0.0
  0
MTEXT
  5
319
100
AcDbEntity
  8
TEXT
 62
               4
100
AcDbMText
 10
-1155.0000000045511
 20
2329.4814000031838
 30
0.0
 40
33.77008
 41
0.0
 71
               1
 72
               1
  1
最 大 電 流 値
  7
________
  0
MTEXT
  5
31A
100
AcDbEntity
  8
TEXT
 62
               4
100
AcDbMText
 10
-845.41490000455087
 20
2330.2383000031837
 30
0.0
 40
33.697439999999993
 41
0.0
 71
               1
 72
               1
  1
2.5A
  7
________
  0
INSERT
  5
31B
100
AcDbEntity
  8
_____1
 62
               4
100
AcDbBlockReference
  2
*U31
 10
-2049.600000004551
 20
1434.0000000031839
 30
0.0
  0
ENDSEC
  0
SECTION
  2
OBJECTS
  0
DICTIONARY
  5
19
100
AcDbDictionary
  3
ACAD_GROUP
350
1A
  3
ACAD_MLINESTYLE
350
1B
  0
DICTIONARY
  5
1A
102
{ACAD_REACTORS
330
19
102
}
100
AcDbDictionary
  0
DICTIONARY
  5
1B
102
{ACAD_REACTORS
330
19
102
}
100
AcDbDictionary
  3
STANDARD
350
1C
  0
MLINESTYLE
  5
1C
102
{ACAD_REACTORS
330
1B
102
}
100
AcDbMlineStyle
  2
STANDARD
 70
               0
  3

 62
               0
 51
90.0
 52
90.0
 71
               2
 49
0.5
 62
             256
  6
BYLAYER
 49
-0.5
 62
             256
  6
BYLAYER
  0
ENDSEC
  0
EOF
