  0
SECTION
  2
HEADER
  9
$ACADVER
  1
AC1014
  9
$ACADMAINTVER
 70
               0
  9
$DWGCODEPAGE
  3
ANSI_932
  9
$INSBASE
 10
0.0
 20
0.0
 30
0.0
  9
$EXTMIN
 10
-3062.3999999999996
 20
730.39999999999986
 30
0.0
  9
$EXTMAX
 10
-1037.4000000000001
 20
2090.3999999999996
 30
0.0
  9
$LIMMIN
 10
0.0
 20
0.0
  9
$LIMMAX
 10
0.0
 20
0.0
  9
$ORTHOMODE
 70
               0
  9
$REGENMODE
 70
               1
  9
$FILLMODE
 70
               1
  9
$QTEXTMODE
 70
               0
  9
$MIRRTEXT
 70
               1
  9
$DRAGMODE
 70
               2
  9
$LTSCALE
 40
127.0
  9
$OSMODE
 70
               0
  9
$ATTMODE
 70
               1
  9
$TEXTSIZE
 40
0.2
  9
$TRACEWID
 40
1.0
  9
$TEXTSTYLE
  7
STANDARD
  9
$CLAYER
  8
0
  9
$CELTYPE
  6
CONTINUOUS
  9
$CECOLOR
 62
             256
  9
$CELTSCALE
 40
1.0
  9
$DELOBJ
 70
               1
  9
$DISPSILH
 70
               0
  9
$DIMSCALE
 40
1.0
  9
$DIMASZ
 40
15.875
  9
$DIMEXO
 40
4.9999999999999991
  9
$DIMDLI
 40
7.9999999999999991
  9
$DIMRND
 40
0.0
  9
$DIMDLE
 40
0.0
  9
$DIMEXE
 40
9.9999999999999982
  9
$DIMTP
 40
0.0
  9
$DIMTM
 40
0.0
  9
$DIMTXT
 40
16.933333333333334
  9
$DIMCEN
 40
0.0
  9
$DIMTSZ
 40
0.0
  9
$DIMTOL
 70
               0
  9
$DIMLIM
 70
               0
  9
$DIMTIH
 70
               0
  9
$DIMTOH
 70
               0
  9
$DIMSE1
 70
               0
  9
$DIMSE2
 70
               0
  9
$DIMTAD
 70
               1
  9
$DIMZIN
 70
              11
  9
$DIMBLK
  1
VW_OPENARROW
  9
$DIMASO
 70
               1
  9
$DIMSHO
 70
               1
  9
$DIMPOST
  1
<>
  9
$DIMAPOST
  1
[]
  9
$DIMALT
 70
               0
  9
$DIMALTD
 70
               1
  9
$DIMALTF
 40
1.0
  9
$DIMLFAC
 40
1.0
  9
$DIMTOFL
 70
               1
  9
$DIMTVP
 40
0.0
  9
$DIMTIX
 70
               1
  9
$DIMSOXD
 70
               0
  9
$DIMSAH
 70
               0
  9
$DIMBLK1
  1

  9
$DIMBLK2
  1

  9
$DIMSTYLE
  2
CAD
  9
$DIMCLRD
 70
               0
  9
$DIMCLRE
 70
               0
  9
$DIMCLRT
 70
               0
  9
$DIMTFAC
 40
0.7
  9
$DIMGAP
 40
0.099999999627471
  9
$DIMJUST
 70
               0
  9
$DIMSD1
 70
               0
  9
$DIMSD2
 70
               0
  9
$DIMTOLJ
 70
               1
  9
$DIMTZIN
 70
              11
  9
$DIMALTZ
 70
              11
  9
$DIMALTTZ
 70
              11
  9
$DIMFIT
 70
               0
  9
$DIMUPT
 70
               0
  9
$DIMUNIT
 70
               2
  9
$DIMDEC
 70
               4
  9
$DIMTDEC
 70
               4
  9
$DIMALTU
 70
               2
  9
$DIMALTTD
 70
               2
  9
$DIMTXSTY
  7
________
  9
$DIMAUNIT
 70
               0
  9
$LUNITS
 70
               2
  9
$LUPREC
 70
               4
  9
$SKETCHINC
 40
0.1
  9
$FILLETRAD
 40
0.0
  9
$AUNITS
 70
               0
  9
$AUPREC
 70
               0
  9
$MENU
  1
acad
  9
$ELEVATION
 40
0.0
  9
$PELEVATION
 40
0.0
  9
$THICKNESS
 40
0.0
  9
$LIMCHECK
 70
               0
  9
$BLIPMODE
 70
               0
  9
$CHAMFERA
 40
0.0
  9
$CHAMFERB
 40
0.0
  9
$CHAMFERC
 40
0.0
  9
$CHAMFERD
 40
0.0
  9
$SKPOLY
 70
               0
  9
$TDCREATE
 40
2459432.576296296
  9
$TDUPDATE
 40
2459432.576296296
  9
$TDINDWG
 40
0.0000000000
  9
$TDUSRTIMER
 40
0.0000000000
  9
$USRTIMER
 70
               1
  9
$ANGBASE
 50
0.0
  9
$ANGDIR
 70
               0
  9
$PDMODE
 70
               1
  9
$PDSIZE
 40
-2.0
  9
$PLINEWID
 40
0.0
  9
$COORDS
 70
               0
  9
$SPLFRAME
 70
               0
  9
$SPLINETYPE
 70
               6
  9
$SPLINESEGS
 70
               8
  9
$ATTDIA
 70
               0
  9
$ATTREQ
 70
               1
  9
$HANDLING
 70
               1
  9
$HANDSEED
  5
490
  9
$SURFTAB1
 70
               6
  9
$SURFTAB2
 70
               6
  9
$SURFTYPE
 70
               6
  9
$SURFU
 70
               6
  9
$SURFV
 70
               6
  9
$UCSNAME
  2

  9
$UCSORG
 10
0.0
 20
0.0
 30
0.0
  9
$UCSXDIR
 10
1.0
 20
0.0
 30
0.0
  9
$UCSYDIR
 10
0.0
 20
1.0
 30
0.0
  9
$PUCSNAME
  2

  9
$PUCSORG
 10
0.0
 20
0.0
 30
0.0
  9
$PUCSXDIR
 10
1.0
 20
0.0
 30
0.0
  9
$PUCSYDIR
 10
0.0
 20
1.0
 30
0.0
  9
$USERI1
 70
               0
  9
$USERI2
 70
               0
  9
$USERI3
 70
               0
  9
$USERI4
 70
               0
  9
$USERI5
 70
               0
  9
$USERR1
 40
0.0
  9
$USERR2
 40
0.0
  9
$USERR3
 40
0.0
  9
$USERR4
 40
0.0
  9
$USERR5
 40
0.0
  9
$WORLDVIEW
 70
               1
  9
$SHADEDGE
 70
               3
  9
$SHADEDIF
 70
              70
  9
$TILEMODE
 70
               1
  9
$MAXACTVP
 70
              16
  9
$PINSBASE
 10
0.0
 20
0.0
 30
0.0
  9
$PLIMCHECK
 70
               0
  9
$PEXTMIN
 10
1.0000000000000000E+20
 20
1.0000000000000000E+20
 30
1.0000000000000000E+20
  9
$PEXTMAX
 10
-1.0000000000000000E+20
 20
-1.0000000000000000E+20
 30
-1.0000000000000000E+20
  9
$PLIMMIN
 10
0.0
 20
0.0
  9
$PLIMMAX
 10
12.0
 20
9.0
  9
$UNITMODE
 70
               0
  9
$VISRETAIN
 70
               0
  9
$PLINEGEN
 70
               1
  9
$PSLTSCALE
 70
               0
  9
$TREEDEPTH
 70
            3020
  9
$PICKSTYLE
 70
               1
  9
$CMLSTYLE
  2
STANDARD
  9
$CMLJUST
 70
               0
  9
$CMLSCALE
 40
1.0
  9
$PROXYGRAPHICS
 70
               0
  9
$MEASUREMENT
 70
               1
  0
ENDSEC
  0
SECTION
  2
CLASSES
  0
CLASS
  1
LWPOLYLINE
  2
AcDbPolyline
  3
"AutoCAD"
 90
        0
280
               0
281
               1
  0
CLASS
  1
IMAGE
  2
AcDbRasterImage
  3
ISM
 90
      127
280
               0
281
               1
  0
CLASS
  1
OLE2FRAME
  2
AcDbOle2Frame
  3
""
 90
        0
280
               0
281
               1
  0
CLASS
  1
HATCH
  2
AcDbHatch
  3
"ACAD_SEDONA"
 90
        0
280
               0
281
               1
  0
CLASS
  1
DICTIONARYVAR
  2
AcDbDictionaryVar
  3
"AutoCAD"
 90
        0
280
               0
281
               0
  0
CLASS
  1
RASTERVARIABLES
  2
AcDbRasterVariables
  3
ISM
 90
        0
280
               0
281
               0
  0
CLASS
  1
IMAGEDEF
  2
AcDbRasterImageDef
  3
ISM
 90
        0
280
               0
281
               0
  0
CLASS
  1
IMAGEDEF_REACTOR
  2
AcDbRasterImageDefReactor
  3
ISM
 90
        1
280
               0
281
               0
  0
CLASS
  1
IDBUFFER
  2
AcDbIdBuffer
  3
"Acad"
 90
        0
280
               0
281
               0
  0
CLASS
  1
SPATIAL_FILTER
  2
AcDbSpatialFilter
  3
"Acad"
 90
        0
280
               0
281
               0
  0
CLASS
  1
XRECORD
  2
AcDbXrecord
  3
"<Built In>"
 90
        0
280
               0
281
               0
  0
CLASS
  1
SORTENTSTABLE
  2
AcDbSortentsTable
  3
"AutoCAD"
 90
        0
280
               0
281
               0
  0
CLASS
  1
LAYER_INDEX
  2
AcDbLayerIndex
  3
"Acad"
 90
        0
280
               0
281
               0
  0
CLASS
  1
SPATIAL_INDEX
  2
AcDbSpatialIndex
  3
"Acad"
 90
        0
280
               0
281
               0
  0
CLASS
  1
OBJECT_PTR
  2
CAseDLPNTableRecord
  3
"ASE-LPNTableRecord"
 90
        1
280
               0
281
               0
  0
CLASS
  1
LAYOUT
  2
AcDbLayout
  3
"AutoCAD 2000"
 90
        1
280
               0
281
               0
  0
CLASS
  1
PLOTSETTINGS
  2
AcDbPlotSettings
  3
"AutoCAD 2000"
 90
        1
280
               0
281
               0
  0
CLASS
  1
ACDBDICTIONARYWDFLT
  2
AcDbDictionaryWithDefault
  3
"AutoCAD 2000"
 90
        1
280
               0
281
               0
  0
CLASS
  1
ACDBPLACEHOLDER
  2
AcDbPlaceHolder
  3
"AutoCAD 2000"
 90
        1
280
               0
281
               0
  0
ENDSEC
  0
SECTION
  2
TABLES
  0
TABLE
  2
VPORT
  5
7
100
AcDbSymbolTable
 70
               1
  0
VPORT
  5
15
100
AcDbSymbolTableRecord
100
AcDbViewportTableRecord
  2
*ACTIVE
 70
               0
 10
0.0
 20
0.0
 11
1.0
 21
1.0
 12
-2049.8999999999996
 22
1410.3999999999996
 13
0.0
 23
0.0
 14
1.0
 24
1.0
 15
0.0
 25
0.0
 16
0.0
 26
0.0
 36
1.0
 17
0.0
 27
0.0
 37
0.0
 40
1359.9999999999998
 41
0.688564
 42
50.0
 43
0.0
 44
0.0
 50
0.0
 51
0.0
 71
               0
 72
             100
 73
               1
 74
               1
 75
               0
 76
               0
 77
               0
 78
               0
  0
ENDTAB
  0
TABLE
  2
LTYPE
  5
4
100
AcDbSymbolTable
 70
              18
  0
LTYPE
  5
11
100
AcDbSymbolTableRecord
100
AcDbLinetypeTableRecord
  2
BYBLOCK
 70
              64
  3

 72
              65
 73
               0
 40
0.0
  0
LTYPE
  5
12
100
AcDbSymbolTableRecord
100
AcDbLinetypeTableRecord
  2
BYLAYER
 70
              64
  3

 72
              65
 73
               0
 40
0.0
  0
LTYPE
  5
13
100
AcDbSymbolTableRecord
100
AcDbLinetypeTableRecord
  2
CONTINUOUS
 70
              64
  3
Solid line
 72
              65
 73
               0
 40
0.0
  0
LTYPE
  5
39
100
AcDbSymbolTableRecord
100
AcDbLinetypeTableRecord
  2
STYLE_01
 70
               0
  3

 72
              65
 73
               2
 40
0.0833282470703125
 49
0.041656494140625
 74
               0
 49
-0.0416717529296875
 74
               0
  0
LTYPE
  5
3A
100
AcDbSymbolTableRecord
100
AcDbLinetypeTableRecord
  2
STYLE_02
 70
               0
  3

 72
              65
 73
               2
 40
0.138885498046875
 49
0.0972137451171875
 74
               0
 49
-0.0416717529296875
 74
               0
  0
LTYPE
  5
3B
100
AcDbSymbolTableRecord
100
AcDbLinetypeTableRecord
  2
STYLE_03
 70
               0
  3

 72
              65
 73
               2
 40
0.25
 49
0.2083282470703125
 74
               0
 49
-0.0416717529296875
 74
               0
  0
LTYPE
  5
3C
100
AcDbSymbolTableRecord
100
AcDbLinetypeTableRecord
  2
STYLE_04
 70
               0
  3

 72
              65
 73
               2
 40
0.3055419921875
 49
0.263885498046875
 74
               0
 49
-0.041656494140625
 74
               0
  0
LTYPE
  5
3D
100
AcDbSymbolTableRecord
100
AcDbLinetypeTableRecord
  2
STYLE_05
 70
               0
  3

 72
              65
 73
               2
 40
0.041656494140625
 49
0.013885498046875
 74
               0
 49
-0.02777099609375
 74
               0
  0
LTYPE
  5
3E
100
AcDbSymbolTableRecord
100
AcDbLinetypeTableRecord
  2
STYLE_06
 70
               0
  3

 72
              65
 73
               4
 40
0.65277099609375
 49
0.0555572509765625
 74
               0
 49
-0.0555572509765625
 74
               0
 49
0.486114501953125
 74
               0
 49
-0.0555419921875
 74
               0
  0
LTYPE
  5
3F
100
AcDbSymbolTableRecord
100
AcDbLinetypeTableRecord
  2
STYLE_07
 70
               0
  3

 72
              65
 73
               6
 40
0.375
 49
0.125
 74
               0
 49
-0.041656494140625
 74
               0
 49
0.125
 74
               0
 49
-0.0416717529296875
 74
               0
 49
0.013885498046875
 74
               0
 49
-0.0277862548828125
 74
               0
  0
LTYPE
  5
40
100
AcDbSymbolTableRecord
100
AcDbLinetypeTableRecord
  2
STYLE_08
 70
               0
  3

 72
              65
 73
               6
 40
0.25
 49
0.125
 74
               0
 49
-0.041656494140625
 74
               0
 49
0.013885498046875
 74
               0
 49
-0.0277862548828125
 74
               0
 49
0.013885498046875
 74
               0
 49
-0.0277862548828125
 74
               0
  0
LTYPE
  5
41
100
AcDbSymbolTableRecord
100
AcDbLinetypeTableRecord
  2
STYLE_09
 70
               0
  3

 72
              65
 73
               4
 40
1.0
 49
0.75
 74
               0
 49
-0.0555572509765625
 74
               0
 49
0.138885498046875
 74
               0
 49
-0.0555572509765625
 74
               0
  0
LTYPE
  5
42
100
AcDbSymbolTableRecord
100
AcDbLinetypeTableRecord
  2
STYLE_10
 70
               0
  3

 72
              65
 73
               6
 40
1.1875
 49
0.75
 74
               0
 49
-0.0555572509765625
 74
               0
 49
0.138885498046875
 74
               0
 49
-0.0555572509765625
 74
               0
 49
0.125
 74
               0
 49
-0.0625
 74
               0
  0
LTYPE
  5
43
100
AcDbSymbolTableRecord
100
AcDbLinetypeTableRecord
  2
STYLE_11
 70
               0
  3

 72
              65
 73
               4
 40
1.5
 49
0.0833282470703125
 74
               0
 49
-0.0555572509765625
 74
               0
 49
1.3055572509765625
 74
               0
 49
-0.0555572509765625
 74
               0
  0
LTYPE
  5
44
100
AcDbSymbolTableRecord
100
AcDbLinetypeTableRecord
  2
STYLE_12
 70
               0
  3

 72
              65
 73
               4
 40
1.111114501953125
 49
0.7916717529296875
 74
               0
 49
-0.0833282470703125
 74
               0
 49
0.125
 74
               0
 49
-0.111114501953125
 74
               0
  0
LTYPE
  5
45
100
AcDbSymbolTableRecord
100
AcDbLinetypeTableRecord
  2
STYLE_13
 70
               0
  3

 72
              65
 73
               4
 40
1.3194427490234375
 49
0.7916717529296875
 74
               0
 49
-0.1944427490234375
 74
               0
 49
0.125
 74
               0
 49
-0.2083282470703125
 74
               0
  0
LTYPE
  5
46
100
AcDbSymbolTableRecord
100
AcDbLinetypeTableRecord
  2
STYLE_14
 70
               0
  3

 72
              65
 73
               2
 40
0.078740157480315
 49
0.0393700787401575
 74
               0
 49
-0.0393700787401575
 74
               0
  0
LTYPE
  5
47
100
AcDbSymbolTableRecord
100
AcDbLinetypeTableRecord
  2
STYLE_15
 70
               0
  3

 72
              65
 73
               4
 40
0.5118110236220472
 49
0.3937007874015748
 74
               0
 49
-0.0393700787401575
 74
               0
 49
0.0393700787401575
 74
               0
 49
-0.0393700787401575
 74
               0
  0
ENDTAB
  0
TABLE
  2
LAYER
  5
2
100
AcDbSymbolTable
 70
               9
  0
LAYER
  5
14
100
AcDbSymbolTableRecord
100
AcDbLayerTableRecord
  2
0
 70
               0
 62
               7
  6
CONTINUOUS
  0
LAYER
  5
4F
100
AcDbSymbolTableRecord
100
AcDbLayerTableRecord
  2
DEFPOINTS
 70
               0
 62
               7
  6
CONTINUOUS
  0
LAYER
  5
50
100
AcDbSymbolTableRecord
100
AcDbLayerTableRecord
  2
OBJECT
 70
               0
 62
               7
  6
CONTINUOUS
  0
LAYER
  5
51
100
AcDbSymbolTableRecord
100
AcDbLayerTableRecord
  2
DIMENTION
 70
               0
 62
               7
  6
CONTINUOUS
  0
LAYER
  5
52
100
AcDbSymbolTableRecord
100
AcDbLayerTableRecord
  2
CENTER
 70
               0
 62
               7
  6
STYLE_15
  0
LAYER
  5
53
100
AcDbSymbolTableRecord
100
AcDbLayerTableRecord
  2
HIDDEN
 70
               0
 62
               7
  6
STYLE_14
  0
LAYER
  5
54
100
AcDbSymbolTableRecord
100
AcDbLayerTableRecord
  2
FRAME
 70
               0
 62
               7
  6
CONTINUOUS
  0
LAYER
  5
55
100
AcDbSymbolTableRecord
100
AcDbLayerTableRecord
  2
OUTLINE
 70
               0
 62
               7
  6
CONTINUOUS
  0
LAYER
  5
56
100
AcDbSymbolTableRecord
100
AcDbLayerTableRecord
  2
TEXT
 70
               0
 62
               7
  6
CONTINUOUS
  0
ENDTAB
  0
TABLE
  2
STYLE
  5
3
100
AcDbSymbolTable
 70
               3
  0
STYLE
  5
17
100
AcDbSymbolTableRecord
100
AcDbTextStyleTableRecord
  2
STANDARD
 70
               0
 40
0.0
 41
1.0
 50
0.0
 71
               0
 42
0.0
  3
txt
  4
BIGFONT.SHX
  0
STYLE
  5
37
100
AcDbSymbolTableRecord
100
AcDbTextStyleTableRecord
  2
ARIAL
 70
               0
 40
0.0
 41
1.0
 50
0.0
 71
               0
 42
0.0
  3
Arial
  4

1001
ACAD
1000
Arial
1071
        0
  0
STYLE
  5
38
100
AcDbSymbolTableRecord
100
AcDbTextStyleTableRecord
  2
________
 70
               0
 40
0.0
 41
1.0
 50
0.0
 71
               0
 42
0.0
  3
ＭＳ Ｐゴシック
  4

1001
ACAD
1000
ＭＳ Ｐゴシック
1071
        0
  0
ENDTAB
  0
TABLE
  2
VIEW
  5
5
100
AcDbSymbolTable
 70
               0
  0
ENDTAB
  0
TABLE
  2
UCS
  5
6
100
AcDbSymbolTable
 70
               0
  0
ENDTAB
  0
TABLE
  2
APPID
  5
8
100
AcDbSymbolTable
 70
               1
  0
APPID
  5
16
100
AcDbSymbolTableRecord
100
AcDbRegAppTableRecord
  2
ACAD
 70
               0
  0
ENDTAB
  0
TABLE
  2
DIMSTYLE
  5
9
100
AcDbSymbolTable
 70
               2
  0
DIMSTYLE
105
18
100
AcDbSymbolTableRecord
100
AcDbDimStyleTableRecord
  2
STANDARD
 70
               0
  3

  4

  5

  6

  7

 40
1.0
 41
0.18
 42
0.0625
 43
0.38
 44
0.18
 45
0.0
 46
0.0
 47
0.0
 48
0.0
 71
               0
 72
               0
 73
               1
 74
               1
 75
               0
 76
               0
 77
               0
 78
               0
140
0.18
141
0.09
142
0.0
143
25.399999999999999
144
1.0
145
0.0
146
1.0
147
0.09
170
               0
171
               2
172
               0
173
               0
174
               0
175
               0
176
               0
177
               0
178
               0
270
               2
271
               4
272
               4
273
               2
274
               2
275
               0
280
               0
281
               0
282
               0
283
               1
284
               0
285
               0
286
               0
287
               0
288
               0
340
17
  0
DIMSTYLE
105
4E
100
AcDbSymbolTableRecord
100
AcDbDimStyleTableRecord
  2
CAD
 70
               0
  3
<>
  4
[]
  5
VW_OPENARROW
  6

  7

 40
1.0
 41
15.875
 42
4.9999999999999991
 43
7.9999999999999991
 44
9.9999999999999982
 45
0.0
 46
0.0
 47
0.0
 48
0.0
 71
               0
 72
               0
 73
               0
 74
               0
 75
               0
 76
               0
 77
               1
 78
              11
140
16.933333333333334
141
0.0
142
0.0
143
1.0
144
1.0
145
0.0
146
0.7
147
0.099999999627471
170
               0
171
               1
172
               1
173
               0
174
               1
175
               0
176
               0
177
               0
178
               0
270
               2
271
               4
272
               4
273
               2
274
               2
275
               0
280
               0
281
               0
282
               0
283
               1
284
              11
285
              11
286
              11
287
               0
288
               0
340
38
  0
ENDTAB
  0
TABLE
  2
BLOCK_RECORD
  5
1
100
AcDbSymbolTable
 70
              27
  0
BLOCK_RECORD
  5
A
100
AcDbSymbolTableRecord
100
AcDbBlockTableRecord
  2
*MODEL_SPACE
  0
BLOCK_RECORD
  5
B
100
AcDbSymbolTableRecord
100
AcDbBlockTableRecord
  2
*PAPER_SPACE
  0
BLOCK_RECORD
  5
48
100
AcDbSymbolTableRecord
100
AcDbBlockTableRecord
  2
VW_OPENARROW
  0
BLOCK_RECORD
  5
1D
100
AcDbSymbolTableRecord
100
AcDbBlockTableRecord
  2
*U1
  0
BLOCK_RECORD
  5
1E
100
AcDbSymbolTableRecord
100
AcDbBlockTableRecord
  2
*D2
  0
BLOCK_RECORD
  5
1F
100
AcDbSymbolTableRecord
100
AcDbBlockTableRecord
  2
*D3
  0
BLOCK_RECORD
  5
20
100
AcDbSymbolTableRecord
100
AcDbBlockTableRecord
  2
*D4
  0
BLOCK_RECORD
  5
21
100
AcDbSymbolTableRecord
100
AcDbBlockTableRecord
  2
*D5
  0
BLOCK_RECORD
  5
22
100
AcDbSymbolTableRecord
100
AcDbBlockTableRecord
  2
*D6
  0
BLOCK_RECORD
  5
23
100
AcDbSymbolTableRecord
100
AcDbBlockTableRecord
  2
*D7
  0
BLOCK_RECORD
  5
24
100
AcDbSymbolTableRecord
100
AcDbBlockTableRecord
  2
*D8
  0
BLOCK_RECORD
  5
25
100
AcDbSymbolTableRecord
100
AcDbBlockTableRecord
  2
*D9
  0
BLOCK_RECORD
  5
26
100
AcDbSymbolTableRecord
100
AcDbBlockTableRecord
  2
*D10
  0
BLOCK_RECORD
  5
27
100
AcDbSymbolTableRecord
100
AcDbBlockTableRecord
  2
*D11
  0
BLOCK_RECORD
  5
28
100
AcDbSymbolTableRecord
100
AcDbBlockTableRecord
  2
*D12
  0
BLOCK_RECORD
  5
29
100
AcDbSymbolTableRecord
100
AcDbBlockTableRecord
  2
*D13
  0
BLOCK_RECORD
  5
2A
100
AcDbSymbolTableRecord
100
AcDbBlockTableRecord
  2
*U14
  0
BLOCK_RECORD
  5
2B
100
AcDbSymbolTableRecord
100
AcDbBlockTableRecord
  2
*U15
  0
BLOCK_RECORD
  5
2C
100
AcDbSymbolTableRecord
100
AcDbBlockTableRecord
  2
*U16
  0
BLOCK_RECORD
  5
2D
100
AcDbSymbolTableRecord
100
AcDbBlockTableRecord
  2
*U17
  0
BLOCK_RECORD
  5
2E
100
AcDbSymbolTableRecord
100
AcDbBlockTableRecord
  2
*U18
  0
BLOCK_RECORD
  5
2F
100
AcDbSymbolTableRecord
100
AcDbBlockTableRecord
  2
*U19
  0
BLOCK_RECORD
  5
30
100
AcDbSymbolTableRecord
100
AcDbBlockTableRecord
  2
*U20
  0
BLOCK_RECORD
  5
31
100
AcDbSymbolTableRecord
100
AcDbBlockTableRecord
  2
*U21
  0
BLOCK_RECORD
  5
32
100
AcDbSymbolTableRecord
100
AcDbBlockTableRecord
  2
*U22
  0
BLOCK_RECORD
  5
33
100
AcDbSymbolTableRecord
100
AcDbBlockTableRecord
  2
*U23
  0
BLOCK_RECORD
  5
34
100
AcDbSymbolTableRecord
100
AcDbBlockTableRecord
  2
*U24
  0
BLOCK_RECORD
  5
35
100
AcDbSymbolTableRecord
100
AcDbBlockTableRecord
  2
*U25
  0
BLOCK_RECORD
  5
36
100
AcDbSymbolTableRecord
100
AcDbBlockTableRecord
  2
*D26
  0
ENDTAB
  0
ENDSEC
  0
SECTION
  2
BLOCKS
  0
BLOCK
  5
D
100
AcDbEntity
  8
0
100
AcDbBlockBegin
  2
*MODEL_SPACE
 70
               0
 10
0.0
 20
0.0
 30
0.0
  3
*MODEL_SPACE
  1

  0
ENDBLK
  5
E
100
AcDbEntity
  8
0
100
AcDbBlockEnd
  0
BLOCK
  5
F
100
AcDbEntity
 67
               1
  8
0
100
AcDbBlockBegin
  2
*PAPER_SPACE
 70
               0
 10
0.0
 20
0.0
 30
0.0
  3
*PAPER_SPACE
  1

  0
ENDBLK
  5
10
100
AcDbEntity
 67
               1
  8
0
100
AcDbBlockEnd
  0
BLOCK
  5
49
100
AcDbEntity
  8
0
  6
BYBLOCK
 62
               0
100
AcDbBlockBegin
  2
VW_OPENARROW
 70
               0
 10
0.0
 20
0.0
 30
0.0
  3
VW_OPENARROW
  1

  0
LINE
  5
4A
100
AcDbEntity
  8
0
  6
BYBLOCK
 62
               0
100
AcDbLine
 10
0.0
 20
0.0
 30
0.0
 11
-1.0
 21
0.0
 31
0.0
  0
LINE
  5
4B
100
AcDbEntity
  8
0
  6
BYBLOCK
 62
               0
100
AcDbLine
 10
0.0
 20
0.0
 30
0.0
 11
-0.9999389648437499
 21
-0.2679328381102956
 31
0.0
  0
LINE
  5
4C
100
AcDbEntity
  8
0
  6
BYBLOCK
 62
               0
100
AcDbLine
 10
0.0
 20
0.0
 30
0.0
 11
-0.9999389648437499
 21
0.2679328381102958
 31
0.0
  0
ENDBLK
  5
4D
100
AcDbEntity
  8
0
100
AcDbBlockEnd
  0
BLOCK
  5
57
100
AcDbEntity
  8
OBJECT
100
AcDbBlockBegin
  2
*U1
 70
               1
 10
0.0
 20
0.0
 30
0.0
  3
*U1
  1

  0
LWPOLYLINE
  5
58
100
AcDbEntity
  8
OBJECT
 62
               0
100
AcDbPolyline
 90
        7
 70
             129
 10
-176.1500000000002
 20
-305.99999999999983
 42
-0.414213562373095
 10
-173.1500000000002
 20
-308.99999999999983
 10
-173.1500000000002
 20
-318.99999999999983
 42
-0.414213562373095
 10
-176.1500000000002
 20
-321.99999999999983
 42
-0.414213562373095
 10
-179.1500000000002
 20
-318.99999999999983
 10
-179.1500000000002
 20
-308.99999999999983
 42
-0.414213562373095
 10
-176.1500000000002
 20
-305.99999999999983
 42
-0.414213562373095
  0
POLYLINE
  5
59
100
AcDbEntity
  8
OBJECT
 62
               0
100
AcDb2dPolyline
 66
               1
 10
0.0
 20
0.0
 30
0.0
 70
               1
 75
               5
  0
VERTEX
  5
5A
100
AcDbEntity
  8
OBJECT
 62
               0
100
AcDbVertex
100
AcDb2dVertex
 10
-179.1500000000002
 20
-318.99999999999983
 30
0.0
  0
VERTEX
  5
5B
100
AcDbEntity
  8
OBJECT
 62
               0
100
AcDbVertex
100
AcDb2dVertex
 10
-179.1500000000002
 20
-308.99999999999983
 30
0.0
  0
VERTEX
  5
5C
100
AcDbEntity
  8
OBJECT
 62
               0
100
AcDbVertex
100
AcDb2dVertex
 10
-189.1500000000002
 20
-308.99999999999983
 30
0.0
  0
VERTEX
  5
5D
100
AcDbEntity
  8
OBJECT
 62
               0
100
AcDbVertex
100
AcDb2dVertex
 10
-189.1500000000002
 20
-304.99999999999983
 30
0.0
  0
VERTEX
  5
5E
100
AcDbEntity
  8
OBJECT
 62
               0
100
AcDbVertex
100
AcDb2dVertex
 10
-192.1500000000002
 20
-304.99999999999983
 30
0.0
  0
VERTEX
  5
5F
100
AcDbEntity
  8
OBJECT
 62
               0
100
AcDbVertex
100
AcDb2dVertex
 10
-192.1500000000002
 20
-322.99999999999983
 30
0.0
  0
VERTEX
  5
60
100
AcDbEntity
  8
OBJECT
 62
               0
100
AcDbVertex
100
AcDb2dVertex
 10
-189.1500000000002
 20
-322.99999999999983
 30
0.0
  0
VERTEX
  5
61
100
AcDbEntity
  8
OBJECT
 62
               0
100
AcDbVertex
100
AcDb2dVertex
 10
-189.1500000000002
 20
-318.99999999999983
 30
0.0
  0
SEQEND
  5
62
100
AcDbEntity
  8
OBJECT
 62
               0
  0
LINE
  5
63
100
AcDbEntity
  8
OBJECT
 62
               0
100
AcDbLine
 10
-189.1500000000002
 20
-308.99999999999983
 30
0.0
 11
-192.1500000000002
 21
-308.99999999999983
 31
0.0
  0
LINE
  5
64
100
AcDbEntity
  8
OBJECT
 62
               0
100
AcDbLine
 10
-189.1500000000002
 20
-318.99999999999983
 30
0.0
 11
-192.1500000000002
 21
-318.99999999999983
 31
0.0
  0
LINE
  5
65
100
AcDbEntity
  8
OBJECT
 62
               0
100
AcDbLine
 10
-186.6500000000002
 20
-308.99999999999983
 30
0.0
 11
-186.6500000000002
 21
-318.99999999999983
 31
0.0
  0
POLYLINE
  5
66
100
AcDbEntity
  8
OBJECT
 62
               0
100
AcDb2dPolyline
 66
               1
 10
0.0
 20
0.0
 30
0.0
 70
               1
 75
               5
  0
VERTEX
  5
67
100
AcDbEntity
  8
OBJECT
 62
               0
100
AcDbVertex
100
AcDb2dVertex
 10
-192.1500000000002
 20
-293.99999999999983
 30
0.0
  0
VERTEX
  5
68
100
AcDbEntity
  8
OBJECT
 62
               0
100
AcDbVertex
100
AcDb2dVertex
 10
-192.1500000000002
 20
-333.99999999999977
 30
0.0
  0
VERTEX
  5
69
100
AcDbEntity
  8
OBJECT
 62
               0
100
AcDbVertex
100
AcDb2dVertex
 10
-209.15000000000015
 20
-333.99999999999977
 30
0.0
  0
VERTEX
  5
6A
100
AcDbEntity
  8
OBJECT
 62
               0
100
AcDbVertex
100
AcDb2dVertex
 10
-209.15000000000015
 20
-293.99999999999983
 30
0.0
  0
SEQEND
  5
6B
100
AcDbEntity
  8
OBJECT
 62
               0
  0
LINE
  5
6C
100
AcDbEntity
  8
OBJECT
 62
               0
100
AcDbLine
 10
-200.6500000000002
 20
-293.99999999999983
 30
0.0
 11
-200.6500000000002
 21
-333.99999999999977
 31
0.0
  0
POLYLINE
  5
6D
100
AcDbEntity
  8
OBJECT
 62
               0
100
AcDb2dPolyline
 66
               1
 10
0.0
 20
0.0
 30
0.0
 70
               1
 75
               5
  0
VERTEX
  5
6E
100
AcDbEntity
  8
OBJECT
 62
               0
100
AcDbVertex
100
AcDb2dVertex
 10
-193.6500000000002
 20
-333.99999999999977
 30
0.0
  0
VERTEX
  5
6F
100
AcDbEntity
  8
OBJECT
 62
               0
100
AcDbVertex
100
AcDb2dVertex
 10
-193.6500000000002
 20
-363.99999999999977
 30
0.0
  0
VERTEX
  5
70
100
AcDbEntity
  8
OBJECT
 62
               0
100
AcDbVertex
100
AcDb2dVertex
 10
-207.65000000000015
 20
-363.99999999999977
 30
0.0
  0
VERTEX
  5
71
100
AcDbEntity
  8
OBJECT
 62
               0
100
AcDbVertex
100
AcDb2dVertex
 10
-207.65000000000015
 20
-333.99999999999977
 30
0.0
  0
SEQEND
  5
72
100
AcDbEntity
  8
OBJECT
 62
               0
  0
ENDBLK
  5
73
100
AcDbEntity
  8
OBJECT
100
AcDbBlockEnd
  0
BLOCK
  5
74
100
AcDbEntity
  8
DIMENTION
100
AcDbBlockBegin
  2
*D2
 70
               1
 10
0.0
 20
0.0
 30
0.0
  3
*D2
  1

  0
LINE
  5
75
100
AcDbEntity
  8
DIMENTION
 62
               0
100
AcDbLine
 10
-2605.0
 20
1430.0
 30
0.0
 11
-2750.0
 21
1430.0
 31
0.0
  0
LINE
  5
76
100
AcDbEntity
  8
DIMENTION
 62
               0
100
AcDbLine
 10
-2635.0
 20
950.0
 30
0.0
 11
-2750.0
 21
950.0
 31
0.0
  0
LINE
  5
77
100
AcDbEntity
  8
DIMENTION
 62
               0
100
AcDbLine
 10
-2740.0
 20
1430.0
 30
0.0
 11
-2740.0
 21
950.0
 31
0.0
  0
LINE
  5
78
100
AcDbEntity
  8
DIMENTION
 62
               0
100
AcDbLine
 10
-2740.0
 20
1430.0
 30
0.0
 11
-2735.7463065701559
 21
1414.125
 31
0.0
  0
LINE
  5
79
100
AcDbEntity
  8
DIMENTION
 62
               0
100
AcDbLine
 10
-2740.0
 20
1430.0
 30
0.0
 11
-2744.2536934298441
 21
1414.125
 31
0.0
  0
LINE
  5
7A
100
AcDbEntity
  8
DIMENTION
 62
               0
100
AcDbLine
 10
-2740.0
 20
950.0
 30
0.0
 11
-2744.2536934298441
 21
965.875
 31
0.0
  0
LINE
  5
7B
100
AcDbEntity
  8
DIMENTION
 62
               0
100
AcDbLine
 10
-2740.0
 20
950.0
 30
0.0
 11
-2735.7463065701559
 21
965.875
 31
0.0
  0
MTEXT
  5
7C
100
AcDbEntity
  8
DIMENTION
 62
               0
100
AcDbMText
 10
-2761.6666666648043
 20
1174.125
 30
0.0
 40
16.933333333333334
 41
0.0
 71
               1
 72
               1
  1
480
  7
________
 11
0.0
 21
1.0
 31
0.0
  0
POINT
  5
7D
100
AcDbEntity
  8
DEFPOINTS
 62
               0
100
AcDbPoint
 10
-2630.0
 20
950.0
 30
0.0
  0
POINT
  5
7E
100
AcDbEntity
  8
DEFPOINTS
 62
               0
100
AcDbPoint
 10
-2600.0
 20
1430.0
 30
0.0
  0
POINT
  5
7F
100
AcDbEntity
  8
DEFPOINTS
 62
               0
100
AcDbPoint
 10
-2740.0
 20
1430.0
 30
0.0
  0
ENDBLK
  5
80
100
AcDbEntity
  8
DIMENTION
100
AcDbBlockEnd
  0
BLOCK
  5
81
100
AcDbEntity
  8
DIMENTION
100
AcDbBlockBegin
  2
*D3
 70
               1
 10
0.0
 20
0.0
 30
0.0
  3
*D3
  1

  0
LINE
  5
82
100
AcDbEntity
  8
DIMENTION
 62
               0
100
AcDbLine
 10
-2630.0
 20
945.0
 30
0.0
 11
-2630.0
 21
890.0
 31
0.0
  0
LINE
  5
83
100
AcDbEntity
  8
DIMENTION
 62
               0
100
AcDbLine
 10
-2270.0
 20
945.0
 30
0.0
 11
-2270.0
 21
890.0
 31
0.0
  0
LINE
  5
84
100
AcDbEntity
  8
DIMENTION
 62
               0
100
AcDbLine
 10
-2630.0
 20
900.0
 30
0.0
 11
-2270.0
 21
900.0
 31
0.0
  0
LINE
  5
85
100
AcDbEntity
  8
DIMENTION
 62
               0
100
AcDbLine
 10
-2630.0
 20
900.0
 30
0.0
 11
-2614.125
 21
904.25369342984402
 31
0.0
  0
LINE
  5
86
100
AcDbEntity
  8
DIMENTION
 62
               0
100
AcDbLine
 10
-2630.0
 20
900.0
 30
0.0
 11
-2614.125
 21
895.74630657015598
 31
0.0
  0
LINE
  5
87
100
AcDbEntity
  8
DIMENTION
 62
               0
100
AcDbLine
 10
-2270.0
 20
900.0
 30
0.0
 11
-2285.875
 21
895.74630657015598
 31
0.0
  0
LINE
  5
88
100
AcDbEntity
  8
DIMENTION
 62
               0
100
AcDbLine
 10
-2270.0
 20
900.0
 30
0.0
 11
-2285.875
 21
904.25369342984413
 31
0.0
  0
MTEXT
  5
89
100
AcDbEntity
  8
DIMENTION
 62
               0
100
AcDbMText
 10
-2465.875
 20
921.66666666480398
 30
0.0
 40
16.933333333333334
 41
0.0
 71
               1
 72
               1
  1
360
  7
________
  0
POINT
  5
8A
100
AcDbEntity
  8
DEFPOINTS
 62
               0
100
AcDbPoint
 10
-2270.0
 20
950.0
 30
0.0
  0
POINT
  5
8B
100
AcDbEntity
  8
DEFPOINTS
 62
               0
100
AcDbPoint
 10
-2630.0
 20
950.0
 30
0.0
  0
POINT
  5
8C
100
AcDbEntity
  8
DEFPOINTS
 62
               0
100
AcDbPoint
 10
-2630.0
 20
900.0
 30
0.0
  0
ENDBLK
  5
8D
100
AcDbEntity
  8
DIMENTION
100
AcDbBlockEnd
  0
BLOCK
  5
8E
100
AcDbEntity
  8
DIMENTION
100
AcDbBlockBegin
  2
*D4
 70
               1
 10
0.0
 20
0.0
 30
0.0
  3
*D4
  1

  0
LINE
  5
8F
100
AcDbEntity
  8
DIMENTION
 62
               0
100
AcDbLine
 10
-2635.0
 20
1395.0
 30
0.0
 11
-2710.0
 21
1395.0
 31
0.0
  0
LINE
  5
90
100
AcDbEntity
  8
DIMENTION
 62
               0
100
AcDbLine
 10
-2635.0
 20
950.0
 30
0.0
 11
-2710.0
 21
950.0
 31
0.0
  0
LINE
  5
91
100
AcDbEntity
  8
DIMENTION
 62
               0
100
AcDbLine
 10
-2700.0
 20
1395.0
 30
0.0
 11
-2700.0
 21
950.0
 31
0.0
  0
LINE
  5
92
100
AcDbEntity
  8
DIMENTION
 62
               0
100
AcDbLine
 10
-2700.0
 20
1395.0
 30
0.0
 11
-2695.7463065701559
 21
1379.125
 31
0.0
  0
LINE
  5
93
100
AcDbEntity
  8
DIMENTION
 62
               0
100
AcDbLine
 10
-2700.0
 20
1395.0
 30
0.0
 11
-2704.2536934298441
 21
1379.125
 31
0.0
  0
LINE
  5
94
100
AcDbEntity
  8
DIMENTION
 62
               0
100
AcDbLine
 10
-2700.0
 20
950.0
 30
0.0
 11
-2704.2536934298441
 21
965.875
 31
0.0
  0
LINE
  5
95
100
AcDbEntity
  8
DIMENTION
 62
               0
100
AcDbLine
 10
-2700.0
 20
950.0
 30
0.0
 11
-2695.7463065701559
 21
965.875
 31
0.0
  0
MTEXT
  5
96
100
AcDbEntity
  8
DIMENTION
 62
               0
100
AcDbMText
 10
-2721.6666666648043
 20
1156.625
 30
0.0
 40
16.933333333333334
 41
0.0
 71
               1
 72
               1
  1
445
  7
________
 11
0.0
 21
1.0
 31
0.0
  0
POINT
  5
97
100
AcDbEntity
  8
DEFPOINTS
 62
               0
100
AcDbPoint
 10
-2630.0
 20
950.0
 30
0.0
  0
POINT
  5
98
100
AcDbEntity
  8
DEFPOINTS
 62
               0
100
AcDbPoint
 10
-2630.0
 20
1395.0
 30
0.0
  0
POINT
  5
99
100
AcDbEntity
  8
DEFPOINTS
 62
               0
100
AcDbPoint
 10
-2700.0
 20
1395.0
 30
0.0
  0
ENDBLK
  5
9A
100
AcDbEntity
  8
DIMENTION
100
AcDbBlockEnd
  0
BLOCK
  5
9B
100
AcDbEntity
  8
DIMENTION
100
AcDbBlockBegin
  2
*D5
 70
               1
 10
0.0
 20
0.0
 30
0.0
  3
*D5
  1

  0
LINE
  5
9C
100
AcDbEntity
  8
DIMENTION
 62
               0
100
AcDbLine
 10
-1449.0
 20
950.0
 30
0.0
 11
-1340.0000000186265
 21
950.0
 31
0.0
  0
LINE
  5
9D
100
AcDbEntity
  8
DIMENTION
 62
               0
100
AcDbLine
 10
-1478.0
 20
1070.0
 30
0.0
 11
-1340.0000000186265
 21
1070.0
 31
0.0
  0
LINE
  5
9E
100
AcDbEntity
  8
DIMENTION
 62
               0
100
AcDbLine
 10
-1350.0000000186265
 20
950.0
 30
0.0
 11
-1350.0000000186265
 21
1070.0
 31
0.0
  0
LINE
  5
9F
100
AcDbEntity
  8
DIMENTION
 62
               0
100
AcDbLine
 10
-1350.0000000186265
 20
950.0
 30
0.0
 11
-1354.2536934484704
 21
965.875
 31
0.0
  0
LINE
  5
A0
100
AcDbEntity
  8
DIMENTION
 62
               0
100
AcDbLine
 10
-1350.0000000186265
 20
950.0
 30
0.0
 11
-1345.7463065887823
 21
965.875
 31
0.0
  0
LINE
  5
A1
100
AcDbEntity
  8
DIMENTION
 62
               0
100
AcDbLine
 10
-1350.0000000186265
 20
1070.0
 30
0.0
 11
-1345.7463065887823
 21
1054.125
 31
0.0
  0
LINE
  5
A2
100
AcDbEntity
  8
DIMENTION
 62
               0
100
AcDbLine
 10
-1350.0000000186265
 20
1070.0
 30
0.0
 11
-1354.2536934484704
 21
1054.125
 31
0.0
  0
MTEXT
  5
A3
100
AcDbEntity
  8
DIMENTION
 62
               0
100
AcDbMText
 10
-1371.6666666834303
 20
994.125
 30
0.0
 40
16.933333333333334
 41
0.0
 71
               1
 72
               1
  1
120
  7
________
 11
0.0
 21
1.0
 31
0.0
  0
POINT
  5
A4
100
AcDbEntity
  8
DEFPOINTS
 62
               0
100
AcDbPoint
 10
-1483.0
 20
1070.0
 30
0.0
  0
POINT
  5
A5
100
AcDbEntity
  8
DEFPOINTS
 62
               0
100
AcDbPoint
 10
-1454.0
 20
950.0
 30
0.0
  0
POINT
  5
A6
100
AcDbEntity
  8
DEFPOINTS
 62
               0
100
AcDbPoint
 10
-1350.0000000186265
 20
950.0
 30
0.0
  0
ENDBLK
  5
A7
100
AcDbEntity
  8
DIMENTION
100
AcDbBlockEnd
  0
BLOCK
  5
A8
100
AcDbEntity
  8
DIMENTION
100
AcDbBlockBegin
  2
*D6
 70
               1
 10
0.0
 20
0.0
 30
0.0
  3
*D6
  1

  0
LINE
  5
A9
100
AcDbEntity
  8
DIMENTION
 62
               0
100
AcDbLine
 10
-1855.0
 20
950.0
 30
0.0
 11
-1910.0
 21
950.0
 31
0.0
  0
LINE
  5
AA
100
AcDbEntity
  8
DIMENTION
 62
               0
100
AcDbLine
 10
-1855.0
 20
980.0
 30
0.0
 11
-1910.0
 21
980.0
 31
0.0
  0
LINE
  5
AB
100
AcDbEntity
  8
DIMENTION
 62
               0
100
AcDbLine
 10
-1900.0
 20
980.0
 30
0.0
 11
-1900.0
 21
950.0
 31
0.0
  0
LINE
  5
AC
100
AcDbEntity
  8
DIMENTION
 62
               0
100
AcDbLine
 10
-1900.0
 20
950.0
 30
0.0
 11
-1900.0
 21
925.0
 31
0.0
  0
LINE
  5
AD
100
AcDbEntity
  8
DIMENTION
 62
               0
100
AcDbLine
 10
-1900.0
 20
950.0
 30
0.0
 11
-1895.7463065701559
 21
934.125
 31
0.0
  0
LINE
  5
AE
100
AcDbEntity
  8
DIMENTION
 62
               0
100
AcDbLine
 10
-1900.0
 20
950.0
 30
0.0
 11
-1904.2536934298441
 21
934.125
 31
0.0
  0
LINE
  5
AF
100
AcDbEntity
  8
DIMENTION
 62
               0
100
AcDbLine
 10
-1900.0
 20
980.0
 30
0.0
 11
-1900.0
 21
1005.0
 31
0.0
  0
LINE
  5
B0
100
AcDbEntity
  8
DIMENTION
 62
               0
100
AcDbLine
 10
-1900.0
 20
980.0
 30
0.0
 11
-1904.2536934298441
 21
995.875
 31
0.0
  0
LINE
  5
B1
100
AcDbEntity
  8
DIMENTION
 62
               0
100
AcDbLine
 10
-1900.0
 20
980.0
 30
0.0
 11
-1895.7463065701559
 21
995.875
 31
0.0
  0
MTEXT
  5
B2
100
AcDbEntity
  8
DIMENTION
 62
               0
100
AcDbMText
 10
-1921.6666666648041
 20
954.41666666666674
 30
0.0
 40
16.933333333333334
 41
0.0
 71
               1
 72
               1
  1
30
  7
________
 11
0.0
 21
1.0
 31
0.0
  0
POINT
  5
B3
100
AcDbEntity
  8
DEFPOINTS
 62
               0
100
AcDbPoint
 10
-1850.0
 20
980.0
 30
0.0
  0
POINT
  5
B4
100
AcDbEntity
  8
DEFPOINTS
 62
               0
100
AcDbPoint
 10
-1850.0
 20
950.0
 30
0.0
  0
POINT
  5
B5
100
AcDbEntity
  8
DEFPOINTS
 62
               0
100
AcDbPoint
 10
-1900.0
 20
950.0
 30
0.0
  0
ENDBLK
  5
B6
100
AcDbEntity
  8
DIMENTION
100
AcDbBlockEnd
  0
BLOCK
  5
B7
100
AcDbEntity
  8
DIMENTION
100
AcDbBlockBegin
  2
*D7
 70
               1
 10
0.0
 20
0.0
 30
0.0
  3
*D7
  1

  0
LINE
  5
B8
100
AcDbEntity
  8
DIMENTION
 62
               0
100
AcDbLine
 10
-1855.0
 20
980.0
 30
0.0
 11
-1910.0
 21
980.0
 31
0.0
  0
LINE
  5
B9
100
AcDbEntity
  8
DIMENTION
 62
               0
100
AcDbLine
 10
-1762.0
 20
1090.0
 30
0.0
 11
-1910.0
 21
1090.0
 31
0.0
  0
LINE
  5
BA
100
AcDbEntity
  8
DIMENTION
 62
               0
100
AcDbLine
 10
-1900.0
 20
980.0
 30
0.0
 11
-1900.0
 21
1090.0
 31
0.0
  0
LINE
  5
BB
100
AcDbEntity
  8
DIMENTION
 62
               0
100
AcDbLine
 10
-1900.0
 20
980.0
 30
0.0
 11
-1904.2536934298441
 21
995.875
 31
0.0
  0
LINE
  5
BC
100
AcDbEntity
  8
DIMENTION
 62
               0
100
AcDbLine
 10
-1900.0
 20
980.0
 30
0.0
 11
-1895.7463065701559
 21
995.875
 31
0.0
  0
LINE
  5
BD
100
AcDbEntity
  8
DIMENTION
 62
               0
100
AcDbLine
 10
-1900.0
 20
1090.0
 30
0.0
 11
-1895.7463065701559
 21
1074.125
 31
0.0
  0
LINE
  5
BE
100
AcDbEntity
  8
DIMENTION
 62
               0
100
AcDbLine
 10
-1900.0
 20
1090.0
 30
0.0
 11
-1904.2536934298441
 21
1074.125
 31
0.0
  0
MTEXT
  5
BF
100
AcDbEntity
  8
DIMENTION
 62
               0
100
AcDbMText
 10
-1921.6666666648041
 20
1019.125
 30
0.0
 40
16.933333333333334
 41
0.0
 71
               1
 72
               1
  1
110
  7
________
 11
0.0
 21
1.0
 31
0.0
  0
POINT
  5
C0
100
AcDbEntity
  8
DEFPOINTS
 62
               0
100
AcDbPoint
 10
-1757.0
 20
1090.0
 30
0.0
  0
POINT
  5
C1
100
AcDbEntity
  8
DEFPOINTS
 62
               0
100
AcDbPoint
 10
-1850.0
 20
980.0
 30
0.0
  0
POINT
  5
C2
100
AcDbEntity
  8
DEFPOINTS
 62
               0
100
AcDbPoint
 10
-1900.0
 20
980.0
 30
0.0
  0
ENDBLK
  5
C3
100
AcDbEntity
  8
DIMENTION
100
AcDbBlockEnd
  0
BLOCK
  5
C4
100
AcDbEntity
  8
DIMENTION
100
AcDbBlockBegin
  2
*D8
 70
               1
 10
0.0
 20
0.0
 30
0.0
  3
*D8
  1

  0
LINE
  5
C5
100
AcDbEntity
  8
DIMENTION
 62
               0
100
AcDbLine
 10
-1762.0
 20
1090.0
 30
0.0
 11
-1910.0
 21
1090.0
 31
0.0
  0
LINE
  5
C6
100
AcDbEntity
  8
DIMENTION
 62
               0
100
AcDbLine
 10
-1820.0
 20
1190.0
 30
0.0
 11
-1910.0
 21
1190.0
 31
0.0
  0
LINE
  5
C7
100
AcDbEntity
  8
DIMENTION
 62
               0
100
AcDbLine
 10
-1900.0
 20
1090.0
 30
0.0
 11
-1900.0
 21
1190.0
 31
0.0
  0
LINE
  5
C8
100
AcDbEntity
  8
DIMENTION
 62
               0
100
AcDbLine
 10
-1900.0
 20
1090.0
 30
0.0
 11
-1904.2536934298441
 21
1105.875
 31
0.0
  0
LINE
  5
C9
100
AcDbEntity
  8
DIMENTION
 62
               0
100
AcDbLine
 10
-1900.0
 20
1090.0
 30
0.0
 11
-1895.7463065701559
 21
1105.875
 31
0.0
  0
LINE
  5
CA
100
AcDbEntity
  8
DIMENTION
 62
               0
100
AcDbLine
 10
-1900.0
 20
1190.0
 30
0.0
 11
-1895.7463065701559
 21
1174.125
 31
0.0
  0
LINE
  5
CB
100
AcDbEntity
  8
DIMENTION
 62
               0
100
AcDbLine
 10
-1900.0
 20
1190.0
 30
0.0
 11
-1904.2536934298441
 21
1174.125
 31
0.0
  0
MTEXT
  5
CC
100
AcDbEntity
  8
DIMENTION
 62
               0
100
AcDbMText
 10
-1921.6666666648041
 20
1124.125
 30
0.0
 40
16.933333333333334
 41
0.0
 71
               1
 72
               1
  1
100
  7
________
 11
0.0
 21
1.0
 31
0.0
  0
POINT
  5
CD
100
AcDbEntity
  8
DEFPOINTS
 62
               0
100
AcDbPoint
 10
-1815.0
 20
1190.0
 30
0.0
  0
POINT
  5
CE
100
AcDbEntity
  8
DEFPOINTS
 62
               0
100
AcDbPoint
 10
-1757.0
 20
1090.0
 30
0.0
  0
POINT
  5
CF
100
AcDbEntity
  8
DEFPOINTS
 62
               0
100
AcDbPoint
 10
-1900.0
 20
1090.0
 30
0.0
  0
ENDBLK
  5
D0
100
AcDbEntity
  8
DIMENTION
100
AcDbBlockEnd
  0
BLOCK
  5
D1
100
AcDbEntity
  8
DIMENTION
100
AcDbBlockBegin
  2
*D9
 70
               1
 10
0.0
 20
0.0
 30
0.0
  3
*D9
  1

  0
LINE
  5
D2
100
AcDbEntity
  8
DIMENTION
 62
               0
100
AcDbLine
 10
-1820.0
 20
1190.0
 30
0.0
 11
-1910.0
 21
1190.0
 31
0.0
  0
LINE
  5
D3
100
AcDbEntity
  8
DIMENTION
 62
               0
100
AcDbLine
 10
-1820.0
 20
1395.0
 30
0.0
 11
-1910.0
 21
1395.0
 31
0.0
  0
LINE
  5
D4
100
AcDbEntity
  8
DIMENTION
 62
               0
100
AcDbLine
 10
-1900.0
 20
1190.0
 30
0.0
 11
-1900.0
 21
1395.0
 31
0.0
  0
LINE
  5
D5
100
AcDbEntity
  8
DIMENTION
 62
               0
100
AcDbLine
 10
-1900.0
 20
1190.0
 30
0.0
 11
-1904.2536934298441
 21
1205.875
 31
0.0
  0
LINE
  5
D6
100
AcDbEntity
  8
DIMENTION
 62
               0
100
AcDbLine
 10
-1900.0
 20
1190.0
 30
0.0
 11
-1895.7463065701559
 21
1205.875
 31
0.0
  0
LINE
  5
D7
100
AcDbEntity
  8
DIMENTION
 62
               0
100
AcDbLine
 10
-1900.0
 20
1395.0
 30
0.0
 11
-1895.7463065701559
 21
1379.125
 31
0.0
  0
LINE
  5
D8
100
AcDbEntity
  8
DIMENTION
 62
               0
100
AcDbLine
 10
-1900.0
 20
1395.0
 30
0.0
 11
-1904.2536934298441
 21
1379.125
 31
0.0
  0
MTEXT
  5
D9
100
AcDbEntity
  8
DIMENTION
 62
               0
100
AcDbMText
 10
-1921.6666666648041
 20
1276.625
 30
0.0
 40
16.933333333333334
 41
0.0
 71
               1
 72
               1
  1
205
  7
________
 11
0.0
 21
1.0
 31
0.0
  0
POINT
  5
DA
100
AcDbEntity
  8
DEFPOINTS
 62
               0
100
AcDbPoint
 10
-1815.0
 20
1395.0
 30
0.0
  0
POINT
  5
DB
100
AcDbEntity
  8
DEFPOINTS
 62
               0
100
AcDbPoint
 10
-1815.0
 20
1190.0
 30
0.0
  0
POINT
  5
DC
100
AcDbEntity
  8
DEFPOINTS
 62
               0
100
AcDbPoint
 10
-1900.0
 20
1190.0
 30
0.0
  0
ENDBLK
  5
DD
100
AcDbEntity
  8
DIMENTION
100
AcDbBlockEnd
  0
BLOCK
  5
DE
100
AcDbEntity
  8
DIMENTION
100
AcDbBlockBegin
  2
*D10
 70
               1
 10
0.0
 20
0.0
 30
0.0
  3
*D10
  1

  0
LINE
  5
DF
100
AcDbEntity
  8
DIMENTION
 62
               0
100
AcDbLine
 10
-1455.0
 20
1400.0
 30
0.0
 11
-1455.0
 21
1510.0
 31
0.0
  0
LINE
  5
E0
100
AcDbEntity
  8
DIMENTION
 62
               0
100
AcDbLine
 10
-1815.0
 20
1400.0
 30
0.0
 11
-1815.0
 21
1510.0
 31
0.0
  0
LINE
  5
E1
100
AcDbEntity
  8
DIMENTION
 62
               0
100
AcDbLine
 10
-1455.0
 20
1500.0
 30
0.0
 11
-1815.0
 21
1500.0
 31
0.0
  0
LINE
  5
E2
100
AcDbEntity
  8
DIMENTION
 62
               0
100
AcDbLine
 10
-1455.0
 20
1500.0
 30
0.0
 11
-1470.875
 21
1495.7463065701559
 31
0.0
  0
LINE
  5
E3
100
AcDbEntity
  8
DIMENTION
 62
               0
100
AcDbLine
 10
-1455.0
 20
1500.0
 30
0.0
 11
-1470.875
 21
1504.2536934298441
 31
0.0
  0
LINE
  5
E4
100
AcDbEntity
  8
DIMENTION
 62
               0
100
AcDbLine
 10
-1815.0
 20
1500.0
 30
0.0
 11
-1799.125
 21
1504.2536934298441
 31
0.0
  0
LINE
  5
E5
100
AcDbEntity
  8
DIMENTION
 62
               0
100
AcDbLine
 10
-1815.0
 20
1500.0
 30
0.0
 11
-1799.125
 21
1495.7463065701559
 31
0.0
  0
MTEXT
  5
E6
100
AcDbEntity
  8
DIMENTION
 62
               0
100
AcDbMText
 10
-1650.875
 20
1521.6666666648041
 30
0.0
 40
16.933333333333334
 41
0.0
 71
               1
 72
               1
  1
360
  7
________
  0
POINT
  5
E7
100
AcDbEntity
  8
DEFPOINTS
 62
               0
100
AcDbPoint
 10
-1815.0
 20
1395.0
 30
0.0
  0
POINT
  5
E8
100
AcDbEntity
  8
DEFPOINTS
 62
               0
100
AcDbPoint
 10
-1455.0
 20
1395.0
 30
0.0
  0
POINT
  5
E9
100
AcDbEntity
  8
DEFPOINTS
 62
               0
100
AcDbPoint
 10
-1455.0
 20
1500.0
 30
0.0
  0
ENDBLK
  5
EA
100
AcDbEntity
  8
DIMENTION
100
AcDbBlockEnd
  0
BLOCK
  5
EB
100
AcDbEntity
  8
DIMENTION
100
AcDbBlockBegin
  2
*D11
 70
               1
 10
0.0
 20
0.0
 30
0.0
  3
*D11
  1

  0
LINE
  5
EC
100
AcDbEntity
  8
DIMENTION
 62
               0
100
AcDbLine
 10
-1455.0
 20
945.0
 30
0.0
 11
-1455.0
 21
865.0
 31
0.0
  0
LINE
  5
ED
100
AcDbEntity
  8
DIMENTION
 62
               0
100
AcDbLine
 10
-1850.0
 20
945.0
 30
0.0
 11
-1850.0
 21
865.0
 31
0.0
  0
LINE
  5
EE
100
AcDbEntity
  8
DIMENTION
 62
               0
100
AcDbLine
 10
-1455.0
 20
875.0
 30
0.0
 11
-1850.0
 21
875.0
 31
0.0
  0
LINE
  5
EF
100
AcDbEntity
  8
DIMENTION
 62
               0
100
AcDbLine
 10
-1455.0
 20
875.0
 30
0.0
 11
-1470.875
 21
870.74630657015598
 31
0.0
  0
LINE
  5
F0
100
AcDbEntity
  8
DIMENTION
 62
               0
100
AcDbLine
 10
-1455.0
 20
875.0
 30
0.0
 11
-1470.875
 21
879.25369342984413
 31
0.0
  0
LINE
  5
F1
100
AcDbEntity
  8
DIMENTION
 62
               0
100
AcDbLine
 10
-1850.0
 20
875.0
 30
0.0
 11
-1834.125
 21
879.25369342984402
 31
0.0
  0
LINE
  5
F2
100
AcDbEntity
  8
DIMENTION
 62
               0
100
AcDbLine
 10
-1850.0
 20
875.0
 30
0.0
 11
-1834.125
 21
870.74630657015598
 31
0.0
  0
MTEXT
  5
F3
100
AcDbEntity
  8
DIMENTION
 62
               0
100
AcDbMText
 10
-1668.1459655761719
 20
896.66666666480398
 30
0.0
 40
16.933333333333334
 41
0.0
 71
               1
 72
               1
  1
395
  7
________
  0
POINT
  5
F4
100
AcDbEntity
  8
DEFPOINTS
 62
               0
100
AcDbPoint
 10
-1850.0
 20
950.0
 30
0.0
  0
POINT
  5
F5
100
AcDbEntity
  8
DEFPOINTS
 62
               0
100
AcDbPoint
 10
-1455.0
 20
950.0
 30
0.0
  0
POINT
  5
F6
100
AcDbEntity
  8
DEFPOINTS
 62
               0
100
AcDbPoint
 10
-1455.0
 20
875.0
 30
0.0
  0
ENDBLK
  5
F7
100
AcDbEntity
  8
DIMENTION
100
AcDbBlockEnd
  0
BLOCK
  5
F8
100
AcDbEntity
  8
DIMENTION
100
AcDbBlockBegin
  2
*D12
 70
               1
 10
0.0
 20
0.0
 30
0.0
  3
*D12
  1

  0
LINE
  5
F9
100
AcDbEntity
  8
DIMENTION
 62
               0
100
AcDbLine
 10
-2250.25
 20
1061.0
 30
0.0
 11
-2250.25
 21
890.0
 31
0.0
  0
LINE
  5
FA
100
AcDbEntity
  8
DIMENTION
 62
               0
100
AcDbLine
 10
-2270.0
 20
945.0
 30
0.0
 11
-2270.0
 21
890.0
 31
0.0
  0
LINE
  5
FB
100
AcDbEntity
  8
DIMENTION
 62
               0
100
AcDbLine
 10
-2270.0
 20
900.0
 30
0.0
 11
-2250.25
 21
900.0
 31
0.0
  0
LINE
  5
FC
100
AcDbEntity
  8
DIMENTION
 62
               0
100
AcDbLine
 10
-2250.25
 20
900.0
 30
0.0
 11
-2208.8333333333335
 21
900.0
 31
0.0
  0
LINE
  5
FD
100
AcDbEntity
  8
DIMENTION
 62
               0
100
AcDbLine
 10
-2250.25
 20
900.0
 30
0.0
 11
-2234.375
 21
904.25369342984402
 31
0.0
  0
LINE
  5
FE
100
AcDbEntity
  8
DIMENTION
 62
               0
100
AcDbLine
 10
-2250.25
 20
900.0
 30
0.0
 11
-2234.375
 21
895.74630657015598
 31
0.0
  0
LINE
  5
FF
100
AcDbEntity
  8
DIMENTION
 62
               0
100
AcDbLine
 10
-2270.0
 20
900.0
 30
0.0
 11
-2295.0
 21
900.0
 31
0.0
  0
LINE
  5
100
100
AcDbEntity
  8
DIMENTION
 62
               0
100
AcDbLine
 10
-2270.0
 20
900.0
 30
0.0
 11
-2285.875
 21
895.74630657015598
 31
0.0
  0
LINE
  5
101
100
AcDbEntity
  8
DIMENTION
 62
               0
100
AcDbLine
 10
-2270.0
 20
900.0
 30
0.0
 11
-2285.875
 21
904.25369342984413
 31
0.0
  0
MTEXT
  5
102
100
AcDbEntity
  8
DIMENTION
 62
               0
100
AcDbMText
 10
-2230.0
 20
921.66666666480398
 30
0.0
 40
16.933333333333334
 41
0.0
 71
               1
 72
               1
  1
20
  7
________
  0
POINT
  5
103
100
AcDbEntity
  8
DEFPOINTS
 62
               0
100
AcDbPoint
 10
-2270.0
 20
950.0
 30
0.0
  0
POINT
  5
104
100
AcDbEntity
  8
DEFPOINTS
 62
               0
100
AcDbPoint
 10
-2250.25
 20
1066.0
 30
0.0
  0
POINT
  5
105
100
AcDbEntity
  8
DEFPOINTS
 62
               0
100
AcDbPoint
 10
-2250.25
 20
900.0
 30
0.0
  0
ENDBLK
  5
106
100
AcDbEntity
  8
DIMENTION
100
AcDbBlockEnd
  0
BLOCK
  5
107
100
AcDbEntity
  8
DIMENTION
100
AcDbBlockBegin
  2
*D13
 70
               1
 10
0.0
 20
0.0
 30
0.0
  3
*D13
  1

  0
LINE
  5
108
100
AcDbEntity
  8
DIMENTION
 62
               0
100
AcDbLine
 10
-1455.0
 20
945.0
 30
0.0
 11
-1455.0
 21
905.0
 31
0.0
  0
LINE
  5
109
100
AcDbEntity
  8
DIMENTION
 62
               0
100
AcDbLine
 10
-1490.0
 20
1065.0
 30
0.0
 11
-1490.0
 21
905.0
 31
0.0
  0
LINE
  5
10A
100
AcDbEntity
  8
DIMENTION
 62
               0
100
AcDbLine
 10
-1455.0
 20
915.0
 30
0.0
 11
-1490.0
 21
915.0
 31
0.0
  0
LINE
  5
10B
100
AcDbEntity
  8
DIMENTION
 62
               0
100
AcDbLine
 10
-1455.0
 20
915.0
 30
0.0
 11
-1470.875
 21
910.74630657015598
 31
0.0
  0
LINE
  5
10C
100
AcDbEntity
  8
DIMENTION
 62
               0
100
AcDbLine
 10
-1455.0
 20
915.0
 30
0.0
 11
-1470.875
 21
919.25369342984413
 31
0.0
  0
LINE
  5
10D
100
AcDbEntity
  8
DIMENTION
 62
               0
100
AcDbLine
 10
-1490.0
 20
915.0
 30
0.0
 11
-1474.125
 21
919.25369342984402
 31
0.0
  0
LINE
  5
10E
100
AcDbEntity
  8
DIMENTION
 62
               0
100
AcDbLine
 10
-1490.0
 20
915.0
 30
0.0
 11
-1474.125
 21
910.74630657015598
 31
0.0
  0
MTEXT
  5
10F
100
AcDbEntity
  8
DIMENTION
 62
               0
100
AcDbMText
 10
-1483.0833333333333
 20
936.6666666648041
 30
0.0
 40
16.933333333333334
 41
0.0
 71
               1
 72
               1
  1
35
  7
________
  0
POINT
  5
110
100
AcDbEntity
  8
DEFPOINTS
 62
               0
100
AcDbPoint
 10
-1490.0
 20
1070.0
 30
0.0
  0
POINT
  5
111
100
AcDbEntity
  8
DEFPOINTS
 62
               0
100
AcDbPoint
 10
-1455.0
 20
950.0
 30
0.0
  0
POINT
  5
112
100
AcDbEntity
  8
DEFPOINTS
 62
               0
100
AcDbPoint
 10
-1455.0
 20
915.0
 30
0.0
  0
ENDBLK
  5
113
100
AcDbEntity
  8
DIMENTION
100
AcDbBlockEnd
  0
BLOCK
  5
114
100
AcDbEntity
  8
CENTER
100
AcDbBlockBegin
  2
*U14
 70
               1
 10
0.0
 20
0.0
 30
0.0
  3
*U14
  1

  0
LINE
  5
115
100
AcDbEntity
  8
CENTER
 62
               0
100
AcDbLine
 10
-403.17777772811655
 20
341.00000000000017
 30
0.0
 11
-397.62222227188386
 21
341.00000000000017
 31
0.0
  0
LINE
  5
116
100
AcDbEntity
  8
CENTER
 62
               0
100
AcDbLine
 10
-400.4000000000002
 20
338.22222227188388
 30
0.0
 11
-400.4000000000002
 21
343.77777772811646
 31
0.0
  0
LINE
  5
117
100
AcDbEntity
  8
CENTER
 62
               0
100
AcDbLine
 10
-600.4000000000002
 20
341.00000000000017
 30
0.0
 11
-408.73333318434902
 21
341.00000000000017
 31
0.0
  0
LINE
  5
118
100
AcDbEntity
  8
CENTER
 62
               0
100
AcDbLine
 10
-392.06666681565139
 20
341.00000000000017
 30
0.0
 11
-200.4000000000002
 21
341.00000000000017
 31
0.0
  0
LINE
  5
119
100
AcDbEntity
  8
CENTER
 62
               0
100
AcDbLine
 10
-400.4000000000002
 20
541.00000000000023
 30
0.0
 11
-400.4000000000002
 21
349.33333318434899
 31
0.0
  0
LINE
  5
11A
100
AcDbEntity
  8
CENTER
 62
               0
100
AcDbLine
 10
-400.4000000000002
 20
332.66666681565135
 30
0.0
 11
-400.4000000000002
 21
141.00000000000014
 31
0.0
  0
ENDBLK
  5
11B
100
AcDbEntity
  8
CENTER
100
AcDbBlockEnd
  0
BLOCK
  5
11C
100
AcDbEntity
  8
CENTER
100
AcDbBlockBegin
  2
*U15
 70
               1
 10
0.0
 20
0.0
 30
0.0
  3
*U15
  1

  0
LINE
  5
11D
100
AcDbEntity
  8
CENTER
 62
               0
100
AcDbLine
 10
482.10000000931325
 20
-333.9999899999998
 30
0.0
 11
487.0999999906868
 21
-333.9999899999998
 31
0.0
  0
LINE
  5
11E
100
AcDbEntity
  8
CENTER
 62
               0
100
AcDbLine
 10
484.60000000000002
 20
-336.49998999068657
 30
0.0
 11
484.60000000000002
 21
-331.49999000931302
 31
0.0
  0
LINE
  5
11F
100
AcDbEntity
  8
CENTER
 62
               0
100
AcDbLine
 10
401.59999966353985
 20
-333.9999899999998
 30
0.0
 11
477.1000000279397
 21
-333.9999899999998
 31
0.0
  0
LINE
  5
120
100
AcDbEntity
  8
CENTER
 62
               0
100
AcDbLine
 10
492.09999997206035
 20
-333.9999899999998
 30
0.0
 11
567.6000003364602
 21
-333.9999899999998
 31
0.0
  0
LINE
  5
121
100
AcDbEntity
  8
CENTER
 62
               0
100
AcDbLine
 10
484.60000000000002
 20
-250.99998966353962
 30
0.0
 11
484.60000000000002
 21
-326.49999002793948
 31
0.0
  0
LINE
  5
122
100
AcDbEntity
  8
CENTER
 62
               0
100
AcDbLine
 10
484.60000000000002
 20
-341.49998997206012
 30
0.0
 11
484.60000000000002
 21
-416.99999033645997
 31
0.0
  0
ENDBLK
  5
123
100
AcDbEntity
  8
CENTER
100
AcDbBlockEnd
  0
BLOCK
  5
124
100
AcDbEntity
  8
FRAME
100
AcDbBlockBegin
  2
*U16
 70
               1
 10
0.0
 20
0.0
 30
0.0
  3
*U16
  1

  0
LWPOLYLINE
  5
125
100
AcDbEntity
  8
FRAME
  6
CONTINUOUS
 62
               0
100
AcDbPolyline
 90
       12
 70
             129
 10
-654.49935775254983
 20
-667.30511780279357
 10
-646.64792676934292
 20
-667.30511780279357
 10
-646.64792676934292
 20
-662.63960863862212
 10
-656.28063317600174
 20
-662.63960863862212
 10
-658.12147204097164
 20
-657.81076434742954
 10
-664.04559426185222
 20
-657.81076434742954
 10
-662.29122529423807
 20
-662.63960863862212
 10
-680.13660862631662
 20
-662.63960863862212
 10
-680.13660862631662
 20
-667.30511780279357
 10
-660.59257678554172
 20
-667.30511780279357
 10
-652.98710226648541
 20
-688.22881944105211
 10
-646.52302704596536
 20
-688.21728491562249
  0
LWPOLYLINE
  5
126
100
AcDbEntity
  8
FRAME
  6
CONTINUOUS
 62
               0
100
AcDbPolyline
 90
       12
 70
             129
 10
-667.16426109654174
 20
-675.67344389002915
 10
-661.82044598143386
 20
-675.67344389002915
 10
-661.82044598143386
 20
-670.9944814979392
 10
-679.71386938484943
 20
-670.9944814979392
 10
-679.71386938484943
 20
-675.63117108140659
 10
-673.87621706132609
 20
-675.63117108140659
 10
-673.87621706132609
 20
-682.70822154862844
 10
-680.04629574635806
 20
-683.1770765813194
 10
-680.04629574635806
 20
-688.24803435406147
 10
-659.46847369752641
 20
-686.61087356699727
 10
-659.46847369752641
 20
-681.793563801235
 10
-667.16426109654174
 20
-682.37963259209823
  0
LWPOLYLINE
  5
127
100
AcDbEntity
  8
FRAME
  6
CONTINUOUS
 62
               0
100
AcDbPolyline
 90
        4
 70
             129
 10
-646.8669823552799
 20
-657.82421757534894
 10
-652.44330628424404
 20
-657.82421757534894
 10
-652.44330628424404
 20
-661.34448445838257
 10
-646.8669823552799
 20
-661.34448445838257
  0
ENDBLK
  5
128
100
AcDbEntity
  8
FRAME
100
AcDbBlockEnd
  0
BLOCK
  5
129
100
AcDbEntity
  8
FRAME
100
AcDbBlockBegin
  2
*U17
 70
               1
 10
0.0
 20
0.0
 30
0.0
  3
*U17
  1

  0
LWPOLYLINE
  5
12A
100
AcDbEntity
  8
FRAME
  6
CONTINUOUS
 62
               0
100
AcDbPolyline
 90
       16
 70
             129
 10
-574.39208979976934
 20
-670.22202526206547
 10
-574.39208979976934
 20
-665.32593156415101
 10
-580.24127107109848
 20
-665.32593156415101
 10
-580.24127107109848
 20
-657.68587020167661
 10
-586.09237104491649
 20
-657.68587020167661
 10
-586.09237104491649
 20
-665.32593156415101
 10
-591.46501131835032
 20
-665.32593156415101
 10
-591.46501131835032
 20
-670.22202526206547
 10
-586.09237104491649
 20
-670.22202526206547
 10
-586.09237104491649
 20
-682.87539408062776
 10
-592.41809889176511
 20
-682.87539408062776
 10
-592.41809889176511
 20
-688.24803435406147
 10
-574.39208979976934
 20
-688.24803435406147
 10
-574.39208979976934
 20
-682.87539408062776
 10
-580.24127107109848
 20
-682.87539408062776
 10
-580.24127107109848
 20
-670.22202526206547
  0
LWPOLYLINE
  5
12B
100
AcDbEntity
  8
FRAME
  6
CONTINUOUS
 62
               0
100
AcDbPolyline
 90
        4
 70
             129
 10
-595.28311771947392
 20
-657.56673216339118
 10
-605.54993298833472
 20
-657.56673216339118
 10
-605.54993298833472
 20
-661.98436058329798
 10
-595.28311771947392
 20
-661.98436058329798
  0
LWPOLYLINE
  5
12C
100
AcDbEntity
  8
FRAME
  6
CONTINUOUS
 62
               0
100
AcDbPolyline
 90
       17
 70
             129
 10
-592.41809889176511
 20
-680.3677782125269
 10
-591.93963361375677
 20
-679.89123721463238
 10
-591.93963361375677
 20
-674.51859694119867
 10
-596.33036115544985
 20
-671.92835415834293
 10
-592.53723135242649
 20
-665.92352930282095
 10
-592.53723135242649
 20
-665.80054828193352
 10
-592.53723135242649
 20
-665.33746051195681
 10
-592.53723135242649
 20
-665.20679352586558
 10
-608.65322789261552
 20
-665.20679352586558
 10
-608.65322789261552
 20
-670.10288722378027
 10
-600.57313107815366
 20
-670.10288722378027
 10
-608.77236035327758
 20
-677.14535084758381
 10
-608.77236035327758
 20
-684.54521743099758
 10
-603.00580599670309
 20
-679.01501487088126
 10
-603.28251189929472
 20
-688.24803435406147
 10
-596.95486534995723
 20
-688.24803435406147
 10
-597.12588086455787
 20
-677.06656691543117
  0
ENDBLK
  5
12D
100
AcDbEntity
  8
FRAME
100
AcDbBlockEnd
  0
BLOCK
  5
12E
100
AcDbEntity
  8
FRAME
100
AcDbBlockBegin
  2
*U18
 70
               1
 10
0.0
 20
0.0
 30
0.0
  3
*U18
  1

  0
LWPOLYLINE
  5
12F
100
AcDbEntity
  8
FRAME
  6
CONTINUOUS
 62
               0
100
AcDbPolyline
 90
        4
 70
             129
 10
-793.83055728123395
 20
-657.84727547096145
 10
-786.44221406800295
 20
-657.84727547096145
 10
-786.44221406800295
 20
-662.35137936584761
 10
-793.83055728123395
 20
-662.35137936584761
  0
LWPOLYLINE
  5
130
100
AcDbEntity
  8
FRAME
  6
CONTINUOUS
 62
               0
100
AcDbPolyline
 90
        4
 70
             129
 10
-793.83055728123395
 20
-666.04074306099346
 10
-786.44221406800295
 20
-666.04074306099346
 10
-786.44221406800295
 20
-670.54484695588144
 10
-793.83055728123395
 20
-670.54484695588144
  0
LWPOLYLINE
  5
131
100
AcDbEntity
  8
FRAME
  6
CONTINUOUS
 62
               0
100
AcDbPolyline
 90
        6
 70
             129
 10
-793.83055728123395
 20
-680.34472031691553
 10
-786.77848898973764
 20
-673.34837806195856
 10
-786.44221406800295
 20
-673.49249269834559
 10
-786.42684213759514
 20
-681.72247141190928
 10
-793.41166102236889
 20
-688.24611565157238
 10
-793.83055728123395
 20
-688.23458112614253
  0
ENDBLK
  5
132
100
AcDbEntity
  8
FRAME
100
AcDbBlockEnd
  0
BLOCK
  5
133
100
AcDbEntity
  8
FRAME
100
AcDbBlockBegin
  2
*U19
 70
               1
 10
0.0
 20
0.0
 30
0.0
  3
*U19
  1

  0
LWPOLYLINE
  5
134
100
AcDbEntity
  8
FRAME
  6
CONTINUOUS
 62
               0
100
AcDbPolyline
 90
        4
 70
             129
 10
-831.28915171854646
 20
-657.8472698933374
 10
-823.89888980282626
 20
-657.8472698933374
 10
-823.89888980282626
 20
-662.35137378822446
 10
-831.28915171854646
 20
-662.35137378822446
  0
LWPOLYLINE
  5
135
100
AcDbEntity
  8
FRAME
  6
CONTINUOUS
 62
               0
100
AcDbPolyline
 90
        4
 70
             129
 10
-831.28915171854646
 20
-666.04073748337032
 10
-823.89888980282626
 20
-666.04073748337032
 10
-823.89888980282626
 20
-670.54484137825739
 10
-831.28915171854646
 20
-670.54484137825739
  0
LWPOLYLINE
  5
136
100
AcDbEntity
  8
FRAME
  6
CONTINUOUS
 62
               0
100
AcDbPolyline
 90
        6
 70
             129
 10
-831.28915171854646
 20
-680.3447147392917
 10
-824.23708342705015
 20
-673.34837248433564
 10
-823.89888980282626
 20
-673.49248712072244
 10
-823.88543657490766
 20
-681.72246583428637
 10
-830.87025545968152
 20
-688.24611007394856
 10
-831.28915171854646
 20
-688.23457554851893
  0
ENDBLK
  5
137
100
AcDbEntity
  8
FRAME
100
AcDbBlockEnd
  0
BLOCK
  5
138
100
AcDbEntity
  8
FRAME
100
AcDbBlockBegin
  2
*U20
 70
               1
 10
0.0
 20
0.0
 30
0.0
  3
*U20
  1

  0
LWPOLYLINE
  5
139
100
AcDbEntity
  8
FRAME
  6
CONTINUOUS
 62
               0
100
AcDbPolyline
 90
        8
 70
             129
 10
-741.13603720770868
 20
-670.11826473181191
 10
-735.63465980592002
 20
-670.11826473181191
 10
-733.05594597087054
 20
-662.08428370857405
 10
-737.09503223804529
 20
-662.08428370857405
 10
-734.99670238349347
 20
-657.70124213208464
 10
-740.54612543424219
 20
-657.70124213208464
 10
-742.73668687124245
 20
-665.1395385415185
 10
-738.75524534309864
 20
-665.1395385415185
  0
LWPOLYLINE
  5
13A
100
AcDbEntity
  8
FRAME
  6
CONTINUOUS
 62
               0
100
AcDbPolyline
 90
        8
 70
             129
 10
-730.51181897923982
 20
-670.11826473181191
 10
-725.01043599982711
 20
-670.11826473181191
 10
-722.43364644489009
 20
-662.08428370857405
 10
-726.46888972946317
 20
-662.08428370857405
 10
-724.37440843513673
 20
-657.70124213208464
 10
-729.92382590826253
 20
-657.70124213208464
 10
-732.11054436266033
 20
-665.1395385415185
 10
-728.13102711462864
 20
-665.1395385415185
  0
LWPOLYLINE
  5
13B
100
AcDbEntity
  8
FRAME
  6
CONTINUOUS
 62
               0
100
AcDbPolyline
 90
       32
 70
             129
 10
-725.27561295461226
 20
-671.05021311210271
 10
-725.73678202209896
 20
-672.77575692139021
 10
-729.03607461670651
 20
-672.77575692139021
 10
-730.12174787870151
 20
-670.18551413853538
 10
-735.23497846006444
 20
-670.18551413853538
 10
-734.28765257174177
 20
-672.77575692139021
 10
-741.61065950311502
 20
-672.77575692139021
 10
-741.61065950311502
 20
-673.66735677317229
 10
-743.9318879262064
 20
-688.11544866548047
 10
-738.88783103167896
 20
-688.11544866548047
 10
-737.91937152785704
 20
-682.09332759943754
 10
-733.64009605924582
 20
-683.93032348180577
 10
-733.64009605924582
 20
-679.61645559215367
 10
-737.26797203275862
 20
-678.05424133226302
 10
-736.97589419975986
 20
-676.22877439770036
 10
-733.02327782994178
 20
-676.22877439770036
 10
-730.75008947818731
 20
-682.43728290875242
 10
-736.92785412842284
 20
-687.4832585057693
 10
-736.56276520360916
 20
-687.84835300820669
 10
-732.31422801819008
 20
-687.78302230397185
 10
-729.57602761634621
 20
-685.63665795570705
 10
-728.61909706033009
 20
-688.24803435406147
 10
-722.5527844831762
 20
-688.24803435406147
 10
-725.11227782759147
 20
-682.13944339066211
 10
-722.4855294988289
 20
-680.07954893975329
 10
-723.54813928758881
 20
-676.56120075920967
 10
-726.45736078165737
 20
-678.93430665861547
 10
-727.58914983487534
 20
-676.22877439770036
 10
-722.28760752839094
 20
-676.22877439770036
 10
-722.28760752839094
 20
-674.76840196557509
 10
-722.28760752839094
 20
-672.77575692139021
 10
-722.28760752839094
 20
-671.05021311210271
  0
ENDBLK
  5
13C
100
AcDbEntity
  8
FRAME
100
AcDbBlockEnd
  0
BLOCK
  5
13D
100
AcDbEntity
  8
FRAME
100
AcDbBlockBegin
  2
*U21
 70
               1
 10
0.0
 20
0.0
 30
0.0
  3
*U21
  1

  0
LWPOLYLINE
  5
13E
100
AcDbEntity
  8
FRAME
  6
CONTINUOUS
 62
               0
100
AcDbPolyline
 90
       10
 70
             129
 10
-944.78325412291338
 20
-645.75307456504879
 10
-944.78325412291338
 20
-650.05541350689646
 10
-963.57980074829277
 20
-645.6569999999997
 10
-982.23799999999983
 20
-645.6569999999997
 10
-982.23799999999983
 20
-688.24803435406147
 10
-964.29461782275905
 20
-688.24803435406147
 10
-964.29461782275905
 20
-684.03985127477563
 10
-946.31472452198807
 20
-688.24803435406147
 10
-927.03010237328317
 20
-688.24803435406147
 10
-927.03010237328317
 20
-645.75307456504879
  0
SPLINE
  5
13F
100
AcDbEntity
  8
FRAME
  6
CONTINUOUS
 62
               0
100
AcDbSpline
210
0.0
220
0.0
230
1.0
 70
               9
 71
               2
 72
             107
 73
             104
 74
               0
 42
0.000001
 43
0.000001
 40
0.0
 40
0.0
 40
0.0
 40
0.0003765905969468
 40
0.0003765905969468
 40
0.0143604422883752
 40
0.0143604422883752
 40
0.0346322236208301
 40
0.0346322236208301
 40
0.0350235091012315
 40
0.0350235091012315
 40
0.0395509187515487
 40
0.0395509187515487
 40
0.052319808458782
 40
0.052319808458782
 40
0.0716099717453296
 40
0.0716099717453296
 40
0.0888213070370246
 40
0.0888213070370246
 40
0.1081003173462647
 40
0.1081003173462647
 40
0.1376397854700148
 40
0.1376397854700148
 40
0.1733609950596483
 40
0.1733609950596483
 40
0.209082114968915
 40
0.209082114968915
 40
0.2426207693930988
 40
0.2426207693930988
 40
0.2717922268276674
 40
0.2717922268276674
 40
0.2944214671593575
 40
0.2944214671593575
 40
0.3071703961999717
 40
0.3071703961999717
 40
0.3116751603979865
 40
0.3116751603979865
 40
0.315034127864323
 40
0.315034127864323
 40
0.3245075991029246
 40
0.3245075991029246
 40
0.3412955502219169
 40
0.3412955502219169
 40
0.3629390225707555
 40
0.3629390225707555
 40
0.3878217666751949
 40
0.3878217666751949
 40
0.4143239651403238
 40
0.440826166770643
 40
0.440826166770643
 40
0.4657088827157152
 40
0.4657088827157152
 40
0.487352624463484
 40
0.487352624463484
 40
0.5041377837587548
 40
0.5041377837587548
 40
0.5135886206223553
 40
0.5135886206223553
 40
0.5169280462608672
 40
0.5169280462608672
 40
0.5217879486534918
 40
0.5217879486534918
 40
0.5355011054525193
 40
0.5355011054525193
 40
0.5598166058174038
 40
0.5598166058174038
 40
0.5911702444716929
 40
0.5911702444716929
 40
0.627215928262866
 40
0.627215928262866
 40
0.6656076599412981
 40
0.6656076599412981
 40
0.7039992952348299
 40
0.7039992952348299
 40
0.7400453036511411
 40
0.7400453036511411
 40
0.7713976228856501
 40
0.7713976228856501
 40
0.7957186280498415
 40
0.7957186280498415
 40
0.8094206686172606
 40
0.8094206686172606
 40
0.8142622095491466
 40
0.8142622095491466
 40
0.8242370939273974
 40
0.8242370939273974
 40
0.8410537029973078
 40
0.8410537029973078
 40
0.8606395975404643
 40
0.8606395975404643
 40
0.8831565044058625
 40
0.8831565044058625
 40
0.9071389332484512
 40
0.9071389332484512
 40
0.9311213018816262
 40
0.9311213018816262
 40
0.953638411532861
 40
0.953638411532861
 40
0.9732234818649237
 40
0.9732234818649237
 40
0.9884162525535725
 40
0.9884162525535725
 40
0.9969756011044211
 40
0.9969756011044211
 40
1.0
 40
1.0
 40
1.0
 10
-967.532419042681
 20
-676.3459877564344
 30
0.0
 10
-967.53433014406369
 20
-676.35363216196458
 30
0.0
 10
-967.53624124544626
 20
-676.36127656749477
 30
0.0
 10
-967.59686144825946
 20
-676.59027980970677
 30
0.0
 10
-967.74853288510735
 20
-676.90558815933389
 30
0.0
 10
-967.90020432195513
 20
-677.220896508961
 30
0.0
 10
-968.2865208505383
 20
-677.55378294388629
 30
0.0
 10
-968.29281808624182
 20
-677.55901497554055
 30
0.0
 10
-968.29911532194535
 20
-677.56424700719481
 30
0.0
 10
-968.34231146634147
 20
-677.58681577926723
 30
0.0
 10
-968.46703757104297
 20
-677.65198166543144
 30
0.0
 10
-968.59176367574446
 20
-677.71714755159564
 30
0.0
 10
-968.94063745347671
 20
-677.89942430063536
 30
0.0
 10
-969.28951123120885
 20
-678.08170104967508
 30
0.0
 10
-969.65611227345744
 20
-678.27323979646769
 30
0.0
 10
-970.02271331570603
 20
-678.46477854326031
 30
0.0
 10
-970.29448307605389
 20
-678.60677060906039
 30
0.0
 10
-970.56625283640165
 20
-678.74876267486047
 30
0.0
 10
-971.00954423056601
 20
-678.98036997630572
 30
0.0
 10
-971.45283562473048
 20
-679.21197727775098
 30
0.0
 10
-972.10516718223414
 20
-679.55280219262613
 30
0.0
 10
-972.7574987397378
 20
-679.89362710750129
 30
0.0
 10
-973.43007177847767
 20
-680.24502762774182
 30
0.0
 10
-974.10264481721754
 20
-680.59642814798235
 30
0.0
 10
-974.75497304846374
 20
-680.93725132498207
 30
0.0
 10
-975.40730127970994
 20
-681.27807450198179
 30
0.0
 10
-975.99892637224229
 20
-681.58718199414761
 30
0.0
 10
-976.59055146477465
 20
-681.89628948631344
 30
0.0
 10
-977.08089975663154
 20
-682.15248269498056
 30
0.0
 10
-977.57124804848843
 20
-682.40867590364769
 30
0.0
 10
-977.92022140529298
 20
-682.5910046799554
 30
0.0
 10
-978.26919476209753
 20
-682.77333345626312
 30
0.0
 10
-978.39308094384546
 20
-682.83806050627777
 30
0.0
 10
-978.5169671255934
 20
-682.90278755629242
 30
0.0
 10
-978.56016326999031
 20
-682.92535632836461
 30
0.0
 10
-978.56016326999031
 20
-682.88919775805425
 30
0.0
 10
-978.56016326999031
 20
-682.78479219850146
 30
0.0
 10
-978.56016326999031
 20
-682.68038663894868
 30
0.0
 10
-978.56016326999031
 20
-682.38835184747597
 30
0.0
 10
-978.56016326999031
 20
-682.09631705600327
 30
0.0
 10
-978.56016326999031
 20
-681.68581936841031
 30
0.0
 10
-978.56016326999031
 20
-681.27532168081734
 30
0.0
 10
-978.56016326999031
 20
-680.78009584223105
 30
0.0
 10
-978.56016326999031
 20
-680.28487000364476
 30
0.0
 10
-978.56016326999031
 20
-679.73881714313643
 30
0.0
 10
-978.56016326999031
 20
-679.1927642826281
 30
0.0
 10
-978.56016326999031
 20
-678.06677262458652
 30
0.0
 10
-978.56016326999031
 20
-677.52071963162314
 30
0.0
 10
-978.56016326999031
 20
-676.97466663865976
 30
0.0
 10
-978.56016326999031
 20
-676.47944211092545
 30
0.0
 10
-978.56016326999031
 20
-675.98421758319114
 30
0.0
 10
-978.56016326999031
 20
-675.5737073110954
 30
0.0
 10
-978.56016326999031
 20
-675.16319703899967
 30
0.0
 10
-978.56016326999031
 20
-674.87129166265584
 30
0.0
 10
-978.56016326999031
 20
-674.579386286312
 30
0.0
 10
-978.56016326999031
 20
-674.47579850187822
 30
0.0
 10
-978.56016326999031
 20
-674.37221071744443
 30
0.0
 10
-978.56016326999031
 20
-674.33605214713543
 30
0.0
 10
-978.51373954851226
 20
-674.3117927394494
 30
0.0
 10
-978.37991569950293
 20
-674.24186109226719
 30
0.0
 10
-978.2460918504936
 20
-674.17192944508497
 30
0.0
 10
-977.87131223444453
 20
-673.97608276996186
 30
0.0
 10
-977.49653261839546
 20
-673.78023609483876
 30
0.0
 10
-976.96948139261497
 20
-673.50481762017125
 30
0.0
 10
-976.44243016683447
 20
-673.22939914550375
 30
0.0
 10
-975.80661499391022
 20
-672.89714444893627
 30
0.0
 10
-975.17079982098585
 20
-672.5648897523688
 30
0.0
 10
-974.46972663587064
 20
-672.19853350874462
 30
0.0
 10
-973.76865345075544
 20
-671.83217726512044
 30
0.0
 10
-973.04582635912107
 20
-671.45445319336397
 30
0.0
 10
-972.32299926748681
 20
-671.07672912160751
 30
0.0
 10
-971.62192965716451
 20
-670.71037474604418
 30
0.0
 10
-970.92086004684222
 20
-670.34402037048085
 30
0.0
 10
-970.28502925919349
 20
-670.01175751420647
 30
0.0
 10
-969.64919847154476
 20
-669.67949465793208
 30
0.0
 10
-969.12221179608241
 20
-669.40410991499596
 30
0.0
 10
-968.59522512062006
 20
-669.12872517205983
 30
0.0
 10
-968.22017678827956
 20
-668.93273807523303
 30
0.0
 10
-967.84512845593895
 20
-668.73675097840623
 30
0.0
 10
-967.71198561004883
 20
-668.66717519955546
 30
0.0
 10
-967.57884276415871
 20
-668.59759942070468
 30
0.0
 10
-967.532419042681
 20
-668.5733400130182
 30
0.0
 10
-967.532419042681
 20
-668.65851120756679
 30
0.0
 10
-967.532419042681
 20
-668.99076321141661
 30
0.0
 10
-967.532419042681
 20
-669.32301521526642
 30
0.0
 10
-967.532419042681
 20
-669.69449495185495
 30
0.0
 10
-967.532419042681
 20
-670.06597468844348
 30
0.0
 10
-967.532419042681
 20
-670.5141141508027
 30
0.0
 10
-967.532419042681
 20
-670.96225361316192
 30
0.0
 10
-967.532419042681
 20
-671.45638865999774
 30
0.0
 10
-967.532419042681
 20
-671.95052370683356
 30
0.0
 10
-967.532419042681
 20
-672.45999148617818
 30
0.0
 10
-967.532419042681
 20
-672.9694592655228
 30
0.0
 10
-967.532419042681
 20
-673.46359179274987
 30
0.0
 10
-967.532419042681
 20
-673.95772431997693
 30
0.0
 10
-967.532419042681
 20
-674.40587478800944
 30
0.0
 10
-967.532419042681
 20
-674.85402525604195
 30
0.0
 10
-967.532419042681
 20
-675.22545949584753
 30
0.0
 10
-967.532419042681
 20
-675.59689373565311
 30
0.0
 10
-967.532419042681
 20
-675.86123778589138
 30
0.0
 10
-967.532419042681
 20
-676.12558183612964
 30
0.0
 10
-967.532419042681
 20
-676.21942445882087
 30
0.0
 10
-967.532419042681
 20
-676.31326708151209
 30
0.0
 10
-967.532419042681
 20
-676.3459877564344
 30
0.0
  0
LWPOLYLINE
  5
140
100
AcDbEntity
  8
FRAME
  6
CONTINUOUS
 62
               0
100
AcDbPolyline
 90
        4
 70
             129
 10
-967.53241711811086
 20
-666.24058373392154
 10
-978.56016525266068
 20
-666.24058373392154
 10
-978.56016525266068
 20
-660.78147914075453
 10
-967.53241711811086
 20
-660.78147914075453
  0
LWPOLYLINE
  5
141
100
AcDbEntity
  8
FRAME
  6
CONTINUOUS
 62
               0
100
AcDbPolyline
 90
        4
 70
             129
 10
-967.53241711811086
 20
-658.20468400819436
 10
-978.56016525266068
 20
-657.38610640347315
 10
-978.56016525266068
 20
-651.9250775301939
 10
-967.53241711811086
 20
-652.74557941502735
  0
LWPOLYLINE
  5
142
100
AcDbEntity
  8
FRAME
  6
CONTINUOUS
 62
               0
100
AcDbPolyline
 90
        3
 70
             129
 10
-955.25182876718998
 20
-681.92807376992732
 10
-955.25182876718998
 20
-681.92615506743914
 10
-955.24990448707752
 20
-681.92615506743914
  0
SPLINE
  5
143
100
AcDbEntity
  8
FRAME
  6
CONTINUOUS
 62
               0
100
AcDbSpline
210
0.0
220
0.0
230
1.0
 70
               9
 71
               2
 72
             106
 73
             103
 74
               0
 42
0.000001
 43
0.000001
 40
0.0
 40
0.0
 40
0.0
 40
0.0003687219167978
 40
0.0003687219167978
 40
0.0138428385244643
 40
0.0138428385244643
 40
0.0327049076513204
 40
0.0327049076513204
 40
0.0330609961700205
 40
0.0330609961700205
 40
0.0363852112049869
 40
0.0363852112049869
 40
0.0457606683478289
 40
0.0457606683478289
 40
0.0623749285559178
 40
0.0623749285559178
 40
0.08379447397046
 40
0.08379447397046
 40
0.1084197771008175
 40
0.1084197771008175
 40
0.134647779449964
 40
0.160875784931544
 40
0.160875784931544
 40
0.1855010601938616
 40
0.1855010601938616
 40
0.2069208722200901
 40
0.2069208722200901
 40
0.2235323694891432
 40
0.2235323694891432
 40
0.2328854264359508
 40
0.2328854264359508
 40
0.2361903018260786
 40
0.2361903018260786
 40
0.2407821203975749
 40
0.2407821203975749
 40
0.2537388267213332
 40
0.2537388267213332
 40
0.2767130260220804
 40
0.2767130260220804
 40
0.3063371230975258
 40
0.3063371230975258
 40
0.3403944408957663
 40
0.3403944408957663
 40
0.3766683929775687
 40
0.3766683929775687
 40
0.4129422539912989
 40
0.4129422539912989
 40
0.4469998785075826
 40
0.4469998785075826
 40
0.4766227289455779
 40
0.4766227289455779
 40
0.4996021293877611
 40
0.4996021293877611
 40
0.5125483326778054
 40
0.5125483326778054
 40
0.5171228026505595
 40
0.5171228026505595
 40
0.5207479929524027
 40
0.5207479929524027
 40
0.5309723063473364
 40
0.5309723063473364
 40
0.5490908258610461
 40
0.5490908258610461
 40
0.5724497023146145
 40
0.5724497023146145
 40
0.5993045865953697
 40
0.5993045865953697
 40
0.6279072788860198
 40
0.6565099745927033
 40
0.6565099745927033
 40
0.6833648284822308
 40
0.6833648284822308
 40
0.7067239956865699
 40
0.7067239956865699
 40
0.7248395021040514
 40
0.7248395021040514
 40
0.7350393871835687
 40
0.7350393871835687
 40
0.7386434868242603
 40
0.7386434868242603
 40
0.7429153374910709
 40
0.7429153374910709
 40
0.7549691923390687
 40
0.7549691923390687
 40
0.7763424994666706
 40
0.7763424994666706
 40
0.803902325029377
 40
0.803902325029377
 40
0.8355864548532423
 40
0.8355864548532423
 40
0.8693327590629122
 40
0.8693327590629122
 40
0.9030789785503257
 40
0.9030789785503257
 40
0.9347633937194481
 40
0.9347633937194481
 40
0.9623220595131266
 40
0.9623220595131266
 40
0.9837002053553223
 40
0.9837002053553223
 40
0.9957442890438165
 40
0.9957442890438165
 40
1.0
 40
1.0
 40
1.0
 10
-955.15190744544327
 20
-681.40925767087197
 30
0.0
 10
-955.1571081475663
 20
-681.41555490657504
 30
0.0
 10
-955.16230884968934
 20
-681.42185214227811
 30
0.0
 10
-955.32120354985352
 20
-681.60832020900443
 30
0.0
 10
-955.59905072552385
 20
-681.82718045813715
 30
0.0
 10
-955.87689790119418
 20
-682.04604070726987
 30
0.0
 10
-956.35295634058286
 20
-682.17399063286894
 30
0.0
 10
-956.36060074611328
 20
-682.17593306378251
 30
0.0
 10
-956.36824515164369
 20
-682.17787549469608
 30
0.0
 10
-956.40612671422934
 20
-682.17787549469608
 30
0.0
 10
-956.51550730380177
 20
-682.17787549469608
 30
0.0
 10
-956.62488789337408
 20
-682.17787549469608
 30
0.0
 10
-956.93083843665511
 20
-682.17787549469608
 30
0.0
 10
-957.23678897993614
 20
-682.17787549469608
 30
0.0
 10
-957.66684729559529
 20
-682.17787549469608
 30
0.0
 10
-958.09690561125444
 20
-682.17787549469608
 30
0.0
 10
-958.61572945959915
 20
-682.17787549469608
 30
0.0
 10
-959.13455330794375
 20
-682.17787549469608
 30
0.0
 10
-959.70662613697311
 20
-682.17787549469608
 30
0.0
 10
-960.27869896600248
 20
-682.17787549469608
 30
0.0
 10
-961.45834526009787
 20
-682.17787549469608
 30
0.0
 10
-962.03041822789351
 20
-682.17787549469608
 30
0.0
 10
-962.60249119568914
 20
-682.17787549469608
 30
0.0
 10
-963.12131367071811
 20
-682.17787549469608
 30
0.0
 10
-963.64013614574719
 20
-682.17787549469608
 30
0.0
 10
-964.07020764557365
 20
-682.17787549469608
 30
0.0
 10
-964.5002791454001
 20
-682.17787549469608
 30
0.0
 10
-964.80609410679153
 20
-682.17787549469608
 30
0.0
 10
-965.11190906818285
 20
-682.17787549469608
 30
0.0
 10
-965.22043291482771
 20
-682.17787549469608
 30
0.0
 10
-965.32895676147257
 20
-682.17787549469608
 30
0.0
 10
-965.36683832405822
 20
-682.17787549469608
 30
0.0
 10
-965.34257082720649
 20
-682.13144368405165
 30
0.0
 10
-965.27261586170232
 20
-681.99759651672059
 30
0.0
 10
-965.20266089619815
 20
-681.86374934938954
 30
0.0
 10
-965.00674891708195
 20
-681.48890442934783
 30
0.0
 10
-964.81083693796575
 20
-681.11405950930612
 30
0.0
 10
-964.5353266265281
 20
-680.58691644675457
 30
0.0
 10
-964.25981631509046
 20
-680.05977338420303
 30
0.0
 10
-963.92745083002819
 20
-679.42384742278375
 30
0.0
 10
-963.59508534496581
 20
-678.78792146136448
 30
0.0
 10
-963.22860694187352
 20
-678.08672611678162
 30
0.0
 10
-962.86212853878123
 20
-677.38553077219876
 30
0.0
 10
-962.48427851701786
 20
-676.66257773055759
 30
0.0
 10
-962.10642849525448
 20
-675.93962468891641
 30
0.0
 10
-961.73995196084593
 20
-675.23843291974913
 30
0.0
 10
-961.37347542643749
 20
-674.53724115058185
 30
0.0
 10
-961.04110177894756
 20
-673.90129957171735
 30
0.0
 10
-960.70872813145763
 20
-673.26535799285284
 30
0.0
 10
-960.43325156299852
 20
-672.73827949186807
 30
0.0
 10
-960.1577749945393
 20
-672.2112009908833
 30
0.0
 10
-959.96172254689645
 20
-671.83608730772653
 30
0.0
 10
-959.76567009925361
 20
-671.46097362456976
 30
0.0
 10
-959.69607112074345
 20
-671.32780757902015
 30
0.0
 10
-959.62647214223341
 20
-671.19464153347053
 30
0.0
 10
-959.60220464538099
 20
-671.14820972282769
 30
0.0
 10
-959.56089327657389
 20
-671.14820972282769
 30
0.0
 10
-959.44160934086051
 20
-671.14820972282769
 30
0.0
 10
-959.32232540514713
 20
-671.14820972282769
 30
0.0
 10
-958.98867402258566
 20
-671.14820972282769
 30
0.0
 10
-958.65502264002419
 20
-671.14820972282769
 30
0.0
 10
-958.1860267361011
 20
-671.14820972282769
 30
0.0
 10
-957.71703083217801
 20
-671.14820972282769
 30
0.0
 10
-957.15123254187358
 20
-671.14820972282769
 30
0.0
 10
-956.58543425156915
 20
-671.14820972282769
 30
0.0
 10
-955.96156580445086
 20
-671.14820972282769
 30
0.0
 10
-955.33769735733256
 20
-671.14820972282769
 30
0.0
 10
-954.05124559052854
 20
-671.14820972282769
 30
0.0
 10
-953.42737699208055
 20
-671.14820972282769
 30
0.0
 10
-952.80350839363257
 20
-671.14820972282769
 30
0.0
 10
-952.23771160098397
 20
-671.14820972282769
 30
0.0
 10
-951.67191480833537
 20
-671.14820972282769
 30
0.0
 10
-951.20290452654751
 20
-671.14820972282769
 30
0.0
 10
-950.73389424475965
 20
-671.14820972282769
 30
0.0
 10
-950.40039071970568
 20
-671.14820972282769
 30
0.0
 10
-950.06688719465183
 20
-671.14820972282769
 30
0.0
 10
-949.94853757158648
 20
-671.14820972282769
 30
0.0
 10
-949.83018794852126
 20
-671.14820972282769
 30
0.0
 10
-949.78887657971393
 20
-671.14820972282769
 30
0.0
 10
-949.81145344095148
 20
-671.19140586722369
 30
0.0
 10
-949.8765348771924
 20
-671.3159257058212
 30
0.0
 10
-949.94161631343343
 20
-671.44044554441871
 30
0.0
 10
-950.12387975800425
 20
-671.78916886724528
 30
0.0
 10
-950.30614320257496
 20
-672.13789219007185
 30
0.0
 10
-950.56245962898288
 20
-672.62830054443111
 30
0.0
 10
-950.81877605539069
 20
-673.11870889879037
 30
0.0
 10
-951.12798674499356
 20
-673.7103194622016
 30
0.0
 10
-951.43719743459644
 20
-674.30193002561282
 30
0.0
 10
-951.7781445089397
 20
-674.95426158311659
 30
0.0
 10
-952.11909158328285
 20
-675.60659314062036
 30
0.0
 10
-952.47061805353064
 20
-676.27916617936012
 30
0.0
 10
-952.82214452377855
 20
-676.95173921809987
 30
0.0
 10
-953.16308985962291
 20
-677.60406744934562
 30
0.0
 10
-953.50403519546717
 20
-678.25639568059137
 30
0.0
 10
-953.81325347884854
 20
-678.84802077312418
 30
0.0
 10
-954.12247176223002
 20
-679.43964586565698
 30
0.0
 10
-954.37875679641979
 20
-679.9299941575141
 30
0.0
 10
-954.63504183060957
 20
-680.42034244937122
 30
0.0
 10
-954.81743595773344
 20
-680.76931580617543
 30
0.0
 10
-954.99983008485731
 20
-681.11828916297964
 30
0.0
 10
-955.064580334531
 20
-681.24217534472768
 30
0.0
 10
-955.12933058420469
 20
-681.36606152647573
 30
0.0
 10
-955.15190744544327
 20
-681.40925767087197
 30
0.0
  0
SPLINE
  5
144
100
AcDbEntity
  8
FRAME
  6
CONTINUOUS
 62
               0
100
AcDbSpline
210
0.0
220
0.0
230
1.0
 70
               8
 71
               2
 72
             410
 73
             407
 74
               0
 42
0.000001
 43
0.000001
 40
0.0
 40
0.0
 40
0.0
 40
0.0023844785176267
 40
0.0023844785176267
 40
0.0076716774181623
 40
0.0076716774181623
 40
0.0139752913569076
 40
0.0139752913569076
 40
0.0214744903236647
 40
0.0214744903236647
 40
0.0332828751163548
 40
0.0332828751163548
 40
0.0474637787181759
 40
0.0474637787181759
 40
0.0608548505524855
 40
0.0608548505524855
 40
0.0718842806135531
 40
0.0718842806135531
 40
0.0783615765119844
 40
0.0783615765119844
 40
0.0807296899636032
 40
0.0807296899636032
 40
0.0822924975045548
 40
0.0822924975045548
 40
0.0865472266162725
 40
0.0865472266162725
 40
0.0937753110603856
 40
0.0937753110603856
 40
0.102552341044809
 40
0.102552341044809
 40
0.1118465029270065
 40
0.1118465029270065
 40
0.1206237030612708
 40
0.1206237030612708
 40
0.127850005393709
 40
0.127850005393709
 40
0.1320902847021579
 40
0.1320902847021579
 40
0.1336406167433222
 40
0.1336406167433222
 40
0.1371163685869841
 40
0.1371163685869841
 40
0.1427002213100032
 40
0.1427002213100032
 40
0.1487997418298131
 40
0.1487997418298131
 40
0.1552586216828304
 40
0.1552586216828304
 40
0.1613577622248884
 40
0.1613577622248884
 40
0.1663812618277287
 40
0.1663812618277287
 40
0.1693314317996212
 40
0.1693314317996212
 40
0.1704100203502396
 40
0.1704100203502396
 40
0.1723920948453795
 40
0.1723920948453795
 40
0.1755736410901359
 40
0.1755736410901359
 40
0.1790476998356739
 40
0.1790476998356739
 40
0.1827264458837795
 40
0.1827264458837795
 40
0.1862005719767612
 40
0.1862005719767612
 40
0.1893901245327662
 40
0.1893901245327662
 40
0.1913528299612107
 40
0.1913528299612107
 40
0.1942228730479786
 40
0.1942228730479786
 40
0.1988297507548461
 40
0.1988297507548461
 40
0.2038601864474076
 40
0.2038601864474076
 40
0.2091870092733116
 40
0.2091870092733116
 40
0.2142175424849479
 40
0.2142175424849479
 40
0.2188360133273454
 40
0.2188360133273454
 40
0.2216780100131893
 40
0.2216780100131893
 40
0.2216878335247035
 40
0.2216878335247035
 40
0.2234719646175144
 40
0.2234719646175144
 40
0.2263357800757186
 40
0.2263357800757186
 40
0.2294628957524344
 40
0.2294628957524344
 40
0.2327742572694133
 40
0.2327742572694133
 40
0.2359014335678041
 40
0.2359014335678041
 40
0.2387724557727152
 40
0.2387724557727152
 40
0.2405391521252029
 40
0.2405391521252029
 40
0.2420955321824705
 40
0.2420955321824705
 40
0.2463327625291656
 40
0.2463327625291656
 40
0.2535311194517507
 40
0.2535311194517507
 40
0.2622720514423252
 40
0.2622720514423252
 40
0.2715279884809212
 40
0.2715279884809212
 40
0.2802690899215475
 40
0.2802690899215475
 40
0.2874656720618907
 40
0.2874656720618907
 40
0.2916885120341786
 40
0.2916885120341786
 40
0.2932324679006453
 40
0.2932324679006453
 40
0.2950144523484111
 40
0.2950144523484111
 40
0.297877239785088
 40
0.297877239785088
 40
0.3010044051277296
 40
0.3010044051277296
 40
0.3043158105346054
 40
0.3043158105346054
 40
0.3074427810663203
 40
0.3074427810663203
 40
0.3103151710084816
 40
0.3103151710084816
 40
0.3120837865011447
 40
0.3120837865011447
 40
0.312093610012659
 40
0.312093610012659
 40
0.3121034335241761
 40
0.3121034335241761
 40
0.3133017649254659
 40
0.3133017649254659
 40
0.3165642111096298
 40
0.3165642111096298
 40
0.3221065701868633
 40
0.3221065701868633
 40
0.3288366315442591
 40
0.3288366315442591
 40
0.3359632199054459
 40
0.3359632199054459
 40
0.3426934117305367
 40
0.3426934117305367
 40
0.3482344043180863
 40
0.3482344043180863
 40
0.3514857706651298
 40
0.3514857706651298
 40
0.3526745360880436
 40
0.3526745360880436
 40
0.3553981214894528
 40
0.3553981214894528
 40
0.3597736064043888
 40
0.3597736064043888
 40
0.364553166565915
 40
0.364553166565915
 40
0.3696143192800218
 40
0.3696143192800218
 40
0.3743935816924884
 40
0.3743935816924884
 40
0.3787837430788189
 40
0.3787837430788189
 40
0.3814868953664534
 40
0.3814868953664534
 40
0.3826852267677437
 40
0.3826852267677437
 40
0.3859476729519059
 40
0.3859476729519059
 40
0.3914900320291376
 40
0.3914900320291376
 40
0.3982200933865323
 40
0.3982200933865323
 40
0.4053466817477196
 40
0.4053466817477196
 40
0.4120768735728121
 40
0.4120768735728121
 40
0.4176178661603623
 40
0.4176178661603623
 40
0.4208692325074076
 40
0.4208692325074076
 40
0.4220579979303208
 40
0.4220579979303208
 40
0.4235614022142888
 40
0.4235614022142888
 40
0.4259766460183397
 40
0.4259766460183397
 40
0.4286149371542129
 40
0.4286149371542129
 40
0.4321560671893405
 40
0.4321560671893405
 40
0.4359763114338661
 40
0.4359763114338661
 40
0.4379622630758196
 40
0.4379622630758196
 40
0.4391605944771094
 40
0.4391605944771094
 40
0.4424230406612734
 40
0.4424230406612734
 40
0.4479653997385068
 40
0.4479653997385068
 40
0.4546954610959026
 40
0.4546954610959026
 40
0.4618220494570894
 40
0.4618220494570894
 40
0.4685522412821802
 40
0.4685522412821802
 40
0.4740932338697299
 40
0.4740932338697299
 40
0.4773446002167733
 40
0.4773446002167733
 40
0.4785333656396871
 40
0.4785333656396871
 40
0.4804147103458702
 40
0.4804147103458702
 40
0.4834371216781835
 40
0.4834371216781835
 40
0.486738652154577
 40
0.486738652154577
 40
0.4902346955909122
 40
0.4902346955909122
 40
0.4935360203940672
 40
0.4935360203940672
 40
0.4965685696503594
 40
0.4965685696503594
 40
0.4984357999724676
 40
0.4984357999724676
 40
0.5022709202274273
 40
0.5022709202274273
 40
0.5084321042365302
 40
0.5084321042365302
 40
0.5151622724830739
 40
0.5151622724830739
 40
0.5222889553024592
 40
0.5222889553024592
 40
0.5290187042842123
 40
0.5290187042842123
 40
0.5345615985828317
 40
0.5345615985828317
 40
0.5378167954794181
 40
0.5378167954794181
 40
0.5390069025363353
 40
0.5390069025363353
 40
0.5406442352733021
 40
0.5406442352733021
 40
0.5451018585435923
 40
0.5451018585435923
 40
0.5526746267672975
 40
0.5526746267672975
 40
0.5618702046937151
 40
0.5618702046937151
 40
0.5716075748519802
 40
0.5716075748519802
 40
0.580803331042131
 40
0.580803331042131
 40
0.5883742321710664
 40
0.5883742321710664
 40
0.5928167165740839
 40
0.5928167165740839
 40
0.5944409788953498
 40
0.5944409788953498
 40
0.5944606259183863
 40
0.5944606259183863
 40
0.5944704494299035
 40
0.5944704494299035
 40
0.5957607592946833
 40
0.5957607592946833
 40
0.5992736159970967
 40
0.5992736159970967
 40
0.6052413813279585
 40
0.6052413813279585
 40
0.6124880115595179
 40
0.6124880115595179
 40
0.6201616044026646
 40
0.6201616044026646
 40
0.6274083751160269
 40
0.6274083751160269
 40
0.6333746690716759
 40
0.6333746690716759
 40
0.6368755954991101
 40
0.6368755954991101
 40
0.6381556051445593
 40
0.6381556051445593
 40
0.6400140402851892
 40
0.6400140402851892
 40
0.642997125611861
 40
0.642997125611861
 40
0.6462544768714491
 40
0.6462544768714491
 40
0.6497037472929387
 40
0.6497037472929387
 40
0.6529611616989217
 40
0.6529611616989217
 40
0.6559517539130517
 40
0.6559517539130517
 40
0.6577920282054083
 40
0.6577920282054083
 40
0.6603016766200913
 40
0.6603016766200913
 40
0.6671383731250482
 40
0.6671383731250482
 40
0.6787624834460495
 40
0.6787624834460495
 40
0.6928811705375865
 40
0.6928811705375865
 40
0.7078316741567486
 40
0.7078316741567486
 40
0.7219494817058811
 40
0.7219494817058811
 40
0.7335774807865698
 40
0.7335774807865698
 40
0.7404063006199866
 40
0.7404063006199866
 40
0.7429029319858804
 40
0.7429029319858804
 40
0.7429127554973993
 40
0.7429127554973993
 40
0.7429324025204325
 40
0.7429324025204325
 40
0.7431040272339885
 40
0.7431040272339885
 40
0.7464102013119625
 40
0.7464102013119625
 40
0.7497015563969219
 40
0.7497015563969219
 40
0.7541141459187634
 40
0.7541141459187634
 40
0.7542940028575633
 40
0.7542940028575633
 40
0.7544416826176706
 40
0.7544416826176706
 40
0.7544613296407038
 40
0.7544613296407038
 40
0.7544809766637369
 40
0.7544809766637369
 40
0.7564585124124713
 40
0.7564585124124713
 40
0.7618456461889439
 40
0.7618456461889439
 40
0.7710051338576274
 40
0.7710051338576274
 40
0.7821302812230381
 40
0.7821302812230381
 40
0.7939108777382763
 40
0.7939108777382763
 40
0.8050353320478256
 40
0.8050353320478256
 40
0.8141978839550114
 40
0.8141978839550114
 40
0.8195788111252256
 40
0.8195788111252256
 40
0.8215460897880799
 40
0.8215460897880799
 40
0.8238876235431468
 40
0.8238876235431468
 40
0.829079599316401
 40
0.829079599316401
 40
0.8352696843632459
 40
0.8352696843632459
 40
0.8426338217990937
 40
0.8426338217990937
 40
0.8542295360739406
 40
0.8542295360739406
 40
0.868155039791236
 40
0.868155039791236
 40
0.8813049367120005
 40
0.8813049367120005
 40
0.8921357253294008
 40
0.8921357253294008
 40
0.8984963643016624
 40
0.8984963643016624
 40
0.9008218277276495
 40
0.9008218277276495
 40
0.9027054387719584
 40
0.9027054387719584
 40
0.9057289354464373
 40
0.9057289354464373
 40
0.9090304134876208
 40
0.9090304134876208
 40
0.912526410586836
 40
0.912526410586836
 40
0.9158279526298466
 40
0.9158279526298466
 40
0.9188590578863094
 40
0.9188590578863094
 40
0.92072426206043
 40
0.92072426206043
 40
0.9230618500921125
 40
0.9230618500921125
 40
0.9294298257148027
 40
0.9294298257148027
 40
0.9402569921841563
 40
0.9402569921841563
 40
0.9534077083462867
 40
0.9534077083462867
 40
0.9673332120635816
 40
0.9673332120635816
 40
0.9804831089843491
 40
0.9804831089843491
 40
0.9913138976017506
 40
0.9913138976017506
 40
0.9976745365740122
 40
0.9976745365740122
 40
1.0
 40
1.0
 40
1.0
 10
-948.81465348801714
 20
-660.87755405198459
 30
0.0
 10
-948.93589119570618
 20
-660.87771633171042
 30
0.0
 10
-949.2810730173876
 20
-660.87817836627323
 30
0.0
 10
-949.62625483906891
 20
-660.87864040083605
 30
0.0
 10
-950.31528356055082
 20
-660.87956268313542
 30
0.0
 10
-951.00431228203286
 20
-660.88048496543479
 30
0.0
 10
-951.54831150561654
 20
-660.88121312209796
 30
0.0
 10
-952.09231072920022
 20
-660.88194127876113
 30
0.0
 10
-953.0152036696154
 20
-660.88317659420841
 30
0.0
 10
-953.93809661003058
 20
-660.88441190965568
 30
0.0
 10
-955.32500064908811
 20
-660.88626831564602
 30
0.0
 10
-956.71190468814564
 20
-660.88812472163636
 30
0.0
 10
-958.09887776104983
 20
-660.88998122003079
 30
0.0
 10
-959.48585083395403
 20
-660.89183771842522
 30
0.0
 10
-960.71825863470985
 20
-660.89348732730889
 30
0.0
 10
-961.95066643546556
 20
-660.89513693619256
 30
0.0
 10
-962.87568699494841
 20
-660.8963750995116
 30
0.0
 10
-963.80070755443126
 20
-660.89761326283065
 30
0.0
 10
-964.14268826260775
 20
-660.89807101262227
 30
0.0
 10
-964.48466897078424
 20
-660.89852876241389
 30
0.0
 10
-964.60590667847305
 20
-660.89869104213994
 30
0.0
 10
-964.57119356990711
 20
-660.82721419938571
 30
0.0
 10
-964.4723601765736
 20
-660.62370897596861
 30
0.0
 10
-964.3735267832401
 20
-660.42020375255152
 30
0.0
 10
-964.10878105725828
 20
-659.87507283781201
 30
0.0
 10
-963.84403533127659
 20
-659.32994192307251
 30
0.0
 10
-963.49111997766363
 20
-658.60326326253062
 30
0.0
 10
-963.13820462405067
 20
-657.87658460198872
 30
0.0
 10
-962.74109694490426
 20
-657.058910694014
 30
0.0
 10
-962.34398926575773
 20
-656.24123678603928
 30
0.0
 10
-961.94688347016245
 20
-655.42356675643441
 30
0.0
 10
-961.54977767456705
 20
-654.60589672682954
 30
0.0
 10
-961.19684589759856
 20
-653.87918424939141
 30
0.0
 10
-960.84391412063007
 20
-653.15247177195329
 30
0.0
 10
-960.5793371046891
 20
-652.60768824359172
 30
0.0
 10
-960.31476008874802
 20
-652.06290471523016
 30
0.0
 10
-960.21699276357208
 20
-651.86159460453018
 30
0.0
 10
-960.11922543839603
 20
-651.6602844938302
 30
0.0
 10
-960.084512329831
 20
-651.58880765107597
 30
0.0
 10
-959.9354482798982
 20
-651.58880765107597
 30
0.0
 10
-959.40463202081639
 20
-651.58880765107597
 30
0.0
 10
-958.87381576173459
 20
-651.58880765107597
 30
0.0
 10
-958.31239307926455
 20
-651.58880765107597
 30
0.0
 10
-957.75097039679451
 20
-651.58880765107597
 30
0.0
 10
-957.11928606749348
 20
-651.58880765107597
 30
0.0
 10
-956.48760173819244
 20
-651.58880765107597
 30
0.0
 10
-955.85588596648654
 20
-651.58880765107597
 30
0.0
 10
-955.22417019478064
 20
-651.58880765107597
 30
0.0
 10
-954.66285328090532
 20
-651.58880765107597
 30
0.0
 10
-954.10153636703001
 20
-651.58880765107597
 30
0.0
 10
-953.68022315771577
 20
-651.58880765107597
 30
0.0
 10
-953.25890994840154
 20
-651.58880765107597
 30
0.0
 10
-953.10315017829885
 20
-651.58880765107597
 30
0.0
 10
-952.94739040819616
 20
-651.58880765107597
 30
0.0
 10
-952.89217104340139
 20
-651.58880765107597
 30
0.0
 10
-952.93070479601704
 20
-651.66471714716135
 30
0.0
 10
-953.06766525716023
 20
-651.93452215921661
 30
0.0
 10
-953.20462571830342
 20
-652.20432717127187
 30
0.0
 10
-953.34936150930946
 20
-652.4894491802894
 30
0.0
 10
-953.4940973003155
 20
-652.77457118930693
 30
0.0
 10
-953.65695701573225
 20
-653.09539639035154
 30
0.0
 10
-953.81981673114899
 20
-653.41622159139615
 30
0.0
 10
-953.98267567409403
 20
-653.73704527071095
 30
0.0
 10
-954.14553461703906
 20
-654.05786895002575
 30
0.0
 10
-954.29027714350514
 20
-654.34300422755064
 30
0.0
 10
-954.43501966997121
 20
-654.62813950507552
 30
0.0
 10
-954.57268227985696
 20
-654.89932771377244
 30
0.0
 10
-954.71034488974271
 20
-655.17051592246935
 30
0.0
 10
-954.74646154337609
 20
-655.24166385879789
 30
0.0
 10
-954.62319346635718
 20
-655.24166385879789
 30
0.0
 10
-954.1850619186373
 20
-655.24166385879789
 30
0.0
 10
-953.74693037091731
 20
-655.24166385879789
 30
0.0
 10
-953.28392582497486
 20
-655.24166385879789
 30
0.0
 10
-952.8209212790324
 20
-655.24166385879789
 30
0.0
 10
-952.29993895624216
 20
-655.24166385879789
 30
0.0
 10
-951.77895663345191
 20
-655.24166385879789
 30
0.0
 10
-951.25797678177173
 20
-655.24166385879789
 30
0.0
 10
-950.73699693009144
 20
-655.24166385879789
 30
0.0
 10
-950.27397083765572
 20
-655.24166385879789
 30
0.0
 10
-949.8109447452199
 20
-655.24166385879789
 30
0.0
 10
-949.37056704914016
 20
-655.24166385879789
 30
0.0
 10
-948.93018935306031
 20
-655.24166385879789
 30
0.0
 10
-948.81465348801714
 20
-655.24166385879789
 30
0.0
 10
-948.81465348801714
 20
-655.24059610414497
 30
0.0
 10
-948.81465348801714
 20
-655.23974231423881
 30
0.0
 10
-948.81465348801714
 20
-655.16311405385704
 30
0.0
 10
-948.81465348801714
 20
-654.89075433889911
 30
0.0
 10
-948.81465348801714
 20
-654.61839462394119
 30
0.0
 10
-948.81465348801714
 20
-654.33057287996235
 30
0.0
 10
-948.81465348801714
 20
-654.04275113598351
 30
0.0
 10
-948.81465348801714
 20
-653.71888813713849
 30
0.0
 10
-948.81465348801714
 20
-653.39502513829348
 30
0.0
 10
-948.81465348801714
 20
-653.07116367558694
 30
0.0
 10
-948.81465348801714
 20
-652.74730221288041
 30
0.0
 10
-948.81465348801714
 20
-652.45946707475798
 30
0.0
 10
-948.81465348801714
 20
-652.17163193663555
 30
0.0
 10
-948.81465348801714
 20
-651.89787592796131
 30
0.0
 10
-948.81465348801714
 20
-651.62411991928707
 30
0.0
 10
-948.81465348801714
 20
-651.55229830444523
 30
0.0
 10
-948.7355199927581
 20
-651.55229830444523
 30
0.0
 10
-948.51021513859678
 20
-651.55229830444523
 30
0.0
 10
-948.28491028443534
 20
-651.55229830444523
 30
0.0
 10
-947.68138454105849
 20
-651.55229830444523
 30
0.0
 10
-947.07785879768164
 20
-651.55229830444523
 30
0.0
 10
-946.27333777907552
 20
-651.55229830444523
 30
0.0
 10
-945.46881676046939
 20
-651.55229830444523
 30
0.0
 10
-944.56355301591293
 20
-651.55229830444523
 30
0.0
 10
-943.65828927135658
 20
-651.55229830444523
 30
0.0
 10
-942.7530298206234
 20
-651.55229830444523
 30
0.0
 10
-941.84777036989033
 20
-651.55229830444523
 30
0.0
 10
-941.04321191189729
 20
-651.55229830444523
 30
0.0
 10
-940.23865345390436
 20
-651.55229830444523
 30
0.0
 10
-939.63551230919188
 20
-651.55229830444523
 30
0.0
 10
-939.03237116447929
 20
-651.55229830444523
 30
0.0
 10
-938.8094965651411
 20
-651.55229830444523
 30
0.0
 10
-938.58662196580292
 20
-651.55229830444523
 30
0.0
 10
-938.50748847054354
 20
-651.55229830444523
 30
0.0
 10
-938.50748847054354
 20
-651.62872200517177
 30
0.0
 10
-938.50748847054354
 20
-651.90086638165576
 30
0.0
 10
-938.50748847054354
 20
-652.17301075813975
 30
0.0
 10
-938.50748847054354
 20
-652.46084675270561
 30
0.0
 10
-938.50748847054354
 20
-652.74868274727146
 30
0.0
 10
-938.50748847054354
 20
-653.07254121051676
 30
0.0
 10
-938.50748847054354
 20
-653.39639967376206
 30
0.0
 10
-938.50748847054354
 20
-653.7202742572257
 30
0.0
 10
-938.50748847054354
 20
-654.04414884068933
 30
0.0
 10
-938.50748847054354
 20
-654.33193060871656
 30
0.0
 10
-938.50748847054354
 20
-654.61971237674379
 30
0.0
 10
-938.50748847054354
 20
-654.8937892940678
 30
0.0
 10
-938.50748847054354
 20
-655.16786621139181
 30
0.0
 10
-938.50748847054354
 20
-655.23974231423881
 30
0.0
 10
-938.50748847054354
 20
-655.24081006889173
 30
0.0
 10
-938.50748847054354
 20
-655.24166385879789
 30
0.0
 10
-938.50642071588993
 20
-655.24166385879789
 30
0.0
 10
-938.50556692598389
 20
-655.24166385879789
 30
0.0
 10
-938.44463826539106
 20
-655.24166385879789
 30
0.0
 10
-938.27116528856652
 20
-655.24166385879789
 30
0.0
 10
-938.09769231174198
 20
-655.24166385879789
 30
0.0
 10
-937.63300899329545
 20
-655.24166385879789
 30
0.0
 10
-937.16832567484892
 20
-655.24166385879789
 30
0.0
 10
-936.5488864863994
 20
-655.24166385879789
 30
0.0
 10
-935.92944729794976
 20
-655.24166385879789
 30
0.0
 10
-935.23244146927391
 20
-655.24166385879789
 30
0.0
 10
-934.53543564059794
 20
-655.24166385879789
 30
0.0
 10
-933.83843311794158
 20
-655.24166385879789
 30
0.0
 10
-933.14143059528533
 20
-655.24166385879789
 30
0.0
 10
-932.52196258046229
 20
-655.24166385879789
 30
0.0
 10
-931.90249456563924
 20
-655.24166385879789
 30
0.0
 10
-931.43810736808848
 20
-655.24166385879789
 30
0.0
 10
-930.97372017053772
 20
-655.24166385879789
 30
0.0
 10
-930.8021183630683
 20
-655.24166385879789
 30
0.0
 10
-930.63051655559877
 20
-655.24166385879789
 30
0.0
 10
-930.56958789500561
 20
-655.24166385879789
 30
0.0
 10
-930.56958789500561
 20
-655.35846985891976
 30
0.0
 10
-930.56958789500561
 20
-655.77441538066341
 30
0.0
 10
-930.56958789500561
 20
-656.19036090240706
 30
0.0
 10
-930.56958789500561
 20
-656.63028949649822
 30
0.0
 10
-930.56958789500561
 20
-657.07021809058938
 30
0.0
 10
-930.56958789500561
 20
-657.56520343331965
 30
0.0
 10
-930.56958789500561
 20
-658.06018877604993
 30
0.0
 10
-930.56958789500561
 20
-658.55519875692471
 30
0.0
 10
-930.56958789500561
 20
-659.05020873779949
 30
0.0
 10
-930.56958789500561
 20
-659.49005445203852
 30
0.0
 10
-930.56958789500561
 20
-659.92990016627755
 30
0.0
 10
-930.56958789500561
 20
-660.34879938384518
 30
0.0
 10
-930.56958789500561
 20
-660.7676986014128
 30
0.0
 10
-930.56958789500561
 20
-660.87755405198459
 30
0.0
 10
-930.63051655559877
 20
-660.87755405198459
 30
0.0
 10
-930.80398953242309
 20
-660.87755405198459
 30
0.0
 10
-930.9774625092474
 20
-660.87755405198459
 30
0.0
 10
-931.44214582769382
 20
-660.87755405198459
 30
0.0
 10
-931.90682914614024
 20
-660.87755405198459
 30
0.0
 10
-932.52626833458953
 20
-660.87755405198459
 30
0.0
 10
-933.14570752303882
 20
-660.87755405198459
 30
0.0
 10
-933.84271335171479
 20
-660.87755405198459
 30
0.0
 10
-934.53971918039088
 20
-660.87755405198459
 30
0.0
 10
-935.23672170304724
 20
-660.87755405198459
 30
0.0
 10
-935.9337242257036
 20
-660.87755405198459
 30
0.0
 10
-936.55319224052687
 20
-660.87755405198459
 30
0.0
 10
-937.17266025535002
 20
-660.87755405198459
 30
0.0
 10
-937.63704745290079
 20
-660.87755405198459
 30
0.0
 10
-938.10143465045144
 20
-660.87755405198459
 30
0.0
 10
-938.27303645792131
 20
-660.87755405198459
 30
0.0
 10
-938.44463826539106
 20
-660.87755405198459
 30
0.0
 10
-938.50556692598389
 20
-660.87755405198459
 30
0.0
 10
-938.50556692598389
 20
-660.94203032685573
 30
0.0
 10
-938.50556692598389
 20
-661.17162998580648
 30
0.0
 10
-938.50556692598389
 20
-661.40122964475722
 30
0.0
 10
-938.50556692598389
 20
-661.64406782881247
 30
0.0
 10
-938.50556692598389
 20
-661.88690601286771
 30
0.0
 10
-938.50556692598389
 20
-662.16013522182811
 30
0.0
 10
-938.50556692598389
 20
-662.43336443078852
 30
0.0
 10
-938.50556692598389
 20
-662.85280394239101
 30
0.0
 10
-938.50556692598389
 20
-663.2722434539935
 30
0.0
 10
-938.50556692598389
 20
-663.60006926923404
 30
0.0
 10
-938.50556692598389
 20
-663.92789508447459
 30
0.0
 10
-938.50556692598389
 20
-663.98853469391088
 30
0.0
 10
-938.44463826539106
 20
-663.98853469391088
 30
0.0
 10
-938.27116528856652
 20
-663.98853469391088
 30
0.0
 10
-938.09769231174198
 20
-663.98853469391088
 30
0.0
 10
-937.63300899329545
 20
-663.98853469391088
 30
0.0
 10
-937.16832567484892
 20
-663.98853469391088
 30
0.0
 10
-936.5488864863994
 20
-663.98853469391088
 30
0.0
 10
-935.92944729794976
 20
-663.98853469391088
 30
0.0
 10
-935.23244146927391
 20
-663.98853469391088
 30
0.0
 10
-934.53543564059794
 20
-663.98853469391088
 30
0.0
 10
-933.83843311794158
 20
-663.98853469391088
 30
0.0
 10
-933.14143059528533
 20
-663.98853469391088
 30
0.0
 10
-932.52196258046229
 20
-663.98853469391088
 30
0.0
 10
-931.90249456563924
 20
-663.98853469391088
 30
0.0
 10
-931.43810736808848
 20
-663.98853469391088
 30
0.0
 10
-930.97372017053772
 20
-663.98853469391088
 30
0.0
 10
-930.8021183630683
 20
-663.98853469391088
 30
0.0
 10
-930.63051655559877
 20
-663.98853469391088
 30
0.0
 10
-930.56958789500561
 20
-663.98853469391088
 30
0.0
 10
-930.56958789500561
 20
-664.06921964319235
 30
0.0
 10
-930.56958789500561
 20
-664.35653830226261
 30
0.0
 10
-930.56958789500561
 20
-664.64385696133286
 30
0.0
 10
-930.56958789500561
 20
-664.94774217498139
 30
0.0
 10
-930.56958789500561
 20
-665.25162738862991
 30
0.0
 10
-930.56958789500561
 20
-665.59354361923715
 30
0.0
 10
-930.56958789500561
 20
-665.93545984984439
 30
0.0
 10
-930.56958789500561
 20
-666.2773930995038
 30
0.0
 10
-930.56958789500561
 20
-666.6193263491632
 30
0.0
 10
-930.56958789500561
 20
-666.92315431269844
 30
0.0
 10
-930.56958789500561
 20
-667.22698227623368
 30
0.0
 10
-930.56958789500561
 20
-667.51634123115741
 30
0.0
 10
-930.56958789500561
 20
-667.80570018608114
 30
0.0
 10
-930.56958789500561
 20
-667.88158397157667
 30
0.0
 10
-930.73406412429256
 20
-667.88158397157667
 30
0.0
 10
-931.31976306899128
 20
-667.88158397157667
 30
0.0
 10
-931.90546201369
 20
-667.88158397157667
 30
0.0
 10
-932.52493187171899
 20
-667.88158397157667
 30
0.0
 10
-933.14440172974798
 20
-667.88158397157667
 30
0.0
 10
-933.84139779707675
 20
-667.88158397157667
 30
0.0
 10
-934.53839386440563
 20
-667.88158397157667
 30
0.0
 10
-935.23542462506452
 20
-667.88158397157667
 30
0.0
 10
-935.9324553857233
 20
-667.88158397157667
 30
0.0
 10
-936.55180853942488
 20
-667.88158397157667
 30
0.0
 10
-937.17116169312646
 20
-667.88158397157667
 30
0.0
 10
-937.63603573920398
 20
-667.88158397157667
 30
0.0
 10
-938.10090978528149
 20
-667.88158397157667
 30
0.0
 10
-938.27277402533628
 20
-667.88158397157667
 30
0.0
 10
-938.44463826539106
 20
-667.88158397157667
 30
0.0
 10
-938.50556692598389
 20
-667.88158397157667
 30
0.0
 10
-938.5055816786861
 20
-667.96483347078447
 30
0.0
 10
-938.50562368182807
 20
-668.20185720158861
 30
0.0
 10
-938.50566568497004
 20
-668.43888093239275
 30
0.0
 10
-938.50577819909074
 20
-669.0737981154416
 30
0.0
 10
-938.50589071321144
 20
-669.70871529849046
 30
0.0
 10
-938.50604069848725
 20
-670.55508220900401
 30
0.0
 10
-938.50619068376307
 20
-671.40144911951757
 30
0.0
 10
-938.5063594503074
 20
-672.35379872998203
 30
0.0
 10
-938.50652821685162
 20
-673.3061483404465
 30
0.0
 10
-938.50669698259571
 20
-674.25849343375182
 30
0.0
 10
-938.50686574833969
 20
-675.21083852705715
 30
0.0
 10
-938.50701574059519
 20
-676.05724482430787
 30
0.0
 10
-938.50716573285069
 20
-676.9036511215586
 30
0.0
 10
-938.50727817527149
 20
-677.53816370165055
 30
0.0
 10
-938.50739061769218
 20
-678.1726762817425
 30
0.0
 10
-938.50743216776641
 20
-678.40714335185157
 30
0.0
 10
-938.50747371784064
 20
-678.64161042196065
 30
0.0
 10
-938.50748847054354
 20
-678.72485992116799
 30
0.0
 10
-938.50748847054354
 20
-678.72699543047452
 30
0.0
 10
-938.50748847054354
 20
-678.72870301028775
 30
0.0
 10
-938.50642071588993
 20
-678.72870301028775
 30
0.0
 10
-938.50556692598389
 20
-678.72870301028775
 30
0.0
 10
-938.4399616587541
 20
-678.72870301028775
 30
0.0
 10
-938.25317368588799
 20
-678.72870301028775
 30
0.0
 10
-938.06638571302199
 20
-678.72870301028775
 30
0.0
 10
-937.56603541831691
 20
-678.72870301028775
 30
0.0
 10
-937.06568512361184
 20
-678.72870301028775
 30
0.0
 10
-936.39870060278008
 20
-678.72870301028775
 30
0.0
 10
-935.73171608194832
 20
-678.72870301028775
 30
0.0
 10
-934.98121125867419
 20
-678.72870301028775
 30
0.0
 10
-934.23070643540018
 20
-678.72870301028775
 30
0.0
 10
-933.48020517190071
 20
-678.72870301028775
 30
0.0
 10
-932.72970390840112
 20
-678.72870301028775
 30
0.0
 10
-932.06268834861453
 20
-678.72870301028775
 30
0.0
 10
-931.39567278882794
 20
-678.72870301028775
 30
0.0
 10
-930.89564134391094
 20
-678.72870301028775
 30
0.0
 10
-930.39560989899383
 20
-678.72870301028775
 30
0.0
 10
-930.21083671792428
 20
-678.72870301028775
 30
0.0
 10
-930.02606353685474
 20
-678.72870301028775
 30
0.0
 10
-929.96045826962495
 20
-678.72870301028775
 30
0.0
 10
-929.97746902466599
 20
-678.80668893656389
 30
0.0
 10
-930.03793032668364
 20
-679.08387420144811
 30
0.0
 10
-930.09839162870117
 20
-679.36105946633234
 30
0.0
 10
-930.16228535612959
 20
-679.65398070968411
 30
0.0
 10
-930.22617908355789
 20
-679.94690195303588
 30
0.0
 10
-930.29807363150371
 20
-680.27650301439257
 30
0.0
 10
-930.36996817944953
 20
-680.60610407574927
 30
0.0
 10
-930.4418623863869
 20
-680.93570357375131
 30
0.0
 10
-930.51375659332439
 20
-681.26530307175335
 30
0.0
 10
-930.577653294127
 20
-681.5582379465593
 30
0.0
 10
-930.64154999492962
 20
-681.85117282136525
 30
0.0
 10
-930.70232126105498
 20
-682.12977911888561
 30
0.0
 10
-930.76309252718033
 20
-682.40838541640596
 30
0.0
 10
-930.77903625199747
 20
-682.48147953510602
 30
0.0
 10
-930.9068536649221
 20
-682.48147953510602
 30
0.0
 10
-931.26994026829084
 20
-682.48147953510602
 30
0.0
 10
-931.63302687165969
 20
-682.48147953510602
 30
0.0
 10
-932.60724383353386
 20
-682.48147953510602
 30
0.0
 10
-933.58146079540802
 20
-682.48147953510602
 30
0.0
 10
-934.8809975629531
 20
-682.48147953510602
 30
0.0
 10
-936.18053433049829
 20
-682.48147953510602
 30
0.0
 10
-937.6427071942602
 20
-682.48147953510602
 30
0.0
 10
-939.1048800580221
 20
-682.48147953510602
 30
0.0
 10
-940.56712570217383
 20
-682.48147953510602
 30
0.0
 10
-942.02937134632555
 20
-682.48147953510602
 30
0.0
 10
-943.32866328910359
 20
-682.48147953510602
 30
0.0
 10
-944.62795523188163
 20
-682.48147953510602
 30
0.0
 10
-945.60317768592859
 20
-682.48147953510602
 30
0.0
 10
-946.57840013997554
 20
-682.48147953510602
 30
0.0
 10
-946.93894052153337
 20
-682.48147953510602
 30
0.0
 10
-947.29948090309131
 20
-682.48147953510602
 30
0.0
 10
-947.42729831601594
 20
-682.48147953510602
 30
0.0
 10
-947.42729831601594
 20
-682.48041237362122
 30
0.0
 10
-947.42729831601594
 20
-682.47955799054603
 30
0.0
 10
-947.42943263898519
 20
-682.47955799054603
 30
0.0
 10
-947.43114140513501
 20
-682.47955799054603
 30
0.0
 10
-947.44792666202272
 20
-682.47947321652134
 30
0.0
 10
-947.46471191891044
 20
-682.47938844249666
 30
0.0
 10
-947.83345088544786
 20
-682.45566525739468
 30
0.0
 10
-948.08168717987758
 20
-682.30746544378735
 30
0.0
 10
-948.32992347430729
 20
-682.15926563018002
 30
0.0
 10
-948.55622018364102
 20
-681.87753319281069
 30
0.0
 10
-948.78251689297474
 20
-681.59580075544136
 30
0.0
 10
-948.81273194345806
 20
-681.06781615744376
 30
0.0
 10
-948.81273194345806
 20
-681.05022554732113
 30
0.0
 10
-948.81273194345806
 20
-681.03263493719851
 30
0.0
 10
-948.81166478197326
 20
-681.01662751492768
 30
0.0
 10
-948.81081039889807
 20
-681.00381176880501
 30
0.0
 10
-948.81081039889807
 20
-681.00167744583564
 30
0.0
 10
-948.81081039889807
 20
-680.99996867968594
 30
0.0
 10
-948.81294472186812
 20
-680.99996867968594
 30
0.0
 10
-948.81465348801714
 20
-680.99996867968594
 30
0.0
 10
-948.81465348801714
 20
-680.89925198092897
 30
0.0
 10
-948.81465348801714
 20
-680.61314946001448
 30
0.0
 10
-948.81465348801714
 20
-680.3270469391
 30
0.0
 10
-948.81465348801714
 20
-679.55939006020867
 30
0.0
 10
-948.81465348801714
 20
-678.79173318131734
 30
0.0
 10
-948.81465348801714
 20
-677.76773300679861
 30
0.0
 10
-948.81465348801714
 20
-676.74373283227987
 30
0.0
 10
-948.81465348801714
 20
-675.5915797689255
 30
0.0
 10
-948.81465348801714
 20
-674.43942670557112
 30
0.0
 10
-948.81465348801714
 20
-673.28721629321831
 30
0.0
 10
-948.81465348801714
 20
-672.13500588086549
 30
0.0
 10
-948.81465348801714
 20
-671.11119862170733
 30
0.0
 10
-948.81465348801714
 20
-670.08739136254917
 30
0.0
 10
-948.81465348801714
 20
-669.31894218275033
 30
0.0
 10
-948.81465348801714
 20
-668.5504930029515
 30
0.0
 10
-948.81465348801714
 20
-668.26639683664303
 30
0.0
 10
-948.81465348801714
 20
-667.98230067033455
 30
0.0
 10
-948.81465348801714
 20
-667.88158397157667
 30
0.0
 10
-948.93370779576207
 20
-667.88158397157667
 30
0.0
 10
-949.27267315241465
 20
-667.88158397157667
 30
0.0
 10
-949.61163850906712
 20
-667.88158397157667
 30
0.0
 10
-950.28825834143015
 20
-667.88158397157667
 30
0.0
 10
-950.96487817379318
 20
-667.88158397157667
 30
0.0
 10
-951.49908038045169
 20
-667.88158397157667
 30
0.0
 10
-952.03328258711008
 20
-667.88158397157667
 30
0.0
 10
-952.93955491969132
 20
-667.88158397157667
 30
0.0
 10
-953.84582725227244
 20
-667.88158397157667
 30
0.0
 10
-955.20775419254903
 20
-667.88158397157667
 30
0.0
 10
-956.56968113282562
 20
-667.88158397157667
 30
0.0
 10
-957.93167586370146
 20
-667.88158397157667
 30
0.0
 10
-959.29367059457718
 20
-667.88158397157667
 30
0.0
 10
-960.5038836576216
 20
-667.88158397157667
 30
0.0
 10
-961.71409672066591
 20
-667.88158397157667
 30
0.0
 10
-962.62245835549527
 20
-667.88158397157667
 30
0.0
 10
-963.53081999032463
 20
-667.88158397157667
 30
0.0
 10
-963.86664188311886
 20
-667.88158397157667
 30
0.0
 10
-964.20246377591309
 20
-667.88158397157667
 30
0.0
 10
-964.32151808365813
 20
-667.88158397157667
 30
0.0
 10
-964.32151808365813
 20
-667.80068305676014
 30
0.0
 10
-964.32151808365813
 20
-667.5131370523286
 30
0.0
 10
-964.32151808365813
 20
-667.22559104789707
 30
0.0
 10
-964.32151808365813
 20
-666.92172087942265
 30
0.0
 10
-964.32151808365813
 20
-666.61785071094823
 30
0.0
 10
-964.32151808365813
 20
-666.27592969184468
 30
0.0
 10
-964.32151808365813
 20
-665.93400867274113
 30
0.0
 10
-964.32151808365813
 20
-665.59208927542863
 30
0.0
 10
-964.32151808365813
 20
-665.25016987811614
 30
0.0
 10
-964.32151808365813
 20
-664.94628556866519
 30
0.0
 10
-964.32151808365813
 20
-664.64240125921424
 30
0.0
 10
-964.32151808365813
 20
-664.35338110623138
 30
0.0
 10
-964.32151808365813
 20
-664.06436095324852
 30
0.0
 10
-964.32151808365813
 20
-663.98853469391088
 30
0.0
 10
-964.20246377591309
 20
-663.98853469391088
 30
0.0
 10
-963.86427022914654
 20
-663.98853469391088
 30
0.0
 10
-963.52607668237999
 20
-663.98853469391088
 30
0.0
 10
-962.61865160362618
 20
-663.98853469391088
 30
0.0
 10
-961.71122652487236
 20
-663.98853469391088
 30
0.0
 10
-960.50078542213805
 20
-663.98853469391088
 30
0.0
 10
-959.29034431940374
 20
-663.98853469391088
 30
0.0
 10
-957.92841737912704
 20
-663.98853469391088
 30
0.0
 10
-956.56649043885045
 20
-663.98853469391088
 30
0.0
 10
-955.20449570797473
 20
-663.98853469391088
 30
0.0
 10
-953.84250097709889
 20
-663.98853469391088
 30
0.0
 10
-952.63228791405402
 20
-663.98853469391088
 30
0.0
 10
-951.42207485100914
 20
-663.98853469391088
 30
0.0
 10
-950.51371321618012
 20
-663.98853469391088
 30
0.0
 10
-949.6053515813511
 20
-663.98853469391088
 30
0.0
 10
-949.26952968855653
 20
-663.98853469391088
 30
0.0
 10
-948.93370779576207
 20
-663.98853469391088
 30
0.0
 10
-948.81465348801714
 20
-663.98853469391088
 30
0.0
  0
INSERT
  5
145
100
AcDbEntity
  8
FRAME
 62
               0
100
AcDbBlockReference
  2
*U16
 10
0.0
 20
0.0
 30
0.0
  0
INSERT
  5
146
100
AcDbEntity
  8
FRAME
 62
               0
100
AcDbBlockReference
  2
*U17
 10
0.0
 20
0.0
 30
0.0
  0
LWPOLYLINE
  5
147
100
AcDbEntity
  8
FRAME
  6
CONTINUOUS
 62
               0
100
AcDbPolyline
 90
       22
 70
             129
 10
-705.82189399379627
 20
-667.61832925129193
 10
-705.82189399379627
 20
-663.0354470018749
 10
-708.62542509987372
 20
-663.0354470018749
 10
-708.47746748088548
 20
-657.68394592156346
 10
-713.92120572126851
 20
-657.68394592156346
 10
-713.72905101354456
 20
-663.0354470018749
 10
-718.50408797068451
 20
-663.0354470018749
 10
-718.50408797068451
 20
-667.61832925129193
 10
-713.56187290392154
 20
-667.61832925129193
 10
-713.52152437541292
 20
-668.70784549588825
 10
-718.57134295503147
 20
-676.07504951599685
 10
-718.57134295503147
 20
-685.5713216738493
 10
-718.17166160917589
 20
-685.5713216738493
 10
-713.41775826753519
 20
-677.23950671014472
 10
-713.92120572126851
 20
-688.16156445670504
 10
-708.47746748088548
 20
-688.16156445670504
 10
-708.61005316946569
 20
-675.7368558917733
 10
-706.07361772066258
 20
-677.7679307619785
 10
-705.82189399379627
 20
-677.46048099857148
 10
-705.82189399379627
 20
-671.62859593776329
 10
-708.67538387370053
 20
-669.53795204841435
 10
-708.69652306682292
 20
-667.61832925129193
  0
LWPOLYLINE
  5
148
100
AcDbEntity
  8
FRAME
  6
CONTINUOUS
 62
               0
100
AcDbPolyline
 90
       32
 70
             129
 10
-688.90269177929383
 20
-688.24803435406147
 10
-683.78946119793113
 20
-688.24803435406147
 10
-686.81205346756997
 20
-675.29874471989888
 10
-683.97585422056352
 20
-675.29874471989888
 10
-683.97585422056352
 20
-670.6505261886241
 10
-691.72160039340406
 20
-670.6505261886241
 10
-691.66010709414832
 20
-667.1302593055907
 10
-683.97585422056352
 20
-667.1302593055907
 10
-683.97585422056352
 20
-662.48396505442884
 10
-691.57940445950635
 20
-662.48396505442884
 10
-691.49293456214969
 20
-657.5686508658805
 10
-697.07117719360247
 20
-657.5686508658805
 10
-696.9847072962458
 20
-662.48396505442884
 10
-699.9976893205677
 20
-662.48396505442884
 10
-699.19448364625521
 20
-657.76849153880767
 10
-703.39113777773548
 20
-657.76849153880767
 10
-704.50755490054632
 20
-667.1302593055907
 10
-703.24510443885924
 20
-667.1302593055907
 10
-700.78744734458542
 20
-667.1302593055907
 10
-696.9020803814908
 20
-667.1302593055907
 10
-696.84251693997192
 20
-670.6505261886241
 10
-704.20011071476267
 20
-670.6505261886241
 10
-704.20011071476267
 20
-675.29874471989888
 10
-702.01723524296688
 20
-675.29874471989888
 10
-704.64014058912744
 20
-688.24803435406147
 10
-699.52691558538766
 20
-688.24803435406147
 10
-697.70336735331443
 20
-675.29874471989888
 10
-696.89631869639936
 20
-675.29874471989888
 10
-697.07117719360247
 20
-688.24611007394856
 10
-691.49293456214969
 20
-688.24611007394856
 10
-691.66587435686358
 20
-675.29874471989888
 10
-691.12592135722298
 20
-675.29874471989888
  0
LWPOLYLINE
  5
149
100
AcDbEntity
  8
FRAME
  6
CONTINUOUS
 62
               0
100
AcDbPolyline
 90
       30
 70
             129
 10
-765.7125969952051
 20
-664.43048872976624
 10
-762.54589008917935
 20
-658.03943575630819
 10
-762.84757258987099
 20
-657.68587020167661
 10
-780.57574216377679
 20
-657.68587020167661
 10
-783.2428501762962
 20
-662.22839834496108
 10
-783.07759634678621
 20
-662.46090715881655
 10
-776.69614804102093
 20
-662.46090715881655
 10
-775.08396942968068
 20
-659.99364539684984
 10
-770.56834216461084
 20
-659.99364539684984
 10
-772.77619423450813
 20
-664.43048872976624
 10
-783.38119754996785
 20
-664.43048872976624
 10
-783.38119754996785
 20
-668.00071996425027
 10
-776.69614804102093
 20
-668.00071996425027
 10
-776.69614804102093
 20
-670.6870373121551
 10
-783.38119754996785
 20
-670.6870373121551
 10
-783.38119754996785
 20
-674.68577505082021
 10
-776.69614804102093
 20
-674.68577505082021
 10
-776.69614804102093
 20
-677.62381612559147
 10
-783.38119754996785
 20
-677.62381612559147
 10
-783.38119754996785
 20
-681.50149154585893
 10
-776.69614804102093
 20
-681.50149154585893
 10
-776.69614804102093
 20
-684.42608497033461
 10
-780.51617314463374
 20
-684.42608497033461
 10
-780.03963214673877
 20
-688.24803435406147
 10
-769.8823502484712
 20
-688.24803435406147
 10
-769.49804083302456
 20
-687.7695690760529
 10
-769.49804083302456
 20
-681.56297926749153
 10
-760.28231198274159
 20
-681.56297926749153
 10
-759.94604263863073
 20
-681.08451956710678
 10
-759.94604263863073
 20
-664.43048872976624
  0
LWPOLYLINE
  5
14A
100
AcDbEntity
  8
FRAME
  6
CONTINUOUS
 62
               0
100
AcDbPolyline
 90
        4
 70
             129
 10
-769.46729697220781
 20
-668.03146382506543
 10
-765.26487557801329
 20
-668.03146382506543
 10
-765.26487557801329
 20
-670.71586247048208
 10
-769.46729697220781
 20
-670.71586247048208
  0
LWPOLYLINE
  5
14B
100
AcDbEntity
  8
FRAME
  6
CONTINUOUS
 62
               0
100
AcDbPolyline
 90
        4
 70
             129
 10
-765.23605599730956
 20
-677.62381612559147
 10
-769.43847181388094
 20
-677.62381612559147
 10
-769.43847181388094
 20
-674.68577505082021
 10
-765.23605599730956
 20
-674.68577505082021
  0
INSERT
  5
14C
100
AcDbEntity
  8
FRAME
 62
               0
100
AcDbBlockReference
  2
*U18
 10
0.0
 20
0.0
 30
0.0
  0
INSERT
  5
14D
100
AcDbEntity
  8
FRAME
 62
               0
100
AcDbBlockReference
  2
*U19
 10
0.0
 20
0.0
 30
0.0
  0
LWPOLYLINE
  5
14E
100
AcDbEntity
  8
FRAME
  6
CONTINUOUS
 62
               0
100
AcDbPolyline
 90
       35
 70
             129
 10
-804.68344134095798
 20
-684.46258493861978
 10
-804.68344134095798
 20
-673.49248712072244
 10
-796.78205158392439
 20
-673.49248712072244
 10
-796.78205158392439
 20
-669.37654120150751
 10
-804.68344134095798
 20
-669.37654120150751
 10
-804.68344134095798
 20
-666.32128636856305
 10
-796.78205158392439
 20
-666.32128636856305
 10
-796.78205158392439
 20
-662.20533487172474
 10
-804.68344134095798
 20
-662.20533487172474
 10
-804.68344134095798
 20
-657.95680326393017
 10
-811.98915763943398
 20
-657.95680326393017
 10
-811.98915763943398
 20
-662.20533487172474
 10
-815.81303130327285
 20
-662.20533487172474
 10
-814.70237586555356
 20
-657.65512076323694
 10
-819.62345173919323
 20
-657.65512076323694
 10
-821.73138626143816
 20
-666.29054250774766
 10
-821.67758450501015
 20
-666.29054250774766
 10
-821.68334619010159
 20
-666.32128636856305
 10
-811.98915763943398
 20
-666.32128636856305
 10
-811.98915763943398
 20
-669.37654120150751
 10
-821.68334619010159
 20
-669.37654120150751
 10
-821.68334619010159
 20
-673.49248712072244
 10
-811.98915763943398
 20
-673.49248712072244
 10
-811.98915763943398
 20
-675.98281235592526
 10
-817.86139680637541
 20
-675.9866553385275
 10
-823.04571977706439
 20
-688.00399659239929
 10
-822.88815749038179
 20
-688.23649982863185
 10
-816.21655563172976
 20
-688.24034281123318
 10
-811.98915763943398
 20
-677.85247637922271
 10
-811.98915763943398
 20
-684.46258493861978
 10
-811.98915763943398
 20
-687.95787522355158
 10
-811.98915763943398
 20
-688.01936852280733
 10
-811.75472454546468
 20
-688.24802877643742
 10
-796.78205158392439
 20
-688.24802877643742
 10
-796.30551058602941
 20
-684.46258493861978
  0
INSERT
  5
14F
100
AcDbEntity
  8
FRAME
 62
               0
100
AcDbBlockReference
  2
*U20
 10
0.0
 20
0.0
 30
0.0
  0
LWPOLYLINE
  5
150
100
AcDbEntity
  8
FRAME
  6
CONTINUOUS
 62
               0
100
AcDbPolyline
 90
       22
 70
             129
 10
-743.92420196100272
 20
-667.66060763753831
 10
-743.92420196100272
 20
-663.07964409061037
 10
-746.72965734719298
 20
-663.07964409061037
 10
-746.58169972820463
 20
-657.72621873018625
 10
-752.02543239096326
 20
-657.72621873018625
 10
-751.83327768324023
 20
-663.07964409061037
 10
-756.60832021800377
 20
-663.07964409061037
 10
-756.60832021800377
 20
-667.66060763753831
 10
-751.6661051512416
 20
-667.66060763753831
 10
-751.62575104510836
 20
-668.75204258462281
 10
-756.6755696247269
 20
-676.11924660473164
 10
-756.6755696247269
 20
-685.61360006009477
 10
-756.27588827887132
 20
-685.61360006009477
 10
-751.52199051485468
 20
-677.28562250136861
 10
-752.02543239096326
 20
-688.2057615454396
 10
-746.58169972820463
 20
-688.2057615454396
 10
-746.71236113667283
 20
-675.77913427801946
 10
-744.17592568786915
 20
-677.8121278507133
 10
-743.92420196100272
 20
-677.50467808730627
 10
-743.92420196100272
 20
-671.67279302649808
 10
-746.7796161210191
 20
-669.58023043466073
 10
-746.79883103402949
 20
-667.66060763753831
  0
LWPOLYLINE
  5
151
100
AcDbEntity
  8
FRAME
  6
CONTINUOUS
 62
               0
100
AcDbPolyline
 90
       22
 70
             129
 10
-843.00672359659188
 20
-666.59991097364309
 10
-835.19372243940472
 20
-666.59991097364309
 10
-835.19372243940472
 20
-661.86330384252346
 10
-849.0519025582463
 20
-661.86330384252346
 10
-848.77904521588039
 20
-657.73967195810474
 10
-856.35185159400783
 20
-657.73967195810474
 10
-856.07898867401877
 20
-661.86330384252346
 10
-869.9371687928616
 20
-661.86330384252346
 10
-869.9371687928616
 20
-666.59991097364309
 10
-862.20871883054156
 20
-666.59991097364309
 10
-870.44830221179814
 20
-686.11704193620403
 10
-870.23500831095123
 20
-686.47252619332562
 10
-863.54419153928984
 20
-686.47252619332562
 10
-862.66988789802883
 20
-683.966834605337
 10
-856.42486826344532
 20
-683.966834605337
 10
-856.5382390390165
 20
-688.24803435406147
 10
-848.59265219324857
 20
-688.24803435406147
 10
-848.69257531852406
 20
-683.966834605337
 10
-842.27269160911555
 20
-683.966834605337
 10
-841.35803943934434
 20
-686.47252619332562
 10
-834.66529838756992
 20
-686.47252619332562
 10
-834.45200448672392
 20
-686.11704193620403
  0
LWPOLYLINE
  5
152
100
AcDbEntity
  8
FRAME
  6
CONTINUOUS
 62
               0
100
AcDbPolyline
 90
        4
 70
             129
 10
-861.21527715099398
 20
-679.8009243346728
 10
-856.60741272585267
 20
-666.59991097364309
 10
-855.96561789844793
 20
-666.59991097364309
 10
-856.31534047047774
 20
-679.8009243346728
  0
LWPOLYLINE
  5
153
100
AcDbEntity
  8
FRAME
  6
CONTINUOUS
 62
               0
100
AcDbPolyline
 90
        4
 70
             129
 10
-848.79057416368676
 20
-679.8009243346728
 10
-849.09801834947109
 20
-666.59991097364309
 10
-848.60994840376895
 20
-666.59991097364309
 10
-843.79071435789433
 20
-679.8009243346728
  0
LWPOLYLINE
  5
154
100
AcDbEntity
  8
FRAME
  6
CONTINUOUS
 62
               0
100
AcDbPolyline
 90
       12
 70
             129
 10
-875.69603718423116
 20
-657.90876319259269
 10
-882.5252069071887
 20
-657.90876319259269
 10
-900.02663492995225
 20
-657.90876319259269
 10
-906.7635730704618
 20
-657.90876319259269
 10
-907.58215067518188
 20
-657.90876319259269
 10
-907.58215067518188
 20
-688.2653249869586
 10
-900.02663492995225
 20
-688.2653249869586
 10
-900.02663492995225
 20
-686.73961627297558
 10
-882.5252069071887
 20
-686.73961627297558
 10
-882.5252069071887
 20
-688.2653249869586
 10
-874.97161544207142
 20
-688.2653249869586
 10
-874.97161544207142
 20
-657.90876319259269
  0
LWPOLYLINE
  5
155
100
AcDbEntity
  8
FRAME
  6
CONTINUOUS
 62
               0
100
AcDbPolyline
 90
        4
 70
             129
 10
-882.5252069071887
 20
-662.42054747506108
 10
-882.5252069071887
 20
-669.97606322029105
 10
-900.02663492995225
 20
-669.97606322029105
 10
-900.02663492995225
 20
-662.42054747506108
  0
LWPOLYLINE
  5
156
100
AcDbEntity
  8
FRAME
  6
CONTINUOUS
 62
               0
100
AcDbPolyline
 90
        4
 70
             129
 10
-900.02663492995225
 20
-682.22590771039495
 10
-900.02663492995225
 20
-674.48784750275809
 10
-882.5252069071887
 20
-674.48784750275809
 10
-882.5252069071887
 20
-682.22590771039495
  0
LWPOLYLINE
  5
157
100
AcDbEntity
  8
FRAME
  6
CONTINUOUS
 62
               0
100
AcDbPolyline
 90
       18
 70
             129
 10
-622.20972551076545
 20
-658.36225187249943
 10
-622.26352726719381
 20
-658.1124524257466
 10
-622.45952495751874
 20
-658.1124524257466
 10
-627.94937898912565
 20
-658.1124524257466
 10
-628.32407815925694
 20
-658.1124524257466
 10
-633.81393219086385
 20
-658.1124524257466
 10
-634.06757462021858
 20
-658.1124524257466
 10
-634.1367538846788
 20
-658.43526854193783
 10
-645.75825677529701
 20
-670.07406206545352
 10
-645.47770789010372
 20
-670.54099839565515
 10
-637.99329011182272
 20
-670.44876681320738
 10
-635.56638245598799
 20
-667.46652864970133
 10
-634.89960545285851
 20
-670.78695485980666
 10
-621.43150201217793
 20
-670.78695485980666
 10
-620.75511476373129
 20
-667.40888391067074
 10
-618.28209131667302
 20
-670.44876681320738
 10
-610.7976735383919
 20
-670.54099839565515
 10
-610.51712465319838
 20
-670.07406206545352
  0
LWPOLYLINE
  5
158
100
AcDbEntity
  8
FRAME
  6
CONTINUOUS
 62
               0
100
AcDbPolyline
 90
        4
 70
             129
 10
-634.40576824444236
 20
-666.04266176348256
 10
-631.10839992994795
 20
-661.99204654850246
 10
-625.16506279605767
 20
-661.99204654850246
 10
-621.86768890394023
 20
-666.04266176348256
  0
LWPOLYLINE
  5
159
100
AcDbEntity
  8
FRAME
  6
CONTINUOUS
 62
               0
100
AcDbPolyline
 90
       14
 70
             129
 10
-644.55728845761814
 20
-678.8209303054216
 10
-638.60626535852464
 20
-678.8209303054216
 10
-642.90283703765692
 20
-688.01744424269418
 10
-642.69915338212707
 20
-688.24802877643742
 10
-636.6924042464924
 20
-688.24802877643742
 10
-636.26582202242332
 20
-688.24802877643742
 10
-620.04798365446891
 20
-688.24802877643742
 10
-619.64061634340976
 20
-688.24802877643742
 10
-613.61657657487774
 20
-688.24802877643742
 10
-613.41289291934811
 20
-688.01744424269418
 10
-617.70946459848062
 20
-678.8209303054216
 10
-611.68350054983568
 20
-678.8209303054216
 10
-611.68350054983568
 20
-674.08240447181197
 10
-644.55728845761814
 20
-674.08240447181197
  0
LWPOLYLINE
  5
15A
100
AcDbEntity
  8
FRAME
  6
CONTINUOUS
 62
               0
100
AcDbPolyline
 90
        4
 70
             129
 10
-621.78506198918524
 20
-683.97643369540674
 10
-634.53066796781911
 20
-683.97643369540674
 10
-632.43618109586885
 20
-678.8209303054216
 10
-623.87954328351134
 20
-678.8209303054216
  0
ENDBLK
  5
15B
100
AcDbEntity
  8
FRAME
100
AcDbBlockEnd
  0
BLOCK
  5
15C
100
AcDbEntity
  8
OBJECT
100
AcDbBlockBegin
  2
*U22
 70
               1
 10
0.0
 20
0.0
 30
0.0
  3
*U22
  1

  0
ARC
  5
15D
100
AcDbEntity
  8
OBJECT
 62
               0
100
AcDbCircle
 10
592.15882345777095
 20
11.235293983322052
 30
0.0
 40
4.0000000000000133
100
AcDbArc
 50
331.92751306414937
 51
151.92751306414729
  0
LINE
  5
15E
100
AcDbEntity
  8
OBJECT
 62
               0
100
AcDbLine
 10
581.09999999999968
 20
-0.9999999999998863
 30
0.0
 11
581.10000000000014
 21
-31.999999999999858
 31
0.0
  0
LINE
  5
15F
100
AcDbEntity
  8
OBJECT
 62
               0
100
AcDbLine
 10
589.09999999999991
 20
-31.999999999999801
 30
0.0
 11
589.09999999999968
 21
-2.9999999999997868
 31
0.0
  0
LINE
  5
160
100
AcDbEntity
  8
OBJECT
 62
               0
100
AcDbLine
 10
588.62941169306509
 20
13.117646924498459
 30
0.0
 11
581.09999999999968
 21
-1.0000000000021885
 31
0.0
  0
LINE
  5
161
100
AcDbEntity
  8
OBJECT
 62
               0
100
AcDbLine
 10
589.09999999999991
 20
-2.9999999999983231
 30
0.0
 11
595.68823522247703
 21
9.3529410421456163
 31
0.0
  0
POINT
  5
162
100
AcDbEntity
  8
OBJECT
  6
CONTINUOUS
 62
               0
100
AcDbPoint
 10
585.10000000000002
 20
-31.999999999999829
 30
0.0
  0
ENDBLK
  5
163
100
AcDbEntity
  8
OBJECT
100
AcDbBlockEnd
  0
BLOCK
  5
164
100
AcDbEntity
  8
OBJECT
100
AcDbBlockBegin
  2
*U23
 70
               1
 10
0.0
 20
0.0
 30
0.0
  3
*U23
  1

  0
ARC
  5
165
100
AcDbEntity
  8
OBJECT
 62
               0
100
AcDbCircle
 10
237.04117654222898
 20
11.235293983322052
 30
0.0
 40
3.9999999999999596
100
AcDbArc
 50
28.072486935852698
 51
208.07248693585069
  0
LINE
  5
166
100
AcDbEntity
  8
OBJECT
 62
               0
100
AcDbLine
 10
248.10000000000025
 20
-0.9999999999998863
 30
0.0
 11
248.0999999999998
 21
-31.999999999999858
 31
0.0
  0
LINE
  5
167
100
AcDbEntity
  8
OBJECT
 62
               0
100
AcDbLine
 10
240.10000000000002
 20
-31.999999999999801
 30
0.0
 11
240.10000000000025
 21
-2.9999999999997868
 31
0.0
  0
LINE
  5
168
100
AcDbEntity
  8
OBJECT
 62
               0
100
AcDbLine
 10
240.57058830693484
 20
13.117646924498459
 30
0.0
 11
248.10000000000025
 21
-1.0000000000021885
 31
0.0
  0
LINE
  5
169
100
AcDbEntity
  8
OBJECT
 62
               0
100
AcDbLine
 10
240.10000000000002
 20
-2.9999999999983231
 30
0.0
 11
233.5117647775229
 21
9.3529410421456163
 31
0.0
  0
POINT
  5
16A
100
AcDbEntity
  8
OBJECT
  6
CONTINUOUS
 62
               0
100
AcDbPoint
 10
244.09999999999991
 20
-31.999999999999829
 30
0.0
  0
ENDBLK
  5
16B
100
AcDbEntity
  8
OBJECT
100
AcDbBlockEnd
  0
BLOCK
  5
16C
100
AcDbEntity
  8
OBJECT
100
AcDbBlockBegin
  2
*U24
 70
               1
 10
0.0
 20
0.0
 30
0.0
  3
*U24
  1

  0
ARC
  5
16D
100
AcDbEntity
  8
OBJECT
 62
               0
100
AcDbCircle
 10
-440.40000000000009
 20
512.00000000000011
 30
0.0
 40
4.0
100
AcDbArc
 50
270.0
 51
0.0
  0
ARC
  5
16E
100
AcDbEntity
  8
OBJECT
 62
               0
100
AcDbCircle
 10
-440.40000000000009
 20
512.00000000000011
 30
0.0
 40
4.0
100
AcDbArc
 50
179.99999999999838
 51
270.0
  0
ARC
  5
16F
100
AcDbEntity
  8
OBJECT
 62
               0
100
AcDbCircle
 10
-360.40000000000009
 20
512.00000000000023
 30
0.0
 40
4.0
100
AcDbArc
 50
270.0
 51
0.0
  0
ARC
  5
170
100
AcDbEntity
  8
OBJECT
 62
               0
100
AcDbCircle
 10
-360.40000000000009
 20
512.00000000000023
 30
0.0
 40
4.0
100
AcDbArc
 50
180.0
 51
270.0
  0
POLYLINE
  5
171
100
AcDbEntity
  8
OBJECT
 62
               0
100
AcDb2dPolyline
 66
               1
 10
0.0
 20
0.0
 30
0.0
 75
               5
  0
VERTEX
  5
172
100
AcDbEntity
  8
OBJECT
 62
               0
100
AcDbVertex
100
AcDb2dVertex
 10
-373.39999998964277
 20
515.0588234577715
 30
0.0
  0
VERTEX
  5
173
100
AcDbEntity
  8
OBJECT
 62
               0
100
AcDbVertex
100
AcDb2dVertex
 10
-372.62153853765415
 20
515.04598016650755
 30
0.0
  0
VERTEX
  5
174
100
AcDbEntity
  8
OBJECT
 62
               0
100
AcDbVertex
100
AcDb2dVertex
 10
-371.13571214153978
 20
514.94900814149241
 30
0.0
  0
VERTEX
  5
175
100
AcDbEntity
  8
OBJECT
 62
               0
100
AcDbVertex
100
AcDb2dVertex
 10
-369.71040673187213
 20
514.76106397581952
 30
0.0
  0
VERTEX
  5
176
100
AcDbEntity
  8
OBJECT
 62
               0
100
AcDbVertex
100
AcDb2dVertex
 10
-368.38828605558274
 20
514.49204407918444
 30
0.0
  0
VERTEX
  5
177
100
AcDbEntity
  8
OBJECT
 62
               0
100
AcDbVertex
100
AcDb2dVertex
 10
-367.20850744483448
 20
514.1577235960192
 30
0.0
  0
VERTEX
  5
178
100
AcDbEntity
  8
OBJECT
 62
               0
100
AcDbVertex
100
AcDb2dVertex
 10
-366.20624812101482
 20
513.78069720111944
 30
0.0
  0
VERTEX
  5
179
100
AcDbEntity
  8
OBJECT
 62
               0
100
AcDbVertex
100
AcDb2dVertex
 10
-365.40992714674462
 20
513.391386893348
 30
0.0
  0
VERTEX
  5
17A
100
AcDbEntity
  8
OBJECT
 62
               0
100
AcDbVertex
100
AcDb2dVertex
 10
-364.83679253250989
 20
513.02857314961716
 30
0.0
  0
VERTEX
  5
17B
100
AcDbEntity
  8
OBJECT
 62
               0
100
AcDbVertex
100
AcDb2dVertex
 10
-364.48673128340374
 20
512.73827918785867
 30
0.0
  0
VERTEX
  5
17C
100
AcDbEntity
  8
OBJECT
 62
               0
100
AcDbVertex
100
AcDb2dVertex
 10
-364.33545972547722
 20
512.56958645647023
 30
0.0
  0
VERTEX
  5
17D
100
AcDbEntity
  8
OBJECT
 62
               0
100
AcDbVertex
100
AcDb2dVertex
 10
-364.31887412063691
 20
512.54513453283755
 30
0.0
  0
SEQEND
  5
17E
100
AcDbEntity
  8
OBJECT
 62
               0
  0
POLYLINE
  5
17F
100
AcDbEntity
  8
OBJECT
 62
               0
100
AcDb2dPolyline
 66
               1
 10
0.0
 20
0.0
 30
0.0
 75
               5
  0
VERTEX
  5
180
100
AcDbEntity
  8
OBJECT
 62
               0
100
AcDbVertex
100
AcDb2dVertex
 10
-356.40000011641541
 20
512.94117649830855
 30
0.0
  0
VERTEX
  5
181
100
AcDbEntity
  8
OBJECT
 62
               0
100
AcDbVertex
100
AcDb2dVertex
 10
-356.47572461903678
 20
513.95997228426688
 30
0.0
  0
VERTEX
  5
182
100
AcDbEntity
  8
OBJECT
 62
               0
100
AcDbVertex
100
AcDb2dVertex
 10
-356.76766212697953
 20
515.17011082446993
 30
0.0
  0
VERTEX
  5
183
100
AcDbEntity
  8
OBJECT
 62
               0
100
AcDbVertex
100
AcDb2dVertex
 10
-357.2594040575915
 20
516.30853722760344
 30
0.0
  0
VERTEX
  5
184
100
AcDbEntity
  8
OBJECT
 62
               0
100
AcDbVertex
100
AcDb2dVertex
 10
-357.94074466193558
 20
517.37674426294052
 30
0.0
  0
VERTEX
  5
185
100
AcDbEntity
  8
OBJECT
 62
               0
100
AcDbVertex
100
AcDb2dVertex
 10
-358.8139454549347
 20
518.37949160221717
 30
0.0
  0
VERTEX
  5
186
100
AcDbEntity
  8
OBJECT
 62
               0
100
AcDbVertex
100
AcDb2dVertex
 10
-359.89099755586744
 20
519.31900053402342
 30
0.0
  0
VERTEX
  5
187
100
AcDbEntity
  8
OBJECT
 62
               0
100
AcDbVertex
100
AcDb2dVertex
 10
-361.1813356660931
 20
520.18738235536262
 30
0.0
  0
VERTEX
  5
188
100
AcDbEntity
  8
OBJECT
 62
               0
100
AcDbVertex
100
AcDb2dVertex
 10
-362.67256569150368
 20
520.96430915672556
 30
0.0
  0
VERTEX
  5
189
100
AcDbEntity
  8
OBJECT
 62
               0
100
AcDbVertex
100
AcDb2dVertex
 10
-364.32401624356453
 20
521.62668472456892
 30
0.0
  0
VERTEX
  5
18A
100
AcDbEntity
  8
OBJECT
 62
               0
100
AcDbVertex
100
AcDb2dVertex
 10
-366.08655846039187
 20
522.16193956531163
 30
0.0
  0
VERTEX
  5
18B
100
AcDbEntity
  8
OBJECT
 62
               0
100
AcDbVertex
100
AcDb2dVertex
 10
-367.93033492339305
 20
522.57056185521105
 30
0.0
  0
VERTEX
  5
18C
100
AcDbEntity
  8
OBJECT
 62
               0
100
AcDbVertex
100
AcDb2dVertex
 10
-369.83203070948696
 20
522.85488109088203
 30
0.0
  0
VERTEX
  5
18D
100
AcDbEntity
  8
OBJECT
 62
               0
100
AcDbVertex
100
AcDb2dVertex
 10
-371.77048676213838
 20
523.01672821724696
 30
0.0
  0
VERTEX
  5
18E
100
AcDbEntity
  8
OBJECT
 62
               0
100
AcDbVertex
100
AcDb2dVertex
 10
-373.39999998613564
 20
523.0588234577715
 30
0.0
  0
SEQEND
  5
18F
100
AcDbEntity
  8
OBJECT
 62
               0
  0
LINE
  5
190
100
AcDbEntity
  8
OBJECT
 62
               0
100
AcDbLine
 10
-373.40000001685667
 20
523.0588234577715
 30
0.0
 11
-427.40000001685667
 21
523.05882345777138
 31
0.0
  0
LINE
  5
191
100
AcDbEntity
  8
OBJECT
 62
               0
100
AcDbLine
 10
-427.39999998314363
 20
515.05882345777138
 30
0.0
 11
-373.39999998314363
 21
515.0588234577715
 31
0.0
  0
POLYLINE
  5
192
100
AcDbEntity
  8
OBJECT
 62
               0
100
AcDb2dPolyline
 66
               1
 10
0.0
 20
0.0
 30
0.0
 75
               5
  0
VERTEX
  5
193
100
AcDbEntity
  8
OBJECT
 62
               0
100
AcDbVertex
100
AcDb2dVertex
 10
-436.48112599164619
 20
512.54513449252045
 30
0.0
  0
VERTEX
  5
194
100
AcDbEntity
  8
OBJECT
 62
               0
100
AcDbVertex
100
AcDb2dVertex
 10
-436.47152962602524
 20
512.55976268896791
 30
0.0
  0
VERTEX
  5
195
100
AcDbEntity
  8
OBJECT
 62
               0
100
AcDbVertex
100
AcDb2dVertex
 10
-436.33351831340872
 20
512.71832261330053
 30
0.0
  0
VERTEX
  5
196
100
AcDbEntity
  8
OBJECT
 62
               0
100
AcDbVertex
100
AcDb2dVertex
 10
-436.01290312952528
 20
512.99184653681311
 30
0.0
  0
VERTEX
  5
197
100
AcDbEntity
  8
OBJECT
 62
               0
100
AcDbVertex
100
AcDb2dVertex
 10
-435.49351516514673
 20
513.33246863201452
 30
0.0
  0
VERTEX
  5
198
100
AcDbEntity
  8
OBJECT
 62
               0
100
AcDbVertex
100
AcDb2dVertex
 10
-434.77179617393358
 20
513.70199012123351
 30
0.0
  0
VERTEX
  5
199
100
AcDbEntity
  8
OBJECT
 62
               0
100
AcDbVertex
100
AcDb2dVertex
 10
-433.85249677410957
 20
514.06904621693639
 30
0.0
  0
VERTEX
  5
19A
100
AcDbEntity
  8
OBJECT
 62
               0
100
AcDbVertex
100
AcDb2dVertex
 10
-432.75218468682749
 20
514.40572242750579
 30
0.0
  0
VERTEX
  5
19B
100
AcDbEntity
  8
OBJECT
 62
               0
100
AcDbVertex
100
AcDb2dVertex
 10
-431.49731126986569
 20
514.68857483404486
 30
0.0
  0
VERTEX
  5
19C
100
AcDbEntity
  8
OBJECT
 62
               0
100
AcDbVertex
100
AcDb2dVertex
 10
-430.12156677209543
 20
514.89930139864009
 30
0.0
  0
VERTEX
  5
19D
100
AcDbEntity
  8
OBJECT
 62
               0
100
AcDbVertex
100
AcDb2dVertex
 10
-428.66338564530872
 20
515.02491821705814
 30
0.0
  0
VERTEX
  5
19E
100
AcDbEntity
  8
OBJECT
 62
               0
100
AcDbVertex
100
AcDb2dVertex
 10
-427.39999998964277
 20
515.05882345777138
 30
0.0
  0
SEQEND
  5
19F
100
AcDbEntity
  8
OBJECT
 62
               0
  0
POLYLINE
  5
1A0
100
AcDbEntity
  8
OBJECT
 62
               0
100
AcDb2dPolyline
 66
               1
 10
0.0
 20
0.0
 30
0.0
 75
               5
  0
VERTEX
  5
1A1
100
AcDbEntity
  8
OBJECT
 62
               0
100
AcDbVertex
100
AcDb2dVertex
 10
-427.39999998613553
 20
523.05882345777138
 30
0.0
  0
VERTEX
  5
1A2
100
AcDbEntity
  8
OBJECT
 62
               0
100
AcDbVertex
100
AcDb2dVertex
 10
-428.44265799028244
 20
523.04161648870127
 30
0.0
  0
VERTEX
  5
1A3
100
AcDbEntity
  8
OBJECT
 62
               0
100
AcDbVertex
100
AcDb2dVertex
 10
-430.38367711663955
 20
522.91677850992869
 30
0.0
  0
VERTEX
  5
1A4
100
AcDbEntity
  8
OBJECT
 62
               0
100
AcDbVertex
100
AcDb2dVertex
 10
-432.2901553168266
 20
522.67110818017625
 30
0.0
  0
VERTEX
  5
1A5
100
AcDbEntity
  8
OBJECT
 62
               0
100
AcDbVertex
100
AcDb2dVertex
 10
-434.1417782050944
 20
522.30384510136935
 30
0.0
  0
VERTEX
  5
1A6
100
AcDbEntity
  8
OBJECT
 62
               0
100
AcDbVertex
100
AcDb2dVertex
 10
-435.92062573375176
 20
521.81243795966679
 30
0.0
  0
VERTEX
  5
1A7
100
AcDbEntity
  8
OBJECT
 62
               0
100
AcDbVertex
100
AcDb2dVertex
 10
-437.61011434326053
 20
521.19123615057083
 30
0.0
  0
VERTEX
  5
1A8
100
AcDbEntity
  8
OBJECT
 62
               0
100
AcDbVertex
100
AcDb2dVertex
 10
-439.19330280820805
 20
520.42993784785153
 30
0.0
  0
VERTEX
  5
1A9
100
AcDbEntity
  8
OBJECT
 62
               0
100
AcDbVertex
100
AcDb2dVertex
 10
-440.64755962872403
 20
519.51372155470278
 30
0.0
  0
VERTEX
  5
1AA
100
AcDbEntity
  8
OBJECT
 62
               0
100
AcDbVertex
100
AcDb2dVertex
 10
-441.79272862821358
 20
518.56747970186257
 30
0.0
  0
VERTEX
  5
1AB
100
AcDbEntity
  8
OBJECT
 62
               0
100
AcDbVertex
100
AcDb2dVertex
 10
-442.72581638331883
 20
517.5501439745567
 30
0.0
  0
VERTEX
  5
1AC
100
AcDbEntity
  8
OBJECT
 62
               0
100
AcDbVertex
100
AcDb2dVertex
 10
-443.44914796554087
 20
516.47535556406945
 30
0.0
  0
VERTEX
  5
1AD
100
AcDbEntity
  8
OBJECT
 62
               0
100
AcDbVertex
100
AcDb2dVertex
 10
-443.96922751911347
 20
515.35013566386351
 30
0.0
  0
VERTEX
  5
1AE
100
AcDbEntity
  8
OBJECT
 62
               0
100
AcDbVertex
100
AcDb2dVertex
 10
-444.28709586079458
 20
514.18405527839082
 30
0.0
  0
VERTEX
  5
1AF
100
AcDbEntity
  8
OBJECT
 62
               0
100
AcDbVertex
100
AcDb2dVertex
 10
-444.40000000000009
 20
512.94117658809728
 30
0.0
  0
SEQEND
  5
1B0
100
AcDbEntity
  8
OBJECT
 62
               0
  0
LINE
  5
1B1
100
AcDbEntity
  8
OBJECT
 62
               0
100
AcDbLine
 10
-444.40000000000009
 20
512.94117647058829
 30
0.0
 11
-444.40000000000009
 21
512.00000000000023
 31
0.0
  0
LINE
  5
1B2
100
AcDbEntity
  8
OBJECT
 62
               0
100
AcDbLine
 10
-436.40000000000009
 20
512.00000000000011
 30
0.0
 11
-436.40000000000009
 21
512.55224249594539
 31
0.0
  0
LINE
  5
1B3
100
AcDbEntity
  8
OBJECT
 62
               0
100
AcDbLine
 10
-364.40000000000009
 20
512.55962132773038
 30
0.0
 11
-364.40000000000009
 21
512.00000000000023
 31
0.0
  0
LINE
  5
1B4
100
AcDbEntity
  8
OBJECT
 62
               0
100
AcDbLine
 10
-356.40000000000009
 20
512.00000000000023
 30
0.0
 11
-356.40000000000009
 21
512.9411764705884
 31
0.0
  0
POINT
  5
1B5
100
AcDbEntity
  8
OBJECT
  6
CONTINUOUS
 62
               0
100
AcDbPoint
 10
-360.40000000000009
 20
512.00000000000023
 30
0.0
  0
ENDBLK
  5
1B6
100
AcDbEntity
  8
OBJECT
100
AcDbBlockEnd
  0
BLOCK
  5
1B7
100
AcDbEntity
  8
OBJECT
100
AcDbBlockBegin
  2
*U25
 70
               1
 10
0.0
 20
0.0
 30
0.0
  3
*U25
  1

  0
ARC
  5
1B8
100
AcDbEntity
  8
OBJECT
 62
               0
100
AcDbCircle
 10
-440.40000000000009
 20
170.00000000000023
 30
0.0
 40
4.0
100
AcDbArc
 50
0.0
 51
90.0
  0
ARC
  5
1B9
100
AcDbEntity
  8
OBJECT
 62
               0
100
AcDbCircle
 10
-440.40000000000009
 20
170.00000000000023
 30
0.0
 40
4.0
100
AcDbArc
 50
90.0
 51
180.00000000000168
  0
ARC
  5
1BA
100
AcDbEntity
  8
OBJECT
 62
               0
100
AcDbCircle
 10
-360.40000000000009
 20
170.00000000000011
 30
0.0
 40
4.0
100
AcDbArc
 50
0.0
 51
90.0
  0
ARC
  5
1BB
100
AcDbEntity
  8
OBJECT
 62
               0
100
AcDbCircle
 10
-360.40000000000009
 20
170.00000000000011
 30
0.0
 40
4.0
100
AcDbArc
 50
90.0
 51
180.0
  0
POLYLINE
  5
1BC
100
AcDbEntity
  8
OBJECT
 62
               0
100
AcDb2dPolyline
 66
               1
 10
0.0
 20
0.0
 30
0.0
 75
               5
  0
VERTEX
  5
1BD
100
AcDbEntity
  8
OBJECT
 62
               0
100
AcDbVertex
100
AcDb2dVertex
 10
-373.39999998964277
 20
166.94117654222885
 30
0.0
  0
VERTEX
  5
1BE
100
AcDbEntity
  8
OBJECT
 62
               0
100
AcDbVertex
100
AcDb2dVertex
 10
-372.62153853765415
 20
166.95401983349279
 30
0.0
  0
VERTEX
  5
1BF
100
AcDbEntity
  8
OBJECT
 62
               0
100
AcDbVertex
100
AcDb2dVertex
 10
-371.13571214153978
 20
167.05099185850793
 30
0.0
  0
VERTEX
  5
1C0
100
AcDbEntity
  8
OBJECT
 62
               0
100
AcDbVertex
100
AcDb2dVertex
 10
-369.71040673187213
 20
167.23893602418082
 30
0.0
  0
VERTEX
  5
1C1
100
AcDbEntity
  8
OBJECT
 62
               0
100
AcDbVertex
100
AcDb2dVertex
 10
-368.38828605558274
 20
167.5079559208159
 30
0.0
  0
VERTEX
  5
1C2
100
AcDbEntity
  8
OBJECT
 62
               0
100
AcDbVertex
100
AcDb2dVertex
 10
-367.20850744483448
 20
167.84227640398115
 30
0.0
  0
VERTEX
  5
1C3
100
AcDbEntity
  8
OBJECT
 62
               0
100
AcDbVertex
100
AcDb2dVertex
 10
-366.20624812101482
 20
168.2193027988809
 30
0.0
  0
VERTEX
  5
1C4
100
AcDbEntity
  8
OBJECT
 62
               0
100
AcDbVertex
100
AcDb2dVertex
 10
-365.40992714674462
 20
168.60861310665234
 30
0.0
  0
VERTEX
  5
1C5
100
AcDbEntity
  8
OBJECT
 62
               0
100
AcDbVertex
100
AcDb2dVertex
 10
-364.83679253250989
 20
168.97142685038318
 30
0.0
  0
VERTEX
  5
1C6
100
AcDbEntity
  8
OBJECT
 62
               0
100
AcDbVertex
100
AcDb2dVertex
 10
-364.48673128340374
 20
169.26172081214168
 30
0.0
  0
VERTEX
  5
1C7
100
AcDbEntity
  8
OBJECT
 62
               0
100
AcDbVertex
100
AcDb2dVertex
 10
-364.33545972547722
 20
169.43041354353011
 30
0.0
  0
VERTEX
  5
1C8
100
AcDbEntity
  8
OBJECT
 62
               0
100
AcDbVertex
100
AcDb2dVertex
 10
-364.31887412063691
 20
169.45486546716279
 30
0.0
  0
SEQEND
  5
1C9
100
AcDbEntity
  8
OBJECT
 62
               0
  0
POLYLINE
  5
1CA
100
AcDbEntity
  8
OBJECT
 62
               0
100
AcDb2dPolyline
 66
               1
 10
0.0
 20
0.0
 30
0.0
 75
               5
  0
VERTEX
  5
1CB
100
AcDbEntity
  8
OBJECT
 62
               0
100
AcDbVertex
100
AcDb2dVertex
 10
-356.40000011641541
 20
169.05882350169179
 30
0.0
  0
VERTEX
  5
1CC
100
AcDbEntity
  8
OBJECT
 62
               0
100
AcDbVertex
100
AcDb2dVertex
 10
-356.47572461903678
 20
168.04002771573346
 30
0.0
  0
VERTEX
  5
1CD
100
AcDbEntity
  8
OBJECT
 62
               0
100
AcDbVertex
100
AcDb2dVertex
 10
-356.76766212697953
 20
166.82988917553041
 30
0.0
  0
VERTEX
  5
1CE
100
AcDbEntity
  8
OBJECT
 62
               0
100
AcDbVertex
100
AcDb2dVertex
 10
-357.2594040575915
 20
165.6914627723969
 30
0.0
  0
VERTEX
  5
1CF
100
AcDbEntity
  8
OBJECT
 62
               0
100
AcDbVertex
100
AcDb2dVertex
 10
-357.94074466193558
 20
164.62325573705982
 30
0.0
  0
VERTEX
  5
1D0
100
AcDbEntity
  8
OBJECT
 62
               0
100
AcDbVertex
100
AcDb2dVertex
 10
-358.8139454549347
 20
163.62050839778317
 30
0.0
  0
VERTEX
  5
1D1
100
AcDbEntity
  8
OBJECT
 62
               0
100
AcDbVertex
100
AcDb2dVertex
 10
-359.89099755586744
 20
162.68099946597692
 30
0.0
  0
VERTEX
  5
1D2
100
AcDbEntity
  8
OBJECT
 62
               0
100
AcDbVertex
100
AcDb2dVertex
 10
-361.1813356660931
 20
161.81261764463773
 30
0.0
  0
VERTEX
  5
1D3
100
AcDbEntity
  8
OBJECT
 62
               0
100
AcDbVertex
100
AcDb2dVertex
 10
-362.67256569150368
 20
161.03569084327478
 30
0.0
  0
VERTEX
  5
1D4
100
AcDbEntity
  8
OBJECT
 62
               0
100
AcDbVertex
100
AcDb2dVertex
 10
-364.32401624356453
 20
160.37331527543142
 30
0.0
  0
VERTEX
  5
1D5
100
AcDbEntity
  8
OBJECT
 62
               0
100
AcDbVertex
100
AcDb2dVertex
 10
-366.08655846039187
 20
159.83806043468871
 30
0.0
  0
VERTEX
  5
1D6
100
AcDbEntity
  8
OBJECT
 62
               0
100
AcDbVertex
100
AcDb2dVertex
 10
-367.93033492339305
 20
159.42943814478929
 30
0.0
  0
VERTEX
  5
1D7
100
AcDbEntity
  8
OBJECT
 62
               0
100
AcDbVertex
100
AcDb2dVertex
 10
-369.83203070948696
 20
159.14511890911831
 30
0.0
  0
VERTEX
  5
1D8
100
AcDbEntity
  8
OBJECT
 62
               0
100
AcDbVertex
100
AcDb2dVertex
 10
-371.77048676213838
 20
158.98327178275338
 30
0.0
  0
VERTEX
  5
1D9
100
AcDbEntity
  8
OBJECT
 62
               0
100
AcDbVertex
100
AcDb2dVertex
 10
-373.39999998613564
 20
158.94117654222885
 30
0.0
  0
SEQEND
  5
1DA
100
AcDbEntity
  8
OBJECT
 62
               0
  0
LINE
  5
1DB
100
AcDbEntity
  8
OBJECT
 62
               0
100
AcDbLine
 10
-373.40000001685667
 20
158.94117654222885
 30
0.0
 11
-427.40000001685667
 21
158.94117654222896
 31
0.0
  0
LINE
  5
1DC
100
AcDbEntity
  8
OBJECT
 62
               0
100
AcDbLine
 10
-427.39999998314363
 20
166.94117654222896
 30
0.0
 11
-373.39999998314363
 21
166.94117654222885
 31
0.0
  0
POLYLINE
  5
1DD
100
AcDbEntity
  8
OBJECT
 62
               0
100
AcDb2dPolyline
 66
               1
 10
0.0
 20
0.0
 30
0.0
 75
               5
  0
VERTEX
  5
1DE
100
AcDbEntity
  8
OBJECT
 62
               0
100
AcDbVertex
100
AcDb2dVertex
 10
-436.48112599164619
 20
169.45486550747989
 30
0.0
  0
VERTEX
  5
1DF
100
AcDbEntity
  8
OBJECT
 62
               0
100
AcDbVertex
100
AcDb2dVertex
 10
-436.47152962602524
 20
169.44023731103243
 30
0.0
  0
VERTEX
  5
1E0
100
AcDbEntity
  8
OBJECT
 62
               0
100
AcDbVertex
100
AcDb2dVertex
 10
-436.33351831340872
 20
169.28167738669981
 30
0.0
  0
VERTEX
  5
1E1
100
AcDbEntity
  8
OBJECT
 62
               0
100
AcDbVertex
100
AcDb2dVertex
 10
-436.01290312952528
 20
169.00815346318723
 30
0.0
  0
VERTEX
  5
1E2
100
AcDbEntity
  8
OBJECT
 62
               0
100
AcDbVertex
100
AcDb2dVertex
 10
-435.49351516514673
 20
168.66753136798582
 30
0.0
  0
VERTEX
  5
1E3
100
AcDbEntity
  8
OBJECT
 62
               0
100
AcDbVertex
100
AcDb2dVertex
 10
-434.77179617393358
 20
168.29800987876683
 30
0.0
  0
VERTEX
  5
1E4
100
AcDbEntity
  8
OBJECT
 62
               0
100
AcDbVertex
100
AcDb2dVertex
 10
-433.85249677410957
 20
167.93095378306396
 30
0.0
  0
VERTEX
  5
1E5
100
AcDbEntity
  8
OBJECT
 62
               0
100
AcDbVertex
100
AcDb2dVertex
 10
-432.75218468682749
 20
167.59427757249455
 30
0.0
  0
VERTEX
  5
1E6
100
AcDbEntity
  8
OBJECT
 62
               0
100
AcDbVertex
100
AcDb2dVertex
 10
-431.49731126986569
 20
167.31142516595548
 30
0.0
  0
VERTEX
  5
1E7
100
AcDbEntity
  8
OBJECT
 62
               0
100
AcDbVertex
100
AcDb2dVertex
 10
-430.12156677209543
 20
167.10069860136025
 30
0.0
  0
VERTEX
  5
1E8
100
AcDbEntity
  8
OBJECT
 62
               0
100
AcDbVertex
100
AcDb2dVertex
 10
-428.66338564530872
 20
166.9750817829422
 30
0.0
  0
VERTEX
  5
1E9
100
AcDbEntity
  8
OBJECT
 62
               0
100
AcDbVertex
100
AcDb2dVertex
 10
-427.39999998964277
 20
166.94117654222896
 30
0.0
  0
SEQEND
  5
1EA
100
AcDbEntity
  8
OBJECT
 62
               0
  0
POLYLINE
  5
1EB
100
AcDbEntity
  8
OBJECT
 62
               0
100
AcDb2dPolyline
 66
               1
 10
0.0
 20
0.0
 30
0.0
 75
               5
  0
VERTEX
  5
1EC
100
AcDbEntity
  8
OBJECT
 62
               0
100
AcDbVertex
100
AcDb2dVertex
 10
-427.39999998613553
 20
158.94117654222896
 30
0.0
  0
VERTEX
  5
1ED
100
AcDbEntity
  8
OBJECT
 62
               0
100
AcDbVertex
100
AcDb2dVertex
 10
-428.44265799028244
 20
158.95838351129908
 30
0.0
  0
VERTEX
  5
1EE
100
AcDbEntity
  8
OBJECT
 62
               0
100
AcDbVertex
100
AcDb2dVertex
 10
-430.38367711663955
 20
159.08322149007165
 30
0.0
  0
VERTEX
  5
1EF
100
AcDbEntity
  8
OBJECT
 62
               0
100
AcDbVertex
100
AcDb2dVertex
 10
-432.2901553168266
 20
159.32889181982409
 30
0.0
  0
VERTEX
  5
1F0
100
AcDbEntity
  8
OBJECT
 62
               0
100
AcDbVertex
100
AcDb2dVertex
 10
-434.1417782050944
 20
159.69615489863099
 30
0.0
  0
VERTEX
  5
1F1
100
AcDbEntity
  8
OBJECT
 62
               0
100
AcDbVertex
100
AcDb2dVertex
 10
-435.92062573375176
 20
160.18756204033355
 30
0.0
  0
VERTEX
  5
1F2
100
AcDbEntity
  8
OBJECT
 62
               0
100
AcDbVertex
100
AcDb2dVertex
 10
-437.61011434326053
 20
160.80876384942951
 30
0.0
  0
VERTEX
  5
1F3
100
AcDbEntity
  8
OBJECT
 62
               0
100
AcDbVertex
100
AcDb2dVertex
 10
-439.19330280820805
 20
161.57006215214881
 30
0.0
  0
VERTEX
  5
1F4
100
AcDbEntity
  8
OBJECT
 62
               0
100
AcDbVertex
100
AcDb2dVertex
 10
-440.64755962872403
 20
162.48627844529756
 30
0.0
  0
VERTEX
  5
1F5
100
AcDbEntity
  8
OBJECT
 62
               0
100
AcDbVertex
100
AcDb2dVertex
 10
-441.79272862821358
 20
163.43252029813777
 30
0.0
  0
VERTEX
  5
1F6
100
AcDbEntity
  8
OBJECT
 62
               0
100
AcDbVertex
100
AcDb2dVertex
 10
-442.72581638331883
 20
164.44985602544364
 30
0.0
  0
VERTEX
  5
1F7
100
AcDbEntity
  8
OBJECT
 62
               0
100
AcDbVertex
100
AcDb2dVertex
 10
-443.44914796554087
 20
165.5246444359309
 30
0.0
  0
VERTEX
  5
1F8
100
AcDbEntity
  8
OBJECT
 62
               0
100
AcDbVertex
100
AcDb2dVertex
 10
-443.96922751911347
 20
166.64986433613683
 30
0.0
  0
VERTEX
  5
1F9
100
AcDbEntity
  8
OBJECT
 62
               0
100
AcDbVertex
100
AcDb2dVertex
 10
-444.28709586079458
 20
167.81594472160953
 30
0.0
  0
VERTEX
  5
1FA
100
AcDbEntity
  8
OBJECT
 62
               0
100
AcDbVertex
100
AcDb2dVertex
 10
-444.40000000000009
 20
169.05882341190306
 30
0.0
  0
SEQEND
  5
1FB
100
AcDbEntity
  8
OBJECT
 62
               0
  0
LINE
  5
1FC
100
AcDbEntity
  8
OBJECT
 62
               0
100
AcDbLine
 10
-444.40000000000009
 20
169.05882352941205
 30
0.0
 11
-444.40000000000009
 21
170.00000000000011
 31
0.0
  0
LINE
  5
1FD
100
AcDbEntity
  8
OBJECT
 62
               0
100
AcDbLine
 10
-436.40000000000009
 20
170.00000000000023
 30
0.0
 11
-436.40000000000009
 21
169.44775750405495
 31
0.0
  0
LINE
  5
1FE
100
AcDbEntity
  8
OBJECT
 62
               0
100
AcDbLine
 10
-364.40000000000009
 20
169.44037867226996
 30
0.0
 11
-364.40000000000009
 21
170.00000000000011
 31
0.0
  0
LINE
  5
1FF
100
AcDbEntity
  8
OBJECT
 62
               0
100
AcDbLine
 10
-356.40000000000009
 20
170.00000000000011
 30
0.0
 11
-356.40000000000009
 21
169.05882352941194
 31
0.0
  0
POINT
  5
200
100
AcDbEntity
  8
OBJECT
  6
CONTINUOUS
 62
               0
100
AcDbPoint
 10
-360.40000000000009
 20
170.00000000000011
 30
0.0
  0
ENDBLK
  5
201
100
AcDbEntity
  8
OBJECT
100
AcDbBlockEnd
  0
BLOCK
  5
202
100
AcDbEntity
  8
DIMENTION
100
AcDbBlockBegin
  2
*D26
 70
               1
 10
0.0
 20
0.0
 30
0.0
  3
*D26
  1

  0
LINE
  5
203
100
AcDbEntity
  8
DIMENTION
 62
               0
100
AcDbLine
 10
-2485.2966177003418
 20
1448.9424303042372
 30
0.0
 11
-2790.0
 21
1448.9424303042372
 31
0.0
  0
LINE
  5
204
100
AcDbEntity
  8
DIMENTION
 62
               0
100
AcDbLine
 10
-2635.0
 20
950.0
 30
0.0
 11
-2790.0
 21
950.0
 31
0.0
  0
LINE
  5
205
100
AcDbEntity
  8
DIMENTION
 62
               0
100
AcDbLine
 10
-2780.0
 20
1448.9424303042372
 30
0.0
 11
-2780.0
 21
950.0
 31
0.0
  0
LINE
  5
206
100
AcDbEntity
  8
DIMENTION
 62
               0
100
AcDbLine
 10
-2780.0
 20
1448.9424303042372
 30
0.0
 11
-2775.7463065701559
 21
1433.0674303042372
 31
0.0
  0
LINE
  5
207
100
AcDbEntity
  8
DIMENTION
 62
               0
100
AcDbLine
 10
-2780.0
 20
1448.9424303042372
 30
0.0
 11
-2784.2536934298441
 21
1433.0674303042372
 31
0.0
  0
LINE
  5
208
100
AcDbEntity
  8
DIMENTION
 62
               0
100
AcDbLine
 10
-2780.0
 20
950.0
 30
0.0
 11
-2784.2536934298441
 21
965.875
 31
0.0
  0
LINE
  5
209
100
AcDbEntity
  8
DIMENTION
 62
               0
100
AcDbLine
 10
-2780.0
 20
950.0
 30
0.0
 11
-2775.7463065701559
 21
965.875
 31
0.0
  0
MTEXT
  5
20A
100
AcDbEntity
  8
DIMENTION
 62
               0
100
AcDbMText
 10
-2801.6666666648043
 20
1183.5962151521185
 30
0.0
 40
16.933333333333334
 41
0.0
 71
               1
 72
               1
  1
500
  7
________
 11
0.0
 21
1.0
 31
0.0
  0
POINT
  5
20B
100
AcDbEntity
  8
DEFPOINTS
 62
               0
100
AcDbPoint
 10
-2630.0
 20
950.0
 30
0.0
  0
POINT
  5
20C
100
AcDbEntity
  8
DEFPOINTS
 62
               0
100
AcDbPoint
 10
-2480.2966177003418
 20
1448.9424303042372
 30
0.0
  0
POINT
  5
20D
100
AcDbEntity
  8
DEFPOINTS
 62
               0
100
AcDbPoint
 10
-2780.0
 20
1448.9424303042372
 30
0.0
  0
ENDBLK
  5
20E
100
AcDbEntity
  8
DIMENTION
100
AcDbBlockEnd
  0
ENDSEC
  0
SECTION
  2
ENTITIES
  0
LINE
  5
20F
100
AcDbEntity
  8
OBJECT
  6
CONTINUOUS
100
AcDbLine
 10
-3062.3999999999996
 20
730.39999999999986
 30
0.0
 11
-3062.3999999999996
 21
2090.3999999999996
 31
0.0
  0
LINE
  5
210
100
AcDbEntity
  8
OBJECT
  6
CONTINUOUS
100
AcDbLine
 10
-1037.4000000000001
 20
730.39999999999986
 30
0.0
 11
-3062.3999999999996
 21
730.39999999999986
 31
0.0
  0
LINE
  5
211
100
AcDbEntity
  8
OBJECT
  6
CONTINUOUS
100
AcDbLine
 10
-1037.4000000000001
 20
2090.3999999999996
 30
0.0
 11
-1037.4000000000001
 21
730.39999999999986
 31
0.0
  0
LINE
  5
212
100
AcDbEntity
  8
OBJECT
  6
CONTINUOUS
100
AcDbLine
 10
-3062.3999999999996
 20
2090.3999999999996
 30
0.0
 11
-1037.4000000000001
 21
2090.3999999999996
 31
0.0
  0
LINE
  5
213
100
AcDbEntity
  8
OBJECT
  6
CONTINUOUS
100
AcDbLine
 10
-1417.52
 20
730.39999999999986
 30
0.0
 11
-1417.52
 21
800.39999999999986
 31
0.0
  0
LINE
  5
214
100
AcDbEntity
  8
OBJECT
  6
CONTINUOUS
100
AcDbLine
 10
-1527.52
 20
730.39999999999986
 30
0.0
 11
-1527.52
 21
800.39999999999986
 31
0.0
  0
LINE
  5
215
100
AcDbEntity
  8
OBJECT
  6
CONTINUOUS
100
AcDbLine
 10
-1827.52
 20
730.39999999999986
 30
0.0
 11
-1827.52
 21
800.39999999999986
 31
0.0
  0
LINE
  5
216
100
AcDbEntity
  8
OBJECT
  6
CONTINUOUS
100
AcDbLine
 10
-2387.3999999999996
 20
730.39999999999986
 30
0.0
 11
-2387.3999999999996
 21
800.39999999999986
 31
0.0
  0
MTEXT
  5
217
100
AcDbEntity
  8
OBJECT
100
AcDbMText
 10
-2375.02
 20
797.83499999999981
 30
0.0
 40
14.11112
 41
109.36099999999999
 71
               1
 72
               1
  1
品　名
  7
________
  0
MTEXT
  5
218
100
AcDbEntity
  8
OBJECT
100
AcDbMText
 10
-1817.52
 20
795.33499999999981
 30
0.0
 40
14.11112
 41
0.0
 71
               1
 72
               1
  1
形　式
  7
________
  0
MTEXT
  5
219
100
AcDbEntity
  8
OBJECT
100
AcDbMText
 10
-1515.02
 20
795.33499999999981
 30
0.0
 40
14.11112
 41
0.0
 71
               1
 72
               1
  1
尺　度
  7
________
  0
MTEXT
  5
21A
100
AcDbEntity
  8
OBJECT
100
AcDbMText
 10
-1405.02
 20
795.33499999999981
 30
0.0
 40
14.11112
 41
0.0
 71
               1
 72
               1
  1
図　番
  7
________
  0
LINE
  5
21B
100
AcDbEntity
  8
OBJECT
  6
CONTINUOUS
100
AcDbLine
 10
-2597.3999999999996
 20
730.39999999999986
 30
0.0
 11
-2597.3999999999996
 21
800.39999999999986
 31
0.0
  0
LINE
  5
21C
100
AcDbEntity
  8
OBJECT
  6
CONTINUOUS
100
AcDbLine
 10
-3062.3999999999996
 20
800.39999999999986
 30
0.0
 11
-1037.4000000000001
 21
800.39999999999986
 31
0.0
  0
MTEXT
  5
21D
100
AcDbEntity
  8
OBJECT
100
AcDbMText
 10
-2592.52
 20
796.34559999999988
 30
0.0
 40
14.11112
 41
0.0
 71
               1
 72
               1
  1
検  図
  7
________
  0
MTEXT
  5
21E
100
AcDbEntity
  8
OBJECT
100
AcDbMText
 10
-2592.52
 20
773.80499999999984
 30
0.0
 40
14.11112
 41
0.0
 71
               1
 72
               1
  1
担  当
  7
________
  0
MTEXT
  5
21F
100
AcDbEntity
  8
OBJECT
100
AcDbMText
 10
-2592.52
 20
751.36999999999978
 30
0.0
 40
14.11112
 41
0.0
 71
               1
 72
               1
  1
年月日
  7
________
  0
LINE
  5
220
100
AcDbEntity
  8
OBJECT
  6
CONTINUOUS
100
AcDbLine
 10
-2597.3999999999996
 20
775.92999999999984
 30
0.0
 11
-2387.3999999999996
 21
775.92999999999984
 31
0.0
  0
LINE
  5
221
100
AcDbEntity
  8
OBJECT
  6
CONTINUOUS
100
AcDbLine
 10
-2597.3999999999996
 20
753.73499999999979
 30
0.0
 11
-2387.3999999999996
 21
753.73499999999979
 31
0.0
  0
POLYLINE
  5
222
100
AcDbEntity
  8
OBJECT
100
AcDb2dPolyline
 66
               1
 10
0.0
 20
0.0
 30
0.0
 70
               1
 75
               5
  0
VERTEX
  5
223
100
AcDbEntity
  8
OBJECT
100
AcDbVertex
100
AcDb2dVertex
 10
-2630.0
 20
980.0
 30
0.0
  0
VERTEX
  5
224
100
AcDbEntity
  8
OBJECT
100
AcDbVertex
100
AcDb2dVertex
 10
-2270.0
 20
980.0
 30
0.0
  0
VERTEX
  5
225
100
AcDbEntity
  8
OBJECT
100
AcDbVertex
100
AcDb2dVertex
 10
-2270.0
 20
950.0
 30
0.0
  0
VERTEX
  5
226
100
AcDbEntity
  8
OBJECT
100
AcDbVertex
100
AcDb2dVertex
 10
-2630.0
 20
950.0
 30
0.0
  0
SEQEND
  5
227
100
AcDbEntity
  8
OBJECT
  0
POLYLINE
  5
228
100
AcDbEntity
  8
OBJECT
100
AcDb2dPolyline
 66
               1
 10
0.0
 20
0.0
 30
0.0
 70
               1
 75
               5
  0
VERTEX
  5
229
100
AcDbEntity
  8
OBJECT
100
AcDbVertex
100
AcDb2dVertex
 10
-1850.0
 20
980.0
 30
0.0
  0
VERTEX
  5
22A
100
AcDbEntity
  8
OBJECT
100
AcDbVertex
100
AcDb2dVertex
 10
-1455.0
 20
980.0
 30
0.0
  0
VERTEX
  5
22B
100
AcDbEntity
  8
OBJECT
100
AcDbVertex
100
AcDb2dVertex
 10
-1455.0
 20
950.0
 30
0.0
  0
VERTEX
  5
22C
100
AcDbEntity
  8
OBJECT
100
AcDbVertex
100
AcDb2dVertex
 10
-1850.0
 20
950.0
 30
0.0
  0
SEQEND
  5
22D
100
AcDbEntity
  8
OBJECT
  0
POLYLINE
  5
22E
100
AcDbEntity
  8
OBJECT
100
AcDb2dPolyline
 66
               1
 10
0.0
 20
0.0
 30
0.0
 70
               1
 75
               5
  0
VERTEX
  5
22F
100
AcDbEntity
  8
OBJECT
100
AcDbVertex
100
AcDb2dVertex
 10
-2630.0
 20
1190.0
 30
0.0
  0
VERTEX
  5
230
100
AcDbEntity
  8
OBJECT
100
AcDbVertex
100
AcDb2dVertex
 10
-2270.0
 20
1190.0
 30
0.0
  0
VERTEX
  5
231
100
AcDbEntity
  8
OBJECT
100
AcDbVertex
100
AcDb2dVertex
 10
-2270.0
 20
980.0
 30
0.0
  0
VERTEX
  5
232
100
AcDbEntity
  8
OBJECT
100
AcDbVertex
100
AcDb2dVertex
 10
-2630.0
 20
980.0
 30
0.0
  0
SEQEND
  5
233
100
AcDbEntity
  8
OBJECT
  0
POLYLINE
  5
234
100
AcDbEntity
  8
OBJECT
100
AcDb2dPolyline
 66
               1
 10
0.0
 20
0.0
 30
0.0
 70
               1
 75
               5
  0
VERTEX
  5
235
100
AcDbEntity
  8
OBJECT
100
AcDbVertex
100
AcDb2dVertex
 10
-2630.0
 20
1395.0
 30
0.0
  0
VERTEX
  5
236
100
AcDbEntity
  8
OBJECT
100
AcDbVertex
100
AcDb2dVertex
 10
-2270.0
 20
1395.0
 30
0.0
  0
VERTEX
  5
237
100
AcDbEntity
  8
OBJECT
100
AcDbVertex
100
AcDb2dVertex
 10
-2270.0
 20
1190.0
 30
0.0
  0
VERTEX
  5
238
100
AcDbEntity
  8
OBJECT
100
AcDbVertex
100
AcDb2dVertex
 10
-2630.0
 20
1190.0
 30
0.0
  0
SEQEND
  5
239
100
AcDbEntity
  8
OBJECT
  0
POLYLINE
  5
23A
100
AcDbEntity
  8
OBJECT
100
AcDb2dPolyline
 66
               1
 10
0.0
 20
0.0
 30
0.0
 75
               5
  0
VERTEX
  5
23B
100
AcDbEntity
  8
OBJECT
100
AcDbVertex
100
AcDb2dVertex
 10
-2412.3615509525712
 20
1595.0
 30
0.0
  0
VERTEX
  5
23C
100
AcDbEntity
  8
OBJECT
100
AcDbVertex
100
AcDb2dVertex
 10
-2270.0
 20
1595.0
 30
0.0
  0
VERTEX
  5
23D
100
AcDbEntity
  8
OBJECT
100
AcDbVertex
100
AcDb2dVertex
 10
-2270.0
 20
1955.0
 30
0.0
  0
VERTEX
  5
23E
100
AcDbEntity
  8
OBJECT
100
AcDbVertex
100
AcDb2dVertex
 10
-2412.3615509525712
 20
1955.0
 30
0.0
  0
SEQEND
  5
23F
100
AcDbEntity
  8
OBJECT
  0
POLYLINE
  5
240
100
AcDbEntity
  8
OBJECT
100
AcDb2dPolyline
 66
               1
 10
0.0
 20
0.0
 30
0.0
 75
               5
  0
VERTEX
  5
241
100
AcDbEntity
  8
OBJECT
100
AcDbVertex
100
AcDb2dVertex
 10
-2487.6078071616776
 20
1595.0
 30
0.0
  0
VERTEX
  5
242
100
AcDbEntity
  8
OBJECT
100
AcDbVertex
100
AcDb2dVertex
 10
-2630.0
 20
1595.0
 30
0.0
  0
VERTEX
  5
243
100
AcDbEntity
  8
OBJECT
100
AcDbVertex
100
AcDb2dVertex
 10
-2630.0
 20
1955.0
 30
0.0
  0
VERTEX
  5
244
100
AcDbEntity
  8
OBJECT
100
AcDbVertex
100
AcDb2dVertex
 10
-2487.6078071616771
 20
1955.0
 30
0.0
  0
SEQEND
  5
245
100
AcDbEntity
  8
OBJECT
  0
LWPOLYLINE
  5
246
100
AcDbEntity
  8
OBJECT
100
AcDbPolyline
 90
        5
 70
             129
 10
-1674.0
 20
1180.0
 42
-0.414213562373095
 10
-1671.5
 20
1182.5
 42
-0.414213562373095
 10
-1669.0
 20
1180.0
 42
-0.414213562373095
 10
-1671.5
 20
1177.5
 42
-0.414213562373095
 10
-1674.0
 20
1180.0
 42
-0.414213562373095
  0
LWPOLYLINE
  5
247
100
AcDbEntity
  8
OBJECT
100
AcDbPolyline
 90
        5
 70
             129
 10
-1724.0
 20
1180.0
 42
-0.414213562373095
 10
-1721.5
 20
1182.5
 42
-0.414213562373095
 10
-1719.0
 20
1180.0
 42
-0.414213562373095
 10
-1721.5
 20
1177.5
 42
-0.414213562373095
 10
-1724.0
 20
1180.0
 42
-0.414213562373095
  0
LWPOLYLINE
  5
248
100
AcDbEntity
  8
OBJECT
100
AcDbPolyline
 90
        5
 70
             129
 10
-1719.5
 20
1140.0
 42
-0.414213562373095
 10
-1716.5
 20
1143.0
 42
-0.4142135623731006
 10
-1713.5
 20
1140.0
 42
-0.414213562373095
 10
-1716.5
 20
1137.0
 42
-0.4142135623730895
 10
-1719.5
 20
1140.0
 42
-0.4142135623730895
  0
LWPOLYLINE
  5
249
100
AcDbEntity
  8
OBJECT
100
AcDbPolyline
 90
        5
 70
             129
 10
-1669.1500000000001
 20
1146.0
 42
-0.414213562373095
 10
-1666.9000000000001
 20
1148.25
 42
-0.4142135623731024
 10
-1664.6500000000001
 20
1146.0
 42
-0.414213562373095
 10
-1666.9000000000001
 20
1143.75
 42
-0.4142135623730876
 10
-1669.1500000000001
 20
1146.0
 42
-0.4142135623730876
  0
LINE
  5
24A
100
AcDbEntity
  8
OBJECT
100
AcDbLine
 10
-1676.5
 20
1125.0
 30
0.0
 11
-1711.5
 21
1125.0
 31
0.0
  0
LINE
  5
24B
100
AcDbEntity
  8
OBJECT
100
AcDbLine
 10
-1729.8847799999999
 20
1106.6152199999999
 30
0.0
 11
-1711.5
 21
1125.0
 31
0.0
  0
LINE
  5
24C
100
AcDbEntity
  8
OBJECT
100
AcDbLine
 10
-1756.5
 20
1106.6152199999999
 30
0.0
 11
-1729.8847799999999
 21
1106.6152199999999
 31
0.0
  0
LINE
  5
24D
100
AcDbEntity
  8
OBJECT
100
AcDbLine
 10
-1676.5
 20
1123.0
 30
0.0
 11
-1710.6715800000002
 21
1123.0
 31
0.0
  0
LINE
  5
24E
100
AcDbEntity
  8
OBJECT
100
AcDbLine
 10
-1758.5
 20
1104.6152199999999
 30
0.0
 11
-1729.05636
 21
1104.6152199999999
 31
0.0
  0
LINE
  5
24F
100
AcDbEntity
  8
OBJECT
100
AcDbLine
 10
-1676.5
 20
1125.0
 30
0.0
 11
-1676.5
 21
1123.0
 31
0.0
  0
LINE
  5
250
100
AcDbEntity
  8
OBJECT
100
AcDbLine
 10
-1729.05636
 20
1104.6152199999999
 30
0.0
 11
-1710.6715800000002
 21
1123.0
 31
0.0
  0
LWPOLYLINE
  5
251
100
AcDbEntity
  8
OBJECT
100
AcDbPolyline
 90
        5
 70
             129
 10
-1719.5
 20
1140.0
 42
-0.414213562373095
 10
-1716.5
 20
1143.0
 42
-0.4142135623731006
 10
-1713.5
 20
1140.0
 42
-0.414213562373095
 10
-1716.5
 20
1137.0
 42
-0.4142135623730895
 10
-1719.5
 20
1140.0
 42
-0.4142135623730895
  0
LINE
  5
252
100
AcDbEntity
  8
OBJECT
100
AcDbLine
 10
-1829.8651599999998
 20
1116.8140100000001
 30
0.0
 11
-1832.4995600000002
 21
1123.29937
 31
0.0
  0
LINE
  5
253
100
AcDbEntity
  8
OBJECT
100
AcDbLine
 10
-1829.8651599999998
 20
1116.8140100000001
 30
0.0
 11
-1723.9803099999999
 21
1117.1152099999999
 31
0.0
  0
LWPOLYLINE
  5
254
100
AcDbEntity
  8
OBJECT
100
AcDbPolyline
 90
        5
 70
             129
 10
-1749.9054099999998
 20
1124.0519300000001
 42
-0.414213562373095
 10
-1747.6554099999998
 20
1126.3019300000001
 42
-0.414213562373095
 10
-1745.4054099999998
 20
1124.0519300000001
 42
-0.414213562373095
 10
-1747.6554099999998
 20
1121.8019300000001
 42
-0.414213562373095
 10
-1749.9054099999998
 20
1124.0519300000001
 42
-0.414213562373095
  0
ARC
  5
255
100
AcDbEntity
  8
OBJECT
100
AcDbCircle
 10
-1724.08275
 20
1122.1141699999998
 30
0.0
 40
5.0000095035109222
100
AcDbArc
 50
271.17395583852465
 51
343.7909533208873
  0
LINE
  5
256
100
AcDbEntity
  8
OBJECT
100
AcDbLine
 10
-1832.4995600000002
 20
1123.29937
 30
0.0
 11
-1767.6459399999999
 21
1149.64339
 31
0.0
  0
LINE
  5
257
100
AcDbEntity
  8
OBJECT
100
AcDbLine
 10
-1766.8932500000001
 20
1147.79043
 30
0.0
 11
-1767.6459399999999
 21
1149.64339
 31
0.0
  0
LINE
  5
258
100
AcDbEntity
  8
OBJECT
100
AcDbLine
 10
-1756.5
 20
1117.0227
 30
0.0
 11
-1756.5
 21
1106.6152199999999
 31
0.0
  0
LINE
  5
259
100
AcDbEntity
  8
OBJECT
100
AcDbLine
 10
-1758.5
 20
1104.6152199999999
 30
0.0
 11
-1758.5
 21
1117.01702
 31
0.0
  0
LINE
  5
25A
100
AcDbEntity
  8
OBJECT
100
AcDbLine
 10
-1715.3465500000002
 20
1130.0
 30
0.0
 11
-1719.2814800000001
 21
1120.7184499999998
 31
0.0
  0
LINE
  5
25B
100
AcDbEntity
  8
OBJECT
100
AcDbLine
 10
-1731.5
 20
1162.16743
 30
0.0
 11
-1766.8932500000001
 21
1147.79043
 31
0.0
  0
POLYLINE
  5
25C
100
AcDbEntity
  8
OBJECT
100
AcDb2dPolyline
 66
               1
 10
0.0
 20
0.0
 30
0.0
 70
               1
 75
               5
  0
VERTEX
  5
25D
100
AcDbEntity
  8
OBJECT
100
AcDbVertex
100
AcDb2dVertex
 10
-2466.0
 20
1149.64339
 30
0.0
  0
VERTEX
  5
25E
100
AcDbEntity
  8
OBJECT
100
AcDbVertex
100
AcDb2dVertex
 10
-2434.0
 20
1149.64339
 30
0.0
  0
VERTEX
  5
25F
100
AcDbEntity
  8
OBJECT
100
AcDbVertex
100
AcDb2dVertex
 10
-2434.0
 20
1123.29937
 30
0.0
  0
VERTEX
  5
260
100
AcDbEntity
  8
OBJECT
100
AcDbVertex
100
AcDb2dVertex
 10
-2466.0
 20
1123.29937
 30
0.0
  0
SEQEND
  5
261
100
AcDbEntity
  8
OBJECT
  0
POLYLINE
  5
262
100
AcDbEntity
  8
OBJECT
100
AcDb2dPolyline
 66
               1
 10
0.0
 20
0.0
 30
0.0
 70
               1
 75
               5
  0
VERTEX
  5
263
100
AcDbEntity
  8
OBJECT
100
AcDbVertex
100
AcDb2dVertex
 10
-2463.0
 20
1123.29937
 30
0.0
  0
VERTEX
  5
264
100
AcDbEntity
  8
OBJECT
100
AcDbVertex
100
AcDb2dVertex
 10
-2437.0
 20
1123.29937
 30
0.0
  0
VERTEX
  5
265
100
AcDbEntity
  8
OBJECT
100
AcDbVertex
100
AcDb2dVertex
 10
-2437.0
 20
1104.6152199999999
 30
0.0
  0
VERTEX
  5
266
100
AcDbEntity
  8
OBJECT
100
AcDbVertex
100
AcDb2dVertex
 10
-2463.0
 20
1104.6152199999999
 30
0.0
  0
SEQEND
  5
267
100
AcDbEntity
  8
OBJECT
  0
POLYLINE
  5
268
100
AcDbEntity
  8
OBJECT
100
AcDb2dPolyline
 66
               1
 10
0.0
 20
0.0
 30
0.0
 70
               1
 75
               5
  0
VERTEX
  5
269
100
AcDbEntity
  8
OBJECT
100
AcDbVertex
100
AcDb2dVertex
 10
-2435.0
 20
1123.29937
 30
0.0
  0
VERTEX
  5
26A
100
AcDbEntity
  8
OBJECT
100
AcDbVertex
100
AcDb2dVertex
 10
-2434.0
 20
1123.29937
 30
0.0
  0
VERTEX
  5
26B
100
AcDbEntity
  8
OBJECT
100
AcDbVertex
100
AcDb2dVertex
 10
-2434.0
 20
1116.8140100000001
 30
0.0
  0
VERTEX
  5
26C
100
AcDbEntity
  8
OBJECT
100
AcDbVertex
100
AcDb2dVertex
 10
-2435.0
 20
1116.8140100000001
 30
0.0
  0
SEQEND
  5
26D
100
AcDbEntity
  8
OBJECT
  0
POLYLINE
  5
26E
100
AcDbEntity
  8
OBJECT
100
AcDb2dPolyline
 66
               1
 10
0.0
 20
0.0
 30
0.0
 70
               1
 75
               5
  0
VERTEX
  5
26F
100
AcDbEntity
  8
OBJECT
100
AcDbVertex
100
AcDb2dVertex
 10
-2466.0
 20
1123.29937
 30
0.0
  0
VERTEX
  5
270
100
AcDbEntity
  8
OBJECT
100
AcDbVertex
100
AcDb2dVertex
 10
-2465.0
 20
1123.29937
 30
0.0
  0
VERTEX
  5
271
100
AcDbEntity
  8
OBJECT
100
AcDbVertex
100
AcDb2dVertex
 10
-2465.0
 20
1116.8140100000001
 30
0.0
  0
VERTEX
  5
272
100
AcDbEntity
  8
OBJECT
100
AcDbVertex
100
AcDb2dVertex
 10
-2466.0
 20
1116.8140100000001
 30
0.0
  0
SEQEND
  5
273
100
AcDbEntity
  8
OBJECT
  0
POLYLINE
  5
274
100
AcDbEntity
  8
OBJECT
100
AcDb2dPolyline
 66
               1
 10
0.0
 20
0.0
 30
0.0
 70
               1
 75
               5
  0
VERTEX
  5
275
100
AcDbEntity
  8
OBJECT
100
AcDbVertex
100
AcDb2dVertex
 10
-2435.0
 20
1172.25422
 30
0.0
  0
VERTEX
  5
276
100
AcDbEntity
  8
OBJECT
100
AcDbVertex
100
AcDb2dVertex
 10
-2434.0
 20
1172.25422
 30
0.0
  0
VERTEX
  5
277
100
AcDbEntity
  8
OBJECT
100
AcDbVertex
100
AcDb2dVertex
 10
-2434.0
 20
1149.64339
 30
0.0
  0
VERTEX
  5
278
100
AcDbEntity
  8
OBJECT
100
AcDbVertex
100
AcDb2dVertex
 10
-2435.0
 20
1149.64339
 30
0.0
  0
SEQEND
  5
279
100
AcDbEntity
  8
OBJECT
  0
POLYLINE
  5
27A
100
AcDbEntity
  8
OBJECT
100
AcDb2dPolyline
 66
               1
 10
0.0
 20
0.0
 30
0.0
 70
               1
 75
               5
  0
VERTEX
  5
27B
100
AcDbEntity
  8
OBJECT
100
AcDbVertex
100
AcDb2dVertex
 10
-2466.0
 20
1172.25422
 30
0.0
  0
VERTEX
  5
27C
100
AcDbEntity
  8
OBJECT
100
AcDbVertex
100
AcDb2dVertex
 10
-2465.0
 20
1172.25422
 30
0.0
  0
VERTEX
  5
27D
100
AcDbEntity
  8
OBJECT
100
AcDbVertex
100
AcDb2dVertex
 10
-2465.0
 20
1149.64339
 30
0.0
  0
VERTEX
  5
27E
100
AcDbEntity
  8
OBJECT
100
AcDbVertex
100
AcDb2dVertex
 10
-2466.0
 20
1149.64339
 30
0.0
  0
SEQEND
  5
27F
100
AcDbEntity
  8
OBJECT
  0
POLYLINE
  5
280
100
AcDbEntity
  8
OBJECT
100
AcDb2dPolyline
 66
               1
 10
0.0
 20
0.0
 30
0.0
 75
               5
  0
VERTEX
  5
281
100
AcDbEntity
  8
OBJECT
100
AcDbVertex
100
AcDb2dVertex
 10
-2466.0
 20
1125.0
 30
0.0
  0
VERTEX
  5
282
100
AcDbEntity
  8
OBJECT
100
AcDbVertex
100
AcDb2dVertex
 10
-2472.0
 20
1125.0
 30
0.0
  0
VERTEX
  5
283
100
AcDbEntity
  8
OBJECT
100
AcDbVertex
100
AcDb2dVertex
 10
-2472.0
 20
1185.0
 30
0.0
  0
VERTEX
  5
284
100
AcDbEntity
  8
OBJECT
100
AcDbVertex
100
AcDb2dVertex
 10
-2470.5
 20
1185.0
 30
0.0
  0
VERTEX
  5
285
100
AcDbEntity
  8
OBJECT
100
AcDbVertex
100
AcDb2dVertex
 10
-2470.5
 20
1126.5
 30
0.0
  0
VERTEX
  5
286
100
AcDbEntity
  8
OBJECT
100
AcDbVertex
100
AcDb2dVertex
 10
-2466.0
 20
1126.5
 30
0.0
  0
SEQEND
  5
287
100
AcDbEntity
  8
OBJECT
  0
POLYLINE
  5
288
100
AcDbEntity
  8
OBJECT
100
AcDb2dPolyline
 66
               1
 10
0.0
 20
0.0
 30
0.0
 75
               5
  0
VERTEX
  5
289
100
AcDbEntity
  8
OBJECT
100
AcDbVertex
100
AcDb2dVertex
 10
-2434.0
 20
1125.0
 30
0.0
  0
VERTEX
  5
28A
100
AcDbEntity
  8
OBJECT
100
AcDbVertex
100
AcDb2dVertex
 10
-2428.0
 20
1125.0
 30
0.0
  0
VERTEX
  5
28B
100
AcDbEntity
  8
OBJECT
100
AcDbVertex
100
AcDb2dVertex
 10
-2428.0
 20
1185.0
 30
0.0
  0
VERTEX
  5
28C
100
AcDbEntity
  8
OBJECT
100
AcDbVertex
100
AcDb2dVertex
 10
-2429.5
 20
1185.0
 30
0.0
  0
VERTEX
  5
28D
100
AcDbEntity
  8
OBJECT
100
AcDbVertex
100
AcDb2dVertex
 10
-2429.5
 20
1126.5
 30
0.0
  0
VERTEX
  5
28E
100
AcDbEntity
  8
OBJECT
100
AcDbVertex
100
AcDb2dVertex
 10
-2434.0
 20
1126.5
 30
0.0
  0
SEQEND
  5
28F
100
AcDbEntity
  8
OBJECT
  0
POLYLINE
  5
290
100
AcDbEntity
  8
OBJECT
100
AcDb2dPolyline
 66
               1
 10
0.0
 20
0.0
 30
0.0
 70
               1
 75
               5
  0
VERTEX
  5
291
100
AcDbEntity
  8
OBJECT
100
AcDbVertex
100
AcDb2dVertex
 10
-2470.5
 20
1143.0
 30
0.0
  0
VERTEX
  5
292
100
AcDbEntity
  8
OBJECT
100
AcDbVertex
100
AcDb2dVertex
 10
-2466.0
 20
1143.0
 30
0.0
  0
VERTEX
  5
293
100
AcDbEntity
  8
OBJECT
100
AcDbVertex
100
AcDb2dVertex
 10
-2466.0
 20
1137.0
 30
0.0
  0
VERTEX
  5
294
100
AcDbEntity
  8
OBJECT
100
AcDbVertex
100
AcDb2dVertex
 10
-2470.5
 20
1137.0
 30
0.0
  0
SEQEND
  5
295
100
AcDbEntity
  8
OBJECT
  0
POLYLINE
  5
296
100
AcDbEntity
  8
OBJECT
100
AcDb2dPolyline
 66
               1
 10
0.0
 20
0.0
 30
0.0
 70
               1
 75
               5
  0
VERTEX
  5
297
100
AcDbEntity
  8
OBJECT
100
AcDbVertex
100
AcDb2dVertex
 10
-2434.0
 20
1143.0
 30
0.0
  0
VERTEX
  5
298
100
AcDbEntity
  8
OBJECT
100
AcDbVertex
100
AcDb2dVertex
 10
-2429.5
 20
1143.0
 30
0.0
  0
VERTEX
  5
299
100
AcDbEntity
  8
OBJECT
100
AcDbVertex
100
AcDb2dVertex
 10
-2429.5
 20
1137.0
 30
0.0
  0
VERTEX
  5
29A
100
AcDbEntity
  8
OBJECT
100
AcDbVertex
100
AcDb2dVertex
 10
-2434.0
 20
1137.0
 30
0.0
  0
SEQEND
  5
29B
100
AcDbEntity
  8
OBJECT
  0
POLYLINE
  5
29C
100
AcDbEntity
  8
OBJECT
100
AcDb2dPolyline
 66
               1
 10
0.0
 20
0.0
 30
0.0
 70
               1
 75
               5
  0
VERTEX
  5
29D
100
AcDbEntity
  8
OBJECT
100
AcDbVertex
100
AcDb2dVertex
 10
-2462.0
 20
1190.0
 30
0.0
  0
VERTEX
  5
29E
100
AcDbEntity
  8
OBJECT
100
AcDbVertex
100
AcDb2dVertex
 10
-2438.0
 20
1190.0
 30
0.0
  0
VERTEX
  5
29F
100
AcDbEntity
  8
OBJECT
100
AcDbVertex
100
AcDb2dVertex
 10
-2438.0
 20
1185.0
 30
0.0
  0
VERTEX
  5
2A0
100
AcDbEntity
  8
OBJECT
100
AcDbVertex
100
AcDb2dVertex
 10
-2462.0
 20
1185.0
 30
0.0
  0
SEQEND
  5
2A1
100
AcDbEntity
  8
OBJECT
  0
POLYLINE
  5
2A2
100
AcDbEntity
  8
OBJECT
100
AcDb2dPolyline
 66
               1
 10
0.0
 20
0.0
 30
0.0
 75
               5
  0
VERTEX
  5
2A3
100
AcDbEntity
  8
OBJECT
100
AcDbVertex
100
AcDb2dVertex
 10
-2438.0
 20
1188.5
 30
0.0
  0
VERTEX
  5
2A4
100
AcDbEntity
  8
OBJECT
100
AcDbVertex
100
AcDb2dVertex
 10
-2431.0
 20
1188.5
 30
0.0
  0
VERTEX
  5
2A5
100
AcDbEntity
  8
OBJECT
100
AcDbVertex
100
AcDb2dVertex
 10
-2431.0
 20
1175.0
 30
0.0
  0
VERTEX
  5
2A6
100
AcDbEntity
  8
OBJECT
100
AcDbVertex
100
AcDb2dVertex
 10
-2429.5
 20
1175.0
 30
0.0
  0
VERTEX
  5
2A7
100
AcDbEntity
  8
OBJECT
100
AcDbVertex
100
AcDb2dVertex
 10
-2429.5
 20
1190.0
 30
0.0
  0
VERTEX
  5
2A8
100
AcDbEntity
  8
OBJECT
100
AcDbVertex
100
AcDb2dVertex
 10
-2470.5
 20
1190.0
 30
0.0
  0
VERTEX
  5
2A9
100
AcDbEntity
  8
OBJECT
100
AcDbVertex
100
AcDb2dVertex
 10
-2470.5
 20
1175.0
 30
0.0
  0
VERTEX
  5
2AA
100
AcDbEntity
  8
OBJECT
100
AcDbVertex
100
AcDb2dVertex
 10
-2469.0
 20
1175.0
 30
0.0
  0
VERTEX
  5
2AB
100
AcDbEntity
  8
OBJECT
100
AcDbVertex
100
AcDb2dVertex
 10
-2469.0
 20
1188.5
 30
0.0
  0
VERTEX
  5
2AC
100
AcDbEntity
  8
OBJECT
100
AcDbVertex
100
AcDb2dVertex
 10
-2462.0
 20
1188.5
 30
0.0
  0
SEQEND
  5
2AD
100
AcDbEntity
  8
OBJECT
  0
POLYLINE
  5
2AE
100
AcDbEntity
  8
OBJECT
100
AcDb2dPolyline
 66
               1
 10
0.0
 20
0.0
 30
0.0
 75
               5
  0
VERTEX
  5
2AF
100
AcDbEntity
  8
OBJECT
100
AcDbVertex
100
AcDb2dVertex
 10
-2457.0
 20
1164.34043
 30
0.0
  0
VERTEX
  5
2B0
100
AcDbEntity
  8
OBJECT
100
AcDbVertex
100
AcDb2dVertex
 10
-2465.0
 20
1164.34043
 30
0.0
  0
VERTEX
  5
2B1
100
AcDbEntity
  8
OBJECT
100
AcDbVertex
100
AcDb2dVertex
 10
-2465.0
 20
1170.34043
 30
0.0
  0
VERTEX
  5
2B2
100
AcDbEntity
  8
OBJECT
100
AcDbVertex
100
AcDb2dVertex
 10
-2457.0
 20
1170.34043
 30
0.0
  0
SEQEND
  5
2B3
100
AcDbEntity
  8
OBJECT
  0
POLYLINE
  5
2B4
100
AcDbEntity
  8
OBJECT
100
AcDb2dPolyline
 66
               1
 10
0.0
 20
0.0
 30
0.0
 75
               5
  0
VERTEX
  5
2B5
100
AcDbEntity
  8
OBJECT
100
AcDbVertex
100
AcDb2dVertex
 10
-2443.0
 20
1170.34043
 30
0.0
  0
VERTEX
  5
2B6
100
AcDbEntity
  8
OBJECT
100
AcDbVertex
100
AcDb2dVertex
 10
-2435.0
 20
1170.34043
 30
0.0
  0
VERTEX
  5
2B7
100
AcDbEntity
  8
OBJECT
100
AcDbVertex
100
AcDb2dVertex
 10
-2435.0
 20
1164.34043
 30
0.0
  0
VERTEX
  5
2B8
100
AcDbEntity
  8
OBJECT
100
AcDbVertex
100
AcDb2dVertex
 10
-2443.0
 20
1164.34043
 30
0.0
  0
SEQEND
  5
2B9
100
AcDbEntity
  8
OBJECT
  0
POLYLINE
  5
2BA
100
AcDbEntity
  8
OBJECT
100
AcDb2dPolyline
 66
               1
 10
0.0
 20
0.0
 30
0.0
 75
               5
  0
VERTEX
  5
2BB
100
AcDbEntity
  8
OBJECT
100
AcDbVertex
100
AcDb2dVertex
 10
-2443.0
 20
1149.64339
 30
0.0
  0
VERTEX
  5
2BC
100
AcDbEntity
  8
OBJECT
100
AcDbVertex
100
AcDb2dVertex
 10
-2443.0
 20
1185.0
 30
0.0
  0
VERTEX
  5
2BD
100
AcDbEntity
  8
OBJECT
100
AcDbVertex
100
AcDb2dVertex
 10
-2457.0
 20
1185.0
 30
0.0
  0
VERTEX
  5
2BE
100
AcDbEntity
  8
OBJECT
100
AcDbVertex
100
AcDb2dVertex
 10
-2457.0
 20
1149.64339
 30
0.0
  0
SEQEND
  5
2BF
100
AcDbEntity
  8
OBJECT
  0
POLYLINE
  5
2C0
100
AcDbEntity
  8
OBJECT
100
AcDb2dPolyline
 66
               1
 10
0.0
 20
0.0
 30
0.0
 75
               5
  0
VERTEX
  5
2C1
100
AcDbEntity
  8
OBJECT
100
AcDbVertex
100
AcDb2dVertex
 10
-2457.0
 20
1104.6152199999999
 30
0.0
  0
VERTEX
  5
2C2
100
AcDbEntity
  8
OBJECT
100
AcDbVertex
100
AcDb2dVertex
 10
-2457.0
 20
1090.0
 30
0.0
  0
VERTEX
  5
2C3
100
AcDbEntity
  8
OBJECT
100
AcDbVertex
100
AcDb2dVertex
 10
-2443.0
 20
1090.0
 30
0.0
  0
VERTEX
  5
2C4
100
AcDbEntity
  8
OBJECT
100
AcDbVertex
100
AcDb2dVertex
 10
-2443.0
 20
1104.6152199999999
 30
0.0
  0
SEQEND
  5
2C5
100
AcDbEntity
  8
OBJECT
  0
POLYLINE
  5
2C6
100
AcDbEntity
  8
OBJECT
100
AcDb2dPolyline
 66
               1
 10
0.0
 20
0.0
 30
0.0
 70
               1
 75
               5
  0
VERTEX
  5
2C7
100
AcDbEntity
  8
OBJECT
100
AcDbVertex
100
AcDb2dVertex
 10
-1731.5
 20
1190.0
 30
0.0
  0
VERTEX
  5
2C8
100
AcDbEntity
  8
OBJECT
100
AcDbVertex
100
AcDb2dVertex
 10
-1661.5
 20
1190.0
 30
0.0
  0
VERTEX
  5
2C9
100
AcDbEntity
  8
OBJECT
100
AcDbVertex
100
AcDb2dVertex
 10
-1661.5
 20
1185.0
 30
0.0
  0
VERTEX
  5
2CA
100
AcDbEntity
  8
OBJECT
100
AcDbVertex
100
AcDb2dVertex
 10
-1731.5
 20
1185.0
 30
0.0
  0
SEQEND
  5
2CB
100
AcDbEntity
  8
OBJECT
  0
POLYLINE
  5
2CC
100
AcDbEntity
  8
OBJECT
100
AcDb2dPolyline
 66
               1
 10
0.0
 20
0.0
 30
0.0
 70
               1
 75
               5
  0
VERTEX
  5
2CD
100
AcDbEntity
  8
OBJECT
100
AcDbVertex
100
AcDb2dVertex
 10
-1762.0
 20
1190.0
 30
0.0
  0
VERTEX
  5
2CE
100
AcDbEntity
  8
OBJECT
100
AcDbVertex
100
AcDb2dVertex
 10
-1738.0
 20
1190.0
 30
0.0
  0
VERTEX
  5
2CF
100
AcDbEntity
  8
OBJECT
100
AcDbVertex
100
AcDb2dVertex
 10
-1738.0
 20
1185.0
 30
0.0
  0
VERTEX
  5
2D0
100
AcDbEntity
  8
OBJECT
100
AcDbVertex
100
AcDb2dVertex
 10
-1762.0
 20
1185.0
 30
0.0
  0
SEQEND
  5
2D1
100
AcDbEntity
  8
OBJECT
  0
POLYLINE
  5
2D2
100
AcDbEntity
  8
OBJECT
100
AcDb2dPolyline
 66
               1
 10
0.0
 20
0.0
 30
0.0
 75
               5
  0
VERTEX
  5
2D3
100
AcDbEntity
  8
OBJECT
100
AcDbVertex
100
AcDb2dVertex
 10
-1743.0
 20
1157.49604
 30
0.0
  0
VERTEX
  5
2D4
100
AcDbEntity
  8
OBJECT
100
AcDbVertex
100
AcDb2dVertex
 10
-1743.0
 20
1185.0
 30
0.0
  0
VERTEX
  5
2D5
100
AcDbEntity
  8
OBJECT
100
AcDbVertex
100
AcDb2dVertex
 10
-1757.0
 20
1185.0
 30
0.0
  0
VERTEX
  5
2D6
100
AcDbEntity
  8
OBJECT
100
AcDbVertex
100
AcDb2dVertex
 10
-1757.0
 20
1151.8091399999998
 30
0.0
  0
SEQEND
  5
2D7
100
AcDbEntity
  8
OBJECT
  0
POLYLINE
  5
2D8
100
AcDbEntity
  8
OBJECT
100
AcDb2dPolyline
 66
               1
 10
0.0
 20
0.0
 30
0.0
 75
               5
  0
VERTEX
  5
2D9
100
AcDbEntity
  8
OBJECT
100
AcDbVertex
100
AcDb2dVertex
 10
-1757.0
 20
1104.6152199999999
 30
0.0
  0
VERTEX
  5
2DA
100
AcDbEntity
  8
OBJECT
100
AcDbVertex
100
AcDb2dVertex
 10
-1757.0
 20
1090.0
 30
0.0
  0
VERTEX
  5
2DB
100
AcDbEntity
  8
OBJECT
100
AcDbVertex
100
AcDb2dVertex
 10
-1743.0
 20
1090.0
 30
0.0
  0
VERTEX
  5
2DC
100
AcDbEntity
  8
OBJECT
100
AcDbVertex
100
AcDb2dVertex
 10
-1743.0
 20
1104.6152199999999
 30
0.0
  0
SEQEND
  5
2DD
100
AcDbEntity
  8
OBJECT
  0
LINE
  5
2DE
100
AcDbEntity
  8
OBJECT
100
AcDbLine
 10
-1743.0
 20
1117.0611100000001
 30
0.0
 11
-1743.0
 21
1106.6152199999999
 31
0.0
  0
POLYLINE
  5
2DF
100
AcDbEntity
  8
OBJECT
100
AcDb2dPolyline
 66
               1
 10
0.0
 20
0.0
 30
0.0
 70
               1
 75
               5
  0
VERTEX
  5
2E0
100
AcDbEntity
  8
OBJECT
100
AcDbVertex
100
AcDb2dVertex
 10
-1455.0
 20
1042.5
 30
0.0
  0
VERTEX
  5
2E1
100
AcDbEntity
  8
OBJECT
100
AcDbVertex
100
AcDb2dVertex
 10
-1450.0
 20
1042.5
 30
0.0
  0
VERTEX
  5
2E2
100
AcDbEntity
  8
OBJECT
100
AcDbVertex
100
AcDb2dVertex
 10
-1450.0
 20
1017.5
 30
0.0
  0
VERTEX
  5
2E3
100
AcDbEntity
  8
OBJECT
100
AcDbVertex
100
AcDb2dVertex
 10
-1455.0
 20
1017.5
 30
0.0
  0
SEQEND
  5
2E4
100
AcDbEntity
  8
OBJECT
  0
LWPOLYLINE
  5
2E5
100
AcDbEntity
  8
OBJECT
100
AcDbPolyline
 90
        6
 70
             129
 10
-1447.0
 20
1042.5
 10
-1432.0
 20
1042.5
 42
-0.414213562373095
 10
-1427.0
 20
1037.5
 10
-1427.0
 20
1022.5
 42
-0.414213562373095
 10
-1432.0
 20
1017.5
 10
-1447.0
 20
1017.5
  0
POLYLINE
  5
2E6
100
AcDbEntity
  8
OBJECT
100
AcDb2dPolyline
 66
               1
 10
0.0
 20
0.0
 30
0.0
 70
               1
 75
               5
  0
VERTEX
  5
2E7
100
AcDbEntity
  8
OBJECT
100
AcDbVertex
100
AcDb2dVertex
 10
-1450.0
 20
1038.5
 30
0.0
  0
VERTEX
  5
2E8
100
AcDbEntity
  8
OBJECT
100
AcDbVertex
100
AcDb2dVertex
 10
-1447.0
 20
1038.5
 30
0.0
  0
VERTEX
  5
2E9
100
AcDbEntity
  8
OBJECT
100
AcDbVertex
100
AcDb2dVertex
 10
-1447.0
 20
1021.5
 30
0.0
  0
VERTEX
  5
2EA
100
AcDbEntity
  8
OBJECT
100
AcDbVertex
100
AcDb2dVertex
 10
-1450.0
 20
1021.5
 30
0.0
  0
SEQEND
  5
2EB
100
AcDbEntity
  8
OBJECT
  0
LINE
  5
2EC
100
AcDbEntity
  8
OBJECT
100
AcDbLine
 10
-1427.0
 20
1035.0
 30
0.0
 11
-1387.0
 21
1035.0
 31
0.0
  0
LINE
  5
2ED
100
AcDbEntity
  8
OBJECT
100
AcDbLine
 10
-1427.0
 20
1025.0
 30
0.0
 11
-1387.0
 21
1025.0
 31
0.0
  0
LWPOLYLINE
  5
2EE
100
AcDbEntity
  8
OBJECT
100
AcDbPolyline
 90
        5
 70
             128
 10
-1388.0
 20
1039.0
 10
-1386.0038543107848
 20
1035.4513070671524
 42
-0.2972950164305453
 10
-1386.3124950000001
 20
1030.75
 42
0.2730897400035703
 10
-1386.8458452700866
 20
1025.9352193106536
 10
-1384.6249900000003
 20
1021.0
  0
POLYLINE
  5
2EF
100
AcDbEntity
  8
OBJECT
100
AcDb2dPolyline
 66
               1
 10
0.0
 20
0.0
 30
0.0
 75
               5
  0
VERTEX
  5
2F0
100
AcDbEntity
  8
OBJECT
100
AcDbVertex
100
AcDb2dVertex
 10
-2477.5
 20
1957.0505719652019
 30
0.0
  0
VERTEX
  5
2F1
100
AcDbEntity
  8
OBJECT
100
AcDbVertex
100
AcDb2dVertex
 10
-2477.5
 20
1960.0
 30
0.0
  0
VERTEX
  5
2F2
100
AcDbEntity
  8
OBJECT
100
AcDbVertex
100
AcDb2dVertex
 10
-2502.5
 20
1960.0
 30
0.0
  0
VERTEX
  5
2F3
100
AcDbEntity
  8
OBJECT
100
AcDbVertex
100
AcDb2dVertex
 10
-2502.5
 20
1955.0
 30
0.0
  0
VERTEX
  5
2F4
100
AcDbEntity
  8
OBJECT
100
AcDbVertex
100
AcDb2dVertex
 10
-2487.6078071616771
 20
1955.0
 30
0.0
  0
SEQEND
  5
2F5
100
AcDbEntity
  8
OBJECT
  0
LWPOLYLINE
  5
2F6
100
AcDbEntity
  8
OBJECT
100
AcDbPolyline
 90
        6
 70
             129
 10
-2502.5
 20
1963.0
 10
-2502.5
 20
1978.0
 42
-0.414213562373095
 10
-2497.5
 20
1983.0
 10
-2482.5
 20
1983.0
 42
-0.414213562373095
 10
-2477.5
 20
1978.0
 10
-2477.5
 20
1963.0
  0
POLYLINE
  5
2F7
100
AcDbEntity
  8
OBJECT
100
AcDb2dPolyline
 66
               1
 10
0.0
 20
0.0
 30
0.0
 70
               1
 75
               5
  0
VERTEX
  5
2F8
100
AcDbEntity
  8
OBJECT
100
AcDbVertex
100
AcDb2dVertex
 10
-2498.5
 20
1963.0
 30
0.0
  0
VERTEX
  5
2F9
100
AcDbEntity
  8
OBJECT
100
AcDbVertex
100
AcDb2dVertex
 10
-2481.5
 20
1963.0
 30
0.0
  0
VERTEX
  5
2FA
100
AcDbEntity
  8
OBJECT
100
AcDbVertex
100
AcDb2dVertex
 10
-2481.5
 20
1960.0
 30
0.0
  0
VERTEX
  5
2FB
100
AcDbEntity
  8
OBJECT
100
AcDbVertex
100
AcDb2dVertex
 10
-2498.5
 20
1960.0
 30
0.0
  0
SEQEND
  5
2FC
100
AcDbEntity
  8
OBJECT
  0
POLYLINE
  5
2FD
100
AcDbEntity
  8
OBJECT
100
AcDb2dPolyline
 66
               1
 10
0.0
 20
0.0
 30
0.0
 70
               1
 75
               5
  0
VERTEX
  5
2FE
100
AcDbEntity
  8
OBJECT
100
AcDbVertex
100
AcDb2dVertex
 10
-2270.0
 20
1177.0
 30
0.0
  0
VERTEX
  5
2FF
100
AcDbEntity
  8
OBJECT
100
AcDbVertex
100
AcDb2dVertex
 10
-2268.5
 20
1177.0
 30
0.0
  0
VERTEX
  5
300
100
AcDbEntity
  8
OBJECT
100
AcDbVertex
100
AcDb2dVertex
 10
-2268.5
 20
1163.0
 30
0.0
  0
VERTEX
  5
301
100
AcDbEntity
  8
OBJECT
100
AcDbVertex
100
AcDb2dVertex
 10
-2270.0
 20
1163.0
 30
0.0
  0
SEQEND
  5
302
100
AcDbEntity
  8
OBJECT
  0
POLYLINE
  5
303
100
AcDbEntity
  8
OBJECT
100
AcDb2dPolyline
 66
               1
 10
0.0
 20
0.0
 30
0.0
 70
               1
 75
               5
  0
VERTEX
  5
304
100
AcDbEntity
  8
OBJECT
100
AcDbVertex
100
AcDb2dVertex
 10
-2270.0
 20
1882.0
 30
0.0
  0
VERTEX
  5
305
100
AcDbEntity
  8
OBJECT
100
AcDbVertex
100
AcDb2dVertex
 10
-2268.5
 20
1882.0
 30
0.0
  0
VERTEX
  5
306
100
AcDbEntity
  8
OBJECT
100
AcDbVertex
100
AcDb2dVertex
 10
-2268.5
 20
1868.0
 30
0.0
  0
VERTEX
  5
307
100
AcDbEntity
  8
OBJECT
100
AcDbVertex
100
AcDb2dVertex
 10
-2270.0
 20
1868.0
 30
0.0
  0
SEQEND
  5
308
100
AcDbEntity
  8
OBJECT
  0
LWPOLYLINE
  5
309
100
AcDbEntity
  8
OBJECT
100
AcDbPolyline
 90
       10
 70
             128
 10
-1661.5
 20
1125.0
 10
-1661.5
 20
1185.0
 10
-1731.5
 20
1185.0
 10
-1731.5
 20
1133.0
 10
-1731.5
 20
1133.0
 10
-1731.5
 20
1133.0
 42
0.4142135623730895
 10
-1728.5
 20
1130.0
 10
-1711.5
 20
1130.0
 10
-1711.5
 20
1125.0
 10
-1661.5
 20
1125.0
  0
LWPOLYLINE
  5
30A
100
AcDbEntity
  8
OBJECT
100
AcDbPolyline
 90
       12
 70
             129
 10
-2495.0
 20
1983.0
 10
-2495.0
 20
1985.0
 42
0.4142135623730939
 10
-2525.0
 20
2015.0
 10
-2657.0
 20
2015.0
 42
0.414213562373095
 10
-2687.0
 20
1985.0
 10
-2687.0
 20
1868.0
 10
-2697.0
 20
1868.0
 10
-2697.0
 20
1985.0
 42
-0.414213562373095
 10
-2657.0
 20
2025.0
 10
-2525.0
 20
2025.0
 42
-0.4142135623730942
 10
-2485.0
 20
1985.0
 10
-2485.0
 20
1983.0
  0
LWPOLYLINE
  5
30B
100
AcDbEntity
  8
OBJECT
100
AcDbPolyline
 90
        6
 70
             129
 10
-2707.0
 20
1858.0
 42
-0.414213562373095
 10
-2697.0
 20
1868.0
 10
-2687.0
 20
1868.0
 42
-0.414213562373095
 10
-2677.0
 20
1858.0
 10
-2677.0
 20
1828.0
 10
-2707.0
 20
1828.0
  0
POLYLINE
  5
30C
100
AcDbEntity
  8
OBJECT
100
AcDb2dPolyline
 66
               1
 10
0.0
 20
0.0
 30
0.0
 70
               1
 75
               5
  0
VERTEX
  5
30D
100
AcDbEntity
  8
OBJECT
100
AcDbVertex
100
AcDb2dVertex
 10
-2703.5
 20
1828.0
 30
0.0
  0
VERTEX
  5
30E
100
AcDbEntity
  8
OBJECT
100
AcDbVertex
100
AcDb2dVertex
 10
-2700.5
 20
1828.0
 30
0.0
  0
VERTEX
  5
30F
100
AcDbEntity
  8
OBJECT
100
AcDbVertex
100
AcDb2dVertex
 10
-2700.5
 20
1808.0
 30
0.0
  0
VERTEX
  5
310
100
AcDbEntity
  8
OBJECT
100
AcDbVertex
100
AcDb2dVertex
 10
-2703.5
 20
1808.0
 30
0.0
  0
SEQEND
  5
311
100
AcDbEntity
  8
OBJECT
  0
POLYLINE
  5
312
100
AcDbEntity
  8
OBJECT
100
AcDb2dPolyline
 66
               1
 10
0.0
 20
0.0
 30
0.0
 70
               1
 75
               5
  0
VERTEX
  5
313
100
AcDbEntity
  8
OBJECT
100
AcDbVertex
100
AcDb2dVertex
 10
-2683.5
 20
1828.0
 30
0.0
  0
VERTEX
  5
314
100
AcDbEntity
  8
OBJECT
100
AcDbVertex
100
AcDb2dVertex
 10
-2680.5
 20
1828.0
 30
0.0
  0
VERTEX
  5
315
100
AcDbEntity
  8
OBJECT
100
AcDbVertex
100
AcDb2dVertex
 10
-2680.5
 20
1808.0
 30
0.0
  0
VERTEX
  5
316
100
AcDbEntity
  8
OBJECT
100
AcDbVertex
100
AcDb2dVertex
 10
-2683.5
 20
1808.0
 30
0.0
  0
SEQEND
  5
317
100
AcDbEntity
  8
OBJECT
  0
LWPOLYLINE
  5
318
100
AcDbEntity
  8
OBJECT
100
AcDbPolyline
 90
       18
 70
             128
 10
-2700.0
 20
1867.5393899999999
 10
-2700.0
 20
1868.0
 10
-2700.0
 20
1868.0
 10
-2700.0
 20
1868.0
 42
0.414213562373095
 10
-2717.0
 20
1885.0
 10
-2717.0
 20
1885.0
 10
-2717.0
 20
1885.0
 42
0.414213562373095
 10
-2734.0
 20
1868.0
 10
-2734.0
 20
1818.0
 10
-2737.0
 20
1818.0
 10
-2737.0
 20
1868.0
 10
-2737.0
 20
1868.0
 10
-2737.0
 20
1868.0
 42
-0.414213562373095
 10
-2717.0
 20
1888.0
 10
-2717.0
 20
1888.0
 10
-2717.0
 20
1888.0
 42
-0.414213562373095
 10
-2697.0
 20
1868.0
 10
-2697.0
 20
1868.0
  0
LINE
  5
319
100
AcDbEntity
  8
OBJECT
100
AcDbLine
 10
-2737.0
 20
1818.0
 30
0.0
 11
-2740.0825800000002
 21
1812.0
 31
0.0
  0
LINE
  5
31A
100
AcDbEntity
  8
OBJECT
100
AcDbLine
 10
-2734.0
 20
1818.0
 30
0.0
 11
-2730.9174199999998
 21
1812.0
 31
0.0
  0
LINE
  5
31B
100
AcDbEntity
  8
CENTER
100
AcDbLine
 10
-2276.0
 20
1170.0
 30
0.0
 11
-2246.0
 21
1170.0
 31
0.0
  0
LINE
  5
31C
100
AcDbEntity
  8
CENTER
100
AcDbLine
 10
-2227.0
 20
1875.0
 30
0.0
 11
-2281.5
 21
1875.0
 31
0.0
  0
LINE
  5
31D
100
AcDbEntity
  8
CENTER
100
AcDbLine
 10
-1505.0
 20
1170.0
 30
0.0
 11
-1475.0
 21
1170.0
 31
0.0
  0
POLYLINE
  5
31E
100
AcDbEntity
  8
OBJECT
100
AcDb2dPolyline
 66
               1
 10
0.0
 20
0.0
 30
0.0
 75
               5
  0
VERTEX
  5
31F
100
AcDbEntity
  8
OBJECT
100
AcDbVertex
100
AcDb2dVertex
 10
-1476.7894700000002
 20
1190.0
 30
0.0
  0
VERTEX
  5
320
100
AcDbEntity
  8
OBJECT
100
AcDbVertex
100
AcDb2dVertex
 10
-1455.0
 20
1190.0
 30
0.0
  0
VERTEX
  5
321
100
AcDbEntity
  8
OBJECT
100
AcDbVertex
100
AcDb2dVertex
 10
-1455.0
 20
980.0
 30
0.0
  0
VERTEX
  5
322
100
AcDbEntity
  8
OBJECT
100
AcDbVertex
100
AcDb2dVertex
 10
-1635.0
 20
980.0
 30
0.0
  0
VERTEX
  5
323
100
AcDbEntity
  8
OBJECT
100
AcDbVertex
100
AcDb2dVertex
 10
-1635.0
 20
1190.0
 30
0.0
  0
VERTEX
  5
324
100
AcDbEntity
  8
OBJECT
100
AcDbVertex
100
AcDb2dVertex
 10
-1565.84211
 20
1190.0
 30
0.0
  0
SEQEND
  5
325
100
AcDbEntity
  8
OBJECT
  0
POLYLINE
  5
326
100
AcDbEntity
  8
OBJECT
100
AcDb2dPolyline
 66
               1
 10
0.0
 20
0.0
 30
0.0
 70
               1
 75
               5
  0
VERTEX
  5
327
100
AcDbEntity
  8
OBJECT
100
AcDbVertex
100
AcDb2dVertex
 10
-1470.3333299999999
 20
1190.0
 30
0.0
  0
VERTEX
  5
328
100
AcDbEntity
  8
OBJECT
100
AcDbVertex
100
AcDb2dVertex
 10
-1455.0
 20
1190.0
 30
0.0
  0
VERTEX
  5
329
100
AcDbEntity
  8
OBJECT
100
AcDbVertex
100
AcDb2dVertex
 10
-1455.0
 20
1395.0
 30
0.0
  0
VERTEX
  5
32A
100
AcDbEntity
  8
OBJECT
100
AcDbVertex
100
AcDb2dVertex
 10
-1815.0
 20
1395.0
 30
0.0
  0
VERTEX
  5
32B
100
AcDbEntity
  8
OBJECT
100
AcDbVertex
100
AcDb2dVertex
 10
-1815.0
 20
1190.0
 30
0.0
  0
VERTEX
  5
32C
100
AcDbEntity
  8
OBJECT
100
AcDbVertex
100
AcDb2dVertex
 10
-1533.0
 20
1190.0
 30
0.0
  0
SEQEND
  5
32D
100
AcDbEntity
  8
OBJECT
  0
LWPOLYLINE
  5
32E
100
AcDbEntity
  8
OBJECT
100
AcDbPolyline
 90
       14
 70
             128
 10
-2740.0825800000002
 20
1812.0
 10
-2740.4887899999999
 20
1810.3345999999999
 10
-2740.4887899999999
 20
1805.2443949999999
 42
0.4142135623731486
 10
-2739.2443949999997
 20
1804.0
 42
0.414213562373095
 10
-2738.0
 20
1805.2443949999999
 10
-2738.0
 20
1810.0
 10
-2738.0
 20
1810.0
 42
-0.414213562373095
 10
-2735.5
 20
1812.5
 42
-0.414213562373095
 10
-2733.0
 20
1810.0
 10
-2733.0
 20
1805.25
 42
0.414213562373095
 10
-2731.75
 20
1804.0
 42
0.414213562373095
 10
-2730.5
 20
1805.25
 10
-2730.5
 20
1810.0
 10
-2730.9174199999998
 20
1812.0
  0
LWPOLYLINE
  5
32F
100
AcDbEntity
  8
OBJECT
100
AcDbPolyline
 90
        5
 70
             129
 10
-1480.5
 20
1151.0
 10
-1480.5
 20
1170.0
 42
0.414213562373095
 10
-1490.0
 20
1179.5
 42
0.414213562373095
 10
-1499.5
 20
1170.0
 10
-1499.5
 20
1151.0
  0
POLYLINE
  5
330
100
AcDbEntity
  8
OBJECT
100
AcDb2dPolyline
 66
               1
 10
0.0
 20
0.0
 30
0.0
 70
               1
 75
               5
  0
VERTEX
  5
331
100
AcDbEntity
  8
OBJECT
100
AcDbVertex
100
AcDb2dVertex
 10
-1497.0
 20
1140.0
 30
0.0
  0
VERTEX
  5
332
100
AcDbEntity
  8
OBJECT
100
AcDbVertex
100
AcDb2dVertex
 10
-1497.0
 20
1151.0
 30
0.0
  0
VERTEX
  5
333
100
AcDbEntity
  8
OBJECT
100
AcDbVertex
100
AcDb2dVertex
 10
-1483.0
 20
1151.0
 30
0.0
  0
VERTEX
  5
334
100
AcDbEntity
  8
OBJECT
100
AcDbVertex
100
AcDb2dVertex
 10
-1483.0
 20
1140.0
 30
0.0
  0
SEQEND
  5
335
100
AcDbEntity
  8
OBJECT
  0
LWPOLYLINE
  5
336
100
AcDbEntity
  8
OBJECT
100
AcDbPolyline
 90
        5
 70
             129
 10
-1594.9999900000003
 20
1100.00001
 42
-0.414213562373095
 10
-1584.9999900000003
 20
1110.00001
 42
-0.414213562373095
 10
-1574.9999900000003
 20
1100.00001
 42
-0.414213562373095
 10
-1584.9999900000003
 20
1090.00001
 42
-0.414213562373095
 10
-1594.9999900000003
 20
1100.00001
 42
-0.414213562373095
  0
LWPOLYLINE
  5
337
100
AcDbEntity
  8
OBJECT
100
AcDbPolyline
 90
        8
 70
             129
 10
-1579.9999938461531
 20
1097.0000088461525
 42
-0.4142134947823412
 10
-1584.9999888461516
 20
1092.0000050000012
 10
-1584.9999900000003
 20
1092.0000049999999
 42
-0.4142136299638411
 10
-1589.999993846154
 20
1097.0000000000009
 10
-1589.9999961538474
 20
1100.0000011538475
 42
-0.4142134947823612
 10
-1585.0000011538486
 20
1105.0000049999987
 10
-1585.0
 20
1105.0000049999999
 42
-0.4142136299638444
 10
-1579.999996153846
 20
1100.0000099999988
  0
LWPOLYLINE
  5
338
100
AcDbEntity
  8
OBJECT
100
AcDbPolyline
 90
        5
 70
             129
 10
-1553.0
 20
1100.0
 42
-0.414213562373095
 10
-1548.0
 20
1105.0
 42
-0.414213562373095
 10
-1543.0
 20
1100.0
 42
-0.414213562373095
 10
-1548.0
 20
1095.0
 42
-0.414213562373095
 10
-1553.0
 20
1100.0
 42
-0.414213562373095
  0
LWPOLYLINE
  5
339
100
AcDbEntity
  8
OBJECT
100
AcDbPolyline
 90
        5
 70
             129
 10
-1550.5
 20
1100.0
 42
-0.414213562373095
 10
-1548.0
 20
1102.5
 42
-0.414213562373095
 10
-1545.5
 20
1100.0
 42
-0.414213562373095
 10
-1548.0
 20
1097.5
 42
-0.414213562373095
 10
-1550.5
 20
1100.0
 42
-0.414213562373095
  0
ARC
  5
33A
100
AcDbEntity
  8
OBJECT
100
AcDbCircle
 10
-1584.9999900000003
 20
1100.00001
 30
0.0
 40
7.4999956089654694
100
AcDbArc
 50
296.56283047664334
 51
243.43720368529145
  0
LINE
  5
33B
100
AcDbEntity
  8
CENTER
100
AcDbLine
 10
-2250.25
 20
1066.0
 30
0.0
 11
-2250.25
 21
1174.0
 31
0.0
  0
POLYLINE
  5
33C
100
AcDbEntity
  8
OBJECT
100
AcDb2dPolyline
 66
               1
 10
0.0
 20
0.0
 30
0.0
 70
               1
 75
               5
  0
VERTEX
  5
33D
100
AcDbEntity
  8
OBJECT
100
AcDbVertex
100
AcDb2dVertex
 10
-1483.0
 20
1100.0
 30
0.0
  0
VERTEX
  5
33E
100
AcDbEntity
  8
OBJECT
100
AcDbVertex
100
AcDb2dVertex
 10
-1483.0
 20
1070.0
 30
0.0
  0
VERTEX
  5
33F
100
AcDbEntity
  8
OBJECT
100
AcDbVertex
100
AcDb2dVertex
 10
-1497.0
 20
1070.0
 30
0.0
  0
VERTEX
  5
340
100
AcDbEntity
  8
OBJECT
100
AcDbVertex
100
AcDb2dVertex
 10
-1497.0
 20
1100.0
 30
0.0
  0
SEQEND
  5
341
100
AcDbEntity
  8
OBJECT
  0
LINE
  5
342
100
AcDbEntity
  8
OBJECT
100
AcDbLine
 10
-1485.0
 20
1127.4833100000001
 30
0.0
 11
-1485.0
 21
1140.0
 31
0.0
  0
LINE
  5
343
100
AcDbEntity
  8
OBJECT
100
AcDbLine
 10
-1485.0
 20
1100.0
 30
0.0
 11
-1485.0
 21
1111.2638899999999
 31
0.0
  0
LINE
  5
344
100
AcDbEntity
  8
OBJECT
100
AcDbLine
 10
-1495.0
 20
1127.48326
 30
0.0
 11
-1495.0
 21
1140.0
 31
0.0
  0
LINE
  5
345
100
AcDbEntity
  8
OBJECT
100
AcDbLine
 10
-1495.0
 20
1100.0
 30
0.0
 11
-1495.0
 21
1112.51675
 31
0.0
  0
POLYLINE
  5
346
100
AcDbEntity
  8
OBJECT
100
AcDb2dPolyline
 66
               1
 10
0.0
 20
0.0
 30
0.0
 75
               5
  0
VERTEX
  5
347
100
AcDbEntity
  8
OBJECT
100
AcDbVertex
100
AcDb2dVertex
 10
-1499.5
 20
1125.0
 30
0.0
  0
VERTEX
  5
348
100
AcDbEntity
  8
OBJECT
100
AcDbVertex
100
AcDb2dVertex
 10
-1499.5
 20
1140.0
 30
0.0
  0
VERTEX
  5
349
100
AcDbEntity
  8
OBJECT
100
AcDbVertex
100
AcDb2dVertex
 10
-1480.5
 20
1140.0
 30
0.0
  0
VERTEX
  5
34A
100
AcDbEntity
  8
OBJECT
100
AcDbVertex
100
AcDb2dVertex
 10
-1480.5
 20
1113.8349699999999
 30
0.0
  0
SEQEND
  5
34B
100
AcDbEntity
  8
OBJECT
  0
POLYLINE
  5
34C
100
AcDbEntity
  8
OBJECT
100
AcDb2dPolyline
 66
               1
 10
0.0
 20
0.0
 30
0.0
 75
               5
  0
VERTEX
  5
34D
100
AcDbEntity
  8
OBJECT
100
AcDbVertex
100
AcDb2dVertex
 10
-1499.5
 20
1115.0
 30
0.0
  0
VERTEX
  5
34E
100
AcDbEntity
  8
OBJECT
100
AcDbVertex
100
AcDb2dVertex
 10
-1499.5
 20
1100.0
 30
0.0
  0
VERTEX
  5
34F
100
AcDbEntity
  8
OBJECT
100
AcDbVertex
100
AcDb2dVertex
 10
-1480.5
 20
1100.0
 30
0.0
  0
VERTEX
  5
350
100
AcDbEntity
  8
OBJECT
100
AcDbVertex
100
AcDb2dVertex
 10
-1480.5
 20
1111.5
 30
0.0
  0
SEQEND
  5
351
100
AcDbEntity
  8
OBJECT
  0
INSERT
  5
352
100
AcDbEntity
  8
OBJECT
100
AcDbBlockReference
  2
*U1
 10
-2049.5999999999999
 20
1433.9999999999998
 30
0.0
  0
LWPOLYLINE
  5
353
100
AcDbEntity
  8
OBJECT
100
AcDbPolyline
 90
        8
 70
             129
 10
-2268.5
 20
1180.25
 10
-2268.5
 20
1159.75
 10
-2262.5
 20
1159.75
 42
-0.414213562373095
 10
-2260.5
 20
1157.75
 10
-2260.5
 20
1151.75
 10
-2240.0
 20
1151.75
 10
-2240.0
 20
1160.75
 42
0.414213562373095
 10
-2259.5
 20
1180.25
  0
POLYLINE
  5
354
100
AcDbEntity
  8
OBJECT
100
AcDb2dPolyline
 66
               1
 10
0.0
 20
0.0
 30
0.0
 70
               1
 75
               5
  0
VERTEX
  5
355
100
AcDbEntity
  8
OBJECT
100
AcDbVertex
100
AcDb2dVertex
 10
-2257.25
 20
1140.0
 30
0.0
  0
VERTEX
  5
356
100
AcDbEntity
  8
OBJECT
100
AcDbVertex
100
AcDb2dVertex
 10
-2257.25
 20
1151.75
 30
0.0
  0
VERTEX
  5
357
100
AcDbEntity
  8
OBJECT
100
AcDbVertex
100
AcDb2dVertex
 10
-2243.25
 20
1151.75
 30
0.0
  0
VERTEX
  5
358
100
AcDbEntity
  8
OBJECT
100
AcDbVertex
100
AcDb2dVertex
 10
-2243.25
 20
1140.0
 30
0.0
  0
SEQEND
  5
359
100
AcDbEntity
  8
OBJECT
  0
LWPOLYLINE
  5
35A
100
AcDbEntity
  8
OBJECT
100
AcDbPolyline
 90
        5
 70
             129
 10
-2268.5
 20
1884.5
 10
-2249.5
 20
1884.5
 42
-0.4142135623730968
 10
-2240.0
 20
1875.0
 42
-0.414213562373095
 10
-2249.5
 20
1865.5
 10
-2268.5
 20
1865.5
  0
LINE
  5
35B
100
AcDbEntity
  8
CENTER
100
AcDbLine
 10
-2250.25
 20
1851.5
 30
0.0
 11
-2250.25
 21
1898.5
 31
0.0
  0
LINE
  5
35C
100
AcDbEntity
  8
OBJECT
100
AcDbLine
 10
-2236.5500000000002
 20
1860.25
 30
0.0
 11
-2233.25
 21
1862.125
 31
0.0
  0
POLYLINE
  5
35D
100
AcDbEntity
  8
OBJECT
100
AcDb2dPolyline
 66
               1
 10
0.0
 20
0.0
 30
0.0
 70
               1
 75
               5
  0
VERTEX
  5
35E
100
AcDbEntity
  8
OBJECT
100
AcDbVertex
100
AcDb2dVertex
 10
-2233.75
 20
1878.75
 30
0.0
  0
VERTEX
  5
35F
100
AcDbEntity
  8
OBJECT
100
AcDbVertex
100
AcDb2dVertex
 10
-2233.75
 20
1870.75
 30
0.0
  0
VERTEX
  5
360
100
AcDbEntity
  8
OBJECT
100
AcDbVertex
100
AcDb2dVertex
 10
-2238.75
 20
1870.75
 30
0.0
  0
VERTEX
  5
361
100
AcDbEntity
  8
OBJECT
100
AcDbVertex
100
AcDb2dVertex
 10
-2238.75
 20
1878.75
 30
0.0
  0
SEQEND
  5
362
100
AcDbEntity
  8
OBJECT
  0
LINE
  5
363
100
AcDbEntity
  8
OBJECT
100
AcDbLine
 10
-2233.7499900000003
 20
1876.77072
 30
0.0
 11
-2237.25
 21
1876.77072
 31
0.0
  0
LINE
  5
364
100
AcDbEntity
  8
OBJECT
100
AcDbLine
 10
-2233.7500199999999
 20
1872.72928
 30
0.0
 11
-2237.25
 21
1872.72928
 31
0.0
  0
POLYLINE
  5
365
100
AcDbEntity
  8
OBJECT
100
AcDb2dPolyline
 66
               1
 10
0.0
 20
0.0
 30
0.0
 70
               1
 75
               5
  0
VERTEX
  5
366
100
AcDbEntity
  8
OBJECT
100
AcDbVertex
100
AcDb2dVertex
 10
-2232.75
 20
1876.75
 30
0.0
  0
VERTEX
  5
367
100
AcDbEntity
  8
OBJECT
100
AcDbVertex
100
AcDb2dVertex
 10
-2232.75
 20
1872.75
 30
0.0
  0
VERTEX
  5
368
100
AcDbEntity
  8
OBJECT
100
AcDbVertex
100
AcDb2dVertex
 10
-2233.75
 20
1872.75
 30
0.0
  0
VERTEX
  5
369
100
AcDbEntity
  8
OBJECT
100
AcDbVertex
100
AcDb2dVertex
 10
-2233.75
 20
1876.75
 30
0.0
  0
SEQEND
  5
36A
100
AcDbEntity
  8
OBJECT
  0
LINE
  5
36B
100
AcDbEntity
  8
OBJECT
100
AcDbLine
 10
-2237.25
 20
1878.75
 30
0.0
 11
-2237.25
 21
1870.75
 31
0.0
  0
POLYLINE
  5
36C
100
AcDbEntity
  8
OBJECT
100
AcDb2dPolyline
 66
               1
 10
0.0
 20
0.0
 30
0.0
 75
               5
  0
VERTEX
  5
36D
100
AcDbEntity
  8
OBJECT
100
AcDbVertex
100
AcDb2dVertex
 10
-2242.32582
 20
1869.0100199999999
 30
0.0
  0
VERTEX
  5
36E
100
AcDbEntity
  8
OBJECT
100
AcDbVertex
100
AcDb2dVertex
 10
-2241.75
 20
1869.3424699999998
 30
0.0
  0
VERTEX
  5
36F
100
AcDbEntity
  8
OBJECT
100
AcDbVertex
100
AcDb2dVertex
 10
-2241.75
 20
1870.0073599999998
 30
0.0
  0
SEQEND
  5
370
100
AcDbEntity
  8
OBJECT
  0
LWPOLYLINE
  5
371
100
AcDbEntity
  8
OBJECT
100
AcDbPolyline
 90
       37
 70
             128
 10
-2241.75
 20
1869.50568
 10
-2241.75
 20
1866.2196099999999
 10
-2241.75
 20
1866.2196099999999
 10
-2241.75
 20
1866.219608297492
 42
0.232852003300603
 10
-2240.1888400990274
 20
1863.0491100761747
 10
-2240.1888400000003
 20
1863.0491099999999
 10
-2230.70145
 20
1855.7511099999999
 10
-2230.70145
 20
1855.7511099999999
 10
-2230.70145
 20
1855.7511099999999
 10
-2230.70145
 20
1855.7511099999999
 10
-2230.7014491630516
 20
1855.7511093561957
 42
-0.2328522154242994
 10
-2228.75
 20
1851.7879920521589
 10
-2228.75
 20
1851.78799
 10
-2228.75
 20
1818.25
 10
-2228.75
 20
1818.25
 10
-2228.75
 20
1818.25
 10
-2228.75
 20
1818.25
 10
-2228.75
 20
1818.25
 42
0.4142135623730895
 10
-2225.75
 20
1815.25
 10
-2225.75
 20
1815.25
 10
-2225.75
 20
1815.25
 10
-2225.75
 20
1815.25
 10
-2225.75
 20
1815.25
 42
0.414213562373095
 10
-2222.75
 20
1818.25
 10
-2222.75
 20
1850.25
 10
-2222.75
 20
1850.25
 10
-2222.75
 20
1850.25
 10
-2222.75
 20
1850.25
 10
-2222.75
 20
1850.25
 42
0.2360679774997889
 10
-2225.9500000000003
 20
1856.6499999999999
 10
-2237.9500000000003
 20
1865.6499999999999
 10
-2237.9500000000003
 20
1865.6499999999999
 10
-2237.9500000000003
 20
1865.6499999999999
 42
-0.2360679774997927
 10
-2238.75
 20
1867.25
 10
-2238.75
 20
1883.25
 10
-2241.75
 20
1883.25
 10
-2241.75
 20
1880.49432
  0
POLYLINE
  5
372
100
AcDbEntity
  8
OBJECT
100
AcDb2dPolyline
 66
               1
 10
0.0
 20
0.0
 30
0.0
 75
               5
  0
VERTEX
  5
373
100
AcDbEntity
  8
OBJECT
100
AcDbVertex
100
AcDb2dVertex
 10
-2241.75
 20
1880.49432
 30
0.0
  0
VERTEX
  5
374
100
AcDbEntity
  8
OBJECT
100
AcDbVertex
100
AcDb2dVertex
 10
-2241.75
 20
1885.6674799999998
 30
0.0
  0
VERTEX
  5
375
100
AcDbEntity
  8
OBJECT
100
AcDbVertex
100
AcDb2dVertex
 10
-2238.75
 20
1885.6674799999998
 30
0.0
  0
VERTEX
  5
376
100
AcDbEntity
  8
OBJECT
100
AcDbVertex
100
AcDb2dVertex
 10
-2238.75
 20
1879.2153599999999
 30
0.0
  0
SEQEND
  5
377
100
AcDbEntity
  8
OBJECT
  0
LINE
  5
378
100
AcDbEntity
  8
HIDDEN
100
AcDbLine
 10
-2602.0
 20
1243.0
 30
0.0
 11
-2602.0
 21
1402.0
 31
0.0
  0
LINE
  5
379
100
AcDbEntity
  8
OBJECT
100
AcDbLine
 10
-2602.0
 20
1402.0
 30
0.0
 11
-2602.0
 21
1424.0
 31
0.0
  0
LINE
  5
37A
100
AcDbEntity
  8
HIDDEN
100
AcDbLine
 10
-2313.0
 20
1228.0
 30
0.0
 11
-2587.0
 21
1228.0
 31
0.0
  0
LINE
  5
37B
100
AcDbEntity
  8
OBJECT
100
AcDbLine
 10
-2298.0
 20
1424.0
 30
0.0
 11
-2298.0
 21
1402.0
 31
0.0
  0
LINE
  5
37C
100
AcDbEntity
  8
HIDDEN
100
AcDbLine
 10
-2298.0
 20
1402.0
 30
0.0
 11
-2298.0
 21
1243.0
 31
0.0
  0
ARC
  5
37D
100
AcDbEntity
  8
HIDDEN
100
AcDbCircle
 10
-2587.0
 20
1243.0
 30
0.0
 40
15.0
100
AcDbArc
 50
180.0
 51
270.0
  0
ARC
  5
37E
100
AcDbEntity
  8
HIDDEN
100
AcDbCircle
 10
-2313.0
 20
1243.0
 30
0.0
 40
15.000000000000028
100
AcDbArc
 50
270.0
 51
0.0
  0
LWPOLYLINE
  5
37F
100
AcDbEntity
  8
OBJECT
100
AcDbPolyline
 90
        7
 70
             128
 10
-2406.0
 20
1424.0
 10
-2295.0
 20
1424.0
 10
-2295.0
 20
1425.0
 10
-2295.0
 20
1425.0
 10
-2295.0
 20
1425.0
 42
0.414213562373095
 10
-2300.0
 20
1430.0
 10
-2406.0
 20
1430.0
  0
LINE
  5
380
100
AcDbEntity
  8
OBJECT
100
AcDbLine
 10
-2414.0
 20
1424.0
 30
0.0
 11
-2486.0
 21
1424.0
 31
0.0
  0
LINE
  5
381
100
AcDbEntity
  8
OBJECT
100
AcDbLine
 10
-2414.0000000000009
 20
1430.0
 30
0.0
 11
-2486.0000000000023
 21
1430.0
 31
0.0
  0
LWPOLYLINE
  5
382
100
AcDbEntity
  8
OBJECT
100
AcDbPolyline
 90
       10
 70
             128
 10
-2494.0
 20
1424.0
 10
-2605.0
 20
1424.0
 10
-2605.0
 20
1425.0
 10
-2605.0
 20
1425.0
 10
-2605.0
 20
1425.0
 10
-2605.0
 20
1425.0
 10
-2605.0
 20
1425.0
 10
-2605.0
 20
1425.0
 42
-0.414213562373095
 10
-2600.0
 20
1430.0
 10
-2494.0000000000009
 20
1430.0
  0
LINE
  5
383
100
AcDbEntity
  8
OBJECT
100
AcDbLine
 10
-2627.0
 20
1402.0
 30
0.0
 11
-2273.0
 21
1402.0
 31
0.0
  0
LINE
  5
384
100
AcDbEntity
  8
OBJECT
100
AcDbLine
 10
-2627.0
 20
1402.0
 30
0.0
 11
-2627.0
 21
1395.0
 31
0.0
  0
LINE
  5
385
100
AcDbEntity
  8
OBJECT
100
AcDbLine
 10
-2273.0
 20
1402.0
 30
0.0
 11
-2273.0
 21
1395.0
 31
0.0
  0
LINE
  5
386
100
AcDbEntity
  8
HIDDEN
100
AcDbLine
 10
-1787.0
 20
1243.0
 30
0.0
 11
-1787.0
 21
1402.0
 31
0.0
  0
LINE
  5
387
100
AcDbEntity
  8
OBJECT
100
AcDbLine
 10
-1787.0
 20
1402.0
 30
0.0
 11
-1787.0
 21
1424.0
 31
0.0
  0
LINE
  5
388
100
AcDbEntity
  8
HIDDEN
100
AcDbLine
 10
-1498.0
 20
1228.0
 30
0.0
 11
-1772.0
 21
1228.0
 31
0.0
  0
LINE
  5
389
100
AcDbEntity
  8
OBJECT
100
AcDbLine
 10
-1483.0
 20
1424.0
 30
0.0
 11
-1483.0
 21
1402.0
 31
0.0
  0
LINE
  5
38A
100
AcDbEntity
  8
HIDDEN
100
AcDbLine
 10
-1483.0
 20
1402.0
 30
0.0
 11
-1483.0
 21
1243.0
 31
0.0
  0
ARC
  5
38B
100
AcDbEntity
  8
HIDDEN
100
AcDbCircle
 10
-1772.0
 20
1243.0
 30
0.0
 40
15.0
100
AcDbArc
 50
180.0
 51
270.0
  0
ARC
  5
38C
100
AcDbEntity
  8
HIDDEN
100
AcDbCircle
 10
-1498.0
 20
1243.0
 30
0.0
 40
15.000000000000028
100
AcDbArc
 50
270.0
 51
0.0
  0
LWPOLYLINE
  5
38D
100
AcDbEntity
  8
OBJECT
100
AcDbPolyline
 90
        8
 70
             129
 10
-1790.0
 20
1425.0
 10
-1790.0
 20
1425.0
 42
-0.414213562373095
 10
-1785.0
 20
1430.0
 10
-1485.0
 20
1430.0
 10
-1485.0
 20
1430.0
 42
-0.4142135623731018
 10
-1480.0
 20
1425.0
 10
-1480.0
 20
1424.0
 10
-1790.0
 20
1424.0
  0
LINE
  5
38E
100
AcDbEntity
  8
OBJECT
100
AcDbLine
 10
-1812.0
 20
1402.0
 30
0.0
 11
-1458.0
 21
1402.0
 31
0.0
  0
LINE
  5
38F
100
AcDbEntity
  8
OBJECT
100
AcDbLine
 10
-1812.0
 20
1402.0
 30
0.0
 11
-1812.0
 21
1395.0
 31
0.0
  0
LINE
  5
390
100
AcDbEntity
  8
OBJECT
100
AcDbLine
 10
-1458.0
 20
1402.0
 30
0.0
 11
-1458.0
 21
1395.0
 31
0.0
  0
POLYLINE
  5
391
100
AcDbEntity
  8
OBJECT
100
AcDb2dPolyline
 66
               1
 10
0.0
 20
0.0
 30
0.0
 75
               5
  0
VERTEX
  5
392
100
AcDbEntity
  8
OBJECT
100
AcDbVertex
100
AcDb2dVertex
 10
-2408.0834809849603
 20
1598.0
 30
0.0
  0
VERTEX
  5
393
100
AcDbEntity
  8
OBJECT
100
AcDbVertex
100
AcDb2dVertex
 10
-2273.0
 20
1598.0
 30
0.0
  0
VERTEX
  5
394
100
AcDbEntity
  8
OBJECT
100
AcDbVertex
100
AcDb2dVertex
 10
-2273.0
 20
1952.0
 30
0.0
  0
VERTEX
  5
395
100
AcDbEntity
  8
OBJECT
100
AcDbVertex
100
AcDb2dVertex
 10
-2408.0834809849603
 20
1952.0
 30
0.0
  0
SEQEND
  5
396
100
AcDbEntity
  8
OBJECT
  0
POLYLINE
  5
397
100
AcDbEntity
  8
OBJECT
100
AcDb2dPolyline
 66
               1
 10
0.0
 20
0.0
 30
0.0
 75
               5
  0
VERTEX
  5
398
100
AcDbEntity
  8
OBJECT
100
AcDbVertex
100
AcDb2dVertex
 10
-2491.9132139968742
 20
1598.0
 30
0.0
  0
VERTEX
  5
399
100
AcDbEntity
  8
OBJECT
100
AcDbVertex
100
AcDb2dVertex
 10
-2627.0
 20
1598.0
 30
0.0
  0
VERTEX
  5
39A
100
AcDbEntity
  8
OBJECT
100
AcDbVertex
100
AcDb2dVertex
 10
-2627.0
 20
1952.0
 30
0.0
  0
VERTEX
  5
39B
100
AcDbEntity
  8
OBJECT
100
AcDbVertex
100
AcDb2dVertex
 10
-2491.9132139968742
 20
1952.0
 30
0.0
  0
SEQEND
  5
39C
100
AcDbEntity
  8
OBJECT
  0
CIRCLE
  5
39D
100
AcDbEntity
  8
OBJECT
100
AcDbCircle
 10
-2450.0
 20
1775.0
 30
0.0
 40
155.00000252236796
  0
LINE
  5
39E
100
AcDbEntity
  8
OBJECT
100
AcDbLine
 10
-2627.0
 20
1775.0
 30
0.0
 11
-2605.0
 21
1775.0
 31
0.0
  0
LINE
  5
39F
100
AcDbEntity
  8
OBJECT
100
AcDbLine
 10
-2295.0
 20
1775.0
 30
0.0
 11
-2273.0
 21
1775.0
 31
0.0
  0
CIRCLE
  5
3A0
100
AcDbEntity
  8
OBJECT
100
AcDbCircle
 10
-2450.0
 20
1775.0
 30
0.0
 40
142.89856542317006
  0
ARC
  5
3A1
100
AcDbEntity
  8
OBJECT
100
AcDbCircle
 10
-2450.0
 20
1775.0
 30
0.0
 40
69.999996920714437
100
AcDbArc
 50
192.03457092360864
 51
347.96542907639156
  0
ARC
  5
3A2
100
AcDbEntity
  8
OBJECT
100
AcDbCircle
 10
-2450.0
 20
1775.0
 30
0.0
 40
69.999996920714409
100
AcDbArc
 50
12.034570923608539
 51
167.96542907639144
  0
LWPOLYLINE
  5
3A3
100
AcDbEntity
  8
OBJECT
100
AcDbPolyline
 90
        9
 70
             129
 10
-2530.0
 20
1775.0
 42
-0.414213562373095
 10
-2515.0
 20
1790.0
 10
-2385.0
 20
1790.0
 42
-0.414213562373095
 10
-2370.0
 20
1775.0
 10
-2370.0
 20
1775.0
 42
-0.414213562373095
 10
-2385.0
 20
1760.0
 10
-2515.0
 20
1760.0
 10
-2515.0
 20
1760.0
 42
-0.4142135623730939
 10
-2530.0
 20
1775.0
  0
CIRCLE
  5
3A4
100
AcDbEntity
  8
OBJECT
100
AcDbCircle
 10
-2340.0
 20
1775.0
 30
0.0
 40
4.0
  0
ARC
  5
3A5
100
AcDbEntity
  8
OBJECT
100
AcDbCircle
 10
-1565.0
 20
1100.00001
 30
0.0
 40
58.000000311314501
100
AcDbArc
 50
26.451799972932967
 51
14.771007511156178
  0
ARC
  5
3A6
100
AcDbEntity
  8
OBJECT
100
AcDbCircle
 10
-1565.0
 20
1100.0
 30
0.0
 40
48.000004994817495
100
AcDbArc
 50
34.814461264670193
 51
16.077977177177399
  0
LWPOLYLINE
  5
3A7
100
AcDbEntity
  8
OBJECT
100
AcDbPolyline
 90
       26
 70
             129
 10
-1497.5
 20
1115.0
 10
-1507.5
 20
1115.0
 10
-1520.0829773534879
 20
1113.1125533969769
 42
-0.0745828053855623
 10
-1534.9170226465121
 20
1113.1125533969769
 10
-1543.2417022646512
 20
1114.3612553396977
 42
-0.3712473171964767
 10
-1547.5
 20
1119.305937104039
 10
-1547.5
 20
1120.6940628959608
 42
-0.3712473171964767
 10
-1543.2417022646512
 20
1125.6387446603023
 10
-1534.9170226465121
 20
1126.8874466030231
 42
-0.0745828053855633
 10
-1520.0829773534876
 20
1126.8874466030231
 10
-1507.5
 20
1125.0
 10
-1497.5
 20
1125.0
 10
-1497.5
 20
1124.9747
 10
-1497.5
 20
1124.9747
 42
-0.2513937235524245
 10
-1490.0
 20
1129.0
 10
-1490.0
 20
1129.0
 42
-0.4142135623730988
 10
-1481.0
 20
1120.0
 10
-1481.0
 20
1120.0
 42
-0.1308243674272135
 10
-1482.1910000000003
 20
1115.5259799999999
 10
-1479.3325199999999
 20
1112.6674800000001
 10
-1482.8680600000002
 20
1109.13194
 10
-1485.7846400000003
 20
1112.04854
 10
-1485.7846400000003
 20
1112.04854
 42
-0.1225048513445345
 10
-1490.0
 20
1111.0
 10
-1490.0
 20
1111.0
 42
-0.2513945116595192
 10
-1497.5
 20
1115.02532
  0
LINE
  5
3A8
100
AcDbEntity
  8
OBJECT
100
AcDbLine
 10
-1497.5
 20
1116.00001
 30
0.0
 11
-1497.5
 21
1124.00001
 31
0.0
  0
LINE
  5
3A9
100
AcDbEntity
  8
OBJECT
100
AcDbLine
 10
-1502.5
 20
1125.0
 30
0.0
 11
-1502.5
 21
1115.0
 31
0.0
  0
LWPOLYLINE
  5
3AA
100
AcDbEntity
  8
OBJECT
100
AcDbPolyline
 90
        5
 70
             129
 10
-1492.0
 20
1120.0003099999999
 42
-0.414213562373095
 10
-1490.0
 20
1122.0003099999999
 42
-0.4142135623730784
 10
-1488.0
 20
1120.0003099999999
 42
-0.414213562373095
 10
-1490.0
 20
1118.0003099999999
 42
-0.4142135623731117
 10
-1492.0
 20
1120.0003099999999
 42
-0.4142135623731117
  0
POLYLINE
  5
3AB
100
AcDbEntity
  8
OBJECT
100
AcDb2dPolyline
 66
               1
 10
0.0
 20
0.0
 30
0.0
 70
               1
 75
               5
  0
VERTEX
  5
3AC
100
AcDbEntity
  8
OBJECT
100
AcDbVertex
100
AcDb2dVertex
 10
-1487.9792500000003
 20
1116.5003299999998
 30
0.0
  0
VERTEX
  5
3AD
100
AcDbEntity
  8
OBJECT
100
AcDbVertex
100
AcDb2dVertex
 10
-1485.95856
 20
1120.0003099999999
 30
0.0
  0
VERTEX
  5
3AE
100
AcDbEntity
  8
OBJECT
100
AcDbVertex
100
AcDb2dVertex
 10
-1487.9792500000003
 20
1123.5002999999999
 30
0.0
  0
VERTEX
  5
3AF
100
AcDbEntity
  8
OBJECT
100
AcDbVertex
100
AcDb2dVertex
 10
-1492.0206900000003
 20
1123.5003299999998
 30
0.0
  0
VERTEX
  5
3B0
100
AcDbEntity
  8
OBJECT
100
AcDbVertex
100
AcDb2dVertex
 10
-1494.04144
 20
1120.0003099999999
 30
0.0
  0
VERTEX
  5
3B1
100
AcDbEntity
  8
OBJECT
100
AcDbVertex
100
AcDb2dVertex
 10
-1492.0207500000001
 20
1116.5003299999998
 30
0.0
  0
SEQEND
  5
3B2
100
AcDbEntity
  8
OBJECT
  0
LINE
  5
3B3
100
AcDbEntity
  8
CENTER
100
AcDbLine
 10
-1490.0
 20
1185.0
 30
0.0
 11
-1490.0
 21
1060.0
 31
0.0
  0
LINE
  5
3B4
100
AcDbEntity
  8
OBJECT
100
AcDbLine
 10
-2630.0
 20
1560.0
 30
0.0
 11
-2270.0
 21
1560.0
 31
0.0
  0
LINE
  5
3B5
100
AcDbEntity
  8
OBJECT
100
AcDbLine
 10
-2630.0
 20
1560.0
 30
0.0
 11
-2630.0
 21
1595.0
 31
0.0
  0
LINE
  5
3B6
100
AcDbEntity
  8
OBJECT
100
AcDbLine
 10
-2270.0
 20
1560.0
 30
0.0
 11
-2270.0
 21
1595.0
 31
0.0
  0
LINE
  5
3B7
100
AcDbEntity
  8
OBJECT
100
AcDbLine
 10
-2550.0
 20
1670.0
 30
0.0
 11
-2350.0
 21
1670.0
 31
0.0
  0
ARC
  5
3B8
100
AcDbEntity
  8
HIDDEN
100
AcDbCircle
 10
-2450.0
 20
1670.0
 30
0.0
 40
94.999994198379241
100
AcDbArc
 50
307.86364186113252
 51
232.13635813886737
  0
DIMENSION
  5
3B9
100
AcDbEntity
  8
DIMENTION
100
AcDbDimension
  2
*D2
 10
-2740.0
 20
1430.0
 30
0.0
 11
-2740.0
 21
1190.0
 31
0.0
  3
CAD
100
AcDbAlignedDimension
 13
-2630.0
 23
950.0
 33
0.0
 14
-2600.0
 24
1430.0
 34
0.0
 50
90.0
100
AcDbRotatedDimension
1001
ACAD
1000
DSTYLE
1002
{
1070
             271
1070
               0
1070
             340
1005
38
1070
             147
1040
0.4999999981373549
1002
}
  0
LINE
  5
3BA
100
AcDbEntity
  8
CENTER
100
AcDbLine
 10
-2450.0
 20
930.0
 30
0.0
 11
-2450.0
 21
1460.0
 31
0.0
  0
LINE
  5
3BB
100
AcDbEntity
  8
HIDDEN
100
AcDbLine
 10
-2534.0
 20
960.0
 30
0.0
 11
-2366.0
 21
960.0
 31
0.0
  0
LINE
  5
3BC
100
AcDbEntity
  8
HIDDEN
100
AcDbLine
 10
-2534.0
 20
960.0
 30
0.0
 11
-2542.0
 21
980.0
 31
0.0
  0
LINE
  5
3BD
100
AcDbEntity
  8
HIDDEN
100
AcDbLine
 10
-2366.0
 20
960.0
 30
0.0
 11
-2358.0
 21
980.0
 31
0.0
  0
LINE
  5
3BE
100
AcDbEntity
  8
HIDDEN
100
AcDbLine
 10
-1824.0
 20
960.0
 30
0.0
 11
-1656.0
 21
960.0
 31
0.0
  0
LINE
  5
3BF
100
AcDbEntity
  8
HIDDEN
100
AcDbLine
 10
-1824.0
 20
960.0
 30
0.0
 11
-1832.0
 21
980.0
 31
0.0
  0
LINE
  5
3C0
100
AcDbEntity
  8
HIDDEN
100
AcDbLine
 10
-1656.0
 20
960.0
 30
0.0
 11
-1648.0
 21
980.0
 31
0.0
  0
LINE
  5
3C1
100
AcDbEntity
  8
HIDDEN
100
AcDbLine
 10
-2566.0
 20
1228.0
 30
0.0
 11
-2566.0
 21
1195.0
 31
0.0
  0
LINE
  5
3C2
100
AcDbEntity
  8
HIDDEN
100
AcDbLine
 10
-2566.0
 20
1195.0
 30
0.0
 11
-2590.0
 21
1195.0
 31
0.0
  0
LINE
  5
3C3
100
AcDbEntity
  8
HIDDEN
100
AcDbLine
 10
-2590.0
 20
1195.0
 30
0.0
 11
-2590.0
 21
1190.0
 31
0.0
  0
LINE
  5
3C4
100
AcDbEntity
  8
HIDDEN
100
AcDbLine
 10
-2561.0
 20
1224.0
 30
0.0
 11
-2561.0
 21
1190.0
 31
0.0
  0
LINE
  5
3C5
100
AcDbEntity
  8
HIDDEN
100
AcDbLine
 10
-2334.0
 20
1228.0
 30
0.0
 11
-2334.0
 21
1195.0
 31
0.0
  0
LINE
  5
3C6
100
AcDbEntity
  8
HIDDEN
100
AcDbLine
 10
-2334.0
 20
1195.0
 30
0.0
 11
-2310.0
 21
1195.0
 31
0.0
  0
LINE
  5
3C7
100
AcDbEntity
  8
HIDDEN
100
AcDbLine
 10
-2310.0
 20
1195.0
 30
0.0
 11
-2310.0
 21
1190.0
 31
0.0
  0
LINE
  5
3C8
100
AcDbEntity
  8
HIDDEN
100
AcDbLine
 10
-2339.0
 20
1224.0
 30
0.0
 11
-2339.0
 21
1190.0
 31
0.0
  0
LINE
  5
3C9
100
AcDbEntity
  8
HIDDEN
100
AcDbLine
 10
-2561.0
 20
1224.0
 30
0.0
 11
-2339.0
 21
1224.0
 31
0.0
  0
LINE
  5
3CA
100
AcDbEntity
  8
HIDDEN
100
AcDbLine
 10
-1760.0
 20
1228.0
 30
0.0
 11
-1760.0
 21
1190.0
 31
0.0
  0
LINE
  5
3CB
100
AcDbEntity
  8
HIDDEN
100
AcDbLine
 10
-1510.0
 20
1228.0
 30
0.0
 11
-1510.0
 21
1190.0
 31
0.0
  0
DIMENSION
  5
3CC
100
AcDbEntity
  8
DIMENTION
100
AcDbDimension
  2
*D3
 10
-2630.0
 20
900.0
 30
0.0
 11
-2450.0
 21
900.0
 31
0.0
  3
CAD
100
AcDbAlignedDimension
 13
-2270.0
 23
950.0
 33
0.0
 14
-2630.0
 24
950.0
 34
0.0
100
AcDbRotatedDimension
1001
ACAD
1000
DSTYLE
1002
{
1070
             271
1070
               0
1070
             340
1005
38
1070
             147
1040
0.4999999981373549
1002
}
  0
DIMENSION
  5
3CD
100
AcDbEntity
  8
DIMENTION
100
AcDbDimension
  2
*D4
 10
-2700.0
 20
1395.0
 30
0.0
 11
-2700.0
 21
1172.5
 31
0.0
  3
CAD
100
AcDbAlignedDimension
 13
-2630.0
 23
950.0
 33
0.0
 14
-2630.0
 24
1395.0
 34
0.0
 50
90.0
100
AcDbRotatedDimension
1001
ACAD
1000
DSTYLE
1002
{
1070
             271
1070
               0
1070
             340
1005
38
1070
             147
1040
0.4999999981373549
1002
}
  0
LINE
  5
3CE
100
AcDbEntity
  8
DIMENTION
100
AcDbLine
 10
-2000.0
 20
850.0
 30
0.0
 11
-1900.0
 21
850.0
 31
0.0
  0
LINE
  5
3CF
100
AcDbEntity
  8
DIMENTION
100
AcDbLine
 10
-1900.0
 20
850.0
 30
0.0
 11
-1552.3902727937452
 21
1097.607197292614
 31
0.0
  0
LINE
  5
3D0
100
AcDbEntity
  8
DIMENTION
100
AcDbLine
 10
-1552.3902727937452
 20
1097.607197292614
 30
0.0
 11
-1559.7099157260091
 21
1088.8839865315817
 31
0.0
  0
LINE
  5
3D1
100
AcDbEntity
  8
DIMENTION
100
AcDbLine
 10
-1552.3902727937452
 20
1097.607197292614
 30
0.0
 11
-1563.0908749002331
 21
1093.7124966371262
 31
0.0
  0
MTEXT
  5
3D2
100
AcDbEntity
  8
DIMENTION
100
AcDbMText
 10
-2000.0
 20
850.0
 30
0.0
 40
16.933333333333334
 41
0.0
 71
               7
 72
               1
  1
電源ランプ
  7
________
  0
LINE
  5
3D3
100
AcDbEntity
  8
DIMENTION
100
AcDbLine
 10
-1950.0
 20
1700.0
 30
0.0
 11
-2150.0
 21
1700.0
 31
0.0
  0
LINE
  5
3D4
100
AcDbEntity
  8
DIMENTION
100
AcDbLine
 10
-2150.0
 20
1700.0
 30
0.0
 11
-2340.0
 21
1775.0
 31
0.0
  0
LINE
  5
3D5
100
AcDbEntity
  8
DIMENTION
100
AcDbLine
 10
-2340.0
 20
1775.0
 30
0.0
 11
-2328.6975366134548
 21
1773.6122319959618
 31
0.0
  0
LINE
  5
3D6
100
AcDbEntity
  8
DIMENTION
100
AcDbLine
 10
-2340.0
 20
1775.0
 30
0.0
 11
-2330.9056635839274
 21
1768.1469259606711
 31
0.0
  0
MTEXT
  5
3D7
100
AcDbEntity
  8
DIMENTION
100
AcDbMText
 10
-2150.0
 20
1700.0
 30
0.0
 40
16.933333333333334
 41
0.0
 71
               7
 72
               1
  1
温度計差し込み穴φ8
  7
________
  0
DIMENSION
  5
3D8
100
AcDbEntity
  8
DIMENTION
100
AcDbDimension
  2
*D5
 10
-1350.0000000186265
 20
950.0
 30
0.0
 11
-1349.5000000204891
 21
1010.0
 31
0.0
 70
             128
  3
CAD
100
AcDbAlignedDimension
 13
-1483.0
 23
1070.0
 33
0.0
 14
-1454.0
 24
950.0
 34
0.0
 50
90.0
100
AcDbRotatedDimension
1001
ACAD
1000
DSTYLE
1002
{
1070
             271
1070
               0
1070
             340
1005
38
1070
             147
1040
0.4999999981373549
1002
}
  0
DIMENSION
  5
3D9
100
AcDbEntity
  8
DIMENTION
100
AcDbDimension
  2
*D6
 10
-1900.0
 20
950.0
 30
0.0
 11
-1900.0
 21
965.0
 31
0.0
  3
CAD
100
AcDbAlignedDimension
 13
-1850.0
 23
980.0
 33
0.0
 14
-1850.0
 24
950.0
 34
0.0
 50
90.0
100
AcDbRotatedDimension
1001
ACAD
1000
DSTYLE
1002
{
1070
             271
1070
               0
1070
             340
1005
38
1070
             147
1040
0.4999999981373549
1002
}
  0
DIMENSION
  5
3DA
100
AcDbEntity
  8
DIMENTION
100
AcDbDimension
  2
*D7
 10
-1900.0
 20
980.0
 30
0.0
 11
-1900.0
 21
1035.0
 31
0.0
  3
CAD
100
AcDbAlignedDimension
 13
-1757.0
 23
1090.0
 33
0.0
 14
-1850.0
 24
980.0
 34
0.0
 50
90.0
100
AcDbRotatedDimension
1001
ACAD
1000
DSTYLE
1002
{
1070
             271
1070
               0
1070
             340
1005
38
1070
             147
1040
0.4999999981373549
1002
}
  0
DIMENSION
  5
3DB
100
AcDbEntity
  8
DIMENTION
100
AcDbDimension
  2
*D8
 10
-1900.0
 20
1090.0
 30
0.0
 11
-1900.0
 21
1140.0
 31
0.0
  3
CAD
100
AcDbAlignedDimension
 13
-1815.0
 23
1190.0
 33
0.0
 14
-1757.0
 24
1090.0
 34
0.0
 50
90.0
100
AcDbRotatedDimension
1001
ACAD
1000
DSTYLE
1002
{
1070
             271
1070
               0
1070
             340
1005
38
1070
             147
1040
0.4999999981373549
1002
}
  0
DIMENSION
  5
3DC
100
AcDbEntity
  8
DIMENTION
100
AcDbDimension
  2
*D9
 10
-1900.0
 20
1190.0
 30
0.0
 11
-1900.0
 21
1292.5
 31
0.0
  3
CAD
100
AcDbAlignedDimension
 13
-1815.0
 23
1395.0
 33
0.0
 14
-1815.0
 24
1190.0
 34
0.0
 50
90.0
100
AcDbRotatedDimension
1001
ACAD
1000
DSTYLE
1002
{
1070
             271
1070
               0
1070
             340
1005
38
1070
             147
1040
0.4999999981373549
1002
}
  0
DIMENSION
  5
3DD
100
AcDbEntity
  8
DIMENTION
100
AcDbDimension
  2
*D10
 10
-1455.0
 20
1500.0
 30
0.0
 11
-1635.0
 21
1500.4999999981374
 31
0.0
 70
             128
  3
CAD
100
AcDbAlignedDimension
 13
-1815.0
 23
1395.0
 33
0.0
 14
-1455.0
 24
1395.0
 34
0.0
100
AcDbRotatedDimension
1001
ACAD
1000
DSTYLE
1002
{
1070
             271
1070
               0
1070
             340
1005
38
1070
             147
1040
0.4999999981373549
1002
}
  0
MTEXT
  5
3DE
100
AcDbEntity
  8
DIMENTION
100
AcDbMText
 10
-1400.0
 20
875.0
 30
0.0
 40
16.933333333333334
 41
0.0
 71
               7
 72
               1
  1
排水口
  7
________
  0
MTEXT
  5
3DF
100
AcDbEntity
  8
DIMENTION
100
AcDbMText
 10
-2150.0
 20
1550.0
 30
0.0
 40
16.933333333333334
 41
0.0
 71
               7
 72
               1
  1
目皿
  7
________
  0
MTEXT
  5
3E0
100
AcDbEntity
  8
DIMENTION
100
AcDbMText
 10
-2000.0
 20
900.0
 30
0.0
 40
16.933333333333334
 41
0.0
 71
               7
 72
               1
  1
電源スイッチ
  7
________
  0
MTEXT
  5
3E1
100
AcDbEntity
  8
DIMENTION
100
AcDbMText
 10
-2850.0
 20
1790.0
 30
0.0
 40
16.933333333333334
 41
0.0
 71
               1
 72
               1
  1
電源コード　3.5m\P2極プラグ 125 V 15 A\Pアース接続端子付
  7
________
  0
MTEXT
  5
3E2
100
AcDbEntity
  8
DIMENTION
100
AcDbMText
 10
-2050.0
 20
1200.0
 30
0.0
 40
16.933333333333334
 41
0.0
 71
               7
 72
               1
  1
注出レバー
  7
________
  0
MTEXT
  5
3E3
100
AcDbEntity
  8
DIMENTION
100
AcDbMText
 10
-2150.0
 20
1400.0
 30
0.0
 40
16.933333333333334
 41
0.0
 71
               7
 72
               1
  1
湯煎槽
  7
________
  0
MTEXT
  5
3E4
100
AcDbEntity
  8
DIMENTION
100
AcDbMText
 10
-2150.0
 20
1450.0
 30
0.0
 40
16.933333333333334
 41
0.0
 71
               7
 72
               1
  1
湯煎蓋
  7
________
  0
MTEXT
  5
3E5
100
AcDbEntity
  8
DIMENTION
100
AcDbMText
 10
-2150.0
 20
1500.0
 30
0.0
 40
16.933333333333334
 41
0.0
 71
               7
 72
               1
  1
スープタンク蓋
  7
________
  0
LINE
  5
3E6
100
AcDbEntity
  8
DIMENTION
100
AcDbLine
 10
-1335.0
 20
875.0
 30
0.0
 11
-1400.0
 21
875.0
 31
0.0
  0
LINE
  5
3E7
100
AcDbEntity
  8
DIMENTION
100
AcDbLine
 10
-1400.0
 20
875.0
 30
0.0
 11
-1490.0
 21
1070.0
 31
0.0
  0
LINE
  5
3E8
100
AcDbEntity
  8
DIMENTION
100
AcDbLine
 10
-1490.0
 20
1070.0
 30
0.0
 11
-1482.8337129044478
 21
1061.1503724427889
 31
0.0
  0
LINE
  5
3E9
100
AcDbEntity
  8
DIMENTION
100
AcDbLine
 10
-1490.0
 20
1070.0
 30
0.0
 11
-1488.2186271030446
 21
1058.7528541736483
 31
0.0
  0
LINE
  5
3EA
100
AcDbEntity
  8
DIMENTION
100
AcDbLine
 10
-2105.0
 20
1550.0000058016208
 30
0.0
 11
-2150.0
 21
1550.0000058016208
 31
0.0
  0
LINE
  5
3EB
100
AcDbEntity
  8
DIMENTION
100
AcDbLine
 10
-2150.0
 20
1550.0
 30
0.0
 11
-2361.593499303061
 21
1635.2251594940508
 31
0.0
  0
LINE
  5
3EC
100
AcDbEntity
  8
DIMENTION
100
AcDbLine
 10
-2361.593499303061
 20
1635.2251594940508
 30
0.0
 11
-2350.2910359165157
 21
1633.8373914900128
 31
0.0
  0
LINE
  5
3ED
100
AcDbEntity
  8
DIMENTION
100
AcDbLine
 10
-2361.593499303061
 20
1635.2251594940508
 30
0.0
 11
-2352.4991628869884
 21
1628.3720854547221
 31
0.0
  0
LINE
  5
3EE
100
AcDbEntity
  8
DIMENTION
100
AcDbLine
 10
-2015.0
 20
1500.0
 30
0.0
 11
-2150.0
 21
1500.0
 31
0.0
  0
LINE
  5
3EF
100
AcDbEntity
  8
DIMENTION
100
AcDbLine
 10
-2150.0
 20
1500.0
 30
0.0
 11
-2295.8405478471559
 21
1427.7746995852135
 31
0.0
  0
LINE
  5
3F0
100
AcDbEntity
  8
DIMENTION
100
AcDbLine
 10
-2295.8405478471559
 20
1427.7746995852135
 30
0.0
 11
-2287.2464110568039
 21
1435.2454687200448
 31
0.0
  0
LINE
  5
3F1
100
AcDbEntity
  8
DIMENTION
100
AcDbLine
 10
-2295.8405478471559
 20
1427.7746995852135
 30
0.0
 11
-2284.6624224956972
 21
1429.9475070466101
 31
0.0
  0
LINE
  5
3F2
100
AcDbEntity
  8
DIMENTION
100
AcDbLine
 10
-2085.0
 20
1450.0
 30
0.0
 11
-2150.0
 21
1450.0
 31
0.0
  0
LINE
  5
3F3
100
AcDbEntity
  8
DIMENTION
100
AcDbLine
 10
-2150.0
 20
1450.0
 30
0.0
 11
-2273.0
 21
1402.0
 31
0.0
  0
LINE
  5
3F4
100
AcDbEntity
  8
DIMENTION
100
AcDbLine
 10
-2273.0
 20
1402.0
 30
0.0
 11
-2263.7874460619341
 21
1408.6933122275482
 31
0.0
  0
LINE
  5
3F5
100
AcDbEntity
  8
DIMENTION
100
AcDbLine
 10
-2273.0
 20
1402.0
 30
0.0
 11
-2261.6750381421261
 21
1403.1903014554848
 31
0.0
  0
LINE
  5
3F6
100
AcDbEntity
  8
DIMENTION
100
AcDbLine
 10
-2085.0
 20
1400.0
 30
0.0
 11
-2150.0
 21
1400.0
 31
0.0
  0
LINE
  5
3F7
100
AcDbEntity
  8
DIMENTION
100
AcDbLine
 10
-2150.0
 20
1400.0
 30
0.0
 11
-2270.0
 21
1350.0
 31
0.0
  0
LINE
  5
3F8
100
AcDbEntity
  8
DIMENTION
100
AcDbLine
 10
-2270.0
 20
1350.0
 30
0.0
 11
-2260.9056635839274
 21
1356.8530740393287
 31
0.0
  0
LINE
  5
3F9
100
AcDbEntity
  8
DIMENTION
100
AcDbLine
 10
-2270.0
 20
1350.0
 30
0.0
 11
-2258.6975366134548
 21
1351.3877680040382
 31
0.0
  0
LINE
  5
3FA
100
AcDbEntity
  8
DIMENTION
100
AcDbLine
 10
-2040.0
 20
1350.0
 30
0.0
 11
-2150.0
 21
1350.0
 31
0.0
  0
LINE
  5
3FB
100
AcDbEntity
  8
DIMENTION
100
AcDbLine
 10
-2150.0
 20
1350.0
 30
0.0
 11
-2298.0
 21
1300.0
 31
0.0
  0
LINE
  5
3FC
100
AcDbEntity
  8
DIMENTION
100
AcDbLine
 10
-2298.0
 20
1300.0
 30
0.0
 11
-2288.4497706510665
 21
1306.2019914559753
 31
0.0
  0
LINE
  5
3FD
100
AcDbEntity
  8
DIMENTION
100
AcDbLine
 10
-2298.0
 20
1300.0
 30
0.0
 11
-2286.6282630438682
 21
1300.5959674804617
 31
0.0
  0
LINE
  5
3FE
100
AcDbEntity
  8
DIMENTION
100
AcDbLine
 10
-1885.0
 20
900.0
 30
0.0
 11
-2000.0
 21
900.0
 31
0.0
  0
LINE
  5
3FF
100
AcDbEntity
  8
DIMENTION
100
AcDbLine
 10
-1885.0
 20
900.0
 30
0.0
 11
-1594.6623393489695
 21
1097.4233833179887
 31
0.0
  0
LINE
  5
400
100
AcDbEntity
  8
DIMENTION
100
AcDbLine
 10
-1594.6623393489695
 20
1097.4233833179887
 30
0.0
 11
-1602.1331084838009
 21
1088.829246527637
 31
0.0
  0
LINE
  5
401
100
AcDbEntity
  8
DIMENTION
100
AcDbLine
 10
-1594.6623393489695
 20
1097.4233833179887
 30
0.0
 11
-1605.429283600718
 21
1093.7160271013613
 31
0.0
  0
LINE
  5
402
100
AcDbEntity
  8
DIMENTION
100
AcDbLine
 10
-2050.0
 20
1200.0
 30
0.0
 11
-1945.0
 21
1200.0
 31
0.0
  0
LINE
  5
403
100
AcDbEntity
  8
DIMENTION
100
AcDbLine
 10
-1945.0
 20
1200.0
 30
0.0
 11
-1832.4995600000002
 21
1123.29937
 31
0.0
  0
LINE
  5
404
100
AcDbEntity
  8
DIMENTION
100
AcDbLine
 10
-1832.4995600000002
 20
1123.29937
 30
0.0
 11
-1843.2001621064878
 21
1127.1940706554878
 31
0.0
  0
LINE
  5
405
100
AcDbEntity
  8
DIMENTION
100
AcDbLine
 10
-1832.4995600000002
 20
1123.29937
 30
0.0
 11
-1839.8192029322638
 21
1132.022580761032
 31
0.0
  0
DIMENSION
  5
406
100
AcDbEntity
  8
DIMENTION
100
AcDbDimension
  2
*D11
 10
-1455.0
 20
875.0
 30
0.0
 11
-1652.2709655761719
 21
875.49999999813735
 31
0.0
 70
             128
  3
CAD
100
AcDbAlignedDimension
 13
-1850.0
 23
950.0
 33
0.0
 14
-1455.0
 24
950.0
 34
0.0
100
AcDbRotatedDimension
1001
ACAD
1000
DSTYLE
1002
{
1070
             271
1070
               0
1070
             340
1005
38
1070
             147
1040
0.4999999981373549
1002
}
  0
DIMENSION
  5
407
100
AcDbEntity
  8
DIMENTION
100
AcDbDimension
  2
*D12
 10
-2250.25
 20
900.0
 30
0.0
 11
-2230.0
 21
900.49999999813735
 31
0.0
 70
             128
  3
CAD
100
AcDbAlignedDimension
 13
-2270.0
 23
950.0
 33
0.0
 14
-2250.25
 24
1066.0
 34
0.0
100
AcDbRotatedDimension
1001
ACAD
1000
DSTYLE
1002
{
1070
             271
1070
               0
1070
             340
1005
38
1070
             174
1070
               0
1070
             147
1040
0.4999999981373549
1002
}
  0
MTEXT
  5
408
100
AcDbEntity
  8
DIMENTION
100
AcDbMText
 10
-2150.0
 20
1775.0
 30
0.0
 40
16.933333333333334
 41
0.0
 71
               7
 72
               1
  1
ボールバルブ
  7
________
  0
LINE
  5
409
100
AcDbEntity
  8
DIMENTION
100
AcDbLine
 10
-2030.0
 20
1775.0
 30
0.0
 11
-2150.0
 21
1775.0
 31
0.0
  0
LINE
  5
40A
100
AcDbEntity
  8
DIMENTION
100
AcDbLine
 10
-2150.0
 20
1775.0
 30
0.0
 11
-2222.75
 21
1835.0
 31
0.0
  0
LINE
  5
40B
100
AcDbEntity
  8
DIMENTION
100
AcDbLine
 10
-2222.75
 20
1835.0
 30
0.0
 11
-2212.4295624435367
 21
1830.1875009319106
 31
0.0
  0
LINE
  5
40C
100
AcDbEntity
  8
DIMENTION
100
AcDbLine
 10
-2222.75
 20
1835.0
 30
0.0
 11
-2216.2184884319763
 21
1825.6720347731139
 31
0.0
  0
MTEXT
  5
40D
100
AcDbEntity
  8
DIMENTION
100
AcDbMText
 10
-2050.0
 20
1000.0
 30
0.0
 40
16.933333333333334
 41
0.0
 71
               7
 72
               1
  1
注出チューブ
  7
________
  0
LINE
  5
40E
100
AcDbEntity
  8
DIMENTION
100
AcDbLine
 10
-2050.0
 20
1000.0
 30
0.0
 11
-1930.0
 21
1000.0
 31
0.0
  0
LINE
  5
40F
100
AcDbEntity
  8
DIMENTION
100
AcDbLine
 10
-1930.0
 20
1000.0
 30
0.0
 11
-1757.0
 21
1090.0
 31
0.0
  0
LINE
  5
410
100
AcDbEntity
  8
DIMENTION
100
AcDbLine
 10
-1757.0
 20
1090.0
 30
0.0
 11
-1765.4624449623518
 21
1082.3803803312505
 31
0.0
  0
LINE
  5
411
100
AcDbEntity
  8
DIMENTION
100
AcDbLine
 10
-1757.0
 20
1090.0
 30
0.0
 11
-1768.1385021498991
 21
1087.6324382808634
 31
0.0
  0
DIMENSION
  5
412
100
AcDbEntity
  8
DIMENTION
100
AcDbDimension
  2
*D13
 10
-1455.0
 20
915.0
 30
0.0
 11
-1472.5
 21
915.0
 31
0.0
  3
CAD
100
AcDbAlignedDimension
 13
-1490.0
 23
1070.0
 33
0.0
 14
-1455.0
 24
950.0
 34
0.0
100
AcDbRotatedDimension
1001
ACAD
1000
DSTYLE
1002
{
1070
             271
1070
               0
1070
             340
1005
38
1070
             147
1040
0.4999999981373549
1002
}
  0
INSERT
  5
413
100
AcDbEntity
  8
CENTER
100
AcDbBlockReference
  2
*U14
 10
-2049.5999999999999
 20
1433.9999999999998
 30
0.0
  0
INSERT
  5
414
100
AcDbEntity
  8
CENTER
100
AcDbBlockReference
  2
*U15
 10
-2049.5999999999999
 20
1433.9999999999998
 30
0.0
  0
MTEXT
  5
415
100
AcDbEntity
  8
OBJECT
100
AcDbMText
 10
-2140.0
 20
760.0
 30
0.0
 40
16.933327999999999
 41
0.0
 71
               4
 72
               1
  1
スープウォーマーディスペンサー
  7
________
  0
ARC
  5
416
100
AcDbEntity
  8
OBJECT
100
AcDbCircle
 10
-2450.0
 20
1670.0
 30
0.0
 40
94.99999419837927
100
AcDbArc
 50
232.13635813886739
 51
307.86364186113252
  0
MTEXT
  5
417
100
AcDbEntity
  8
DIMENTION
100
AcDbMText
 10
-2150.0
 20
1350.0
 30
0.0
 40
16.933333333333334
 41
0.0
 71
               7
 72
               1
  1
スープタンク
  7
________
  0
LINE
  5
418
100
AcDbEntity
  8
CENTER
100
AcDbLine
 10
-2450.0
 20
1577.0000058016208
 30
0.0
 11
-2450.0
 21
1545.0000058016208
 31
0.0
  0
MTEXT
  5
419
100
AcDbEntity
  8
TEXT
100
AcDbMText
 10
-2516.5
 20
773.00000000000023
 30
0.0
 40
14.111111111111112
 41
0.0
 71
               1
 72
               1
  1
月川
  7
________
  0
MTEXT
  5
41A
100
AcDbEntity
  8
TEXT
100
AcDbMText
 10
-2516.5
 20
796.00000000000023
 30
0.0
 40
14.111111111111112
 41
0.0
 71
               1
 72
               1
  1
大谷
  7
________
  0
INSERT
  5
41B
100
AcDbEntity
  8
FRAME
100
AcDbBlockReference
  2
*U21
 10
-2049.5999999999999
 20
1433.9999999999998
 30
0.0
  0
MTEXT
  5
41C
100
AcDbEntity
  8
TEXT
100
AcDbMText
 10
-2521.9861111111113
 20
750.54166666666663
 30
0.0
 40
14.111111111111112
 41
0.0
 71
               1
 72
               1
  1
2021.08.05
  7
________
  0
MTEXT
  5
41D
100
AcDbEntity
  8
TEXT
100
AcDbMText
 10
-1640.0
 20
2035.0
 30
0.0
 40
16.933333333333334
 41
0.0
 71
               4
 72
               1
  1
スープ保温方式
  7
________
  0
MTEXT
  5
41E
100
AcDbEntity
  8
TEXT
100
AcDbMText
 10
-1470.0
 20
2035.0
 30
0.0
 40
16.933333333333334
 41
0.0
 71
               4
 72
               1
  1
スープタンク湯煎式
  7
________
  0
MTEXT
  5
41F
100
AcDbEntity
  8
TEXT
100
AcDbMText
 10
-1640.0
 20
2005.0
 30
0.0
 40
16.933333333333334
 41
0.0
 71
               4
 72
               1
  1
スープ注出方式
  7
________
  0
MTEXT
  5
420
100
AcDbEntity
  8
TEXT
100
AcDbMText
 10
-1470.0
 20
2005.0
 30
0.0
 40
16.933333333333334
 41
0.0
 71
               4
 72
               1
  1
レバーによる手動注出
  7
________
  0
MTEXT
  5
421
100
AcDbEntity
  8
TEXT
100
AcDbMText
 10
-1640.0
 20
1975.0
 30
0.0
 40
16.933333333333334
 41
0.0
 71
               4
 72
               1
  1
スープタンク容量
  7
________
  0
MTEXT
  5
422
100
AcDbEntity
  8
TEXT
100
AcDbMText
 10
-1470.0
 20
1975.0
 30
0.0
 40
16.933333333333334
 41
0.0
 71
               4
 72
               1
  1
13.0 L（有効11.5 L)
  7
________
  0
MTEXT
  5
423
100
AcDbEntity
  8
TEXT
100
AcDbMText
 10
-1640.0
 20
1907.5
 30
0.0
 40
16.933333333333334
 41
0.0
 71
               4
 72
               1
  1
湯      煎      槽
  7
________
  0
MTEXT
  5
424
100
AcDbEntity
  8
TEXT
100
AcDbMText
 10
-1640.0
 20
1840.0
 30
0.0
 40
16.933333333333334
 41
0.0
 71
               4
 72
               1
  1
電　　　  　　  源
  7
________
  0
MTEXT
  5
425
100
AcDbEntity
  8
TEXT
100
AcDbMText
 10
-1470.0
 20
1840.0
 30
0.0
 40
16.933333333333334
 41
0.0
 71
               4
 72
               1
  1
単相 100 V　　50/60 Hz
  7
________
  0
MTEXT
  5
426
100
AcDbEntity
  8
TEXT
100
AcDbMText
 10
-1640.0
 20
1810.0
 30
0.0
 40
16.933333333333334
 41
0.0
 71
               4
 72
               1
  1
最大消費電力
  7
________
  0
MTEXT
  5
427
100
AcDbEntity
  8
TEXT
100
AcDbMText
 10
-1470.0
 20
1810.0
 30
0.0
 40
16.933333333333334
 41
0.0
 71
               4
 72
               1
  1
800 W
  7
________
  0
LINE
  5
428
100
AcDbEntity
  8
TEXT
  6
CONTINUOUS
100
AcDbLine
 10
-1650.0
 20
2020.0
 30
0.0
 11
-1120.0
 21
2020.0
 31
0.0
  0
LINE
  5
429
100
AcDbEntity
  8
TEXT
  6
CONTINUOUS
100
AcDbLine
 10
-1650.0
 20
1855.0
 30
0.0
 11
-1120.0
 21
1855.0
 31
0.0
  0
LINE
  5
42A
100
AcDbEntity
  8
TEXT
  6
CONTINUOUS
100
AcDbLine
 10
-1650.0
 20
1825.0
 30
0.0
 11
-1120.0
 21
1825.0
 31
0.0
  0
LINE
  5
42B
100
AcDbEntity
  8
TEXT
  6
CONTINUOUS
100
AcDbLine
 10
-1480.0
 20
2050.0
 30
0.0
 11
-1480.0
 21
1625.0
 31
0.0
  0
MTEXT
  5
42C
100
AcDbEntity
  8
TEXT
100
AcDbMText
 10
-1640.0
 20
1750.0
 30
0.0
 40
16.933333333333334
 41
0.0
 71
               4
 72
               1
  1
質               量
  7
________
  0
MTEXT
  5
42D
100
AcDbEntity
  8
TEXT
100
AcDbMText
 10
-1470.0
 20
1750.0
 30
0.0
 40
16.933333333333334
 41
0.0
 71
               4
 72
               1
  1
15 ㎏
  7
________
  0
LINE
  5
42E
100
AcDbEntity
  8
TEXT
  6
CONTINUOUS
100
AcDbLine
 10
-1650.0
 20
1765.0
 30
0.0
 11
-1120.0
 21
1765.0
 31
0.0
  0
MTEXT
  5
42F
100
AcDbEntity
  8
TEXT
100
AcDbMText
 10
-1470.0
 20
1945.0
 30
0.0
 40
16.933333333333334
 41
0.0
 71
               4
 72
               1
  1
容量：8.0 L
  7
________
  0
MTEXT
  5
430
100
AcDbEntity
  8
TEXT
100
AcDbMText
 10
-1470.0
 20
1920.0
 30
0.0
 40
16.933333333333334
 41
0.0
 71
               4
 72
               1
  1
加熱方式：電気ヒーター 800 W
  7
________
  0
MTEXT
  5
431
100
AcDbEntity
  8
TEXT
100
AcDbMText
 10
-1470.0
 20
1895.0
 30
0.0
 40
16.933333333333334
 41
0.0
 71
               4
 72
               1
  1
温度制御：サーモスタット方式
  7
________
  0
MTEXT
  5
432
100
AcDbEntity
  8
TEXT
100
AcDbMText
 10
-1470.0
 20
1870.0
 30
0.0
 40
16.933333333333334
 41
0.0
 71
               4
 72
               1
  1
空焚防止：フロートスイッチによる
  7
________
  0
LINE
  5
433
100
AcDbEntity
  8
TEXT
  6
CONTINUOUS
100
AcDbLine
 10
-1650.0
 20
1990.0
 30
0.0
 11
-1120.0
 21
1990.0
 31
0.0
  0
LINE
  5
434
100
AcDbEntity
  8
TEXT
  6
CONTINUOUS
100
AcDbLine
 10
-1650.0
 20
1960.0
 30
0.0
 11
-1120.0
 21
1960.0
 31
0.0
  0
LINE
  5
435
100
AcDbEntity
  8
TEXT
  6
CONTINUOUS
100
AcDbLine
 10
-1650.0
 20
1735.0
 30
0.0
 11
-1120.0
 21
1735.0
 31
0.0
  0
MTEXT
  5
436
100
AcDbEntity
  8
TEXT
100
AcDbMText
 10
-1640.0
 20
1680.0
 30
0.0
 40
16.933333333333334
 41
0.0
 71
               4
 72
               1
  1
付      属      品
  7
________
  0
MTEXT
  5
437
100
AcDbEntity
  8
TEXT
100
AcDbMText
 10
-1470.0
 20
1720.0
 30
0.0
 40
16.933333333333334
 41
0.0
 71
               4
 72
               1
  1
排水ホース　　　　　1本(2m)
  7
________
  0
MTEXT
  5
438
100
AcDbEntity
  8
TEXT
100
AcDbMText
 10
-1470.0
 20
1695.0
 30
0.0
 40
16.933333333333334
 41
0.0
 71
               4
 72
               1
  1
注出チューブ　　　　2本
  7
________
  0
MTEXT
  5
439
100
AcDbEntity
  8
TEXT
100
AcDbMText
 10
-1470.0
 20
1670.0
 30
0.0
 40
16.933333333333334
 41
0.0
 71
               4
 72
               1
  1
パッキン　　　　　　　1個
  7
________
  0
MTEXT
  5
43A
100
AcDbEntity
  8
TEXT
100
AcDbMText
 10
-1470.0
 20
1645.0
 30
0.0
 40
16.933333333333334
 41
0.0
 71
               4
 72
               1
  1
ワイヤークランプ    1個
  7
________
  0
POLYLINE
  5
43B
100
AcDbEntity
  8
TEXT
  6
CONTINUOUS
100
AcDb2dPolyline
 66
               1
 10
0.0
 20
0.0
 30
0.0
 70
               1
 75
               5
  0
VERTEX
  5
43C
100
AcDbEntity
  8
TEXT
  6
CONTINUOUS
100
AcDbVertex
100
AcDb2dVertex
 10
-1650.0
 20
2050.0
 30
0.0
  0
VERTEX
  5
43D
100
AcDbEntity
  8
TEXT
  6
CONTINUOUS
100
AcDbVertex
100
AcDb2dVertex
 10
-1120.0
 20
2050.0
 30
0.0
  0
VERTEX
  5
43E
100
AcDbEntity
  8
TEXT
  6
CONTINUOUS
100
AcDbVertex
100
AcDb2dVertex
 10
-1120.0
 20
1625.0
 30
0.0
  0
VERTEX
  5
43F
100
AcDbEntity
  8
TEXT
  6
CONTINUOUS
100
AcDbVertex
100
AcDb2dVertex
 10
-1650.0
 20
1625.0
 30
0.0
  0
SEQEND
  5
440
100
AcDbEntity
  8
TEXT
  6
CONTINUOUS
  0
LINE
  5
441
100
AcDbEntity
  8
TEXT
  6
CONTINUOUS
100
AcDbLine
 10
-1650.0
 20
1795.0
 30
0.0
 11
-1120.0
 21
1795.0
 31
0.0
  0
MTEXT
  5
442
100
AcDbEntity
  8
TEXT
100
AcDbMText
 10
-1640.0
 20
1780.0
 30
0.0
 40
16.933333333333334
 41
0.0
 71
               4
 72
               1
  1
最 大 電 流 値
  7
________
  0
MTEXT
  5
443
100
AcDbEntity
  8
TEXT
100
AcDbMText
 10
-1470.0
 20
1780.0
 30
0.0
 40
16.933333333333334
 41
0.0
 71
               4
 72
               1
  1
8.0 A
  7
________
  0
MTEXT
  5
444
100
AcDbEntity
  8
TEXT
100
AcDbMText
 10
-1472.52
 20
757.66874999999982
 30
0.0
 40
25.400000000000002
 41
0.0
 71
               5
 72
               1
  1
1/5
  7
________
  0
MTEXT
  5
445
100
AcDbEntity
  8
TEXT
100
AcDbMText
 10
-1677.52
 20
757.66874999999982
 30
0.0
 40
28.222222222222225
 41
0.0
 71
               5
 72
               1
  1
SWD 13
  7
________
  0
POINT
  5
446
100
AcDbEntity
  8
DIMENTION
  6
CONTINUOUS
100
AcDbPoint
 10
-1037.4000000000001
 20
730.39999999999986
 30
0.0
  0
MTEXT
  5
447
100
AcDbEntity
  8
TEXT
100
AcDbMText
 10
-1227.4600000000005
 20
757.66874999999982
 30
0.0
 40
33.866666666666667
 41
0.0
 71
               5
 72
               1
  1
A340-0{\H0.983x;\l76}{\H0.983x;\lA}
  7
ARIAL
  0
INSERT
  5
448
100
AcDbEntity
  8
OBJECT
100
AcDbBlockReference
  2
*U22
 10
-2049.5999999999999
 20
1433.9999999999998
 30
0.0
  0
POLYLINE
  5
449
100
AcDbEntity
  8
OBJECT
100
AcDb2dPolyline
 66
               1
 10
0.0
 20
0.0
 30
0.0
 75
               5
  0
VERTEX
  5
44A
100
AcDbEntity
  8
OBJECT
100
AcDbVertex
100
AcDb2dVertex
 10
-2477.000000131814
 20
1449.2352939833218
 30
0.0
  0
VERTEX
  5
44B
100
AcDbEntity
  8
OBJECT
100
AcDbVertex
100
AcDb2dVertex
 10
-2478.2147173170697
 20
1449.1958605124335
 30
0.0
  0
VERTEX
  5
44C
100
AcDbEntity
  8
OBJECT
100
AcDbVertex
100
AcDb2dVertex
 10
-2480.2966177003418
 20
1448.9424303042372
 30
0.0
  0
VERTEX
  5
44D
100
AcDbEntity
  8
OBJECT
100
AcDbVertex
100
AcDb2dVertex
 10
-2482.3318121168118
 20
1448.456745546277
 30
0.0
  0
VERTEX
  5
44E
100
AcDbEntity
  8
OBJECT
100
AcDbVertex
100
AcDb2dVertex
 10
-2484.2879760945516
 20
1447.74518638939
 30
0.0
  0
VERTEX
  5
44F
100
AcDbEntity
  8
OBJECT
100
AcDbVertex
100
AcDb2dVertex
 10
-2486.1344439744403
 20
1446.817666078827
 30
0.0
  0
VERTEX
  5
450
100
AcDbEntity
  8
OBJECT
100
AcDbVertex
100
AcDb2dVertex
 10
-2487.8418048385802
 20
1445.6877871771003
 30
0.0
  0
VERTEX
  5
451
100
AcDbEntity
  8
OBJECT
100
AcDbVertex
100
AcDb2dVertex
 10
-2489.382519001178
 20
1444.3728771128515
 30
0.0
  0
VERTEX
  5
452
100
AcDbEntity
  8
OBJECT
100
AcDbVertex
100
AcDb2dVertex
 10
-2490.7316540722391
 20
1442.8938655408808
 30
0.0
  0
VERTEX
  5
453
100
AcDbEntity
  8
OBJECT
100
AcDbVertex
100
AcDb2dVertex
 10
-2491.8676635386551
 20
1441.2749151205758
 30
0.0
  0
VERTEX
  5
454
100
AcDbEntity
  8
OBJECT
100
AcDbVertex
100
AcDb2dVertex
 10
-2492.773070724696
 20
1439.5427717081577
 30
0.0
  0
VERTEX
  5
455
100
AcDbEntity
  8
OBJECT
100
AcDbVertex
100
AcDb2dVertex
 10
-2493.4349051171275
 20
1437.7258937660913
 30
0.0
  0
VERTEX
  5
456
100
AcDbEntity
  8
OBJECT
100
AcDbVertex
100
AcDb2dVertex
 10
-2493.8447939865882
 20
1435.8535090239905
 30
0.0
  0
VERTEX
  5
457
100
AcDbEntity
  8
OBJECT
100
AcDbVertex
100
AcDb2dVertex
 10
-2493.9969085202983
 20
1434.0601752944071
 30
0.0
  0
VERTEX
  5
458
100
AcDbEntity
  8
OBJECT
100
AcDbVertex
100
AcDb2dVertex
 10
-2494.0
 20
1433.764705899551
 30
0.0
  0
SEQEND
  5
459
100
AcDbEntity
  8
OBJECT
  0
POLYLINE
  5
45A
100
AcDbEntity
  8
OBJECT
100
AcDb2dPolyline
 66
               1
 10
0.0
 20
0.0
 30
0.0
 75
               5
  0
VERTEX
  5
45B
100
AcDbEntity
  8
OBJECT
100
AcDbVertex
100
AcDb2dVertex
 10
-2486.0
 20
1433.7647058719022
 30
0.0
  0
VERTEX
  5
45C
100
AcDbEntity
  8
OBJECT
100
AcDbVertex
100
AcDb2dVertex
 10
-2485.9787306690209
 20
1434.2747028017952
 30
0.0
  0
VERTEX
  5
45D
100
AcDbEntity
  8
OBJECT
100
AcDbVertex
100
AcDb2dVertex
 10
-2485.7463861517786
 20
1435.5151030306909
 30
0.0
  0
VERTEX
  5
45E
100
AcDbEntity
  8
OBJECT
100
AcDbVertex
100
AcDb2dVertex
 10
-2485.2616985305262
 20
1436.7125468675208
 30
0.0
  0
VERTEX
  5
45F
100
AcDbEntity
  8
OBJECT
100
AcDbVertex
100
AcDb2dVertex
 10
-2484.5437567079998
 20
1437.8219125298076
 30
0.0
  0
VERTEX
  5
460
100
AcDbEntity
  8
OBJECT
100
AcDbVertex
100
AcDb2dVertex
 10
-2483.6186935255987
 20
1438.8112953497389
 30
0.0
  0
VERTEX
  5
461
100
AcDbEntity
  8
OBJECT
100
AcDbVertex
100
AcDb2dVertex
 10
-2482.5143755037452
 20
1439.6565893535831
 30
0.0
  0
VERTEX
  5
462
100
AcDbEntity
  8
OBJECT
100
AcDbVertex
100
AcDb2dVertex
 10
-2481.2608426203687
 20
1440.3371974096628
 30
0.0
  0
VERTEX
  5
463
100
AcDbEntity
  8
OBJECT
100
AcDbVertex
100
AcDb2dVertex
 10
-2479.8916913882722
 20
1440.8353955471925
 30
0.0
  0
VERTEX
  5
464
100
AcDbEntity
  8
OBJECT
100
AcDbVertex
100
AcDb2dVertex
 10
-2478.4443518110338
 20
1441.1374932813519
 30
0.0
  0
VERTEX
  5
465
100
AcDbEntity
  8
OBJECT
100
AcDbVertex
100
AcDb2dVertex
 10
-2477.0000001252383
 20
1441.2352939833218
 30
0.0
  0
SEQEND
  5
466
100
AcDbEntity
  8
OBJECT
  0
POLYLINE
  5
467
100
AcDbEntity
  8
OBJECT
100
AcDb2dPolyline
 66
               1
 10
0.0
 20
0.0
 30
0.0
 75
               5
  0
VERTEX
  5
468
100
AcDbEntity
  8
OBJECT
100
AcDbVertex
100
AcDb2dVertex
 10
-2406.0000001164153
 20
1433.764705955115
 30
0.0
  0
VERTEX
  5
469
100
AcDbEntity
  8
OBJECT
100
AcDbVertex
100
AcDb2dVertex
 10
-2406.0490146207094
 20
1434.940400065321
 30
0.0
  0
VERTEX
  5
46A
100
AcDbEntity
  8
OBJECT
100
AcDbVertex
100
AcDb2dVertex
 10
-2406.3333010303822
 20
1436.8175281867814
 30
0.0
  0
VERTEX
  5
46B
100
AcDbEntity
  8
OBJECT
100
AcDbVertex
100
AcDb2dVertex
 10
-2406.8658531944848
 20
1438.6456227389035
 30
0.0
  0
VERTEX
  5
46C
100
AcDbEntity
  8
OBJECT
100
AcDbVertex
100
AcDb2dVertex
 10
-2407.6380253839343
 20
1440.3984974608102
 30
0.0
  0
VERTEX
  5
46D
100
AcDbEntity
  8
OBJECT
100
AcDbVertex
100
AcDb2dVertex
 10
-2408.6386213109708
 20
1442.0517710090182
 30
0.0
  0
VERTEX
  5
46E
100
AcDbEntity
  8
OBJECT
100
AcDbVertex
100
AcDb2dVertex
 10
-2409.8537336777545
 20
1443.5820809399188
 30
0.0
  0
VERTEX
  5
46F
100
AcDbEntity
  8
OBJECT
100
AcDbVertex
100
AcDb2dVertex
 10
-2411.2665470621441
 20
1444.9672078051631
 30
0.0
  0
VERTEX
  5
470
100
AcDbEntity
  8
OBJECT
100
AcDbVertex
100
AcDb2dVertex
 10
-2412.8571930002799
 20
1446.1864069482915
 30
0.0
  0
VERTEX
  5
471
100
AcDbEntity
  8
OBJECT
100
AcDbVertex
100
AcDb2dVertex
 10
-2414.6027818641987
 20
1447.2208896448271
 30
0.0
  0
VERTEX
  5
472
100
AcDbEntity
  8
OBJECT
100
AcDbVertex
100
AcDb2dVertex
 10
-2416.4776621641568
 20
1448.0543415796731
 30
0.0
  0
VERTEX
  5
473
100
AcDbEntity
  8
OBJECT
100
AcDbVertex
100
AcDb2dVertex
 10
-2418.4538724452827
 20
1448.6733664941407
 30
0.0
  0
VERTEX
  5
474
100
AcDbEntity
  8
OBJECT
100
AcDbVertex
100
AcDb2dVertex
 10
-2420.5016959928689
 20
1449.0677889611172
 30
0.0
  0
VERTEX
  5
475
100
AcDbEntity
  8
OBJECT
100
AcDbVertex
100
AcDb2dVertex
 10
-2422.4838256058483
 20
1449.228181046384
 30
0.0
  0
VERTEX
  5
476
100
AcDbEntity
  8
OBJECT
100
AcDbVertex
100
AcDb2dVertex
 10
-2423.0000001318144
 20
1449.235293983322
 30
0.0
  0
SEQEND
  5
477
100
AcDbEntity
  8
OBJECT
  0
POLYLINE
  5
478
100
AcDbEntity
  8
OBJECT
100
AcDb2dPolyline
 66
               1
 10
0.0
 20
0.0
 30
0.0
 75
               5
  0
VERTEX
  5
479
100
AcDbEntity
  8
OBJECT
100
AcDbVertex
100
AcDb2dVertex
 10
-2423.0000001252383
 20
1441.235293983322
 30
0.0
  0
VERTEX
  5
47A
100
AcDbEntity
  8
OBJECT
100
AcDbVertex
100
AcDb2dVertex
 10
-2422.3042674614098
 20
1441.2127123215923
 30
0.0
  0
VERTEX
  5
47B
100
AcDbEntity
  8
OBJECT
100
AcDbVertex
100
AcDb2dVertex
 10
-2420.8402504653109
 20
1441.0148532513012
 30
0.0
  0
VERTEX
  5
47C
100
AcDbEntity
  8
OBJECT
100
AcDbVertex
100
AcDb2dVertex
 10
-2419.4392988012696
 20
1440.6201214845973
 30
0.0
  0
VERTEX
  5
47D
100
AcDbEntity
  8
OBJECT
100
AcDbVertex
100
AcDb2dVertex
 10
-2418.1412421569385
 20
1440.0432043468611
 30
0.0
  0
VERTEX
  5
47E
100
AcDbEntity
  8
OBJECT
100
AcDbVertex
100
AcDb2dVertex
 10
-2416.979867470021
 20
1439.3040704781386
 30
0.0
  0
VERTEX
  5
47F
100
AcDbEntity
  8
OBJECT
100
AcDbVertex
100
AcDb2dVertex
 10
-2415.9830326084639
 20
1438.4262645112362
 30
0.0
  0
VERTEX
  5
480
100
AcDbEntity
  8
OBJECT
100
AcDbVertex
100
AcDb2dVertex
 10
-2415.1721578564293
 20
1437.4344214182311
 30
0.0
  0
VERTEX
  5
481
100
AcDbEntity
  8
OBJECT
100
AcDbVertex
100
AcDb2dVertex
 10
-2414.5631333900965
 20
1436.3515100279685
 30
0.0
  0
VERTEX
  5
482
100
AcDbEntity
  8
OBJECT
100
AcDbVertex
100
AcDb2dVertex
 10
-2414.1690584038583
 20
1435.1970086216152
 30
0.0
  0
VERTEX
  5
483
100
AcDbEntity
  8
OBJECT
100
AcDbVertex
100
AcDb2dVertex
 10
-2414.0055108106753
 20
1434.0244052895257
 30
0.0
  0
VERTEX
  5
484
100
AcDbEntity
  8
OBJECT
100
AcDbVertex
100
AcDb2dVertex
 10
-2414.0000001164153
 20
1433.7647058377943
 30
0.0
  0
SEQEND
  5
485
100
AcDbEntity
  8
OBJECT
  0
LINE
  5
486
100
AcDbEntity
  8
OBJECT
100
AcDbLine
 10
-2477.0000001480212
 20
1441.2352939833218
 30
0.0
 11
-2423.0000001480212
 21
1441.235293983322
 31
0.0
  0
LINE
  5
487
100
AcDbEntity
  8
OBJECT
100
AcDbLine
 10
-2423.0000000848095
 20
1449.235293983322
 30
0.0
 11
-2477.0000000848095
 21
1449.2352939833218
 31
0.0
  0
LINE
  5
488
100
AcDbEntity
  8
OBJECT
100
AcDbLine
 10
-2494.0
 20
1433.764705899551
 30
0.0
 11
-2494.0000001164153
 21
1402.0
 31
0.0
  0
LINE
  5
489
100
AcDbEntity
  8
OBJECT
100
AcDbLine
 10
-2414.0000001164153
 20
1433.7647058377943
 30
0.0
 11
-2414.0000001164153
 21
1402.0000000000002
 31
0.0
  0
LINE
  5
48A
100
AcDbEntity
  8
OBJECT
100
AcDbLine
 10
-2406.0000001164153
 20
1402.0000000000002
 30
0.0
 11
-2406.0000001164153
 21
1433.7647059551143
 31
0.0
  0
LINE
  5
48B
100
AcDbEntity
  8
OBJECT
100
AcDbLine
 10
-2486.0000000532032
 20
1433.7647058377943
 30
0.0
 11
-2486.0000000532032
 21
1402.0000000000002
 31
0.0
  0
INSERT
  5
48C
100
AcDbEntity
  8
OBJECT
100
AcDbBlockReference
  2
*U23
 10
-2049.5999999999999
 20
1433.9999999999998
 30
0.0
  0
INSERT
  5
48D
100
AcDbEntity
  8
OBJECT
100
AcDbBlockReference
  2
*U24
 10
-2049.5999999999999
 20
1433.9999999999998
 30
0.0
  0
INSERT
  5
48E
100
AcDbEntity
  8
OBJECT
100
AcDbBlockReference
  2
*U25
 10
-2049.5999999999999
 20
1433.9999999999998
 30
0.0
  0
DIMENSION
  5
48F
100
AcDbEntity
  8
DIMENTION
100
AcDbDimension
  2
*D26
 10
-2780.0
 20
1448.9424303042372
 30
0.0
 11
-2780.0
 21
1199.4712151521185
 31
0.0
  1
500
  3
CAD
100
AcDbAlignedDimension
 13
-2630.0
 23
950.0
 33
0.0
 14
-2480.2966177003418
 24
1448.9424303042372
 34
0.0
 50
90.0
100
AcDbRotatedDimension
1001
ACAD
1000
DSTYLE
1002
{
1070
             271
1070
               0
1070
             340
1005
38
1070
             147
1040
0.4999999981373549
1002
}
  0
ENDSEC
  0
SECTION
  2
OBJECTS
  0
DICTIONARY
  5
19
100
AcDbDictionary
  3
ACAD_GROUP
350
1A
  3
ACAD_MLINESTYLE
350
1B
  0
DICTIONARY
  5
1A
102
{ACAD_REACTORS
330
19
102
}
100
AcDbDictionary
  0
DICTIONARY
  5
1B
102
{ACAD_REACTORS
330
19
102
}
100
AcDbDictionary
  3
STANDARD
350
1C
  0
MLINESTYLE
  5
1C
102
{ACAD_REACTORS
330
1B
102
}
100
AcDbMlineStyle
  2
STANDARD
 70
               0
  3

 62
               0
 51
90.0
 52
90.0
 71
               2
 49
0.5
 62
             256
  6
BYLAYER
 49
-0.5
 62
             256
  6
BYLAYER
  0
ENDSEC
  0
EOF
