  0
SECTION
  2
HEADER
  9
$ACADVER
  1
AC1012
  9
$DWGCODEPAGE
  3
dos932
  9
$INSBASE
 10
0.0
 20
0.0
 30
0.0
  9
$EXTMIN
 10
-761.28269999719328
 20
-2185.0000000017226
 30
0.0
  9
$EXTMAX
 10
3288.7173000028065
 20
534.99999999827696
 30
0.0
  9
$LIMMIN
 10
0.0
 20
0.0
  9
$LIMMAX
 10
0.0
 20
0.0
  9
$ORTHOMODE
 70
               0
  9
$REGENMODE
 70
               1
  9
$FILLMODE
 70
               1
  9
$QTEXTMODE
 70
               0
  9
$MIRRTEXT
 70
               1
  9
$DRAGMODE
 70
               2
  9
$LTSCALE
 40
254.0
  9
$OSMODE
 70
               0
  9
$ATTMODE
 70
               1
  9
$TEXTSIZE
 40
0.2
  9
$TRACEWID
 40
1.0
  9
$TEXTSTYLE
  7
STANDARD
  9
$CLAYER
  8
0
  9
$CELTYPE
  6
CONTINUOUS
  9
$CECOLOR
 62
             256
  9
$CELTSCALE
 40
1.0
  9
$DELOBJ
 70
               1
  9
$DISPSILH
 70
               0
  9
$DIMSCALE
 40
1.0
  9
$DIMASZ
 40
31.75
  9
$DIMEXO
 40
9.9999999627470952
  9
$DIMDLI
 40
7.9999999938532707
  9
$DIMRND
 40
0.0
  9
$DIMDLE
 40
0.0
  9
$DIMEXE
 40
19.99999992549419
  9
$DIMTP
 40
0.0
  9
$DIMTM
 40
0.0
  9
$DIMTXT
 40
33.866666666666667
  9
$DIMCEN
 40
0.0
  9
$DIMTSZ
 40
0.0
  9
$DIMTOL
 70
               0
  9
$DIMLIM
 70
               0
  9
$DIMTIH
 70
               0
  9
$DIMTOH
 70
               0
  9
$DIMSE1
 70
               0
  9
$DIMSE2
 70
               0
  9
$DIMTAD
 70
               1
  9
$DIMZIN
 70
              11
  9
$DIMBLK
  1
VW_OPENARROW
  9
$DIMASO
 70
               1
  9
$DIMSHO
 70
               1
  9
$DIMPOST
  1
<>
  9
$DIMAPOST
  1
[]
  9
$DIMALT
 70
               0
  9
$DIMALTD
 70
               1
  9
$DIMALTF
 40
1.0
  9
$DIMLFAC
 40
1.0
  9
$DIMTOFL
 70
               1
  9
$DIMTVP
 40
0.0
  9
$DIMTIX
 70
               1
  9
$DIMSOXD
 70
               0
  9
$DIMSAH
 70
               0
  9
$DIMBLK1
  1

  9
$DIMBLK2
  1

  9
$DIMSTYLE
  2
CAD
  9
$DIMCLRD
 70
               0
  9
$DIMCLRE
 70
               0
  9
$DIMCLRT
 70
               0
  9
$DIMTFAC
 40
0.7
  9
$DIMGAP
 40
0.099999999627471
  9
$DIMJUST
 70
               0
  9
$DIMSD1
 70
               0
  9
$DIMSD2
 70
               0
  9
$DIMTOLJ
 70
               1
  9
$DIMTZIN
 70
              11
  9
$DIMALTZ
 70
              11
  9
$DIMALTTZ
 70
              11
  9
$DIMFIT
 70
               0
  9
$DIMUPT
 70
               0
  9
$DIMUNIT
 70
               2
  9
$DIMDEC
 70
               4
  9
$DIMTDEC
 70
               4
  9
$DIMALTU
 70
               2
  9
$DIMALTTD
 70
               2
  9
$DIMTXSTY
  7
________
  9
$DIMAUNIT
 70
               0
  9
$LUNITS
 70
               2
  9
$LUPREC
 70
               4
  9
$SKETCHINC
 40
0.1
  9
$FILLETRAD
 40
0.0
  9
$AUNITS
 70
               0
  9
$AUPREC
 70
               0
  9
$MENU
  1
acad
  9
$ELEVATION
 40
0.0
  9
$PELEVATION
 40
0.0
  9
$THICKNESS
 40
0.0
  9
$LIMCHECK
 70
               0
  9
$BLIPMODE
 70
               0
  9
$CHAMFERA
 40
0.0
  9
$CHAMFERB
 40
0.0
  9
$CHAMFERC
 40
0.0
  9
$CHAMFERD
 40
0.0
  9
$SKPOLY
 70
               0
  9
$TDCREATE
 40
2460304.372164352
  9
$TDUPDATE
 40
2460304.372164352
  9
$TDINDWG
 40
0.0000000000
  9
$TDUSRTIMER
 40
0.0000000000
  9
$USRTIMER
 70
               1
  9
$ANGBASE
 50
0.0
  9
$ANGDIR
 70
               0
  9
$PDMODE
 70
               1
  9
$PDSIZE
 40
-2.0
  9
$PLINEWID
 40
0.0
  9
$COORDS
 70
               0
  9
$SPLFRAME
 70
               0
  9
$SPLINETYPE
 70
               6
  9
$SPLINESEGS
 70
               8
  9
$ATTDIA
 70
               0
  9
$ATTREQ
 70
               1
  9
$HANDLING
 70
               1
  9
$HANDSEED
  5
815
  9
$SURFTAB1
 70
               6
  9
$SURFTAB2
 70
               6
  9
$SURFTYPE
 70
               6
  9
$SURFU
 70
               6
  9
$SURFV
 70
               6
  9
$UCSNAME
  2

  9
$UCSORG
 10
0.0
 20
0.0
 30
0.0
  9
$UCSXDIR
 10
1.0
 20
0.0
 30
0.0
  9
$UCSYDIR
 10
0.0
 20
1.0
 30
0.0
  9
$PUCSNAME
  2

  9
$PUCSORG
 10
0.0
 20
0.0
 30
0.0
  9
$PUCSXDIR
 10
1.0
 20
0.0
 30
0.0
  9
$PUCSYDIR
 10
0.0
 20
1.0
 30
0.0
  9
$USERI1
 70
               0
  9
$USERI2
 70
               0
  9
$USERI3
 70
               0
  9
$USERI4
 70
               0
  9
$USERI5
 70
               0
  9
$USERR1
 40
0.0
  9
$USERR2
 40
0.0
  9
$USERR3
 40
0.0
  9
$USERR4
 40
0.0
  9
$USERR5
 40
0.0
  9
$WORLDVIEW
 70
               1
  9
$SHADEDGE
 70
               3
  9
$SHADEDIF
 70
              70
  9
$TILEMODE
 70
               1
  9
$MAXACTVP
 70
              16
  9
$PINSBASE
 10
0.0
 20
0.0
 30
0.0
  9
$PLIMCHECK
 70
               0
  9
$PEXTMIN
 10
1.0000000000000000E+20
 20
1.0000000000000000E+20
 30
1.0000000000000000E+20
  9
$PEXTMAX
 10
-1.0000000000000000E+20
 20
-1.0000000000000000E+20
 30
-1.0000000000000000E+20
  9
$PLIMMIN
 10
0.0
 20
0.0
  9
$PLIMMAX
 10
12.0
 20
9.0
  9
$UNITMODE
 70
               0
  9
$VISRETAIN
 70
               0
  9
$PLINEGEN
 70
               1
  9
$PSLTSCALE
 70
               0
  9
$TREEDEPTH
 70
            3020
  9
$PICKSTYLE
 70
               1
  9
$CMLSTYLE
  2
STANDARD
  9
$CMLJUST
 70
               0
  9
$CMLSCALE
 40
1.0
  9
$SAVEIMAGES
 70
               0
  0
ENDSEC
  0
SECTION
  2
CLASSES
  0
CLASS
  1
LWPOLYLINE
  2
AcDbPolyline
  3
"AutoCAD"
 90
        0
280
               0
281
               1
  0
CLASS
  1
IMAGE
  2
AcDbRasterImage
  3
ISM
 90
      127
280
               0
281
               1
  0
CLASS
  1
OLE2FRAME
  2
AcDbOle2Frame
  3
""
 90
        0
280
               0
281
               1
  0
CLASS
  1
HATCH
  2
AcDbHatch
  3
"ACAD_SEDONA"
 90
        0
280
               0
281
               1
  0
CLASS
  1
DICTIONARYVAR
  2
AcDbDictionaryVar
  3
"AutoCAD"
 90
        0
280
               0
281
               0
  0
CLASS
  1
RASTERVARIABLES
  2
AcDbRasterVariables
  3
ISM
 90
        0
280
               0
281
               0
  0
CLASS
  1
IMAGEDEF
  2
AcDbRasterImageDef
  3
ISM
 90
        0
280
               0
281
               0
  0
CLASS
  1
IMAGEDEF_REACTOR
  2
AcDbRasterImageDefReactor
  3
ISM
 90
        1
280
               0
281
               0
  0
CLASS
  1
IDBUFFER
  2
AcDbIdBuffer
  3
"Acad"
 90
        0
280
               0
281
               0
  0
CLASS
  1
SPATIAL_FILTER
  2
AcDbSpatialFilter
  3
"Acad"
 90
        0
280
               0
281
               0
  0
CLASS
  1
XRECORD
  2
AcDbXrecord
  3
"<Built In>"
 90
        0
280
               0
281
               0
  0
CLASS
  1
SORTENTSTABLE
  2
AcDbSortentsTable
  3
"AutoCAD"
 90
        0
280
               0
281
               0
  0
CLASS
  1
LAYER_INDEX
  2
AcDbLayerIndex
  3
"Acad"
 90
        0
280
               0
281
               0
  0
CLASS
  1
SPATIAL_INDEX
  2
AcDbSpatialIndex
  3
"Acad"
 90
        0
280
               0
281
               0
  0
CLASS
  1
OBJECT_PTR
  2
CAseDLPNTableRecord
  3
"ASE-LPNTableRecord"
 90
        1
280
               0
281
               0
  0
CLASS
  1
LAYOUT
  2
AcDbLayout
  3
"AutoCAD 2000"
 90
        1
280
               0
281
               0
  0
CLASS
  1
PLOTSETTINGS
  2
AcDbPlotSettings
  3
"AutoCAD 2000"
 90
        1
280
               0
281
               0
  0
CLASS
  1
ACDBDICTIONARYWDFLT
  2
AcDbDictionaryWithDefault
  3
"AutoCAD 2000"
 90
        1
280
               0
281
               0
  0
CLASS
  1
ACDBPLACEHOLDER
  2
AcDbPlaceHolder
  3
"AutoCAD 2000"
 90
        1
280
               0
281
               0
  0
ENDSEC
  0
SECTION
  2
TABLES
  0
TABLE
  2
VPORT
  5
7
100
AcDbSymbolTable
 70
               1
  0
VPORT
  5
15
100
AcDbSymbolTableRecord
100
AcDbViewportTableRecord
  2
*ACTIVE
 70
               0
 10
0.0
 20
0.0
 11
1.0
 21
1.0
 12
1263.7173000028067
 22
-825.00000000172281
 13
0.0
 23
0.0
 14
1.0
 24
1.0
 15
0.0
 25
0.0
 16
0.0
 26
0.0
 36
1.0
 17
0.0
 27
0.0
 37
0.0
 40
2719.9999999999995
 41
0.688564
 42
50.0
 43
0.0
 44
0.0
 50
0.0
 51
0.0
 71
               0
 72
             100
 73
               1
 74
               1
 75
               0
 76
               0
 77
               0
 78
               0
  0
ENDTAB
  0
TABLE
  2
LTYPE
  5
4
100
AcDbSymbolTable
 70
              20
  0
LTYPE
  5
11
100
AcDbSymbolTableRecord
100
AcDbLinetypeTableRecord
  2
BYBLOCK
 70
              64
  3

 72
              65
 73
               0
 40
0.0
  0
LTYPE
  5
12
100
AcDbSymbolTableRecord
100
AcDbLinetypeTableRecord
  2
BYLAYER
 70
              64
  3

 72
              65
 73
               0
 40
0.0
  0
LTYPE
  5
13
100
AcDbSymbolTableRecord
100
AcDbLinetypeTableRecord
  2
CONTINUOUS
 70
              64
  3
Solid line
 72
              65
 73
               0
 40
0.0
  0
LTYPE
  5
70
100
AcDbSymbolTableRecord
100
AcDbLinetypeTableRecord
  2
STYLE_01
 70
               0
  3

 72
              65
 73
               2
 40
0.0833282470703125
 49
0.041656494140625
 74
               0
 49
-0.0416717529296875
 74
               0
  0
LTYPE
  5
71
100
AcDbSymbolTableRecord
100
AcDbLinetypeTableRecord
  2
STYLE_02
 70
               0
  3

 72
              65
 73
               2
 40
0.138885498046875
 49
0.0972137451171875
 74
               0
 49
-0.0416717529296875
 74
               0
  0
LTYPE
  5
72
100
AcDbSymbolTableRecord
100
AcDbLinetypeTableRecord
  2
STYLE_03
 70
               0
  3

 72
              65
 73
               2
 40
0.25
 49
0.2083282470703125
 74
               0
 49
-0.0416717529296875
 74
               0
  0
LTYPE
  5
73
100
AcDbSymbolTableRecord
100
AcDbLinetypeTableRecord
  2
STYLE_04
 70
               0
  3

 72
              65
 73
               2
 40
0.3055419921875
 49
0.263885498046875
 74
               0
 49
-0.041656494140625
 74
               0
  0
LTYPE
  5
74
100
AcDbSymbolTableRecord
100
AcDbLinetypeTableRecord
  2
STYLE_05
 70
               0
  3

 72
              65
 73
               2
 40
0.041656494140625
 49
0.013885498046875
 74
               0
 49
-0.02777099609375
 74
               0
  0
LTYPE
  5
75
100
AcDbSymbolTableRecord
100
AcDbLinetypeTableRecord
  2
STYLE_06
 70
               0
  3

 72
              65
 73
               4
 40
0.65277099609375
 49
0.0555572509765625
 74
               0
 49
-0.0555572509765625
 74
               0
 49
0.486114501953125
 74
               0
 49
-0.0555419921875
 74
               0
  0
LTYPE
  5
76
100
AcDbSymbolTableRecord
100
AcDbLinetypeTableRecord
  2
STYLE_07
 70
               0
  3

 72
              65
 73
               6
 40
0.375
 49
0.125
 74
               0
 49
-0.041656494140625
 74
               0
 49
0.125
 74
               0
 49
-0.0416717529296875
 74
               0
 49
0.013885498046875
 74
               0
 49
-0.0277862548828125
 74
               0
  0
LTYPE
  5
77
100
AcDbSymbolTableRecord
100
AcDbLinetypeTableRecord
  2
STYLE_08
 70
               0
  3

 72
              65
 73
               6
 40
0.25
 49
0.125
 74
               0
 49
-0.041656494140625
 74
               0
 49
0.013885498046875
 74
               0
 49
-0.0277862548828125
 74
               0
 49
0.013885498046875
 74
               0
 49
-0.0277862548828125
 74
               0
  0
LTYPE
  5
78
100
AcDbSymbolTableRecord
100
AcDbLinetypeTableRecord
  2
STYLE_09
 70
               0
  3

 72
              65
 73
               4
 40
1.0
 49
0.75
 74
               0
 49
-0.0555572509765625
 74
               0
 49
0.138885498046875
 74
               0
 49
-0.0555572509765625
 74
               0
  0
LTYPE
  5
79
100
AcDbSymbolTableRecord
100
AcDbLinetypeTableRecord
  2
STYLE_10
 70
               0
  3

 72
              65
 73
               6
 40
1.1875
 49
0.75
 74
               0
 49
-0.0555572509765625
 74
               0
 49
0.138885498046875
 74
               0
 49
-0.0555572509765625
 74
               0
 49
0.125
 74
               0
 49
-0.0625
 74
               0
  0
LTYPE
  5
7A
100
AcDbSymbolTableRecord
100
AcDbLinetypeTableRecord
  2
STYLE_11
 70
               0
  3

 72
              65
 73
               4
 40
1.5
 49
0.0833282470703125
 74
               0
 49
-0.0555572509765625
 74
               0
 49
1.3055572509765625
 74
               0
 49
-0.0555572509765625
 74
               0
  0
LTYPE
  5
7B
100
AcDbSymbolTableRecord
100
AcDbLinetypeTableRecord
  2
STYLE_12
 70
               0
  3

 72
              65
 73
               4
 40
1.34722900390625
 49
1.02777099609375
 74
               0
 49
-0.083343505859375
 74
               0
 49
0.125
 74
               0
 49
-0.111114501953125
 74
               0
  0
LTYPE
  5
7C
100
AcDbSymbolTableRecord
100
AcDbLinetypeTableRecord
  2
STYLE_13
 70
               0
  3

 72
              65
 73
               4
 40
0.6805572509765625
 49
0.361114501953125
 74
               0
 49
-0.0833282470703125
 74
               0
 49
0.125
 74
               0
 49
-0.111114501953125
 74
               0
  0
LTYPE
  5
7D
100
AcDbSymbolTableRecord
100
AcDbLinetypeTableRecord
  2
STYLE_14
 70
               0
  3

 72
              65
 73
               4
 40
1.4305572509765625
 49
1.1805572509765625
 74
               0
 49
-0.0555572509765625
 74
               0
 49
0.138885498046875
 74
               0
 49
-0.0555572509765625
 74
               0
  0
LTYPE
  5
7E
100
AcDbSymbolTableRecord
100
AcDbLinetypeTableRecord
  2
STYLE_15
 70
               0
  3

 72
              65
 73
               6
 40
0.5694427490234375
 49
0.361114501953125
 74
               0
 49
-0.041656494140625
 74
               0
 49
0.0416717529296875
 74
               0
 49
-0.0416717529296875
 74
               0
 49
0.041656494140625
 74
               0
 49
-0.0416717529296875
 74
               0
  0
LTYPE
  5
7F
100
AcDbSymbolTableRecord
100
AcDbLinetypeTableRecord
  2
STYLE_16
 70
               0
  3

 72
              65
 73
               4
 40
1.111114501953125
 49
0.7916717529296875
 74
               0
 49
-0.0833282470703125
 74
               0
 49
0.125
 74
               0
 49
-0.111114501953125
 74
               0
  0
LTYPE
  5
80
100
AcDbSymbolTableRecord
100
AcDbLinetypeTableRecord
  2
STYLE_17
 70
               0
  3

 72
              65
 73
               4
 40
0.2083282470703125
 49
0.125
 74
               0
 49
-0.041656494140625
 74
               0
 49
0.013885498046875
 74
               0
 49
-0.0277862548828125
 74
               0
  0
ENDTAB
  0
TABLE
  2
LAYER
  5
2
100
AcDbSymbolTable
 70
               9
  0
LAYER
  5
14
100
AcDbSymbolTableRecord
100
AcDbLayerTableRecord
  2
0
 70
               0
 62
               7
  6
CONTINUOUS
  0
LAYER
  5
88
100
AcDbSymbolTableRecord
100
AcDbLayerTableRecord
  2
DEFPOINTS
 70
               0
 62
               7
  6
CONTINUOUS
  0
LAYER
  5
89
100
AcDbSymbolTableRecord
100
AcDbLayerTableRecord
  2
OBJECT
 70
               0
 62
               7
  6
CONTINUOUS
  0
LAYER
  5
8A
100
AcDbSymbolTableRecord
100
AcDbLayerTableRecord
  2
DIMENTION
 70
               0
 62
               7
  6
CONTINUOUS
  0
LAYER
  5
8B
100
AcDbSymbolTableRecord
100
AcDbLayerTableRecord
  2
CENTER
 70
               0
 62
               7
  6
STYLE_09
  0
LAYER
  5
8C
100
AcDbSymbolTableRecord
100
AcDbLayerTableRecord
  2
HIDDEN
 70
               0
 62
               7
  6
STYLE_02
  0
LAYER
  5
8D
100
AcDbSymbolTableRecord
100
AcDbLayerTableRecord
  2
FRAME
 70
               0
 62
               7
  6
CONTINUOUS
  0
LAYER
  5
8E
100
AcDbSymbolTableRecord
100
AcDbLayerTableRecord
  2
OUTLINE
 70
               0
 62
               7
  6
CONTINUOUS
  0
LAYER
  5
8F
100
AcDbSymbolTableRecord
100
AcDbLayerTableRecord
  2
TEXT
 70
               0
 62
               7
  6
CONTINUOUS
  0
ENDTAB
  0
TABLE
  2
STYLE
  5
3
100
AcDbSymbolTable
 70
               2
  0
STYLE
  5
17
100
AcDbSymbolTableRecord
100
AcDbTextStyleTableRecord
  2
STANDARD
 70
               0
 40
0.0
 41
1.0
 50
0.0
 71
               0
 42
0.0
  3
txt
  4
BIGFONT.SHX
  0
STYLE
  5
6F
100
AcDbSymbolTableRecord
100
AcDbTextStyleTableRecord
  2
________
 70
               0
 40
0.0
 41
1.0
 50
0.0
 71
               0
 42
0.0
  3
ＭＳ Ｐゴシック
  4

1001
ACAD
1000
ＭＳ Ｐゴシック
1071
        0
  0
ENDTAB
  0
TABLE
  2
VIEW
  5
5
100
AcDbSymbolTable
 70
               0
  0
ENDTAB
  0
TABLE
  2
UCS
  5
6
100
AcDbSymbolTable
 70
               0
  0
ENDTAB
  0
TABLE
  2
APPID
  5
8
100
AcDbSymbolTable
 70
               1
  0
APPID
  5
16
100
AcDbSymbolTableRecord
100
AcDbRegAppTableRecord
  2
ACAD
 70
               0
  0
ENDTAB
  0
TABLE
  2
DIMSTYLE
  5
9
100
AcDbSymbolTable
 70
               2
  0
DIMSTYLE
105
18
100
AcDbSymbolTableRecord
100
AcDbDimStyleTableRecord
  2
STANDARD
 70
               0
  3

  4

  5

  6

  7

 40
1.0
 41
0.18
 42
0.0625
 43
0.38
 44
0.18
 45
0.0
 46
0.0
 47
0.0
 48
0.0
 71
               0
 72
               0
 73
               1
 74
               1
 75
               0
 76
               0
 77
               0
 78
               0
140
0.18
141
0.09
142
0.0
143
25.399999999999999
144
1.0
145
0.0
146
1.0
147
0.09
170
               0
171
               2
172
               0
173
               0
174
               0
175
               0
176
               0
177
               0
178
               0
270
               2
271
               4
272
               4
273
               2
274
               2
275
               0
280
               0
281
               0
282
               0
283
               1
284
               0
285
               0
286
               0
287
               0
288
               0
340
17
  0
DIMSTYLE
105
87
100
AcDbSymbolTableRecord
100
AcDbDimStyleTableRecord
  2
CAD
 70
               0
  3
<>
  4
[]
  5
VW_OPENARROW
  6

  7

 40
1.0
 41
31.75
 42
9.9999999627470952
 43
7.9999999938532707
 44
19.99999992549419
 45
0.0
 46
0.0
 47
0.0
 48
0.0
 71
               0
 72
               0
 73
               0
 74
               0
 75
               0
 76
               0
 77
               1
 78
              11
140
33.866666666666667
141
0.0
142
0.0
143
1.0
144
1.0
145
0.0
146
0.7
147
0.099999999627471
170
               0
171
               1
172
               1
173
               0
174
               1
175
               0
176
               0
177
               0
178
               0
270
               2
271
               4
272
               4
273
               2
274
               2
275
               0
280
               0
281
               0
282
               0
283
               1
284
              11
285
              11
286
              11
287
               0
288
               0
340
6F
  0
ENDTAB
  0
TABLE
  2
BLOCK_RECORD
  5
1
100
AcDbSymbolTable
 70
              83
  0
BLOCK_RECORD
  5
A
100
AcDbSymbolTableRecord
100
AcDbBlockTableRecord
  2
*MODEL_SPACE
  0
BLOCK_RECORD
  5
B
100
AcDbSymbolTableRecord
100
AcDbBlockTableRecord
  2
*PAPER_SPACE
  0
BLOCK_RECORD
  5
81
100
AcDbSymbolTableRecord
100
AcDbBlockTableRecord
  2
VW_OPENARROW
  0
BLOCK_RECORD
  5
1D
100
AcDbSymbolTableRecord
100
AcDbBlockTableRecord
  2
*D1
  0
BLOCK_RECORD
  5
1E
100
AcDbSymbolTableRecord
100
AcDbBlockTableRecord
  2
*D2
  0
BLOCK_RECORD
  5
1F
100
AcDbSymbolTableRecord
100
AcDbBlockTableRecord
  2
*D3
  0
BLOCK_RECORD
  5
20
100
AcDbSymbolTableRecord
100
AcDbBlockTableRecord
  2
*D4
  0
BLOCK_RECORD
  5
21
100
AcDbSymbolTableRecord
100
AcDbBlockTableRecord
  2
*D5
  0
BLOCK_RECORD
  5
22
100
AcDbSymbolTableRecord
100
AcDbBlockTableRecord
  2
*D6
  0
BLOCK_RECORD
  5
23
100
AcDbSymbolTableRecord
100
AcDbBlockTableRecord
  2
*D7
  0
BLOCK_RECORD
  5
24
100
AcDbSymbolTableRecord
100
AcDbBlockTableRecord
  2
*D8
  0
BLOCK_RECORD
  5
25
100
AcDbSymbolTableRecord
100
AcDbBlockTableRecord
  2
*D9
  0
BLOCK_RECORD
  5
26
100
AcDbSymbolTableRecord
100
AcDbBlockTableRecord
  2
*D10
  0
BLOCK_RECORD
  5
27
100
AcDbSymbolTableRecord
100
AcDbBlockTableRecord
  2
*D11
  0
BLOCK_RECORD
  5
28
100
AcDbSymbolTableRecord
100
AcDbBlockTableRecord
  2
*D12
  0
BLOCK_RECORD
  5
29
100
AcDbSymbolTableRecord
100
AcDbBlockTableRecord
  2
*D13
  0
BLOCK_RECORD
  5
2A
100
AcDbSymbolTableRecord
100
AcDbBlockTableRecord
  2
*D14
  0
BLOCK_RECORD
  5
2B
100
AcDbSymbolTableRecord
100
AcDbBlockTableRecord
  2
*U15
  0
BLOCK_RECORD
  5
2C
100
AcDbSymbolTableRecord
100
AcDbBlockTableRecord
  2
*D16
  0
BLOCK_RECORD
  5
2D
100
AcDbSymbolTableRecord
100
AcDbBlockTableRecord
  2
*U17
  0
BLOCK_RECORD
  5
2E
100
AcDbSymbolTableRecord
100
AcDbBlockTableRecord
  2
*U18
  0
BLOCK_RECORD
  5
2F
100
AcDbSymbolTableRecord
100
AcDbBlockTableRecord
  2
*U19
  0
BLOCK_RECORD
  5
30
100
AcDbSymbolTableRecord
100
AcDbBlockTableRecord
  2
*U20
  0
BLOCK_RECORD
  5
31
100
AcDbSymbolTableRecord
100
AcDbBlockTableRecord
  2
*U21
  0
BLOCK_RECORD
  5
32
100
AcDbSymbolTableRecord
100
AcDbBlockTableRecord
  2
*U22
  0
BLOCK_RECORD
  5
33
100
AcDbSymbolTableRecord
100
AcDbBlockTableRecord
  2
*U23
  0
BLOCK_RECORD
  5
34
100
AcDbSymbolTableRecord
100
AcDbBlockTableRecord
  2
*U24
  0
BLOCK_RECORD
  5
35
100
AcDbSymbolTableRecord
100
AcDbBlockTableRecord
  2
*U25
  0
BLOCK_RECORD
  5
36
100
AcDbSymbolTableRecord
100
AcDbBlockTableRecord
  2
*U26
  0
BLOCK_RECORD
  5
37
100
AcDbSymbolTableRecord
100
AcDbBlockTableRecord
  2
*U27
  0
BLOCK_RECORD
  5
38
100
AcDbSymbolTableRecord
100
AcDbBlockTableRecord
  2
*U28
  0
BLOCK_RECORD
  5
39
100
AcDbSymbolTableRecord
100
AcDbBlockTableRecord
  2
*U29
  0
BLOCK_RECORD
  5
3A
100
AcDbSymbolTableRecord
100
AcDbBlockTableRecord
  2
*U30
  0
BLOCK_RECORD
  5
3B
100
AcDbSymbolTableRecord
100
AcDbBlockTableRecord
  2
*U31
  0
BLOCK_RECORD
  5
3C
100
AcDbSymbolTableRecord
100
AcDbBlockTableRecord
  2
*U32
  0
BLOCK_RECORD
  5
3D
100
AcDbSymbolTableRecord
100
AcDbBlockTableRecord
  2
*U33
  0
BLOCK_RECORD
  5
3E
100
AcDbSymbolTableRecord
100
AcDbBlockTableRecord
  2
*U34
  0
BLOCK_RECORD
  5
3F
100
AcDbSymbolTableRecord
100
AcDbBlockTableRecord
  2
*U35
  0
BLOCK_RECORD
  5
40
100
AcDbSymbolTableRecord
100
AcDbBlockTableRecord
  2
*U36
  0
BLOCK_RECORD
  5
41
100
AcDbSymbolTableRecord
100
AcDbBlockTableRecord
  2
*D37
  0
BLOCK_RECORD
  5
42
100
AcDbSymbolTableRecord
100
AcDbBlockTableRecord
  2
*D38
  0
BLOCK_RECORD
  5
43
100
AcDbSymbolTableRecord
100
AcDbBlockTableRecord
  2
*D39
  0
BLOCK_RECORD
  5
44
100
AcDbSymbolTableRecord
100
AcDbBlockTableRecord
  2
*U40
  0
BLOCK_RECORD
  5
45
100
AcDbSymbolTableRecord
100
AcDbBlockTableRecord
  2
*U41
  0
BLOCK_RECORD
  5
46
100
AcDbSymbolTableRecord
100
AcDbBlockTableRecord
  2
*U42
  0
BLOCK_RECORD
  5
47
100
AcDbSymbolTableRecord
100
AcDbBlockTableRecord
  2
*U43
  0
BLOCK_RECORD
  5
48
100
AcDbSymbolTableRecord
100
AcDbBlockTableRecord
  2
*U44
  0
BLOCK_RECORD
  5
49
100
AcDbSymbolTableRecord
100
AcDbBlockTableRecord
  2
*U45
  0
BLOCK_RECORD
  5
4A
100
AcDbSymbolTableRecord
100
AcDbBlockTableRecord
  2
*U46
  0
BLOCK_RECORD
  5
4B
100
AcDbSymbolTableRecord
100
AcDbBlockTableRecord
  2
*U47
  0
BLOCK_RECORD
  5
4C
100
AcDbSymbolTableRecord
100
AcDbBlockTableRecord
  2
*U48
  0
BLOCK_RECORD
  5
4D
100
AcDbSymbolTableRecord
100
AcDbBlockTableRecord
  2
*U49
  0
BLOCK_RECORD
  5
4E
100
AcDbSymbolTableRecord
100
AcDbBlockTableRecord
  2
*U50
  0
BLOCK_RECORD
  5
4F
100
AcDbSymbolTableRecord
100
AcDbBlockTableRecord
  2
*U51
  0
BLOCK_RECORD
  5
50
100
AcDbSymbolTableRecord
100
AcDbBlockTableRecord
  2
*U52
  0
BLOCK_RECORD
  5
51
100
AcDbSymbolTableRecord
100
AcDbBlockTableRecord
  2
*U53
  0
BLOCK_RECORD
  5
52
100
AcDbSymbolTableRecord
100
AcDbBlockTableRecord
  2
*D54
  0
BLOCK_RECORD
  5
53
100
AcDbSymbolTableRecord
100
AcDbBlockTableRecord
  2
*D55
  0
BLOCK_RECORD
  5
54
100
AcDbSymbolTableRecord
100
AcDbBlockTableRecord
  2
*D56
  0
BLOCK_RECORD
  5
55
100
AcDbSymbolTableRecord
100
AcDbBlockTableRecord
  2
*D57
  0
BLOCK_RECORD
  5
56
100
AcDbSymbolTableRecord
100
AcDbBlockTableRecord
  2
*D58
  0
BLOCK_RECORD
  5
57
100
AcDbSymbolTableRecord
100
AcDbBlockTableRecord
  2
*D59
  0
BLOCK_RECORD
  5
58
100
AcDbSymbolTableRecord
100
AcDbBlockTableRecord
  2
*D60
  0
BLOCK_RECORD
  5
59
100
AcDbSymbolTableRecord
100
AcDbBlockTableRecord
  2
*D61
  0
BLOCK_RECORD
  5
5A
100
AcDbSymbolTableRecord
100
AcDbBlockTableRecord
  2
*U62
  0
BLOCK_RECORD
  5
5B
100
AcDbSymbolTableRecord
100
AcDbBlockTableRecord
  2
*D63
  0
BLOCK_RECORD
  5
5C
100
AcDbSymbolTableRecord
100
AcDbBlockTableRecord
  2
*D64
  0
BLOCK_RECORD
  5
5D
100
AcDbSymbolTableRecord
100
AcDbBlockTableRecord
  2
*U65
  0
BLOCK_RECORD
  5
5E
100
AcDbSymbolTableRecord
100
AcDbBlockTableRecord
  2
*U66
  0
BLOCK_RECORD
  5
5F
100
AcDbSymbolTableRecord
100
AcDbBlockTableRecord
  2
*U67
  0
BLOCK_RECORD
  5
60
100
AcDbSymbolTableRecord
100
AcDbBlockTableRecord
  2
*U68
  0
BLOCK_RECORD
  5
61
100
AcDbSymbolTableRecord
100
AcDbBlockTableRecord
  2
*U69
  0
BLOCK_RECORD
  5
62
100
AcDbSymbolTableRecord
100
AcDbBlockTableRecord
  2
*U70
  0
BLOCK_RECORD
  5
63
100
AcDbSymbolTableRecord
100
AcDbBlockTableRecord
  2
*U71
  0
BLOCK_RECORD
  5
64
100
AcDbSymbolTableRecord
100
AcDbBlockTableRecord
  2
*U72
  0
BLOCK_RECORD
  5
65
100
AcDbSymbolTableRecord
100
AcDbBlockTableRecord
  2
*U73
  0
BLOCK_RECORD
  5
66
100
AcDbSymbolTableRecord
100
AcDbBlockTableRecord
  2
*U74
  0
BLOCK_RECORD
  5
67
100
AcDbSymbolTableRecord
100
AcDbBlockTableRecord
  2
*D75
  0
BLOCK_RECORD
  5
68
100
AcDbSymbolTableRecord
100
AcDbBlockTableRecord
  2
*D76
  0
BLOCK_RECORD
  5
69
100
AcDbSymbolTableRecord
100
AcDbBlockTableRecord
  2
*U77
  0
BLOCK_RECORD
  5
6A
100
AcDbSymbolTableRecord
100
AcDbBlockTableRecord
  2
*U78
  0
BLOCK_RECORD
  5
6B
100
AcDbSymbolTableRecord
100
AcDbBlockTableRecord
  2
*U79
  0
BLOCK_RECORD
  5
6C
100
AcDbSymbolTableRecord
100
AcDbBlockTableRecord
  2
*U80
  0
BLOCK_RECORD
  5
6D
100
AcDbSymbolTableRecord
100
AcDbBlockTableRecord
  2
*U81
  0
BLOCK_RECORD
  5
6E
100
AcDbSymbolTableRecord
100
AcDbBlockTableRecord
  2
*U82
  0
ENDTAB
  0
ENDSEC
  0
SECTION
  2
BLOCKS
  0
BLOCK
  5
D
100
AcDbEntity
  8
0
100
AcDbBlockBegin
  2
*MODEL_SPACE
 70
               0
 10
0.0
 20
0.0
 30
0.0
  3
*MODEL_SPACE
  1

  0
ENDBLK
  5
E
100
AcDbEntity
  8
0
100
AcDbBlockEnd
  0
BLOCK
  5
F
100
AcDbEntity
 67
               1
  8
0
100
AcDbBlockBegin
  2
*PAPER_SPACE
 70
               0
 10
0.0
 20
0.0
 30
0.0
  3
*PAPER_SPACE
  1

  0
ENDBLK
  5
10
100
AcDbEntity
 67
               1
  8
0
100
AcDbBlockEnd
  0
BLOCK
  5
82
100
AcDbEntity
  8
0
  6
BYBLOCK
 62
               0
100
AcDbBlockBegin
  2
VW_OPENARROW
 70
               0
 10
0.0
 20
0.0
 30
0.0
  3
VW_OPENARROW
  1

  0
LINE
  5
83
100
AcDbEntity
  8
0
  6
BYBLOCK
 62
               0
100
AcDbLine
 10
0.0
 20
0.0
 30
0.0
 11
-1.0
 21
0.0
 31
0.0
  0
LINE
  5
84
100
AcDbEntity
  8
0
  6
BYBLOCK
 62
               0
100
AcDbLine
 10
0.0
 20
0.0
 30
0.0
 11
-0.9921874999999999
 21
-0.2658558393652545
 31
0.0
  0
LINE
  5
85
100
AcDbEntity
  8
0
  6
BYBLOCK
 62
               0
100
AcDbLine
 10
0.0
 20
0.0
 30
0.0
 11
-0.9921874999999999
 21
0.2658558393652548
 31
0.0
  0
ENDBLK
  5
86
100
AcDbEntity
  8
0
100
AcDbBlockEnd
  0
BLOCK
  5
90
100
AcDbEntity
  8
DIMENTION
100
AcDbBlockBegin
  2
*D1
 70
               1
 10
0.0
 20
0.0
 30
0.0
  3
*D1
  1

  0
LINE
  5
91
100
AcDbEntity
  8
DIMENTION
 62
               0
100
AcDbLine
 10
489.4999999627471
 20
-288.49999999662532
 30
0.0
 11
593.49999992549419
 21
-288.49999999662532
 31
0.0
  0
LINE
  5
92
100
AcDbEntity
  8
DIMENTION
 62
               0
100
AcDbLine
 10
402.4999999627471
 20
-198.49999999662532
 30
0.0
 11
593.49999992549419
 21
-198.49999999662532
 31
0.0
  0
LINE
  5
93
100
AcDbEntity
  8
DIMENTION
 62
               0
100
AcDbLine
 10
573.5
 20
-288.49999999662532
 30
0.0
 11
573.5
 21
-198.49999999662532
 31
0.0
  0
LINE
  5
94
100
AcDbEntity
  8
DIMENTION
 62
               0
100
AcDbLine
 10
573.5
 20
-288.49999999662532
 30
0.0
 11
564.99261314031185
 21
-256.74999999662532
 31
0.0
  0
LINE
  5
95
100
AcDbEntity
  8
DIMENTION
 62
               0
100
AcDbLine
 10
573.5
 20
-288.49999999662532
 30
0.0
 11
582.00738685968815
 21
-256.74999999662532
 31
0.0
  0
LINE
  5
96
100
AcDbEntity
  8
DIMENTION
 62
               0
100
AcDbLine
 10
573.5
 20
-198.49999999662532
 30
0.0
 11
582.00738685968815
 21
-230.24999999662532
 31
0.0
  0
LINE
  5
97
100
AcDbEntity
  8
DIMENTION
 62
               0
100
AcDbLine
 10
573.5
 20
-198.49999999662532
 30
0.0
 11
564.99261314031185
 21
-230.24999999662532
 31
0.0
  0
MTEXT
  5
98
100
AcDbEntity
  8
DIMENTION
 62
               0
100
AcDbMText
 10
530.16666667039203
 20
-264.66666666329201
 30
0.0
 40
33.866666666666667
 41
0.0
 71
               1
 72
               1
  1
90
  7
________
 11
0.0
 21
1.0
 31
0.0
  0
POINT
  5
99
100
AcDbEntity
  8
DEFPOINTS
 62
               0
100
AcDbPoint
 10
392.5
 20
-198.49999999662532
 30
0.0
  0
POINT
  5
9A
100
AcDbEntity
  8
DEFPOINTS
 62
               0
100
AcDbPoint
 10
479.5
 20
-288.49999999662532
 30
0.0
  0
POINT
  5
9B
100
AcDbEntity
  8
DEFPOINTS
 62
               0
100
AcDbPoint
 10
573.5
 20
-288.49999999662532
 30
0.0
  0
ENDBLK
  5
9C
100
AcDbEntity
  8
DIMENTION
100
AcDbBlockEnd
  0
BLOCK
  5
9D
100
AcDbEntity
  8
DIMENTION
100
AcDbBlockBegin
  2
*D2
 70
               1
 10
0.0
 20
0.0
 30
0.0
  3
*D2
  1

  0
LINE
  5
9E
100
AcDbEntity
  8
DIMENTION
 62
               0
100
AcDbLine
 10
322.5
 20
-225.79001803887809
 30
0.0
 11
322.5
 21
-408.79001800162524
 31
0.0
  0
LINE
  5
9F
100
AcDbEntity
  8
DIMENTION
 62
               0
100
AcDbLine
 10
182.5
 20
-292.49999995937242
 30
0.0
 11
182.5
 21
-408.79001800162524
 31
0.0
  0
LINE
  5
A0
100
AcDbEntity
  8
DIMENTION
 62
               0
100
AcDbLine
 10
322.5
 20
-388.79001807613105
 30
0.0
 11
182.5
 21
-388.79001807613105
 31
0.0
  0
LINE
  5
A1
100
AcDbEntity
  8
DIMENTION
 62
               0
100
AcDbLine
 10
322.5
 20
-388.79001807613105
 30
0.0
 11
290.75
 21
-397.2974049358192
 31
0.0
  0
LINE
  5
A2
100
AcDbEntity
  8
DIMENTION
 62
               0
100
AcDbLine
 10
322.5
 20
-388.79001807613105
 30
0.0
 11
290.75
 21
-380.28263121644289
 31
0.0
  0
LINE
  5
A3
100
AcDbEntity
  8
DIMENTION
 62
               0
100
AcDbLine
 10
182.5
 20
-388.79001807613105
 30
0.0
 11
214.25
 21
-380.28263121644289
 31
0.0
  0
LINE
  5
A4
100
AcDbEntity
  8
DIMENTION
 62
               0
100
AcDbLine
 10
182.5
 20
-388.79001807613105
 30
0.0
 11
214.25
 21
-397.2974049358192
 31
0.0
  0
MTEXT
  5
A5
100
AcDbEntity
  8
DIMENTION
 62
               0
100
AcDbMText
 10
220.75
 20
-345.45668474652302
 30
0.0
 40
33.866666666666667
 41
0.0
 71
               1
 72
               1
  1
140
  7
________
  0
POINT
  5
A6
100
AcDbEntity
  8
DEFPOINTS
 62
               0
100
AcDbPoint
 10
182.5
 20
-282.49999999662532
 30
0.0
  0
POINT
  5
A7
100
AcDbEntity
  8
DEFPOINTS
 62
               0
100
AcDbPoint
 10
322.5
 20
-215.79001807613099
 30
0.0
  0
POINT
  5
A8
100
AcDbEntity
  8
DEFPOINTS
 62
               0
100
AcDbPoint
 10
322.5
 20
-388.79001807613105
 30
0.0
  0
ENDBLK
  5
A9
100
AcDbEntity
  8
DIMENTION
100
AcDbBlockEnd
  0
BLOCK
  5
AA
100
AcDbEntity
  8
DIMENTION
100
AcDbBlockBegin
  2
*D3
 70
               1
 10
0.0
 20
0.0
 30
0.0
  3
*D3
  1

  0
LINE
  5
AB
100
AcDbEntity
  8
DIMENTION
 62
               0
100
AcDbLine
 10
352.5000000372529
 20
-1780.0
 30
0.0
 11
65.303406786296364
 21
-1780.0
 31
0.0
  0
LINE
  5
AC
100
AcDbEntity
  8
DIMENTION
 62
               0
100
AcDbLine
 10
273.5000000372529
 20
-1805.0
 30
0.0
 11
65.303406786296364
 21
-1805.0
 31
0.0
  0
LINE
  5
AD
100
AcDbEntity
  8
DIMENTION
 62
               0
100
AcDbLine
 10
85.303406711790558
 20
-1805.0
 30
0.0
 11
85.303406711790558
 21
-1780.0
 31
0.0
  0
LINE
  5
AE
100
AcDbEntity
  8
DIMENTION
 62
               0
100
AcDbLine
 10
85.303406711790558
 20
-1780.0
 30
0.0
 11
85.303406711790558
 21
-1719.9999999869615
 31
0.0
  0
LINE
  5
AF
100
AcDbEntity
  8
DIMENTION
 62
               0
100
AcDbLine
 10
85.303406711790558
 20
-1780.0
 30
0.0
 11
76.796019852102518
 21
-1748.25
 31
0.0
  0
LINE
  5
B0
100
AcDbEntity
  8
DIMENTION
 62
               0
100
AcDbLine
 10
85.303406711790558
 20
-1780.0
 30
0.0
 11
93.810793571478598
 21
-1748.25
 31
0.0
  0
LINE
  5
B1
100
AcDbEntity
  8
DIMENTION
 62
               0
100
AcDbLine
 10
85.303406711790558
 20
-1805.0
 30
0.0
 11
85.303406711790558
 21
-1910.0537742473236
 31
0.0
  0
LINE
  5
B2
100
AcDbEntity
  8
DIMENTION
 62
               0
100
AcDbLine
 10
85.303406711790558
 20
-1805.0
 30
0.0
 11
93.810793571478598
 21
-1836.75
 31
0.0
  0
LINE
  5
B3
100
AcDbEntity
  8
DIMENTION
 62
               0
100
AcDbLine
 10
85.303406711790558
 20
-1805.0
 30
0.0
 11
76.796019852102518
 21
-1836.75
 31
0.0
  0
MTEXT
  5
B4
100
AcDbEntity
  8
DIMENTION
 62
               0
100
AcDbMText
 10
41.970073382182363
 20
-1910.0537742473239
 30
0.0
 40
33.866666666666667
 41
0.0
 71
               1
 72
               1
  1
25
  7
________
 11
0.0
 21
1.0
 31
0.0
  0
POINT
  5
B5
100
AcDbEntity
  8
DEFPOINTS
 62
               0
100
AcDbPoint
 10
283.5
 20
-1805.0
 30
0.0
  0
POINT
  5
B6
100
AcDbEntity
  8
DEFPOINTS
 62
               0
100
AcDbPoint
 10
362.5
 20
-1780.0
 30
0.0
  0
POINT
  5
B7
100
AcDbEntity
  8
DEFPOINTS
 62
               0
100
AcDbPoint
 10
85.303406711790558
 20
-1780.0
 30
0.0
  0
ENDBLK
  5
B8
100
AcDbEntity
  8
DIMENTION
100
AcDbBlockEnd
  0
BLOCK
  5
B9
100
AcDbEntity
  8
DIMENTION
100
AcDbBlockBegin
  2
*D4
 70
               1
 10
0.0
 20
0.0
 30
0.0
  3
*D4
  1

  0
LINE
  5
BA
100
AcDbEntity
  8
DIMENTION
 62
               0
100
AcDbLine
 10
182.5
 20
-1779.9999999627471
 30
0.0
 11
182.5
 21
-1886.7900180016252
 31
0.0
  0
LINE
  5
BB
100
AcDbEntity
  8
DIMENTION
 62
               0
100
AcDbLine
 10
322.5
 20
-1803.9999999627471
 30
0.0
 11
322.5
 21
-1886.7900180016252
 31
0.0
  0
LINE
  5
BC
100
AcDbEntity
  8
DIMENTION
 62
               0
100
AcDbLine
 10
182.5
 20
-1866.790018076131
 30
0.0
 11
322.5
 21
-1866.790018076131
 31
0.0
  0
LINE
  5
BD
100
AcDbEntity
  8
DIMENTION
 62
               0
100
AcDbLine
 10
182.5
 20
-1866.790018076131
 30
0.0
 11
214.25
 21
-1858.282631216443
 31
0.0
  0
LINE
  5
BE
100
AcDbEntity
  8
DIMENTION
 62
               0
100
AcDbLine
 10
182.5
 20
-1866.790018076131
 30
0.0
 11
214.25
 21
-1875.297404935819
 31
0.0
  0
LINE
  5
BF
100
AcDbEntity
  8
DIMENTION
 62
               0
100
AcDbLine
 10
322.5
 20
-1866.790018076131
 30
0.0
 11
290.75
 21
-1875.297404935819
 31
0.0
  0
LINE
  5
C0
100
AcDbEntity
  8
DIMENTION
 62
               0
100
AcDbLine
 10
322.5
 20
-1866.790018076131
 30
0.0
 11
290.75
 21
-1858.2826312164427
 31
0.0
  0
MTEXT
  5
C1
100
AcDbEntity
  8
DIMENTION
 62
               0
100
AcDbMText
 10
220.75
 20
-1823.456684746523
 30
0.0
 40
33.866666666666667
 41
0.0
 71
               1
 72
               1
  1
140
  7
________
  0
POINT
  5
C2
100
AcDbEntity
  8
DEFPOINTS
 62
               0
100
AcDbPoint
 10
322.5
 20
-1794.0
 30
0.0
  0
POINT
  5
C3
100
AcDbEntity
  8
DEFPOINTS
 62
               0
100
AcDbPoint
 10
182.5
 20
-1770.0
 30
0.0
  0
POINT
  5
C4
100
AcDbEntity
  8
DEFPOINTS
 62
               0
100
AcDbPoint
 10
182.5
 20
-1866.790018076131
 30
0.0
  0
ENDBLK
  5
C5
100
AcDbEntity
  8
DIMENTION
100
AcDbBlockEnd
  0
BLOCK
  5
C6
100
AcDbEntity
  8
DIMENTION
100
AcDbBlockBegin
  2
*D5
 70
               1
 10
0.0
 20
0.0
 30
0.0
  3
*D5
  1

  0
LINE
  5
C7
100
AcDbEntity
  8
DIMENTION
 62
               0
100
AcDbLine
 10
-114.5
 20
-1764.9999999627471
 30
0.0
 11
-114.5
 21
-1973.9999999292195
 31
0.0
  0
LINE
  5
C8
100
AcDbEntity
  8
DIMENTION
 62
               0
100
AcDbLine
 10
479.5
 20
-1764.9999999627471
 30
0.0
 11
479.5
 21
-1973.9999999292195
 31
0.0
  0
LINE
  5
C9
100
AcDbEntity
  8
DIMENTION
 62
               0
100
AcDbLine
 10
-114.5
 20
-1954.0000000037253
 30
0.0
 11
479.5
 21
-1954.0000000037253
 31
0.0
  0
LINE
  5
CA
100
AcDbEntity
  8
DIMENTION
 62
               0
100
AcDbLine
 10
-114.5
 20
-1954.0000000037253
 30
0.0
 11
-82.75
 21
-1945.4926131440373
 31
0.0
  0
LINE
  5
CB
100
AcDbEntity
  8
DIMENTION
 62
               0
100
AcDbLine
 10
-114.5
 20
-1954.0000000037253
 30
0.0
 11
-82.75
 21
-1962.5073868634133
 31
0.0
  0
LINE
  5
CC
100
AcDbEntity
  8
DIMENTION
 62
               0
100
AcDbLine
 10
479.5
 20
-1954.0000000037253
 30
0.0
 11
447.75
 21
-1962.5073868634133
 31
0.0
  0
LINE
  5
CD
100
AcDbEntity
  8
DIMENTION
 62
               0
100
AcDbLine
 10
479.5
 20
-1954.0000000037253
 30
0.0
 11
447.75
 21
-1945.4926131440373
 31
0.0
  0
MTEXT
  5
CE
100
AcDbEntity
  8
DIMENTION
 62
               0
100
AcDbMText
 10
146.75
 20
-1910.6666666741173
 30
0.0
 40
33.866666666666667
 41
0.0
 71
               1
 72
               1
  1
595
  7
________
  0
POINT
  5
CF
100
AcDbEntity
  8
DEFPOINTS
 62
               0
100
AcDbPoint
 10
479.5
 20
-1755.0
 30
0.0
  0
POINT
  5
D0
100
AcDbEntity
  8
DEFPOINTS
 62
               0
100
AcDbPoint
 10
-114.5
 20
-1755.0
 30
0.0
  0
POINT
  5
D1
100
AcDbEntity
  8
DEFPOINTS
 62
               0
100
AcDbPoint
 10
-114.5
 20
-1954.0000000037253
 30
0.0
  0
ENDBLK
  5
D2
100
AcDbEntity
  8
DIMENTION
100
AcDbBlockEnd
  0
BLOCK
  5
D3
100
AcDbEntity
  8
DIMENTION
100
AcDbBlockBegin
  2
*D6
 70
               1
 10
0.0
 20
0.0
 30
0.0
  3
*D6
  1

  0
LINE
  5
D4
100
AcDbEntity
  8
DIMENTION
 62
               0
100
AcDbLine
 10
2280.0
 20
-942.5000000372529
 30
0.0
 11
2280.0
 21
-719.7900181506368
 31
0.0
  0
LINE
  5
D5
100
AcDbEntity
  8
DIMENTION
 62
               0
100
AcDbLine
 10
1680.0
 20
-1415.0000000372529
 30
0.0
 11
1680.0
 21
-719.7900181506368
 31
0.0
  0
LINE
  5
D6
100
AcDbEntity
  8
DIMENTION
 62
               0
100
AcDbLine
 10
2280.0
 20
-739.79001807613099
 30
0.0
 11
1680.0
 21
-739.79001807613099
 31
0.0
  0
LINE
  5
D7
100
AcDbEntity
  8
DIMENTION
 62
               0
100
AcDbLine
 10
2280.0
 20
-739.79001807613099
 30
0.0
 11
2248.25
 21
-748.29740493581915
 31
0.0
  0
LINE
  5
D8
100
AcDbEntity
  8
DIMENTION
 62
               0
100
AcDbLine
 10
2280.0
 20
-739.79001807613099
 30
0.0
 11
2248.25
 21
-731.28263121644295
 31
0.0
  0
LINE
  5
D9
100
AcDbEntity
  8
DIMENTION
 62
               0
100
AcDbLine
 10
1680.0
 20
-739.79001807613099
 30
0.0
 11
1711.75
 21
-731.28263121644284
 31
0.0
  0
LINE
  5
DA
100
AcDbEntity
  8
DIMENTION
 62
               0
100
AcDbLine
 10
1680.0
 20
-739.79001807613099
 30
0.0
 11
1711.75
 21
-748.29740493581915
 31
0.0
  0
MTEXT
  5
DB
100
AcDbEntity
  8
DIMENTION
 62
               0
100
AcDbMText
 10
1944.25
 20
-696.45668474652302
 30
0.0
 40
33.866666666666667
 41
0.0
 71
               1
 72
               1
  1
600
  7
________
  0
POINT
  5
DC
100
AcDbEntity
  8
DEFPOINTS
 62
               0
100
AcDbPoint
 10
1680.0
 20
-1425.0
 30
0.0
  0
POINT
  5
DD
100
AcDbEntity
  8
DEFPOINTS
 62
               0
100
AcDbPoint
 10
2280.0
 20
-952.5
 30
0.0
  0
POINT
  5
DE
100
AcDbEntity
  8
DEFPOINTS
 62
               0
100
AcDbPoint
 10
2280.0
 20
-739.79001807613099
 30
0.0
  0
ENDBLK
  5
DF
100
AcDbEntity
  8
DIMENTION
100
AcDbBlockEnd
  0
BLOCK
  5
E0
100
AcDbEntity
  8
DIMENTION
100
AcDbBlockBegin
  2
*D7
 70
               1
 10
0.0
 20
0.0
 30
0.0
  3
*D7
  1

  0
LINE
  5
E1
100
AcDbEntity
  8
DIMENTION
 62
               0
100
AcDbLine
 10
1289.0000000000009
 20
-1388.0000000372529
 30
0.0
 11
1289.0000000000009
 21
-720.7900181506368
 31
0.0
  0
LINE
  5
E2
100
AcDbEntity
  8
DIMENTION
 62
               0
100
AcDbLine
 10
1680.0
 20
-1415.0000000372529
 30
0.0
 11
1680.0
 21
-720.7900181506368
 31
0.0
  0
LINE
  5
E3
100
AcDbEntity
  8
DIMENTION
 62
               0
100
AcDbLine
 10
1289.0000000000009
 20
-740.79001807613099
 30
0.0
 11
1680.0
 21
-740.79001807613099
 31
0.0
  0
LINE
  5
E4
100
AcDbEntity
  8
DIMENTION
 62
               0
100
AcDbLine
 10
1289.0000000000009
 20
-740.79001807613099
 30
0.0
 11
1320.7500000000009
 21
-732.28263121644284
 31
0.0
  0
LINE
  5
E5
100
AcDbEntity
  8
DIMENTION
 62
               0
100
AcDbLine
 10
1289.0000000000009
 20
-740.79001807613099
 30
0.0
 11
1320.7500000000009
 21
-749.29740493581915
 31
0.0
  0
LINE
  5
E6
100
AcDbEntity
  8
DIMENTION
 62
               0
100
AcDbLine
 10
1680.0
 20
-740.79001807613099
 30
0.0
 11
1648.25
 21
-749.29740493581915
 31
0.0
  0
LINE
  5
E7
100
AcDbEntity
  8
DIMENTION
 62
               0
100
AcDbLine
 10
1680.0
 20
-740.79001807613099
 30
0.0
 11
1648.25
 21
-732.28263121644284
 31
0.0
  0
MTEXT
  5
E8
100
AcDbEntity
  8
DIMENTION
 62
               0
100
AcDbMText
 10
1457.75
 20
-697.45668474652291
 30
0.0
 40
33.866666666666667
 41
0.0
 71
               1
 72
               1
  1
390
  7
________
  0
POINT
  5
E9
100
AcDbEntity
  8
DEFPOINTS
 62
               0
100
AcDbPoint
 10
1680.0
 20
-1425.0
 30
0.0
  0
POINT
  5
EA
100
AcDbEntity
  8
DEFPOINTS
 62
               0
100
AcDbPoint
 10
1289.0000000000009
 20
-1398.0
 30
0.0
  0
POINT
  5
EB
100
AcDbEntity
  8
DEFPOINTS
 62
               0
100
AcDbPoint
 10
1289.0000000000009
 20
-740.79001807613099
 30
0.0
  0
ENDBLK
  5
EC
100
AcDbEntity
  8
DIMENTION
100
AcDbBlockEnd
  0
BLOCK
  5
ED
100
AcDbEntity
  8
DIMENTION
100
AcDbBlockBegin
  2
*D8
 70
               1
 10
0.0
 20
0.0
 30
0.0
  3
*D8
  1

  0
LINE
  5
EE
100
AcDbEntity
  8
DIMENTION
 62
               0
100
AcDbLine
 10
1680.0
 20
-1415.0000000372529
 30
0.0
 11
1680.0
 21
-878.7900181506368
 31
0.0
  0
LINE
  5
EF
100
AcDbEntity
  8
DIMENTION
 62
               0
100
AcDbLine
 10
1655.5
 20
-1055.0000000372529
 30
0.0
 11
1655.5
 21
-878.7900181506368
 31
0.0
  0
LINE
  5
F0
100
AcDbEntity
  8
DIMENTION
 62
               0
100
AcDbLine
 10
1655.5
 20
-898.79001807613099
 30
0.0
 11
1680.0
 21
-898.79001807613099
 31
0.0
  0
LINE
  5
F1
100
AcDbEntity
  8
DIMENTION
 62
               0
100
AcDbLine
 10
1680.0
 20
-898.79001807613099
 30
0.0
 11
1740.0000000130385
 21
-898.79001807613099
 31
0.0
  0
LINE
  5
F2
100
AcDbEntity
  8
DIMENTION
 62
               0
100
AcDbLine
 10
1680.0
 20
-898.79001807613099
 30
0.0
 11
1711.75
 21
-890.28263121644284
 31
0.0
  0
LINE
  5
F3
100
AcDbEntity
  8
DIMENTION
 62
               0
100
AcDbLine
 10
1680.0
 20
-898.79001807613099
 30
0.0
 11
1711.75
 21
-907.29740493581915
 31
0.0
  0
LINE
  5
F4
100
AcDbEntity
  8
DIMENTION
 62
               0
100
AcDbLine
 10
1655.5
 20
-898.79001807613099
 30
0.0
 11
1584.6666666666665
 21
-898.79001807613099
 31
0.0
  0
LINE
  5
F5
100
AcDbEntity
  8
DIMENTION
 62
               0
100
AcDbLine
 10
1655.5
 20
-898.79001807613099
 30
0.0
 11
1623.75
 21
-907.29740493581915
 31
0.0
  0
LINE
  5
F6
100
AcDbEntity
  8
DIMENTION
 62
               0
100
AcDbLine
 10
1655.5
 20
-898.79001807613099
 30
0.0
 11
1623.75
 21
-890.28263121644284
 31
0.0
  0
MTEXT
  5
F7
100
AcDbEntity
  8
DIMENTION
 62
               0
100
AcDbMText
 10
1584.6666666666665
 20
-855.45668474652291
 30
0.0
 40
33.866666666666667
 41
0.0
 71
               1
 72
               1
  1
30
  7
________
  0
POINT
  5
F8
100
AcDbEntity
  8
DEFPOINTS
 62
               0
100
AcDbPoint
 10
1655.5
 20
-1065.0
 30
0.0
  0
POINT
  5
F9
100
AcDbEntity
  8
DEFPOINTS
 62
               0
100
AcDbPoint
 10
1680.0
 20
-1425.0
 30
0.0
  0
POINT
  5
FA
100
AcDbEntity
  8
DEFPOINTS
 62
               0
100
AcDbPoint
 10
1680.0
 20
-898.79001807613099
 30
0.0
  0
ENDBLK
  5
FB
100
AcDbEntity
  8
DIMENTION
100
AcDbBlockEnd
  0
BLOCK
  5
FC
100
AcDbEntity
  8
DIMENTION
100
AcDbBlockBegin
  2
*D9
 70
               1
 10
0.0
 20
0.0
 30
0.0
  3
*D9
  1

  0
LINE
  5
FD
100
AcDbEntity
  8
DIMENTION
 62
               0
100
AcDbLine
 10
1690.0
 20
-942.5000000372529
 30
0.0
 11
1690.0
 21
-799.2900181506368
 31
0.0
  0
LINE
  5
FE
100
AcDbEntity
  8
DIMENTION
 62
               0
100
AcDbLine
 10
2280.0
 20
-942.5000000372529
 30
0.0
 11
2280.0
 21
-799.2900181506368
 31
0.0
  0
LINE
  5
FF
100
AcDbEntity
  8
DIMENTION
 62
               0
100
AcDbLine
 10
1690.0
 20
-819.29001807613099
 30
0.0
 11
2280.0
 21
-819.29001807613099
 31
0.0
  0
LINE
  5
100
100
AcDbEntity
  8
DIMENTION
 62
               0
100
AcDbLine
 10
1690.0
 20
-819.29001807613099
 30
0.0
 11
1721.75
 21
-810.78263121644295
 31
0.0
  0
LINE
  5
101
100
AcDbEntity
  8
DIMENTION
 62
               0
100
AcDbLine
 10
1690.0
 20
-819.29001807613099
 30
0.0
 11
1721.75
 21
-827.79740493581915
 31
0.0
  0
LINE
  5
102
100
AcDbEntity
  8
DIMENTION
 62
               0
100
AcDbLine
 10
2280.0
 20
-819.29001807613099
 30
0.0
 11
2248.25
 21
-827.79740493581915
 31
0.0
  0
LINE
  5
103
100
AcDbEntity
  8
DIMENTION
 62
               0
100
AcDbLine
 10
2280.0
 20
-819.29001807613099
 30
0.0
 11
2248.25
 21
-810.78263121644295
 31
0.0
  0
MTEXT
  5
104
100
AcDbEntity
  8
DIMENTION
 62
               0
100
AcDbMText
 10
1967.0350467289718
 20
-775.95668474652302
 30
0.0
 40
33.866666666666667
 41
0.0
 71
               1
 72
               1
  1
590
  7
________
  0
POINT
  5
105
100
AcDbEntity
  8
DEFPOINTS
 62
               0
100
AcDbPoint
 10
2280.0
 20
-952.5
 30
0.0
  0
POINT
  5
106
100
AcDbEntity
  8
DEFPOINTS
 62
               0
100
AcDbPoint
 10
1690.0
 20
-952.5
 30
0.0
  0
POINT
  5
107
100
AcDbEntity
  8
DEFPOINTS
 62
               0
100
AcDbPoint
 10
1690.0
 20
-819.29001807613099
 30
0.0
  0
ENDBLK
  5
108
100
AcDbEntity
  8
DIMENTION
100
AcDbBlockEnd
  0
BLOCK
  5
109
100
AcDbEntity
  8
DIMENTION
100
AcDbBlockBegin
  2
*D10
 70
               1
 10
0.0
 20
0.0
 30
0.0
  3
*D10
  1

  0
LINE
  5
10A
100
AcDbEntity
  8
DIMENTION
 62
               0
100
AcDbLine
 10
1310.0
 20
-822.79001803887809
 30
0.0
 11
1310.0
 21
-839.29001800162519
 31
0.0
  0
LINE
  5
10B
100
AcDbEntity
  8
DIMENTION
 62
               0
100
AcDbLine
 10
1680.0
 20
-1415.0000000372529
 30
0.0
 11
1680.0
 21
-799.2900181506368
 31
0.0
  0
LINE
  5
10C
100
AcDbEntity
  8
DIMENTION
 62
               0
100
AcDbLine
 10
1310.0
 20
-819.29001807613099
 30
0.0
 11
1680.0
 21
-819.29001807613099
 31
0.0
  0
LINE
  5
10D
100
AcDbEntity
  8
DIMENTION
 62
               0
100
AcDbLine
 10
1310.0
 20
-819.29001807613099
 30
0.0
 11
1341.75
 21
-810.78263121644284
 31
0.0
  0
LINE
  5
10E
100
AcDbEntity
  8
DIMENTION
 62
               0
100
AcDbLine
 10
1310.0
 20
-819.29001807613099
 30
0.0
 11
1341.75
 21
-827.79740493581915
 31
0.0
  0
LINE
  5
10F
100
AcDbEntity
  8
DIMENTION
 62
               0
100
AcDbLine
 10
1680.0
 20
-819.29001807613099
 30
0.0
 11
1648.25
 21
-827.79740493581915
 31
0.0
  0
LINE
  5
110
100
AcDbEntity
  8
DIMENTION
 62
               0
100
AcDbLine
 10
1680.0
 20
-819.29001807613099
 30
0.0
 11
1648.25
 21
-810.78263121644284
 31
0.0
  0
MTEXT
  5
111
100
AcDbEntity
  8
DIMENTION
 62
               0
100
AcDbMText
 10
1463.25
 20
-775.95668474652291
 30
0.0
 40
33.866666666666667
 41
0.0
 71
               1
 72
               1
  1
370
  7
________
  0
POINT
  5
112
100
AcDbEntity
  8
DEFPOINTS
 62
               0
100
AcDbPoint
 10
1680.0
 20
-1425.0
 30
0.0
  0
POINT
  5
113
100
AcDbEntity
  8
DEFPOINTS
 62
               0
100
AcDbPoint
 10
1310.0
 20
-812.79001807613099
 30
0.0
  0
POINT
  5
114
100
AcDbEntity
  8
DEFPOINTS
 62
               0
100
AcDbPoint
 10
1310.0
 20
-819.29001807613099
 30
0.0
  0
ENDBLK
  5
115
100
AcDbEntity
  8
DIMENTION
100
AcDbBlockEnd
  0
BLOCK
  5
116
100
AcDbEntity
  8
DIMENTION
100
AcDbBlockBegin
  2
*D11
 70
               1
 10
0.0
 20
0.0
 30
0.0
  3
*D11
  1

  0
LINE
  5
117
100
AcDbEntity
  8
DIMENTION
 62
               0
100
AcDbLine
 10
489.4999999627471
 20
-288.49999999662532
 30
0.0
 11
684.4999999292196
 21
-288.49999999662532
 31
0.0
  0
LINE
  5
118
100
AcDbEntity
  8
DIMENTION
 62
               0
100
AcDbLine
 10
492.4999999627471
 20
311.50000000337445
 30
0.0
 11
684.4999999292196
 21
311.50000000337445
 31
0.0
  0
LINE
  5
119
100
AcDbEntity
  8
DIMENTION
 62
               0
100
AcDbLine
 10
664.5000000037254
 20
-288.49999999662532
 30
0.0
 11
664.5000000037254
 21
311.50000000337445
 31
0.0
  0
LINE
  5
11A
100
AcDbEntity
  8
DIMENTION
 62
               0
100
AcDbLine
 10
664.5000000037254
 20
-288.49999999662532
 30
0.0
 11
655.99261314403725
 21
-256.74999999662532
 31
0.0
  0
LINE
  5
11B
100
AcDbEntity
  8
DIMENTION
 62
               0
100
AcDbLine
 10
664.5000000037254
 20
-288.49999999662532
 30
0.0
 11
673.00738686341356
 21
-256.74999999662532
 31
0.0
  0
LINE
  5
11C
100
AcDbEntity
  8
DIMENTION
 62
               0
100
AcDbLine
 10
664.5000000037254
 20
311.50000000337445
 30
0.0
 11
673.00738686341356
 21
279.75000000337445
 31
0.0
  0
LINE
  5
11D
100
AcDbEntity
  8
DIMENTION
 62
               0
100
AcDbLine
 10
664.5000000037254
 20
311.50000000337445
 30
0.0
 11
655.99261314403725
 21
279.75000000337445
 31
0.0
  0
MTEXT
  5
11E
100
AcDbEntity
  8
DIMENTION
 62
               0
100
AcDbMText
 10
621.16666667411744
 20
-51.999999996625434
 30
0.0
 40
33.866666666666667
 41
0.0
 71
               1
 72
               1
  1
600
  7
________
 11
0.0
 21
1.0
 31
0.0
  0
POINT
  5
11F
100
AcDbEntity
  8
DEFPOINTS
 62
               0
100
AcDbPoint
 10
482.5
 20
311.50000000337445
 30
0.0
  0
POINT
  5
120
100
AcDbEntity
  8
DEFPOINTS
 62
               0
100
AcDbPoint
 10
479.5
 20
-288.49999999662532
 30
0.0
  0
POINT
  5
121
100
AcDbEntity
  8
DEFPOINTS
 62
               0
100
AcDbPoint
 10
664.5000000037254
 20
-288.49999999662532
 30
0.0
  0
ENDBLK
  5
122
100
AcDbEntity
  8
DIMENTION
100
AcDbBlockEnd
  0
BLOCK
  5
123
100
AcDbEntity
  8
DIMENTION
100
AcDbBlockBegin
  2
*D12
 70
               1
 10
0.0
 20
0.0
 30
0.0
  3
*D12
  1

  0
LINE
  5
124
100
AcDbEntity
  8
DIMENTION
 62
               0
100
AcDbLine
 10
2090.4999999627471
 20
-1775.0
 30
0.0
 11
2138.4999999254942
 21
-1775.0
 31
0.0
  0
LINE
  5
125
100
AcDbEntity
  8
DIMENTION
 62
               0
100
AcDbLine
 10
2105.9999999627471
 20
-1805.0
 30
0.0
 11
2138.4999999254942
 21
-1805.0
 31
0.0
  0
LINE
  5
126
100
AcDbEntity
  8
DIMENTION
 62
               0
100
AcDbLine
 10
2118.5
 20
-1805.0
 30
0.0
 11
2118.5
 21
-1775.0
 31
0.0
  0
LINE
  5
127
100
AcDbEntity
  8
DIMENTION
 62
               0
100
AcDbLine
 10
2118.5
 20
-1775.0
 30
0.0
 11
2118.5
 21
-1714.9999999869615
 31
0.0
  0
LINE
  5
128
100
AcDbEntity
  8
DIMENTION
 62
               0
100
AcDbLine
 10
2118.5
 20
-1775.0
 30
0.0
 11
2109.9926131403117
 21
-1743.25
 31
0.0
  0
LINE
  5
129
100
AcDbEntity
  8
DIMENTION
 62
               0
100
AcDbLine
 10
2118.5
 20
-1775.0
 30
0.0
 11
2127.0073868596883
 21
-1743.25
 31
0.0
  0
LINE
  5
12A
100
AcDbEntity
  8
DIMENTION
 62
               0
100
AcDbLine
 10
2118.5
 20
-1805.0
 30
0.0
 11
2118.5
 21
-1902.1233514094642
 31
0.0
  0
LINE
  5
12B
100
AcDbEntity
  8
DIMENTION
 62
               0
100
AcDbLine
 10
2118.5
 20
-1805.0
 30
0.0
 11
2127.0073868596883
 21
-1836.75
 31
0.0
  0
LINE
  5
12C
100
AcDbEntity
  8
DIMENTION
 62
               0
100
AcDbLine
 10
2118.5
 20
-1805.0
 30
0.0
 11
2109.9926131403117
 21
-1836.75
 31
0.0
  0
MTEXT
  5
12D
100
AcDbEntity
  8
DIMENTION
 62
               0
100
AcDbMText
 10
2075.1666666703918
 20
-1902.1233514094645
 30
0.0
 40
33.86666666666666
 41
0.0
 71
               1
 72
               1
  1
30
  7
________
 11
0.0
 21
1.0
 31
0.0
  0
POINT
  5
12E
100
AcDbEntity
  8
DEFPOINTS
 62
               0
100
AcDbPoint
 10
2096.0
 20
-1805.0
 30
0.0
  0
POINT
  5
12F
100
AcDbEntity
  8
DEFPOINTS
 62
               0
100
AcDbPoint
 10
2080.5
 20
-1775.0
 30
0.0
  0
POINT
  5
130
100
AcDbEntity
  8
DEFPOINTS
 62
               0
100
AcDbPoint
 10
2118.5
 20
-1775.0
 30
0.0
  0
ENDBLK
  5
131
100
AcDbEntity
  8
DIMENTION
100
AcDbBlockEnd
  0
BLOCK
  5
132
100
AcDbEntity
  8
DIMENTION
100
AcDbBlockBegin
  2
*D13
 70
               1
 10
0.0
 20
0.0
 30
0.0
  3
*D13
  1

  0
LINE
  5
133
100
AcDbEntity
  8
DIMENTION
 62
               0
100
AcDbLine
 10
1954.0
 20
-1759.9900180388781
 30
0.0
 11
1954.0
 21
-1884.7900180016252
 31
0.0
  0
LINE
  5
134
100
AcDbEntity
  8
DIMENTION
 62
               0
100
AcDbLine
 10
1998.0
 20
-1767.9999999627471
 30
0.0
 11
1998.0
 21
-1884.7900180016252
 31
0.0
  0
LINE
  5
135
100
AcDbEntity
  8
DIMENTION
 62
               0
100
AcDbLine
 10
1998.0
 20
-1864.790018076131
 30
0.0
 11
1954.0
 21
-1864.790018076131
 31
0.0
  0
LINE
  5
136
100
AcDbEntity
  8
DIMENTION
 62
               0
100
AcDbLine
 10
1954.0
 20
-1864.790018076131
 30
0.0
 11
1893.9999999869615
 21
-1864.790018076131
 31
0.0
  0
LINE
  5
137
100
AcDbEntity
  8
DIMENTION
 62
               0
100
AcDbLine
 10
1954.0
 20
-1864.790018076131
 30
0.0
 11
1922.25
 21
-1873.297404935819
 31
0.0
  0
LINE
  5
138
100
AcDbEntity
  8
DIMENTION
 62
               0
100
AcDbLine
 10
1954.0
 20
-1864.790018076131
 30
0.0
 11
1922.25
 21
-1856.2826312164427
 31
0.0
  0
LINE
  5
139
100
AcDbEntity
  8
DIMENTION
 62
               0
100
AcDbLine
 10
1998.0
 20
-1864.790018076131
 30
0.0
 11
2058.0000000130385
 21
-1864.790018076131
 31
0.0
  0
LINE
  5
13A
100
AcDbEntity
  8
DIMENTION
 62
               0
100
AcDbLine
 10
1998.0
 20
-1864.790018076131
 30
0.0
 11
2029.75
 21
-1856.282631216443
 31
0.0
  0
LINE
  5
13B
100
AcDbEntity
  8
DIMENTION
 62
               0
100
AcDbLine
 10
1998.0
 20
-1864.790018076131
 30
0.0
 11
2029.75
 21
-1873.297404935819
 31
0.0
  0
MTEXT
  5
13C
100
AcDbEntity
  8
DIMENTION
 62
               0
100
AcDbMText
 10
1954.8333333333333
 20
-1821.456684746523
 30
0.0
 40
33.86666666666666
 41
0.0
 71
               1
 72
               1
  1
45
  7
________
  0
POINT
  5
13D
100
AcDbEntity
  8
DEFPOINTS
 62
               0
100
AcDbPoint
 10
1998.0
 20
-1758.0
 30
0.0
  0
POINT
  5
13E
100
AcDbEntity
  8
DEFPOINTS
 62
               0
100
AcDbPoint
 10
1954.0
 20
-1749.990018076131
 30
0.0
  0
POINT
  5
13F
100
AcDbEntity
  8
DEFPOINTS
 62
               0
100
AcDbPoint
 10
1954.0
 20
-1864.790018076131
 30
0.0
  0
ENDBLK
  5
140
100
AcDbEntity
  8
DIMENTION
100
AcDbBlockEnd
  0
BLOCK
  5
141
100
AcDbEntity
  8
DIMENTION
100
AcDbBlockBegin
  2
*D14
 70
               1
 10
0.0
 20
0.0
 30
0.0
  3
*D14
  1

  0
LINE
  5
142
100
AcDbEntity
  8
DIMENTION
 62
               0
100
AcDbLine
 10
1680.0
 20
-1554.9999999627471
 30
0.0
 11
1680.0
 21
-1884.7900180016252
 31
0.0
  0
LINE
  5
143
100
AcDbEntity
  8
DIMENTION
 62
               0
100
AcDbLine
 10
1954.0
 20
-1767.9999999627471
 30
0.0
 11
1954.0
 21
-1884.7900180016252
 31
0.0
  0
LINE
  5
144
100
AcDbEntity
  8
DIMENTION
 62
               0
100
AcDbLine
 10
1680.0
 20
-1864.790018076131
 30
0.0
 11
1954.0
 21
-1864.790018076131
 31
0.0
  0
LINE
  5
145
100
AcDbEntity
  8
DIMENTION
 62
               0
100
AcDbLine
 10
1680.0
 20
-1864.790018076131
 30
0.0
 11
1711.75
 21
-1856.282631216443
 31
0.0
  0
LINE
  5
146
100
AcDbEntity
  8
DIMENTION
 62
               0
100
AcDbLine
 10
1680.0
 20
-1864.790018076131
 30
0.0
 11
1711.75
 21
-1873.297404935819
 31
0.0
  0
LINE
  5
147
100
AcDbEntity
  8
DIMENTION
 62
               0
100
AcDbLine
 10
1954.0
 20
-1864.790018076131
 30
0.0
 11
1922.25
 21
-1873.297404935819
 31
0.0
  0
LINE
  5
148
100
AcDbEntity
  8
DIMENTION
 62
               0
100
AcDbLine
 10
1954.0
 20
-1864.790018076131
 30
0.0
 11
1922.25
 21
-1856.2826312164427
 31
0.0
  0
MTEXT
  5
149
100
AcDbEntity
  8
DIMENTION
 62
               0
100
AcDbMText
 10
1792.75
 20
-1821.456684746523
 30
0.0
 40
33.86666666666666
 41
0.0
 71
               1
 72
               1
  1
275
  7
________
  0
POINT
  5
14A
100
AcDbEntity
  8
DEFPOINTS
 62
               0
100
AcDbPoint
 10
1954.0
 20
-1758.0
 30
0.0
  0
POINT
  5
14B
100
AcDbEntity
  8
DEFPOINTS
 62
               0
100
AcDbPoint
 10
1680.0
 20
-1545.0
 30
0.0
  0
POINT
  5
14C
100
AcDbEntity
  8
DEFPOINTS
 62
               0
100
AcDbPoint
 10
1680.0
 20
-1864.790018076131
 30
0.0
  0
ENDBLK
  5
14D
100
AcDbEntity
  8
DIMENTION
100
AcDbBlockEnd
  0
BLOCK
  5
14E
100
AcDbEntity
  8
HIDDEN
100
AcDbBlockBegin
  2
*U15
 70
               1
 10
0.0
 20
0.0
 30
0.0
  3
*U15
  1

  0
CIRCLE
  5
14F
100
AcDbEntity
  8
HIDDEN
 62
               0
100
AcDbCircle
 10
-1301.6173000028066
 20
757.50000000509749
 30
0.0
 40
17.000000000000032
  0
POLYLINE
  5
150
100
AcDbEntity
  8
HIDDEN
 62
               0
100
AcDb2dPolyline
 66
               1
 10
0.0
 20
0.0
 30
0.0
 70
               1
 75
               5
  0
VERTEX
  5
151
100
AcDbEntity
  8
HIDDEN
 62
               0
100
AcDbVertex
100
AcDb2dVertex
 10
-1321.6173000028066
 20
777.50000000509749
 30
0.0
  0
VERTEX
  5
152
100
AcDbEntity
  8
HIDDEN
 62
               0
100
AcDbVertex
100
AcDb2dVertex
 10
-1281.6173000028066
 20
777.50000000509749
 30
0.0
  0
VERTEX
  5
153
100
AcDbEntity
  8
HIDDEN
 62
               0
100
AcDbVertex
100
AcDb2dVertex
 10
-1281.6173000028066
 20
737.50000000509749
 30
0.0
  0
VERTEX
  5
154
100
AcDbEntity
  8
HIDDEN
 62
               0
100
AcDbVertex
100
AcDb2dVertex
 10
-1321.6173000028066
 20
737.50000000509749
 30
0.0
  0
SEQEND
  5
155
100
AcDbEntity
  8
HIDDEN
 62
               0
  0
LINE
  5
156
100
AcDbEntity
  8
HIDDEN
 62
               0
100
AcDbLine
 10
-1284.6173000028066
 20
737.50000000509749
 30
0.0
 11
-1284.6173000028066
 21
717.50000000509749
 31
0.0
  0
LINE
  5
157
100
AcDbEntity
  8
HIDDEN
 62
               0
100
AcDbLine
 10
-1318.6173000028066
 20
737.50000000509749
 30
0.0
 11
-1318.6173000028066
 21
717.50000000509749
 31
0.0
  0
LINE
  5
158
100
AcDbEntity
  8
HIDDEN
 62
               0
100
AcDbLine
 10
-1284.6173000028066
 20
717.50000000509749
 30
0.0
 11
-1318.9073180823123
 21
717.50000000509749
 31
0.0
  0
LINE
  5
159
100
AcDbEntity
  8
HIDDEN
 62
               0
100
AcDbLine
 10
-1287.6173000028066
 20
737.50000000509749
 30
0.0
 11
-1287.6173000028066
 21
717.50000000509749
 31
0.0
  0
LINE
  5
15A
100
AcDbEntity
  8
HIDDEN
 62
               0
100
AcDbLine
 10
-1315.6173000028066
 20
737.50000000509749
 30
0.0
 11
-1315.6173000028066
 21
717.50000000509749
 31
0.0
  0
ENDBLK
  5
15B
100
AcDbEntity
  8
HIDDEN
100
AcDbBlockEnd
  0
BLOCK
  5
15C
100
AcDbEntity
  8
DIMENTION
100
AcDbBlockBegin
  2
*D16
 70
               1
 10
0.0
 20
0.0
 30
0.0
  3
*D16
  1

  0
LINE
  5
15D
100
AcDbEntity
  8
DIMENTION
 62
               0
100
AcDbLine
 10
2292.3999999627472
 20
-951.0
 30
0.0
 11
2441.4999999254942
 21
-951.0
 31
0.0
  0
LINE
  5
15E
100
AcDbEntity
  8
DIMENTION
 62
               0
100
AcDbLine
 10
2270.9999999627471
 20
-1805.0
 30
0.0
 11
2441.4999999254942
 21
-1805.0
 31
0.0
  0
LINE
  5
15F
100
AcDbEntity
  8
DIMENTION
 62
               0
100
AcDbLine
 10
2421.5
 20
-951.0
 30
0.0
 11
2421.5
 21
-1805.0
 31
0.0
  0
LINE
  5
160
100
AcDbEntity
  8
DIMENTION
 62
               0
100
AcDbLine
 10
2421.5
 20
-951.0
 30
0.0
 11
2430.0073868596883
 21
-982.75
 31
0.0
  0
LINE
  5
161
100
AcDbEntity
  8
DIMENTION
 62
               0
100
AcDbLine
 10
2421.5
 20
-951.0
 30
0.0
 11
2412.9926131403117
 21
-982.75
 31
0.0
  0
LINE
  5
162
100
AcDbEntity
  8
DIMENTION
 62
               0
100
AcDbLine
 10
2421.5
 20
-1805.0
 30
0.0
 11
2412.9926131403117
 21
-1773.25
 31
0.0
  0
LINE
  5
163
100
AcDbEntity
  8
DIMENTION
 62
               0
100
AcDbLine
 10
2421.5
 20
-1805.0
 30
0.0
 11
2430.0073868596883
 21
-1773.25
 31
0.0
  0
MTEXT
  5
164
100
AcDbEntity
  8
DIMENTION
 62
               0
100
AcDbMText
 10
2371.1111111148366
 20
-1415.0416666666665
 30
0.0
 40
39.51111111111112
 41
0.0
 71
               1
 72
               1
  1
854
  7
________
 11
0.0
 21
1.0
 31
0.0
  0
POINT
  5
165
100
AcDbEntity
  8
DEFPOINTS
 62
               0
100
AcDbPoint
 10
2261.0
 20
-1805.0
 30
0.0
  0
POINT
  5
166
100
AcDbEntity
  8
DEFPOINTS
 62
               0
100
AcDbPoint
 10
2282.4000000000001
 20
-951.0
 30
0.0
  0
POINT
  5
167
100
AcDbEntity
  8
DEFPOINTS
 62
               0
100
AcDbPoint
 10
2421.5
 20
-951.0
 30
0.0
  0
ENDBLK
  5
168
100
AcDbEntity
  8
DIMENTION
100
AcDbBlockEnd
  0
BLOCK
  5
169
100
AcDbEntity
  8
OBJECT
100
AcDbBlockBegin
  2
*U17
 70
               1
 10
0.0
 20
0.0
 30
0.0
  3
*U17
  1

  0
LINE
  5
16A
100
AcDbEntity
  8
OBJECT
 62
               0
100
AcDbLine
 10
-861.61730000280659
 20
-980.99999999827719
 30
0.0
 11
-861.61730000280659
 21
-978.99999999827719
 31
0.0
  0
LINE
  5
16B
100
AcDbEntity
  8
OBJECT
 62
               0
100
AcDbLine
 10
-861.61730000280659
 20
-980.99999999827719
 30
0.0
 11
-791.61730000280659
 21
-980.99999999827719
 31
0.0
  0
LINE
  5
16C
100
AcDbEntity
  8
OBJECT
 62
               0
100
AcDbLine
 10
-791.61730000280659
 20
-978.99999999827719
 30
0.0
 11
-791.61730000280659
 21
-980.99999999827719
 31
0.0
  0
LINE
  5
16D
100
AcDbEntity
  8
OBJECT
 62
               0
100
AcDbLine
 10
-861.61730000280659
 20
-978.99999999827719
 30
0.0
 11
-791.61730000280659
 21
-978.99999999827719
 31
0.0
  0
LINE
  5
16E
100
AcDbEntity
  8
OBJECT
 62
               0
100
AcDbLine
 10
-846.61730000280659
 20
-1008.9999999982772
 30
0.0
 11
-806.61730000280659
 21
-1008.9999999982772
 31
0.0
  0
LINE
  5
16F
100
AcDbEntity
  8
OBJECT
 62
               0
100
AcDbLine
 10
-856.61730000280659
 20
-980.99999999827719
 30
0.0
 11
-846.61730000280659
 21
-1008.9999999982772
 31
0.0
  0
LINE
  5
170
100
AcDbEntity
  8
OBJECT
 62
               0
100
AcDbLine
 10
-806.61730000280659
 20
-1008.9999999982772
 30
0.0
 11
-796.61730000280659
 21
-980.99999999827719
 31
0.0
  0
LINE
  5
171
100
AcDbEntity
  8
OBJECT
 62
               0
100
AcDbLine
 10
-839.11730000280659
 20
-1028.9999999982772
 30
0.0
 11
-814.11730000280659
 21
-1028.9999999982772
 31
0.0
  0
LINE
  5
172
100
AcDbEntity
  8
OBJECT
 62
               0
100
AcDbLine
 10
-844.11730000280659
 20
-1023.9999999982772
 30
0.0
 11
-844.11730000280659
 21
-1008.9999999982772
 31
0.0
  0
LINE
  5
173
100
AcDbEntity
  8
OBJECT
 62
               0
100
AcDbLine
 10
-809.11730000280659
 20
-1023.9999999982772
 30
0.0
 11
-809.11730000280659
 21
-1008.9999999982772
 31
0.0
  0
LINE
  5
174
100
AcDbEntity
  8
CENTER
 62
               0
100
AcDbLine
 10
-826.61730000280659
 20
-1038.9999999982772
 30
0.0
 11
-826.61730000280659
 21
-978.99999999827719
 31
0.0
  0
ARC
  5
175
100
AcDbEntity
  8
OBJECT
 62
               0
100
AcDbCircle
 10
-839.11730000280659
 20
-1023.9999999982772
 30
0.0
 40
5.0
100
AcDbArc
 50
180.0
 51
270.0
  0
ARC
  5
176
100
AcDbEntity
  8
OBJECT
 62
               0
100
AcDbCircle
 10
-814.11730000280659
 20
-1023.9999999982772
 30
0.0
 40
5.0
100
AcDbArc
 50
270.0
 51
0.0
  0
ENDBLK
  5
177
100
AcDbEntity
  8
OBJECT
100
AcDbBlockEnd
  0
BLOCK
  5
178
100
AcDbEntity
  8
OBJECT
100
AcDbBlockBegin
  2
*U18
 70
               1
 10
0.0
 20
0.0
 30
0.0
  3
*U18
  1

  0
LINE
  5
179
100
AcDbEntity
  8
OBJECT
 62
               0
100
AcDbLine
 10
-1301.6173000028066
 20
-980.99999999827719
 30
0.0
 11
-1301.6173000028066
 21
-978.99999999827719
 31
0.0
  0
LINE
  5
17A
100
AcDbEntity
  8
OBJECT
 62
               0
100
AcDbLine
 10
-1301.6173000028066
 20
-980.99999999827719
 30
0.0
 11
-1371.6173000028066
 21
-980.99999999827719
 31
0.0
  0
LINE
  5
17B
100
AcDbEntity
  8
OBJECT
 62
               0
100
AcDbLine
 10
-1371.6173000028066
 20
-978.99999999827719
 30
0.0
 11
-1371.6173000028066
 21
-980.99999999827719
 31
0.0
  0
LINE
  5
17C
100
AcDbEntity
  8
OBJECT
 62
               0
100
AcDbLine
 10
-1301.6173000028066
 20
-978.99999999827719
 30
0.0
 11
-1371.6173000028066
 21
-978.99999999827719
 31
0.0
  0
LINE
  5
17D
100
AcDbEntity
  8
OBJECT
 62
               0
100
AcDbLine
 10
-1316.6173000028066
 20
-1008.9999999982772
 30
0.0
 11
-1356.6173000028066
 21
-1008.9999999982772
 31
0.0
  0
LINE
  5
17E
100
AcDbEntity
  8
OBJECT
 62
               0
100
AcDbLine
 10
-1306.6173000028066
 20
-980.99999999827719
 30
0.0
 11
-1316.6173000028066
 21
-1008.9999999982772
 31
0.0
  0
LINE
  5
17F
100
AcDbEntity
  8
OBJECT
 62
               0
100
AcDbLine
 10
-1356.6173000028066
 20
-1008.9999999982772
 30
0.0
 11
-1366.6173000028066
 21
-980.99999999827719
 31
0.0
  0
LINE
  5
180
100
AcDbEntity
  8
OBJECT
 62
               0
100
AcDbLine
 10
-1324.1173000028066
 20
-1028.9999999982772
 30
0.0
 11
-1349.1173000028066
 21
-1028.9999999982772
 31
0.0
  0
LINE
  5
181
100
AcDbEntity
  8
OBJECT
 62
               0
100
AcDbLine
 10
-1319.1173000028066
 20
-1023.9999999982772
 30
0.0
 11
-1319.1173000028066
 21
-1008.9999999982772
 31
0.0
  0
LINE
  5
182
100
AcDbEntity
  8
OBJECT
 62
               0
100
AcDbLine
 10
-1354.1173000028066
 20
-1023.9999999982772
 30
0.0
 11
-1354.1173000028066
 21
-1008.9999999982772
 31
0.0
  0
LINE
  5
183
100
AcDbEntity
  8
CENTER
 62
               0
100
AcDbLine
 10
-1336.6173000028066
 20
-1038.9999999982772
 30
0.0
 11
-1336.6173000028066
 21
-978.99999999827719
 31
0.0
  0
ARC
  5
184
100
AcDbEntity
  8
OBJECT
 62
               0
100
AcDbCircle
 10
-1324.1173000028066
 20
-1023.9999999982772
 30
0.0
 40
5.0
100
AcDbArc
 50
270.0
 51
0.0
  0
ARC
  5
185
100
AcDbEntity
  8
OBJECT
 62
               0
100
AcDbCircle
 10
-1349.1173000028066
 20
-1023.9999999982772
 30
0.0
 40
5.0
100
AcDbArc
 50
180.0
 51
270.0
  0
ENDBLK
  5
186
100
AcDbEntity
  8
OBJECT
100
AcDbBlockEnd
  0
BLOCK
  5
187
100
AcDbEntity
  8
OBJECT
100
AcDbBlockBegin
  2
*U19
 70
               1
 10
0.0
 20
0.0
 30
0.0
  3
*U19
  1

  0
ARC
  5
188
100
AcDbEntity
  8
OBJECT
 62
               0
100
AcDbCircle
 10
-1229.1173000028066
 20
-288.99999999827719
 30
0.0
 40
11.0
100
AcDbArc
 50
90.0
 51
270.0
  0
LINE
  5
189
100
AcDbEntity
  8
OBJECT
 62
               0
100
AcDbLine
 10
-1229.1173000028066
 20
-277.99999999827719
 30
0.0
 11
-934.11730000280659
 21
-277.99999999827719
 31
0.0
  0
LINE
  5
18A
100
AcDbEntity
  8
OBJECT
 62
               0
100
AcDbLine
 10
-1229.1173000028066
 20
-299.99999999827719
 30
0.0
 11
-934.11730000280659
 21
-299.99999999827719
 31
0.0
  0
ARC
  5
18B
100
AcDbEntity
  8
OBJECT
 62
               0
100
AcDbCircle
 10
-934.11730000280659
 20
-288.99999999827719
 30
0.0
 40
11.0
100
AcDbArc
 50
270.0
 51
90.0
  0
ARC
  5
18C
100
AcDbEntity
  8
OBJECT
 62
               0
100
AcDbCircle
 10
-1225.1173000028066
 20
-288.99999999827719
 30
0.0
 40
10.0
100
AcDbArc
 50
90.0
 51
270.0
  0
ARC
  5
18D
100
AcDbEntity
  8
OBJECT
 62
               0
100
AcDbCircle
 10
-1225.1173000028066
 20
-288.99999999827719
 30
0.0
 40
8.0
100
AcDbArc
 50
90.0
 51
270.0
  0
ARC
  5
18E
100
AcDbEntity
  8
OBJECT
 62
               0
100
AcDbCircle
 10
-938.11730000280659
 20
-288.99999999827719
 30
0.0
 40
10.0
100
AcDbArc
 50
270.0
 51
90.0
  0
ARC
  5
18F
100
AcDbEntity
  8
OBJECT
 62
               0
100
AcDbCircle
 10
-938.11730000280659
 20
-288.99999999827719
 30
0.0
 40
8.0
100
AcDbArc
 50
270.0
 51
90.0
  0
LINE
  5
190
100
AcDbEntity
  8
OBJECT
 62
               0
100
AcDbLine
 10
-1225.1173000028066
 20
-280.99999999827719
 30
0.0
 11
-938.11730000280659
 21
-280.99999999827719
 31
0.0
  0
LINE
  5
191
100
AcDbEntity
  8
OBJECT
 62
               0
100
AcDbLine
 10
-938.11730000280659
 20
-296.99999999827719
 30
0.0
 11
-1225.1173000028066
 21
-296.99999999827719
 31
0.0
  0
LINE
  5
192
100
AcDbEntity
  8
OBJECT
 62
               0
100
AcDbLine
 10
-1225.1173000028066
 20
-278.99999999827719
 30
0.0
 11
-938.11730000280659
 21
-278.99999999827719
 31
0.0
  0
LINE
  5
193
100
AcDbEntity
  8
OBJECT
 62
               0
100
AcDbLine
 10
-938.11730000280659
 20
-298.99999999827719
 30
0.0
 11
-1225.1173000028066
 21
-298.99999999827719
 31
0.0
  0
ENDBLK
  5
194
100
AcDbEntity
  8
OBJECT
100
AcDbBlockEnd
  0
BLOCK
  5
195
100
AcDbEntity
  8
OBJECT
100
AcDbBlockBegin
  2
*U20
 70
               1
 10
0.0
 20
0.0
 30
0.0
  3
*U20
  1

  0
INSERT
  5
196
100
AcDbEntity
  8
OBJECT
 62
               0
100
AcDbBlockReference
  2
*U19
 10
0.0
 20
0.0
 30
0.0
  0
LINE
  5
197
100
AcDbEntity
  8
OBJECT
 62
               0
100
AcDbLine
 10
-1171.6173000028066
 20
-246.99999999827719
 30
0.0
 11
-991.61730000280659
 21
-246.99999999827719
 31
0.0
  0
LINE
  5
198
100
AcDbEntity
  8
OBJECT
 62
               0
100
AcDbLine
 10
-1171.6173000028066
 20
-246.99999999827719
 30
0.0
 11
-1171.6173000028066
 21
-277.99999999827719
 31
0.0
  0
LINE
  5
199
100
AcDbEntity
  8
OBJECT
 62
               0
100
AcDbLine
 10
-991.61730000280659
 20
-246.99999999827719
 30
0.0
 11
-991.61730000280659
 21
-277.99999999827719
 31
0.0
  0
LINE
  5
19A
100
AcDbEntity
  8
OBJECT
 62
               0
100
AcDbLine
 10
-1161.6173000028066
 20
-323.99999999827719
 30
0.0
 11
-1001.6173000028066
 21
-323.99999999827719
 31
0.0
  0
ARC
  5
19B
100
AcDbEntity
  8
OBJECT
 62
               0
100
AcDbCircle
 10
-1161.6173000028066
 20
-313.99999999827719
 30
0.0
 40
10.0
100
AcDbArc
 50
180.0
 51
270.0
  0
ARC
  5
19C
100
AcDbEntity
  8
OBJECT
 62
               0
100
AcDbCircle
 10
-1001.6173000028066
 20
-313.99999999827719
 30
0.0
 40
10.0
100
AcDbArc
 50
270.0
 51
0.0
  0
LINE
  5
19D
100
AcDbEntity
  8
OBJECT
 62
               0
100
AcDbLine
 10
-1171.6173000028066
 20
-313.99999999827719
 30
0.0
 11
-1171.6173000028066
 21
-299.99999999827719
 31
0.0
  0
LINE
  5
19E
100
AcDbEntity
  8
OBJECT
 62
               0
100
AcDbLine
 10
-991.61730000280659
 20
-313.99999999827719
 30
0.0
 11
-991.61730000280659
 21
-299.99999999827719
 31
0.0
  0
ENDBLK
  5
19F
100
AcDbEntity
  8
OBJECT
100
AcDbBlockEnd
  0
BLOCK
  5
1A0
100
AcDbEntity
  8
OBJECT
100
AcDbBlockBegin
  2
*U21
 70
               1
 10
0.0
 20
0.0
 30
0.0
  3
*U21
  1

  0
LINE
  5
1A1
100
AcDbEntity
  8
OBJECT
 62
               0
100
AcDbLine
 10
-1331.6173000028066
 20
-783.99999999827719
 30
0.0
 11
-1271.6173000028066
 21
-783.99999999827719
 31
0.0
  0
ARC
  5
1A2
100
AcDbEntity
  8
OBJECT
 62
               0
100
AcDbCircle
 10
-1325.6173000028066
 20
-783.99999999827719
 30
0.0
 40
6.0
100
AcDbArc
 50
180.0
 51
270.0
  0
ARC
  5
1A3
100
AcDbEntity
  8
OBJECT
 62
               0
100
AcDbCircle
 10
-1277.6173000028066
 20
-783.99999999827719
 30
0.0
 40
6.0
100
AcDbArc
 50
270.0
 51
0.0
  0
LINE
  5
1A4
100
AcDbEntity
  8
OBJECT
 62
               0
100
AcDbLine
 10
-1325.6173000028066
 20
-789.99999999827719
 30
0.0
 11
-1277.6173000028066
 21
-789.99999999827719
 31
0.0
  0
ENDBLK
  5
1A5
100
AcDbEntity
  8
OBJECT
100
AcDbBlockEnd
  0
BLOCK
  5
1A6
100
AcDbEntity
  8
OBJECT
100
AcDbBlockBegin
  2
*U22
 70
               1
 10
0.0
 20
0.0
 30
0.0
  3
*U22
  1

  0
LINE
  5
1A7
100
AcDbEntity
  8
OBJECT
 62
               0
100
AcDbLine
 10
-1331.6173000028066
 20
-798.99999999827719
 30
0.0
 11
-1271.6173000028066
 21
-798.99999999827719
 31
0.0
  0
ARC
  5
1A8
100
AcDbEntity
  8
OBJECT
 62
               0
100
AcDbCircle
 10
-1325.6173000028066
 20
-798.99999999827719
 30
0.0
 40
6.0
100
AcDbArc
 50
180.0
 51
270.0
  0
ARC
  5
1A9
100
AcDbEntity
  8
OBJECT
 62
               0
100
AcDbCircle
 10
-1277.6173000028066
 20
-798.99999999827719
 30
0.0
 40
6.0
100
AcDbArc
 50
270.0
 51
0.0
  0
LINE
  5
1AA
100
AcDbEntity
  8
OBJECT
 62
               0
100
AcDbLine
 10
-1325.6173000028066
 20
-804.99999999827719
 30
0.0
 11
-1277.6173000028066
 21
-804.99999999827719
 31
0.0
  0
ENDBLK
  5
1AB
100
AcDbEntity
  8
OBJECT
100
AcDbBlockEnd
  0
BLOCK
  5
1AC
100
AcDbEntity
  8
OBJECT
100
AcDbBlockBegin
  2
*U23
 70
               1
 10
0.0
 20
0.0
 30
0.0
  3
*U23
  1

  0
LINE
  5
1AD
100
AcDbEntity
  8
OBJECT
 62
               0
100
AcDbLine
 10
-1331.6173000028066
 20
-813.99999999827719
 30
0.0
 11
-1271.6173000028066
 21
-813.99999999827719
 31
0.0
  0
ARC
  5
1AE
100
AcDbEntity
  8
OBJECT
 62
               0
100
AcDbCircle
 10
-1325.6173000028066
 20
-813.99999999827719
 30
0.0
 40
6.0
100
AcDbArc
 50
180.0
 51
270.0
  0
ARC
  5
1AF
100
AcDbEntity
  8
OBJECT
 62
               0
100
AcDbCircle
 10
-1277.6173000028066
 20
-813.99999999827719
 30
0.0
 40
6.0
100
AcDbArc
 50
270.0
 51
0.0
  0
LINE
  5
1B0
100
AcDbEntity
  8
OBJECT
 62
               0
100
AcDbLine
 10
-1325.6173000028066
 20
-819.99999999827719
 30
0.0
 11
-1277.6173000028066
 21
-819.99999999827719
 31
0.0
  0
ENDBLK
  5
1B1
100
AcDbEntity
  8
OBJECT
100
AcDbBlockEnd
  0
BLOCK
  5
1B2
100
AcDbEntity
  8
OBJECT
100
AcDbBlockBegin
  2
*U24
 70
               1
 10
0.0
 20
0.0
 30
0.0
  3
*U24
  1

  0
LINE
  5
1B3
100
AcDbEntity
  8
OBJECT
 62
               0
100
AcDbLine
 10
-1331.6173000028066
 20
-828.99999999827719
 30
0.0
 11
-1271.6173000028066
 21
-828.99999999827719
 31
0.0
  0
ARC
  5
1B4
100
AcDbEntity
  8
OBJECT
 62
               0
100
AcDbCircle
 10
-1325.6173000028066
 20
-828.99999999827719
 30
0.0
 40
6.0
100
AcDbArc
 50
180.0
 51
270.0
  0
ARC
  5
1B5
100
AcDbEntity
  8
OBJECT
 62
               0
100
AcDbCircle
 10
-1277.6173000028066
 20
-828.99999999827719
 30
0.0
 40
6.0
100
AcDbArc
 50
270.0
 51
0.0
  0
LINE
  5
1B6
100
AcDbEntity
  8
OBJECT
 62
               0
100
AcDbLine
 10
-1325.6173000028066
 20
-834.99999999827719
 30
0.0
 11
-1277.6173000028066
 21
-834.99999999827719
 31
0.0
  0
ENDBLK
  5
1B7
100
AcDbEntity
  8
OBJECT
100
AcDbBlockEnd
  0
BLOCK
  5
1B8
100
AcDbEntity
  8
OBJECT
100
AcDbBlockBegin
  2
*U25
 70
               1
 10
0.0
 20
0.0
 30
0.0
  3
*U25
  1

  0
LINE
  5
1B9
100
AcDbEntity
  8
OBJECT
 62
               0
100
AcDbLine
 10
-1251.6173000028066
 20
-783.99999999827719
 30
0.0
 11
-1191.6173000028066
 21
-783.99999999827719
 31
0.0
  0
ARC
  5
1BA
100
AcDbEntity
  8
OBJECT
 62
               0
100
AcDbCircle
 10
-1245.6173000028066
 20
-783.99999999827719
 30
0.0
 40
6.0
100
AcDbArc
 50
180.0
 51
270.0
  0
ARC
  5
1BB
100
AcDbEntity
  8
OBJECT
 62
               0
100
AcDbCircle
 10
-1197.6173000028066
 20
-783.99999999827719
 30
0.0
 40
6.0
100
AcDbArc
 50
270.0
 51
0.0
  0
LINE
  5
1BC
100
AcDbEntity
  8
OBJECT
 62
               0
100
AcDbLine
 10
-1245.6173000028066
 20
-789.99999999827719
 30
0.0
 11
-1197.6173000028066
 21
-789.99999999827719
 31
0.0
  0
ENDBLK
  5
1BD
100
AcDbEntity
  8
OBJECT
100
AcDbBlockEnd
  0
BLOCK
  5
1BE
100
AcDbEntity
  8
OBJECT
100
AcDbBlockBegin
  2
*U26
 70
               1
 10
0.0
 20
0.0
 30
0.0
  3
*U26
  1

  0
LINE
  5
1BF
100
AcDbEntity
  8
OBJECT
 62
               0
100
AcDbLine
 10
-1251.6173000028066
 20
-798.99999999827719
 30
0.0
 11
-1191.6173000028066
 21
-798.99999999827719
 31
0.0
  0
ARC
  5
1C0
100
AcDbEntity
  8
OBJECT
 62
               0
100
AcDbCircle
 10
-1245.6173000028066
 20
-798.99999999827719
 30
0.0
 40
6.0
100
AcDbArc
 50
180.0
 51
270.0
  0
ARC
  5
1C1
100
AcDbEntity
  8
OBJECT
 62
               0
100
AcDbCircle
 10
-1197.6173000028066
 20
-798.99999999827719
 30
0.0
 40
6.0
100
AcDbArc
 50
270.0
 51
0.0
  0
LINE
  5
1C2
100
AcDbEntity
  8
OBJECT
 62
               0
100
AcDbLine
 10
-1245.6173000028066
 20
-804.99999999827719
 30
0.0
 11
-1197.6173000028066
 21
-804.99999999827719
 31
0.0
  0
ENDBLK
  5
1C3
100
AcDbEntity
  8
OBJECT
100
AcDbBlockEnd
  0
BLOCK
  5
1C4
100
AcDbEntity
  8
OBJECT
100
AcDbBlockBegin
  2
*U27
 70
               1
 10
0.0
 20
0.0
 30
0.0
  3
*U27
  1

  0
LINE
  5
1C5
100
AcDbEntity
  8
OBJECT
 62
               0
100
AcDbLine
 10
-1251.6173000028066
 20
-813.99999999827719
 30
0.0
 11
-1191.6173000028066
 21
-813.99999999827719
 31
0.0
  0
ARC
  5
1C6
100
AcDbEntity
  8
OBJECT
 62
               0
100
AcDbCircle
 10
-1245.6173000028066
 20
-813.99999999827719
 30
0.0
 40
6.0
100
AcDbArc
 50
180.0
 51
270.0
  0
ARC
  5
1C7
100
AcDbEntity
  8
OBJECT
 62
               0
100
AcDbCircle
 10
-1197.6173000028066
 20
-813.99999999827719
 30
0.0
 40
6.0
100
AcDbArc
 50
270.0
 51
0.0
  0
LINE
  5
1C8
100
AcDbEntity
  8
OBJECT
 62
               0
100
AcDbLine
 10
-1245.6173000028066
 20
-819.99999999827719
 30
0.0
 11
-1197.6173000028066
 21
-819.99999999827719
 31
0.0
  0
ENDBLK
  5
1C9
100
AcDbEntity
  8
OBJECT
100
AcDbBlockEnd
  0
BLOCK
  5
1CA
100
AcDbEntity
  8
OBJECT
100
AcDbBlockBegin
  2
*U28
 70
               1
 10
0.0
 20
0.0
 30
0.0
  3
*U28
  1

  0
LINE
  5
1CB
100
AcDbEntity
  8
OBJECT
 62
               0
100
AcDbLine
 10
-1251.6173000028066
 20
-828.99999999827719
 30
0.0
 11
-1191.6173000028066
 21
-828.99999999827719
 31
0.0
  0
ARC
  5
1CC
100
AcDbEntity
  8
OBJECT
 62
               0
100
AcDbCircle
 10
-1245.6173000028066
 20
-828.99999999827719
 30
0.0
 40
6.0
100
AcDbArc
 50
180.0
 51
270.0
  0
ARC
  5
1CD
100
AcDbEntity
  8
OBJECT
 62
               0
100
AcDbCircle
 10
-1197.6173000028066
 20
-828.99999999827719
 30
0.0
 40
6.0
100
AcDbArc
 50
270.0
 51
0.0
  0
LINE
  5
1CE
100
AcDbEntity
  8
OBJECT
 62
               0
100
AcDbLine
 10
-1245.6173000028066
 20
-834.99999999827719
 30
0.0
 11
-1197.6173000028066
 21
-834.99999999827719
 31
0.0
  0
ENDBLK
  5
1CF
100
AcDbEntity
  8
OBJECT
100
AcDbBlockEnd
  0
BLOCK
  5
1D0
100
AcDbEntity
  8
OBJECT
100
AcDbBlockBegin
  2
*U29
 70
               1
 10
0.0
 20
0.0
 30
0.0
  3
*U29
  1

  0
LINE
  5
1D1
100
AcDbEntity
  8
OBJECT
 62
               0
100
AcDbLine
 10
-831.61730000280659
 20
-783.99999999827719
 30
0.0
 11
-891.61730000280659
 21
-783.99999999827719
 31
0.0
  0
ARC
  5
1D2
100
AcDbEntity
  8
OBJECT
 62
               0
100
AcDbCircle
 10
-837.61730000280659
 20
-783.99999999827719
 30
0.0
 40
6.0
100
AcDbArc
 50
270.0
 51
0.0
  0
ARC
  5
1D3
100
AcDbEntity
  8
OBJECT
 62
               0
100
AcDbCircle
 10
-885.61730000280659
 20
-783.99999999827719
 30
0.0
 40
6.0
100
AcDbArc
 50
180.0
 51
270.0
  0
LINE
  5
1D4
100
AcDbEntity
  8
OBJECT
 62
               0
100
AcDbLine
 10
-837.61730000280659
 20
-789.99999999827719
 30
0.0
 11
-885.61730000280659
 21
-789.99999999827719
 31
0.0
  0
ENDBLK
  5
1D5
100
AcDbEntity
  8
OBJECT
100
AcDbBlockEnd
  0
BLOCK
  5
1D6
100
AcDbEntity
  8
OBJECT
100
AcDbBlockBegin
  2
*U30
 70
               1
 10
0.0
 20
0.0
 30
0.0
  3
*U30
  1

  0
LINE
  5
1D7
100
AcDbEntity
  8
OBJECT
 62
               0
100
AcDbLine
 10
-831.61730000280659
 20
-798.99999999827719
 30
0.0
 11
-891.61730000280659
 21
-798.99999999827719
 31
0.0
  0
ARC
  5
1D8
100
AcDbEntity
  8
OBJECT
 62
               0
100
AcDbCircle
 10
-837.61730000280659
 20
-798.99999999827719
 30
0.0
 40
6.0
100
AcDbArc
 50
270.0
 51
0.0
  0
ARC
  5
1D9
100
AcDbEntity
  8
OBJECT
 62
               0
100
AcDbCircle
 10
-885.61730000280659
 20
-798.99999999827719
 30
0.0
 40
6.0
100
AcDbArc
 50
180.0
 51
270.0
  0
LINE
  5
1DA
100
AcDbEntity
  8
OBJECT
 62
               0
100
AcDbLine
 10
-837.61730000280659
 20
-804.99999999827719
 30
0.0
 11
-885.61730000280659
 21
-804.99999999827719
 31
0.0
  0
ENDBLK
  5
1DB
100
AcDbEntity
  8
OBJECT
100
AcDbBlockEnd
  0
BLOCK
  5
1DC
100
AcDbEntity
  8
OBJECT
100
AcDbBlockBegin
  2
*U31
 70
               1
 10
0.0
 20
0.0
 30
0.0
  3
*U31
  1

  0
LINE
  5
1DD
100
AcDbEntity
  8
OBJECT
 62
               0
100
AcDbLine
 10
-831.61730000280659
 20
-813.99999999827719
 30
0.0
 11
-891.61730000280659
 21
-813.99999999827719
 31
0.0
  0
ARC
  5
1DE
100
AcDbEntity
  8
OBJECT
 62
               0
100
AcDbCircle
 10
-837.61730000280659
 20
-813.99999999827719
 30
0.0
 40
6.0
100
AcDbArc
 50
270.0
 51
0.0
  0
ARC
  5
1DF
100
AcDbEntity
  8
OBJECT
 62
               0
100
AcDbCircle
 10
-885.61730000280659
 20
-813.99999999827719
 30
0.0
 40
6.0
100
AcDbArc
 50
180.0
 51
270.0
  0
LINE
  5
1E0
100
AcDbEntity
  8
OBJECT
 62
               0
100
AcDbLine
 10
-837.61730000280659
 20
-819.99999999827719
 30
0.0
 11
-885.61730000280659
 21
-819.99999999827719
 31
0.0
  0
ENDBLK
  5
1E1
100
AcDbEntity
  8
OBJECT
100
AcDbBlockEnd
  0
BLOCK
  5
1E2
100
AcDbEntity
  8
OBJECT
100
AcDbBlockBegin
  2
*U32
 70
               1
 10
0.0
 20
0.0
 30
0.0
  3
*U32
  1

  0
LINE
  5
1E3
100
AcDbEntity
  8
OBJECT
 62
               0
100
AcDbLine
 10
-831.61730000280659
 20
-828.99999999827719
 30
0.0
 11
-891.61730000280659
 21
-828.99999999827719
 31
0.0
  0
ARC
  5
1E4
100
AcDbEntity
  8
OBJECT
 62
               0
100
AcDbCircle
 10
-837.61730000280659
 20
-828.99999999827719
 30
0.0
 40
6.0
100
AcDbArc
 50
270.0
 51
0.0
  0
ARC
  5
1E5
100
AcDbEntity
  8
OBJECT
 62
               0
100
AcDbCircle
 10
-885.61730000280659
 20
-828.99999999827719
 30
0.0
 40
6.0
100
AcDbArc
 50
180.0
 51
270.0
  0
LINE
  5
1E6
100
AcDbEntity
  8
OBJECT
 62
               0
100
AcDbLine
 10
-837.61730000280659
 20
-834.99999999827719
 30
0.0
 11
-885.61730000280659
 21
-834.99999999827719
 31
0.0
  0
ENDBLK
  5
1E7
100
AcDbEntity
  8
OBJECT
100
AcDbBlockEnd
  0
BLOCK
  5
1E8
100
AcDbEntity
  8
OBJECT
100
AcDbBlockBegin
  2
*U33
 70
               1
 10
0.0
 20
0.0
 30
0.0
  3
*U33
  1

  0
LINE
  5
1E9
100
AcDbEntity
  8
OBJECT
 62
               0
100
AcDbLine
 10
-911.61730000280659
 20
-783.99999999827719
 30
0.0
 11
-971.61730000280659
 21
-783.99999999827719
 31
0.0
  0
ARC
  5
1EA
100
AcDbEntity
  8
OBJECT
 62
               0
100
AcDbCircle
 10
-917.61730000280659
 20
-783.99999999827719
 30
0.0
 40
6.0
100
AcDbArc
 50
270.0
 51
0.0
  0
ARC
  5
1EB
100
AcDbEntity
  8
OBJECT
 62
               0
100
AcDbCircle
 10
-965.61730000280659
 20
-783.99999999827719
 30
0.0
 40
6.0
100
AcDbArc
 50
180.0
 51
270.0
  0
LINE
  5
1EC
100
AcDbEntity
  8
OBJECT
 62
               0
100
AcDbLine
 10
-917.61730000280659
 20
-789.99999999827719
 30
0.0
 11
-965.61730000280659
 21
-789.99999999827719
 31
0.0
  0
ENDBLK
  5
1ED
100
AcDbEntity
  8
OBJECT
100
AcDbBlockEnd
  0
BLOCK
  5
1EE
100
AcDbEntity
  8
OBJECT
100
AcDbBlockBegin
  2
*U34
 70
               1
 10
0.0
 20
0.0
 30
0.0
  3
*U34
  1

  0
LINE
  5
1EF
100
AcDbEntity
  8
OBJECT
 62
               0
100
AcDbLine
 10
-911.61730000280659
 20
-798.99999999827719
 30
0.0
 11
-971.61730000280659
 21
-798.99999999827719
 31
0.0
  0
ARC
  5
1F0
100
AcDbEntity
  8
OBJECT
 62
               0
100
AcDbCircle
 10
-917.61730000280659
 20
-798.99999999827719
 30
0.0
 40
6.0
100
AcDbArc
 50
270.0
 51
0.0
  0
ARC
  5
1F1
100
AcDbEntity
  8
OBJECT
 62
               0
100
AcDbCircle
 10
-965.61730000280659
 20
-798.99999999827719
 30
0.0
 40
6.0
100
AcDbArc
 50
180.0
 51
270.0
  0
LINE
  5
1F2
100
AcDbEntity
  8
OBJECT
 62
               0
100
AcDbLine
 10
-917.61730000280659
 20
-804.99999999827719
 30
0.0
 11
-965.61730000280659
 21
-804.99999999827719
 31
0.0
  0
ENDBLK
  5
1F3
100
AcDbEntity
  8
OBJECT
100
AcDbBlockEnd
  0
BLOCK
  5
1F4
100
AcDbEntity
  8
OBJECT
100
AcDbBlockBegin
  2
*U35
 70
               1
 10
0.0
 20
0.0
 30
0.0
  3
*U35
  1

  0
LINE
  5
1F5
100
AcDbEntity
  8
OBJECT
 62
               0
100
AcDbLine
 10
-911.61730000280659
 20
-813.99999999827719
 30
0.0
 11
-971.61730000280659
 21
-813.99999999827719
 31
0.0
  0
ARC
  5
1F6
100
AcDbEntity
  8
OBJECT
 62
               0
100
AcDbCircle
 10
-917.61730000280659
 20
-813.99999999827719
 30
0.0
 40
6.0
100
AcDbArc
 50
270.0
 51
0.0
  0
ARC
  5
1F7
100
AcDbEntity
  8
OBJECT
 62
               0
100
AcDbCircle
 10
-965.61730000280659
 20
-813.99999999827719
 30
0.0
 40
6.0
100
AcDbArc
 50
180.0
 51
270.0
  0
LINE
  5
1F8
100
AcDbEntity
  8
OBJECT
 62
               0
100
AcDbLine
 10
-917.61730000280659
 20
-819.99999999827719
 30
0.0
 11
-965.61730000280659
 21
-819.99999999827719
 31
0.0
  0
ENDBLK
  5
1F9
100
AcDbEntity
  8
OBJECT
100
AcDbBlockEnd
  0
BLOCK
  5
1FA
100
AcDbEntity
  8
OBJECT
100
AcDbBlockBegin
  2
*U36
 70
               1
 10
0.0
 20
0.0
 30
0.0
  3
*U36
  1

  0
LINE
  5
1FB
100
AcDbEntity
  8
OBJECT
 62
               0
100
AcDbLine
 10
-911.61730000280659
 20
-828.99999999827719
 30
0.0
 11
-971.61730000280659
 21
-828.99999999827719
 31
0.0
  0
ARC
  5
1FC
100
AcDbEntity
  8
OBJECT
 62
               0
100
AcDbCircle
 10
-917.61730000280659
 20
-828.99999999827719
 30
0.0
 40
6.0
100
AcDbArc
 50
270.0
 51
0.0
  0
ARC
  5
1FD
100
AcDbEntity
  8
OBJECT
 62
               0
100
AcDbCircle
 10
-965.61730000280659
 20
-828.99999999827719
 30
0.0
 40
6.0
100
AcDbArc
 50
180.0
 51
270.0
  0
LINE
  5
1FE
100
AcDbEntity
  8
OBJECT
 62
               0
100
AcDbLine
 10
-917.61730000280659
 20
-834.99999999827719
 30
0.0
 11
-965.61730000280659
 21
-834.99999999827719
 31
0.0
  0
ENDBLK
  5
1FF
100
AcDbEntity
  8
OBJECT
100
AcDbBlockEnd
  0
BLOCK
  5
200
100
AcDbEntity
  8
DIMENTION
100
AcDbBlockBegin
  2
*D37
 70
               1
 10
0.0
 20
0.0
 30
0.0
  3
*D37
  1

  0
LINE
  5
201
100
AcDbEntity
  8
DIMENTION
 62
               0
100
AcDbLine
 10
-117.5
 20
-943.79001811338389
 30
0.0
 11
-117.5
 21
-858.62335148769546
 31
0.0
  0
LINE
  5
202
100
AcDbEntity
  8
DIMENTION
 62
               0
100
AcDbLine
 10
482.5
 20
-942.5000000372529
 30
0.0
 11
482.5
 21
-858.62335148769546
 31
0.0
  0
LINE
  5
203
100
AcDbEntity
  8
DIMENTION
 62
               0
100
AcDbLine
 10
-117.5
 20
-878.62335141318965
 30
0.0
 11
482.5
 21
-878.62335141318965
 31
0.0
  0
LINE
  5
204
100
AcDbEntity
  8
DIMENTION
 62
               0
100
AcDbLine
 10
-117.5
 20
-878.62335141318965
 30
0.0
 11
-85.75
 21
-870.1159645535015
 31
0.0
  0
LINE
  5
205
100
AcDbEntity
  8
DIMENTION
 62
               0
100
AcDbLine
 10
-117.5
 20
-878.62335141318965
 30
0.0
 11
-85.75
 21
-887.13073827287781
 31
0.0
  0
LINE
  5
206
100
AcDbEntity
  8
DIMENTION
 62
               0
100
AcDbLine
 10
482.5
 20
-878.62335141318965
 30
0.0
 11
450.75
 21
-887.13073827287781
 31
0.0
  0
LINE
  5
207
100
AcDbEntity
  8
DIMENTION
 62
               0
100
AcDbLine
 10
482.5
 20
-878.62335141318965
 30
0.0
 11
450.75
 21
-870.1159645535015
 31
0.0
  0
MTEXT
  5
208
100
AcDbEntity
  8
DIMENTION
 62
               0
100
AcDbMText
 10
150.75
 20
-835.29001808358157
 30
0.0
 40
33.866666666666667
 41
0.0
 71
               1
 72
               1
  1
600
  7
________
  0
POINT
  5
209
100
AcDbEntity
  8
DEFPOINTS
 62
               0
100
AcDbPoint
 10
482.5
 20
-952.5
 30
0.0
  0
POINT
  5
20A
100
AcDbEntity
  8
DEFPOINTS
 62
               0
100
AcDbPoint
 10
-117.5
 20
-953.79001807613099
 30
0.0
  0
POINT
  5
20B
100
AcDbEntity
  8
DEFPOINTS
 62
               0
100
AcDbPoint
 10
-117.5
 20
-878.62335141318965
 30
0.0
  0
ENDBLK
  5
20C
100
AcDbEntity
  8
DIMENTION
100
AcDbBlockEnd
  0
BLOCK
  5
20D
100
AcDbEntity
  8
DIMENTION
100
AcDbBlockBegin
  2
*D38
 70
               1
 10
0.0
 20
0.0
 30
0.0
  3
*D38
  1

  0
LINE
  5
20E
100
AcDbEntity
  8
DIMENTION
 62
               0
100
AcDbLine
 10
-37.5
 20
21.499999966121777
 30
0.0
 11
-37.5
 21
115.2099818493632
 31
0.0
  0
LINE
  5
20F
100
AcDbEntity
  8
DIMENTION
 62
               0
100
AcDbLine
 10
182.5
 20
21.499999966121777
 30
0.0
 11
182.5
 21
115.2099818493632
 31
0.0
  0
LINE
  5
210
100
AcDbEntity
  8
DIMENTION
 62
               0
100
AcDbLine
 10
-37.5
 20
95.209981923869009
 30
0.0
 11
182.5
 21
95.209981923869009
 31
0.0
  0
LINE
  5
211
100
AcDbEntity
  8
DIMENTION
 62
               0
100
AcDbLine
 10
-37.5
 20
95.209981923869009
 30
0.0
 11
-5.75
 21
103.71736878355716
 31
0.0
  0
LINE
  5
212
100
AcDbEntity
  8
DIMENTION
 62
               0
100
AcDbLine
 10
-37.5
 20
95.209981923869009
 30
0.0
 11
-5.75
 21
86.702595064180855
 31
0.0
  0
LINE
  5
213
100
AcDbEntity
  8
DIMENTION
 62
               0
100
AcDbLine
 10
182.5
 20
95.209981923869009
 30
0.0
 11
150.75
 21
86.702595064180855
 31
0.0
  0
LINE
  5
214
100
AcDbEntity
  8
DIMENTION
 62
               0
100
AcDbLine
 10
182.5
 20
95.209981923869009
 30
0.0
 11
150.75
 21
103.71736878355716
 31
0.0
  0
MTEXT
  5
215
100
AcDbEntity
  8
DIMENTION
 62
               0
100
AcDbMText
 10
40.75
 20
138.54331525347709
 30
0.0
 40
33.866666666666667
 41
0.0
 71
               1
 72
               1
  1
220
  7
________
  0
POINT
  5
216
100
AcDbEntity
  8
DEFPOINTS
 62
               0
100
AcDbPoint
 10
182.5
 20
11.50000000337468
 30
0.0
  0
POINT
  5
217
100
AcDbEntity
  8
DEFPOINTS
 62
               0
100
AcDbPoint
 10
-37.5
 20
11.50000000337468
 30
0.0
  0
POINT
  5
218
100
AcDbEntity
  8
DEFPOINTS
 62
               0
100
AcDbPoint
 10
-37.5
 20
95.209981923869009
 30
0.0
  0
ENDBLK
  5
219
100
AcDbEntity
  8
DIMENTION
100
AcDbBlockEnd
  0
BLOCK
  5
21A
100
AcDbEntity
  8
DIMENTION
100
AcDbBlockBegin
  2
*D39
 70
               1
 10
0.0
 20
0.0
 30
0.0
  3
*D39
  1

  0
LINE
  5
21B
100
AcDbEntity
  8
DIMENTION
 62
               0
100
AcDbLine
 10
-124.4999999627471
 20
-288.49999999662532
 30
0.0
 11
-222.49999992549419
 21
-288.49999999662532
 31
0.0
  0
LINE
  5
21C
100
AcDbEntity
  8
DIMENTION
 62
               0
100
AcDbLine
 10
-77.499999962747097
 20
-18.49999999662532
 30
0.0
 11
-222.49999992549419
 21
-18.49999999662532
 31
0.0
  0
LINE
  5
21D
100
AcDbEntity
  8
DIMENTION
 62
               0
100
AcDbLine
 10
-202.5
 20
-288.49999999662532
 30
0.0
 11
-202.5
 21
-18.49999999662532
 31
0.0
  0
LINE
  5
21E
100
AcDbEntity
  8
DIMENTION
 62
               0
100
AcDbLine
 10
-202.5
 20
-288.49999999662532
 30
0.0
 11
-211.00738685968804
 21
-256.74999999662532
 31
0.0
  0
LINE
  5
21F
100
AcDbEntity
  8
DIMENTION
 62
               0
100
AcDbLine
 10
-202.5
 20
-288.49999999662532
 30
0.0
 11
-193.99261314031196
 21
-256.74999999662532
 31
0.0
  0
LINE
  5
220
100
AcDbEntity
  8
DIMENTION
 62
               0
100
AcDbLine
 10
-202.5
 20
-18.49999999662532
 30
0.0
 11
-193.99261314031196
 21
-50.24999999662532
 31
0.0
  0
LINE
  5
221
100
AcDbEntity
  8
DIMENTION
 62
               0
100
AcDbLine
 10
-202.5
 20
-18.49999999662532
 30
0.0
 11
-211.00738685968804
 21
-50.24999999662532
 31
0.0
  0
MTEXT
  5
222
100
AcDbEntity
  8
DIMENTION
 62
               0
100
AcDbMText
 10
-245.83333332960819
 20
-185.24999999662532
 30
0.0
 40
33.866666666666667
 41
0.0
 71
               1
 72
               1
  1
270
  7
________
 11
0.0
 21
1.0
 31
0.0
  0
POINT
  5
223
100
AcDbEntity
  8
DEFPOINTS
 62
               0
100
AcDbPoint
 10
-67.5
 20
-18.49999999662532
 30
0.0
  0
POINT
  5
224
100
AcDbEntity
  8
DEFPOINTS
 62
               0
100
AcDbPoint
 10
-114.5
 20
-288.49999999662532
 30
0.0
  0
POINT
  5
225
100
AcDbEntity
  8
DEFPOINTS
 62
               0
100
AcDbPoint
 10
-202.5
 20
-288.49999999662532
 30
0.0
  0
ENDBLK
  5
226
100
AcDbEntity
  8
DIMENTION
100
AcDbBlockEnd
  0
BLOCK
  5
227
100
AcDbEntity
  8
OBJECT
100
AcDbBlockBegin
  2
*U40
 70
               1
 10
0.0
 20
0.0
 30
0.0
  3
*U40
  1

  0
POLYLINE
  5
228
100
AcDbEntity
  8
OBJECT
  6
STYLE_07
 62
               0
100
AcDb2dPolyline
 66
               1
 10
0.0
 20
0.0
 30
0.0
 70
               1
 75
               5
  0
VERTEX
  5
229
100
AcDbEntity
  8
OBJECT
  6
STYLE_07
 62
               0
100
AcDbVertex
100
AcDb2dVertex
 10
46.882699997194322
 20
-551.77777777605502
 30
0.0
  0
VERTEX
  5
22A
100
AcDbEntity
  8
OBJECT
  6
STYLE_07
 62
               0
100
AcDbVertex
100
AcDb2dVertex
 10
546.88269999719421
 20
-551.77777777605502
 30
0.0
  0
VERTEX
  5
22B
100
AcDbEntity
  8
OBJECT
  6
STYLE_07
 62
               0
100
AcDbVertex
100
AcDb2dVertex
 10
546.88269999719421
 20
-648.99999999827719
 30
0.0
  0
VERTEX
  5
22C
100
AcDbEntity
  8
OBJECT
  6
STYLE_07
 62
               0
100
AcDbVertex
100
AcDb2dVertex
 10
46.882699997194322
 20
-648.99999999827719
 30
0.0
  0
SEQEND
  5
22D
100
AcDbEntity
  8
OBJECT
  6
STYLE_07
 62
               0
  0
POLYLINE
  5
22E
100
AcDbEntity
  8
OBJECT
  6
STYLE_07
 62
               0
100
AcDb2dPolyline
 66
               1
 10
0.0
 20
0.0
 30
0.0
 70
               1
 75
               5
  0
VERTEX
  5
22F
100
AcDbEntity
  8
OBJECT
  6
STYLE_07
 62
               0
100
AcDbVertex
100
AcDb2dVertex
 10
66.882699997194322
 20
-298.99999999827719
 30
0.0
  0
VERTEX
  5
230
100
AcDbEntity
  8
OBJECT
  6
STYLE_07
 62
               0
100
AcDbVertex
100
AcDb2dVertex
 10
526.88269999719421
 20
-298.99999999827719
 30
0.0
  0
VERTEX
  5
231
100
AcDbEntity
  8
OBJECT
  6
STYLE_07
 62
               0
100
AcDbVertex
100
AcDb2dVertex
 10
526.88269999719421
 20
-629.55555555383273
 30
0.0
  0
VERTEX
  5
232
100
AcDbEntity
  8
OBJECT
  6
STYLE_07
 62
               0
100
AcDbVertex
100
AcDb2dVertex
 10
66.882699997194322
 20
-629.55555555383273
 30
0.0
  0
SEQEND
  5
233
100
AcDbEntity
  8
OBJECT
  6
STYLE_07
 62
               0
  0
ENDBLK
  5
234
100
AcDbEntity
  8
OBJECT
100
AcDbBlockEnd
  0
BLOCK
  5
235
100
AcDbEntity
  8
OBJECT
100
AcDbBlockBegin
  2
*U41
 70
               1
 10
0.0
 20
0.0
 30
0.0
  3
*U41
  1

  0
LINE
  5
236
100
AcDbEntity
  8
OBJECT
 62
               0
100
AcDbLine
 10
904.8826999971933
 20
-972.99999999827719
 30
0.0
 11
904.8826999971933
 21
-970.99999999827719
 31
0.0
  0
LINE
  5
237
100
AcDbEntity
  8
OBJECT
 62
               0
100
AcDbLine
 10
904.8826999971933
 20
-972.99999999827719
 30
0.0
 11
974.8826999971933
 21
-972.99999999827719
 31
0.0
  0
LINE
  5
238
100
AcDbEntity
  8
OBJECT
 62
               0
100
AcDbLine
 10
974.8826999971933
 20
-970.99999999827719
 30
0.0
 11
974.8826999971933
 21
-972.99999999827719
 31
0.0
  0
LINE
  5
239
100
AcDbEntity
  8
OBJECT
 62
               0
100
AcDbLine
 10
904.8826999971933
 20
-970.99999999827719
 30
0.0
 11
974.8826999971933
 21
-970.99999999827719
 31
0.0
  0
LINE
  5
23A
100
AcDbEntity
  8
OBJECT
 62
               0
100
AcDbLine
 10
919.8826999971933
 20
-1010.9999999982772
 30
0.0
 11
959.8826999971933
 21
-1010.9999999982772
 31
0.0
  0
LINE
  5
23B
100
AcDbEntity
  8
OBJECT
 62
               0
100
AcDbLine
 10
909.8826999971933
 20
-972.99999999827719
 30
0.0
 11
919.8826999971933
 21
-1010.9999999982772
 31
0.0
  0
LINE
  5
23C
100
AcDbEntity
  8
OBJECT
 62
               0
100
AcDbLine
 10
959.8826999971933
 20
-1010.9999999982772
 30
0.0
 11
969.8826999971933
 21
-972.99999999827719
 31
0.0
  0
LINE
  5
23D
100
AcDbEntity
  8
OBJECT
 62
               0
100
AcDbLine
 10
927.3826999971933
 20
-1028.9999999982772
 30
0.0
 11
952.3826999971933
 21
-1028.9999999982772
 31
0.0
  0
LINE
  5
23E
100
AcDbEntity
  8
OBJECT
 62
               0
100
AcDbLine
 10
922.3826999971933
 20
-1023.9999999982772
 30
0.0
 11
922.3826999971933
 21
-1010.9999999982772
 31
0.0
  0
LINE
  5
23F
100
AcDbEntity
  8
OBJECT
 62
               0
100
AcDbLine
 10
957.3826999971933
 20
-1023.9999999982772
 30
0.0
 11
957.3826999971933
 21
-1010.9999999982772
 31
0.0
  0
LINE
  5
240
100
AcDbEntity
  8
CENTER
 62
               0
100
AcDbLine
 10
939.8826999971933
 20
-1036.9999999982772
 30
0.0
 11
939.8826999971933
 21
-968.99999999827719
 31
0.0
  0
ARC
  5
241
100
AcDbEntity
  8
OBJECT
 62
               0
100
AcDbCircle
 10
927.3826999971933
 20
-1023.9999999982772
 30
0.0
 40
5.0
100
AcDbArc
 50
180.0
 51
270.0
  0
ARC
  5
242
100
AcDbEntity
  8
OBJECT
 62
               0
100
AcDbCircle
 10
952.3826999971933
 20
-1023.9999999982772
 30
0.0
 40
5.0
100
AcDbArc
 50
270.0
 51
0.0
  0
ENDBLK
  5
243
100
AcDbEntity
  8
OBJECT
100
AcDbBlockEnd
  0
BLOCK
  5
244
100
AcDbEntity
  8
CENTER
100
AcDbBlockBegin
  2
*U42
 70
               1
 10
0.0
 20
0.0
 30
0.0
  3
*U42
  1

  0
LINE
  5
245
100
AcDbEntity
  8
CENTER
 62
               0
100
AcDbLine
 10
425.1326999971933
 20
-652.24999999827719
 30
0.0
 11
435.1326999971933
 21
-652.24999999827719
 31
0.0
  0
LINE
  5
246
100
AcDbEntity
  8
CENTER
 62
               0
100
AcDbLine
 10
430.1326999971933
 20
-657.24999999827719
 30
0.0
 11
430.1326999971933
 21
-647.24999999827719
 31
0.0
  0
ENDBLK
  5
247
100
AcDbEntity
  8
CENTER
100
AcDbBlockEnd
  0
BLOCK
  5
248
100
AcDbEntity
  8
OBJECT
100
AcDbBlockBegin
  2
*U43
 70
               1
 10
0.0
 20
0.0
 30
0.0
  3
*U43
  1

  0
CIRCLE
  5
249
100
AcDbEntity
  8
OBJECT
 62
               0
100
AcDbCircle
 10
430.1326999971933
 20
-652.24999999827719
 30
0.0
 40
1.5000000000004998
  0
CIRCLE
  5
24A
100
AcDbEntity
  8
OBJECT
 62
               0
100
AcDbCircle
 10
430.1326999971933
 20
-652.24999999827719
 30
0.0
 40
3.2500000000003983
  0
CIRCLE
  5
24B
100
AcDbEntity
  8
OBJECT
 62
               0
100
AcDbCircle
 10
430.1326999971933
 20
-652.24999999827719
 30
0.0
 40
1.7500000000004976
  0
INSERT
  5
24C
100
AcDbEntity
  8
CENTER
 62
               0
100
AcDbBlockReference
  2
*U42
 10
0.0
 20
0.0
 30
0.0
  0
ENDBLK
  5
24D
100
AcDbEntity
  8
OBJECT
100
AcDbBlockEnd
  0
BLOCK
  5
24E
100
AcDbEntity
  8
OBJECT
100
AcDbBlockBegin
  2
*U44
 70
               1
 10
0.0
 20
0.0
 30
0.0
  3
*U44
  1

  0
ARC
  5
24F
100
AcDbEntity
  8
OBJECT
 62
               0
100
AcDbCircle
 10
399.3826999971933
 20
-288.99999999827719
 30
0.0
 40
8.0
100
AcDbArc
 50
90.0
 51
270.0
  0
LINE
  5
250
100
AcDbEntity
  8
OBJECT
 62
               0
100
AcDbLine
 10
399.3826999971933
 20
-298.51369602312798
 30
0.0
 11
399.3826999971933
 21
-279.4863039734264
 31
0.0
  0
LINE
  5
251
100
AcDbEntity
  8
OBJECT
 62
               0
100
AcDbLine
 10
399.86881646357313
 20
-278.98649676309992
 30
0.0
 11
433.3826999971933
 21
-278.05555555383262
 31
0.0
  0
LINE
  5
252
100
AcDbEntity
  8
OBJECT
 62
               0
100
AcDbLine
 10
399.86881646357313
 20
-299.01350323345446
 30
0.0
 11
433.3826999971933
 21
-299.94444444272153
 31
0.0
  0
ARC
  5
253
100
AcDbEntity
  8
OBJECT
 62
               0
100
AcDbCircle
 10
399.3826999971933
 20
-288.99999999827719
 30
0.0
 40
10.000000000000167
100
AcDbArc
 50
273.95693354896798
 51
85.123975130384991
  0
ARC
  5
254
100
AcDbEntity
  8
OBJECT
 62
               0
100
AcDbCircle
 10
399.8826999971933
 20
-279.4863039734264
 30
0.0
 40
0.500000000000121
100
AcDbArc
 50
91.591140271193879
 51
180.0
  0
ARC
  5
255
100
AcDbEntity
  8
OBJECT
 62
               0
100
AcDbCircle
 10
399.8826999971933
 20
-298.51369602312798
 30
0.0
 40
0.5
100
AcDbArc
 50
180.0
 51
268.40885972880614
  0
ENDBLK
  5
256
100
AcDbEntity
  8
OBJECT
100
AcDbBlockEnd
  0
BLOCK
  5
257
100
AcDbEntity
  8
OBJECT
100
AcDbBlockBegin
  2
*U45
 70
               1
 10
0.0
 20
0.0
 30
0.0
  3
*U45
  1

  0
LINE
  5
258
100
AcDbEntity
  8
OBJECT
 62
               0
100
AcDbLine
 10
461.3826999971933
 20
-248.99999999827719
 30
0.0
 11
436.3826999971933
 21
-248.99999999827719
 31
0.0
  0
LINE
  5
259
100
AcDbEntity
  8
OBJECT
 62
               0
100
AcDbLine
 10
461.3826999971933
 20
-250.99999999827719
 30
0.0
 11
436.3826999971933
 21
-250.99999999827719
 31
0.0
  0
LINE
  5
25A
100
AcDbEntity
  8
OBJECT
 62
               0
100
AcDbLine
 10
435.3826999971933
 20
-671.99999999827719
 30
0.0
 11
441.3826999971933
 21
-671.99999999827719
 31
0.0
  0
LINE
  5
25B
100
AcDbEntity
  8
OBJECT
 62
               0
100
AcDbLine
 10
433.3826999971933
 20
-672.99999999827719
 30
0.0
 11
428.67601883927989
 21
-681.82502716936506
 31
0.0
  0
ARC
  5
25C
100
AcDbEntity
  8
OBJECT
 62
               0
100
AcDbCircle
 10
433.3826999971933
 20
-672.99999999827719
 30
0.0
 40
2.0000000000002141
100
AcDbArc
 50
331.92751306414857
 51
0.0
  0
LINE
  5
25D
100
AcDbEntity
  8
OBJECT
 62
               0
100
AcDbLine
 10
461.3826999971933
 20
-248.99999999827719
 30
0.0
 11
461.3826999971933
 21
-651.99999999827719
 31
0.0
  0
LINE
  5
25E
100
AcDbEntity
  8
OBJECT
 62
               0
100
AcDbLine
 10
454.18269999719348
 20
-269.79999999827714
 30
0.0
 11
436.58269999719403
 21
-269.79999999827714
 31
0.0
  0
LINE
  5
25F
100
AcDbEntity
  8
OBJECT
 62
               0
100
AcDbLine
 10
454.18269999719348
 20
-270.99999999827719
 30
0.0
 11
435.3826999971933
 21
-270.99999999827719
 31
0.0
  0
LINE
  5
260
100
AcDbEntity
  8
OBJECT
 62
               0
100
AcDbLine
 10
436.58269999719403
 20
-269.79999999827714
 30
0.0
 11
436.58269999719403
 21
-253.99999999827719
 31
0.0
  0
LINE
  5
261
100
AcDbEntity
  8
OBJECT
 62
               0
100
AcDbLine
 10
436.58269999719403
 20
-253.99999999827719
 30
0.0
 11
435.3826999971933
 21
-253.99999999827719
 31
0.0
  0
LINE
  5
262
100
AcDbEntity
  8
OBJECT
 62
               0
100
AcDbLine
 10
455.3826999971933
 20
-269.79999999827714
 30
0.0
 11
455.3826999971933
 21
-659.99999999827719
 31
0.0
  0
ARC
  5
263
100
AcDbEntity
  8
OBJECT
 62
               0
100
AcDbCircle
 10
441.3826999971933
 20
-651.99999999827719
 30
0.0
 40
20.0
100
AcDbArc
 50
270.0
 51
0.0
  0
LINE
  5
264
100
AcDbEntity
  8
OBJECT
 62
               0
100
AcDbLine
 10
431.8826999971933
 20
-652.49999999827719
 30
0.0
 11
431.8826999971933
 21
-668.49999999827719
 31
0.0
  0
LINE
  5
265
100
AcDbEntity
  8
OBJECT
 62
               0
100
AcDbLine
 10
431.8826999971933
 20
-668.49999999827719
 30
0.0
 11
433.3826999971933
 21
-668.49999999827719
 31
0.0
  0
ARC
  5
266
100
AcDbEntity
  8
OBJECT
 62
               0
100
AcDbCircle
 10
443.3826999971933
 20
-659.99999999827719
 30
0.0
 40
12.0
100
AcDbArc
 50
270.0
 51
0.0
  0
LINE
  5
267
100
AcDbEntity
  8
OBJECT
 62
               0
100
AcDbLine
 10
428.67601883927989
 20
-681.82502716936506
 30
0.0
 11
430.44072472163305
 21
-682.76620363995312
 31
0.0
  0
LINE
  5
268
100
AcDbEntity
  8
OBJECT
 62
               0
100
AcDbLine
 10
454.18269999719348
 20
-268.59999999827733
 30
0.0
 11
447.3826999971933
 21
-268.59999999827733
 31
0.0
  0
ARC
  5
269
100
AcDbEntity
  8
OBJECT
 62
               0
100
AcDbCircle
 10
454.18269999719348
 20
-269.79999999827714
 30
0.0
 40
1.2000000000000455
100
AcDbArc
 50
270.0
 51
90.0
  0
LINE
  5
26A
100
AcDbEntity
  8
OBJECT
 62
               0
100
AcDbLine
 10
447.3826999971933
 20
-269.79999999827714
 30
0.0
 11
447.3826999971933
 21
-268.59999999827733
 31
0.0
  0
ARC
  5
26B
100
AcDbEntity
  8
OBJECT
 62
               0
100
AcDbCircle
 10
436.3826999971933
 20
-251.99999999827719
 30
0.0
 40
1.0
100
AcDbArc
 50
90.0
 51
180.0
  0
ARC
  5
26C
100
AcDbEntity
  8
OBJECT
 62
               0
100
AcDbCircle
 10
436.3826999971933
 20
-251.99999999827719
 30
0.0
 40
3.0
100
AcDbArc
 50
90.0
 51
180.0
  0
LINE
  5
26D
100
AcDbEntity
  8
OBJECT
 62
               0
100
AcDbLine
 10
460.3826999971933
 20
-246.99999999827719
 30
0.0
 11
436.3826999971933
 21
-246.99999999827719
 31
0.0
  0
ARC
  5
26E
100
AcDbEntity
  8
OBJECT
 62
               0
100
AcDbCircle
 10
436.3826999971933
 20
-251.99999999827719
 30
0.0
 40
5.0
100
AcDbArc
 50
90.0
 51
180.0
  0
LINE
  5
26F
100
AcDbEntity
  8
OBJECT
 62
               0
100
AcDbLine
 10
431.3826999971933
 20
-251.99999999827719
 30
0.0
 11
431.3826999971933
 21
-278.11111110938828
 31
0.0
  0
LINE
  5
270
100
AcDbEntity
  8
OBJECT
 62
               0
100
AcDbLine
 10
431.3826999971933
 20
-300.2109509266495
 30
0.0
 11
431.3826999971933
 21
-323.99999999827719
 31
0.0
  0
INSERT
  5
271
100
AcDbEntity
  8
OBJECT
 62
               0
100
AcDbBlockReference
  2
*U44
 10
0.0
 20
0.0
 30
0.0
  0
LINE
  5
272
100
AcDbEntity
  8
OBJECT
 62
               0
100
AcDbLine
 10
433.3826999971933
 20
-323.99999999827719
 30
0.0
 11
431.3826999971933
 21
-323.99999999827719
 31
0.0
  0
LINE
  5
273
100
AcDbEntity
  8
OBJECT
 62
               0
100
AcDbLine
 10
460.3826999971933
 20
-248.99999999827719
 30
0.0
 11
460.3826999971933
 21
-246.99999999827719
 31
0.0
  0
LINE
  5
274
100
AcDbEntity
  8
OBJECT
 62
               0
100
AcDbLine
 10
435.14740587954645
 20
-673.94117646886548
 30
0.0
 11
430.44072472163305
 21
-682.76620363995312
 31
0.0
  0
POLYLINE
  5
275
100
AcDbEntity
  8
OBJECT
 62
               0
100
AcDb2dPolyline
 66
               1
 10
0.0
 20
0.0
 30
0.0
 75
               5
  0
VERTEX
  5
276
100
AcDbEntity
  8
OBJECT
 62
               0
100
AcDbVertex
100
AcDb2dVertex
 10
433.3826999971933
 20
-251.99999999827719
 30
0.0
  0
VERTEX
  5
277
100
AcDbEntity
  8
OBJECT
 62
               0
100
AcDbVertex
100
AcDb2dVertex
 10
433.3826999971933
 20
-312.59999999827733
 30
0.0
  0
VERTEX
  5
278
100
AcDbEntity
  8
OBJECT
 62
               0
100
AcDbVertex
100
AcDb2dVertex
 10
433.3826999971933
 20
-672.99999999827719
 30
0.0
  0
SEQEND
  5
279
100
AcDbEntity
  8
OBJECT
 62
               0
  0
POLYLINE
  5
27A
100
AcDbEntity
  8
OBJECT
 62
               0
100
AcDb2dPolyline
 66
               1
 10
0.0
 20
0.0
 30
0.0
 75
               5
  0
VERTEX
  5
27B
100
AcDbEntity
  8
OBJECT
 62
               0
100
AcDbVertex
100
AcDb2dVertex
 10
435.3826999971933
 20
-251.99999999827719
 30
0.0
  0
VERTEX
  5
27C
100
AcDbEntity
  8
OBJECT
 62
               0
100
AcDbVertex
100
AcDb2dVertex
 10
435.3826999971933
 20
-312.59999999827733
 30
0.0
  0
VERTEX
  5
27D
100
AcDbEntity
  8
OBJECT
 62
               0
100
AcDbVertex
100
AcDb2dVertex
 10
435.3826999971933
 20
-672.99999999827719
 30
0.0
  0
SEQEND
  5
27E
100
AcDbEntity
  8
OBJECT
 62
               0
  0
ENDBLK
  5
27F
100
AcDbEntity
  8
OBJECT
100
AcDbBlockEnd
  0
BLOCK
  5
280
100
AcDbEntity
  8
OBJECT
100
AcDbBlockBegin
  2
*U46
 70
               1
 10
0.0
 20
0.0
 30
0.0
  3
*U46
  1

  0
CIRCLE
  5
281
100
AcDbEntity
  8
OBJECT
 62
               0
100
AcDbCircle
 10
423.3826999971933
 20
-818.99999999827719
 30
0.0
 40
2.5
  0
CIRCLE
  5
282
100
AcDbEntity
  8
OBJECT
 62
               0
100
AcDbCircle
 10
423.3826999971933
 20
-518.99999999827719
 30
0.0
 40
2.5000000000003726
  0
CIRCLE
  5
283
100
AcDbEntity
  8
OBJECT
 62
               0
100
AcDbCircle
 10
423.3826999971933
 20
-518.99999999827719
 30
0.0
 40
7.5000000000004601
  0
ARC
  5
284
100
AcDbEntity
  8
OBJECT
 62
               0
100
AcDbCircle
 10
445.3826999971933
 20
-718.97732639714104
 30
0.0
 40
52.49999999999892
100
AcDbArc
 50
171.1554945670911
 51
196.81874116219112
  0
ARC
  5
285
100
AcDbEntity
  8
OBJECT
 62
               0
100
AcDbCircle
 10
445.3826999971933
 20
-718.97732639714104
 30
0.0
 40
47.499999999999403
100
AcDbArc
 50
171.88752578137382
 51
196.81874116219086
  0
LINE
  5
286
100
AcDbEntity
  8
OBJECT
 62
               0
100
AcDbLine
 10
420.98963773351886
 20
-819.72336228798827
 30
0.0
 11
395.12839246002648
 21
-734.16793448107705
 31
0.0
  0
LINE
  5
287
100
AcDbEntity
  8
OBJECT
 62
               0
100
AcDbLine
 10
425.77576226086865
 20
-818.27663770856566
 30
0.0
 11
399.91451698737535
 21
-732.72120990165445
 31
0.0
  0
CIRCLE
  5
288
100
AcDbEntity
  8
OBJECT
 62
               0
100
AcDbCircle
 10
423.3826999971933
 20
-818.99999999827719
 30
0.0
 40
2.50000000000025
  0
LINE
  5
289
100
AcDbEntity
  8
OBJECT
 62
               0
100
AcDbLine
 10
425.85768239162906
 20
-519.3527919302071
 30
0.0
 11
398.35803450292121
 21
-712.27427969047403
 31
0.0
  0
LINE
  5
28A
100
AcDbEntity
  8
OBJECT
 62
               0
100
AcDbLine
 10
420.90771760275845
 20
-518.64720806634728
 30
0.0
 11
393.40806971405061
 21
-711.56869582661443
 31
0.0
  0
ENDBLK
  5
28B
100
AcDbEntity
  8
OBJECT
100
AcDbBlockEnd
  0
BLOCK
  5
28C
100
AcDbEntity
  8
OBJECT
100
AcDbBlockBegin
  2
*U47
 70
               1
 10
0.0
 20
0.0
 30
0.0
  3
*U47
  1

  0
ARC
  5
28D
100
AcDbEntity
  8
OBJECT
 62
               0
100
AcDbCircle
 10
66.882699997193413
 20
-682.99999999827719
 30
0.0
 40
7.9999999999990905
100
AcDbArc
 50
180.0
 51
0.0
  0
LINE
  5
28E
100
AcDbEntity
  8
OBJECT
 62
               0
100
AcDbLine
 10
76.396396022044428
 20
-682.99999999827719
 30
0.0
 11
57.369003972343307
 21
-682.99999999827719
 31
0.0
  0
LINE
  5
28F
100
AcDbEntity
  8
OBJECT
 62
               0
100
AcDbLine
 10
56.869196762017054
 20
-682.51388353189736
 30
0.0
 11
55.938255552749069
 21
-648.99999999827719
 31
0.0
  0
LINE
  5
290
100
AcDbEntity
  8
OBJECT
 62
               0
100
AcDbLine
 10
76.896203232370681
 20
-682.51388353189736
 30
0.0
 11
77.827144441638666
 21
-648.99999999827719
 31
0.0
  0
ARC
  5
291
100
AcDbEntity
  8
OBJECT
 62
               0
100
AcDbCircle
 10
66.882699997193413
 20
-682.99999999827719
 30
0.0
 40
10.00000000000033
100
AcDbArc
 50
3.9569335489627044
 51
175.12397513038607
  0
ARC
  5
292
100
AcDbEntity
  8
OBJECT
 62
               0
100
AcDbCircle
 10
57.369003972343307
 20
-682.49999999827719
 30
0.0
 40
0.4999999999998938
100
AcDbArc
 50
181.59114027119458
 51
270.0
  0
ARC
  5
293
100
AcDbEntity
  8
OBJECT
 62
               0
100
AcDbCircle
 10
76.396396022044428
 20
-682.49999999827719
 30
0.0
 40
0.5
100
AcDbArc
 50
270.0
 51
358.4088597288054
  0
ENDBLK
  5
294
100
AcDbEntity
  8
OBJECT
100
AcDbBlockEnd
  0
BLOCK
  5
295
100
AcDbEntity
  8
OBJECT
100
AcDbBlockBegin
  2
*U48
 70
               1
 10
0.0
 20
0.0
 30
0.0
  3
*U48
  1

  0
LINE
  5
296
100
AcDbEntity
  8
OBJECT
 62
               0
100
AcDbLine
 10
29.882699997193413
 20
-648.99999999827719
 30
0.0
 11
450.8826999971933
 21
-648.99999999827742
 31
0.0
  0
LINE
  5
297
100
AcDbEntity
  8
OBJECT
 62
               0
100
AcDbLine
 10
26.882699997194322
 20
-620.99999999827719
 30
0.0
 11
26.882699997194322
 21
-645.99999999827719
 31
0.0
  0
LINE
  5
298
100
AcDbEntity
  8
OBJECT
 62
               0
100
AcDbLine
 10
29.882699997193413
 20
-646.99999999827719
 30
0.0
 11
450.8826999971933
 21
-646.99999999827719
 31
0.0
  0
LINE
  5
299
100
AcDbEntity
  8
OBJECT
 62
               0
100
AcDbLine
 10
28.882699997194322
 20
-620.99999999827719
 30
0.0
 11
28.882699997194322
 21
-645.99999999827719
 31
0.0
  0
LINE
  5
29A
100
AcDbEntity
  8
OBJECT
 62
               0
100
AcDbLine
 10
449.8826999971933
 20
-646.99999999827719
 30
0.0
 11
449.8826999971933
 21
-640.99999999827719
 31
0.0
  0
LINE
  5
29B
100
AcDbEntity
  8
OBJECT
 62
               0
100
AcDbLine
 10
450.8826999971933
 20
-648.99999999827719
 30
0.0
 11
459.70772716828185
 21
-653.70668115619083
 31
0.0
  0
ARC
  5
29C
100
AcDbEntity
  8
OBJECT
 62
               0
100
AcDbCircle
 10
450.8826999971933
 20
-648.99999999827719
 30
0.0
 40
2.0000000000004414
100
AcDbArc
 50
61.927513064122515
 51
90.0
  0
LINE
  5
29D
100
AcDbEntity
  8
OBJECT
 62
               0
100
AcDbLine
 10
26.882699997193413
 20
-620.99999999827719
 30
0.0
 11
429.8826999971933
 21
-620.99999999827719
 31
0.0
  0
LINE
  5
29E
100
AcDbEntity
  8
OBJECT
 62
               0
100
AcDbLine
 10
45.682699997193595
 20
-628.19999999827724
 30
0.0
 11
45.682699997193595
 21
-645.79999999827714
 31
0.0
  0
LINE
  5
29F
100
AcDbEntity
  8
OBJECT
 62
               0
100
AcDbLine
 10
46.882699997194322
 20
-628.19999999827724
 30
0.0
 11
46.882699997194322
 21
-646.99999999827719
 31
0.0
  0
LINE
  5
2A0
100
AcDbEntity
  8
OBJECT
 62
               0
100
AcDbLine
 10
45.682699997193595
 20
-645.79999999827714
 30
0.0
 11
29.882699997194322
 21
-645.79999999827714
 31
0.0
  0
LINE
  5
2A1
100
AcDbEntity
  8
OBJECT
 62
               0
100
AcDbLine
 10
29.882699997194322
 20
-645.79999999827714
 30
0.0
 11
29.882699997194322
 21
-646.99999999827719
 31
0.0
  0
LINE
  5
2A2
100
AcDbEntity
  8
OBJECT
 62
               0
100
AcDbLine
 10
45.882699997193413
 20
-626.99999999827719
 30
0.0
 11
437.8826999971933
 21
-626.99999999827719
 31
0.0
  0
ARC
  5
2A3
100
AcDbEntity
  8
OBJECT
 62
               0
100
AcDbCircle
 10
429.8826999971933
 20
-640.99999999827719
 30
0.0
 40
20.0
100
AcDbArc
 50
0.0
 51
90.0
  0
LINE
  5
2A4
100
AcDbEntity
  8
OBJECT
 62
               0
100
AcDbLine
 10
430.3826999971933
 20
-650.49999999827719
 30
0.0
 11
446.38269999719421
 21
-650.49999999827719
 31
0.0
  0
LINE
  5
2A5
100
AcDbEntity
  8
OBJECT
 62
               0
100
AcDbLine
 10
446.38269999719421
 20
-650.49999999827719
 30
0.0
 11
446.38269999719421
 21
-648.99999999827719
 31
0.0
  0
ARC
  5
2A6
100
AcDbEntity
  8
OBJECT
 62
               0
100
AcDbCircle
 10
437.8826999971933
 20
-638.99999999827719
 30
0.0
 40
12.0
100
AcDbArc
 50
0.0
 51
90.0
  0
LINE
  5
2A7
100
AcDbEntity
  8
OBJECT
 62
               0
100
AcDbLine
 10
459.70772716828185
 20
-653.70668115619083
 30
0.0
 11
460.64890363887014
 21
-651.94197527383812
 31
0.0
  0
LINE
  5
2A8
100
AcDbEntity
  8
OBJECT
 62
               0
100
AcDbLine
 10
44.482699997193777
 20
-628.19999999827724
 30
0.0
 11
44.482699997193777
 21
-634.99999999827719
 31
0.0
  0
ARC
  5
2A9
100
AcDbEntity
  8
OBJECT
 62
               0
100
AcDbCircle
 10
45.682699997193595
 20
-628.19999999827724
 30
0.0
 40
1.2000000000007276
100
AcDbArc
 50
0.0
 51
180.0
  0
LINE
  5
2AA
100
AcDbEntity
  8
OBJECT
 62
               0
100
AcDbLine
 10
45.682699997193595
 20
-634.99999999827719
 30
0.0
 11
44.482699997193777
 21
-634.99999999827719
 31
0.0
  0
ARC
  5
2AB
100
AcDbEntity
  8
OBJECT
 62
               0
100
AcDbCircle
 10
29.882699997194322
 20
-645.99999999827719
 30
0.0
 40
1.0
100
AcDbArc
 50
180.0
 51
270.0
  0
ARC
  5
2AC
100
AcDbEntity
  8
OBJECT
 62
               0
100
AcDbCircle
 10
29.882699997194322
 20
-645.99999999827719
 30
0.0
 40
3.0
100
AcDbArc
 50
180.0
 51
270.0
  0
LINE
  5
2AD
100
AcDbEntity
  8
OBJECT
 62
               0
100
AcDbLine
 10
24.882699997194322
 20
-621.99999999827719
 30
0.0
 11
24.882699997194322
 21
-645.99999999827719
 31
0.0
  0
ARC
  5
2AE
100
AcDbEntity
  8
OBJECT
 62
               0
100
AcDbCircle
 10
29.882699997194322
 20
-645.99999999827719
 30
0.0
 40
5.0
100
AcDbArc
 50
180.0
 51
270.0
  0
LINE
  5
2AF
100
AcDbEntity
  8
OBJECT
 62
               0
100
AcDbLine
 10
29.882699997194322
 20
-650.99999999827719
 30
0.0
 11
55.993811108304726
 21
-650.99999999827719
 31
0.0
  0
LINE
  5
2B0
100
AcDbEntity
  8
OBJECT
 62
               0
100
AcDbLine
 10
78.09365092556618
 20
-650.99999999827719
 30
0.0
 11
91.882699997194322
 21
-650.99999999827719
 31
0.0
  0
INSERT
  5
2B1
100
AcDbEntity
  8
OBJECT
 62
               0
100
AcDbBlockReference
  2
*U47
 10
0.0
 20
0.0
 30
0.0
  0
LINE
  5
2B2
100
AcDbEntity
  8
OBJECT
 62
               0
100
AcDbLine
 10
91.882699997194322
 20
-648.99999999827719
 30
0.0
 11
91.882699997194322
 21
-650.99999999827719
 31
0.0
  0
LINE
  5
2B3
100
AcDbEntity
  8
OBJECT
 62
               0
100
AcDbLine
 10
26.882699997194322
 20
-621.99999999827719
 30
0.0
 11
24.882699997194322
 21
-621.99999999827719
 31
0.0
  0
LINE
  5
2B4
100
AcDbEntity
  8
OBJECT
 62
               0
100
AcDbLine
 10
451.8238764677825
 20
-647.23529411592426
 30
0.0
 11
460.64890363887014
 21
-651.94197527383812
 31
0.0
  0
ENDBLK
  5
2B5
100
AcDbEntity
  8
OBJECT
100
AcDbBlockEnd
  0
BLOCK
  5
2B6
100
AcDbEntity
  8
OBJECT
100
AcDbBlockBegin
  2
*U49
 70
               1
 10
0.0
 20
0.0
 30
0.0
  3
*U49
  1

  0
CIRCLE
  5
2B7
100
AcDbEntity
  8
OBJECT
 62
               0
100
AcDbCircle
 10
423.3826999971933
 20
-818.99999999827719
 30
0.0
 40
2.5000000000004707
  0
CIRCLE
  5
2B8
100
AcDbEntity
  8
OBJECT
 62
               0
100
AcDbCircle
 10
169.92708258065238
 20
-658.49999999827719
 30
0.0
 40
2.5000000000002678
  0
CIRCLE
  5
2B9
100
AcDbEntity
  8
OBJECT
 62
               0
100
AcDbCircle
 10
169.92708258065238
 20
-658.49999999827719
 30
0.0
 40
7.5000000000003944
  0
ARC
  5
2BA
100
AcDbEntity
  8
OBJECT
 62
               0
100
AcDbCircle
 10
350.64833835309662
 20
-746.90112434445632
 30
0.0
 40
52.499999999999631
100
AcDbArc
 50
228.81158315385821
 51
254.47482974895746
  0
ARC
  5
2BB
100
AcDbEntity
  8
OBJECT
 62
               0
100
AcDbCircle
 10
350.64833835309662
 20
-746.90112434445632
 30
0.0
 40
47.499999999999432
100
AcDbArc
 50
229.54361436814077
 51
254.47482974895749
  0
LINE
  5
2BC
100
AcDbEntity
  8
OBJECT
 62
               0
100
AcDbLine
 10
422.71354580530976
 20
-821.40878240179177
 30
0.0
 11
336.59610032353419
 21
-797.4855548182743
 31
0.0
  0
LINE
  5
2BD
100
AcDbEntity
  8
OBJECT
 62
               0
100
AcDbLine
 10
424.05185418907774
 20
-816.5912175947617
 30
0.0
 11
337.93440870730217
 21
-792.66799001124377
 31
0.0
  0
CIRCLE
  5
2BE
100
AcDbEntity
  8
OBJECT
 62
               0
100
AcDbCircle
 10
423.3826999971933
 20
-818.99999999827719
 30
0.0
 40
2.5000000000008233
  0
LINE
  5
2BF
100
AcDbEntity
  8
OBJECT
 62
               0
100
AcDbLine
 10
171.54925515143157
 20
-656.59774971227057
 30
0.0
 11
319.82705950829393
 21
-783.04387977857982
 31
0.0
  0
LINE
  5
2C0
100
AcDbEntity
  8
OBJECT
 62
               0
100
AcDbLine
 10
168.30491000987411
 20
-660.40225028428358
 30
0.0
 11
316.58271436673556
 21
-786.84838035059306
 31
0.0
  0
ENDBLK
  5
2C1
100
AcDbEntity
  8
OBJECT
100
AcDbBlockEnd
  0
BLOCK
  5
2C2
100
AcDbEntity
  8
OBJECT
100
AcDbBlockBegin
  2
*U50
 70
               1
 10
0.0
 20
0.0
 30
0.0
  3
*U50
  1

  0
LINE
  5
2C3
100
AcDbEntity
  8
OBJECT
 62
               0
100
AcDbLine
 10
163.8826999971933
 20
-660.99999999827719
 30
0.0
 11
161.8826999971933
 21
-660.99999999827719
 31
0.0
  0
LINE
  5
2C4
100
AcDbEntity
  8
OBJECT
 62
               0
100
AcDbLine
 10
163.8826999971933
 20
-651.99999999827719
 30
0.0
 11
163.8826999971933
 21
-660.99999999827719
 31
0.0
  0
LINE
  5
2C5
100
AcDbEntity
  8
OBJECT
 62
               0
100
AcDbLine
 10
161.8826999971933
 20
-660.99999999827719
 30
0.0
 11
161.8826999971933
 21
-651.99999999827719
 31
0.0
  0
LINE
  5
2C6
100
AcDbEntity
  8
OBJECT
 62
               0
100
AcDbLine
 10
164.8826999971933
 20
-650.99999999827719
 30
0.0
 11
361.8826999971933
 21
-650.99999999827719
 31
0.0
  0
ARC
  5
2C7
100
AcDbEntity
  8
OBJECT
 62
               0
100
AcDbCircle
 10
164.8826999971933
 20
-651.99999999827719
 30
0.0
 40
1.0
100
AcDbArc
 50
90.0
 51
180.0
  0
ARC
  5
2C8
100
AcDbEntity
  8
OBJECT
 62
               0
100
AcDbCircle
 10
164.8826999971933
 20
-651.99999999827719
 30
0.0
 40
3.0
100
AcDbArc
 50
90.0
 51
180.0
  0
LINE
  5
2C9
100
AcDbEntity
  8
OBJECT
 62
               0
100
AcDbLine
 10
361.8826999971933
 20
-650.99999999827719
 30
0.0
 11
361.8826999971933
 21
-648.99999999827719
 31
0.0
  0
ENDBLK
  5
2CA
100
AcDbEntity
  8
OBJECT
100
AcDbBlockEnd
  0
BLOCK
  5
2CB
100
AcDbEntity
  8
OBJECT
100
AcDbBlockBegin
  2
*U51
 70
               1
 10
0.0
 20
0.0
 30
0.0
  3
*U51
  1

  0
LINE
  5
2CC
100
AcDbEntity
  8
OBJECT
 62
               0
100
AcDbLine
 10
421.3826999971933
 20
-385.99999999827719
 30
0.0
 11
421.3826999971933
 21
-383.99999999827719
 31
0.0
  0
LINE
  5
2CD
100
AcDbEntity
  8
OBJECT
 62
               0
100
AcDbLine
 10
430.3826999971933
 20
-385.99999999827719
 30
0.0
 11
421.3826999971933
 21
-385.99999999827719
 31
0.0
  0
LINE
  5
2CE
100
AcDbEntity
  8
OBJECT
 62
               0
100
AcDbLine
 10
421.3826999971933
 20
-383.99999999827719
 30
0.0
 11
430.3826999971933
 21
-383.99999999827719
 31
0.0
  0
LINE
  5
2CF
100
AcDbEntity
  8
OBJECT
 62
               0
100
AcDbLine
 10
431.3826999971933
 20
-386.99999999827719
 30
0.0
 11
431.3826999971933
 21
-583.99999999827719
 31
0.0
  0
ARC
  5
2D0
100
AcDbEntity
  8
OBJECT
 62
               0
100
AcDbCircle
 10
430.3826999971933
 20
-386.99999999827719
 30
0.0
 40
1.0
100
AcDbArc
 50
0.0
 51
90.0
  0
ARC
  5
2D1
100
AcDbEntity
  8
OBJECT
 62
               0
100
AcDbCircle
 10
430.3826999971933
 20
-386.99999999827719
 30
0.0
 40
3.0
100
AcDbArc
 50
0.0
 51
90.0
  0
LINE
  5
2D2
100
AcDbEntity
  8
OBJECT
 62
               0
100
AcDbLine
 10
431.3826999971933
 20
-583.99999999827719
 30
0.0
 11
433.3826999971933
 21
-583.99999999827719
 31
0.0
  0
ENDBLK
  5
2D3
100
AcDbEntity
  8
OBJECT
100
AcDbBlockEnd
  0
BLOCK
  5
2D4
100
AcDbEntity
  8
OBJECT
100
AcDbBlockBegin
  2
*U52
 70
               1
 10
0.0
 20
0.0
 30
0.0
  3
*U52
  1

  0
LINE
  5
2D5
100
AcDbEntity
  8
OBJECT
 62
               0
100
AcDbLine
 10
440.8826999971933
 20
-246.49999999827719
 30
0.0
 11
449.8826999971933
 21
-246.49999999827719
 31
0.0
  0
ARC
  5
2D6
100
AcDbEntity
  8
OBJECT
 62
               0
100
AcDbCircle
 10
445.3826999971933
 20
-249.75217391132082
 30
0.0
 40
5.5521739130434362
100
AcDbArc
 50
35.855839524013874
 51
144.14416047598422
  0
LINE
  5
2D7
100
AcDbEntity
  8
OBJECT
 62
               0
100
AcDbLine
 10
440.8826999971933
 20
-246.49999999827719
 30
0.0
 11
440.8826999971933
 21
-246.99999999827719
 31
0.0
  0
LINE
  5
2D8
100
AcDbEntity
  8
OBJECT
 62
               0
100
AcDbLine
 10
449.8826999971933
 20
-246.49999999827719
 30
0.0
 11
449.8826999971933
 21
-246.99999999827719
 31
0.0
  0
LINE
  5
2D9
100
AcDbEntity
  8
OBJECT
 62
               0
100
AcDbLine
 10
447.3826999971933
 20
-246.99999999827719
 30
0.0
 11
447.3826999971933
 21
-252.99999999827719
 31
0.0
  0
LINE
  5
2DA
100
AcDbEntity
  8
OBJECT
 62
               0
100
AcDbLine
 10
443.3826999971933
 20
-246.99999999827719
 30
0.0
 11
443.3826999971933
 21
-252.99999999827719
 31
0.0
  0
LINE
  5
2DB
100
AcDbEntity
  8
OBJECT
 62
               0
100
AcDbLine
 10
443.3826999971933
 20
-252.99999999827719
 30
0.0
 11
447.3826999971933
 21
-252.99999999827719
 31
0.0
  0
ENDBLK
  5
2DC
100
AcDbEntity
  8
OBJECT
100
AcDbBlockEnd
  0
BLOCK
  5
2DD
100
AcDbEntity
  8
OBJECT
100
AcDbBlockBegin
  2
*U53
 70
               1
 10
0.0
 20
0.0
 30
0.0
  3
*U53
  1

  0
LINE
  5
2DE
100
AcDbEntity
  8
OBJECT
 62
               0
100
AcDbLine
 10
432.3826999971933
 20
-667.49999999827719
 30
0.0
 11
423.3826999971933
 21
-667.49999999827719
 31
0.0
  0
LINE
  5
2DF
100
AcDbEntity
  8
OBJECT
 62
               0
100
AcDbLine
 10
432.3826999971933
 20
-656.49999999827719
 30
0.0
 11
432.3826999971933
 21
-667.49999999827719
 31
0.0
  0
LINE
  5
2E0
100
AcDbEntity
  8
OBJECT
 62
               0
100
AcDbLine
 10
423.3826999971933
 20
-668.49999999827719
 30
0.0
 11
423.3826999971933
 21
-667.49999999827719
 31
0.0
  0
LINE
  5
2E1
100
AcDbEntity
  8
OBJECT
 62
               0
100
AcDbLine
 10
433.3826999971933
 20
-668.49999999827719
 30
0.0
 11
423.3826999971933
 21
-668.49999999827719
 31
0.0
  0
LINE
  5
2E2
100
AcDbEntity
  8
OBJECT
 62
               0
100
AcDbLine
 10
433.3826999971933
 20
-656.49999999827719
 30
0.0
 11
433.3826999971933
 21
-668.49999999827719
 31
0.0
  0
LINE
  5
2E3
100
AcDbEntity
  8
OBJECT
 62
               0
100
AcDbLine
 10
432.3826999971933
 20
-656.49999999827719
 30
0.0
 11
433.3826999971933
 21
-656.49999999827719
 31
0.0
  0
ENDBLK
  5
2E4
100
AcDbEntity
  8
OBJECT
100
AcDbBlockEnd
  0
BLOCK
  5
2E5
100
AcDbEntity
  8
DIMENTION
100
AcDbBlockBegin
  2
*D54
 70
               1
 10
0.0
 20
0.0
 30
0.0
  3
*D54
  1

  0
LINE
  5
2E6
100
AcDbEntity
  8
DIMENTION
 62
               0
100
AcDbLine
 10
2274.0
 20
-1754.9999999627471
 30
0.0
 11
2274.0
 21
-1974.9999999254942
 31
0.0
  0
LINE
  5
2E7
100
AcDbEntity
  8
DIMENTION
 62
               0
100
AcDbLine
 10
1680.0
 20
-1554.9999999254942
 30
0.0
 11
1680.0
 21
-1974.9999999254942
 31
0.0
  0
LINE
  5
2E8
100
AcDbEntity
  8
DIMENTION
 62
               0
100
AcDbLine
 10
2274.0
 20
-1955.0
 30
0.0
 11
1680.0
 21
-1955.0
 31
0.0
  0
LINE
  5
2E9
100
AcDbEntity
  8
DIMENTION
 62
               0
100
AcDbLine
 10
2274.0
 20
-1955.0
 30
0.0
 11
2242.25
 21
-1963.507386859688
 31
0.0
  0
LINE
  5
2EA
100
AcDbEntity
  8
DIMENTION
 62
               0
100
AcDbLine
 10
2274.0
 20
-1955.0
 30
0.0
 11
2242.25
 21
-1946.492613140312
 31
0.0
  0
LINE
  5
2EB
100
AcDbEntity
  8
DIMENTION
 62
               0
100
AcDbLine
 10
1680.0
 20
-1955.0
 30
0.0
 11
1711.75
 21
-1946.492613140312
 31
0.0
  0
LINE
  5
2EC
100
AcDbEntity
  8
DIMENTION
 62
               0
100
AcDbLine
 10
1680.0
 20
-1955.0
 30
0.0
 11
1711.75
 21
-1963.507386859688
 31
0.0
  0
MTEXT
  5
2ED
100
AcDbEntity
  8
DIMENTION
 62
               0
100
AcDbMText
 10
1953.25
 20
-1911.666666670392
 30
0.0
 40
33.866666666666667
 41
0.0
 71
               1
 72
               1
  1
595
  7
________
  0
POINT
  5
2EE
100
AcDbEntity
  8
DEFPOINTS
 62
               0
100
AcDbPoint
 10
1680.0
 20
-1544.9999999627471
 30
0.0
  0
POINT
  5
2EF
100
AcDbEntity
  8
DEFPOINTS
 62
               0
100
AcDbPoint
 10
2274.0
 20
-1745.0
 30
0.0
  0
POINT
  5
2F0
100
AcDbEntity
  8
DEFPOINTS
 62
               0
100
AcDbPoint
 10
2274.0
 20
-1955.0
 30
0.0
  0
ENDBLK
  5
2F1
100
AcDbEntity
  8
DIMENTION
100
AcDbBlockEnd
  0
BLOCK
  5
2F2
100
AcDbEntity
  8
DIMENTION
100
AcDbBlockBegin
  2
*D55
 70
               1
 10
0.0
 20
0.0
 30
0.0
  3
*D55
  1

  0
LINE
  5
2F3
100
AcDbEntity
  8
DIMENTION
 62
               0
100
AcDbLine
 10
1683.0000000372529
 20
-951.0
 30
0.0
 11
1516.0000000745058
 21
-951.0
 31
0.0
  0
LINE
  5
2F4
100
AcDbEntity
  8
DIMENTION
 62
               0
100
AcDbLine
 10
1680.0000000372529
 20
-1015.0
 30
0.0
 11
1516.0000000745058
 21
-1015.0
 31
0.0
  0
LINE
  5
2F5
100
AcDbEntity
  8
DIMENTION
 62
               0
100
AcDbLine
 10
1536.0
 20
-1015.0
 30
0.0
 11
1536.0
 21
-951.0
 31
0.0
  0
LINE
  5
2F6
100
AcDbEntity
  8
DIMENTION
 62
               0
100
AcDbLine
 10
1536.0
 20
-951.0
 30
0.0
 11
1536.0
 21
-890.99999998696148
 31
0.0
  0
LINE
  5
2F7
100
AcDbEntity
  8
DIMENTION
 62
               0
100
AcDbLine
 10
1536.0
 20
-951.0
 30
0.0
 11
1527.4926131403117
 21
-919.25
 31
0.0
  0
LINE
  5
2F8
100
AcDbEntity
  8
DIMENTION
 62
               0
100
AcDbLine
 10
1536.0
 20
-951.0
 30
0.0
 11
1544.5073868596883
 21
-919.25
 31
0.0
  0
LINE
  5
2F9
100
AcDbEntity
  8
DIMENTION
 62
               0
100
AcDbLine
 10
1536.0
 20
-1015.0
 30
0.0
 11
1536.0
 21
-1075.0000000130385
 31
0.0
  0
LINE
  5
2FA
100
AcDbEntity
  8
DIMENTION
 62
               0
100
AcDbLine
 10
1536.0
 20
-1015.0
 30
0.0
 11
1544.5073868596883
 21
-1046.75
 31
0.0
  0
LINE
  5
2FB
100
AcDbEntity
  8
DIMENTION
 62
               0
100
AcDbLine
 10
1536.0
 20
-1015.0
 30
0.0
 11
1527.4926131403117
 21
-1046.75
 31
0.0
  0
MTEXT
  5
2FC
100
AcDbEntity
  8
DIMENTION
 62
               0
100
AcDbMText
 10
1492.666666670392
 20
-1004.1666666666666
 30
0.0
 40
33.866666666666667
 41
0.0
 71
               1
 72
               1
  1
64
  7
________
 11
0.0
 21
1.0
 31
0.0
  0
POINT
  5
2FD
100
AcDbEntity
  8
DEFPOINTS
 62
               0
100
AcDbPoint
 10
1690.0
 20
-1015.0
 30
0.0
  0
POINT
  5
2FE
100
AcDbEntity
  8
DEFPOINTS
 62
               0
100
AcDbPoint
 10
1693.0
 20
-951.0
 30
0.0
  0
POINT
  5
2FF
100
AcDbEntity
  8
DEFPOINTS
 62
               0
100
AcDbPoint
 10
1536.0
 20
-951.0
 30
0.0
  0
ENDBLK
  5
300
100
AcDbEntity
  8
DIMENTION
100
AcDbBlockEnd
  0
BLOCK
  5
301
100
AcDbEntity
  8
DIMENTION
100
AcDbBlockBegin
  2
*D56
 70
               1
 10
0.0
 20
0.0
 30
0.0
  3
*D56
  1

  0
LINE
  5
302
100
AcDbEntity
  8
DIMENTION
 62
               0
100
AcDbLine
 10
1690.0000000372529
 20
-1805.0
 30
0.0
 11
1380.5000000745058
 21
-1805.0
 31
0.0
  0
LINE
  5
303
100
AcDbEntity
  8
DIMENTION
 62
               0
100
AcDbLine
 10
1679.962163325531
 20
-1755.0
 30
0.0
 11
1380.5000000745058
 21
-1755.0
 31
0.0
  0
LINE
  5
304
100
AcDbEntity
  8
DIMENTION
 62
               0
100
AcDbLine
 10
1400.5
 20
-1755.0
 30
0.0
 11
1400.5
 21
-1805.0
 31
0.0
  0
LINE
  5
305
100
AcDbEntity
  8
DIMENTION
 62
               0
100
AcDbLine
 10
1400.5
 20
-1805.0
 30
0.0
 11
1400.5
 21
-1865.0000000130385
 31
0.0
  0
LINE
  5
306
100
AcDbEntity
  8
DIMENTION
 62
               0
100
AcDbLine
 10
1400.5
 20
-1805.0
 30
0.0
 11
1409.007386859688
 21
-1836.75
 31
0.0
  0
LINE
  5
307
100
AcDbEntity
  8
DIMENTION
 62
               0
100
AcDbLine
 10
1400.5
 20
-1805.0
 30
0.0
 11
1391.9926131403117
 21
-1836.75
 31
0.0
  0
LINE
  5
308
100
AcDbEntity
  8
DIMENTION
 62
               0
100
AcDbLine
 10
1400.5
 20
-1755.0
 30
0.0
 11
1400.5
 21
-1694.9999999869615
 31
0.0
  0
LINE
  5
309
100
AcDbEntity
  8
DIMENTION
 62
               0
100
AcDbLine
 10
1400.5
 20
-1755.0
 30
0.0
 11
1391.9926131403117
 21
-1723.25
 31
0.0
  0
LINE
  5
30A
100
AcDbEntity
  8
DIMENTION
 62
               0
100
AcDbLine
 10
1400.5
 20
-1755.0
 30
0.0
 11
1409.007386859688
 21
-1723.25
 31
0.0
  0
MTEXT
  5
30B
100
AcDbEntity
  8
DIMENTION
 62
               0
100
AcDbMText
 10
1357.1666666703918
 20
-1804.9566847427977
 30
0.0
 40
33.866666666666667
 41
0.0
 71
               1
 72
               1
  1
50
  7
________
 11
0.0
 21
1.0
 31
0.0
  0
POINT
  5
30C
100
AcDbEntity
  8
DEFPOINTS
 62
               0
100
AcDbPoint
 10
1689.9621632882781
 20
-1755.0
 30
0.0
  0
POINT
  5
30D
100
AcDbEntity
  8
DEFPOINTS
 62
               0
100
AcDbPoint
 10
1700.0
 20
-1805.0
 30
0.0
  0
POINT
  5
30E
100
AcDbEntity
  8
DEFPOINTS
 62
               0
100
AcDbPoint
 10
1400.5
 20
-1805.0
 30
0.0
  0
ENDBLK
  5
30F
100
AcDbEntity
  8
DIMENTION
100
AcDbBlockEnd
  0
BLOCK
  5
310
100
AcDbEntity
  8
DIMENTION
100
AcDbBlockBegin
  2
*D57
 70
               1
 10
0.0
 20
0.0
 30
0.0
  3
*D57
  1

  0
LINE
  5
311
100
AcDbEntity
  8
DIMENTION
 62
               0
100
AcDbLine
 10
1679.962163325531
 20
-1755.0
 30
0.0
 11
1380.5000000745058
 21
-1755.0
 31
0.0
  0
LINE
  5
312
100
AcDbEntity
  8
DIMENTION
 62
               0
100
AcDbLine
 10
1670.0000000372529
 20
-1535.0
 30
0.0
 11
1380.5000000745058
 21
-1535.0
 31
0.0
  0
LINE
  5
313
100
AcDbEntity
  8
DIMENTION
 62
               0
100
AcDbLine
 10
1400.5
 20
-1755.0
 30
0.0
 11
1400.5
 21
-1535.0
 31
0.0
  0
LINE
  5
314
100
AcDbEntity
  8
DIMENTION
 62
               0
100
AcDbLine
 10
1400.5
 20
-1755.0
 30
0.0
 11
1391.9926131403117
 21
-1723.25
 31
0.0
  0
LINE
  5
315
100
AcDbEntity
  8
DIMENTION
 62
               0
100
AcDbLine
 10
1400.5
 20
-1755.0
 30
0.0
 11
1409.007386859688
 21
-1723.25
 31
0.0
  0
LINE
  5
316
100
AcDbEntity
  8
DIMENTION
 62
               0
100
AcDbLine
 10
1400.5
 20
-1535.0
 30
0.0
 11
1409.007386859688
 21
-1566.75
 31
0.0
  0
LINE
  5
317
100
AcDbEntity
  8
DIMENTION
 62
               0
100
AcDbLine
 10
1400.5
 20
-1535.0
 30
0.0
 11
1391.9926131403117
 21
-1566.75
 31
0.0
  0
MTEXT
  5
318
100
AcDbEntity
  8
DIMENTION
 62
               0
100
AcDbMText
 10
1357.1666666703918
 20
-1660.540018076131
 30
0.0
 40
33.866666666666667
 41
0.0
 71
               1
 72
               1
  1
220
  7
________
 11
0.0
 21
1.0
 31
0.0
  0
POINT
  5
319
100
AcDbEntity
  8
DEFPOINTS
 62
               0
100
AcDbPoint
 10
1680.0
 20
-1535.0
 30
0.0
  0
POINT
  5
31A
100
AcDbEntity
  8
DEFPOINTS
 62
               0
100
AcDbPoint
 10
1689.9621632882781
 20
-1755.0
 30
0.0
  0
POINT
  5
31B
100
AcDbEntity
  8
DEFPOINTS
 62
               0
100
AcDbPoint
 10
1400.5
 20
-1755.0
 30
0.0
  0
ENDBLK
  5
31C
100
AcDbEntity
  8
DIMENTION
100
AcDbBlockEnd
  0
BLOCK
  5
31D
100
AcDbEntity
  8
DIMENTION
100
AcDbBlockBegin
  2
*D58
 70
               1
 10
0.0
 20
0.0
 30
0.0
  3
*D58
  1

  0
LINE
  5
31E
100
AcDbEntity
  8
DIMENTION
 62
               0
100
AcDbLine
 10
1670.0000000372529
 20
-1535.0
 30
0.0
 11
1380.5000000745058
 21
-1535.0
 31
0.0
  0
LINE
  5
31F
100
AcDbEntity
  8
DIMENTION
 62
               0
100
AcDbLine
 10
1670.0000000372529
 20
-1425.0
 30
0.0
 11
1380.5000000745058
 21
-1425.0
 31
0.0
  0
LINE
  5
320
100
AcDbEntity
  8
DIMENTION
 62
               0
100
AcDbLine
 10
1400.5
 20
-1535.0
 30
0.0
 11
1400.5
 21
-1425.0
 31
0.0
  0
LINE
  5
321
100
AcDbEntity
  8
DIMENTION
 62
               0
100
AcDbLine
 10
1400.5
 20
-1535.0
 30
0.0
 11
1391.9926131403117
 21
-1503.25
 31
0.0
  0
LINE
  5
322
100
AcDbEntity
  8
DIMENTION
 62
               0
100
AcDbLine
 10
1400.5
 20
-1535.0
 30
0.0
 11
1409.007386859688
 21
-1503.25
 31
0.0
  0
LINE
  5
323
100
AcDbEntity
  8
DIMENTION
 62
               0
100
AcDbLine
 10
1400.5
 20
-1425.0
 30
0.0
 11
1409.007386859688
 21
-1456.75
 31
0.0
  0
LINE
  5
324
100
AcDbEntity
  8
DIMENTION
 62
               0
100
AcDbLine
 10
1400.5
 20
-1425.0
 30
0.0
 11
1391.9926131403117
 21
-1456.75
 31
0.0
  0
MTEXT
  5
325
100
AcDbEntity
  8
DIMENTION
 62
               0
100
AcDbMText
 10
1357.1666666703918
 20
-1528.540018076131
 30
0.0
 40
33.866666666666667
 41
0.0
 71
               1
 72
               1
  1
110
  7
________
 11
0.0
 21
1.0
 31
0.0
  0
POINT
  5
326
100
AcDbEntity
  8
DEFPOINTS
 62
               0
100
AcDbPoint
 10
1680.0
 20
-1425.0
 30
0.0
  0
POINT
  5
327
100
AcDbEntity
  8
DEFPOINTS
 62
               0
100
AcDbPoint
 10
1680.0
 20
-1535.0
 30
0.0
  0
POINT
  5
328
100
AcDbEntity
  8
DEFPOINTS
 62
               0
100
AcDbPoint
 10
1400.5
 20
-1535.0
 30
0.0
  0
ENDBLK
  5
329
100
AcDbEntity
  8
DIMENTION
100
AcDbBlockEnd
  0
BLOCK
  5
32A
100
AcDbEntity
  8
DIMENTION
100
AcDbBlockBegin
  2
*D59
 70
               1
 10
0.0
 20
0.0
 30
0.0
  3
*D59
  1

  0
LINE
  5
32B
100
AcDbEntity
  8
DIMENTION
 62
               0
100
AcDbLine
 10
1690.0000000372529
 20
-1805.0
 30
0.0
 11
1164.0000000745058
 21
-1805.0
 31
0.0
  0
LINE
  5
32C
100
AcDbEntity
  8
DIMENTION
 62
               0
100
AcDbLine
 10
1670.0000000372529
 20
-1425.0
 30
0.0
 11
1164.0000000745058
 21
-1425.0
 31
0.0
  0
LINE
  5
32D
100
AcDbEntity
  8
DIMENTION
 62
               0
100
AcDbLine
 10
1184.0
 20
-1805.0
 30
0.0
 11
1184.0
 21
-1425.0
 31
0.0
  0
LINE
  5
32E
100
AcDbEntity
  8
DIMENTION
 62
               0
100
AcDbLine
 10
1184.0
 20
-1805.0
 30
0.0
 11
1175.4926131403117
 21
-1773.25
 31
0.0
  0
LINE
  5
32F
100
AcDbEntity
  8
DIMENTION
 62
               0
100
AcDbLine
 10
1184.0
 20
-1805.0
 30
0.0
 11
1192.507386859688
 21
-1773.25
 31
0.0
  0
LINE
  5
330
100
AcDbEntity
  8
DIMENTION
 62
               0
100
AcDbLine
 10
1184.0
 20
-1425.0
 30
0.0
 11
1192.507386859688
 21
-1456.75
 31
0.0
  0
LINE
  5
331
100
AcDbEntity
  8
DIMENTION
 62
               0
100
AcDbLine
 10
1184.0
 20
-1425.0
 30
0.0
 11
1175.492613140312
 21
-1456.75
 31
0.0
  0
MTEXT
  5
332
100
AcDbEntity
  8
DIMENTION
 62
               0
100
AcDbMText
 10
1140.666666670392
 20
-1732.540018076131
 30
0.0
 40
33.866666666666667
 41
0.0
 71
               1
 72
               1
  1
380
  7
________
 11
0.0
 21
1.0
 31
0.0
  0
POINT
  5
333
100
AcDbEntity
  8
DEFPOINTS
 62
               0
100
AcDbPoint
 10
1680.0
 20
-1425.0
 30
0.0
  0
POINT
  5
334
100
AcDbEntity
  8
DEFPOINTS
 62
               0
100
AcDbPoint
 10
1700.0
 20
-1805.0
 30
0.0
  0
POINT
  5
335
100
AcDbEntity
  8
DEFPOINTS
 62
               0
100
AcDbPoint
 10
1184.0
 20
-1805.0
 30
0.0
  0
ENDBLK
  5
336
100
AcDbEntity
  8
DIMENTION
100
AcDbBlockEnd
  0
BLOCK
  5
337
100
AcDbEntity
  8
DIMENTION
100
AcDbBlockBegin
  2
*D60
 70
               1
 10
0.0
 20
0.0
 30
0.0
  3
*D60
  1

  0
LINE
  5
338
100
AcDbEntity
  8
DIMENTION
 62
               0
100
AcDbLine
 10
1670.0000000372529
 20
-1425.0
 30
0.0
 11
1164.0000000745058
 21
-1425.0
 31
0.0
  0
LINE
  5
339
100
AcDbEntity
  8
DIMENTION
 62
               0
100
AcDbLine
 10
1321.0000000372538
 20
-1075.0
 30
0.0
 11
1164.0000000745058
 21
-1075.0
 31
0.0
  0
LINE
  5
33A
100
AcDbEntity
  8
DIMENTION
 62
               0
100
AcDbLine
 10
1184.0
 20
-1425.0
 30
0.0
 11
1184.0
 21
-1075.0
 31
0.0
  0
LINE
  5
33B
100
AcDbEntity
  8
DIMENTION
 62
               0
100
AcDbLine
 10
1184.0
 20
-1425.0
 30
0.0
 11
1175.4926131403117
 21
-1393.25
 31
0.0
  0
LINE
  5
33C
100
AcDbEntity
  8
DIMENTION
 62
               0
100
AcDbLine
 10
1184.0
 20
-1425.0
 30
0.0
 11
1192.507386859688
 21
-1393.25
 31
0.0
  0
LINE
  5
33D
100
AcDbEntity
  8
DIMENTION
 62
               0
100
AcDbLine
 10
1184.0
 20
-1075.0
 30
0.0
 11
1192.507386859688
 21
-1106.75
 31
0.0
  0
LINE
  5
33E
100
AcDbEntity
  8
DIMENTION
 62
               0
100
AcDbLine
 10
1184.0
 20
-1075.0
 30
0.0
 11
1175.492613140312
 21
-1106.75
 31
0.0
  0
MTEXT
  5
33F
100
AcDbEntity
  8
DIMENTION
 62
               0
100
AcDbMText
 10
1140.666666670392
 20
-1396.540018076131
 30
0.0
 40
33.866666666666667
 41
0.0
 71
               1
 72
               1
  1
350
  7
________
 11
0.0
 21
1.0
 31
0.0
  0
POINT
  5
340
100
AcDbEntity
  8
DEFPOINTS
 62
               0
100
AcDbPoint
 10
1331.0000000000009
 20
-1075.0
 30
0.0
  0
POINT
  5
341
100
AcDbEntity
  8
DEFPOINTS
 62
               0
100
AcDbPoint
 10
1680.0
 20
-1425.0
 30
0.0
  0
POINT
  5
342
100
AcDbEntity
  8
DEFPOINTS
 62
               0
100
AcDbPoint
 10
1184.0
 20
-1425.0
 30
0.0
  0
ENDBLK
  5
343
100
AcDbEntity
  8
DIMENTION
100
AcDbBlockEnd
  0
BLOCK
  5
344
100
AcDbEntity
  8
DIMENTION
100
AcDbBlockBegin
  2
*D61
 70
               1
 10
0.0
 20
0.0
 30
0.0
  3
*D61
  1

  0
LINE
  5
345
100
AcDbEntity
  8
DIMENTION
 62
               0
100
AcDbLine
 10
2283.9999999627471
 20
-1745.0
 30
0.0
 11
2369.9999999254942
 21
-1745.0
 31
0.0
  0
LINE
  5
346
100
AcDbEntity
  8
DIMENTION
 62
               0
100
AcDbLine
 10
2270.9999999627471
 20
-1805.0
 30
0.0
 11
2369.9999999254942
 21
-1805.0
 31
0.0
  0
LINE
  5
347
100
AcDbEntity
  8
DIMENTION
 62
               0
100
AcDbLine
 10
2350.0
 20
-1805.0
 30
0.0
 11
2350.0
 21
-1745.0
 31
0.0
  0
LINE
  5
348
100
AcDbEntity
  8
DIMENTION
 62
               0
100
AcDbLine
 10
2350.0
 20
-1745.0
 30
0.0
 11
2350.0
 21
-1684.9999999869615
 31
0.0
  0
LINE
  5
349
100
AcDbEntity
  8
DIMENTION
 62
               0
100
AcDbLine
 10
2350.0
 20
-1745.0
 30
0.0
 11
2341.4926131403117
 21
-1713.25
 31
0.0
  0
LINE
  5
34A
100
AcDbEntity
  8
DIMENTION
 62
               0
100
AcDbLine
 10
2350.0
 20
-1745.0
 30
0.0
 11
2358.5073868596883
 21
-1713.25
 31
0.0
  0
LINE
  5
34B
100
AcDbEntity
  8
DIMENTION
 62
               0
100
AcDbLine
 10
2350.0
 20
-1805.0
 30
0.0
 11
2350.0
 21
-1865.0000000130385
 31
0.0
  0
LINE
  5
34C
100
AcDbEntity
  8
DIMENTION
 62
               0
100
AcDbLine
 10
2350.0
 20
-1805.0
 30
0.0
 11
2358.5073868596883
 21
-1836.75
 31
0.0
  0
LINE
  5
34D
100
AcDbEntity
  8
DIMENTION
 62
               0
100
AcDbLine
 10
2350.0
 20
-1805.0
 30
0.0
 11
2341.4926131403117
 21
-1836.75
 31
0.0
  0
MTEXT
  5
34E
100
AcDbEntity
  8
DIMENTION
 62
               0
100
AcDbMText
 10
2306.6666666703918
 20
-1796.1666666666665
 30
0.0
 40
33.866666666666667
 41
0.0
 71
               1
 72
               1
  1
60
  7
________
 11
0.0
 21
1.0
 31
0.0
  0
POINT
  5
34F
100
AcDbEntity
  8
DEFPOINTS
 62
               0
100
AcDbPoint
 10
2261.0
 20
-1805.0
 30
0.0
  0
POINT
  5
350
100
AcDbEntity
  8
DEFPOINTS
 62
               0
100
AcDbPoint
 10
2274.0
 20
-1745.0
 30
0.0
  0
POINT
  5
351
100
AcDbEntity
  8
DEFPOINTS
 62
               0
100
AcDbPoint
 10
2350.0
 20
-1745.0
 30
0.0
  0
ENDBLK
  5
352
100
AcDbEntity
  8
DIMENTION
100
AcDbBlockEnd
  0
BLOCK
  5
353
100
AcDbEntity
  8
OBJECT
100
AcDbBlockBegin
  2
*U62
 70
               1
 10
0.0
 20
0.0
 30
0.0
  3
*U62
  1

  0
LINE
  5
354
100
AcDbEntity
  8
OBJECT
 62
               0
100
AcDbLine
 10
429.8826999971933
 20
-980.99999999827719
 30
0.0
 11
429.8826999971933
 21
-978.99999999827719
 31
0.0
  0
LINE
  5
355
100
AcDbEntity
  8
OBJECT
 62
               0
100
AcDbLine
 10
429.8826999971933
 20
-980.99999999827719
 30
0.0
 11
499.8826999971933
 21
-980.99999999827719
 31
0.0
  0
LINE
  5
356
100
AcDbEntity
  8
OBJECT
 62
               0
100
AcDbLine
 10
499.8826999971933
 20
-978.99999999827719
 30
0.0
 11
499.8826999971933
 21
-980.99999999827719
 31
0.0
  0
LINE
  5
357
100
AcDbEntity
  8
OBJECT
 62
               0
100
AcDbLine
 10
429.8826999971933
 20
-978.99999999827719
 30
0.0
 11
499.8826999971933
 21
-978.99999999827719
 31
0.0
  0
LINE
  5
358
100
AcDbEntity
  8
OBJECT
 62
               0
100
AcDbLine
 10
444.8826999971933
 20
-1008.9999999982772
 30
0.0
 11
484.8826999971933
 21
-1008.9999999982772
 31
0.0
  0
LINE
  5
359
100
AcDbEntity
  8
OBJECT
 62
               0
100
AcDbLine
 10
434.8826999971933
 20
-980.99999999827719
 30
0.0
 11
444.8826999971933
 21
-1008.9999999982772
 31
0.0
  0
LINE
  5
35A
100
AcDbEntity
  8
OBJECT
 62
               0
100
AcDbLine
 10
484.8826999971933
 20
-1008.9999999982772
 30
0.0
 11
494.8826999971933
 21
-980.99999999827719
 31
0.0
  0
LINE
  5
35B
100
AcDbEntity
  8
OBJECT
 62
               0
100
AcDbLine
 10
452.3826999971933
 20
-1028.9999999982772
 30
0.0
 11
477.3826999971933
 21
-1028.9999999982772
 31
0.0
  0
LINE
  5
35C
100
AcDbEntity
  8
OBJECT
 62
               0
100
AcDbLine
 10
447.3826999971933
 20
-1023.9999999982772
 30
0.0
 11
447.3826999971933
 21
-1008.9999999982772
 31
0.0
  0
LINE
  5
35D
100
AcDbEntity
  8
OBJECT
 62
               0
100
AcDbLine
 10
482.3826999971933
 20
-1023.9999999982772
 30
0.0
 11
482.3826999971933
 21
-1008.9999999982772
 31
0.0
  0
LINE
  5
35E
100
AcDbEntity
  8
CENTER
 62
               0
100
AcDbLine
 10
464.8826999971933
 20
-1038.9999999982772
 30
0.0
 11
464.8826999971933
 21
-978.99999999827719
 31
0.0
  0
ARC
  5
35F
100
AcDbEntity
  8
OBJECT
 62
               0
100
AcDbCircle
 10
452.3826999971933
 20
-1023.9999999982772
 30
0.0
 40
5.0
100
AcDbArc
 50
180.0
 51
270.0
  0
ARC
  5
360
100
AcDbEntity
  8
OBJECT
 62
               0
100
AcDbCircle
 10
477.3826999971933
 20
-1023.9999999982772
 30
0.0
 40
5.0
100
AcDbArc
 50
270.0
 51
0.0
  0
ENDBLK
  5
361
100
AcDbEntity
  8
OBJECT
100
AcDbBlockEnd
  0
BLOCK
  5
362
100
AcDbEntity
  8
DIMENTION
100
AcDbBlockBegin
  2
*D63
 70
               1
 10
0.0
 20
0.0
 30
0.0
  3
*D63
  1

  0
LINE
  5
363
100
AcDbEntity
  8
DIMENTION
 62
               0
100
AcDbLine
 10
-80.5
 20
-665.89999995937251
 30
0.0
 11
-80.5
 21
-765.79001800162519
 31
0.0
  0
LINE
  5
364
100
AcDbEntity
  8
DIMENTION
 62
               0
100
AcDbLine
 10
445.5
 20
-665.89999995937251
 30
0.0
 11
445.5
 21
-765.79001800162519
 31
0.0
  0
LINE
  5
365
100
AcDbEntity
  8
DIMENTION
 62
               0
100
AcDbLine
 10
-80.5
 20
-745.79001807613099
 30
0.0
 11
445.5
 21
-745.79001807613099
 31
0.0
  0
LINE
  5
366
100
AcDbEntity
  8
DIMENTION
 62
               0
100
AcDbLine
 10
-80.5
 20
-745.79001807613099
 30
0.0
 11
-48.75
 21
-737.28263121644295
 31
0.0
  0
LINE
  5
367
100
AcDbEntity
  8
DIMENTION
 62
               0
100
AcDbLine
 10
-80.5
 20
-745.79001807613099
 30
0.0
 11
-48.75
 21
-754.29740493581915
 31
0.0
  0
LINE
  5
368
100
AcDbEntity
  8
DIMENTION
 62
               0
100
AcDbLine
 10
445.5
 20
-745.79001807613099
 30
0.0
 11
413.75
 21
-754.29740493581915
 31
0.0
  0
LINE
  5
369
100
AcDbEntity
  8
DIMENTION
 62
               0
100
AcDbLine
 10
445.5
 20
-745.79001807613099
 30
0.0
 11
413.75
 21
-737.28263121644295
 31
0.0
  0
MTEXT
  5
36A
100
AcDbEntity
  8
DIMENTION
 62
               0
100
AcDbMText
 10
150.75
 20
-702.45668474652302
 30
0.0
 40
33.866666666666667
 41
0.0
 71
               1
 72
               1
  1
525
  7
________
  0
POINT
  5
36B
100
AcDbEntity
  8
DEFPOINTS
 62
               0
100
AcDbPoint
 10
445.5
 20
-655.89999999662541
 30
0.0
  0
POINT
  5
36C
100
AcDbEntity
  8
DEFPOINTS
 62
               0
100
AcDbPoint
 10
-80.5
 20
-655.89999999662541
 30
0.0
  0
POINT
  5
36D
100
AcDbEntity
  8
DEFPOINTS
 62
               0
100
AcDbPoint
 10
-80.5
 20
-745.79001807613099
 30
0.0
  0
ENDBLK
  5
36E
100
AcDbEntity
  8
DIMENTION
100
AcDbBlockEnd
  0
BLOCK
  5
36F
100
AcDbEntity
  8
DIMENTION
100
AcDbBlockBegin
  2
*D64
 70
               1
 10
0.0
 20
0.0
 30
0.0
  3
*D64
  1

  0
LINE
  5
370
100
AcDbEntity
  8
DIMENTION
 62
               0
100
AcDbLine
 10
-100.5
 20
-685.49999995937242
 30
0.0
 11
-100.5
 21
-821.79001800162519
 31
0.0
  0
LINE
  5
371
100
AcDbEntity
  8
DIMENTION
 62
               0
100
AcDbLine
 10
465.5
 20
-685.49999995937242
 30
0.0
 11
465.5
 21
-821.79001800162519
 31
0.0
  0
LINE
  5
372
100
AcDbEntity
  8
DIMENTION
 62
               0
100
AcDbLine
 10
-100.5
 20
-801.79001807613099
 30
0.0
 11
465.5
 21
-801.79001807613099
 31
0.0
  0
LINE
  5
373
100
AcDbEntity
  8
DIMENTION
 62
               0
100
AcDbLine
 10
-100.5
 20
-801.79001807613099
 30
0.0
 11
-68.75
 21
-793.28263121644295
 31
0.0
  0
LINE
  5
374
100
AcDbEntity
  8
DIMENTION
 62
               0
100
AcDbLine
 10
-100.5
 20
-801.79001807613099
 30
0.0
 11
-68.75
 21
-810.29740493581915
 31
0.0
  0
LINE
  5
375
100
AcDbEntity
  8
DIMENTION
 62
               0
100
AcDbLine
 10
465.5
 20
-801.79001807613099
 30
0.0
 11
433.75
 21
-810.29740493581915
 31
0.0
  0
LINE
  5
376
100
AcDbEntity
  8
DIMENTION
 62
               0
100
AcDbLine
 10
465.5
 20
-801.79001807613099
 30
0.0
 11
433.75
 21
-793.28263121644295
 31
0.0
  0
MTEXT
  5
377
100
AcDbEntity
  8
DIMENTION
 62
               0
100
AcDbMText
 10
150.75
 20
-758.45668474652302
 30
0.0
 40
33.866666666666667
 41
0.0
 71
               1
 72
               1
  1
565
  7
________
  0
POINT
  5
378
100
AcDbEntity
  8
DEFPOINTS
 62
               0
100
AcDbPoint
 10
465.5
 20
-675.49999999662532
 30
0.0
  0
POINT
  5
379
100
AcDbEntity
  8
DEFPOINTS
 62
               0
100
AcDbPoint
 10
-100.5
 20
-675.49999999662532
 30
0.0
  0
POINT
  5
37A
100
AcDbEntity
  8
DEFPOINTS
 62
               0
100
AcDbPoint
 10
-100.5
 20
-801.79001807613099
 30
0.0
  0
ENDBLK
  5
37B
100
AcDbEntity
  8
DIMENTION
100
AcDbBlockEnd
  0
BLOCK
  5
37C
100
AcDbEntity
  8
OBJECT
100
AcDbBlockBegin
  2
*U65
 70
               1
 10
0.0
 20
0.0
 30
0.0
  3
*U65
  1

  0
LINE
  5
37D
100
AcDbEntity
  8
OBJECT
  6
STYLE_07
 62
               0
100
AcDbLine
 10
-1331.6173000028066
 20
149.50000000509749
 30
0.0
 11
-1331.6173000028066
 21
589.50000000509749
 31
0.0
  0
LINE
  5
37E
100
AcDbEntity
  8
OBJECT
  6
STYLE_07
 62
               0
100
AcDbLine
 10
-861.61730000280659
 20
119.50000000509749
 30
0.0
 11
-1301.6173000028066
 21
119.50000000509749
 31
0.0
  0
LINE
  5
37F
100
AcDbEntity
  8
OBJECT
  6
STYLE_07
 62
               0
100
AcDbLine
 10
-831.61730000280659
 20
589.50000000509749
 30
0.0
 11
-831.61730000280659
 21
149.50000000509749
 31
0.0
  0
ARC
  5
380
100
AcDbEntity
  8
OBJECT
  6
STYLE_07
 62
               0
100
AcDbCircle
 10
-1301.6173000028066
 20
149.50000000509749
 30
0.0
 40
30.0
100
AcDbArc
 50
180.0
 51
270.0
  0
ARC
  5
381
100
AcDbEntity
  8
OBJECT
  6
STYLE_07
 62
               0
100
AcDbCircle
 10
-861.61730000280659
 20
149.50000000509749
 30
0.0
 40
30.0
100
AcDbArc
 50
270.0
 51
0.0
  0
LINE
  5
382
100
AcDbEntity
  8
OBJECT
  6
STYLE_07
 62
               0
100
AcDbLine
 10
-1311.6173000028066
 20
149.50000000509749
 30
0.0
 11
-1311.6173000028066
 21
589.50000000509749
 31
0.0
  0
LINE
  5
383
100
AcDbEntity
  8
OBJECT
  6
STYLE_07
 62
               0
100
AcDbLine
 10
-861.61730000280659
 20
139.50000000509749
 30
0.0
 11
-1301.6173000028066
 21
139.50000000509749
 31
0.0
  0
LINE
  5
384
100
AcDbEntity
  8
OBJECT
  6
STYLE_07
 62
               0
100
AcDbLine
 10
-851.61730000280659
 20
589.50000000509749
 30
0.0
 11
-851.61730000280659
 21
149.50000000509749
 31
0.0
  0
ARC
  5
385
100
AcDbEntity
  8
OBJECT
  6
STYLE_07
 62
               0
100
AcDbCircle
 10
-861.61730000280659
 20
149.50000000509749
 30
0.0
 40
10.0
100
AcDbArc
 50
270.0
 51
0.0
  0
ARC
  5
386
100
AcDbEntity
  8
OBJECT
  6
STYLE_07
 62
               0
100
AcDbCircle
 10
-1301.6173000028066
 20
149.50000000509749
 30
0.0
 40
10.0
100
AcDbArc
 50
180.0
 51
270.0
  0
ENDBLK
  5
387
100
AcDbEntity
  8
OBJECT
100
AcDbBlockEnd
  0
BLOCK
  5
388
100
AcDbEntity
  8
OBJECT
100
AcDbBlockBegin
  2
*U66
 70
               1
 10
0.0
 20
0.0
 30
0.0
  3
*U66
  1

  0
LINE
  5
389
100
AcDbEntity
  8
OBJECT
 62
               0
100
AcDbLine
 10
-1081.6173000028066
 20
97.50000000509749
 30
0.0
 11
-1361.6173000028066
 21
97.50000000509749
 31
0.0
  0
LINE
  5
38A
100
AcDbEntity
  8
OBJECT
 62
               0
100
AcDbLine
 10
-1344.6173000028066
 20
491.50000000509749
 30
0.0
 11
-1344.6173000028066
 21
120.1000000050974
 31
0.0
  0
LINE
  5
38B
100
AcDbEntity
  8
OBJECT
 62
               0
100
AcDbLine
 10
-1347.0173000028062
 20
491.50000000509749
 30
0.0
 11
-1347.0173000028062
 21
120.1000000050974
 31
0.0
  0
LINE
  5
38C
100
AcDbEntity
  8
OBJECT
 62
               0
100
AcDbLine
 10
-1364.6173000028066
 20
491.50000000509749
 30
0.0
 11
-1364.6173000028066
 21
100.50000000509749
 31
0.0
  0
LINE
  5
38D
100
AcDbEntity
  8
OBJECT
 62
               0
100
AcDbLine
 10
-1362.6173000028066
 20
491.50000000509749
 30
0.0
 11
-1362.6173000028066
 21
100.50000000509749
 31
0.0
  0
LINE
  5
38E
100
AcDbEntity
  8
OBJECT
 62
               0
100
AcDbLine
 10
-1081.6173000028066
 20
99.50000000509749
 30
0.0
 11
-1361.6173000028066
 21
99.50000000509749
 31
0.0
  0
LINE
  5
38F
100
AcDbEntity
  8
OBJECT
 62
               0
100
AcDbLine
 10
-1081.6173000028066
 20
119.50000000509749
 30
0.0
 11
-1344.0173000028062
 21
119.50000000509749
 31
0.0
  0
LINE
  5
390
100
AcDbEntity
  8
HIDDEN
 62
               0
100
AcDbLine
 10
-1081.6173000028066
 20
530.67647059332899
 30
0.0
 11
-1330.6173000028066
 21
530.67647059332899
 31
0.0
  0
LINE
  5
391
100
AcDbEntity
  8
HIDDEN
 62
               0
100
AcDbLine
 10
-1318.6173000028066
 20
517.00000000509749
 30
0.0
 11
-1338.6173000028066
 21
517.00000000509749
 31
0.0
  0
LINE
  5
392
100
AcDbEntity
  8
HIDDEN
 62
               0
100
AcDbLine
 10
-1335.6173000028066
 20
497.50000000509749
 30
0.0
 11
-1317.6173000028066
 21
497.50000000509749
 31
0.0
  0
LINE
  5
393
100
AcDbEntity
  8
OBJECT
 62
               0
100
AcDbLine
 10
-1081.6173000028066
 20
117.1000000050974
 30
0.0
 11
-1344.0173000028062
 21
117.1000000050974
 31
0.0
  0
LINE
  5
394
100
AcDbEntity
  8
HIDDEN
 62
               0
100
AcDbLine
 10
-1335.6173000028066
 20
504.50000000509749
 30
0.0
 11
-1335.6173000028066
 21
525.67647059332899
 31
0.0
  0
LINE
  5
395
100
AcDbEntity
  8
HIDDEN
 62
               0
100
AcDbLine
 10
-1081.6173000028066
 20
521.50000000509749
 30
0.0
 11
-1281.6173000028066
 21
521.50000000509749
 31
0.0
  0
LINE
  5
396
100
AcDbEntity
  8
HIDDEN
 62
               0
100
AcDbLine
 10
-1311.6173000028066
 20
521.50000000509749
 30
0.0
 11
-1335.6173000028066
 21
521.50000000509749
 31
0.0
  0
LINE
  5
397
100
AcDbEntity
  8
HIDDEN
 62
               0
100
AcDbLine
 10
-1342.1173000028066
 20
520.50000000509749
 30
0.0
 11
-1364.6173000028066
 21
520.50000000509749
 31
0.0
  0
LINE
  5
398
100
AcDbEntity
  8
HIDDEN
 62
               0
100
AcDbLine
 10
-1344.6173000028066
 20
516.50000000509749
 30
0.0
 11
-1361.6173000028066
 21
516.50000000509749
 31
0.0
  0
LINE
  5
399
100
AcDbEntity
  8
OBJECT
 62
               0
100
AcDbLine
 10
-1361.6173000028066
 20
491.50000000509749
 30
0.0
 11
-1361.6173000028066
 21
122.50000000509749
 31
0.0
  0
LINE
  5
39A
100
AcDbEntity
  8
OBJECT
 62
               0
100
AcDbLine
 10
-1338.6173000028066
 20
99.50000000509749
 30
0.0
 11
-1081.6173000028066
 21
99.50000000509749
 31
0.0
  0
ARC
  5
39B
100
AcDbEntity
  8
HIDDEN
 62
               0
100
AcDbCircle
 10
-1330.6173000028066
 20
525.67647059332899
 30
0.0
 40
5.0
100
AcDbArc
 50
90.0
 51
180.0
  0
LINE
  5
39C
100
AcDbEntity
  8
OBJECT
 62
               0
100
AcDbLine
 10
-1311.6173000028066
 20
491.50000000509749
 30
0.0
 11
-1311.6173000028066
 21
119.50000000509749
 31
0.0
  0
LINE
  5
39D
100
AcDbEntity
  8
OBJECT
 62
               0
100
AcDbLine
 10
-1281.6173000028066
 20
491.50000000509749
 30
0.0
 11
-1281.6173000028066
 21
119.50000000509749
 31
0.0
  0
LINE
  5
39E
100
AcDbEntity
  8
OBJECT
 62
               0
100
AcDbLine
 10
-1311.6173000028066
 20
262.50000000509749
 30
0.0
 11
-1281.6173000028066
 21
262.50000000509749
 31
0.0
  0
ARC
  5
39F
100
AcDbEntity
  8
HIDDEN
 62
               0
100
AcDbCircle
 10
-1306.6173000028066
 20
525.67647059332899
 30
0.0
 40
5.0
100
AcDbArc
 50
90.0
 51
180.0
  0
ARC
  5
3A0
100
AcDbEntity
  8
HIDDEN
 62
               0
100
AcDbCircle
 10
-1286.6173000028066
 20
525.67647059332899
 30
0.0
 40
5.0
100
AcDbArc
 50
0.0
 51
90.0
  0
LINE
  5
3A1
100
AcDbEntity
  8
OBJECT
 62
               0
100
AcDbLine
 10
-1311.6173000028066
 20
129.50000000509749
 30
0.0
 11
-1281.6173000028066
 21
129.50000000509749
 31
0.0
  0
LINE
  5
3A2
100
AcDbEntity
  8
HIDDEN
 62
               0
100
AcDbLine
 10
-1335.6173000028066
 20
517.00000000509749
 30
0.0
 11
-1275.6173000028066
 21
517.00000000509749
 31
0.0
  0
LINE
  5
3A3
100
AcDbEntity
  8
HIDDEN
 62
               0
100
AcDbLine
 10
-1335.6173000028066
 20
497.50000000509749
 30
0.0
 11
-1275.6173000028066
 21
497.50000000509749
 31
0.0
  0
LINE
  5
3A4
100
AcDbEntity
  8
HIDDEN
 62
               0
100
AcDbLine
 10
-1335.6173000028066
 20
504.50000000509749
 30
0.0
 11
-1275.6173000028066
 21
504.50000000509749
 31
0.0
  0
CIRCLE
  5
3A5
100
AcDbEntity
  8
HIDDEN
 62
               0
100
AcDbCircle
 10
-1327.6173000028066
 20
511.00000000509749
 30
0.0
 40
2.749999999999821
  0
CIRCLE
  5
3A6
100
AcDbEntity
  8
HIDDEN
 62
               0
100
AcDbCircle
 10
-1305.6173000028066
 20
511.00000000509749
 30
0.0
 40
2.749999999999821
  0
CIRCLE
  5
3A7
100
AcDbEntity
  8
HIDDEN
 62
               0
100
AcDbCircle
 10
-1283.6173000028066
 20
511.00000000509749
 30
0.0
 40
2.749999999999821
  0
ARC
  5
3A8
100
AcDbEntity
  8
OBJECT
 62
               0
100
AcDbCircle
 10
-1361.6173000028066
 20
100.50000000509749
 30
0.0
 40
3.0
100
AcDbArc
 50
180.0
 51
270.0
  0
ARC
  5
3A9
100
AcDbEntity
  8
OBJECT
 62
               0
100
AcDbCircle
 10
-1361.6173000028066
 20
100.50000000509749
 30
0.0
 40
1.0
100
AcDbArc
 50
180.0
 51
270.0
  0
LINE
  5
3AA
100
AcDbEntity
  8
OBJECT
 62
               0
100
AcDbLine
 10
-1341.6173000028066
 20
102.50000000509749
 30
0.0
 11
-1131.6173000028066
 21
102.50000000509749
 31
0.0
  0
LINE
  5
3AB
100
AcDbEntity
  8
OBJECT
 62
               0
100
AcDbLine
 10
-1341.6173000028066
 20
102.50000000509749
 30
0.0
 11
-1341.6173000028066
 21
117.1000000050974
 31
0.0
  0
LINE
  5
3AC
100
AcDbEntity
  8
OBJECT
 62
               0
100
AcDbLine
 10
-1347.0173000028062
 20
122.50000000509749
 30
0.0
 11
-1361.6173000028066
 21
122.50000000509749
 31
0.0
  0
ARC
  5
3AD
100
AcDbEntity
  8
OBJECT
 62
               0
100
AcDbCircle
 10
-1344.0173000028062
 20
120.1000000050974
 30
0.0
 40
0.6000000000003638
100
AcDbArc
 50
180.0
 51
270.0
  0
ARC
  5
3AE
100
AcDbEntity
  8
OBJECT
 62
               0
100
AcDbCircle
 10
-1344.0173000028062
 20
120.1000000050974
 30
0.0
 40
1.8000000000001819
100
AcDbArc
 50
180.0
 51
270.0
  0
LINE
  5
3AF
100
AcDbEntity
  8
HIDDEN
 62
               0
100
AcDbLine
 10
-1335.6173000028066
 20
504.50000000509749
 30
0.0
 11
-1342.1173000028066
 21
504.50000000509749
 31
0.0
  0
LINE
  5
3B0
100
AcDbEntity
  8
HIDDEN
 62
               0
100
AcDbLine
 10
-1342.1173000028066
 20
504.50000000509749
 30
0.0
 11
-1342.1173000028066
 21
520.50000000509749
 31
0.0
  0
LINE
  5
3B1
100
AcDbEntity
  8
HIDDEN
 62
               0
100
AcDbLine
 10
-1281.6173000028066
 20
522.00000000509749
 30
0.0
 11
-1311.6173000028066
 21
522.00000000509749
 31
0.0
  0
LINE
  5
3B2
100
AcDbEntity
  8
OBJECT
 62
               0
100
AcDbLine
 10
-1131.6173000028066
 20
113.50000000509749
 30
0.0
 11
-1081.6173000028061
 21
113.50000000509749
 31
0.0
  0
LINE
  5
3B3
100
AcDbEntity
  8
OBJECT
 62
               0
100
AcDbLine
 10
-1126.6173000028066
 20
103.50000000509749
 30
0.0
 11
-1126.6173000028066
 21
113.50000000509749
 31
0.0
  0
LINE
  5
3B4
100
AcDbEntity
  8
OBJECT
 62
               0
100
AcDbLine
 10
-1081.6173000028066
 20
103.50000000509749
 30
0.0
 11
-1126.6173000028066
 21
103.50000000509749
 31
0.0
  0
LINE
  5
3B5
100
AcDbEntity
  8
OBJECT
 62
               0
100
AcDbLine
 10
-1119.6173000028066
 20
103.50000000509749
 30
0.0
 11
-1119.6173000028066
 21
113.50000000509749
 31
0.0
  0
LINE
  5
3B6
100
AcDbEntity
  8
HIDDEN
 62
               0
100
AcDbLine
 10
-1117.8173000028064
 20
103.50000000509749
 30
0.0
 11
-1117.8173000028064
 21
113.50000000509749
 31
0.0
  0
LINE
  5
3B7
100
AcDbEntity
  8
OBJECT
 62
               0
100
AcDbLine
 10
-1131.6173000028066
 20
113.50000000509749
 30
0.0
 11
-1131.6173000028066
 21
102.50000000509749
 31
0.0
  0
ARC
  5
3B8
100
AcDbEntity
  8
OBJECT
 62
               0
100
AcDbCircle
 10
-1344.0173000028062
 20
120.1000000050974
 30
0.0
 40
3.0
100
AcDbArc
 50
180.0
 51
270.0
  0
LINE
  5
3B9
100
AcDbEntity
  8
HIDDEN
 62
               0
100
AcDbLine
 10
-1311.6173000028066
 20
131.50000000509749
 30
0.0
 11
-1281.6173000028066
 21
131.50000000509749
 31
0.0
  0
LINE
  5
3BA
100
AcDbEntity
  8
OBJECT
 62
               0
100
AcDbLine
 10
-1311.6173000028066
 20
154.50000000509749
 30
0.0
 11
-1281.6173000028066
 21
154.50000000509749
 31
0.0
  0
LINE
  5
3BB
100
AcDbEntity
  8
HIDDEN
 62
               0
100
AcDbLine
 10
-1270.6173000028066
 20
517.00000000509749
 30
0.0
 11
-1081.6173000028066
 21
517.00000000509749
 31
0.0
  0
LINE
  5
3BC
100
AcDbEntity
  8
HIDDEN
 62
               0
100
AcDbLine
 10
-1270.6173000028066
 20
505.00000000509749
 30
0.0
 11
-1270.6173000028066
 21
517.00000000509749
 31
0.0
  0
LINE
  5
3BD
100
AcDbEntity
  8
HIDDEN
 62
               0
100
AcDbLine
 10
-1081.6173000028066
 20
505.00000000509749
 30
0.0
 11
-1270.6173000028066
 21
505.00000000509749
 31
0.0
  0
LINE
  5
3BE
100
AcDbEntity
  8
OBJECT
 62
               0
100
AcDbLine
 10
-1081.6173000028066
 20
97.50000000509749
 30
0.0
 11
-801.61730000280659
 21
97.50000000509749
 31
0.0
  0
LINE
  5
3BF
100
AcDbEntity
  8
OBJECT
 62
               0
100
AcDbLine
 10
-818.61730000280659
 20
491.50000000509749
 30
0.0
 11
-818.61730000280659
 21
120.1000000050974
 31
0.0
  0
LINE
  5
3C0
100
AcDbEntity
  8
OBJECT
 62
               0
100
AcDbLine
 10
-816.21730000280695
 20
491.50000000509749
 30
0.0
 11
-816.21730000280695
 21
120.1000000050974
 31
0.0
  0
LINE
  5
3C1
100
AcDbEntity
  8
OBJECT
 62
               0
100
AcDbLine
 10
-798.61730000280659
 20
491.50000000509749
 30
0.0
 11
-798.61730000280659
 21
100.50000000509749
 31
0.0
  0
LINE
  5
3C2
100
AcDbEntity
  8
OBJECT
 62
               0
100
AcDbLine
 10
-800.61730000280659
 20
491.50000000509749
 30
0.0
 11
-800.61730000280659
 21
100.50000000509749
 31
0.0
  0
LINE
  5
3C3
100
AcDbEntity
  8
OBJECT
 62
               0
100
AcDbLine
 10
-1081.6173000028066
 20
99.50000000509749
 30
0.0
 11
-801.61730000280659
 21
99.50000000509749
 31
0.0
  0
LINE
  5
3C4
100
AcDbEntity
  8
OBJECT
 62
               0
100
AcDbLine
 10
-1081.6173000028066
 20
119.50000000509749
 30
0.0
 11
-819.21730000280695
 21
119.50000000509749
 31
0.0
  0
LINE
  5
3C5
100
AcDbEntity
  8
HIDDEN
 62
               0
100
AcDbLine
 10
-1081.6173000028066
 20
118.30000000509767
 30
0.0
 11
-819.21729667268573
 21
118.30000000509767
 31
0.0
  0
LINE
  5
3C6
100
AcDbEntity
  8
HIDDEN
 62
               0
100
AcDbLine
 10
-1081.6173000028066
 20
530.67647059332899
 30
0.0
 11
-832.61730000280659
 21
530.67647059332899
 31
0.0
  0
LINE
  5
3C7
100
AcDbEntity
  8
HIDDEN
 62
               0
100
AcDbLine
 10
-844.61730000280659
 20
517.00000000509749
 30
0.0
 11
-824.61730000280659
 21
517.00000000509749
 31
0.0
  0
LINE
  5
3C8
100
AcDbEntity
  8
HIDDEN
 62
               0
100
AcDbLine
 10
-827.61730000280659
 20
497.50000000509749
 30
0.0
 11
-845.61730000280659
 21
497.50000000509749
 31
0.0
  0
LINE
  5
3C9
100
AcDbEntity
  8
OBJECT
 62
               0
100
AcDbLine
 10
-1081.6173000028066
 20
117.1000000050974
 30
0.0
 11
-819.21730000280695
 21
117.1000000050974
 31
0.0
  0
LINE
  5
3CA
100
AcDbEntity
  8
HIDDEN
 62
               0
100
AcDbLine
 10
-827.61730000280659
 20
504.50000000509749
 30
0.0
 11
-827.61730000280659
 21
525.67647059332899
 31
0.0
  0
LINE
  5
3CB
100
AcDbEntity
  8
HIDDEN
 62
               0
100
AcDbLine
 10
-1081.6173000028066
 20
521.50000000509749
 30
0.0
 11
-881.61730000280659
 21
521.50000000509749
 31
0.0
  0
LINE
  5
3CC
100
AcDbEntity
  8
HIDDEN
 62
               0
100
AcDbLine
 10
-851.61730000280659
 20
521.50000000509749
 30
0.0
 11
-827.61730000280659
 21
521.50000000509749
 31
0.0
  0
LINE
  5
3CD
100
AcDbEntity
  8
HIDDEN
 62
               0
100
AcDbLine
 10
-821.11730000280659
 20
520.50000000509749
 30
0.0
 11
-798.61730000280659
 21
520.50000000509749
 31
0.0
  0
LINE
  5
3CE
100
AcDbEntity
  8
HIDDEN
 62
               0
100
AcDbLine
 10
-818.61730000280659
 20
516.50000000509749
 30
0.0
 11
-801.61730000280659
 21
516.50000000509749
 31
0.0
  0
LINE
  5
3CF
100
AcDbEntity
  8
OBJECT
 62
               0
100
AcDbLine
 10
-801.61730000280659
 20
491.50000000509749
 30
0.0
 11
-801.61730000280659
 21
122.50000000509749
 31
0.0
  0
LINE
  5
3D0
100
AcDbEntity
  8
OBJECT
 62
               0
100
AcDbLine
 10
-824.61730000280659
 20
99.50000000509749
 30
0.0
 11
-1081.6173000028066
 21
99.50000000509749
 31
0.0
  0
ARC
  5
3D1
100
AcDbEntity
  8
HIDDEN
 62
               0
100
AcDbCircle
 10
-832.61730000280659
 20
525.67647059332853
 30
0.0
 40
5.0
100
AcDbArc
 50
0.0
 51
90.0
  0
LINE
  5
3D2
100
AcDbEntity
  8
HIDDEN
 62
               0
100
AcDbLine
 10
-851.61730000280659
 20
525.67647059332899
 30
0.0
 11
-851.61730000280659
 21
503.50000000509749
 31
0.0
  0
LINE
  5
3D3
100
AcDbEntity
  8
HIDDEN
 62
               0
100
AcDbLine
 10
-851.61730000280659
 20
501.50000000509749
 30
0.0
 11
-851.61730000280659
 21
493.50000000509749
 31
0.0
  0
LINE
  5
3D4
100
AcDbEntity
  8
OBJECT
 62
               0
100
AcDbLine
 10
-851.61730000280659
 20
491.50000000509749
 30
0.0
 11
-851.61730000280659
 21
119.50000000509749
 31
0.0
  0
LINE
  5
3D5
100
AcDbEntity
  8
HIDDEN
 62
               0
100
AcDbLine
 10
-881.61730000280659
 20
525.67647059332899
 30
0.0
 11
-881.61730000280659
 21
503.50000000509749
 31
0.0
  0
LINE
  5
3D6
100
AcDbEntity
  8
HIDDEN
 62
               0
100
AcDbLine
 10
-881.61730000280659
 20
501.50000000509749
 30
0.0
 11
-881.61730000280659
 21
493.50000000509749
 31
0.0
  0
LINE
  5
3D7
100
AcDbEntity
  8
OBJECT
 62
               0
100
AcDbLine
 10
-881.61730000280659
 20
491.50000000509749
 30
0.0
 11
-881.61730000280659
 21
119.50000000509749
 31
0.0
  0
LINE
  5
3D8
100
AcDbEntity
  8
OBJECT
 62
               0
100
AcDbLine
 10
-851.61730000280659
 20
262.50000000509749
 30
0.0
 11
-881.61730000280659
 21
262.50000000509749
 31
0.0
  0
ARC
  5
3D9
100
AcDbEntity
  8
HIDDEN
 62
               0
100
AcDbCircle
 10
-856.61730000280659
 20
525.67647059332899
 30
0.0
 40
5.0
100
AcDbArc
 50
0.0
 51
90.0
  0
ARC
  5
3DA
100
AcDbEntity
  8
HIDDEN
 62
               0
100
AcDbCircle
 10
-876.61730000280659
 20
525.67647059332899
 30
0.0
 40
5.0
100
AcDbArc
 50
90.0
 51
180.0
  0
LINE
  5
3DB
100
AcDbEntity
  8
OBJECT
 62
               0
100
AcDbLine
 10
-851.61730000280659
 20
129.50000000509749
 30
0.0
 11
-881.61730000280659
 21
129.50000000509749
 31
0.0
  0
LINE
  5
3DC
100
AcDbEntity
  8
HIDDEN
 62
               0
100
AcDbLine
 10
-827.61730000280659
 20
517.00000000509749
 30
0.0
 11
-887.61730000280659
 21
517.00000000509749
 31
0.0
  0
LINE
  5
3DD
100
AcDbEntity
  8
HIDDEN
 62
               0
100
AcDbLine
 10
-827.61730000280659
 20
497.50000000509749
 30
0.0
 11
-887.61730000280659
 21
497.50000000509749
 31
0.0
  0
LINE
  5
3DE
100
AcDbEntity
  8
HIDDEN
 62
               0
100
AcDbLine
 10
-827.61730000280659
 20
504.50000000509749
 30
0.0
 11
-887.61730000280659
 21
504.50000000509749
 31
0.0
  0
LINE
  5
3DF
100
AcDbEntity
  8
HIDDEN
 62
               0
100
AcDbLine
 10
-887.61730000280659
 20
497.50000000509749
 30
0.0
 11
-887.61730000280659
 21
517.00000000509749
 31
0.0
  0
CIRCLE
  5
3E0
100
AcDbEntity
  8
HIDDEN
 62
               0
100
AcDbCircle
 10
-835.61730000280659
 20
511.00000000509749
 30
0.0
 40
2.749999999999821
  0
CIRCLE
  5
3E1
100
AcDbEntity
  8
HIDDEN
 62
               0
100
AcDbCircle
 10
-857.61730000280659
 20
511.00000000509749
 30
0.0
 40
2.749999999999821
  0
CIRCLE
  5
3E2
100
AcDbEntity
  8
HIDDEN
 62
               0
100
AcDbCircle
 10
-879.61730000280659
 20
511.00000000509749
 30
0.0
 40
2.749999999999821
  0
ARC
  5
3E3
100
AcDbEntity
  8
OBJECT
 62
               0
100
AcDbCircle
 10
-801.61730000280659
 20
100.50000000509749
 30
0.0
 40
3.0
100
AcDbArc
 50
270.0
 51
0.0
  0
ARC
  5
3E4
100
AcDbEntity
  8
OBJECT
 62
               0
100
AcDbCircle
 10
-801.61730000280659
 20
100.50000000509749
 30
0.0
 40
1.0
100
AcDbArc
 50
270.0
 51
0.0
  0
LINE
  5
3E5
100
AcDbEntity
  8
OBJECT
 62
               0
100
AcDbLine
 10
-821.61730000280659
 20
102.50000000509749
 30
0.0
 11
-1031.6173000028066
 21
102.50000000509749
 31
0.0
  0
LINE
  5
3E6
100
AcDbEntity
  8
OBJECT
 62
               0
100
AcDbLine
 10
-821.61730000280659
 20
102.50000000509749
 30
0.0
 11
-821.61730000280659
 21
117.1000000050974
 31
0.0
  0
LINE
  5
3E7
100
AcDbEntity
  8
OBJECT
 62
               0
100
AcDbLine
 10
-816.21730000280695
 20
122.50000000509749
 30
0.0
 11
-801.61730000280659
 21
122.50000000509749
 31
0.0
  0
ARC
  5
3E8
100
AcDbEntity
  8
OBJECT
 62
               0
100
AcDbCircle
 10
-819.21730000280695
 20
120.1000000050974
 30
0.0
 40
0.5999999999999091
100
AcDbArc
 50
270.0
 51
0.0
  0
ARC
  5
3E9
100
AcDbEntity
  8
OBJECT
 62
               0
100
AcDbCircle
 10
-819.21730000280695
 20
120.1000000050974
 30
0.0
 40
1.8000000000001819
100
AcDbArc
 50
270.0
 51
0.0
  0
LINE
  5
3EA
100
AcDbEntity
  8
HIDDEN
 62
               0
100
AcDbLine
 10
-827.61730000280659
 20
504.50000000509749
 30
0.0
 11
-821.11730000280659
 21
504.50000000509749
 31
0.0
  0
LINE
  5
3EB
100
AcDbEntity
  8
HIDDEN
 62
               0
100
AcDbLine
 10
-821.11730000280659
 20
504.50000000509749
 30
0.0
 11
-821.11730000280659
 21
520.50000000509749
 31
0.0
  0
LINE
  5
3EC
100
AcDbEntity
  8
HIDDEN
 62
               0
100
AcDbLine
 10
-881.61730000280659
 20
522.00000000509749
 30
0.0
 11
-851.61730000280659
 21
522.00000000509749
 31
0.0
  0
LINE
  5
3ED
100
AcDbEntity
  8
OBJECT
 62
               0
100
AcDbLine
 10
-1031.6173000028066
 20
113.50000000509749
 30
0.0
 11
-1081.617300002807
 21
113.50000000509749
 31
0.0
  0
LINE
  5
3EE
100
AcDbEntity
  8
OBJECT
 62
               0
100
AcDbLine
 10
-1036.6173000028066
 20
103.50000000509749
 30
0.0
 11
-1036.6173000028066
 21
113.50000000509749
 31
0.0
  0
LINE
  5
3EF
100
AcDbEntity
  8
OBJECT
 62
               0
100
AcDbLine
 10
-1081.6173000028066
 20
103.50000000509749
 30
0.0
 11
-1036.6173000028066
 21
103.50000000509749
 31
0.0
  0
LINE
  5
3F0
100
AcDbEntity
  8
OBJECT
 62
               0
100
AcDbLine
 10
-1043.6173000028066
 20
103.50000000509749
 30
0.0
 11
-1043.6173000028066
 21
113.50000000509749
 31
0.0
  0
LINE
  5
3F1
100
AcDbEntity
  8
HIDDEN
 62
               0
100
AcDbLine
 10
-1045.4173000028068
 20
103.50000000509749
 30
0.0
 11
-1045.4173000028068
 21
113.50000000509749
 31
0.0
  0
LINE
  5
3F2
100
AcDbEntity
  8
OBJECT
 62
               0
100
AcDbLine
 10
-1031.6173000028066
 20
113.50000000509749
 30
0.0
 11
-1031.6173000028066
 21
102.50000000509749
 31
0.0
  0
ARC
  5
3F3
100
AcDbEntity
  8
OBJECT
 62
               0
100
AcDbCircle
 10
-819.21730000280695
 20
120.1000000050974
 30
0.0
 40
3.0
100
AcDbArc
 50
270.0
 51
0.0
  0
LINE
  5
3F4
100
AcDbEntity
  8
HIDDEN
 62
               0
100
AcDbLine
 10
-851.61730000280659
 20
131.50000000509749
 30
0.0
 11
-881.61730000280659
 21
131.50000000509749
 31
0.0
  0
LINE
  5
3F5
100
AcDbEntity
  8
OBJECT
 62
               0
100
AcDbLine
 10
-851.61730000280659
 20
154.50000000509749
 30
0.0
 11
-881.61730000280659
 21
154.50000000509749
 31
0.0
  0
LINE
  5
3F6
100
AcDbEntity
  8
HIDDEN
 62
               0
100
AcDbLine
 10
-892.61730000280659
 20
517.00000000509749
 30
0.0
 11
-1081.6173000028066
 21
517.00000000509749
 31
0.0
  0
LINE
  5
3F7
100
AcDbEntity
  8
HIDDEN
 62
               0
100
AcDbLine
 10
-892.61730000280659
 20
505.00000000509749
 30
0.0
 11
-892.61730000280659
 21
517.00000000509749
 31
0.0
  0
LINE
  5
3F8
100
AcDbEntity
  8
HIDDEN
 62
               0
100
AcDbLine
 10
-1081.6173000028066
 20
505.00000000509749
 30
0.0
 11
-892.61730000280659
 21
505.00000000509749
 31
0.0
  0
POLYLINE
  5
3F9
100
AcDbEntity
  8
HIDDEN
 62
               0
100
AcDb2dPolyline
 66
               1
 10
0.0
 20
0.0
 30
0.0
 75
               5
  0
VERTEX
  5
3FA
100
AcDbEntity
  8
HIDDEN
 62
               0
100
AcDbVertex
100
AcDb2dVertex
 10
-1364.6173000028066
 20
520.50000000509749
 30
0.0
  0
VERTEX
  5
3FB
100
AcDbEntity
  8
HIDDEN
 62
               0
100
AcDbVertex
100
AcDb2dVertex
 10
-1364.6173000028066
 20
501.50000000509749
 30
0.0
  0
VERTEX
  5
3FC
100
AcDbEntity
  8
HIDDEN
 62
               0
100
AcDbVertex
100
AcDb2dVertex
 10
-1364.6173000028066
 20
493.50000000509749
 30
0.0
  0
SEQEND
  5
3FD
100
AcDbEntity
  8
HIDDEN
 62
               0
  0
POLYLINE
  5
3FE
100
AcDbEntity
  8
HIDDEN
 62
               0
100
AcDb2dPolyline
 66
               1
 10
0.0
 20
0.0
 30
0.0
 75
               5
  0
VERTEX
  5
3FF
100
AcDbEntity
  8
HIDDEN
 62
               0
100
AcDbVertex
100
AcDb2dVertex
 10
-1362.6173000028066
 20
520.50000000509749
 30
0.0
  0
VERTEX
  5
400
100
AcDbEntity
  8
HIDDEN
 62
               0
100
AcDbVertex
100
AcDb2dVertex
 10
-1362.6173000028066
 20
501.50000000509749
 30
0.0
  0
VERTEX
  5
401
100
AcDbEntity
  8
HIDDEN
 62
               0
100
AcDbVertex
100
AcDb2dVertex
 10
-1362.6173000028066
 20
493.50000000509749
 30
0.0
  0
SEQEND
  5
402
100
AcDbEntity
  8
HIDDEN
 62
               0
  0
POLYLINE
  5
403
100
AcDbEntity
  8
HIDDEN
 62
               0
100
AcDb2dPolyline
 66
               1
 10
0.0
 20
0.0
 30
0.0
 75
               5
  0
VERTEX
  5
404
100
AcDbEntity
  8
HIDDEN
 62
               0
100
AcDbVertex
100
AcDb2dVertex
 10
-1361.6173000028066
 20
516.50000000509749
 30
0.0
  0
VERTEX
  5
405
100
AcDbEntity
  8
HIDDEN
 62
               0
100
AcDbVertex
100
AcDb2dVertex
 10
-1361.6173000028066
 20
501.50000000509749
 30
0.0
  0
VERTEX
  5
406
100
AcDbEntity
  8
HIDDEN
 62
               0
100
AcDbVertex
100
AcDb2dVertex
 10
-1361.6173000028066
 20
493.50000000509749
 30
0.0
  0
SEQEND
  5
407
100
AcDbEntity
  8
HIDDEN
 62
               0
  0
POLYLINE
  5
408
100
AcDbEntity
  8
HIDDEN
 62
               0
100
AcDb2dPolyline
 66
               1
 10
0.0
 20
0.0
 30
0.0
 75
               5
  0
VERTEX
  5
409
100
AcDbEntity
  8
HIDDEN
 62
               0
100
AcDbVertex
100
AcDb2dVertex
 10
-1347.0173000028062
 20
516.50000000509749
 30
0.0
  0
VERTEX
  5
40A
100
AcDbEntity
  8
HIDDEN
 62
               0
100
AcDbVertex
100
AcDb2dVertex
 10
-1347.0173000028062
 20
501.50000000509749
 30
0.0
  0
VERTEX
  5
40B
100
AcDbEntity
  8
HIDDEN
 62
               0
100
AcDbVertex
100
AcDb2dVertex
 10
-1347.0173000028062
 20
493.50000000509749
 30
0.0
  0
SEQEND
  5
40C
100
AcDbEntity
  8
HIDDEN
 62
               0
  0
POLYLINE
  5
40D
100
AcDbEntity
  8
HIDDEN
 62
               0
100
AcDb2dPolyline
 66
               1
 10
0.0
 20
0.0
 30
0.0
 75
               5
  0
VERTEX
  5
40E
100
AcDbEntity
  8
HIDDEN
 62
               0
100
AcDbVertex
100
AcDb2dVertex
 10
-1344.6173000028066
 20
516.50000000509749
 30
0.0
  0
VERTEX
  5
40F
100
AcDbEntity
  8
HIDDEN
 62
               0
100
AcDbVertex
100
AcDb2dVertex
 10
-1344.6173000028066
 20
501.50000000509749
 30
0.0
  0
VERTEX
  5
410
100
AcDbEntity
  8
HIDDEN
 62
               0
100
AcDbVertex
100
AcDb2dVertex
 10
-1344.6173000028066
 20
493.50000000509749
 30
0.0
  0
SEQEND
  5
411
100
AcDbEntity
  8
HIDDEN
 62
               0
  0
POLYLINE
  5
412
100
AcDbEntity
  8
HIDDEN
 62
               0
100
AcDb2dPolyline
 66
               1
 10
0.0
 20
0.0
 30
0.0
 75
               5
  0
VERTEX
  5
413
100
AcDbEntity
  8
HIDDEN
 62
               0
100
AcDbVertex
100
AcDb2dVertex
 10
-1335.6173000028066
 20
497.50000000509749
 30
0.0
  0
VERTEX
  5
414
100
AcDbEntity
  8
HIDDEN
 62
               0
100
AcDbVertex
100
AcDb2dVertex
 10
-1335.6173000028066
 20
501.50000000509749
 30
0.0
  0
VERTEX
  5
415
100
AcDbEntity
  8
HIDDEN
 62
               0
100
AcDbVertex
100
AcDb2dVertex
 10
-1335.6173000028066
 20
517.00000000509749
 30
0.0
  0
SEQEND
  5
416
100
AcDbEntity
  8
HIDDEN
 62
               0
  0
POLYLINE
  5
417
100
AcDbEntity
  8
HIDDEN
 62
               0
100
AcDb2dPolyline
 66
               1
 10
0.0
 20
0.0
 30
0.0
 75
               5
  0
VERTEX
  5
418
100
AcDbEntity
  8
HIDDEN
 62
               0
100
AcDbVertex
100
AcDb2dVertex
 10
-1311.6173000028066
 20
525.67647059332899
 30
0.0
  0
VERTEX
  5
419
100
AcDbEntity
  8
HIDDEN
 62
               0
100
AcDbVertex
100
AcDb2dVertex
 10
-1311.6173000028066
 20
501.50000000509749
 30
0.0
  0
VERTEX
  5
41A
100
AcDbEntity
  8
HIDDEN
 62
               0
100
AcDbVertex
100
AcDb2dVertex
 10
-1311.6173000028066
 20
493.50000000509749
 30
0.0
  0
SEQEND
  5
41B
100
AcDbEntity
  8
HIDDEN
 62
               0
  0
POLYLINE
  5
41C
100
AcDbEntity
  8
HIDDEN
 62
               0
100
AcDb2dPolyline
 66
               1
 10
0.0
 20
0.0
 30
0.0
 75
               5
  0
VERTEX
  5
41D
100
AcDbEntity
  8
HIDDEN
 62
               0
100
AcDbVertex
100
AcDb2dVertex
 10
-1281.6173000028066
 20
525.67647059332899
 30
0.0
  0
VERTEX
  5
41E
100
AcDbEntity
  8
HIDDEN
 62
               0
100
AcDbVertex
100
AcDb2dVertex
 10
-1281.6173000028066
 20
501.50000000509749
 30
0.0
  0
VERTEX
  5
41F
100
AcDbEntity
  8
HIDDEN
 62
               0
100
AcDbVertex
100
AcDb2dVertex
 10
-1281.6173000028066
 20
493.50000000509749
 30
0.0
  0
SEQEND
  5
420
100
AcDbEntity
  8
HIDDEN
 62
               0
  0
POLYLINE
  5
421
100
AcDbEntity
  8
HIDDEN
 62
               0
100
AcDb2dPolyline
 66
               1
 10
0.0
 20
0.0
 30
0.0
 75
               5
  0
VERTEX
  5
422
100
AcDbEntity
  8
HIDDEN
 62
               0
100
AcDbVertex
100
AcDb2dVertex
 10
-1275.6173000028066
 20
497.50000000509749
 30
0.0
  0
VERTEX
  5
423
100
AcDbEntity
  8
HIDDEN
 62
               0
100
AcDbVertex
100
AcDb2dVertex
 10
-1275.6173000028066
 20
501.50000000509749
 30
0.0
  0
VERTEX
  5
424
100
AcDbEntity
  8
HIDDEN
 62
               0
100
AcDbVertex
100
AcDb2dVertex
 10
-1275.6173000028066
 20
517.00000000509749
 30
0.0
  0
SEQEND
  5
425
100
AcDbEntity
  8
HIDDEN
 62
               0
  0
POLYLINE
  5
426
100
AcDbEntity
  8
HIDDEN
 62
               0
100
AcDb2dPolyline
 66
               1
 10
0.0
 20
0.0
 30
0.0
 75
               5
  0
VERTEX
  5
427
100
AcDbEntity
  8
HIDDEN
 62
               0
100
AcDbVertex
100
AcDb2dVertex
 10
-827.61730000280659
 20
497.50000000509749
 30
0.0
  0
VERTEX
  5
428
100
AcDbEntity
  8
HIDDEN
 62
               0
100
AcDbVertex
100
AcDb2dVertex
 10
-827.61730000280659
 20
501.50000000509749
 30
0.0
  0
VERTEX
  5
429
100
AcDbEntity
  8
HIDDEN
 62
               0
100
AcDbVertex
100
AcDb2dVertex
 10
-827.61730000280659
 20
517.00000000509749
 30
0.0
  0
SEQEND
  5
42A
100
AcDbEntity
  8
HIDDEN
 62
               0
  0
POLYLINE
  5
42B
100
AcDbEntity
  8
HIDDEN
 62
               0
100
AcDb2dPolyline
 66
               1
 10
0.0
 20
0.0
 30
0.0
 75
               5
  0
VERTEX
  5
42C
100
AcDbEntity
  8
HIDDEN
 62
               0
100
AcDbVertex
100
AcDb2dVertex
 10
-818.61730000280659
 20
516.50000000509749
 30
0.0
  0
VERTEX
  5
42D
100
AcDbEntity
  8
HIDDEN
 62
               0
100
AcDbVertex
100
AcDb2dVertex
 10
-818.61730000280659
 20
501.50000000509749
 30
0.0
  0
VERTEX
  5
42E
100
AcDbEntity
  8
HIDDEN
 62
               0
100
AcDbVertex
100
AcDb2dVertex
 10
-818.61730000280659
 20
493.50000000509749
 30
0.0
  0
SEQEND
  5
42F
100
AcDbEntity
  8
HIDDEN
 62
               0
  0
POLYLINE
  5
430
100
AcDbEntity
  8
HIDDEN
 62
               0
100
AcDb2dPolyline
 66
               1
 10
0.0
 20
0.0
 30
0.0
 75
               5
  0
VERTEX
  5
431
100
AcDbEntity
  8
HIDDEN
 62
               0
100
AcDbVertex
100
AcDb2dVertex
 10
-816.21730000280695
 20
516.50000000509749
 30
0.0
  0
VERTEX
  5
432
100
AcDbEntity
  8
HIDDEN
 62
               0
100
AcDbVertex
100
AcDb2dVertex
 10
-816.21730000280695
 20
501.50000000509749
 30
0.0
  0
VERTEX
  5
433
100
AcDbEntity
  8
HIDDEN
 62
               0
100
AcDbVertex
100
AcDb2dVertex
 10
-816.21730000280695
 20
493.50000000509749
 30
0.0
  0
SEQEND
  5
434
100
AcDbEntity
  8
HIDDEN
 62
               0
  0
POLYLINE
  5
435
100
AcDbEntity
  8
HIDDEN
 62
               0
100
AcDb2dPolyline
 66
               1
 10
0.0
 20
0.0
 30
0.0
 75
               5
  0
VERTEX
  5
436
100
AcDbEntity
  8
HIDDEN
 62
               0
100
AcDbVertex
100
AcDb2dVertex
 10
-801.61730000280659
 20
516.50000000509749
 30
0.0
  0
VERTEX
  5
437
100
AcDbEntity
  8
HIDDEN
 62
               0
100
AcDbVertex
100
AcDb2dVertex
 10
-801.61730000280659
 20
501.50000000509749
 30
0.0
  0
VERTEX
  5
438
100
AcDbEntity
  8
HIDDEN
 62
               0
100
AcDbVertex
100
AcDb2dVertex
 10
-801.61730000280659
 20
493.50000000509749
 30
0.0
  0
SEQEND
  5
439
100
AcDbEntity
  8
HIDDEN
 62
               0
  0
POLYLINE
  5
43A
100
AcDbEntity
  8
HIDDEN
 62
               0
100
AcDb2dPolyline
 66
               1
 10
0.0
 20
0.0
 30
0.0
 75
               5
  0
VERTEX
  5
43B
100
AcDbEntity
  8
HIDDEN
 62
               0
100
AcDbVertex
100
AcDb2dVertex
 10
-800.61730000280659
 20
520.50000000509749
 30
0.0
  0
VERTEX
  5
43C
100
AcDbEntity
  8
HIDDEN
 62
               0
100
AcDbVertex
100
AcDb2dVertex
 10
-800.61730000280659
 20
501.50000000509749
 30
0.0
  0
VERTEX
  5
43D
100
AcDbEntity
  8
HIDDEN
 62
               0
100
AcDbVertex
100
AcDb2dVertex
 10
-800.61730000280659
 20
493.50000000509749
 30
0.0
  0
SEQEND
  5
43E
100
AcDbEntity
  8
HIDDEN
 62
               0
  0
POLYLINE
  5
43F
100
AcDbEntity
  8
HIDDEN
 62
               0
100
AcDb2dPolyline
 66
               1
 10
0.0
 20
0.0
 30
0.0
 75
               5
  0
VERTEX
  5
440
100
AcDbEntity
  8
HIDDEN
 62
               0
100
AcDbVertex
100
AcDb2dVertex
 10
-798.61730000280659
 20
520.50000000509749
 30
0.0
  0
VERTEX
  5
441
100
AcDbEntity
  8
HIDDEN
 62
               0
100
AcDbVertex
100
AcDb2dVertex
 10
-798.61730000280659
 20
501.50000000509749
 30
0.0
  0
VERTEX
  5
442
100
AcDbEntity
  8
HIDDEN
 62
               0
100
AcDbVertex
100
AcDb2dVertex
 10
-798.61730000280659
 20
493.50000000509749
 30
0.0
  0
SEQEND
  5
443
100
AcDbEntity
  8
HIDDEN
 62
               0
  0
ENDBLK
  5
444
100
AcDbEntity
  8
OBJECT
100
AcDbBlockEnd
  0
BLOCK
  5
445
100
AcDbEntity
  8
OBJECT
100
AcDbBlockBegin
  2
*U67
 70
               1
 10
0.0
 20
0.0
 30
0.0
  3
*U67
  1

  0
LINE
  5
446
100
AcDbEntity
  8
OBJECT
 62
               0
100
AcDbLine
 10
459.8826999971933
 20
-808.99999999827719
 30
0.0
 11
519.8826999971933
 21
-808.99999999827719
 31
0.0
  0
ARC
  5
447
100
AcDbEntity
  8
OBJECT
 62
               0
100
AcDbCircle
 10
465.8826999971933
 20
-808.99999999827719
 30
0.0
 40
6.0
100
AcDbArc
 50
180.0
 51
270.0
  0
ARC
  5
448
100
AcDbEntity
  8
OBJECT
 62
               0
100
AcDbCircle
 10
513.8826999971933
 20
-808.99999999827719
 30
0.0
 40
6.0
100
AcDbArc
 50
270.0
 51
0.0
  0
LINE
  5
449
100
AcDbEntity
  8
OBJECT
 62
               0
100
AcDbLine
 10
465.8826999971933
 20
-814.99999999827719
 30
0.0
 11
513.8826999971933
 21
-814.99999999827719
 31
0.0
  0
ENDBLK
  5
44A
100
AcDbEntity
  8
OBJECT
100
AcDbBlockEnd
  0
BLOCK
  5
44B
100
AcDbEntity
  8
OBJECT
100
AcDbBlockBegin
  2
*U68
 70
               1
 10
0.0
 20
0.0
 30
0.0
  3
*U68
  1

  0
LINE
  5
44C
100
AcDbEntity
  8
OBJECT
 62
               0
100
AcDbLine
 10
459.8826999971933
 20
-823.99999999827719
 30
0.0
 11
519.8826999971933
 21
-823.99999999827719
 31
0.0
  0
ARC
  5
44D
100
AcDbEntity
  8
OBJECT
 62
               0
100
AcDbCircle
 10
465.8826999971933
 20
-823.99999999827719
 30
0.0
 40
6.0
100
AcDbArc
 50
180.0
 51
270.0
  0
ARC
  5
44E
100
AcDbEntity
  8
OBJECT
 62
               0
100
AcDbCircle
 10
513.8826999971933
 20
-823.99999999827719
 30
0.0
 40
6.0
100
AcDbArc
 50
270.0
 51
0.0
  0
LINE
  5
44F
100
AcDbEntity
  8
OBJECT
 62
               0
100
AcDbLine
 10
465.8826999971933
 20
-829.99999999827719
 30
0.0
 11
513.8826999971933
 21
-829.99999999827719
 31
0.0
  0
ENDBLK
  5
450
100
AcDbEntity
  8
OBJECT
100
AcDbBlockEnd
  0
BLOCK
  5
451
100
AcDbEntity
  8
OBJECT
100
AcDbBlockBegin
  2
*U69
 70
               1
 10
0.0
 20
0.0
 30
0.0
  3
*U69
  1

  0
LINE
  5
452
100
AcDbEntity
  8
OBJECT
 62
               0
100
AcDbLine
 10
459.8826999971933
 20
-838.99999999827719
 30
0.0
 11
519.8826999971933
 21
-838.99999999827719
 31
0.0
  0
ARC
  5
453
100
AcDbEntity
  8
OBJECT
 62
               0
100
AcDbCircle
 10
465.8826999971933
 20
-838.99999999827719
 30
0.0
 40
6.0
100
AcDbArc
 50
180.0
 51
270.0
  0
ARC
  5
454
100
AcDbEntity
  8
OBJECT
 62
               0
100
AcDbCircle
 10
513.8826999971933
 20
-838.99999999827719
 30
0.0
 40
6.0
100
AcDbArc
 50
270.0
 51
0.0
  0
LINE
  5
455
100
AcDbEntity
  8
OBJECT
 62
               0
100
AcDbLine
 10
465.8826999971933
 20
-844.99999999827719
 30
0.0
 11
513.8826999971933
 21
-844.99999999827719
 31
0.0
  0
ENDBLK
  5
456
100
AcDbEntity
  8
OBJECT
100
AcDbBlockEnd
  0
BLOCK
  5
457
100
AcDbEntity
  8
OBJECT
100
AcDbBlockBegin
  2
*U70
 70
               1
 10
0.0
 20
0.0
 30
0.0
  3
*U70
  1

  0
LINE
  5
458
100
AcDbEntity
  8
OBJECT
 62
               0
100
AcDbLine
 10
459.8826999971933
 20
-853.99999999827719
 30
0.0
 11
519.8826999971933
 21
-853.99999999827719
 31
0.0
  0
ARC
  5
459
100
AcDbEntity
  8
OBJECT
 62
               0
100
AcDbCircle
 10
465.8826999971933
 20
-853.99999999827719
 30
0.0
 40
6.0
100
AcDbArc
 50
180.0
 51
270.0
  0
ARC
  5
45A
100
AcDbEntity
  8
OBJECT
 62
               0
100
AcDbCircle
 10
513.8826999971933
 20
-853.99999999827719
 30
0.0
 40
6.0
100
AcDbArc
 50
270.0
 51
0.0
  0
LINE
  5
45B
100
AcDbEntity
  8
OBJECT
 62
               0
100
AcDbLine
 10
465.8826999971933
 20
-859.99999999827719
 30
0.0
 11
513.8826999971933
 21
-859.99999999827719
 31
0.0
  0
ENDBLK
  5
45C
100
AcDbEntity
  8
OBJECT
100
AcDbBlockEnd
  0
BLOCK
  5
45D
100
AcDbEntity
  8
OBJECT
100
AcDbBlockBegin
  2
*U71
 70
               1
 10
0.0
 20
0.0
 30
0.0
  3
*U71
  1

  0
POLYLINE
  5
45E
100
AcDbEntity
  8
OBJECT
  6
STYLE_07
 62
               0
100
AcDb2dPolyline
 66
               1
 10
0.0
 20
0.0
 30
0.0
 70
               1
 75
               5
  0
VERTEX
  5
45F
100
AcDbEntity
  8
OBJECT
  6
STYLE_07
 62
               0
100
AcDbVertex
100
AcDb2dVertex
 10
-1331.6173000028066
 20
-548.99999999827719
 30
0.0
  0
VERTEX
  5
460
100
AcDbEntity
  8
OBJECT
  6
STYLE_07
 62
               0
100
AcDbVertex
100
AcDb2dVertex
 10
-831.61730000280659
 20
-548.99999999827719
 30
0.0
  0
VERTEX
  5
461
100
AcDbEntity
  8
OBJECT
  6
STYLE_07
 62
               0
100
AcDbVertex
100
AcDb2dVertex
 10
-831.61730000280659
 20
-648.99999999827719
 30
0.0
  0
VERTEX
  5
462
100
AcDbEntity
  8
OBJECT
  6
STYLE_07
 62
               0
100
AcDbVertex
100
AcDb2dVertex
 10
-1331.6173000028066
 20
-648.99999999827719
 30
0.0
  0
SEQEND
  5
463
100
AcDbEntity
  8
OBJECT
  6
STYLE_07
 62
               0
  0
POLYLINE
  5
464
100
AcDbEntity
  8
OBJECT
  6
STYLE_07
 62
               0
100
AcDb2dPolyline
 66
               1
 10
0.0
 20
0.0
 30
0.0
 70
               1
 75
               5
  0
VERTEX
  5
465
100
AcDbEntity
  8
OBJECT
  6
STYLE_07
 62
               0
100
AcDbVertex
100
AcDb2dVertex
 10
-1311.6173000028066
 20
-288.99999999827719
 30
0.0
  0
VERTEX
  5
466
100
AcDbEntity
  8
OBJECT
  6
STYLE_07
 62
               0
100
AcDbVertex
100
AcDb2dVertex
 10
-851.61730000280659
 20
-288.99999999827719
 30
0.0
  0
VERTEX
  5
467
100
AcDbEntity
  8
OBJECT
  6
STYLE_07
 62
               0
100
AcDbVertex
100
AcDb2dVertex
 10
-851.61730000280659
 20
-628.99999999827719
 30
0.0
  0
VERTEX
  5
468
100
AcDbEntity
  8
OBJECT
  6
STYLE_07
 62
               0
100
AcDbVertex
100
AcDb2dVertex
 10
-1311.6173000028066
 20
-628.99999999827719
 30
0.0
  0
SEQEND
  5
469
100
AcDbEntity
  8
OBJECT
  6
STYLE_07
 62
               0
  0
ENDBLK
  5
46A
100
AcDbEntity
  8
OBJECT
100
AcDbBlockEnd
  0
BLOCK
  5
46B
100
AcDbEntity
  8
OBJECT
100
AcDbBlockBegin
  2
*U72
 70
               1
 10
0.0
 20
0.0
 30
0.0
  3
*U72
  1

  0
LINE
  5
46C
100
AcDbEntity
  8
OBJECT
  6
STYLE_07
 62
               0
100
AcDbLine
 10
-1331.6173000028066
 20
567.50000000509749
 30
0.0
 11
-1331.6173000028066
 21
1007.5000000050973
 31
0.0
  0
LINE
  5
46D
100
AcDbEntity
  8
OBJECT
  6
STYLE_07
 62
               0
100
AcDbLine
 10
-861.61730000280659
 20
537.50000000509749
 30
0.0
 11
-1301.6173000028066
 21
537.50000000509749
 31
0.0
  0
LINE
  5
46E
100
AcDbEntity
  8
OBJECT
  6
STYLE_07
 62
               0
100
AcDbLine
 10
-831.61730000280659
 20
1007.5000000050973
 30
0.0
 11
-831.61730000280659
 21
567.50000000509749
 31
0.0
  0
LINE
  5
46F
100
AcDbEntity
  8
OBJECT
  6
STYLE_07
 62
               0
100
AcDbLine
 10
-1301.6173000028066
 20
1037.5000000050973
 30
0.0
 11
-861.61730000280659
 21
1037.5000000050973
 31
0.0
  0
ARC
  5
470
100
AcDbEntity
  8
OBJECT
  6
STYLE_07
 62
               0
100
AcDbCircle
 10
-1301.6173000028066
 20
1007.5000000050973
 30
0.0
 40
30.0
100
AcDbArc
 50
90.0
 51
180.0
  0
ARC
  5
471
100
AcDbEntity
  8
OBJECT
  6
STYLE_07
 62
               0
100
AcDbCircle
 10
-1301.6173000028066
 20
567.50000000509749
 30
0.0
 40
30.0
100
AcDbArc
 50
180.0
 51
270.0
  0
ARC
  5
472
100
AcDbEntity
  8
OBJECT
  6
STYLE_07
 62
               0
100
AcDbCircle
 10
-861.61730000280659
 20
1007.5000000050973
 30
0.0
 40
30.0
100
AcDbArc
 50
0.0
 51
90.0
  0
LINE
  5
473
100
AcDbEntity
  8
OBJECT
  6
STYLE_07
 62
               0
100
AcDbLine
 10
-1311.6173000028066
 20
567.50000000509749
 30
0.0
 11
-1311.6173000028066
 21
1007.5000000050973
 31
0.0
  0
LINE
  5
474
100
AcDbEntity
  8
OBJECT
  6
STYLE_07
 62
               0
100
AcDbLine
 10
-861.61730000280659
 20
557.50000000509749
 30
0.0
 11
-1301.6173000028066
 21
557.50000000509749
 31
0.0
  0
LINE
  5
475
100
AcDbEntity
  8
OBJECT
  6
STYLE_07
 62
               0
100
AcDbLine
 10
-851.61730000280659
 20
1007.5000000050973
 30
0.0
 11
-851.61730000280659
 21
567.50000000509749
 31
0.0
  0
LINE
  5
476
100
AcDbEntity
  8
OBJECT
  6
STYLE_07
 62
               0
100
AcDbLine
 10
-1301.6173000028066
 20
1017.5000000050973
 30
0.0
 11
-861.61730000280659
 21
1017.5000000050973
 31
0.0
  0
ARC
  5
477
100
AcDbEntity
  8
OBJECT
  6
STYLE_07
 62
               0
100
AcDbCircle
 10
-1301.6173000028066
 20
1007.5000000050973
 30
0.0
 40
10.0
100
AcDbArc
 50
90.0
 51
180.0
  0
ARC
  5
478
100
AcDbEntity
  8
OBJECT
  6
STYLE_07
 62
               0
100
AcDbCircle
 10
-861.61730000280659
 20
1007.5000000050973
 30
0.0
 40
10.0
100
AcDbArc
 50
0.0
 51
90.0
  0
ARC
  5
479
100
AcDbEntity
  8
OBJECT
  6
STYLE_07
 62
               0
100
AcDbCircle
 10
-861.61730000280659
 20
567.50000000509749
 30
0.0
 40
10.0
100
AcDbArc
 50
270.0
 51
0.0
  0
ARC
  5
47A
100
AcDbEntity
  8
OBJECT
  6
STYLE_07
 62
               0
100
AcDbCircle
 10
-1301.6173000028066
 20
567.50000000509749
 30
0.0
 40
10.0
100
AcDbArc
 50
180.0
 51
270.0
  0
LINE
  5
47B
100
AcDbEntity
  8
HIDDEN
  6
STYLE_07
 62
               0
100
AcDbLine
 10
-941.61730000280659
 20
567.50000000509749
 30
0.0
 11
-926.61730000280659
 21
567.50000000509749
 31
0.0
  0
LINE
  5
47C
100
AcDbEntity
  8
HIDDEN
  6
STYLE_07
 62
               0
100
AcDbLine
 10
-941.61730000280659
 20
570.50000000509749
 30
0.0
 11
-926.61730000280659
 21
570.50000000509749
 31
0.0
  0
ENDBLK
  5
47D
100
AcDbEntity
  8
OBJECT
100
AcDbBlockEnd
  0
BLOCK
  5
47E
100
AcDbEntity
  8
OBJECT
100
AcDbBlockBegin
  2
*U73
 70
               1
 10
0.0
 20
0.0
 30
0.0
  3
*U73
  1

  0
POLYLINE
  5
47F
100
AcDbEntity
  8
OBJECT
 62
               0
100
AcDb2dPolyline
 66
               1
 10
0.0
 20
0.0
 30
0.0
 70
               1
 75
               5
  0
VERTEX
  5
480
100
AcDbEntity
  8
OBJECT
 62
               0
100
AcDbVertex
100
AcDb2dVertex
 10
485.8826999971933
 20
-983.99999999827719
 30
0.0
  0
VERTEX
  5
481
100
AcDbEntity
  8
OBJECT
 62
               0
100
AcDbVertex
100
AcDb2dVertex
 10
525.8826999971933
 20
-983.99999999827719
 30
0.0
  0
VERTEX
  5
482
100
AcDbEntity
  8
OBJECT
 62
               0
100
AcDbVertex
100
AcDb2dVertex
 10
525.8826999971933
 20
-1023.9999999982772
 30
0.0
  0
VERTEX
  5
483
100
AcDbEntity
  8
OBJECT
 62
               0
100
AcDbVertex
100
AcDb2dVertex
 10
485.8826999971933
 20
-1023.9999999982772
 30
0.0
  0
SEQEND
  5
484
100
AcDbEntity
  8
OBJECT
 62
               0
  0
CIRCLE
  5
485
100
AcDbEntity
  8
OBJECT
 62
               0
100
AcDbCircle
 10
505.8826999971933
 20
-1003.9999999982772
 30
0.0
 40
14.999999999999995
  0
ENDBLK
  5
486
100
AcDbEntity
  8
OBJECT
100
AcDbBlockEnd
  0
BLOCK
  5
487
100
AcDbEntity
  8
CENTER
100
AcDbBlockBegin
  2
*U74
 70
               1
 10
0.0
 20
0.0
 30
0.0
  3
*U74
  1

  0
LINE
  5
488
100
AcDbEntity
  8
CENTER
 62
               0
100
AcDbLine
 10
-836.61730000280659
 20
1067.5000000050973
 30
0.0
 11
-786.61730000280659
 21
1067.5000000050973
 31
0.0
  0
LINE
  5
489
100
AcDbEntity
  8
CENTER
 62
               0
100
AcDbLine
 10
-811.61730000280659
 20
1042.5000000050973
 30
0.0
 11
-811.61730000280659
 21
1092.5000000050973
 31
0.0
  0
ENDBLK
  5
48A
100
AcDbEntity
  8
CENTER
100
AcDbBlockEnd
  0
BLOCK
  5
48B
100
AcDbEntity
  8
DIMENTION
100
AcDbBlockBegin
  2
*D75
 70
               1
 10
0.0
 20
0.0
 30
0.0
  3
*D75
  1

  0
LINE
  5
48C
100
AcDbEntity
  8
DIMENTION
 62
               0
100
AcDbLine
 10
182.5
 20
321.49999996612155
 30
0.0
 11
182.5
 21
376.99999992549419
 31
0.0
  0
LINE
  5
48D
100
AcDbEntity
  8
DIMENTION
 62
               0
100
AcDbLine
 10
452.5
 20
313.99999996612155
 30
0.0
 11
452.5
 21
376.99999992549419
 31
0.0
  0
LINE
  5
48E
100
AcDbEntity
  8
DIMENTION
 62
               0
100
AcDbLine
 10
182.5
 20
357.0
 30
0.0
 11
452.5
 21
357.0
 31
0.0
  0
LINE
  5
48F
100
AcDbEntity
  8
DIMENTION
 62
               0
100
AcDbLine
 10
182.5
 20
357.0
 30
0.0
 11
214.25
 21
365.50738685968804
 31
0.0
  0
LINE
  5
490
100
AcDbEntity
  8
DIMENTION
 62
               0
100
AcDbLine
 10
182.5
 20
357.0
 30
0.0
 11
214.25
 21
348.49261314031196
 31
0.0
  0
LINE
  5
491
100
AcDbEntity
  8
DIMENTION
 62
               0
100
AcDbLine
 10
452.5
 20
357.0
 30
0.0
 11
420.75
 21
348.49261314031196
 31
0.0
  0
LINE
  5
492
100
AcDbEntity
  8
DIMENTION
 62
               0
100
AcDbLine
 10
452.5
 20
357.0
 30
0.0
 11
420.75
 21
365.50738685968804
 31
0.0
  0
MTEXT
  5
493
100
AcDbEntity
  8
DIMENTION
 62
               0
100
AcDbMText
 10
285.75
 20
400.33333332960797
 30
0.0
 40
33.866666666666667
 41
0.0
 71
               1
 72
               1
  1
270
  7
________
  0
POINT
  5
494
100
AcDbEntity
  8
DEFPOINTS
 62
               0
100
AcDbPoint
 10
452.5
 20
304.00000000337445
 30
0.0
  0
POINT
  5
495
100
AcDbEntity
  8
DEFPOINTS
 62
               0
100
AcDbPoint
 10
182.5
 20
311.50000000337445
 30
0.0
  0
POINT
  5
496
100
AcDbEntity
  8
DEFPOINTS
 62
               0
100
AcDbPoint
 10
182.5
 20
357.0
 30
0.0
  0
ENDBLK
  5
497
100
AcDbEntity
  8
DIMENTION
100
AcDbBlockEnd
  0
BLOCK
  5
498
100
AcDbEntity
  8
DIMENTION
100
AcDbBlockBegin
  2
*D76
 70
               1
 10
0.0
 20
0.0
 30
0.0
  3
*D76
  1

  0
LINE
  5
499
100
AcDbEntity
  8
DIMENTION
 62
               0
100
AcDbLine
 10
482.4999999627471
 20
291.50000000337445
 30
0.0
 11
591.49999992549419
 21
291.50000000337445
 31
0.0
  0
LINE
  5
49A
100
AcDbEntity
  8
DIMENTION
 62
               0
100
AcDbLine
 10
492.4999999627471
 20
311.50000000337445
 30
0.0
 11
591.49999992549419
 21
311.50000000337445
 31
0.0
  0
LINE
  5
49B
100
AcDbEntity
  8
DIMENTION
 62
               0
100
AcDbLine
 10
571.5
 20
311.50000000337445
 30
0.0
 11
571.5
 21
291.50000000337445
 31
0.0
  0
LINE
  5
49C
100
AcDbEntity
  8
DIMENTION
 62
               0
100
AcDbLine
 10
571.5
 20
291.50000000337445
 30
0.0
 11
571.5
 21
224.66666666666663
 31
0.0
  0
LINE
  5
49D
100
AcDbEntity
  8
DIMENTION
 62
               0
100
AcDbLine
 10
571.5
 20
291.50000000337445
 30
0.0
 11
580.00738685968815
 21
259.75000000337445
 31
0.0
  0
LINE
  5
49E
100
AcDbEntity
  8
DIMENTION
 62
               0
100
AcDbLine
 10
571.5
 20
291.50000000337445
 30
0.0
 11
562.99261314031185
 21
259.75000000337445
 31
0.0
  0
LINE
  5
49F
100
AcDbEntity
  8
DIMENTION
 62
               0
100
AcDbLine
 10
571.5
 20
311.50000000337445
 30
0.0
 11
571.5
 21
371.50000001641297
 31
0.0
  0
LINE
  5
4A0
100
AcDbEntity
  8
DIMENTION
 62
               0
100
AcDbLine
 10
571.5
 20
311.50000000337445
 30
0.0
 11
562.99261314031185
 21
343.25000000337445
 31
0.0
  0
LINE
  5
4A1
100
AcDbEntity
  8
DIMENTION
 62
               0
100
AcDbLine
 10
571.5
 20
311.50000000337445
 30
0.0
 11
580.00738685968815
 21
343.25000000337445
 31
0.0
  0
MTEXT
  5
4A2
100
AcDbEntity
  8
DIMENTION
 62
               0
100
AcDbMText
 10
528.16666667039203
 20
224.66666666666674
 30
0.0
 40
33.866666666666667
 41
0.0
 71
               1
 72
               1
  1
20
  7
________
 11
0.0
 21
1.0
 31
0.0
  0
POINT
  5
4A3
100
AcDbEntity
  8
DEFPOINTS
 62
               0
100
AcDbPoint
 10
482.5
 20
311.50000000337445
 30
0.0
  0
POINT
  5
4A4
100
AcDbEntity
  8
DEFPOINTS
 62
               0
100
AcDbPoint
 10
472.5
 20
291.50000000337445
 30
0.0
  0
POINT
  5
4A5
100
AcDbEntity
  8
DEFPOINTS
 62
               0
100
AcDbPoint
 10
571.5
 20
291.50000000337445
 30
0.0
  0
ENDBLK
  5
4A6
100
AcDbEntity
  8
DIMENTION
100
AcDbBlockEnd
  0
BLOCK
  5
4A7
100
AcDbEntity
  8
FRAME
100
AcDbBlockBegin
  2
*U77
 70
               1
 10
0.0
 20
0.0
 30
0.0
  3
*U77
  1

  0
ENDBLK
  5
4A8
100
AcDbEntity
  8
FRAME
100
AcDbBlockEnd
  0
BLOCK
  5
4A9
100
AcDbEntity
  8
FRAME
100
AcDbBlockBegin
  2
*U78
 70
               1
 10
0.0
 20
0.0
 30
0.0
  3
*U78
  1

  0
ENDBLK
  5
4AA
100
AcDbEntity
  8
FRAME
100
AcDbBlockEnd
  0
BLOCK
  5
4AB
100
AcDbEntity
  8
FRAME
100
AcDbBlockBegin
  2
*U79
 70
               1
 10
0.0
 20
0.0
 30
0.0
  3
*U79
  1

  0
ENDBLK
  5
4AC
100
AcDbEntity
  8
FRAME
100
AcDbBlockEnd
  0
BLOCK
  5
4AD
100
AcDbEntity
  8
FRAME
100
AcDbBlockBegin
  2
*U80
 70
               1
 10
0.0
 20
0.0
 30
0.0
  3
*U80
  1

  0
ENDBLK
  5
4AE
100
AcDbEntity
  8
FRAME
100
AcDbBlockEnd
  0
BLOCK
  5
4AF
100
AcDbEntity
  8
FRAME
100
AcDbBlockBegin
  2
*U81
 70
               1
 10
0.0
 20
0.0
 30
0.0
  3
*U81
  1

  0
ENDBLK
  5
4B0
100
AcDbEntity
  8
FRAME
100
AcDbBlockEnd
  0
BLOCK
  5
4B1
100
AcDbEntity
  8
FRAME
100
AcDbBlockBegin
  2
*U82
 70
               1
 10
0.0
 20
0.0
 30
0.0
  3
*U82
  1

  0
INSERT
  5
4B2
100
AcDbEntity
  8
FRAME
 62
               0
100
AcDbBlockReference
  2
*U77
 10
0.0
 20
0.0
 30
0.0
  0
INSERT
  5
4B3
100
AcDbEntity
  8
FRAME
 62
               0
100
AcDbBlockReference
  2
*U78
 10
0.0
 20
0.0
 30
0.0
  0
INSERT
  5
4B4
100
AcDbEntity
  8
FRAME
 62
               0
100
AcDbBlockReference
  2
*U79
 10
0.0
 20
0.0
 30
0.0
  0
INSERT
  5
4B5
100
AcDbEntity
  8
FRAME
 62
               0
100
AcDbBlockReference
  2
*U80
 10
0.0
 20
0.0
 30
0.0
  0
INSERT
  5
4B6
100
AcDbEntity
  8
FRAME
 62
               0
100
AcDbBlockReference
  2
*U81
 10
0.0
 20
0.0
 30
0.0
  0
POLYLINE
  5
4B7
100
AcDbEntity
  8
FRAME
 62
               0
100
AcDb2dPolyline
 66
               1
 10
0.0
 20
0.0
 30
0.0
 70
             129
  0
VERTEX
  5
4B8
100
AcDbEntity
  8
FRAME
 62
               0
100
AcDbVertex
100
AcDb2dVertex
 10
-1762.0774244513984
 20
-1321.3072089781042
 30
0.0
  0
VERTEX
  5
4B9
100
AcDbEntity
  8
FRAME
 62
               0
100
AcDbVertex
100
AcDb2dVertex
 10
-1775.0380303353857
 20
-1321.3072089781042
 30
0.0
  0
VERTEX
  5
4BA
100
AcDbEntity
  8
FRAME
 62
               0
100
AcDbVertex
100
AcDb2dVertex
 10
-1808.2527724214531
 20
-1321.3072089781042
 30
0.0
  0
VERTEX
  5
4BB
100
AcDbEntity
  8
FRAME
 62
               0
100
AcDbVertex
100
AcDb2dVertex
 10
-1821.0383384047425
 20
-1321.3072089781042
 30
0.0
  0
VERTEX
  5
4BC
100
AcDbEntity
  8
FRAME
 62
               0
100
AcDbVertex
100
AcDb2dVertex
 10
-1822.5918598649821
 20
-1321.3072089781042
 30
0.0
  0
VERTEX
  5
4BD
100
AcDbEntity
  8
FRAME
 62
               0
100
AcDbVertex
100
AcDb2dVertex
 10
-1822.5918598649821
 20
-1378.9188146886893
 30
0.0
  0
VERTEX
  5
4BE
100
AcDbEntity
  8
FRAME
 62
               0
100
AcDbVertex
100
AcDb2dVertex
 10
-1808.2527724214531
 20
-1378.9188146886893
 30
0.0
  0
VERTEX
  5
4BF
100
AcDbEntity
  8
FRAME
 62
               0
100
AcDbVertex
100
AcDb2dVertex
 10
-1808.2527724214531
 20
-1376.0232783148861
 30
0.0
  0
VERTEX
  5
4C0
100
AcDbEntity
  8
FRAME
 62
               0
100
AcDbVertex
100
AcDb2dVertex
 10
-1775.0380303353857
 20
-1376.0232783148861
 30
0.0
  0
VERTEX
  5
4C1
100
AcDbEntity
  8
FRAME
 62
               0
100
AcDbVertex
100
AcDb2dVertex
 10
-1775.0380303353857
 20
-1378.9188146886893
 30
0.0
  0
VERTEX
  5
4C2
100
AcDbEntity
  8
FRAME
 62
               0
100
AcDbVertex
100
AcDb2dVertex
 10
-1760.7025948491462
 20
-1378.9188146886893
 30
0.0
  0
VERTEX
  5
4C3
100
AcDbEntity
  8
FRAME
 62
               0
100
AcDbVertex
100
AcDb2dVertex
 10
-1760.7025948491462
 20
-1321.3072089781042
 30
0.0
  0
SEQEND
  5
4C4
100
AcDbEntity
  8
FRAME
 62
               0
  0
ENDBLK
  5
4C5
100
AcDbEntity
  8
FRAME
100
AcDbBlockEnd
  0
ENDSEC
  0
SECTION
  2
ENTITIES
  0
LINE
  5
4C6
100
AcDbEntity
  8
FRAME
  6
CONTINUOUS
100
AcDbLine
 10
-761.28269999719328
 20
-2185.0000000017226
 30
0.0
 11
-761.28269999719328
 21
534.99999999827696
 31
0.0
  0
LINE
  5
4C7
100
AcDbEntity
  8
FRAME
  6
CONTINUOUS
100
AcDbLine
 10
3288.7173000028065
 20
-2185.0000000017226
 30
0.0
 11
-761.28269999719328
 21
-2185.0000000017226
 31
0.0
  0
LINE
  5
4C8
100
AcDbEntity
  8
FRAME
  6
CONTINUOUS
100
AcDbLine
 10
3288.7173000028065
 20
534.99999999827696
 30
0.0
 11
3288.7173000028065
 21
-2185.0000000017226
 31
0.0
  0
LINE
  5
4C9
100
AcDbEntity
  8
FRAME
  6
CONTINUOUS
100
AcDbLine
 10
-761.28269999719328
 20
534.99999999827696
 30
0.0
 11
3288.7173000028065
 21
534.99999999827696
 31
0.0
  0
LINE
  5
4CA
100
AcDbEntity
  8
FRAME
  6
CONTINUOUS
100
AcDbLine
 10
2528.4773000028063
 20
-2185.0000000017226
 30
0.0
 11
2528.4773000028063
 21
-2045.0000000017228
 31
0.0
  0
LINE
  5
4CB
100
AcDbEntity
  8
FRAME
  6
CONTINUOUS
100
AcDbLine
 10
2308.4773000028063
 20
-2185.0000000017226
 30
0.0
 11
2308.4773000028063
 21
-2045.0000000017228
 31
0.0
  0
LINE
  5
4CC
100
AcDbEntity
  8
FRAME
  6
CONTINUOUS
100
AcDbLine
 10
1708.4773000028065
 20
-2185.0000000017226
 30
0.0
 11
1708.4773000028065
 21
-2045.0000000017228
 31
0.0
  0
LINE
  5
4CD
100
AcDbEntity
  8
FRAME
  6
CONTINUOUS
100
AcDbLine
 10
588.71730000280661
 20
-2185.0000000017226
 30
0.0
 11
588.71730000280661
 21
-2045.0000000017228
 31
0.0
  0
MTEXT
  5
4CE
100
AcDbEntity
  8
TEXT
100
AcDbMText
 10
613.4773000028066
 20
-2050.1300000017227
 30
0.0
 40
28.2224
 41
109.36099999999999
 71
               1
 72
               1
  1
品　名
  7
________
  0
MTEXT
  5
4CF
100
AcDbEntity
  8
TEXT
100
AcDbMText
 10
1728.4773000028065
 20
-2055.1300000017227
 30
0.0
 40
28.2224
 41
0.0
 71
               1
 72
               1
  1
形　式
  7
________
  0
MTEXT
  5
4D0
100
AcDbEntity
  8
TEXT
100
AcDbMText
 10
2333.4773000028063
 20
-2055.1300000017227
 30
0.0
 40
28.2224
 41
0.0
 71
               1
 72
               1
  1
尺　度
  7
________
  0
MTEXT
  5
4D1
100
AcDbEntity
  8
TEXT
100
AcDbMText
 10
2553.4773000028063
 20
-2055.1300000017227
 30
0.0
 40
28.2224
 41
0.0
 71
               1
 72
               1
  1
図　番
  7
________
  0
LINE
  5
4D2
100
AcDbEntity
  8
FRAME
  6
CONTINUOUS
100
AcDbLine
 10
168.71730000280672
 20
-2185.0000000017226
 30
0.0
 11
168.71730000280672
 21
-2045.0000000017228
 31
0.0
  0
MTEXT
  5
4D3
100
AcDbEntity
  8
TEXT
100
AcDbMText
 10
2379.4293000028065
 20
-2110.0140000017227
 30
0.0
 40
39.511200000000002
 41
0.0
 71
               1
 72
               1
  1
1：10
  7
________
  0
LINE
  5
4D4
100
AcDbEntity
  8
FRAME
  6
CONTINUOUS
100
AcDbLine
 10
-761.28269999719328
 20
-2045.0000000017228
 30
0.0
 11
3288.7173000028065
 21
-2045.0000000017228
 31
0.0
  0
MTEXT
  5
4D5
100
AcDbEntity
  8
TEXT
100
AcDbMText
 10
1175.9283000028065
 20
-2094.9180000017227
 30
0.0
 40
50.799999999999997
 41
0.0
 71
               1
 72
               1
  1
自動食器洗浄機
  7
________
  0
LINE
  5
4D6
100
AcDbEntity
  8
FRAME
  6
CONTINUOUS
100
AcDbLine
 10
168.71730000280672
 20
-2093.9400000017226
 30
0.0
 11
588.71730000280661
 21
-2093.9400000017226
 31
0.0
  0
LINE
  5
4D7
100
AcDbEntity
  8
FRAME
  6
CONTINUOUS
100
AcDbLine
 10
168.71730000280672
 20
-2138.3300000017225
 30
0.0
 11
588.71730000280661
 21
-2138.3300000017225
 31
0.0
  0
MTEXT
  5
4D8
100
AcDbEntity
  8
TEXT
100
AcDbMText
 10
1880.7315000028066
 20
-2080.2639000017225
 30
0.0
 40
50.800000000000004
 41
0.0
 71
               1
 72
               1
  1
SD53E6\P
  7
________
  0
MTEXT
  5
4D9
100
AcDbEntity
  8
TEXT
100
AcDbMText
 10
2670.0
 20
-2069.0
 30
0.0
 40
67.733333333333334
 41
0.0
 71
               1
 72
               1
  1
A301-229C
  7
________
  0
LINE
  5
4DA
100
AcDbEntity
  8
DIMENTION
100
AcDbLine
 10
479.5
 20
-1577.0
 30
0.0
 11
577.06419999542595
 21
-1408.0
 31
0.0
  0
LINE
  5
4DB
100
AcDbEntity
  8
DIMENTION
100
AcDbLine
 10
479.5
 20
-1577.0
 30
0.0
 11
485.39452243842652
 21
-1555.0013427734375
 31
0.0
  0
LINE
  5
4DC
100
AcDbEntity
  8
DIMENTION
100
AcDbLine
 10
479.5
 20
-1577.0
 30
0.0
 11
495.60413478813598
 21
-1560.895865211864
 31
0.0
  0
LINE
  5
4DD
100
AcDbEntity
  8
DIMENTION
100
AcDbLine
 10
800.06419999542595
 20
-1408.0
 30
0.0
 11
577.06419999542595
 21
-1408.0
 31
0.0
  0
LINE
  5
4DE
100
AcDbEntity
  8
DIMENTION
100
AcDbLine
 10
-37.645009039752949
 20
-58.49999999662532
 30
0.0
 11
-134.5
 21
151.50000000168734
 31
0.0
  0
LINE
  5
4DF
100
AcDbEntity
  8
DIMENTION
100
AcDbLine
 10
-37.645009039752949
 20
-58.49999999662532
 30
0.0
 11
-51.977583230857135
 21
-40.800744882203162
 31
0.0
  0
LINE
  5
4E0
100
AcDbEntity
  8
DIMENTION
100
AcDbLine
 10
-37.645009039752949
 20
-58.49999999662532
 30
0.0
 11
-41.20775483366333
 21
-36.005708343922038
 31
0.0
  0
LINE
  5
4E1
100
AcDbEntity
  8
DIMENTION
100
AcDbLine
 10
-134.5
 20
151.50000000168734
 30
0.0
 11
-629.5
 21
151.50000000168734
 31
0.0
  0
MTEXT
  5
4E2
100
AcDbEntity
  8
DIMENTION
100
AcDbMText
 10
-629.18499300214989
 20
200.76867401432264
 30
0.0
 40
33.866666666666667
 41
0.0
 71
               1
 72
               1
  1
排水接続口 25A\P接続ねじ部自在回転式
  7
________
  0
MTEXT
  5
4E3
100
AcDbEntity
  8
DIMENTION
100
AcDbMText
 10
578.375
 20
-1361.8333333333333
 30
0.0
 40
33.866666666666667
 41
0.0
 71
               1
 72
               1
  1
すすぎタンク
  7
________
  0
LINE
  5
4E4
100
AcDbEntity
  8
DIMENTION
100
AcDbLine
 10
417.5
 20
-968.5
 30
0.0
 11
570.88933360248143
 21
-881.82115140946439
 31
0.0
  0
LINE
  5
4E5
100
AcDbEntity
  8
DIMENTION
100
AcDbLine
 10
417.5
 20
-968.5
 30
0.0
 11
433.88273795604903
 21
-952.67937385523771
 31
0.0
  0
LINE
  5
4E6
100
AcDbEntity
  8
DIMENTION
100
AcDbLine
 10
417.5
 20
-968.5
 30
0.0
 11
439.59818032586315
 21
-962.99030483288402
 31
0.0
  0
LINE
  5
4E7
100
AcDbEntity
  8
DIMENTION
100
AcDbLine
 10
226.5
 20
-1673.790018076131
 30
0.0
 11
577.50000000457385
 21
-1295.0
 31
0.0
  0
LINE
  5
4E8
100
AcDbEntity
  8
DIMENTION
100
AcDbLine
 10
226.5
 20
-1673.790018076131
 30
0.0
 11
237.19206734747218
 21
-1653.6811640464748
 31
0.0
  0
LINE
  5
4E9
100
AcDbEntity
  8
DIMENTION
100
AcDbLine
 10
226.5
 20
-1673.790018076131
 30
0.0
 11
245.81402895671317
 21
-1661.7212733191918
 31
0.0
  0
LINE
  5
4EA
100
AcDbEntity
  8
DIMENTION
100
AcDbLine
 10
926.5
 20
-1295.0
 30
0.0
 11
577.50000000457385
 21
-1295.0
 31
0.0
  0
LINE
  5
4EB
100
AcDbEntity
  8
DIMENTION
100
AcDbLine
 10
776.47403359790746
 20
-881.82115140946439
 30
0.0
 11
570.88933360248143
 21
-881.82115140946439
 31
0.0
  0
MTEXT
  5
4EC
100
AcDbEntity
  8
DIMENTION
100
AcDbMText
 10
583.14833360248144
 20
-835.62335140946448
 30
0.0
 40
33.866666666666667
 41
0.0
 71
               1
 72
               1
  1
操作パネル
  7
________
  0
MTEXT
  5
4ED
100
AcDbEntity
  8
DIMENTION
100
AcDbMText
 10
580.13950000457407
 20
-1247.8333333333335
 30
0.0
 40
33.866666666666667
 41
0.0
 71
               1
 72
               1
  1
すすぎタンク温度計
  7
________
  0
LINE
  5
4EE
100
AcDbEntity
  8
DIMENTION
100
AcDbLine
 10
-182.99909946170351
 20
-1632.6666666666665
 30
0.0
 11
321.40500274418355
 21
-1776.8289703498403
 31
0.0
  0
LINE
  5
4EF
100
AcDbEntity
  8
DIMENTION
100
AcDbLine
 10
321.40500274418355
 20
-1776.8289703498403
 30
0.0
 11
288.53999027922521
 21
-1776.2553094233979
 31
0.0
  0
LINE
  5
4F0
100
AcDbEntity
  8
DIMENTION
100
AcDbLine
 10
321.40500274418355
 20
-1776.8289703498403
 30
0.0
 11
293.2298975170587
 21
-1759.8996591819034
 31
0.0
  0
LINE
  5
4F1
100
AcDbEntity
  8
HIDDEN
100
AcDbLine
 10
478.30000000000018
 20
-68.49999999662532
 30
0.0
 11
-113.30000000000018
 21
-68.49999999662532
 31
0.0
  0
LINE
  5
4F2
100
AcDbEntity
  8
DIMENTION
100
AcDbLine
 10
489.4999999627471
 20
-288.49999999662532
 30
0.0
 11
593.49999992549419
 21
-288.49999999662532
 31
0.0
  0
ARC
  5
4F3
100
AcDbEntity
  8
OBJECT
100
AcDbCircle
 10
402.5
 20
-208.49999999662532
 30
0.0
 40
30.0
100
AcDbArc
 50
270.0
 51
0.0
  0
LINE
  5
4F4
100
AcDbEntity
  8
CENTER
  6
STYLE_07
100
AcDbLine
 10
182.5
 20
261.50000000337445
 30
0.0
 11
182.5
 21
-238.49999999662532
 31
0.0
  0
LINE
  5
4F5
100
AcDbEntity
  8
CENTER
100
AcDbLine
 10
182.5
 20
363.50000000337445
 30
0.0
 11
182.5
 21
-688.49999999831266
 31
0.0
  0
LINE
  5
4F6
100
AcDbEntity
  8
CENTER
100
AcDbLine
 10
-37.5
 20
11.50000000337468
 30
0.0
 11
-37.5
 21
-48.49999999662532
 31
0.0
  0
LINE
  5
4F7
100
AcDbEntity
  8
CENTER
100
AcDbLine
 10
-7.5
 20
-18.49999999662532
 30
0.0
 11
-67.5
 21
-18.49999999662532
 31
0.0
  0
LINE
  5
4F8
100
AcDbEntity
  8
OBJECT
100
AcDbLine
 10
-117.5
 20
311.50000000337445
 30
0.0
 11
-117.5
 21
-282.49999999662532
 31
0.0
  0
LINE
  5
4F9
100
AcDbEntity
  8
OBJECT
100
AcDbLine
 10
-117.5
 20
311.50000000337445
 30
0.0
 11
482.5
 21
311.50000000337445
 31
0.0
  0
LINE
  5
4FA
100
AcDbEntity
  8
OBJECT
100
AcDbLine
 10
482.5
 20
311.50000000337445
 30
0.0
 11
482.5
 21
-282.49999999662532
 31
0.0
  0
LINE
  5
4FB
100
AcDbEntity
  8
OBJECT
100
AcDbLine
 10
-117.5
 20
-282.49999999662532
 30
0.0
 11
482.5
 21
-282.49999999662532
 31
0.0
  0
LINE
  5
4FC
100
AcDbEntity
  8
OBJECT
100
AcDbLine
 10
-107.5
 20
301.50000000337445
 30
0.0
 11
-107.5
 21
-272.49999999662532
 31
0.0
  0
LINE
  5
4FD
100
AcDbEntity
  8
OBJECT
100
AcDbLine
 10
472.5
 20
301.50000000337445
 30
0.0
 11
472.5
 21
-272.49999999662532
 31
0.0
  0
LINE
  5
4FE
100
AcDbEntity
  8
OBJECT
100
AcDbLine
 10
-107.5
 20
301.50000000337445
 30
0.0
 11
472.5
 21
301.50000000337445
 31
0.0
  0
LINE
  5
4FF
100
AcDbEntity
  8
OBJECT
100
AcDbLine
 10
-107.5
 20
-272.49999999662532
 30
0.0
 11
472.5
 21
-272.49999999662532
 31
0.0
  0
LINE
  5
500
100
AcDbEntity
  8
OBJECT
100
AcDbLine
 10
-107.5
 20
-272.49999999662532
 30
0.0
 11
-117.5
 21
-282.49999999662532
 31
0.0
  0
LINE
  5
501
100
AcDbEntity
  8
OBJECT
100
AcDbLine
 10
472.5
 20
-272.49999999662532
 30
0.0
 11
482.5
 21
-282.49999999662532
 31
0.0
  0
LINE
  5
502
100
AcDbEntity
  8
OBJECT
100
AcDbLine
 10
472.5
 20
301.50000000337445
 30
0.0
 11
482.5
 21
311.50000000337445
 31
0.0
  0
LINE
  5
503
100
AcDbEntity
  8
OBJECT
100
AcDbLine
 10
-117.5
 20
311.50000000337445
 30
0.0
 11
-107.5
 21
301.50000000337445
 31
0.0
  0
LINE
  5
504
100
AcDbEntity
  8
OBJECT
100
AcDbLine
 10
-114.5
 20
-288.49999999662532
 30
0.0
 11
-100.5
 21
-288.49999999662532
 31
0.0
  0
LINE
  5
505
100
AcDbEntity
  8
HIDDEN
100
AcDbLine
 10
-100.5
 20
-288.49999999662532
 30
0.0
 11
465.5
 21
-288.49999999662532
 31
0.0
  0
LINE
  5
506
100
AcDbEntity
  8
OBJECT
100
AcDbLine
 10
465.5
 20
-288.49999999662532
 30
0.0
 11
479.5
 21
-288.49999999662532
 31
0.0
  0
LINE
  5
507
100
AcDbEntity
  8
OBJECT
100
AcDbLine
 10
-114.5
 20
-288.49999999662532
 30
0.0
 11
-114.5
 21
-282.49999999662532
 31
0.0
  0
LINE
  5
508
100
AcDbEntity
  8
OBJECT
100
AcDbLine
 10
479.5
 20
-288.49999999662532
 30
0.0
 11
479.5
 21
-282.49999999662532
 31
0.0
  0
MTEXT
  5
509
100
AcDbEntity
  8
DIMENTION
100
AcDbMText
 10
576.65342188674049
 20
-1492.6666666666665
 30
0.0
 40
33.866666666666667
 41
0.0
 71
               1
 72
               1
  1
電源コード3m\PVCT，5.5mm ×４
  7
________
  0
LINE
  5
50A
100
AcDbEntity
  8
DIMENTION
100
AcDbLine
 10
-203.20031496419574
 20
355.20031496419574
 30
0.0
 11
-348.0
 21
355.20031496419574
 31
0.0
  0
MTEXT
  5
50B
100
AcDbEntity
  8
DIMENTION
100
AcDbMText
 10
-345.01832633548293
 20
398.59780000000023
 30
0.0
 40
33.866666666666667
 41
0.0
 71
               1
 72
               1
  1
ラック台
  7
________
  0
MTEXT
  5
50C
100
AcDbEntity
  8
TEXT
100
AcDbMText
 10
2489.9499677205254
 20
-1533.539984742798
 30
0.0
 40
33.866666666666667
 41
0.0
 71
               1
 72
               1
  1
注）アジャスト調整範囲：\P　　基準高さ（380）に対して-0，+10\P    指示なき寸法公差は±5とする
  7
________
  0
MTEXT
  5
50D
100
AcDbEntity
  8
DIMENTION
100
AcDbMText
 10
1143.2932330789831
 20
-1323.0073296437636
 30
0.0
 40
33.866666666666667
 41
0.0
 71
               1
 72
               1
  1
ﾗｯｸ通過高さ
  7
________
 11
0.0
 21
1.0
 31
0.0
  0
MTEXT
  5
50E
100
AcDbEntity
  8
DIMENTION
100
AcDbMText
 10
1144.8333333333333
 20
-1641.3581879631711
 30
0.0
 40
33.866666666666667
 41
0.0
 71
               1
 72
               1
  1
基準高さ
  7
________
 11
0.0
 21
1.0
 31
0.0
  0
LINE
  5
50F
100
AcDbEntity
  8
DIMENTION
100
AcDbLine
 10
2270.9999999627471
 20
-1805.0
 30
0.0
 11
2392.896616541354
 21
-1805.0
 31
0.0
  0
LINE
  5
510
100
AcDbEntity
  8
DIMENTION
100
AcDbLine
 10
2292.3999999627472
 20
-951.0
 30
0.0
 11
2391.396616541354
 21
-951.0
 31
0.0
  0
LINE
  5
511
100
AcDbEntity
  8
DIMENTION
100
AcDbLine
 10
1310.0
 20
-1306.2777778150307
 30
0.0
 11
1310.0
 21
-812.79001807613099
 31
0.0
  0
MTEXT
  5
512
100
AcDbEntity
  8
TEXT
100
AcDbMText
 10
1265.666666666667
 20
-599.45668474279796
 30
0.0
 40
33.866666666666667
 41
0.0
 71
               1
 72
               1
  1
※洗剤，リンス剤及び供給装置については、洗剤メーカーにご相談ください。
  7
________
  0
LINE
  5
513
100
AcDbEntity
  8
TEXT
100
AcDbLine
 10
1248.5
 20
468.20998192386901
 30
0.0
 11
1248.5
 21
-580.79001807613145
 31
0.0
  0
LINE
  5
514
100
AcDbEntity
  8
TEXT
100
AcDbLine
 10
1248.5
 20
468.20998192386901
 30
0.0
 11
3138.5
 21
468.20998192386901
 31
0.0
  0
LINE
  5
515
100
AcDbEntity
  8
TEXT
100
AcDbLine
 10
1561.0
 20
418.20998192386901
 30
0.0
 11
3138.5
 21
418.20998192386901
 31
0.0
  0
MTEXT
  5
516
100
AcDbEntity
  8
TEXT
100
AcDbMText
 10
1288.2283354865181
 20
415.63972625427573
 30
0.0
 40
33.866666666666667
 41
0.0
 71
               1
 72
               1
  1
洗 浄 方 式
  7
________
  0
LINE
  5
517
100
AcDbEntity
  8
TEXT
100
AcDbLine
 10
1248.5
 20
318.20998192386901
 30
0.0
 11
3138.5
 21
318.20998192386901
 31
0.0
  0
LINE
  5
518
100
AcDbEntity
  8
TEXT
100
AcDbLine
 10
1561.0
 20
468.20998192386901
 30
0.0
 11
1561.0
 21
218.20998192386855
 31
0.0
  0
MTEXT
  5
519
100
AcDbEntity
  8
TEXT
100
AcDbMText
 10
1571.5
 20
464.4031110138742
 30
0.0
 40
33.866666666666667
 41
0.0
 71
               1
 72
               1
  1
洗   浄
  7
________
  0
LINE
  5
51A
100
AcDbEntity
  8
TEXT
100
AcDbLine
 10
1809.5
 20
468.20998192386901
 30
0.0
 11
1809.5
 21
-580.79001807613145
 31
0.0
  0
MTEXT
  5
51B
100
AcDbEntity
  8
TEXT
100
AcDbMText
 10
2070.6844580864235
 20
464.30311101387429
 30
0.0
 40
33.866666666666667
 41
0.0
 71
               1
 72
               1
  1
上部 回転ノズル、下部 スーパーロングノズル
  7
________
  0
MTEXT
  5
51C
100
AcDbEntity
  8
TEXT
100
AcDbMText
 10
2309.6544548566462
 20
413.37664859053507
 30
0.0
 40
33.866666666666667
 41
0.0
 71
               1
 72
               1
  1
上部 回転ノズル
  7
________
  0
MTEXT
  5
51D
100
AcDbEntity
  8
TEXT
100
AcDbMText
 10
2167.4144559332385
 20
364.45175536713282
 30
0.0
 40
33.866666666666667
 41
0.0
 71
               1
 72
               1
  1
下部 4バルブ4アーム回転ノズル
  7
________
  0
LINE
  5
51E
100
AcDbEntity
  8
TEXT
100
AcDbLine
 10
1561.0
 20
268.20998192386855
 30
0.0
 11
3138.5
 21
268.20998192386855
 31
0.0
  0
MTEXT
  5
51F
100
AcDbEntity
  8
TEXT
100
AcDbMText
 10
1288.2283354865181
 20
288.87664859053552
 30
0.0
 40
33.866666666666667
 41
0.0
 71
               1
 72
               1
  1
洗 浄 時 間
  7
________
  0
MTEXT
  5
520
100
AcDbEntity
  8
TEXT
100
AcDbMText
 10
2034.276130136052
 20
314.24637961242547
 30
0.0
 40
33.866666666666667
 41
0.0
 71
               1
 72
               1
  1
1ラック72秒  洗浄 57秒、水切 3秒、すすぎ 12秒
  7
________
  0
LINE
  5
521
100
AcDbEntity
  8
TEXT
100
AcDbLine
 10
1248.5
 20
218.20998192386855
 30
0.0
 11
3138.5
 21
218.20998192386855
 31
0.0
  0
LINE
  5
522
100
AcDbEntity
  8
TEXT
100
AcDbLine
 10
1248.5
 20
18.209981923869009
 30
0.0
 11
3138.5
 21
18.209981923869009
 31
0.0
  0
MTEXT
  5
523
100
AcDbEntity
  8
TEXT
100
AcDbMText
 10
1288.2283354865181
 20
111.54331525720204
 30
0.0
 40
33.866666666666667
 41
0.0
 71
               1
 72
               1
  1
必要給湯能力
  7
________
  0
LINE
  5
524
100
AcDbEntity
  8
TEXT
100
AcDbLine
 10
1248.5
 20
-131.79001807613099
 30
0.0
 11
3138.5
 21
-131.79001807613099
 31
0.0
  0
MTEXT
  5
525
100
AcDbEntity
  8
TEXT
100
AcDbMText
 10
1288.2283354865181
 20
-194.62335140946448
 30
0.0
 40
33.866666666666667
 41
0.0
 71
               1
 72
               1
  1
すすぎ湯タンク
  7
________
  0
MTEXT
  5
526
100
AcDbEntity
  8
TEXT
100
AcDbMText
 10
1821.5794871544167
 20
-145.99001807613081
 30
0.0
 40
33.866666666666667
 41
0.0
 71
               1
 72
               1
  1
容量：8.1L（有効3.2 L）\P電気ヒータ ー6.0 kW \P温度制御：サーミスター方式（80℃設定）、液面スイッチによる空焚き防止
  7
________
  0
MTEXT
  5
527
100
AcDbEntity
  8
TEXT
100
AcDbMText
 10
1288.2283354865181
 20
-434.86661100356127
 30
0.0
 40
33.866666666666667
 41
0.0
 71
               1
 72
               1
  1
最　大　消　費　電　力
  7
________
  0
MTEXT
  5
528
100
AcDbEntity
  8
TEXT
100
AcDbMText
 10
1288.2283354865181
 20
-384.7857914094609
 30
0.0
 40
33.866666666666667
 41
0.0
 71
               1
 72
               1
  1
電       源
  7
________
  0
MTEXT
  5
529
100
AcDbEntity
  8
TEXT
100
AcDbMText
 10
1288.2283354865181
 20
-534.84823140945696
 30
0.0
 40
33.866666666666667
 41
0.0
 71
               1
 72
               1
  1
質 　　 量
  7
________
  0
MTEXT
  5
52A
100
AcDbEntity
  8
TEXT
100
AcDbMText
 10
1288.2283354865181
 20
-62.651129187242759
 30
0.0
 40
33.866666666666667
 41
0.0
 71
               1
 72
               1
  1
洗 浄 タ ン ク 
  7
________
  0
MTEXT
  5
52B
100
AcDbEntity
  8
TEXT
100
AcDbMText
 10
2259.2777924963489
 20
-385.37910305617083
 30
0.0
 40
33.866666666666667
 41
0.0
 71
               1
 72
               1
  1
三相　200V　50・60 Hz
  7
________
  0
LINE
  5
52C
100
AcDbEntity
  8
TEXT
100
AcDbLine
 10
1248.5
 20
168.20998192386901
 30
0.0
 11
3138.5
 21
168.20998192386901
 31
0.0
  0
MTEXT
  5
52D
100
AcDbEntity
  8
TEXT
100
AcDbMText
 10
1288.2283354865181
 20
213.80436746811051
 30
0.0
 40
33.866666666666667
 41
0.0
 71
               1
 72
               1
  1
ラ ッ ク 処 理 数
  7
________
  0
LINE
  5
52E
100
AcDbEntity
  8
TEXT
100
AcDbLine
 10
3138.5
 20
468.20998192386901
 30
0.0
 11
3138.5
 21
-580.79001807613145
 31
0.0
  0
MTEXT
  5
52F
100
AcDbEntity
  8
TEXT
100
AcDbMText
 10
1288.2283354865181
 20
14.709981923869009
 30
0.0
 40
33.866666666666667
 41
0.0
 71
               1
 72
               1
  1
す す ぎ 湯 消 費 量
  7
________
  0
LINE
  5
530
100
AcDbEntity
  8
TEXT
100
AcDbLine
 10
1248.5
 20
-281.79001807613099
 30
0.0
 11
3138.5
 21
-281.79001807613099
 31
0.0
  0
LINE
  5
531
100
AcDbEntity
  8
TEXT
100
AcDbLine
 10
1248.5
 20
-331.79001807613099
 30
0.0
 11
3138.5
 21
-331.79001807613099
 31
0.0
  0
LINE
  5
532
100
AcDbEntity
  8
TEXT
100
AcDbLine
 10
1248.5
 20
-381.79001807613099
 30
0.0
 11
3138.5
 21
-381.79001807613099
 31
0.0
  0
MTEXT
  5
533
100
AcDbEntity
  8
TEXT
100
AcDbMText
 10
2023.6927968027185
 20
264.20998192386901
 30
0.0
 40
33.866666666666667
 41
0.0
 71
               1
 72
               1
  1
1ラック102秒  洗浄 87秒、水切 3秒、すすぎ 12秒
  7
________
  0
MTEXT
  5
534
100
AcDbEntity
  8
TEXT
100
AcDbMText
 10
1986.8628151047883
 20
214.20998192386901
 30
0.0
 40
33.866666666666667
 41
0.0
 71
               1
 72
               1
  1
短：50ラック/H、長：35ラック/H（500mm 角形ラック）
  7
________
  0
LINE
  5
535
100
AcDbEntity
  8
TEXT
100
AcDbLine
 10
1561.0
 20
68.209981923869009
 30
0.0
 11
3138.5
 21
68.209981923869009
 31
0.0
  0
LINE
  5
536
100
AcDbEntity
  8
TEXT
100
AcDbLine
 10
1561.0
 20
118.20998192386901
 30
0.0
 11
3138.5
 21
118.20998192386901
 31
0.0
  0
LINE
  5
537
100
AcDbEntity
  8
TEXT
100
AcDbLine
 10
1561.0
 20
168.20998192386901
 30
0.0
 11
1561.0
 21
18.209981923869009
 31
0.0
  0
MTEXT
  5
538
100
AcDbEntity
  8
TEXT
100
AcDbMText
 10
1571.5
 20
164.44887081275715
 30
0.0
 40
33.866666666666667
 41
0.0
 71
               1
 72
               1
  1
給 湯 温 度
  7
________
  0
MTEXT
  5
539
100
AcDbEntity
  8
TEXT
100
AcDbMText
 10
1571.5
 20
114.30998192386892
 30
0.0
 40
33.866666666666667
 41
0.0
 71
               1
 72
               1
  1
給 湯 量
  7
________
  0
MTEXT
  5
53A
100
AcDbEntity
  8
TEXT
100
AcDbMText
 10
1571.5
 20
64.009981923868736
 30
0.0
 40
33.866666666666667
 41
0.0
 71
               1
 72
               1
  1
給 湯 圧
  7
________
  0
MTEXT
  5
53B
100
AcDbEntity
  8
TEXT
100
AcDbMText
 10
2102.221137672198
 20
63.748870812756877
 30
0.0
 40
33.866666666666667
 41
0.0
 71
               1
 72
               1
  1
49.1 kPa ～491 kPa（0.5 ～ 5.0 kgf/cm ）
  7
________
  0
MTEXT
  5
53C
100
AcDbEntity
  8
TEXT
100
AcDbMText
 10
2366.1694564715349
 20
164.37664859053552
 30
0.0
 40
33.866666666666667
 41
0.0
 71
               1
 72
               1
  1
40 ℃以上
  7
________
  0
MTEXT
  5
53D
100
AcDbEntity
  8
TEXT
100
AcDbMText
 10
2330.6094500119807
 20
115.37664859053552
 30
0.0
 40
33.866666666666667
 41
0.0
 71
               1
 72
               1
  1
3.4 L/min以上
  7
________
  0
MTEXT
  5
53E
100
AcDbEntity
  8
TEXT
100
AcDbMText
 10
2369.5561199084245
 20
13.948870812757605
 30
0.0
 40
33.866666666666667
 41
0.0
 71
               1
 72
               1
  1
2.2 L/ﾗｯｸ
  7
________
  0
LINE
  5
53F
100
AcDbEntity
  8
TEXT
100
AcDbLine
 10
1248.5
 20
-430.79001807613145
 30
0.0
 11
3138.5
 21
-430.79001807613145
 31
0.0
  0
LINE
  5
540
100
AcDbEntity
  8
TEXT
100
AcDbLine
 10
1248.5
 20
-530.79001807613145
 30
0.0
 11
3138.5
 21
-530.79001807613145
 31
0.0
  0
MTEXT
  5
541
100
AcDbEntity
  8
TEXT
100
AcDbMText
 10
1842.5261570508601
 20
-40.256684742798143
 30
0.0
 40
33.866666666666667
 41
1219.9738429491399
 71
               1
 72
               1
  1
タンク 容量：33 L、電気ヒータ ー1.0 kW サーミスター方式（65℃設定）\P液面スイッチによる空焚き防止
  7
________
  0
MTEXT
  5
542
100
AcDbEntity
  8
TEXT
100
AcDbMText
 10
1288.2283354865181
 20
-286.29001807613145
 30
0.0
 40
33.866666666666667
 41
0.0
 71
               1
 72
               1
  1
洗 浄 ポ ン プ
  7
________
  0
MTEXT
  5
543
100
AcDbEntity
  8
TEXT
100
AcDbMText
 10
2248.9061306743479
 20
-285.75112918724312
 30
0.0
 40
33.866666666666667
 41
0.0
 71
               1
 72
               1
  1
電動機定格出力 750 W
  7
________
  0
MTEXT
  5
544
100
AcDbEntity
  8
TEXT
100
AcDbMText
 10
1288.2283354865181
 20
-335.79001807613145
 30
0.0
 40
33.866666666666667
 41
0.0
 71
               1
 72
               1
  1
す す ぎ ポ ン プ
  7
________
  0
MTEXT
  5
545
100
AcDbEntity
  8
TEXT
100
AcDbMText
 10
2259.4894640076814
 20
-335.79001807613145
 30
0.0
 40
33.866666666666667
 41
0.0
 71
               1
 72
               1
  1
電動機定格出力 60 W
  7
________
  0
MTEXT
  5
546
100
AcDbEntity
  8
TEXT
100
AcDbMText
 10
2400.0361211195909
 20
-435.03421833367861
 30
0.0
 40
33.866666666666667
 41
0.0
 71
               1
 72
               1
  1
8.0 kW
  7
________
  0
LINE
  5
547
100
AcDbEntity
  8
TEXT
100
AcDbLine
 10
1248.5
 20
-580.79001807613145
 30
0.0
 11
3138.5
 21
-580.79001807613145
 31
0.0
  0
MTEXT
  5
548
100
AcDbEntity
  8
TEXT
100
AcDbMText
 10
2403.8461208504427
 20
-534.99001807613081
 30
0.0
 40
33.866666666666667
 41
0.0
 71
               1
 72
               1
  1
 60 kg
  7
________
  0
MTEXT
  5
549
100
AcDbEntity
  8
TEXT
100
AcDbMText
 10
1571.5
 20
389.8488708127577
 30
0.0
 40
33.866666666666667
 41
0.0
 71
               1
 72
               1
  1
すすぎ
  7
________
  0
MTEXT
  5
54A
100
AcDbEntity
  8
TEXT
100
AcDbMText
 10
1587.2999999999997
 20
314.56300528292718
 30
0.0
 40
33.866666666666667
 41
0.0
 71
               1
 72
               1
  1
短
  7
________
  0
MTEXT
  5
54B
100
AcDbEntity
  8
TEXT
100
AcDbMText
 10
1587.2999999999997
 20
264.34887081275724
 30
0.0
 40
33.866666666666667
 41
0.0
 71
               1
 72
               1
  1
長
  7
________
  0
LINE
  5
54C
100
AcDbEntity
  8
TEXT
100
AcDbLine
 10
1248.5
 20
-31.790018076130991
 30
0.0
 11
3138.5
 21
-31.790018076130991
 31
0.0
  0
MTEXT
  5
54D
100
AcDbEntity
  8
TEXT
100
AcDbMText
 10
1288.2283354865181
 20
-484.86661100356127
 30
0.0
 40
33.866666666666667
 41
0.0
 71
               1
 72
               1
  1
最　大　電  流  値
  7
________
  0
LINE
  5
54E
100
AcDbEntity
  8
TEXT
100
AcDbLine
 10
1248.5
 20
-480.79001807613145
 30
0.0
 11
3138.5
 21
-480.79001807613145
 31
0.0
  0
MTEXT
  5
54F
100
AcDbEntity
  8
TEXT
100
AcDbMText
 10
2400.0361211195909
 20
-485.03421833367861
 30
0.0
 40
33.866666666666667
 41
0.0
 71
               1
 72
               1
  1
25.3 A
  7
________
  0
MTEXT
  5
550
100
AcDbEntity
  8
DIMENTION
100
AcDbMText
 10
796.71666666666658
 20
-1552.2333333333331
 30
0.0
 40
16.933333333333334
 41
0.0
 71
               1
 72
               1
  1
2
  7
________
  0
POLYLINE
  5
551
100
AcDbEntity
  8
HIDDEN
100
AcDb2dPolyline
 66
               1
 10
0.0
 20
0.0
 30
0.0
 70
               1
 75
               5
  0
VERTEX
  5
552
100
AcDbEntity
  8
HIDDEN
100
AcDbVertex
100
AcDb2dVertex
 10
332.5
 20
-178.49999999662532
 30
0.0
  0
VERTEX
  5
553
100
AcDbEntity
  8
HIDDEN
100
AcDbVertex
100
AcDb2dVertex
 10
382.5
 20
-178.49999999662532
 30
0.0
  0
VERTEX
  5
554
100
AcDbEntity
  8
HIDDEN
100
AcDbVertex
100
AcDb2dVertex
 10
382.5
 20
-218.49999999662532
 30
0.0
  0
VERTEX
  5
555
100
AcDbEntity
  8
HIDDEN
100
AcDbVertex
100
AcDb2dVertex
 10
332.5
 20
-218.49999999662532
 30
0.0
  0
SEQEND
  5
556
100
AcDbEntity
  8
HIDDEN
  0
LINE
  5
557
100
AcDbEntity
  8
CENTER
100
AcDbLine
 10
307.0
 20
-198.49999999662532
 30
0.0
 11
392.5
 21
-198.49999999662532
 31
0.0
  0
DIMENSION
  5
558
100
AcDbEntity
  8
DIMENTION
100
AcDbDimension
  2
*D1
 10
573.5
 20
-288.49999999662532
 30
0.0
 11
573.5
 21
-243.49999999662532
 31
0.0
  3
CAD
100
AcDbAlignedDimension
 13
392.5
 23
-198.49999999662532
 33
0.0
 14
479.5
 24
-288.49999999662532
 34
0.0
 50
90.0
100
AcDbRotatedDimension
1001
ACAD
1000
DSTYLE
1002
{
1070
             340
1005
6F
1070
             147
1040
0.9999999962747097
1002
}
  0
DIMENSION
  5
559
100
AcDbEntity
  8
DIMENTION
100
AcDbDimension
  2
*D2
 10
322.5
 20
-388.79001807613105
 30
0.0
 11
252.5
 21
-387.79001807985634
 31
0.0
 70
             128
  3
CAD
100
AcDbAlignedDimension
 13
182.5
 23
-282.49999999662532
 33
0.0
 14
322.5
 24
-215.79001807613099
 34
0.0
100
AcDbRotatedDimension
1001
ACAD
1000
DSTYLE
1002
{
1070
             340
1005
6F
1070
             147
1040
0.9999999962747097
1002
}
  0
LINE
  5
55A
100
AcDbEntity
  8
HIDDEN
100
AcDbLine
 10
322.5
 20
-188.49999999662532
 30
0.0
 11
337.5
 21
-188.49999999662532
 31
0.0
  0
LINE
  5
55B
100
AcDbEntity
  8
HIDDEN
100
AcDbLine
 10
322.5
 20
-191.49999999662532
 30
0.0
 11
337.5
 21
-191.49999999662532
 31
0.0
  0
DIMENSION
  5
55C
100
AcDbEntity
  8
DIMENTION
100
AcDbDimension
  2
*D3
 10
85.303406711790558
 20
-1780.0
 30
0.0
 11
84.303406715515848
 21
-1867.7204409139904
 31
0.0
 70
             128
  3
CAD
100
AcDbAlignedDimension
 13
283.5
 23
-1805.0
 33
0.0
 14
362.5
 24
-1780.0
 34
0.0
 50
90.0
100
AcDbRotatedDimension
1001
ACAD
1000
DSTYLE
1002
{
1070
             340
1005
6F
1070
             174
1070
               0
1070
             147
1040
0.9999999962747097
1002
}
  0
LINE
  5
55D
100
AcDbEntity
  8
DIMENTION
100
AcDbLine
 10
322.5
 20
-198.49999999662532
 30
0.0
 11
-227.5
 21
-568.79001807613099
 31
0.0
  0
LINE
  5
55E
100
AcDbEntity
  8
DIMENTION
100
AcDbLine
 10
322.5
 20
-198.49999999662532
 30
0.0
 11
307.26076066250118
 21
-215.42488992132883
 31
0.0
  0
LINE
  5
55F
100
AcDbEntity
  8
DIMENTION
100
AcDbLine
 10
322.5
 20
-198.49999999662532
 30
0.0
 11
300.83998663702312
 21
-205.53776495892441
 31
0.0
  0
LINE
  5
560
100
AcDbEntity
  8
DIMENTION
100
AcDbLine
 10
-227.5
 20
-568.79001807613099
 30
0.0
 11
-520.00000000457385
 21
-568.79001807613099
 31
0.0
  0
MTEXT
  5
561
100
AcDbEntity
  8
DIMENTION
100
AcDbMText
 10
-512.5
 20
-521.90631807613113
 30
0.0
 40
33.866666666666667
 41
0.0
 71
               1
 72
               1
  1
給湯接続口15A 
  7
________
  0
DIMENSION
  5
562
100
AcDbEntity
  8
DIMENTION
100
AcDbDimension
  2
*D4
 10
182.5
 20
-1866.790018076131
 30
0.0
 11
252.5
 21
-1865.7900180798563
 31
0.0
 70
             128
  3
CAD
100
AcDbAlignedDimension
 13
322.5
 23
-1794.0
 33
0.0
 14
182.5
 24
-1770.0
 34
0.0
100
AcDbRotatedDimension
1001
ACAD
1000
DSTYLE
1002
{
1070
             340
1005
6F
1070
             147
1040
0.9999999962747097
1002
}
  0
DIMENSION
  5
563
100
AcDbEntity
  8
DIMENTION
100
AcDbDimension
  2
*D5
 10
-114.5
 20
-1954.0000000037253
 30
0.0
 11
178.5
 21
-1953.0000000074506
 31
0.0
 70
             128
  1
595
  3
CAD
100
AcDbAlignedDimension
 13
479.5
 23
-1755.0
 33
0.0
 14
-114.5
 24
-1755.0
 34
0.0
100
AcDbRotatedDimension
1001
ACAD
1000
DSTYLE
1002
{
1070
             340
1005
6F
1070
             147
1040
0.9999999962747097
1002
}
  0
LINE
  5
564
100
AcDbEntity
  8
DIMENTION
100
AcDbLine
 10
2378.5
 20
-1891.790018076131
 30
0.0
 11
2817.5
 21
-1891.790018076131
 31
0.0
  0
MTEXT
  5
565
100
AcDbEntity
  8
DIMENTION
100
AcDbMText
 10
2382.755450807445
 20
-1841.7153180761311
 30
0.0
 40
33.866666666666667
 41
0.0
 71
               1
 72
               1
  1
排水接続口25A{\H0.9708x;\lおすねじ}\P塩ビホース1{\H0.9311x;\lm}{\H0.9311x;\l付属}
  7
________
  0
LINE
  5
566
100
AcDbEntity
  8
DIMENTION
100
AcDbLine
 10
2378.5
 20
-1937.790018076131
 30
0.0
 11
2729.5
 21
-1937.790018076131
 31
0.0
  0
LINE
  5
567
100
AcDbEntity
  8
DIMENTION
100
AcDbLine
 10
2378.5
 20
-1937.790018076131
 30
0.0
 11
2378.5
 21
-1891.790018076131
 31
0.0
  0
LINE
  5
568
100
AcDbEntity
  8
DIMENTION
100
AcDbLine
 10
2378.5
 20
-1891.790018076131
 30
0.0
 11
1998.0
 21
-1792.0
 31
0.0
  0
LINE
  5
569
100
AcDbEntity
  8
DIMENTION
100
AcDbLine
 10
1998.0
 20
-1792.0
 30
0.0
 11
2030.8700187280201
 21
-1792.0
 31
0.0
  0
LINE
  5
56A
100
AcDbEntity
  8
DIMENTION
100
AcDbLine
 10
1998.0
 20
-1792.0
 30
0.0
 11
2026.4662712413356
 21
-1808.4350093640101
 31
0.0
  0
DIMENSION
  5
56B
100
AcDbEntity
  8
DIMENTION
100
AcDbDimension
  2
*D6
 10
2280.0
 20
-739.79001807613099
 30
0.0
 11
1976.0
 21
-738.79001807985628
 31
0.0
 70
             128
  3
CAD
100
AcDbAlignedDimension
 13
1680.0
 23
-1425.0
 33
0.0
 14
2280.0
 24
-952.5
 34
0.0
100
AcDbRotatedDimension
1001
ACAD
1000
DSTYLE
1002
{
1070
             340
1005
6F
1070
             147
1040
0.9999999962747097
1002
}
  0
DIMENSION
  5
56C
100
AcDbEntity
  8
DIMENTION
100
AcDbDimension
  2
*D7
 10
1289.0000000000009
 20
-740.79001807613099
 30
0.0
 11
1489.5
 21
-739.79001807985628
 31
0.0
 70
             128
  1
390
  3
CAD
100
AcDbAlignedDimension
 13
1680.0
 23
-1425.0
 33
0.0
 14
1289.0000000000009
 24
-1398.0
 34
0.0
100
AcDbRotatedDimension
1001
ACAD
1000
DSTYLE
1002
{
1070
             340
1005
6F
1070
             147
1040
0.9999999962747097
1002
}
  0
DIMENSION
  5
56D
100
AcDbEntity
  8
DIMENTION
100
AcDbDimension
  2
*D8
 10
1680.0
 20
-898.79001807613099
 30
0.0
 11
1627.0
 21
-897.79001807985628
 31
0.0
 70
             128
  1
30
  3
CAD
100
AcDbAlignedDimension
 13
1655.5
 23
-1065.0
 33
0.0
 14
1680.0
 24
-1425.0
 34
0.0
100
AcDbRotatedDimension
1001
ACAD
1000
DSTYLE
1002
{
1070
             340
1005
6F
1070
             174
1070
               0
1070
             147
1040
0.9999999962747097
1002
}
  0
DIMENSION
  5
56E
100
AcDbEntity
  8
DIMENTION
100
AcDbDimension
  2
*D9
 10
1690.0
 20
-819.29001807613099
 30
0.0
 11
1998.7850467289718
 21
-818.29001807985628
 31
0.0
 70
             128
  1
590
  3
CAD
100
AcDbAlignedDimension
 13
2280.0
 23
-952.5
 33
0.0
 14
1690.0
 24
-952.5
 34
0.0
100
AcDbRotatedDimension
1001
ACAD
1000
DSTYLE
1002
{
1070
             340
1005
6F
1070
             147
1040
0.9999999962747097
1002
}
  0
DIMENSION
  5
56F
100
AcDbEntity
  8
DIMENTION
100
AcDbDimension
  2
*D10
 10
1310.0
 20
-819.29001807613099
 30
0.0
 11
1495.0
 21
-818.29001807985628
 31
0.0
 70
             128
  1
370
  3
CAD
100
AcDbAlignedDimension
 13
1680.0
 23
-1425.0
 33
0.0
 14
1310.0
 24
-812.79001807613099
 34
0.0
100
AcDbRotatedDimension
1001
ACAD
1000
DSTYLE
1002
{
1070
             340
1005
6F
1070
             147
1040
0.9999999962747097
1002
}
  0
DIMENSION
  5
570
100
AcDbEntity
  8
DIMENTION
100
AcDbDimension
  2
*D11
 10
664.5000000037254
 20
-288.49999999662532
 30
0.0
 11
665.50000000000011
 21
-20.249999996625434
 31
0.0
 70
             128
  3
CAD
100
AcDbAlignedDimension
 13
482.5
 23
311.50000000337445
 33
0.0
 14
479.5
 24
-288.49999999662532
 34
0.0
 50
90.0
100
AcDbRotatedDimension
1001
ACAD
1000
DSTYLE
1002
{
1070
             340
1005
6F
1070
             147
1040
0.9999999962747097
1002
}
  0
DIMENSION
  5
571
100
AcDbEntity
  8
DIMENTION
100
AcDbDimension
  2
*D12
 10
2118.5
 20
-1775.0
 30
0.0
 11
2119.4999999962747
 21
-1859.790018076131
 31
0.0
 70
             128
  3
CAD
100
AcDbAlignedDimension
 13
2096.0
 23
-1805.0
 33
0.0
 14
2080.5
 24
-1775.0
 34
0.0
 50
90.0
100
AcDbRotatedDimension
1001
ACAD
1000
DSTYLE
1002
{
1070
             340
1005
6F
1070
             140
1040
33.86666666666666
1070
             174
1070
               0
1070
             147
1040
0.9999999962747097
1002
}
  0
LINE
  5
572
100
AcDbEntity
  8
DIMENTION
100
AcDbLine
 10
392.5
 20
-1780.0
 30
0.0
 11
585.06419999542595
 21
-1870.9566847427977
 31
0.0
  0
LINE
  5
573
100
AcDbEntity
  8
DIMENTION
100
AcDbLine
 10
392.5
 20
-1780.0
 30
0.0
 11
414.85625070291746
 21
-1784.3456149227934
 31
0.0
  0
LINE
  5
574
100
AcDbEntity
  8
DIMENTION
100
AcDbLine
 10
392.5
 20
-1780.0
 30
0.0
 11
409.68827358070359
 21
-1794.9415382696625
 31
0.0
  0
LINE
  5
575
100
AcDbEntity
  8
DIMENTION
100
AcDbLine
 10
905.5
 20
-1870.9566847427977
 30
0.0
 11
585.06419999542595
 21
-1870.9566847427977
 31
0.0
  0
MTEXT
  5
576
100
AcDbEntity
  8
DIMENTION
100
AcDbMText
 10
586.375
 20
-1824.7900180761308
 30
0.0
 40
33.866666666666667
 41
0.0
 71
               1
 72
               1
  1
ストレーナキャップ
  7
________
  0
DIMENSION
  5
577
100
AcDbEntity
  8
DIMENTION
100
AcDbDimension
  2
*D13
 10
1954.0
 20
-1864.790018076131
 30
0.0
 11
1976.0
 21
-1863.7900180798563
 31
0.0
 70
             128
  1
45
  3
CAD
100
AcDbAlignedDimension
 13
1998.0
 23
-1758.0
 33
0.0
 14
1954.0
 24
-1749.990018076131
 34
0.0
100
AcDbRotatedDimension
1001
ACAD
1000
DSTYLE
1002
{
1070
             340
1005
6F
1070
             140
1040
33.86666666666666
1070
             147
1040
0.9999999962747097
1002
}
  0
DIMENSION
  5
578
100
AcDbEntity
  8
DIMENTION
100
AcDbDimension
  2
*D14
 10
1680.0
 20
-1864.790018076131
 30
0.0
 11
1824.5
 21
-1863.7900180798563
 31
0.0
 70
             128
  1
275
  3
CAD
100
AcDbAlignedDimension
 13
1954.0
 23
-1758.0
 33
0.0
 14
1680.0
 24
-1545.0
 34
0.0
100
AcDbRotatedDimension
1001
ACAD
1000
DSTYLE
1002
{
1070
             340
1005
6F
1070
             140
1040
33.86666666666666
1070
             147
1040
0.9999999962747097
1002
}
  0
INSERT
  5
579
100
AcDbEntity
  8
HIDDEN
100
AcDbBlockReference
  2
*U15
 10
1264.1173000028066
 20
-776.00000000172281
 30
0.0
  0
ARC
  5
57A
100
AcDbEntity
  8
DIMENTION
100
AcDbCircle
 10
-36.799310626779516
 20
-37.093624168431461
 30
0.0
 40
60.0
100
AcDbArc
 50
150.00000000000003
 51
29.999999999999986
  0
SOLID
  5
57B
100
AcDbEntity
  8
DIMENTION
100
AcDbTrace
 10
15.162213600286805
 20
-7.0936241684314609
 30
0.0
 11
38.404826740598764
 21
-30.336237308743307
 31
0.0
 12
23.669600459974845
 22
-38.843624168431461
 32
0.0
 13
23.669600459974845
 23
-38.843624168431461
 33
0.0
  0
SOLID
  5
57C
100
AcDbEntity
  8
DIMENTION
100
AcDbTrace
 10
-88.760834853845836
 20
-7.0936241684314609
 30
0.0
 11
-97.268221713533876
 21
-38.843624168431461
 31
0.0
 12
-112.0034479941578
 22
-30.336237308743307
 32
0.0
 13
-112.0034479941578
 23
-30.336237308743307
 33
0.0
  0
DIMENSION
  5
57D
100
AcDbEntity
  8
DIMENTION
100
AcDbDimension
  2
*D16
 10
2421.5
 20
-951.0
 30
0.0
 11
2421.5
 21
-1378.0
 31
0.0
  3
CAD
100
AcDbAlignedDimension
 13
2261.0
 23
-1805.0
 33
0.0
 14
2282.4000000000001
 24
-951.0
 34
0.0
 50
90.0
100
AcDbRotatedDimension
1001
ACAD
1000
DSTYLE
1002
{
1070
             340
1005
6F
1070
             140
1040
39.51111111111112
1070
             147
1040
0.9999999962747097
1002
}
  0
LINE
  5
57E
100
AcDbEntity
  8
OBJECT
100
AcDbLine
 10
-114.5
 20
-1745.0
 30
0.0
 11
-114.5
 21
-1425.0
 31
0.0
  0
LINE
  5
57F
100
AcDbEntity
  8
CENTER
  6
STYLE_07
100
AcDbLine
 10
182.5
 20
-1435.0
 30
0.0
 11
182.5
 21
-1035.0
 31
0.0
  0
LINE
  5
580
100
AcDbEntity
  8
CENTER
  6
CONTINUOUS
100
AcDbLine
 10
182.5
 20
-1824.0
 30
0.0
 11
182.5
 21
-924.0
 31
0.0
  0
LINE
  5
581
100
AcDbEntity
  8
OBJECT
100
AcDbLine
 10
479.5
 20
-1535.0
 30
0.0
 11
265.0
 21
-1535.0
 31
0.0
  0
LINE
  5
582
100
AcDbEntity
  8
OBJECT
100
AcDbLine
 10
260.0
 20
-1535.0
 30
0.0
 11
105.0
 21
-1535.0
 31
0.0
  0
LINE
  5
583
100
AcDbEntity
  8
OBJECT
100
AcDbLine
 10
100.0
 20
-1535.0
 30
0.0
 11
-114.5
 21
-1535.0
 31
0.0
  0
LINE
  5
584
100
AcDbEntity
  8
OBJECT
100
AcDbLine
 10
479.5
 20
-1425.0
 30
0.0
 11
265.0
 21
-1425.0
 31
0.0
  0
LINE
  5
585
100
AcDbEntity
  8
OBJECT
100
AcDbLine
 10
260.0
 20
-1425.0
 30
0.0
 11
105.0
 21
-1425.0
 31
0.0
  0
LINE
  5
586
100
AcDbEntity
  8
OBJECT
100
AcDbLine
 10
100.0
 20
-1425.0
 30
0.0
 11
-114.5
 21
-1425.0
 31
0.0
  0
LINE
  5
587
100
AcDbEntity
  8
CENTER
  6
CONTINUOUS
100
AcDbLine
 10
437.5
 20
-1815.0
 30
0.0
 11
437.5
 21
-1735.0
 31
0.0
  0
INSERT
  5
588
100
AcDbEntity
  8
OBJECT
100
AcDbBlockReference
  2
*U17
 10
1264.1173000028066
 20
-776.00000000172281
 30
0.0
  0
LINE
  5
589
100
AcDbEntity
  8
HIDDEN
100
AcDbLine
 10
257.5
 20
-1640.0
 30
0.0
 11
257.5
 21
-1745.0
 31
0.0
  0
LINE
  5
58A
100
AcDbEntity
  8
HIDDEN
100
AcDbLine
 10
257.5
 20
-1640.0
 30
0.0
 11
482.5
 21
-1556.0
 31
0.0
  0
LINE
  5
58B
100
AcDbEntity
  8
OBJECT
100
AcDbLine
 10
-114.5
 20
-1755.0
 30
0.0
 11
-114.5
 21
-1425.0
 31
0.0
  0
LINE
  5
58C
100
AcDbEntity
  8
OBJECT
100
AcDbLine
 10
479.5
 20
-1755.0
 30
0.0
 11
-114.5
 21
-1755.0
 31
0.0
  0
LINE
  5
58D
100
AcDbEntity
  8
HIDDEN
100
AcDbLine
 10
-108.0
 20
-955.0
 30
0.0
 11
474.5
 21
-955.0
 31
0.0
  0
LINE
  5
58E
100
AcDbEntity
  8
CENTER
  6
CONTINUOUS
100
AcDbLine
 10
-72.5
 20
-1815.0
 30
0.0
 11
-72.5
 21
-1735.0
 31
0.0
  0
INSERT
  5
58F
100
AcDbEntity
  8
OBJECT
100
AcDbBlockReference
  2
*U18
 10
1264.1173000028066
 20
-776.00000000172281
 30
0.0
  0
LINE
  5
590
100
AcDbEntity
  8
HIDDEN
100
AcDbLine
 10
274.83156802245594
 20
-1633.5295479382833
 30
0.0
 11
269.58525553998425
 21
-1619.4769252173762
 31
0.0
  0
LINE
  5
591
100
AcDbEntity
  8
HIDDEN
100
AcDbLine
 10
455.64198036483594
 20
-1566.0269939971279
 30
0.0
 11
450.39566788236061
 21
-1551.9743712762115
 31
0.0
  0
LINE
  5
592
100
AcDbEntity
  8
HIDDEN
100
AcDbLine
 10
269.58525553998425
 20
-1619.4769252173762
 30
0.0
 11
450.39566788236061
 21
-1551.9743712762115
 31
0.0
  0
LINE
  5
593
100
AcDbEntity
  8
OBJECT
100
AcDbLine
 10
-114.0
 20
-1015.0
 30
0.0
 11
479.0
 21
-1015.0
 31
0.0
  0
LINE
  5
594
100
AcDbEntity
  8
OBJECT
100
AcDbLine
 10
272.5
 20
-1025.0
 30
0.0
 11
462.5
 21
-1025.0
 31
0.0
  0
LINE
  5
595
100
AcDbEntity
  8
OBJECT
100
AcDbLine
 10
478.0
 20
-1425.0
 30
0.0
 11
478.0
 21
-1015.0
 31
0.0
  0
LINE
  5
596
100
AcDbEntity
  8
HIDDEN
100
AcDbLine
 10
478.0
 20
-1014.9412955235669
 30
0.0
 11
478.0
 21
-983.0
 31
0.0
  0
LINE
  5
597
100
AcDbEntity
  8
HIDDEN
100
AcDbLine
 10
182.5
 20
-958.0
 30
0.0
 11
478.0
 21
-983.0
 31
0.0
  0
LINE
  5
598
100
AcDbEntity
  8
OBJECT
100
AcDbLine
 10
479.5
 20
-1755.0
 30
0.0
 11
479.5
 21
-1425.0
 31
0.0
  0
LINE
  5
599
100
AcDbEntity
  8
OBJECT
100
AcDbLine
 10
465.5
 20
-1425.0
 30
0.0
 11
465.5
 21
-1028.0
 31
0.0
  0
LINE
  5
59A
100
AcDbEntity
  8
OBJECT
100
AcDbLine
 10
-113.0
 20
-1425.0
 30
0.0
 11
-113.0
 21
-1015.0
 31
0.0
  0
LINE
  5
59B
100
AcDbEntity
  8
HIDDEN
100
AcDbLine
 10
182.5
 20
-958.0
 30
0.0
 11
-113.0
 21
-983.0
 31
0.0
  0
LINE
  5
59C
100
AcDbEntity
  8
CENTER
100
AcDbLine
 10
108.5
 20
-1595.0
 30
0.0
 11
107.5
 21
-1595.0
 31
0.0
  0
CIRCLE
  5
59D
100
AcDbEntity
  8
OBJECT
100
AcDbCircle
 10
182.5
 20
-1595.0
 30
0.0
 40
14.999999999999961
  0
LINE
  5
59E
100
AcDbEntity
  8
OBJECT
100
AcDbLine
 10
167.70980054225083
 20
-1592.5
 30
0.0
 11
118.5
 21
-1592.5
 31
0.0
  0
LINE
  5
59F
100
AcDbEntity
  8
OBJECT
100
AcDbLine
 10
108.5
 20
-1592.5
 30
0.0
 11
107.5
 21
-1592.5
 31
0.0
  0
LINE
  5
5A0
100
AcDbEntity
  8
OBJECT
100
AcDbLine
 10
167.70980054225083
 20
-1597.5
 30
0.0
 11
118.5
 21
-1597.5
 31
0.0
  0
LINE
  5
5A1
100
AcDbEntity
  8
OBJECT
100
AcDbLine
 10
108.5
 20
-1597.5
 30
0.0
 11
107.5
 21
-1597.5
 31
0.0
  0
LINE
  5
5A2
100
AcDbEntity
  8
OBJECT
100
AcDbLine
 10
100.0
 20
-1590.0
 30
0.0
 11
100.0
 21
-1250.0
 31
0.0
  0
LINE
  5
5A3
100
AcDbEntity
  8
OBJECT
100
AcDbLine
 10
105.0
 20
-1590.0
 30
0.0
 11
105.0
 21
-1250.0
 31
0.0
  0
ARC
  5
5A4
100
AcDbEntity
  8
OBJECT
100
AcDbCircle
 10
107.5
 20
-1590.0
 30
0.0
 40
7.5
100
AcDbArc
 50
180.0
 51
270.0
  0
ARC
  5
5A5
100
AcDbEntity
  8
OBJECT
100
AcDbCircle
 10
107.5
 20
-1590.0
 30
0.0
 40
2.5
100
AcDbArc
 50
180.0
 51
270.0
  0
POLYLINE
  5
5A6
100
AcDbEntity
  8
OBJECT
100
AcDb2dPolyline
 66
               1
 10
0.0
 20
0.0
 30
0.0
 70
               1
 75
               5
  0
VERTEX
  5
5A7
100
AcDbEntity
  8
OBJECT
100
AcDbVertex
100
AcDb2dVertex
 10
108.5
 20
-1582.0
 30
0.0
  0
VERTEX
  5
5A8
100
AcDbEntity
  8
OBJECT
100
AcDbVertex
100
AcDb2dVertex
 10
118.5
 20
-1582.0
 30
0.0
  0
VERTEX
  5
5A9
100
AcDbEntity
  8
OBJECT
100
AcDbVertex
100
AcDb2dVertex
 10
118.5
 20
-1608.0
 30
0.0
  0
VERTEX
  5
5AA
100
AcDbEntity
  8
OBJECT
100
AcDbVertex
100
AcDb2dVertex
 10
108.5
 20
-1608.0
 30
0.0
  0
SEQEND
  5
5AB
100
AcDbEntity
  8
OBJECT
  0
ARC
  5
5AC
100
AcDbEntity
  8
OBJECT
100
AcDbCircle
 10
107.5
 20
-1250.0
 30
0.0
 40
7.5
100
AcDbArc
 50
90.0
 51
180.0
  0
ARC
  5
5AD
100
AcDbEntity
  8
OBJECT
100
AcDbCircle
 10
107.5
 20
-1250.0
 30
0.0
 40
2.5
100
AcDbArc
 50
90.0
 51
180.0
  0
LINE
  5
5AE
100
AcDbEntity
  8
OBJECT
100
AcDbLine
 10
107.5
 20
-1242.5
 30
0.0
 11
108.5
 21
-1242.5
 31
0.0
  0
LINE
  5
5AF
100
AcDbEntity
  8
OBJECT
100
AcDbLine
 10
107.5
 20
-1247.5
 30
0.0
 11
108.5
 21
-1247.5
 31
0.0
  0
LINE
  5
5B0
100
AcDbEntity
  8
OBJECT
100
AcDbLine
 10
110.5
 20
-1237.5
 30
0.0
 11
182.5
 21
-1237.5
 31
0.0
  0
LINE
  5
5B1
100
AcDbEntity
  8
OBJECT
100
AcDbLine
 10
110.5
 20
-1252.5
 30
0.0
 11
182.5
 21
-1252.5
 31
0.0
  0
LINE
  5
5B2
100
AcDbEntity
  8
OBJECT
100
AcDbLine
 10
108.5
 20
-1250.5
 30
0.0
 11
108.5
 21
-1239.5
 31
0.0
  0
ARC
  5
5B3
100
AcDbEntity
  8
OBJECT
100
AcDbCircle
 10
110.5
 20
-1239.5
 30
0.0
 40
2.0
100
AcDbArc
 50
90.0
 51
180.0
  0
ARC
  5
5B4
100
AcDbEntity
  8
OBJECT
100
AcDbCircle
 10
110.5
 20
-1250.5
 30
0.0
 40
2.0
100
AcDbArc
 50
180.0
 51
270.0
  0
LINE
  5
5B5
100
AcDbEntity
  8
OBJECT
100
AcDbLine
 10
182.5
 20
-1610.0
 30
0.0
 11
107.5
 21
-1610.0
 31
0.0
  0
LINE
  5
5B6
100
AcDbEntity
  8
OBJECT
100
AcDbLine
 10
97.5
 20
-1600.0
 30
0.0
 11
97.5
 21
-1545.0
 31
0.0
  0
ARC
  5
5B7
100
AcDbEntity
  8
OBJECT
100
AcDbCircle
 10
107.5
 20
-1600.0
 30
0.0
 40
10.0
100
AcDbArc
 50
180.0
 51
270.0
  0
LINE
  5
5B8
100
AcDbEntity
  8
OBJECT
100
AcDbLine
 10
479.5
 20
-1545.0
 30
0.0
 11
265.0
 21
-1545.0
 31
0.0
  0
LINE
  5
5B9
100
AcDbEntity
  8
OBJECT
100
AcDbLine
 10
260.0
 20
-1545.0
 30
0.0
 11
105.0
 21
-1545.0
 31
0.0
  0
LINE
  5
5BA
100
AcDbEntity
  8
OBJECT
100
AcDbLine
 10
100.0
 20
-1545.0
 30
0.0
 11
-114.5
 21
-1545.0
 31
0.0
  0
LINE
  5
5BB
100
AcDbEntity
  8
CENTER
100
AcDbLine
 10
256.5
 20
-1595.0
 30
0.0
 11
257.5
 21
-1595.0
 31
0.0
  0
LINE
  5
5BC
100
AcDbEntity
  8
OBJECT
100
AcDbLine
 10
197.29019945774917
 20
-1592.5
 30
0.0
 11
246.5
 21
-1592.5
 31
0.0
  0
LINE
  5
5BD
100
AcDbEntity
  8
OBJECT
100
AcDbLine
 10
256.5
 20
-1592.5
 30
0.0
 11
257.5
 21
-1592.5
 31
0.0
  0
LINE
  5
5BE
100
AcDbEntity
  8
OBJECT
100
AcDbLine
 10
197.29019945774917
 20
-1597.5
 30
0.0
 11
246.5
 21
-1597.5
 31
0.0
  0
LINE
  5
5BF
100
AcDbEntity
  8
OBJECT
100
AcDbLine
 10
256.5
 20
-1597.5
 30
0.0
 11
257.5
 21
-1597.5
 31
0.0
  0
LINE
  5
5C0
100
AcDbEntity
  8
OBJECT
100
AcDbLine
 10
265.0
 20
-1590.0
 30
0.0
 11
265.0
 21
-1250.0
 31
0.0
  0
LINE
  5
5C1
100
AcDbEntity
  8
OBJECT
100
AcDbLine
 10
260.0
 20
-1590.0
 30
0.0
 11
260.0
 21
-1250.0
 31
0.0
  0
ARC
  5
5C2
100
AcDbEntity
  8
OBJECT
100
AcDbCircle
 10
257.5
 20
-1590.0
 30
0.0
 40
7.5
100
AcDbArc
 50
270.0
 51
0.0
  0
ARC
  5
5C3
100
AcDbEntity
  8
OBJECT
100
AcDbCircle
 10
257.5
 20
-1590.0
 30
0.0
 40
2.5
100
AcDbArc
 50
270.0
 51
0.0
  0
POLYLINE
  5
5C4
100
AcDbEntity
  8
OBJECT
100
AcDb2dPolyline
 66
               1
 10
0.0
 20
0.0
 30
0.0
 70
               1
 75
               5
  0
VERTEX
  5
5C5
100
AcDbEntity
  8
OBJECT
100
AcDbVertex
100
AcDb2dVertex
 10
246.5
 20
-1582.0
 30
0.0
  0
VERTEX
  5
5C6
100
AcDbEntity
  8
OBJECT
100
AcDbVertex
100
AcDb2dVertex
 10
256.5
 20
-1582.0
 30
0.0
  0
VERTEX
  5
5C7
100
AcDbEntity
  8
OBJECT
100
AcDbVertex
100
AcDb2dVertex
 10
256.5
 20
-1608.0
 30
0.0
  0
VERTEX
  5
5C8
100
AcDbEntity
  8
OBJECT
100
AcDbVertex
100
AcDb2dVertex
 10
246.5
 20
-1608.0
 30
0.0
  0
SEQEND
  5
5C9
100
AcDbEntity
  8
OBJECT
  0
ARC
  5
5CA
100
AcDbEntity
  8
OBJECT
100
AcDbCircle
 10
257.5
 20
-1250.0
 30
0.0
 40
7.5
100
AcDbArc
 50
0.0
 51
90.0
  0
ARC
  5
5CB
100
AcDbEntity
  8
OBJECT
100
AcDbCircle
 10
257.5
 20
-1250.0
 30
0.0
 40
2.5
100
AcDbArc
 50
0.0
 51
90.0
  0
LINE
  5
5CC
100
AcDbEntity
  8
OBJECT
100
AcDbLine
 10
257.5
 20
-1242.5
 30
0.0
 11
256.5
 21
-1242.5
 31
0.0
  0
LINE
  5
5CD
100
AcDbEntity
  8
OBJECT
100
AcDbLine
 10
257.5
 20
-1247.5
 30
0.0
 11
256.5
 21
-1247.5
 31
0.0
  0
LINE
  5
5CE
100
AcDbEntity
  8
OBJECT
100
AcDbLine
 10
254.5
 20
-1237.5
 30
0.0
 11
182.5
 21
-1237.5
 31
0.0
  0
LINE
  5
5CF
100
AcDbEntity
  8
OBJECT
100
AcDbLine
 10
254.5
 20
-1252.5
 30
0.0
 11
182.5
 21
-1252.5
 31
0.0
  0
LINE
  5
5D0
100
AcDbEntity
  8
OBJECT
100
AcDbLine
 10
256.5
 20
-1250.5
 30
0.0
 11
256.5
 21
-1239.5
 31
0.0
  0
ARC
  5
5D1
100
AcDbEntity
  8
OBJECT
100
AcDbCircle
 10
254.5
 20
-1239.5
 30
0.0
 40
2.0
100
AcDbArc
 50
0.0
 51
90.0
  0
ARC
  5
5D2
100
AcDbEntity
  8
OBJECT
100
AcDbCircle
 10
254.5
 20
-1250.5
 30
0.0
 40
2.0
100
AcDbArc
 50
270.0
 51
0.0
  0
LINE
  5
5D3
100
AcDbEntity
  8
OBJECT
100
AcDbLine
 10
182.5
 20
-1610.0
 30
0.0
 11
257.5
 21
-1610.0
 31
0.0
  0
LINE
  5
5D4
100
AcDbEntity
  8
OBJECT
100
AcDbLine
 10
267.5
 20
-1600.0
 30
0.0
 11
267.5
 21
-1545.0
 31
0.0
  0
ARC
  5
5D5
100
AcDbEntity
  8
OBJECT
100
AcDbCircle
 10
257.5
 20
-1600.0
 30
0.0
 40
10.0
100
AcDbArc
 50
270.0
 51
0.0
  0
CIRCLE
  5
5D6
100
AcDbEntity
  8
OBJECT
100
AcDbCircle
 10
113.5
 20
-1586.0
 30
0.0
 40
2.5
  0
CIRCLE
  5
5D7
100
AcDbEntity
  8
OBJECT
100
AcDbCircle
 10
113.5
 20
-1604.0
 30
0.0
 40
2.5
  0
CIRCLE
  5
5D8
100
AcDbEntity
  8
OBJECT
100
AcDbCircle
 10
251.5
 20
-1586.0
 30
0.0
 40
2.5
  0
CIRCLE
  5
5D9
100
AcDbEntity
  8
OBJECT
100
AcDbCircle
 10
251.5
 20
-1604.0
 30
0.0
 40
2.5
  0
LINE
  5
5DA
100
AcDbEntity
  8
OBJECT
100
AcDbLine
 10
-116.0
 20
-951.0
 30
0.0
 11
481.0
 21
-951.0
 31
0.0
  0
LINE
  5
5DB
100
AcDbEntity
  8
OBJECT
100
AcDbLine
 10
482.5
 20
-975.0
 30
0.0
 11
482.5
 21
-955.0
 31
0.0
  0
LINE
  5
5DC
100
AcDbEntity
  8
OBJECT
100
AcDbLine
 10
482.5
 20
-1008.9999999813735
 30
0.0
 11
482.5
 21
-952.5
 31
0.0
  0
LINE
  5
5DD
100
AcDbEntity
  8
OBJECT
100
AcDbLine
 10
479.0
 20
-1015.0
 30
0.0
 11
482.5
 21
-1009.0
 31
0.0
  0
ARC
  5
5DE
100
AcDbEntity
  8
OBJECT
100
AcDbCircle
 10
481.0
 20
-952.5
 30
0.0
 40
1.5
100
AcDbArc
 50
0.0
 51
120.09546229595549
  0
LINE
  5
5DF
100
AcDbEntity
  8
HIDDEN
100
AcDbLine
 10
480.24783667385236
 20
-951.20221329533751
 30
0.0
 11
474.5
 21
-955.0
 31
0.0
  0
LINE
  5
5E0
100
AcDbEntity
  8
OBJECT
100
AcDbLine
 10
182.5
 20
-1164.0
 30
0.0
 11
92.5
 21
-1164.0
 31
0.0
  0
LINE
  5
5E1
100
AcDbEntity
  8
OBJECT
100
AcDbLine
 10
182.5
 20
-1164.0
 30
0.0
 11
272.5
 21
-1164.0
 31
0.0
  0
INSERT
  5
5E2
100
AcDbEntity
  8
OBJECT
100
AcDbBlockReference
  2
*U20
 10
1264.1173000028066
 20
-776.00000000172281
 30
0.0
  0
LINE
  5
5E3
100
AcDbEntity
  8
OBJECT
100
AcDbLine
 10
92.5
 20
-1350.0
 30
0.0
 11
92.5
 21
-1160.0
 31
0.0
  0
LINE
  5
5E4
100
AcDbEntity
  8
OBJECT
100
AcDbLine
 10
182.5
 20
-1360.0
 30
0.0
 11
105.0
 21
-1360.0
 31
0.0
  0
LINE
  5
5E5
100
AcDbEntity
  8
OBJECT
100
AcDbLine
 10
260.0
 20
-1360.0
 30
0.0
 11
182.5
 21
-1360.0
 31
0.0
  0
LINE
  5
5E6
100
AcDbEntity
  8
OBJECT
100
AcDbLine
 10
272.5
 20
-1160.0
 30
0.0
 11
272.5
 21
-1350.0
 31
0.0
  0
LINE
  5
5E7
100
AcDbEntity
  8
OBJECT
100
AcDbLine
 10
92.5
 20
-1160.0
 30
0.0
 11
272.5
 21
-1160.0
 31
0.0
  0
ARC
  5
5E8
100
AcDbEntity
  8
OBJECT
100
AcDbCircle
 10
102.5
 20
-1350.0
 30
0.0
 40
10.0
100
AcDbArc
 50
180.0
 51
255.52248781407008
  0
ARC
  5
5E9
100
AcDbEntity
  8
OBJECT
100
AcDbCircle
 10
262.5
 20
-1350.0
 30
0.0
 40
9.9999999999999858
100
AcDbArc
 50
284.47751218592992
 51
0.0
  0
LINE
  5
5EA
100
AcDbEntity
  8
OBJECT
100
AcDbLine
 10
209.0
 20
-1782.0
 30
0.0
 11
156.0
 21
-1782.0
 31
0.0
  0
LINE
  5
5EB
100
AcDbEntity
  8
OBJECT
100
AcDbLine
 10
145.0
 20
-1756.5
 30
0.0
 11
156.0
 21
-1756.5
 31
0.0
  0
LINE
  5
5EC
100
AcDbEntity
  8
OBJECT
100
AcDbLine
 10
209.0
 20
-1756.5
 30
0.0
 11
220.0
 21
-1756.5
 31
0.0
  0
POLYLINE
  5
5ED
100
AcDbEntity
  8
OBJECT
100
AcDb2dPolyline
 66
               1
 10
0.0
 20
0.0
 30
0.0
 70
               1
 75
               5
  0
VERTEX
  5
5EE
100
AcDbEntity
  8
OBJECT
100
AcDbVertex
100
AcDb2dVertex
 10
332.5
 20
-1760.0
 30
0.0
  0
VERTEX
  5
5EF
100
AcDbEntity
  8
OBJECT
100
AcDbVertex
100
AcDb2dVertex
 10
382.5
 20
-1760.0
 30
0.0
  0
VERTEX
  5
5F0
100
AcDbEntity
  8
OBJECT
100
AcDbVertex
100
AcDb2dVertex
 10
382.5
 20
-1800.0
 30
0.0
  0
VERTEX
  5
5F1
100
AcDbEntity
  8
OBJECT
100
AcDbVertex
100
AcDb2dVertex
 10
332.5
 20
-1800.0
 30
0.0
  0
SEQEND
  5
5F2
100
AcDbEntity
  8
OBJECT
  0
LINE
  5
5F3
100
AcDbEntity
  8
CENTER
100
AcDbLine
 10
317.26216328827832
 20
-1780.0
 30
0.0
 11
397.26216328827832
 21
-1780.0
 31
0.0
  0
LINE
  5
5F4
100
AcDbEntity
  8
OBJECT
100
AcDbLine
 10
207.5
 20
-1780.5
 30
0.0
 11
157.5
 21
-1780.5
 31
0.0
  0
LINE
  5
5F5
100
AcDbEntity
  8
OBJECT
100
AcDbLine
 10
145.0
 20
-1756.5
 30
0.0
 11
145.0
 21
-1755.0
 31
0.0
  0
LINE
  5
5F6
100
AcDbEntity
  8
OBJECT
100
AcDbLine
 10
220.0
 20
-1756.5
 30
0.0
 11
209.0
 21
-1756.5
 31
0.0
  0
LINE
  5
5F7
100
AcDbEntity
  8
OBJECT
100
AcDbLine
 10
220.0
 20
-1756.5
 30
0.0
 11
220.0
 21
-1755.0
 31
0.0
  0
LINE
  5
5F8
100
AcDbEntity
  8
OBJECT
100
AcDbLine
 10
152.5
 20
-1765.0
 30
0.0
 11
155.75
 21
-1765.0
 31
0.0
  0
LINE
  5
5F9
100
AcDbEntity
  8
OBJECT
100
AcDbLine
 10
157.75
 20
-1765.0
 30
0.0
 11
168.49999999998545
 21
-1765.0
 31
0.0
  0
LINE
  5
5FA
100
AcDbEntity
  8
OBJECT
100
AcDbLine
 10
171.50000000001546
 20
-1765.0
 30
0.0
 11
193.49999999998545
 21
-1765.0
 31
0.0
  0
LINE
  5
5FB
100
AcDbEntity
  8
OBJECT
100
AcDbLine
 10
152.5
 20
-1772.0
 30
0.0
 11
155.75
 21
-1772.0
 31
0.0
  0
LINE
  5
5FC
100
AcDbEntity
  8
OBJECT
100
AcDbLine
 10
157.75
 20
-1772.0
 30
0.0
 11
168.49999999998545
 21
-1772.0
 31
0.0
  0
LINE
  5
5FD
100
AcDbEntity
  8
OBJECT
100
AcDbLine
 10
171.50000000001546
 20
-1772.0
 30
0.0
 11
193.49999999998545
 21
-1772.0
 31
0.0
  0
LINE
  5
5FE
100
AcDbEntity
  8
OBJECT
100
AcDbLine
 10
152.5
 20
-1765.0
 30
0.0
 11
152.5
 21
-1772.0
 31
0.0
  0
ARC
  5
5FF
100
AcDbEntity
  8
OBJECT
100
AcDbCircle
 10
170.0
 20
-1765.0
 30
0.0
 40
1.5
100
AcDbArc
 50
180.0
 51
0.0
  0
ARC
  5
600
100
AcDbEntity
  8
OBJECT
100
AcDbCircle
 10
170.0
 20
-1772.0
 30
0.0
 40
1.5
100
AcDbArc
 50
0.0
 51
180.0
  0
LINE
  5
601
100
AcDbEntity
  8
OBJECT
100
AcDbLine
 10
157.75
 20
-1766.4769124585794
 30
0.0
 11
157.5
 21
-1766.4769124585794
 31
0.0
  0
LINE
  5
602
100
AcDbEntity
  8
OBJECT
100
AcDbLine
 10
156.0
 20
-1766.4769124585794
 30
0.0
 11
155.75
 21
-1766.4769124585794
 31
0.0
  0
LINE
  5
603
100
AcDbEntity
  8
OBJECT
100
AcDbLine
 10
157.75
 20
-1766.4769124585794
 30
0.0
 11
157.75
 21
-1765.0
 31
0.0
  0
LINE
  5
604
100
AcDbEntity
  8
OBJECT
100
AcDbLine
 10
155.75
 20
-1766.4769124585794
 30
0.0
 11
155.75
 21
-1765.0
 31
0.0
  0
LINE
  5
605
100
AcDbEntity
  8
OBJECT
100
AcDbLine
 10
157.75
 20
-1770.5230875414209
 30
0.0
 11
157.5
 21
-1770.5230875414209
 31
0.0
  0
LINE
  5
606
100
AcDbEntity
  8
OBJECT
100
AcDbLine
 10
156.0
 20
-1770.5230875414209
 30
0.0
 11
155.75
 21
-1770.5230875414209
 31
0.0
  0
LINE
  5
607
100
AcDbEntity
  8
OBJECT
100
AcDbLine
 10
157.75
 20
-1770.5230875414209
 30
0.0
 11
157.75
 21
-1772.0
 31
0.0
  0
LINE
  5
608
100
AcDbEntity
  8
OBJECT
100
AcDbLine
 10
155.75
 20
-1770.5230875414209
 30
0.0
 11
155.75
 21
-1772.0
 31
0.0
  0
LINE
  5
609
100
AcDbEntity
  8
OBJECT
100
AcDbLine
 10
207.5
 20
-1773.4769124585794
 30
0.0
 11
209.0
 21
-1773.4769124585794
 31
0.0
  0
LINE
  5
60A
100
AcDbEntity
  8
OBJECT
100
AcDbLine
 10
156.0
 20
-1773.4769124585794
 30
0.0
 11
157.5
 21
-1773.4769124585794
 31
0.0
  0
ARC
  5
60B
100
AcDbEntity
  8
OBJECT
100
AcDbCircle
 10
462.5
 20
-1028.0
 30
0.0
 40
3.0
100
AcDbArc
 50
0.0
 51
90.0
  0
LINE
  5
60C
100
AcDbEntity
  8
OBJECT
100
AcDbLine
 10
-100.5
 20
-1425.0
 30
0.0
 11
-100.5
 21
-1028.0
 31
0.0
  0
ARC
  5
60D
100
AcDbEntity
  8
OBJECT
100
AcDbCircle
 10
-97.5
 20
-1028.0
 30
0.0
 40
3.0
100
AcDbArc
 50
90.0
 51
180.0
  0
LINE
  5
60E
100
AcDbEntity
  8
OBJECT
100
AcDbLine
 10
472.5
 20
-1015.0
 30
0.0
 11
472.5
 21
-1029.5
 31
0.0
  0
LINE
  5
60F
100
AcDbEntity
  8
OBJECT
100
AcDbLine
 10
472.5
 20
-1029.5
 30
0.0
 11
465.5
 21
-1029.5
 31
0.0
  0
LINE
  5
610
100
AcDbEntity
  8
OBJECT
100
AcDbLine
 10
472.5
 20
-1016.5
 30
0.0
 11
91.289290079721468
 21
-1016.5
 31
0.0
  0
LINE
  5
611
100
AcDbEntity
  8
OBJECT
100
AcDbLine
 10
16.626890777562949
 20
-1016.5
 30
0.0
 11
-107.5
 21
-1016.5
 31
0.0
  0
LINE
  5
612
100
AcDbEntity
  8
OBJECT
100
AcDbLine
 10
91.837378502011234
 20
-1025.0
 30
0.0
 11
-97.499972873264142
 21
-1025.0
 31
0.0
  0
LINE
  5
613
100
AcDbEntity
  8
OBJECT
100
AcDbLine
 10
4.4621632882781341
 20
-1016.5
 30
0.0
 11
92.262163288278316
 21
-1016.5
 31
0.0
  0
LINE
  5
614
100
AcDbEntity
  8
HIDDEN
100
AcDbLine
 10
92.5
 20
-1013.9977675768296
 30
0.0
 11
92.5
 21
-1014.9977675768296
 31
0.0
  0
LINE
  5
615
100
AcDbEntity
  8
OBJECT
100
AcDbLine
 10
-107.5
 20
-1015.0
 30
0.0
 11
-107.5
 21
-1029.5
 31
0.0
  0
LINE
  5
616
100
AcDbEntity
  8
OBJECT
100
AcDbLine
 10
-107.5
 20
-1029.5
 30
0.0
 11
-100.5
 21
-1029.5
 31
0.0
  0
LINE
  5
617
100
AcDbEntity
  8
OBJECT
100
AcDbLine
 10
472.5
 20
-1015.0
 30
0.0
 11
472.5
 21
-1029.5
 31
0.0
  0
POLYLINE
  5
618
100
AcDbEntity
  8
OBJECT
100
AcDb2dPolyline
 66
               1
 10
0.0
 20
0.0
 30
0.0
 70
               1
 75
               5
  0
VERTEX
  5
619
100
AcDbEntity
  8
OBJECT
100
AcDbVertex
100
AcDb2dVertex
 10
247.5
 20
-970.0
 30
0.0
  0
VERTEX
  5
61A
100
AcDbEntity
  8
OBJECT
100
AcDbVertex
100
AcDb2dVertex
 10
417.5
 20
-970.0
 30
0.0
  0
VERTEX
  5
61B
100
AcDbEntity
  8
OBJECT
100
AcDbVertex
100
AcDb2dVertex
 10
417.5
 20
-1005.0
 30
0.0
  0
VERTEX
  5
61C
100
AcDbEntity
  8
OBJECT
100
AcDbVertex
100
AcDb2dVertex
 10
247.5
 20
-1005.0
 30
0.0
  0
SEQEND
  5
61D
100
AcDbEntity
  8
OBJECT
  0
CIRCLE
  5
61E
100
AcDbEntity
  8
OBJECT
100
AcDbCircle
 10
324.5
 20
-990.5
 30
0.0
 40
2.9999999999999623
  0
CIRCLE
  5
61F
100
AcDbEntity
  8
OBJECT
100
AcDbCircle
 10
324.5
 20
-999.5
 30
0.0
 40
2.9999999999999623
  0
CIRCLE
  5
620
100
AcDbEntity
  8
OBJECT
100
AcDbCircle
 10
277.5
 20
-989.5
 30
0.0
 40
2.9999999999998743
  0
LINE
  5
621
100
AcDbEntity
  8
CENTER
100
AcDbLine
 10
275.00000000931323
 20
-989.5
 30
0.0
 11
279.99999999068677
 21
-989.5
 31
0.0
  0
LINE
  5
622
100
AcDbEntity
  8
CENTER
100
AcDbLine
 10
277.5
 20
-991.99999999068677
 30
0.0
 11
277.5
 21
-987.00000000931323
 31
0.0
  0
LINE
  5
623
100
AcDbEntity
  8
CENTER
100
AcDbLine
 10
322.00000000931323
 20
-990.5
 30
0.0
 11
326.99999999068677
 21
-990.5
 31
0.0
  0
LINE
  5
624
100
AcDbEntity
  8
CENTER
100
AcDbLine
 10
324.5
 20
-992.99999999068677
 30
0.0
 11
324.5
 21
-988.00000000931323
 31
0.0
  0
LINE
  5
625
100
AcDbEntity
  8
CENTER
100
AcDbLine
 10
322.00000000931323
 20
-999.5
 30
0.0
 11
326.99999999068677
 21
-999.5
 31
0.0
  0
LINE
  5
626
100
AcDbEntity
  8
CENTER
100
AcDbLine
 10
324.5
 20
-1001.9999999906868
 30
0.0
 11
324.5
 21
-997.00000000931323
 31
0.0
  0
LINE
  5
627
100
AcDbEntity
  8
CENTER
100
AcDbLine
 10
298.76470588563598
 20
-989.5
 30
0.0
 11
300.23529411436402
 21
-989.5
 31
0.0
  0
LINE
  5
628
100
AcDbEntity
  8
CENTER
100
AcDbLine
 10
299.5
 20
-990.23529411436402
 30
0.0
 11
299.5
 21
-988.76470588563598
 31
0.0
  0
LINE
  5
629
100
AcDbEntity
  8
CENTER
100
AcDbLine
 10
289.5
 20
-989.5
 30
0.0
 11
297.29411765690747
 21
-989.5
 31
0.0
  0
LINE
  5
62A
100
AcDbEntity
  8
CENTER
100
AcDbLine
 10
301.70588234309207
 20
-989.5
 30
0.0
 11
309.5
 21
-989.5
 31
0.0
  0
LINE
  5
62B
100
AcDbEntity
  8
CENTER
100
AcDbLine
 10
299.5
 20
-979.5
 30
0.0
 11
299.5
 21
-987.29411765690793
 31
0.0
  0
LINE
  5
62C
100
AcDbEntity
  8
CENTER
100
AcDbLine
 10
299.5
 20
-991.70588234309207
 30
0.0
 11
299.5
 21
-999.5
 31
0.0
  0
LINE
  5
62D
100
AcDbEntity
  8
CENTER
100
AcDbLine
 10
341.76470588563598
 20
-989.5
 30
0.0
 11
343.23529411436402
 21
-989.5
 31
0.0
  0
LINE
  5
62E
100
AcDbEntity
  8
CENTER
100
AcDbLine
 10
342.5
 20
-990.23529411436402
 30
0.0
 11
342.5
 21
-988.76470588563598
 31
0.0
  0
LINE
  5
62F
100
AcDbEntity
  8
CENTER
100
AcDbLine
 10
332.5
 20
-989.5
 30
0.0
 11
340.29411765690793
 21
-989.5
 31
0.0
  0
LINE
  5
630
100
AcDbEntity
  8
CENTER
100
AcDbLine
 10
344.70588234309207
 20
-989.5
 30
0.0
 11
352.5
 21
-989.5
 31
0.0
  0
LINE
  5
631
100
AcDbEntity
  8
CENTER
100
AcDbLine
 10
342.5
 20
-979.5
 30
0.0
 11
342.5
 21
-987.29411765690793
 31
0.0
  0
LINE
  5
632
100
AcDbEntity
  8
CENTER
100
AcDbLine
 10
342.5
 20
-991.70588234309207
 30
0.0
 11
342.5
 21
-999.5
 31
0.0
  0
LINE
  5
633
100
AcDbEntity
  8
CENTER
100
AcDbLine
 10
376.76470588563598
 20
-989.5
 30
0.0
 11
378.23529411436402
 21
-989.5
 31
0.0
  0
LINE
  5
634
100
AcDbEntity
  8
CENTER
100
AcDbLine
 10
377.5
 20
-990.23529411436402
 30
0.0
 11
377.5
 21
-988.76470588563598
 31
0.0
  0
LINE
  5
635
100
AcDbEntity
  8
CENTER
100
AcDbLine
 10
367.5
 20
-989.5
 30
0.0
 11
375.29411765690793
 21
-989.5
 31
0.0
  0
LINE
  5
636
100
AcDbEntity
  8
CENTER
100
AcDbLine
 10
379.70588234309207
 20
-989.5
 30
0.0
 11
387.5
 21
-989.5
 31
0.0
  0
LINE
  5
637
100
AcDbEntity
  8
CENTER
100
AcDbLine
 10
377.5
 20
-979.5
 30
0.0
 11
377.5
 21
-987.29411765690793
 31
0.0
  0
LINE
  5
638
100
AcDbEntity
  8
CENTER
100
AcDbLine
 10
377.5
 20
-991.70588234309207
 30
0.0
 11
377.5
 21
-999.5
 31
0.0
  0
LINE
  5
639
100
AcDbEntity
  8
HIDDEN
100
AcDbLine
 10
232.5
 20
-1001.5
 30
0.0
 11
232.5
 21
-973.5
 31
0.0
  0
LINE
  5
63A
100
AcDbEntity
  8
HIDDEN
100
AcDbLine
 10
247.5
 20
-1001.5
 30
0.0
 11
232.5
 21
-1001.5
 31
0.0
  0
LINE
  5
63B
100
AcDbEntity
  8
HIDDEN
100
AcDbLine
 10
232.5
 20
-973.5
 30
0.0
 11
247.5
 21
-973.5
 31
0.0
  0
CIRCLE
  5
63C
100
AcDbEntity
  8
OBJECT
100
AcDbCircle
 10
237.5
 20
-987.5
 30
0.0
 40
3.0000000000001164
  0
LINE
  5
63D
100
AcDbEntity
  8
HIDDEN
100
AcDbLine
 10
432.5
 20
-1001.5
 30
0.0
 11
417.5
 21
-1001.5
 31
0.0
  0
LINE
  5
63E
100
AcDbEntity
  8
HIDDEN
100
AcDbLine
 10
432.5
 20
-973.5
 30
0.0
 11
432.5
 21
-1001.5
 31
0.0
  0
LINE
  5
63F
100
AcDbEntity
  8
HIDDEN
100
AcDbLine
 10
417.5
 20
-973.5
 30
0.0
 11
432.5
 21
-973.5
 31
0.0
  0
CIRCLE
  5
640
100
AcDbEntity
  8
OBJECT
100
AcDbCircle
 10
427.5
 20
-987.5
 30
0.0
 40
3.0000000000001164
  0
LINE
  5
641
100
AcDbEntity
  8
HIDDEN
100
AcDbLine
 10
246.0
 20
-1006.5
 30
0.0
 11
246.0
 21
-1001.5
 31
0.0
  0
LINE
  5
642
100
AcDbEntity
  8
HIDDEN
100
AcDbLine
 10
246.0
 20
-973.5
 30
0.0
 11
246.0
 21
-968.5
 31
0.0
  0
LINE
  5
643
100
AcDbEntity
  8
HIDDEN
100
AcDbLine
 10
419.0
 20
-1006.5
 30
0.0
 11
246.0
 21
-1006.5
 31
0.0
  0
LINE
  5
644
100
AcDbEntity
  8
HIDDEN
100
AcDbLine
 10
419.0
 20
-968.5
 30
0.0
 11
419.0
 21
-973.5
 31
0.0
  0
LINE
  5
645
100
AcDbEntity
  8
HIDDEN
100
AcDbLine
 10
419.0
 20
-1001.5
 30
0.0
 11
419.0
 21
-1006.5
 31
0.0
  0
LINE
  5
646
100
AcDbEntity
  8
HIDDEN
100
AcDbLine
 10
246.0
 20
-968.5
 30
0.0
 11
419.0
 21
-968.5
 31
0.0
  0
POLYLINE
  5
647
100
AcDbEntity
  8
OBJECT
100
AcDb2dPolyline
 66
               1
 10
0.0
 20
0.0
 30
0.0
 70
               1
 75
               5
  0
VERTEX
  5
648
100
AcDbEntity
  8
OBJECT
100
AcDbVertex
100
AcDb2dVertex
 10
291.5
 20
-981.39705882845374
 30
0.0
  0
VERTEX
  5
649
100
AcDbEntity
  8
OBJECT
100
AcDbVertex
100
AcDb2dVertex
 10
307.5
 20
-981.39705882845374
 30
0.0
  0
VERTEX
  5
64A
100
AcDbEntity
  8
OBJECT
100
AcDbVertex
100
AcDb2dVertex
 10
307.5
 20
-997.39705882845374
 30
0.0
  0
VERTEX
  5
64B
100
AcDbEntity
  8
OBJECT
100
AcDbVertex
100
AcDb2dVertex
 10
291.5
 20
-997.39705882845374
 30
0.0
  0
SEQEND
  5
64C
100
AcDbEntity
  8
OBJECT
  0
POLYLINE
  5
64D
100
AcDbEntity
  8
OBJECT
100
AcDb2dPolyline
 66
               1
 10
0.0
 20
0.0
 30
0.0
 70
               1
 75
               5
  0
VERTEX
  5
64E
100
AcDbEntity
  8
OBJECT
100
AcDbVertex
100
AcDb2dVertex
 10
334.5
 20
-981.39705882845374
 30
0.0
  0
VERTEX
  5
64F
100
AcDbEntity
  8
OBJECT
100
AcDbVertex
100
AcDb2dVertex
 10
350.5
 20
-981.39705882845374
 30
0.0
  0
VERTEX
  5
650
100
AcDbEntity
  8
OBJECT
100
AcDbVertex
100
AcDb2dVertex
 10
350.5
 20
-997.39705882845374
 30
0.0
  0
VERTEX
  5
651
100
AcDbEntity
  8
OBJECT
100
AcDbVertex
100
AcDb2dVertex
 10
334.5
 20
-997.39705882845374
 30
0.0
  0
SEQEND
  5
652
100
AcDbEntity
  8
OBJECT
  0
POLYLINE
  5
653
100
AcDbEntity
  8
OBJECT
100
AcDb2dPolyline
 66
               1
 10
0.0
 20
0.0
 30
0.0
 70
               1
 75
               5
  0
VERTEX
  5
654
100
AcDbEntity
  8
OBJECT
100
AcDbVertex
100
AcDb2dVertex
 10
369.5
 20
-981.39705882845374
 30
0.0
  0
VERTEX
  5
655
100
AcDbEntity
  8
OBJECT
100
AcDbVertex
100
AcDb2dVertex
 10
385.5
 20
-981.39705882845374
 30
0.0
  0
VERTEX
  5
656
100
AcDbEntity
  8
OBJECT
100
AcDbVertex
100
AcDb2dVertex
 10
385.5
 20
-997.39705882845374
 30
0.0
  0
VERTEX
  5
657
100
AcDbEntity
  8
OBJECT
100
AcDbVertex
100
AcDb2dVertex
 10
369.5
 20
-997.39705882845374
 30
0.0
  0
SEQEND
  5
658
100
AcDbEntity
  8
OBJECT
  0
CIRCLE
  5
659
100
AcDbEntity
  8
OBJECT
100
AcDbCircle
 10
324.5
 20
-981.5
 30
0.0
 40
2.9999999999999623
  0
LINE
  5
65A
100
AcDbEntity
  8
CENTER
100
AcDbLine
 10
322.00000000931323
 20
-981.5
 30
0.0
 11
326.99999999068677
 21
-981.5
 31
0.0
  0
LINE
  5
65B
100
AcDbEntity
  8
CENTER
100
AcDbLine
 10
324.5
 20
-983.99999999068677
 30
0.0
 11
324.5
 21
-979.00000000931323
 31
0.0
  0
CIRCLE
  5
65C
100
AcDbEntity
  8
OBJECT
100
AcDbCircle
 10
202.5
 20
-1695.0
 30
0.0
 40
29.999999999999993
  0
INSERT
  5
65D
100
AcDbEntity
  8
OBJECT
100
AcDbBlockReference
  2
*U21
 10
1264.1173000028066
 20
-776.00000000172281
 30
0.0
  0
INSERT
  5
65E
100
AcDbEntity
  8
OBJECT
100
AcDbBlockReference
  2
*U22
 10
1264.1173000028066
 20
-776.00000000172281
 30
0.0
  0
INSERT
  5
65F
100
AcDbEntity
  8
OBJECT
100
AcDbBlockReference
  2
*U23
 10
1264.1173000028066
 20
-776.00000000172281
 30
0.0
  0
INSERT
  5
660
100
AcDbEntity
  8
OBJECT
100
AcDbBlockReference
  2
*U24
 10
1264.1173000028066
 20
-776.00000000172281
 30
0.0
  0
INSERT
  5
661
100
AcDbEntity
  8
OBJECT
100
AcDbBlockReference
  2
*U25
 10
1264.1173000028066
 20
-776.00000000172281
 30
0.0
  0
INSERT
  5
662
100
AcDbEntity
  8
OBJECT
100
AcDbBlockReference
  2
*U26
 10
1264.1173000028066
 20
-776.00000000172281
 30
0.0
  0
INSERT
  5
663
100
AcDbEntity
  8
OBJECT
100
AcDbBlockReference
  2
*U27
 10
1264.1173000028066
 20
-776.00000000172281
 30
0.0
  0
INSERT
  5
664
100
AcDbEntity
  8
OBJECT
100
AcDbBlockReference
  2
*U28
 10
1264.1173000028066
 20
-776.00000000172281
 30
0.0
  0
INSERT
  5
665
100
AcDbEntity
  8
OBJECT
100
AcDbBlockReference
  2
*U29
 10
1264.1173000028066
 20
-776.00000000172281
 30
0.0
  0
INSERT
  5
666
100
AcDbEntity
  8
OBJECT
100
AcDbBlockReference
  2
*U30
 10
1264.1173000028066
 20
-776.00000000172281
 30
0.0
  0
INSERT
  5
667
100
AcDbEntity
  8
OBJECT
100
AcDbBlockReference
  2
*U31
 10
1264.1173000028066
 20
-776.00000000172281
 30
0.0
  0
INSERT
  5
668
100
AcDbEntity
  8
OBJECT
100
AcDbBlockReference
  2
*U32
 10
1264.1173000028066
 20
-776.00000000172281
 30
0.0
  0
INSERT
  5
669
100
AcDbEntity
  8
OBJECT
100
AcDbBlockReference
  2
*U33
 10
1264.1173000028066
 20
-776.00000000172281
 30
0.0
  0
INSERT
  5
66A
100
AcDbEntity
  8
OBJECT
100
AcDbBlockReference
  2
*U34
 10
1264.1173000028066
 20
-776.00000000172281
 30
0.0
  0
INSERT
  5
66B
100
AcDbEntity
  8
OBJECT
100
AcDbBlockReference
  2
*U35
 10
1264.1173000028066
 20
-776.00000000172281
 30
0.0
  0
INSERT
  5
66C
100
AcDbEntity
  8
OBJECT
100
AcDbBlockReference
  2
*U36
 10
1264.1173000028066
 20
-776.00000000172281
 30
0.0
  0
LINE
  5
66D
100
AcDbEntity
  8
OBJECT
100
AcDbLine
 10
402.5
 20
-1757.0
 30
0.0
 11
402.5
 21
-1755.0
 31
0.0
  0
LINE
  5
66E
100
AcDbEntity
  8
CENTER
100
AcDbLine
 10
362.5
 20
-1744.290018076131
 30
0.0
 11
362.5
 21
-1804.290018076131
 31
0.0
  0
POLYLINE
  5
66F
100
AcDbEntity
  8
OBJECT
100
AcDb2dPolyline
 66
               1
 10
0.0
 20
0.0
 30
0.0
 70
               1
 75
               5
  0
VERTEX
  5
670
100
AcDbEntity
  8
OBJECT
100
AcDbVertex
100
AcDb2dVertex
 10
332.5
 20
-1760.0
 30
0.0
  0
VERTEX
  5
671
100
AcDbEntity
  8
OBJECT
100
AcDbVertex
100
AcDb2dVertex
 10
382.5
 20
-1760.0
 30
0.0
  0
VERTEX
  5
672
100
AcDbEntity
  8
OBJECT
100
AcDbVertex
100
AcDb2dVertex
 10
382.5
 20
-1800.0
 30
0.0
  0
VERTEX
  5
673
100
AcDbEntity
  8
OBJECT
100
AcDbVertex
100
AcDb2dVertex
 10
332.5
 20
-1800.0
 30
0.0
  0
SEQEND
  5
674
100
AcDbEntity
  8
OBJECT
  0
LINE
  5
675
100
AcDbEntity
  8
CENTER
100
AcDbLine
 10
389.5
 20
-1780.0
 30
0.0
 11
328.5
 21
-1780.0
 31
0.0
  0
LINE
  5
676
100
AcDbEntity
  8
HIDDEN
100
AcDbLine
 10
324.5
 20
-1770.0
 30
0.0
 11
339.5
 21
-1770.0
 31
0.0
  0
LINE
  5
677
100
AcDbEntity
  8
HIDDEN
100
AcDbLine
 10
324.5
 20
-1773.0
 30
0.0
 11
339.5
 21
-1773.0
 31
0.0
  0
LINE
  5
678
100
AcDbEntity
  8
HIDDEN
100
AcDbLine
 10
324.5
 20
-1790.0
 30
0.0
 11
339.5
 21
-1790.0
 31
0.0
  0
LINE
  5
679
100
AcDbEntity
  8
HIDDEN
100
AcDbLine
 10
324.5
 20
-1787.0
 30
0.0
 11
339.5
 21
-1787.0
 31
0.0
  0
LINE
  5
67A
100
AcDbEntity
  8
OBJECT
100
AcDbLine
 10
332.5
 20
-1760.0
 30
0.0
 11
332.5
 21
-1755.0
 31
0.0
  0
LINE
  5
67B
100
AcDbEntity
  8
OBJECT
100
AcDbLine
 10
382.5
 20
-1760.0
 30
0.0
 11
382.5
 21
-1755.0
 31
0.0
  0
POLYLINE
  5
67C
100
AcDbEntity
  8
OBJECT
100
AcDb2dPolyline
 66
               1
 10
0.0
 20
0.0
 30
0.0
 70
               1
 75
               5
  0
VERTEX
  5
67D
100
AcDbEntity
  8
OBJECT
100
AcDbVertex
100
AcDb2dVertex
 10
382.5
 20
-1765.0
 30
0.0
  0
VERTEX
  5
67E
100
AcDbEntity
  8
OBJECT
100
AcDbVertex
100
AcDb2dVertex
 10
392.5
 20
-1765.0
 30
0.0
  0
VERTEX
  5
67F
100
AcDbEntity
  8
OBJECT
100
AcDbVertex
100
AcDb2dVertex
 10
392.5
 20
-1795.0
 30
0.0
  0
VERTEX
  5
680
100
AcDbEntity
  8
OBJECT
100
AcDbVertex
100
AcDb2dVertex
 10
382.5
 20
-1795.0
 30
0.0
  0
SEQEND
  5
681
100
AcDbEntity
  8
OBJECT
  0
POLYLINE
  5
682
100
AcDbEntity
  8
OBJECT
100
AcDb2dPolyline
 66
               1
 10
0.0
 20
0.0
 30
0.0
 70
               1
 75
               5
  0
VERTEX
  5
683
100
AcDbEntity
  8
OBJECT
100
AcDbVertex
100
AcDb2dVertex
 10
322.5
 20
-1766.0
 30
0.0
  0
VERTEX
  5
684
100
AcDbEntity
  8
OBJECT
100
AcDbVertex
100
AcDb2dVertex
 10
332.5
 20
-1766.0
 30
0.0
  0
VERTEX
  5
685
100
AcDbEntity
  8
OBJECT
100
AcDbVertex
100
AcDb2dVertex
 10
332.5
 20
-1794.0
 30
0.0
  0
VERTEX
  5
686
100
AcDbEntity
  8
OBJECT
100
AcDbVertex
100
AcDb2dVertex
 10
322.5
 20
-1794.0
 30
0.0
  0
SEQEND
  5
687
100
AcDbEntity
  8
OBJECT
  0
LINE
  5
688
100
AcDbEntity
  8
OBJECT
100
AcDbLine
 10
487.69999999999982
 20
-1785.0
 30
0.0
 11
459.5
 21
-1785.0
 31
0.0
  0
LINE
  5
689
100
AcDbEntity
  8
OBJECT
100
AcDbLine
 10
486.0
 20
-1775.0
 30
0.0
 11
462.29999999999995
 21
-1775.0
 31
0.0
  0
ARC
  5
68A
100
AcDbEntity
  8
OBJECT
100
AcDbCircle
 10
486.0
 20
-1735.0
 30
0.0
 40
50.0
100
AcDbArc
 50
270.0
 51
0.0
  0
ARC
  5
68B
100
AcDbEntity
  8
OBJECT
100
AcDbCircle
 10
486.0
 20
-1735.0
 30
0.0
 40
40.0
100
AcDbArc
 50
270.0
 51
0.0
  0
LINE
  5
68C
100
AcDbEntity
  8
OBJECT
100
AcDbLine
 10
536.0
 20
-1735.0
 30
0.0
 11
536.0
 21
-1659.0
 31
0.0
  0
LINE
  5
68D
100
AcDbEntity
  8
OBJECT
100
AcDbLine
 10
526.0
 20
-1735.0
 30
0.0
 11
526.0
 21
-1659.0
 31
0.0
  0
LINE
  5
68E
100
AcDbEntity
  8
OBJECT
100
AcDbLine
 10
526.0
 20
-1659.0
 30
0.0
 11
536.0
 21
-1659.0
 31
0.0
  0
LINE
  5
68F
100
AcDbEntity
  8
OBJECT
100
AcDbLine
 10
532.0
 20
-1659.0
 30
0.0
 11
533.44730893493318
 21
-1636.790018076131
 31
0.0
  0
LINE
  5
690
100
AcDbEntity
  8
OBJECT
100
AcDbLine
 10
527.0
 20
-1659.0
 30
0.0
 11
524.57709288103251
 21
-1636.790018076131
 31
0.0
  0
LINE
  5
691
100
AcDbEntity
  8
OBJECT
100
AcDbLine
 10
535.0
 20
-1805.0
 30
0.0
 11
-180.0
 21
-1805.0
 31
0.0
  0
LINE
  5
692
100
AcDbEntity
  8
HIDDEN
100
AcDbLine
 10
-113.0
 20
-1014.9412955235669
 30
0.0
 11
-113.0
 21
-983.0
 31
0.0
  0
LINE
  5
693
100
AcDbEntity
  8
OBJECT
100
AcDbLine
 10
-117.5
 20
-975.0
 30
0.0
 11
-117.5
 21
-955.0
 31
0.0
  0
LINE
  5
694
100
AcDbEntity
  8
OBJECT
100
AcDbLine
 10
-117.5
 20
-1008.9999999813735
 30
0.0
 11
-117.5
 21
-952.5
 31
0.0
  0
LINE
  5
695
100
AcDbEntity
  8
OBJECT
100
AcDbLine
 10
-114.0
 20
-1015.0
 30
0.0
 11
-117.5
 21
-1009.0
 31
0.0
  0
ARC
  5
696
100
AcDbEntity
  8
OBJECT
100
AcDbCircle
 10
-116.0
 20
-952.5
 30
0.0
 40
1.5000000000000637
100
AcDbArc
 50
59.904537704044515
 51
180.0
  0
LINE
  5
697
100
AcDbEntity
  8
HIDDEN
100
AcDbLine
 10
-115.24783667385236
 20
-951.20221329533751
 30
0.0
 11
-109.5
 21
-955.0
 31
0.0
  0
DIMENSION
  5
698
100
AcDbEntity
  8
DIMENTION
100
AcDbDimension
  2
*D37
 10
-117.5
 20
-878.62335141318965
 30
0.0
 11
182.5
 21
-877.62335141691494
 31
0.0
 70
             128
  3
CAD
100
AcDbAlignedDimension
 13
482.5
 23
-952.5
 33
0.0
 14
-117.5
 24
-953.79001807613099
 34
0.0
100
AcDbRotatedDimension
1001
ACAD
1000
DSTYLE
1002
{
1070
             340
1005
6F
1070
             147
1040
0.9999999962747097
1002
}
  0
DIMENSION
  5
699
100
AcDbEntity
  8
DIMENTION
100
AcDbDimension
  2
*D38
 10
-37.5
 20
95.209981923869009
 30
0.0
 11
72.5
 21
95.209981923869009
 31
0.0
  3
CAD
100
AcDbAlignedDimension
 13
182.5
 23
11.50000000337468
 33
0.0
 14
-37.5
 24
11.50000000337468
 34
0.0
100
AcDbRotatedDimension
1001
ACAD
1000
DSTYLE
1002
{
1070
             340
1005
6F
1070
             147
1040
0.9999999962747097
1002
}
  0
DIMENSION
  5
69A
100
AcDbEntity
  8
DIMENTION
100
AcDbDimension
  2
*D39
 10
-202.5
 20
-288.49999999662532
 30
0.0
 11
-202.5
 21
-153.49999999662532
 31
0.0
  3
CAD
100
AcDbAlignedDimension
 13
-67.5
 23
-18.49999999662532
 33
0.0
 14
-114.5
 24
-288.49999999662532
 34
0.0
 50
90.0
100
AcDbRotatedDimension
1001
ACAD
1000
DSTYLE
1002
{
1070
             340
1005
6F
1070
             147
1040
0.9999999962747097
1002
}
  0
LINE
  5
69B
100
AcDbEntity
  8
OBJECT
100
AcDbLine
 10
1680.0
 20
-1535.0
 30
0.0
 11
1680.0
 21
-1425.0
 31
0.0
  0
LINE
  5
69C
100
AcDbEntity
  8
OBJECT
100
AcDbLine
 10
2274.0
 20
-1745.0
 30
0.0
 11
1902.8000000000002
 21
-1745.0
 31
0.0
  0
LINE
  5
69D
100
AcDbEntity
  8
OBJECT
100
AcDbLine
 10
1902.8000000000002
 20
-1755.0
 30
0.0
 11
1768.1259510006676
 21
-1755.0
 31
0.0
  0
LINE
  5
69E
100
AcDbEntity
  8
OBJECT
100
AcDbLine
 10
1768.1430315967136
 20
-1755.0
 30
0.0
 11
1689.9621632882781
 21
-1755.0
 31
0.0
  0
LINE
  5
69F
100
AcDbEntity
  8
HIDDEN
100
AcDbLine
 10
1698.0
 20
-955.0
 30
0.0
 11
2272.0
 21
-955.0
 31
0.0
  0
INSERT
  5
6A0
100
AcDbEntity
  8
OBJECT
100
AcDbBlockReference
  2
*U40
 10
1264.1173000028066
 20
-776.00000000172281
 30
0.0
  0
LINE
  5
6A1
100
AcDbEntity
  8
OBJECT
100
AcDbLine
 10
1902.8000000000002
 20
-1535.0
 30
0.0
 11
1680.0
 21
-1535.0
 31
0.0
  0
LINE
  5
6A2
100
AcDbEntity
  8
OBJECT
100
AcDbLine
 10
1690.0
 20
-952.5
 30
0.0
 11
1690.0
 21
-1015.0
 31
0.0
  0
LINE
  5
6A3
100
AcDbEntity
  8
OBJECT
100
AcDbLine
 10
1690.0
 20
-1755.0
 30
0.0
 11
1690.0
 21
-1535.0
 31
0.0
  0
INSERT
  5
6A4
100
AcDbEntity
  8
OBJECT
100
AcDbBlockReference
  2
*U41
 10
1264.1173000028066
 20
-776.00000000172281
 30
0.0
  0
LINE
  5
6A5
100
AcDbEntity
  8
HIDDEN
100
AcDbLine
 10
1730.0
 20
-958.0
 30
0.0
 11
2272.5
 21
-958.0
 31
0.0
  0
LINE
  5
6A6
100
AcDbEntity
  8
OBJECT
100
AcDbLine
 10
2167.0
 20
-1745.0
 30
0.0
 11
2241.0
 21
-1745.0
 31
0.0
  0
LINE
  5
6A7
100
AcDbEntity
  8
OBJECT
100
AcDbLine
 10
2164.0
 20
-1748.0
 30
0.0
 11
2164.0
 21
-1757.0
 31
0.0
  0
LINE
  5
6A8
100
AcDbEntity
  8
OBJECT
100
AcDbLine
 10
2244.0
 20
-1748.0
 30
0.0
 11
2244.0
 21
-1757.0
 31
0.0
  0
LINE
  5
6A9
100
AcDbEntity
  8
OBJECT
100
AcDbLine
 10
2167.0
 20
-1747.0
 30
0.0
 11
2241.0
 21
-1747.0
 31
0.0
  0
LINE
  5
6AA
100
AcDbEntity
  8
OBJECT
100
AcDbLine
 10
2242.0
 20
-1748.0
 30
0.0
 11
2242.0
 21
-1757.0
 31
0.0
  0
LINE
  5
6AB
100
AcDbEntity
  8
OBJECT
100
AcDbLine
 10
2166.0
 20
-1748.0
 30
0.0
 11
2166.0
 21
-1757.0
 31
0.0
  0
LINE
  5
6AC
100
AcDbEntity
  8
OBJECT
100
AcDbLine
 10
2164.0
 20
-1757.0
 30
0.0
 11
2166.0
 21
-1757.0
 31
0.0
  0
LINE
  5
6AD
100
AcDbEntity
  8
OBJECT
100
AcDbLine
 10
2242.0
 20
-1756.9249999999997
 30
0.0
 11
2244.0
 21
-1756.9249999999997
 31
0.0
  0
ARC
  5
6AE
100
AcDbEntity
  8
OBJECT
100
AcDbCircle
 10
2167.0
 20
-1748.0
 30
0.0
 40
1.0
100
AcDbArc
 50
90.0
 51
180.0
  0
ARC
  5
6AF
100
AcDbEntity
  8
OBJECT
100
AcDbCircle
 10
2241.0
 20
-1748.0
 30
0.0
 40
1.0
100
AcDbArc
 50
0.0
 51
90.0
  0
ARC
  5
6B0
100
AcDbEntity
  8
OBJECT
100
AcDbCircle
 10
2167.0
 20
-1748.0
 30
0.0
 40
3.0
100
AcDbArc
 50
90.0
 51
180.0
  0
ARC
  5
6B1
100
AcDbEntity
  8
OBJECT
100
AcDbCircle
 10
2241.0
 20
-1748.0
 30
0.0
 40
3.0
100
AcDbArc
 50
0.0
 51
90.0
  0
LINE
  5
6B2
100
AcDbEntity
  8
OBJECT
100
AcDbLine
 10
2164.0
 20
-1745.0
 30
0.0
 11
2164.0
 21
-1757.0
 31
0.0
  0
LINE
  5
6B3
100
AcDbEntity
  8
HIDDEN
100
AcDbLine
 10
1730.0
 20
-958.0
 30
0.0
 11
1730.0
 21
-1015.0
 31
0.0
  0
LINE
  5
6B4
100
AcDbEntity
  8
OBJECT
100
AcDbLine
 10
1730.0
 20
-1016.5
 30
0.0
 11
1730.0
 21
-1049.8
 31
0.0
  0
LINE
  5
6B5
100
AcDbEntity
  8
OBJECT
100
AcDbLine
 10
1731.0
 20
-1015.0
 30
0.0
 11
1731.0
 21
-1049.5
 31
0.0
  0
LINE
  5
6B6
100
AcDbEntity
  8
OBJECT
100
AcDbLine
 10
1681.2000000000007
 20
-1426.2
 30
0.0
 11
1690.0
 21
-1426.2
 31
0.0
  0
LINE
  5
6B7
100
AcDbEntity
  8
OBJECT
100
AcDbLine
 10
1902.8000000000002
 20
-1755.0
 30
0.0
 11
1902.8000000000002
 21
-1535.0
 31
0.0
  0
LINE
  5
6B8
100
AcDbEntity
  8
OBJECT
100
AcDbLine
 10
1690.0
 20
-1015.0
 30
0.0
 11
2278.5000191814993
 21
-1015.0
 31
0.0
  0
INSERT
  5
6B9
100
AcDbEntity
  8
OBJECT
100
AcDbBlockReference
  2
*U43
 10
1264.1173000028066
 20
-776.00000000172281
 30
0.0
  0
LINE
  5
6BA
100
AcDbEntity
  8
HIDDEN
100
AcDbLine
 10
2272.5
 20
-958.0
 30
0.0
 11
2272.5
 21
-1015.0
 31
0.0
  0
LINE
  5
6BB
100
AcDbEntity
  8
OBJECT
100
AcDbLine
 10
2272.5
 20
-1015.0
 30
0.0
 11
2272.5
 21
-1425.0
 31
0.0
  0
LINE
  5
6BC
100
AcDbEntity
  8
OBJECT
100
AcDbLine
 10
2274.0
 20
-1425.0
 30
0.0
 11
2274.0
 21
-1745.0
 31
0.0
  0
LINE
  5
6BD
100
AcDbEntity
  8
OBJECT
100
AcDbLine
 10
1731.0
 20
-1051.0
 30
0.0
 11
1704.6727420828765
 21
-1051.0
 31
0.0
  0
LINE
  5
6BE
100
AcDbEntity
  8
OBJECT
100
AcDbLine
 10
1730.7000000000007
 20
-1049.8
 30
0.0
 11
1704.7000000000007
 21
-1049.8
 31
0.0
  0
LINE
  5
6BF
100
AcDbEntity
  8
OBJECT
100
AcDbLine
 10
2280.0
 20
-952.5
 30
0.0
 11
2280.0
 21
-1013.5
 31
0.0
  0
LINE
  5
6C0
100
AcDbEntity
  8
OBJECT
100
AcDbLine
 10
1700.0
 20
-1016.5
 30
0.0
 11
1700.0
 21
-1015.0
 31
0.0
  0
LINE
  5
6C1
100
AcDbEntity
  8
OBJECT
100
AcDbLine
 10
1730.0
 20
-1016.5
 30
0.0
 11
1699.9621632882781
 21
-1016.5
 31
0.0
  0
LINE
  5
6C2
100
AcDbEntity
  8
OBJECT
100
AcDbLine
 10
1728.5
 20
-1015.0
 30
0.0
 11
1712.0
 21
-1015.0
 31
0.0
  0
ARC
  5
6C3
100
AcDbEntity
  8
OBJECT
100
AcDbCircle
 10
1731.0
 20
-1049.8
 30
0.0
 40
1.2000000000000455
100
AcDbArc
 50
270.0
 51
0.0
  0
LINE
  5
6C4
100
AcDbEntity
  8
OBJECT
100
AcDbLine
 10
1732.2000000000007
 20
-1030.0
 30
0.0
 11
1731.0
 21
-1030.0
 31
0.0
  0
LINE
  5
6C5
100
AcDbEntity
  8
OBJECT
100
AcDbLine
 10
1691.0
 20
-1428.5
 30
0.0
 11
1691.0
 21
-1444.5
 31
0.0
  0
LINE
  5
6C6
100
AcDbEntity
  8
OBJECT
100
AcDbLine
 10
1692.5
 20
-1444.25
 30
0.0
 11
1692.5
 21
-1431.1222813232691
 31
0.0
  0
LINE
  5
6C7
100
AcDbEntity
  8
OBJECT
100
AcDbLine
 10
1690.0
 20
-1426.2
 30
0.0
 11
1690.0
 21
-1425.0
 31
0.0
  0
LINE
  5
6C8
100
AcDbEntity
  8
OBJECT
100
AcDbLine
 10
1691.0
 20
-1444.5
 30
0.0
 11
1691.0
 21
-1428.7
 31
0.0
  0
LINE
  5
6C9
100
AcDbEntity
  8
OBJECT
100
AcDbLine
 10
1689.0
 20
-1444.5
 30
0.0
 11
1689.0
 21
-1428.7
 31
0.0
  0
LINE
  5
6CA
100
AcDbEntity
  8
OBJECT
100
AcDbLine
 10
1681.5
 20
-1428.2
 30
0.0
 11
1688.5
 21
-1428.2
 31
0.0
  0
LINE
  5
6CB
100
AcDbEntity
  8
OBJECT
100
AcDbLine
 10
1697.5
 20
-1444.5
 30
0.0
 11
1689.0
 21
-1444.5
 31
0.0
  0
LINE
  5
6CC
100
AcDbEntity
  8
OBJECT
100
AcDbLine
 10
1681.5
 20
-1428.2
 30
0.0
 11
1681.5
 21
-1426.2
 31
0.0
  0
LINE
  5
6CD
100
AcDbEntity
  8
CENTER
100
AcDbLine
 10
1697.75
 20
-1438.5
 30
0.0
 11
1687.75
 21
-1438.5
 31
0.0
  0
ARC
  5
6CE
100
AcDbEntity
  8
OBJECT
100
AcDbCircle
 10
1688.5
 20
-1428.7
 30
0.0
 40
2.5
100
AcDbArc
 50
0.0
 51
90.0
  0
ARC
  5
6CF
100
AcDbEntity
  8
OBJECT
100
AcDbCircle
 10
1688.5
 20
-1428.7
 30
0.0
 40
0.5
100
AcDbArc
 50
0.0
 51
90.0
  0
LINE
  5
6D0
100
AcDbEntity
  8
OBJECT
100
AcDbLine
 10
1680.0
 20
-1425.0
 30
0.0
 11
1733.4000000000005
 21
-1425.0
 31
0.0
  0
ARC
  5
6D1
100
AcDbEntity
  8
OBJECT
100
AcDbCircle
 10
1687.0
 20
-1595.0
 30
0.0
 40
3.0
100
AcDbArc
 50
90.0
 51
270.0
  0
LINE
  5
6D2
100
AcDbEntity
  8
OBJECT
100
AcDbLine
 10
1687.0
 20
-1592.0
 30
0.0
 11
1690.0
 21
-1592.0
 31
0.0
  0
LINE
  5
6D3
100
AcDbEntity
  8
OBJECT
100
AcDbLine
 10
1680.0
 20
-1584.0
 30
0.0
 11
1680.0
 21
-1606.0
 31
0.0
  0
LINE
  5
6D4
100
AcDbEntity
  8
OBJECT
100
AcDbLine
 10
1682.0
 20
-1580.0
 30
0.0
 11
1690.0
 21
-1580.0
 31
0.0
  0
LINE
  5
6D5
100
AcDbEntity
  8
OBJECT
100
AcDbLine
 10
1682.0
 20
-1580.0
 30
0.0
 11
1680.0
 21
-1584.0
 31
0.0
  0
LINE
  5
6D6
100
AcDbEntity
  8
OBJECT
100
AcDbLine
 10
1687.0
 20
-1598.0
 30
0.0
 11
1690.0
 21
-1598.0
 31
0.0
  0
LINE
  5
6D7
100
AcDbEntity
  8
OBJECT
100
AcDbLine
 10
1682.0
 20
-1610.0
 30
0.0
 11
1690.0
 21
-1610.0
 31
0.0
  0
LINE
  5
6D8
100
AcDbEntity
  8
OBJECT
100
AcDbLine
 10
1682.0
 20
-1610.0
 30
0.0
 11
1680.0
 21
-1606.0
 31
0.0
  0
LINE
  5
6D9
100
AcDbEntity
  8
CENTER
100
AcDbLine
 10
1687.5
 20
-1598.9000000000001
 30
0.0
 11
1687.5
 21
-1590.9000000000001
 31
0.0
  0
ARC
  5
6DA
100
AcDbEntity
  8
OBJECT
100
AcDbCircle
 10
1704.7000000000007
 20
-1049.8
 30
0.0
 40
1.1999999999998181
100
AcDbArc
 50
90.0
 51
270.0
  0
LINE
  5
6DB
100
AcDbEntity
  8
OBJECT
100
AcDbLine
 10
1704.662163288278
 20
-1048.6000000000001
 30
0.0
 11
1711.5
 21
-1048.6000000000001
 31
0.0
  0
LINE
  5
6DC
100
AcDbEntity
  8
OBJECT
100
AcDbLine
 10
1711.5
 20
-1048.6000000000001
 30
0.0
 11
1711.5
 21
-1049.8
 31
0.0
  0
LINE
  5
6DD
100
AcDbEntity
  8
OBJECT
100
AcDbLine
 10
2274.0
 20
-1425.0
 30
0.0
 11
1783.0
 21
-1425.0
 31
0.0
  0
ARC
  5
6DE
100
AcDbEntity
  8
OBJECT
100
AcDbCircle
 10
2278.5
 20
-952.5
 30
0.0
 40
1.5
100
AcDbArc
 50
0.0
 51
120.09546229595549
  0
LINE
  5
6DF
100
AcDbEntity
  8
HIDDEN
100
AcDbLine
 10
2277.7478366738524
 20
-951.20221329533751
 30
0.0
 11
2272.0
 21
-955.0
 31
0.0
  0
ARC
  5
6E0
100
AcDbEntity
  8
OBJECT
100
AcDbCircle
 10
1691.5
 20
-952.5
 30
0.0
 40
1.5000000000000637
100
AcDbArc
 50
59.904537704044515
 51
180.0
  0
LINE
  5
6E1
100
AcDbEntity
  8
HIDDEN
100
AcDbLine
 10
1692.2521633261476
 20
-951.20221329533751
 30
0.0
 11
1698.0
 21
-955.0
 31
0.0
  0
LINE
  5
6E2
100
AcDbEntity
  8
OBJECT
100
AcDbLine
 10
1691.5
 20
-951.0
 30
0.0
 11
2278.4000000000005
 21
-951.0
 31
0.0
  0
LINE
  5
6E3
100
AcDbEntity
  8
OBJECT
100
AcDbLine
 10
1680.0
 20
-1535.0
 30
0.0
 11
1680.0
 21
-1545.0
 31
0.0
  0
LINE
  5
6E4
100
AcDbEntity
  8
OBJECT
100
AcDbLine
 10
1681.0
 20
-1536.0
 30
0.0
 11
1681.0
 21
-1545.0
 31
0.0
  0
LINE
  5
6E5
100
AcDbEntity
  8
OBJECT
100
AcDbLine
 10
1681.0
 20
-1545.0
 30
0.0
 11
1680.0
 21
-1545.0
 31
0.0
  0
LINE
  5
6E6
100
AcDbEntity
  8
OBJECT
100
AcDbLine
 10
1681.0
 20
-1536.0
 30
0.0
 11
1688.0
 21
-1536.0
 31
0.0
  0
LINE
  5
6E7
100
AcDbEntity
  8
OBJECT
100
AcDbLine
 10
1688.0
 20
-1536.0
 30
0.0
 11
1688.0
 21
-1535.0
 31
0.0
  0
POLYLINE
  5
6E8
100
AcDbEntity
  8
OBJECT
100
AcDb2dPolyline
 66
               1
 10
0.0
 20
0.0
 30
0.0
 70
               1
 75
               5
  0
VERTEX
  5
6E9
100
AcDbEntity
  8
OBJECT
100
AcDbVertex
100
AcDb2dVertex
 10
1725.0
 20
-1016.5
 30
0.0
  0
VERTEX
  5
6EA
100
AcDbEntity
  8
OBJECT
100
AcDbVertex
100
AcDb2dVertex
 10
1730.0
 20
-1016.5
 30
0.0
  0
VERTEX
  5
6EB
100
AcDbEntity
  8
OBJECT
100
AcDbVertex
100
AcDb2dVertex
 10
1730.0
 20
-1029.5
 30
0.0
  0
VERTEX
  5
6EC
100
AcDbEntity
  8
OBJECT
100
AcDbVertex
100
AcDb2dVertex
 10
1725.0
 20
-1029.5
 30
0.0
  0
SEQEND
  5
6ED
100
AcDbEntity
  8
OBJECT
  0
INSERT
  5
6EE
100
AcDbEntity
  8
OBJECT
100
AcDbBlockReference
  2
*U45
 10
1264.1173000028066
 20
-776.00000000172281
 30
0.0
  0
LINE
  5
6EF
100
AcDbEntity
  8
OBJECT
100
AcDbLine
 10
1690.0
 20
-1586.0
 30
0.0
 11
1684.0
 21
-1586.0
 31
0.0
  0
LINE
  5
6F0
100
AcDbEntity
  8
OBJECT
100
AcDbLine
 10
1684.0
 20
-1586.0
 30
0.0
 11
1684.0
 21
-1595.0
 31
0.0
  0
LINE
  5
6F1
100
AcDbEntity
  8
OBJECT
100
AcDbLine
 10
1690.0
 20
-1604.0000255274877
 30
0.0
 11
1684.0
 21
-1604.0000255274877
 31
0.0
  0
LINE
  5
6F2
100
AcDbEntity
  8
OBJECT
100
AcDbLine
 10
1684.0
 20
-1604.0000255274877
 30
0.0
 11
1684.0
 21
-1595.0000255274877
 31
0.0
  0
LINE
  5
6F3
100
AcDbEntity
  8
OBJECT
100
AcDbLine
 10
1692.5
 20
-1444.25
 30
0.0
 11
1691.0
 21
-1444.25
 31
0.0
  0
LINE
  5
6F4
100
AcDbEntity
  8
OBJECT
100
AcDbLine
 10
2272.5
 20
-1030.0
 30
0.0
 11
2272.5
 21
-1020.790018076131
 31
0.0
  0
INSERT
  5
6F5
100
AcDbEntity
  8
OBJECT
100
AcDbBlockReference
  2
*U46
 10
1264.1173000028066
 20
-776.00000000172281
 30
0.0
  0
INSERT
  5
6F6
100
AcDbEntity
  8
OBJECT
100
AcDbBlockReference
  2
*U48
 10
1264.1173000028066
 20
-776.00000000172281
 30
0.0
  0
ARC
  5
6F7
100
AcDbEntity
  8
CENTER
  6
STYLE_08
100
AcDbCircle
 10
1687.5
 20
-1595.0
 30
0.0
 40
300.0
100
AcDbArc
 50
86.483784422063863
 51
152.39758852956933
  0
INSERT
  5
6F8
100
AcDbEntity
  8
OBJECT
100
AcDbBlockReference
  2
*U49
 10
1264.1173000028066
 20
-776.00000000172281
 30
0.0
  0
INSERT
  5
6F9
100
AcDbEntity
  8
OBJECT
100
AcDbBlockReference
  2
*U50
 10
1264.1173000028066
 20
-776.00000000172281
 30
0.0
  0
INSERT
  5
6FA
100
AcDbEntity
  8
OBJECT
100
AcDbBlockReference
  2
*U51
 10
1264.1173000028066
 20
-776.00000000172281
 30
0.0
  0
ARC
  5
6FB
100
AcDbEntity
  8
OBJECT
100
AcDbCircle
 10
2278.5
 20
-1013.5
 30
0.0
 40
1.5
100
AcDbArc
 50
270.0
 51
0.0
  0
LINE
  5
6FC
100
AcDbEntity
  8
OBJECT
100
AcDbLine
 10
1730.0
 20
-1049.5
 30
0.0
 11
1731.0
 21
-1049.5
 31
0.0
  0
ARC
  5
6FD
100
AcDbEntity
  8
OBJECT
100
AcDbCircle
 10
1730.7000000000007
 20
-1049.5
 30
0.0
 40
0.2999999999999545
100
AcDbArc
 50
270.0
 51
0.0
  0
INSERT
  5
6FE
100
AcDbEntity
  8
OBJECT
100
AcDbBlockReference
  2
*U52
 10
1264.1173000028066
 20
-776.00000000172281
 30
0.0
  0
LINE
  5
6FF
100
AcDbEntity
  8
OBJECT
100
AcDbLine
 10
1712.5
 20
-1025.0
 30
0.0
 11
1712.5
 21
-1023.0
 31
0.0
  0
LINE
  5
700
100
AcDbEntity
  8
OBJECT
100
AcDbLine
 10
1706.5
 20
-1025.0
 30
0.0
 11
1706.5
 21
-1023.0
 31
0.0
  0
LINE
  5
701
100
AcDbEntity
  8
OBJECT
100
AcDbLine
 10
1699.5
 20
-1434.0
 30
0.0
 11
1697.5
 21
-1434.0
 31
0.0
  0
LINE
  5
702
100
AcDbEntity
  8
OBJECT
100
AcDbLine
 10
1700.0
 20
-1423.0
 30
0.0
 11
1700.0
 21
-1425.0000000000002
 31
0.0
  0
INSERT
  5
703
100
AcDbEntity
  8
OBJECT
100
AcDbBlockReference
  2
*U53
 10
1264.1173000028066
 20
-776.00000000172281
 30
0.0
  0
LINE
  5
704
100
AcDbEntity
  8
OBJECT
100
AcDbLine
 10
2261.0
 20
-1805.0
 30
0.0
 11
1700.0
 21
-1805.0
 31
0.0
  0
DIMENSION
  5
705
100
AcDbEntity
  8
DIMENTION
100
AcDbDimension
  2
*D54
 10
2274.0
 20
-1955.0
 30
0.0
 11
1985.0
 21
-1954.0000000037253
 31
0.0
 70
             128
  1
595
  3
CAD
100
AcDbAlignedDimension
 13
1680.0
 23
-1544.9999999627471
 33
0.0
 14
2274.0
 24
-1745.0
 34
0.0
100
AcDbRotatedDimension
1001
ACAD
1000
DSTYLE
1002
{
1070
             340
1005
6F
1070
             147
1040
0.9999999962747097
1002
}
  0
LINE
  5
706
100
AcDbEntity
  8
CENTER
100
AcDbLine
 10
1954.0
 20
-1731.0
 30
0.0
 11
1954.0
 21
-1797.290018076131
 31
0.0
  0
LINE
  5
707
100
AcDbEntity
  8
HIDDEN
100
AcDbLine
 10
1936.8000000000002
 20
-1758.0
 30
0.0
 11
1936.8000000000002
 21
-1747.0
 31
0.0
  0
LINE
  5
708
100
AcDbEntity
  8
HIDDEN
100
AcDbLine
 10
1970.8000000000002
 20
-1747.0
 30
0.0
 11
1970.8000000000002
 21
-1758.0
 31
0.0
  0
LINE
  5
709
100
AcDbEntity
  8
HIDDEN
100
AcDbLine
 10
1939.8000000000002
 20
-1758.0
 30
0.0
 11
1939.8000000000002
 21
-1747.0
 31
0.0
  0
LINE
  5
70A
100
AcDbEntity
  8
HIDDEN
100
AcDbLine
 10
1968.1999999999998
 20
-1758.0
 30
0.0
 11
1968.1999999999998
 21
-1747.0
 31
0.0
  0
POLYLINE
  5
70B
100
AcDbEntity
  8
OBJECT
100
AcDb2dPolyline
 66
               1
 10
0.0
 20
0.0
 30
0.0
 70
               1
 75
               5
  0
VERTEX
  5
70C
100
AcDbEntity
  8
OBJECT
100
AcDbVertex
100
AcDb2dVertex
 10
1928.8000000000002
 20
-1745.0
 30
0.0
  0
VERTEX
  5
70D
100
AcDbEntity
  8
OBJECT
100
AcDbVertex
100
AcDb2dVertex
 10
1978.8000000000002
 20
-1745.0
 30
0.0
  0
VERTEX
  5
70E
100
AcDbEntity
  8
OBJECT
100
AcDbVertex
100
AcDb2dVertex
 10
1978.8000000000002
 20
-1747.0
 30
0.0
  0
VERTEX
  5
70F
100
AcDbEntity
  8
OBJECT
100
AcDbVertex
100
AcDb2dVertex
 10
1928.8000000000002
 20
-1747.0
 30
0.0
  0
SEQEND
  5
710
100
AcDbEntity
  8
OBJECT
  0
LINE
  5
711
100
AcDbEntity
  8
OBJECT
100
AcDbLine
 10
1935.0
 20
-1755.0
 30
0.0
 11
1935.0
 21
-1747.0
 31
0.0
  0
LINE
  5
712
100
AcDbEntity
  8
CENTER
100
AcDbLine
 10
2080.5
 20
-1775.0
 30
0.0
 11
1932.0
 21
-1775.0
 31
0.0
  0
LINE
  5
713
100
AcDbEntity
  8
OBJECT
100
AcDbLine
 10
1973.0
 20
-1747.0
 30
0.0
 11
1973.0
 21
-1755.0
 31
0.0
  0
LINE
  5
714
100
AcDbEntity
  8
OBJECT
100
AcDbLine
 10
1935.0
 20
-1747.0
 30
0.0
 11
1973.0
 21
-1747.0
 31
0.0
  0
LINE
  5
715
100
AcDbEntity
  8
CENTER
100
AcDbLine
 10
1954.0
 20
-1768.7034424426747
 30
0.0
 11
1954.0
 21
-1743.0
 31
0.0
  0
LINE
  5
716
100
AcDbEntity
  8
OBJECT
100
AcDbLine
 10
1986.8000000000002
 20
-1794.0
 30
0.0
 11
1986.8000000000002
 21
-1756.0
 31
0.0
  0
LINE
  5
717
100
AcDbEntity
  8
OBJECT
100
AcDbLine
 10
2001.8000000000002
 20
-1794.0
 30
0.0
 11
1986.8000000000002
 21
-1794.0
 31
0.0
  0
LINE
  5
718
100
AcDbEntity
  8
OBJECT
100
AcDbLine
 10
2001.8000000000002
 20
-1794.0
 30
0.0
 11
2001.8000000000002
 21
-1756.0
 31
0.0
  0
LINE
  5
719
100
AcDbEntity
  8
OBJECT
100
AcDbLine
 10
1986.8000000000002
 20
-1756.0
 30
0.0
 11
2001.8000000000002
 21
-1756.0
 31
0.0
  0
LINE
  5
71A
100
AcDbEntity
  8
HIDDEN
100
AcDbLine
 10
1986.8000000000002
 20
-1758.0
 30
0.0
 11
1998.0
 21
-1758.0
 31
0.0
  0
LINE
  5
71B
100
AcDbEntity
  8
OBJECT
100
AcDbLine
 10
1978.8000000000002
 20
-1761.0
 30
0.0
 11
1986.8000000000002
 21
-1761.0
 31
0.0
  0
LINE
  5
71C
100
AcDbEntity
  8
HIDDEN
100
AcDbLine
 10
1986.8000000000002
 20
-1792.0
 30
0.0
 11
1998.0
 21
-1792.0
 31
0.0
  0
LINE
  5
71D
100
AcDbEntity
  8
OBJECT
100
AcDbLine
 10
1978.8000000000002
 20
-1789.0
 30
0.0
 11
1986.8000000000002
 21
-1789.0
 31
0.0
  0
LINE
  5
71E
100
AcDbEntity
  8
OBJECT
100
AcDbLine
 10
2002.3524617810281
 20
-1761.0
 30
0.0
 11
2083.0
 21
-1761.0
 31
0.0
  0
POLYLINE
  5
71F
100
AcDbEntity
  8
OBJECT
100
AcDb2dPolyline
 66
               1
 10
0.0
 20
0.0
 30
0.0
 70
               1
 75
               5
  0
VERTEX
  5
720
100
AcDbEntity
  8
OBJECT
100
AcDbVertex
100
AcDb2dVertex
 10
1933.8000000000002
 20
-1755.0
 30
0.0
  0
VERTEX
  5
721
100
AcDbEntity
  8
OBJECT
100
AcDbVertex
100
AcDb2dVertex
 10
1973.8000000000002
 20
-1755.0
 30
0.0
  0
VERTEX
  5
722
100
AcDbEntity
  8
OBJECT
100
AcDbVertex
100
AcDb2dVertex
 10
1973.8000000000002
 20
-1795.0
 30
0.0
  0
VERTEX
  5
723
100
AcDbEntity
  8
OBJECT
100
AcDbVertex
100
AcDb2dVertex
 10
1933.8000000000002
 20
-1795.0
 30
0.0
  0
SEQEND
  5
724
100
AcDbEntity
  8
OBJECT
  0
LINE
  5
725
100
AcDbEntity
  8
OBJECT
100
AcDbLine
 10
2002.3524617810281
 20
-1789.0
 30
0.0
 11
2082.3524617810281
 21
-1789.0
 31
0.0
  0
LINE
  5
726
100
AcDbEntity
  8
OBJECT
100
AcDbLine
 10
2002.3524617810281
 20
-1761.0
 30
0.0
 11
2007.2896172408641
 21
-1789.0
 31
0.0
  0
LINE
  5
727
100
AcDbEntity
  8
OBJECT
100
AcDbLine
 10
2007.3524617810281
 20
-1761.0
 30
0.0
 11
2012.2896172408641
 21
-1789.0
 31
0.0
  0
LINE
  5
728
100
AcDbEntity
  8
OBJECT
100
AcDbLine
 10
2012.3524617810281
 20
-1761.0
 30
0.0
 11
2017.2896172408641
 21
-1789.0
 31
0.0
  0
LINE
  5
729
100
AcDbEntity
  8
OBJECT
100
AcDbLine
 10
2017.3524617810281
 20
-1761.0
 30
0.0
 11
2022.2896172408641
 21
-1789.0
 31
0.0
  0
LINE
  5
72A
100
AcDbEntity
  8
OBJECT
100
AcDbLine
 10
2022.3524617810281
 20
-1761.0
 30
0.0
 11
2027.2896172408641
 21
-1789.0
 31
0.0
  0
LINE
  5
72B
100
AcDbEntity
  8
OBJECT
100
AcDbLine
 10
2027.3524617810281
 20
-1761.0
 30
0.0
 11
2032.2896172408641
 21
-1789.0
 31
0.0
  0
LINE
  5
72C
100
AcDbEntity
  8
OBJECT
100
AcDbLine
 10
2032.3524617810281
 20
-1761.0
 30
0.0
 11
2037.2896172408641
 21
-1789.0
 31
0.0
  0
LINE
  5
72D
100
AcDbEntity
  8
OBJECT
100
AcDbLine
 10
2037.3524617810281
 20
-1761.0
 30
0.0
 11
2042.2896172408641
 21
-1789.0
 31
0.0
  0
LINE
  5
72E
100
AcDbEntity
  8
OBJECT
100
AcDbLine
 10
2042.3524617810281
 20
-1761.0
 30
0.0
 11
2047.2896172408641
 21
-1789.0
 31
0.0
  0
LINE
  5
72F
100
AcDbEntity
  8
OBJECT
100
AcDbLine
 10
2047.3524617810281
 20
-1761.0
 30
0.0
 11
2052.2896172408641
 21
-1789.0
 31
0.0
  0
LINE
  5
730
100
AcDbEntity
  8
OBJECT
100
AcDbLine
 10
2052.3524617810281
 20
-1761.0
 30
0.0
 11
2057.2896172408641
 21
-1789.0
 31
0.0
  0
LINE
  5
731
100
AcDbEntity
  8
OBJECT
100
AcDbLine
 10
2057.3524617810281
 20
-1761.0
 30
0.0
 11
2062.2896172408641
 21
-1789.0
 31
0.0
  0
LINE
  5
732
100
AcDbEntity
  8
OBJECT
100
AcDbLine
 10
2062.3524617810281
 20
-1761.0
 30
0.0
 11
2067.2896172408641
 21
-1789.0
 31
0.0
  0
LINE
  5
733
100
AcDbEntity
  8
OBJECT
100
AcDbLine
 10
2067.3524617810281
 20
-1761.0
 30
0.0
 11
2072.2896172408641
 21
-1789.0
 31
0.0
  0
LINE
  5
734
100
AcDbEntity
  8
OBJECT
100
AcDbLine
 10
2072.3524617810281
 20
-1761.0
 30
0.0
 11
2077.2896172408641
 21
-1789.0
 31
0.0
  0
LINE
  5
735
100
AcDbEntity
  8
OBJECT
100
AcDbLine
 10
2077.3524617810281
 20
-1761.0
 30
0.0
 11
2082.2896172408641
 21
-1789.0
 31
0.0
  0
POLYLINE
  5
736
100
AcDbEntity
  8
OBJECT
100
AcDb2dPolyline
 66
               1
 10
0.0
 20
0.0
 30
0.0
 75
               5
  0
VERTEX
  5
737
100
AcDbEntity
  8
OBJECT
100
AcDbVertex
100
AcDb2dVertex
 10
2093.983743335566
 20
-1752.4914187776926
 30
0.0
  0
VERTEX
  5
738
100
AcDbEntity
  8
OBJECT
100
AcDbVertex
100
AcDb2dVertex
 10
2092.1808617448187
 20
-1752.9421391753795
 30
0.0
  0
VERTEX
  5
739
100
AcDbEntity
  8
OBJECT
100
AcDbVertex
100
AcDb2dVertex
 10
2091.7301413471314
 20
-1753.3928595730665
 30
0.0
  0
VERTEX
  5
73A
100
AcDbEntity
  8
OBJECT
100
AcDbVertex
100
AcDb2dVertex
 10
2091.2794209494446
 20
-1753.3928595730665
 30
0.0
  0
VERTEX
  5
73B
100
AcDbEntity
  8
OBJECT
100
AcDbVertex
100
AcDb2dVertex
 10
2090.8287005517577
 20
-1753.8435799707534
 30
0.0
  0
VERTEX
  5
73C
100
AcDbEntity
  8
OBJECT
100
AcDbVertex
100
AcDb2dVertex
 10
2090.3779801540704
 20
-1753.8435799707534
 30
0.0
  0
VERTEX
  5
73D
100
AcDbEntity
  8
OBJECT
100
AcDbVertex
100
AcDb2dVertex
 10
2090.3779801540704
 20
-1754.2943003684402
 30
0.0
  0
VERTEX
  5
73E
100
AcDbEntity
  8
OBJECT
100
AcDbVertex
100
AcDb2dVertex
 10
2089.4765393586968
 20
-1754.7450207661273
 30
0.0
  0
VERTEX
  5
73F
100
AcDbEntity
  8
OBJECT
100
AcDbVertex
100
AcDb2dVertex
 10
2089.0258189610095
 20
-1754.7450207661273
 30
0.0
  0
VERTEX
  5
740
100
AcDbEntity
  8
OBJECT
100
AcDbVertex
100
AcDb2dVertex
 10
2089.0258189610095
 20
-1755.1957411638143
 30
0.0
  0
VERTEX
  5
741
100
AcDbEntity
  8
OBJECT
100
AcDbVertex
100
AcDb2dVertex
 10
2088.1243781656358
 20
-1755.6464615615014
 30
0.0
  0
VERTEX
  5
742
100
AcDbEntity
  8
OBJECT
100
AcDbVertex
100
AcDb2dVertex
 10
2087.673657767949
 20
-1756.0971819591882
 30
0.0
  0
VERTEX
  5
743
100
AcDbEntity
  8
OBJECT
100
AcDbVertex
100
AcDb2dVertex
 10
2087.673657767949
 20
-1756.5479023568753
 30
0.0
  0
VERTEX
  5
744
100
AcDbEntity
  8
OBJECT
100
AcDbVertex
100
AcDb2dVertex
 10
2086.7722169725748
 20
-1756.9986227545621
 30
0.0
  0
VERTEX
  5
745
100
AcDbEntity
  8
OBJECT
100
AcDbVertex
100
AcDb2dVertex
 10
2086.321496574888
 20
-1757.449343152249
 30
0.0
  0
VERTEX
  5
746
100
AcDbEntity
  8
OBJECT
100
AcDbVertex
100
AcDb2dVertex
 10
2086.321496574888
 20
-1758.8015043453099
 30
0.0
  0
VERTEX
  5
747
100
AcDbEntity
  8
OBJECT
100
AcDbVertex
100
AcDb2dVertex
 10
2084.969335381827
 20
-1759.252224742997
 30
0.0
  0
VERTEX
  5
748
100
AcDbEntity
  8
OBJECT
100
AcDbVertex
100
AcDb2dVertex
 10
2084.969335381827
 20
-1759.7029451406838
 30
0.0
  0
VERTEX
  5
749
100
AcDbEntity
  8
OBJECT
100
AcDbVertex
100
AcDb2dVertex
 10
2084.0678945864533
 20
-1760.1536655383709
 30
0.0
  0
VERTEX
  5
74A
100
AcDbEntity
  8
OBJECT
100
AcDbVertex
100
AcDb2dVertex
 10
2084.0678945864533
 20
-1761.0551063337448
 30
0.0
  0
VERTEX
  5
74B
100
AcDbEntity
  8
OBJECT
100
AcDbVertex
100
AcDb2dVertex
 10
2083.1664537910792
 20
-1761.9565471291187
 30
0.0
  0
VERTEX
  5
74C
100
AcDbEntity
  8
OBJECT
100
AcDbVertex
100
AcDb2dVertex
 10
2083.1664537910792
 20
-1762.4072675268055
 30
0.0
  0
VERTEX
  5
74D
100
AcDbEntity
  8
OBJECT
100
AcDbVertex
100
AcDb2dVertex
 10
2083.1664537910792
 20
-1762.8579879244926
 30
0.0
  0
VERTEX
  5
74E
100
AcDbEntity
  8
OBJECT
100
AcDbVertex
100
AcDb2dVertex
 10
2083.1664537910792
 20
-1763.3087083221794
 30
0.0
  0
VERTEX
  5
74F
100
AcDbEntity
  8
OBJECT
100
AcDbVertex
100
AcDb2dVertex
 10
2082.2650129957055
 20
-1764.2101491175536
 30
0.0
  0
VERTEX
  5
750
100
AcDbEntity
  8
OBJECT
100
AcDbVertex
100
AcDb2dVertex
 10
2082.2650129957055
 20
-1764.6608695152404
 30
0.0
  0
VERTEX
  5
751
100
AcDbEntity
  8
OBJECT
100
AcDbVertex
100
AcDb2dVertex
 10
2082.2650129957055
 20
-1765.1115899129275
 30
0.0
  0
VERTEX
  5
752
100
AcDbEntity
  8
OBJECT
100
AcDbVertex
100
AcDb2dVertex
 10
2082.2650129957055
 20
-1765.5623103106143
 30
0.0
  0
VERTEX
  5
753
100
AcDbEntity
  8
OBJECT
100
AcDbVertex
100
AcDb2dVertex
 10
2082.2650129957055
 20
-1766.4637511059882
 30
0.0
  0
VERTEX
  5
754
100
AcDbEntity
  8
OBJECT
100
AcDbVertex
100
AcDb2dVertex
 10
2082.2650129957055
 20
-1767.3651919013621
 30
0.0
  0
VERTEX
  5
755
100
AcDbEntity
  8
OBJECT
100
AcDbVertex
100
AcDb2dVertex
 10
2082.2650129957055
 20
-1767.8159122990492
 30
0.0
  0
VERTEX
  5
756
100
AcDbEntity
  8
OBJECT
100
AcDbVertex
100
AcDb2dVertex
 10
2082.2650129957055
 20
-1768.266632696736
 30
0.0
  0
VERTEX
  5
757
100
AcDbEntity
  8
OBJECT
100
AcDbVertex
100
AcDb2dVertex
 10
2082.2650129957055
 20
-1768.7173530944231
 30
0.0
  0
VERTEX
  5
758
100
AcDbEntity
  8
OBJECT
100
AcDbVertex
100
AcDb2dVertex
 10
2082.2650129957055
 20
-1769.1680734921099
 30
0.0
  0
VERTEX
  5
759
100
AcDbEntity
  8
OBJECT
100
AcDbVertex
100
AcDb2dVertex
 10
2082.2650129957055
 20
-1769.618793889797
 30
0.0
  0
VERTEX
  5
75A
100
AcDbEntity
  8
OBJECT
100
AcDbVertex
100
AcDb2dVertex
 10
2082.2650129957055
 20
-1770.0695142874838
 30
0.0
  0
VERTEX
  5
75B
100
AcDbEntity
  8
OBJECT
100
AcDbVertex
100
AcDb2dVertex
 10
2082.2650129957055
 20
-1771.4216754805448
 30
0.0
  0
VERTEX
  5
75C
100
AcDbEntity
  8
OBJECT
100
AcDbVertex
100
AcDb2dVertex
 10
2082.2650129957055
 20
-1771.8723958782316
 30
0.0
  0
VERTEX
  5
75D
100
AcDbEntity
  8
OBJECT
100
AcDbVertex
100
AcDb2dVertex
 10
2082.2650129957055
 20
-1772.3231162759187
 30
0.0
  0
VERTEX
  5
75E
100
AcDbEntity
  8
OBJECT
100
AcDbVertex
100
AcDb2dVertex
 10
2082.2650129957055
 20
-1773.2245570712926
 30
0.0
  0
VERTEX
  5
75F
100
AcDbEntity
  8
OBJECT
100
AcDbVertex
100
AcDb2dVertex
 10
2082.2650129957055
 20
-1774.1259978666665
 30
0.0
  0
VERTEX
  5
760
100
AcDbEntity
  8
OBJECT
100
AcDbVertex
100
AcDb2dVertex
 10
2082.2650129957055
 20
-1774.5767182643535
 30
0.0
  0
VERTEX
  5
761
100
AcDbEntity
  8
OBJECT
100
AcDbVertex
100
AcDb2dVertex
 10
2082.2650129957055
 20
-1775.0274386620404
 30
0.0
  0
VERTEX
  5
762
100
AcDbEntity
  8
OBJECT
100
AcDbVertex
100
AcDb2dVertex
 10
2082.2650129957055
 20
-1775.9288794574143
 30
0.0
  0
VERTEX
  5
763
100
AcDbEntity
  8
OBJECT
100
AcDbVertex
100
AcDb2dVertex
 10
2082.2650129957055
 20
-1776.3795998551013
 30
0.0
  0
VERTEX
  5
764
100
AcDbEntity
  8
OBJECT
100
AcDbVertex
100
AcDb2dVertex
 10
2082.2650129957055
 20
-1777.2810406504752
 30
0.0
  0
VERTEX
  5
765
100
AcDbEntity
  8
OBJECT
100
AcDbVertex
100
AcDb2dVertex
 10
2082.7157333933924
 20
-1777.7317610481623
 30
0.0
  0
VERTEX
  5
766
100
AcDbEntity
  8
OBJECT
100
AcDbVertex
100
AcDb2dVertex
 10
2082.7157333933924
 20
-1778.1824814458491
 30
0.0
  0
VERTEX
  5
767
100
AcDbEntity
  8
OBJECT
100
AcDbVertex
100
AcDb2dVertex
 10
2082.7157333933924
 20
-1778.633201843536
 30
0.0
  0
VERTEX
  5
768
100
AcDbEntity
  8
OBJECT
100
AcDbVertex
100
AcDb2dVertex
 10
2082.7157333933924
 20
-1779.083922241223
 30
0.0
  0
VERTEX
  5
769
100
AcDbEntity
  8
OBJECT
100
AcDbVertex
100
AcDb2dVertex
 10
2082.7157333933924
 20
-1779.5346426389099
 30
0.0
  0
VERTEX
  5
76A
100
AcDbEntity
  8
OBJECT
100
AcDbVertex
100
AcDb2dVertex
 10
2082.7157333933924
 20
-1779.9853630365969
 30
0.0
  0
VERTEX
  5
76B
100
AcDbEntity
  8
OBJECT
100
AcDbVertex
100
AcDb2dVertex
 10
2082.7157333933924
 20
-1780.8868038319708
 30
0.0
  0
VERTEX
  5
76C
100
AcDbEntity
  8
OBJECT
100
AcDbVertex
100
AcDb2dVertex
 10
2082.7157333933924
 20
-1781.3375242296579
 30
0.0
  0
VERTEX
  5
76D
100
AcDbEntity
  8
OBJECT
100
AcDbVertex
100
AcDb2dVertex
 10
2082.7157333933924
 20
-1781.7882446273447
 30
0.0
  0
VERTEX
  5
76E
100
AcDbEntity
  8
OBJECT
100
AcDbVertex
100
AcDb2dVertex
 10
2083.1664537910792
 20
-1782.2389650250318
 30
0.0
  0
VERTEX
  5
76F
100
AcDbEntity
  8
OBJECT
100
AcDbVertex
100
AcDb2dVertex
 10
2083.1664537910792
 20
-1782.6896854227186
 30
0.0
  0
VERTEX
  5
770
100
AcDbEntity
  8
OBJECT
100
AcDbVertex
100
AcDb2dVertex
 10
2083.1664537910792
 20
-1783.1404058204057
 30
0.0
  0
VERTEX
  5
771
100
AcDbEntity
  8
OBJECT
100
AcDbVertex
100
AcDb2dVertex
 10
2083.1664537910792
 20
-1784.4925670134664
 30
0.0
  0
VERTEX
  5
772
100
AcDbEntity
  8
OBJECT
100
AcDbVertex
100
AcDb2dVertex
 10
2083.1664537910792
 20
-1784.9432874111535
 30
0.0
  0
VERTEX
  5
773
100
AcDbEntity
  8
OBJECT
100
AcDbVertex
100
AcDb2dVertex
 10
2083.1664537910792
 20
-1785.3940078088406
 30
0.0
  0
VERTEX
  5
774
100
AcDbEntity
  8
OBJECT
100
AcDbVertex
100
AcDb2dVertex
 10
2083.1664537910792
 20
-1785.8447282065274
 30
0.0
  0
VERTEX
  5
775
100
AcDbEntity
  8
OBJECT
100
AcDbVertex
100
AcDb2dVertex
 10
2083.1664537910792
 20
-1786.2954486042145
 30
0.0
  0
VERTEX
  5
776
100
AcDbEntity
  8
OBJECT
100
AcDbVertex
100
AcDb2dVertex
 10
2083.1664537910792
 20
-1786.7461690019013
 30
0.0
  0
VERTEX
  5
777
100
AcDbEntity
  8
OBJECT
100
AcDbVertex
100
AcDb2dVertex
 10
2083.1664537910792
 20
-1787.1968893995881
 30
0.0
  0
VERTEX
  5
778
100
AcDbEntity
  8
OBJECT
100
AcDbVertex
100
AcDb2dVertex
 10
2083.6171741887665
 20
-1788.098330194962
 30
0.0
  0
VERTEX
  5
779
100
AcDbEntity
  8
OBJECT
100
AcDbVertex
100
AcDb2dVertex
 10
2083.6171741887665
 20
-1788.5490505926491
 30
0.0
  0
VERTEX
  5
77A
100
AcDbEntity
  8
OBJECT
100
AcDbVertex
100
AcDb2dVertex
 10
2083.6171741887665
 20
-1788.9997709903359
 30
0.0
  0
VERTEX
  5
77B
100
AcDbEntity
  8
OBJECT
100
AcDbVertex
100
AcDb2dVertex
 10
2083.6171741887665
 20
-1789.450491388023
 30
0.0
  0
VERTEX
  5
77C
100
AcDbEntity
  8
OBJECT
100
AcDbVertex
100
AcDb2dVertex
 10
2083.6171741887665
 20
-1789.9012117857101
 30
0.0
  0
VERTEX
  5
77D
100
AcDbEntity
  8
OBJECT
100
AcDbVertex
100
AcDb2dVertex
 10
2083.6171741887665
 20
-1790.3519321833969
 30
0.0
  0
VERTEX
  5
77E
100
AcDbEntity
  8
OBJECT
100
AcDbVertex
100
AcDb2dVertex
 10
2083.6171741887665
 20
-1790.802652581084
 30
0.0
  0
VERTEX
  5
77F
100
AcDbEntity
  8
OBJECT
100
AcDbVertex
100
AcDb2dVertex
 10
2083.6171741887665
 20
-1791.7040933764579
 30
0.0
  0
VERTEX
  5
780
100
AcDbEntity
  8
OBJECT
100
AcDbVertex
100
AcDb2dVertex
 10
2083.6171741887665
 20
-1792.1548137741447
 30
0.0
  0
VERTEX
  5
781
100
AcDbEntity
  8
OBJECT
100
AcDbVertex
100
AcDb2dVertex
 10
2083.6171741887665
 20
-1792.6055341718318
 30
0.0
  0
VERTEX
  5
782
100
AcDbEntity
  8
OBJECT
100
AcDbVertex
100
AcDb2dVertex
 10
2083.6171741887665
 20
-1793.0562545695186
 30
0.0
  0
VERTEX
  5
783
100
AcDbEntity
  8
OBJECT
100
AcDbVertex
100
AcDb2dVertex
 10
2083.6171741887665
 20
-1793.5069749672057
 30
0.0
  0
VERTEX
  5
784
100
AcDbEntity
  8
OBJECT
100
AcDbVertex
100
AcDb2dVertex
 10
2083.6171741887665
 20
-1793.9576953648927
 30
0.0
  0
VERTEX
  5
785
100
AcDbEntity
  8
OBJECT
100
AcDbVertex
100
AcDb2dVertex
 10
2083.6171741887665
 20
-1794.4084157625796
 30
0.0
  0
VERTEX
  5
786
100
AcDbEntity
  8
OBJECT
100
AcDbVertex
100
AcDb2dVertex
 10
2083.6171741887665
 20
-1795.3098565579535
 30
0.0
  0
VERTEX
  5
787
100
AcDbEntity
  8
OBJECT
100
AcDbVertex
100
AcDb2dVertex
 10
2083.6171741887665
 20
-1795.7605769556405
 30
0.0
  0
VERTEX
  5
788
100
AcDbEntity
  8
OBJECT
100
AcDbVertex
100
AcDb2dVertex
 10
2083.6171741887665
 20
-1796.2112973533274
 30
0.0
  0
VERTEX
  5
789
100
AcDbEntity
  8
OBJECT
100
AcDbVertex
100
AcDb2dVertex
 10
2083.6171741887665
 20
-1796.6620177510142
 30
0.0
  0
VERTEX
  5
78A
100
AcDbEntity
  8
OBJECT
100
AcDbVertex
100
AcDb2dVertex
 10
2082.7157333933924
 20
-1796.6620177510142
 30
0.0
  0
VERTEX
  5
78B
100
AcDbEntity
  8
OBJECT
100
AcDbVertex
100
AcDb2dVertex
 10
2082.7157333933924
 20
-1797.1127381487013
 30
0.0
  0
VERTEX
  5
78C
100
AcDbEntity
  8
OBJECT
100
AcDbVertex
100
AcDb2dVertex
 10
2082.7157333933924
 20
-1797.5634585463881
 30
0.0
  0
VERTEX
  5
78D
100
AcDbEntity
  8
OBJECT
100
AcDbVertex
100
AcDb2dVertex
 10
2082.7157333933924
 20
-1798.0141789440752
 30
0.0
  0
VERTEX
  5
78E
100
AcDbEntity
  8
OBJECT
100
AcDbVertex
100
AcDb2dVertex
 10
2081.8142925980183
 20
-1798.4648993417622
 30
0.0
  0
VERTEX
  5
78F
100
AcDbEntity
  8
OBJECT
100
AcDbVertex
100
AcDb2dVertex
 10
2081.8142925980183
 20
-1798.9156197394491
 30
0.0
  0
VERTEX
  5
790
100
AcDbEntity
  8
OBJECT
100
AcDbVertex
100
AcDb2dVertex
 10
2081.8142925980183
 20
-1799.3663401371361
 30
0.0
  0
VERTEX
  5
791
100
AcDbEntity
  8
OBJECT
100
AcDbVertex
100
AcDb2dVertex
 10
2080.9128518026446
 20
-1799.817060534823
 30
0.0
  0
VERTEX
  5
792
100
AcDbEntity
  8
OBJECT
100
AcDbVertex
100
AcDb2dVertex
 10
2080.9128518026446
 20
-1800.7185013301969
 30
0.0
  0
VERTEX
  5
793
100
AcDbEntity
  8
OBJECT
100
AcDbVertex
100
AcDb2dVertex
 10
2080.0114110072709
 20
-1800.7185013301969
 30
0.0
  0
VERTEX
  5
794
100
AcDbEntity
  8
OBJECT
100
AcDbVertex
100
AcDb2dVertex
 10
2080.0114110072709
 20
-1801.169221727884
 30
0.0
  0
VERTEX
  5
795
100
AcDbEntity
  8
OBJECT
100
AcDbVertex
100
AcDb2dVertex
 10
2080.0114110072709
 20
-1801.169221727884
 30
0.0
  0
SEQEND
  5
796
100
AcDbEntity
  8
OBJECT
  0
LINE
  5
797
100
AcDbEntity
  8
OBJECT
100
AcDbLine
 10
1987.8000000000002
 20
-1766.0
 30
0.0
 11
2000.8000000000002
 21
-1766.0
 31
0.0
  0
LINE
  5
798
100
AcDbEntity
  8
OBJECT
100
AcDbLine
 10
1987.8000000000002
 20
-1784.0
 30
0.0
 11
2000.8000000000002
 21
-1784.0
 31
0.0
  0
LINE
  5
799
100
AcDbEntity
  8
HIDDEN
100
AcDbLine
 10
1998.0
 20
-1758.0
 30
0.0
 11
1998.0
 21
-1792.0
 31
0.0
  0
LINE
  5
79A
100
AcDbEntity
  8
OBJECT
100
AcDbLine
 10
1986.8000000000002
 20
-1758.0
 30
0.0
 11
1973.8000000000002
 21
-1758.0
 31
0.0
  0
LINE
  5
79B
100
AcDbEntity
  8
OBJECT
100
AcDbLine
 10
1986.8000000000002
 20
-1792.0
 30
0.0
 11
1973.8000000000002
 21
-1792.0
 31
0.0
  0
DIMENSION
  5
79C
100
AcDbEntity
  8
DIMENTION
100
AcDbDimension
  2
*D55
 10
1536.0
 20
-951.0
 30
0.0
 11
1535.0000000037253
 21
-983.0
 31
0.0
 70
             128
  3
CAD
100
AcDbAlignedDimension
 13
1690.0
 23
-1015.0
 33
0.0
 14
1693.0
 24
-951.0
 34
0.0
 50
90.0
100
AcDbRotatedDimension
1001
ACAD
1000
DSTYLE
1002
{
1070
             340
1005
6F
1070
             147
1040
0.9999999962747097
1002
}
  0
DIMENSION
  5
79D
100
AcDbEntity
  8
DIMENTION
100
AcDbDimension
  2
*D56
 10
1400.5
 20
-1805.0
 30
0.0
 11
1399.5000000037253
 21
-1783.790018076131
 31
0.0
 70
             128
  3
CAD
100
AcDbAlignedDimension
 13
1689.9621632882781
 23
-1755.0
 33
0.0
 14
1700.0
 24
-1805.0
 34
0.0
 50
90.0
100
AcDbRotatedDimension
1001
ACAD
1000
DSTYLE
1002
{
1070
             340
1005
6F
1070
             147
1040
0.9999999962747097
1002
}
  0
DIMENSION
  5
79E
100
AcDbEntity
  8
DIMENTION
100
AcDbDimension
  2
*D57
 10
1400.5
 20
-1755.0
 30
0.0
 11
1399.5000000037253
 21
-1628.790018076131
 31
0.0
 70
             128
  3
CAD
100
AcDbAlignedDimension
 13
1680.0
 23
-1535.0
 33
0.0
 14
1689.9621632882781
 24
-1755.0
 34
0.0
 50
90.0
100
AcDbRotatedDimension
1001
ACAD
1000
DSTYLE
1002
{
1070
             340
1005
6F
1070
             147
1040
0.9999999962747097
1002
}
  0
DIMENSION
  5
79F
100
AcDbEntity
  8
DIMENTION
100
AcDbDimension
  2
*D58
 10
1400.5
 20
-1535.0
 30
0.0
 11
1399.5000000037253
 21
-1496.790018076131
 31
0.0
 70
             128
  3
CAD
100
AcDbAlignedDimension
 13
1680.0
 23
-1425.0
 33
0.0
 14
1680.0
 24
-1535.0
 34
0.0
 50
90.0
100
AcDbRotatedDimension
1001
ACAD
1000
DSTYLE
1002
{
1070
             340
1005
6F
1070
             147
1040
0.9999999962747097
1002
}
  0
DIMENSION
  5
7A0
100
AcDbEntity
  8
DIMENTION
100
AcDbDimension
  2
*D59
 10
1184.0
 20
-1805.0
 30
0.0
 11
1183.0000000037253
 21
-1700.790018076131
 31
0.0
 70
             128
  3
CAD
100
AcDbAlignedDimension
 13
1680.0
 23
-1425.0
 33
0.0
 14
1700.0
 24
-1805.0
 34
0.0
 50
90.0
100
AcDbRotatedDimension
1001
ACAD
1000
DSTYLE
1002
{
1070
             340
1005
6F
1070
             147
1040
0.9999999962747097
1002
}
  0
DIMENSION
  5
7A1
100
AcDbEntity
  8
DIMENTION
100
AcDbDimension
  2
*D60
 10
1184.0
 20
-1425.0
 30
0.0
 11
1183.0000000037253
 21
-1364.790018076131
 31
0.0
 70
             128
  3
CAD
100
AcDbAlignedDimension
 13
1331.0000000000009
 23
-1075.0
 33
0.0
 14
1680.0
 24
-1425.0
 34
0.0
 50
90.0
100
AcDbRotatedDimension
1001
ACAD
1000
DSTYLE
1002
{
1070
             340
1005
6F
1070
             147
1040
0.9999999962747097
1002
}
  0
DIMENSION
  5
7A2
100
AcDbEntity
  8
DIMENTION
100
AcDbDimension
  2
*D61
 10
2350.0
 20
-1745.0
 30
0.0
 11
2350.0
 21
-1775.0
 31
0.0
  3
CAD
100
AcDbAlignedDimension
 13
2261.0
 23
-1805.0
 33
0.0
 14
2274.0
 24
-1745.0
 34
0.0
 50
90.0
100
AcDbRotatedDimension
1001
ACAD
1000
DSTYLE
1002
{
1070
             340
1005
6F
1070
             147
1040
0.9999999962747097
1002
}
  0
INSERT
  5
7A3
100
AcDbEntity
  8
OBJECT
100
AcDbBlockReference
  2
*U62
 10
1264.1173000028066
 20
-776.00000000172281
 30
0.0
  0
DIMENSION
  5
7A4
100
AcDbEntity
  8
DIMENTION
100
AcDbDimension
  2
*D63
 10
-80.5
 20
-745.79001807613099
 30
0.0
 11
182.5
 21
-744.79001807985628
 31
0.0
 70
             128
  1
525
  3
CAD
100
AcDbAlignedDimension
 13
445.5
 23
-655.89999999662541
 33
0.0
 14
-80.5
 24
-655.89999999662541
 34
0.0
100
AcDbRotatedDimension
1001
ACAD
1000
DSTYLE
1002
{
1070
             340
1005
6F
1070
             147
1040
0.9999999962747097
1002
}
  0
DIMENSION
  5
7A5
100
AcDbEntity
  8
DIMENTION
100
AcDbDimension
  2
*D64
 10
-100.5
 20
-801.79001807613099
 30
0.0
 11
182.5
 21
-801.79001807613099
 31
0.0
  1
565
  3
CAD
100
AcDbAlignedDimension
 13
465.5
 23
-675.49999999662532
 33
0.0
 14
-100.5
 24
-675.49999999662532
 34
0.0
100
AcDbRotatedDimension
1001
ACAD
1000
DSTYLE
1002
{
1070
             340
1005
6F
1070
             147
1040
0.9999999962747097
1002
}
  0
INSERT
  5
7A6
100
AcDbEntity
  8
OBJECT
100
AcDbBlockReference
  2
*U65
 10
1264.1173000028066
 20
-776.00000000172281
 30
0.0
  0
INSERT
  5
7A7
100
AcDbEntity
  8
OBJECT
100
AcDbBlockReference
  2
*U66
 10
1264.1173000028066
 20
-776.00000000172281
 30
0.0
  0
LINE
  5
7A8
100
AcDbEntity
  8
OBJECT
100
AcDbLine
 10
168.49999999998545
 20
-1765.0
 30
0.0
 11
168.5
 21
-1772.0
 31
0.0
  0
LINE
  5
7A9
100
AcDbEntity
  8
OBJECT
100
AcDbLine
 10
171.5
 20
-1765.0
 30
0.0
 11
171.50000000001546
 21
-1772.0
 31
0.0
  0
POLYLINE
  5
7AA
100
AcDbEntity
  8
OBJECT
100
AcDb2dPolyline
 66
               1
 10
0.0
 20
0.0
 30
0.0
 75
               5
  0
VERTEX
  5
7AB
100
AcDbEntity
  8
OBJECT
100
AcDbVertex
100
AcDb2dVertex
 10
156.0
 20
-1782.0
 30
0.0
  0
VERTEX
  5
7AC
100
AcDbEntity
  8
OBJECT
100
AcDbVertex
100
AcDb2dVertex
 10
156.0
 20
-1770.5230875414209
 30
0.0
  0
VERTEX
  5
7AD
100
AcDbEntity
  8
OBJECT
100
AcDbVertex
100
AcDb2dVertex
 10
156.0
 20
-1756.5
 30
0.0
  0
SEQEND
  5
7AE
100
AcDbEntity
  8
OBJECT
  0
POLYLINE
  5
7AF
100
AcDbEntity
  8
OBJECT
100
AcDb2dPolyline
 66
               1
 10
0.0
 20
0.0
 30
0.0
 75
               5
  0
VERTEX
  5
7B0
100
AcDbEntity
  8
OBJECT
100
AcDbVertex
100
AcDb2dVertex
 10
157.5
 20
-1780.5
 30
0.0
  0
VERTEX
  5
7B1
100
AcDbEntity
  8
OBJECT
100
AcDbVertex
100
AcDb2dVertex
 10
157.5
 20
-1770.5230875414209
 30
0.0
  0
VERTEX
  5
7B2
100
AcDbEntity
  8
OBJECT
100
AcDbVertex
100
AcDb2dVertex
 10
157.5
 20
-1755.0
 30
0.0
  0
SEQEND
  5
7B3
100
AcDbEntity
  8
OBJECT
  0
LINE
  5
7B4
100
AcDbEntity
  8
OBJECT
100
AcDbLine
 10
212.50000000000091
 20
-1765.0
 30
0.0
 11
209.25000000000091
 21
-1765.0
 31
0.0
  0
LINE
  5
7B5
100
AcDbEntity
  8
OBJECT
100
AcDbLine
 10
207.25000000000091
 20
-1765.0
 30
0.0
 11
196.50000000001546
 21
-1765.0
 31
0.0
  0
LINE
  5
7B6
100
AcDbEntity
  8
OBJECT
100
AcDbLine
 10
212.50000000000091
 20
-1772.0
 30
0.0
 11
209.25000000000091
 21
-1772.0
 31
0.0
  0
LINE
  5
7B7
100
AcDbEntity
  8
OBJECT
100
AcDbLine
 10
207.25000000000091
 20
-1772.0
 30
0.0
 11
196.50000000001546
 21
-1772.0
 31
0.0
  0
LINE
  5
7B8
100
AcDbEntity
  8
OBJECT
100
AcDbLine
 10
212.50000000000091
 20
-1765.0
 30
0.0
 11
212.50000000000091
 21
-1772.0
 31
0.0
  0
ARC
  5
7B9
100
AcDbEntity
  8
OBJECT
100
AcDbCircle
 10
195.00000000000091
 20
-1765.0
 30
0.0
 40
1.5
100
AcDbArc
 50
180.0
 51
0.0
  0
ARC
  5
7BA
100
AcDbEntity
  8
OBJECT
100
AcDbCircle
 10
195.00000000000091
 20
-1772.0
 30
0.0
 40
1.5
100
AcDbArc
 50
0.0
 51
180.0
  0
LINE
  5
7BB
100
AcDbEntity
  8
OBJECT
100
AcDbLine
 10
207.25000000000091
 20
-1766.4769124585794
 30
0.0
 11
207.50000000000091
 21
-1766.4769124585794
 31
0.0
  0
LINE
  5
7BC
100
AcDbEntity
  8
OBJECT
100
AcDbLine
 10
209.00000000000091
 20
-1766.4769124585794
 30
0.0
 11
209.25000000000091
 21
-1766.4769124585794
 31
0.0
  0
LINE
  5
7BD
100
AcDbEntity
  8
OBJECT
100
AcDbLine
 10
207.25000000000091
 20
-1766.4769124585794
 30
0.0
 11
207.25000000000091
 21
-1765.0
 31
0.0
  0
LINE
  5
7BE
100
AcDbEntity
  8
OBJECT
100
AcDbLine
 10
209.25000000000091
 20
-1766.4769124585794
 30
0.0
 11
209.25000000000091
 21
-1765.0
 31
0.0
  0
LINE
  5
7BF
100
AcDbEntity
  8
OBJECT
100
AcDbLine
 10
207.25000000000091
 20
-1770.5230875414209
 30
0.0
 11
207.50000000000091
 21
-1770.5230875414209
 31
0.0
  0
LINE
  5
7C0
100
AcDbEntity
  8
OBJECT
100
AcDbLine
 10
209.00000000000091
 20
-1770.5230875414209
 30
0.0
 11
209.25000000000091
 21
-1770.5230875414209
 31
0.0
  0
LINE
  5
7C1
100
AcDbEntity
  8
OBJECT
100
AcDbLine
 10
207.25000000000091
 20
-1770.5230875414209
 30
0.0
 11
207.25000000000091
 21
-1772.0
 31
0.0
  0
LINE
  5
7C2
100
AcDbEntity
  8
OBJECT
100
AcDbLine
 10
209.25000000000091
 20
-1770.5230875414209
 30
0.0
 11
209.25000000000091
 21
-1772.0
 31
0.0
  0
LINE
  5
7C3
100
AcDbEntity
  8
OBJECT
100
AcDbLine
 10
209.00000000000091
 20
-1773.4769124585794
 30
0.0
 11
207.50000000000091
 21
-1773.4769124585794
 31
0.0
  0
LINE
  5
7C4
100
AcDbEntity
  8
OBJECT
100
AcDbLine
 10
196.50000000001546
 20
-1765.0
 30
0.0
 11
196.50000000000091
 21
-1772.0
 31
0.0
  0
LINE
  5
7C5
100
AcDbEntity
  8
OBJECT
100
AcDbLine
 10
193.50000000000091
 20
-1765.0
 30
0.0
 11
193.49999999998545
 21
-1772.0
 31
0.0
  0
POLYLINE
  5
7C6
100
AcDbEntity
  8
OBJECT
100
AcDb2dPolyline
 66
               1
 10
0.0
 20
0.0
 30
0.0
 75
               5
  0
VERTEX
  5
7C7
100
AcDbEntity
  8
OBJECT
100
AcDbVertex
100
AcDb2dVertex
 10
207.5
 20
-1755.0
 30
0.0
  0
VERTEX
  5
7C8
100
AcDbEntity
  8
OBJECT
100
AcDbVertex
100
AcDb2dVertex
 10
207.5
 20
-1770.5230875414209
 30
0.0
  0
VERTEX
  5
7C9
100
AcDbEntity
  8
OBJECT
100
AcDbVertex
100
AcDb2dVertex
 10
207.5
 20
-1780.5
 30
0.0
  0
SEQEND
  5
7CA
100
AcDbEntity
  8
OBJECT
  0
POLYLINE
  5
7CB
100
AcDbEntity
  8
OBJECT
100
AcDb2dPolyline
 66
               1
 10
0.0
 20
0.0
 30
0.0
 75
               5
  0
VERTEX
  5
7CC
100
AcDbEntity
  8
OBJECT
100
AcDbVertex
100
AcDb2dVertex
 10
209.0
 20
-1756.5
 30
0.0
  0
VERTEX
  5
7CD
100
AcDbEntity
  8
OBJECT
100
AcDbVertex
100
AcDb2dVertex
 10
209.0
 20
-1770.5230875414209
 30
0.0
  0
VERTEX
  5
7CE
100
AcDbEntity
  8
OBJECT
100
AcDbVertex
100
AcDb2dVertex
 10
209.0
 20
-1782.0
 30
0.0
  0
SEQEND
  5
7CF
100
AcDbEntity
  8
OBJECT
  0
ARC
  5
7D0
100
AcDbEntity
  8
CENTER
  6
STYLE_08
100
AcDbCircle
 10
1694.25
 20
-1428.25
 30
0.0
 40
406.37744154910877
100
AcDbArc
 50
85.731057441760242
 51
175.73105744176121
  0
LINE
  5
7D1
100
AcDbEntity
  8
OBJECT
100
AcDbLine
 10
1732.2000000000007
 20
-1049.8
 30
0.0
 11
1732.2000000000007
 21
-1030.0
 31
0.0
  0
POLYLINE
  5
7D2
100
AcDbEntity
  8
HIDDEN
100
AcDb2dPolyline
 66
               1
 10
0.0
 20
0.0
 30
0.0
 70
               1
 75
               5
  0
VERTEX
  5
7D3
100
AcDbEntity
  8
HIDDEN
100
AcDbVertex
100
AcDb2dVertex
 10
322.5
 20
-184.49999999662532
 30
0.0
  0
VERTEX
  5
7D4
100
AcDbEntity
  8
HIDDEN
100
AcDbVertex
100
AcDb2dVertex
 10
332.5
 20
-184.49999999662532
 30
0.0
  0
VERTEX
  5
7D5
100
AcDbEntity
  8
HIDDEN
100
AcDbVertex
100
AcDb2dVertex
 10
332.5
 20
-212.49999999662532
 30
0.0
  0
VERTEX
  5
7D6
100
AcDbEntity
  8
HIDDEN
100
AcDbVertex
100
AcDb2dVertex
 10
322.5
 20
-212.49999999662532
 30
0.0
  0
SEQEND
  5
7D7
100
AcDbEntity
  8
HIDDEN
  0
INSERT
  5
7D8
100
AcDbEntity
  8
OBJECT
100
AcDbBlockReference
  2
*U67
 10
1264.1173000028066
 20
-776.00000000172281
 30
0.0
  0
INSERT
  5
7D9
100
AcDbEntity
  8
OBJECT
100
AcDbBlockReference
  2
*U68
 10
1264.1173000028066
 20
-776.00000000172281
 30
0.0
  0
INSERT
  5
7DA
100
AcDbEntity
  8
OBJECT
100
AcDbBlockReference
  2
*U69
 10
1264.1173000028066
 20
-776.00000000172281
 30
0.0
  0
INSERT
  5
7DB
100
AcDbEntity
  8
OBJECT
100
AcDbBlockReference
  2
*U70
 10
1264.1173000028066
 20
-776.00000000172281
 30
0.0
  0
LINE
  5
7DC
100
AcDbEntity
  8
OBJECT
100
AcDbLine
 10
534.5
 20
-1659.0
 30
0.0
 11
539.14390531135439
 21
-1636.790018076131
 31
0.0
  0
LINE
  5
7DD
100
AcDbEntity
  8
OBJECT
100
AcDbLine
 10
529.5
 20
-1658.290018076131
 30
0.0
 11
528.11392567793075
 21
-1636.790018076131
 31
0.0
  0
INSERT
  5
7DE
100
AcDbEntity
  8
OBJECT
100
AcDbBlockReference
  2
*U71
 10
1264.1173000028066
 20
-776.00000000172281
 30
0.0
  0
INSERT
  5
7DF
100
AcDbEntity
  8
OBJECT
100
AcDbBlockReference
  2
*U72
 10
1264.1173000028066
 20
-776.00000000172281
 30
0.0
  0
INSERT
  5
7E0
100
AcDbEntity
  8
OBJECT
100
AcDbBlockReference
  2
*U73
 10
1264.1173000028066
 20
-776.00000000172281
 30
0.0
  0
LINE
  5
7E1
100
AcDbEntity
  8
DIMENTION
100
AcDbLine
 10
-663.99999999999977
 20
-1632.6666666666665
 30
0.0
 11
-182.99909946170351
 21
-1632.6666666666665
 31
0.0
  0
MTEXT
  5
7E2
100
AcDbEntity
  8
DIMENTION
100
AcDbMText
 10
-649.74454919255527
 20
-1586.0919666666666
 30
0.0
 40
33.866666666666667
 41
0.0
 71
               1
 72
               1
  1
給湯接続口15A\P差込式めすねじアダプタ  
  7
________
  0
LINE
  5
7E3
100
AcDbEntity
  8
DIMENTION
100
AcDbLine
 10
-663.99999999999977
 20
-1682.6666666666665
 30
0.0
 11
-182.99909946170351
 21
-1682.6666666666665
 31
0.0
  0
LINE
  5
7E4
100
AcDbEntity
  8
DIMENTION
100
AcDbLine
 10
-182.99909946170351
 20
-1682.6666666666665
 30
0.0
 11
-182.99909946170351
 21
-1632.6666666666665
 31
0.0
  0
MTEXT
  5
7E5
100
AcDbEntity
  8
TEXT
100
AcDbMText
 10
2778.1000000000004
 20
58.18333333333328
 30
0.0
 40
16.933333333333334
 41
0.0
 71
               1
 72
               1
  1
2
  7
________
  0
CIRCLE
  5
7E6
100
AcDbEntity
  8
HIDDEN
  6
STYLE_01
100
AcDbCircle
 10
452.5
 20
291.50000000337445
 30
0.0
 40
12.5
  0
INSERT
  5
7E7
100
AcDbEntity
  8
CENTER
100
AcDbBlockReference
  2
*U74
 10
1264.1173000028066
 20
-776.00000000172281
 30
0.0
  0
LINE
  5
7E8
100
AcDbEntity
  8
DIMENTION
100
AcDbLine
 10
-107.5
 20
259.5
 30
0.0
 11
-203.20031496419574
 21
355.20031496419574
 31
0.0
  0
LINE
  5
7E9
100
AcDbEntity
  8
DIMENTION
100
AcDbLine
 10
-107.5
 20
259.5
 30
0.0
 11
-135.96627124133579
 21
275.93500936401006
 31
0.0
  0
LINE
  5
7EA
100
AcDbEntity
  8
DIMENTION
100
AcDbLine
 10
-107.5
 20
259.5
 30
0.0
 11
-123.93500936401006
 21
287.96627124133579
 31
0.0
  0
LINE
  5
7EB
100
AcDbEntity
  8
DIMENTION
100
AcDbLine
 10
461.33883476483516
 20
300.33883476822189
 30
0.0
 11
553.99999999831448
 21
393.0000000016862
 31
0.0
  0
LINE
  5
7EC
100
AcDbEntity
  8
DIMENTION
100
AcDbLine
 10
461.33883476483516
 20
300.33883476822189
 30
0.0
 11
477.77384412884521
 21
328.80510600955768
 31
0.0
  0
LINE
  5
7ED
100
AcDbEntity
  8
DIMENTION
100
AcDbLine
 10
461.33883476483516
 20
300.33883476822189
 30
0.0
 11
489.80510600617083
 21
316.77384413223194
 31
0.0
  0
LINE
  5
7EE
100
AcDbEntity
  8
DIMENTION
100
AcDbLine
 10
553.99999999831448
 20
393.0000000016862
 30
0.0
 11
953.00000000000171
 21
393.0000000016862
 31
0.0
  0
MTEXT
  5
7EF
100
AcDbEntity
  8
DIMENTION
100
AcDbMText
 10
561.79999999999995
 20
439.0
 30
0.0
 40
33.866666666666667
 41
0.0
 71
               1
 72
               1
  1
オーバーフロー　φ25
  7
________
  0
DIMENSION
  5
7F0
100
AcDbEntity
  8
DIMENTION
100
AcDbDimension
  2
*D75
 10
182.5
 20
357.0
 30
0.0
 11
317.5
 21
357.0
 31
0.0
  3
CAD
100
AcDbAlignedDimension
 13
452.5
 23
304.00000000337445
 33
0.0
 14
182.5
 24
311.50000000337445
 34
0.0
100
AcDbRotatedDimension
1001
ACAD
1000
DSTYLE
1002
{
1070
             340
1005
6F
1070
             147
1040
0.9999999962747097
1002
}
  0
DIMENSION
  5
7F1
100
AcDbEntity
  8
DIMENTION
100
AcDbDimension
  2
*D76
 10
571.5
 20
291.50000000337445
 30
0.0
 11
572.49999999627471
 21
267.0
 31
0.0
 70
             128
  3
CAD
100
AcDbAlignedDimension
 13
482.5
 23
311.50000000337445
 33
0.0
 14
472.5
 24
291.50000000337445
 34
0.0
 50
90.0
100
AcDbRotatedDimension
1001
ACAD
1000
DSTYLE
1002
{
1070
             340
1005
6F
1070
             174
1070
               0
1070
             147
1040
0.9999999962747097
1002
}
  0
POLYLINE
  5
7F2
100
AcDbEntity
  8
OBJECT
100
AcDb2dPolyline
 66
               1
 10
0.0
 20
0.0
 30
0.0
 70
               1
 75
               5
  0
VERTEX
  5
7F3
100
AcDbEntity
  8
OBJECT
100
AcDbVertex
100
AcDb2dVertex
 10
2241.5
 20
-1745.0
 30
0.0
  0
VERTEX
  5
7F4
100
AcDbEntity
  8
OBJECT
100
AcDbVertex
100
AcDb2dVertex
 10
2266.5
 20
-1745.0
 30
0.0
  0
VERTEX
  5
7F5
100
AcDbEntity
  8
OBJECT
100
AcDbVertex
100
AcDb2dVertex
 10
2266.5
 20
-1775.0
 30
0.0
  0
VERTEX
  5
7F6
100
AcDbEntity
  8
OBJECT
100
AcDbVertex
100
AcDb2dVertex
 10
2241.5
 20
-1775.0
 30
0.0
  0
SEQEND
  5
7F7
100
AcDbEntity
  8
OBJECT
  0
LINE
  5
7F8
100
AcDbEntity
  8
CENTER
100
AcDbLine
 10
2254.0
 20
-1735.0
 30
0.0
 11
2254.0
 21
-1785.0
 31
0.0
  0
INSERT
  5
7F9
100
AcDbEntity
  8
FRAME
100
AcDbBlockReference
  2
*U82
 10
1264.1173000028066
 20
-776.00000000172281
 30
0.0
  0
MTEXT
  5
7FA
100
AcDbEntity
  8
TEXT
100
AcDbMText
 10
177.19470000280626
 20
-2053.1088000017226
 30
0.0
 40
28.2224
 41
0.0
 71
               1
 72
               1
  1
検  図
  7
________
  0
MTEXT
  5
7FB
100
AcDbEntity
  8
TEXT
100
AcDbMText
 10
177.19470000280626
 20
-2098.1899000017229
 30
0.0
 40
28.2224
 41
0.0
 71
               1
 72
               1
  1
担  当
  7
________
  0
MTEXT
  5
7FC
100
AcDbEntity
  8
TEXT
100
AcDbMText
 10
177.19470000280626
 20
-2143.060000001723
 30
0.0
 40
28.2224
 41
0.0
 71
               1
 72
               1
  1
年月日
  7
________
  0
MTEXT
  5
7FD
100
AcDbEntity
  8
TEXT
100
AcDbMText
 10
361.71730000280672
 20
-2143.000000001723
 30
0.0
 40
28.222222222222229
 41
0.0
 71
               1
 72
               1
  1
19.12.26
  7
________
  0
MTEXT
  5
7FE
100
AcDbEntity
  8
TEXT
100
AcDbMText
 10
375.60561111283664
 20
-2098.8470000017232
 30
0.0
 40
28.222222222222229
 41
0.0
 71
               1
 72
               1
  1
下　野
  7
________
  0
MTEXT
  5
7FF
100
AcDbEntity
  8
TEXT
100
AcDbMText
 10
375.60561111283664
 20
-2052.8470000017232
 30
0.0
 40
28.222222222222229
 41
0.0
 71
               1
 72
               1
  1
大　谷
  7
________
  0
MTEXT
  5
800
100
AcDbEntity
  8
TEXT
100
AcDbMText
 10
2657.6149989234145
 20
-743.83333333333326
 30
0.0
 40
33.866666666666667
 41
0.0
 71
               1
 72
               1
  1
給水装置　形式認証番号\P　　　　　     ＴＷ４００３
  7
________
  0
MTEXT
  5
801
100
AcDbEntity
  8
TEXT
100
AcDbMText
 10
2623.3649989234077
 20
-900.83333333333326
 30
0.0
 40
33.866666666666667
 41
0.0
 71
               1
 72
               1
  1
可燃物からの離隔距離（cm）
  7
________
  0
LINE
  5
802
100
AcDbEntity
  8
TEXT
100
AcDbLine
 10
2590.3649989234077
 20
-954.83333333333326
 30
0.0
 11
3150.3649989234077
 21
-954.83333333333326
 31
0.0
  0
LINE
  5
803
100
AcDbEntity
  8
TEXT
100
AcDbLine
 10
2590.3649989234077
 20
-884.83333333333326
 30
0.0
 11
3150.3649989234077
 21
-884.83333333333326
 31
0.0
  0
LINE
  5
804
100
AcDbEntity
  8
TEXT
100
AcDbLine
 10
2590.3649989234077
 20
-1024.8333333333333
 30
0.0
 11
3150.3649989234077
 21
-1024.8333333333333
 31
0.0
  0
LINE
  5
805
100
AcDbEntity
  8
TEXT
100
AcDbLine
 10
2590.3649989234077
 20
-1094.8333333333333
 30
0.0
 11
3150.3649989234077
 21
-1094.8333333333333
 31
0.0
  0
LINE
  5
806
100
AcDbEntity
  8
TEXT
100
AcDbLine
 10
2590.3649989234077
 20
-1094.8333333333333
 30
0.0
 11
2590.3649989234077
 21
-884.83333333333326
 31
0.0
  0
LINE
  5
807
100
AcDbEntity
  8
TEXT
100
AcDbLine
 10
3150.3649989234077
 20
-1094.8333333333333
 30
0.0
 11
3150.3649989234077
 21
-884.83333333333326
 31
0.0
  0
LINE
  5
808
100
AcDbEntity
  8
TEXT
100
AcDbLine
 10
2730.3649989234077
 20
-1094.8333333333333
 30
0.0
 11
2730.3649989234077
 21
-954.83333333333326
 31
0.0
  0
LINE
  5
809
100
AcDbEntity
  8
TEXT
100
AcDbLine
 10
2870.3649989234077
 20
-1094.8333333333333
 30
0.0
 11
2870.3649989234077
 21
-954.83333333333326
 31
0.0
  0
LINE
  5
80A
100
AcDbEntity
  8
TEXT
100
AcDbLine
 10
3010.3649989234077
 20
-1094.8333333333333
 30
0.0
 11
3010.3649989234077
 21
-954.83333333333326
 31
0.0
  0
MTEXT
  5
80B
100
AcDbEntity
  8
TEXT
100
AcDbMText
 10
2612.3649989234077
 20
-967.83333333333326
 30
0.0
 40
33.866666666666667
 41
0.0
 71
               1
 72
               1
  1
上方
  7
________
  0
MTEXT
  5
80C
100
AcDbEntity
  8
TEXT
100
AcDbMText
 10
2757.3649989234077
 20
-967.83333333333326
 30
0.0
 40
33.866666666666667
 41
0.0
 71
               1
 72
               1
  1
側方
  7
________
  0
MTEXT
  5
80D
100
AcDbEntity
  8
TEXT
100
AcDbMText
 10
2743.3649989234077
 20
-1035.8333333333333
 30
0.0
 40
33.866666666666667
 41
0.0
 71
               1
 72
               1
  1
０以上
  7
________
  0
MTEXT
  5
80E
100
AcDbEntity
  8
TEXT
100
AcDbMText
 10
2897.3649989234077
 20
-967.83333333333326
 30
0.0
 40
33.866666666666667
 41
0.0
 71
               1
 72
               1
  1
前方
  7
________
  0
MTEXT
  5
80F
100
AcDbEntity
  8
TEXT
100
AcDbMText
 10
3037.3649989234077
 20
-967.83333333333326
 30
0.0
 40
33.866666666666667
 41
0.0
 71
               1
 72
               1
  1
後方
  7
________
  0
MTEXT
  5
810
100
AcDbEntity
  8
TEXT
100
AcDbMText
 10
3023.3649989234077
 20
-1035.8333333333333
 30
0.0
 40
33.866666666666667
 41
0.0
 71
               1
 72
               1
  1
０以上
  7
________
  0
LINE
  5
811
100
AcDbEntity
  8
TEXT
100
AcDbLine
 10
2870.3649989234077
 20
-1094.8333333333333
 30
0.0
 11
3010.3649989234077
 21
-1024.8333333333333
 31
0.0
  0
MTEXT
  5
812
100
AcDbEntity
  8
TEXT
100
AcDbMText
 10
2603.3649989234077
 20
-1035.8333333333333
 30
0.0
 40
33.866666666666667
 41
0.0
 71
               1
 72
               1
  1
０以上
  7
________
  0
ENDSEC
  0
SECTION
  2
OBJECTS
  0
DICTIONARY
  5
19
100
AcDbDictionary
  3
ACAD_GROUP
350
1A
  3
ACAD_MLINESTYLE
350
1B
  0
DICTIONARY
  5
1A
102
{ACAD_REACTORS
330
19
102
}
100
AcDbDictionary
  0
DICTIONARY
  5
1B
102
{ACAD_REACTORS
330
19
102
}
100
AcDbDictionary
  3
STANDARD
350
1C
  0
MLINESTYLE
  5
1C
102
{ACAD_REACTORS
330
1B
102
}
100
AcDbMlineStyle
  2
STANDARD
 70
               0
  3

 62
               0
 51
90.0
 52
90.0
 71
               2
 49
0.5
 62
             256
  6
BYLAYER
 49
-0.5
 62
             256
  6
BYLAYER
  0
ENDSEC
  0
EOF
