  0
SECTION
  2
HEADER
  9
$ACADVER
  1
AC1014
  9
$ACADMAINTVER
 70
               0
  9
$DWGCODEPAGE
  3
ANSI_932
  9
$INSBASE
 10
0.0
 20
0.0
 30
0.0
  9
$EXTMIN
 10
-995.39999999542601
 20
-1028.9999999983124
 30
0.0
  9
$EXTMAX
 10
3054.6000000045738
 20
1691.0000000016871
 30
0.0
  9
$LIMMIN
 10
0.0
 20
0.0
  9
$LIMMAX
 10
0.0
 20
0.0
  9
$ORTHOMODE
 70
               0
  9
$REGENMODE
 70
               1
  9
$FILLMODE
 70
               1
  9
$QTEXTMODE
 70
               0
  9
$MIRRTEXT
 70
               1
  9
$DRAGMODE
 70
               2
  9
$LTSCALE
 40
254.0
  9
$OSMODE
 70
               0
  9
$ATTMODE
 70
               1
  9
$TEXTSIZE
 40
0.2
  9
$TRACEWID
 40
1.0
  9
$TEXTSTYLE
  7
STANDARD
  9
$CLAYER
  8
0
  9
$CELTYPE
  6
CONTINUOUS
  9
$CECOLOR
 62
             256
  9
$CELTSCALE
 40
1.0
  9
$DELOBJ
 70
               1
  9
$DISPSILH
 70
               0
  9
$DIMSCALE
 40
1.0
  9
$DIMASZ
 40
31.75
  9
$DIMEXO
 40
9.9999999627470952
  9
$DIMDLI
 40
7.9999999938532707
  9
$DIMRND
 40
0.0
  9
$DIMDLE
 40
0.0
  9
$DIMEXE
 40
19.99999992549419
  9
$DIMTP
 40
0.0
  9
$DIMTM
 40
0.0
  9
$DIMTXT
 40
33.866666666666667
  9
$DIMCEN
 40
0.0
  9
$DIMTSZ
 40
0.0
  9
$DIMTOL
 70
               0
  9
$DIMLIM
 70
               0
  9
$DIMTIH
 70
               0
  9
$DIMTOH
 70
               0
  9
$DIMSE1
 70
               0
  9
$DIMSE2
 70
               0
  9
$DIMTAD
 70
               1
  9
$DIMZIN
 70
              11
  9
$DIMBLK
  1
VW_OPENARROW
  9
$DIMASO
 70
               1
  9
$DIMSHO
 70
               1
  9
$DIMPOST
  1
<>
  9
$DIMAPOST
  1
[]
  9
$DIMALT
 70
               0
  9
$DIMALTD
 70
               1
  9
$DIMALTF
 40
1.0
  9
$DIMLFAC
 40
1.0
  9
$DIMTOFL
 70
               1
  9
$DIMTVP
 40
0.0
  9
$DIMTIX
 70
               1
  9
$DIMSOXD
 70
               0
  9
$DIMSAH
 70
               0
  9
$DIMBLK1
  1

  9
$DIMBLK2
  1

  9
$DIMSTYLE
  2
CAD
  9
$DIMCLRD
 70
               0
  9
$DIMCLRE
 70
               0
  9
$DIMCLRT
 70
               0
  9
$DIMTFAC
 40
0.7
  9
$DIMGAP
 40
0.099999999627471
  9
$DIMJUST
 70
               0
  9
$DIMSD1
 70
               0
  9
$DIMSD2
 70
               0
  9
$DIMTOLJ
 70
               1
  9
$DIMTZIN
 70
              11
  9
$DIMALTZ
 70
              11
  9
$DIMALTTZ
 70
              11
  9
$DIMFIT
 70
               0
  9
$DIMUPT
 70
               0
  9
$DIMUNIT
 70
               2
  9
$DIMDEC
 70
               4
  9
$DIMTDEC
 70
               4
  9
$DIMALTU
 70
               2
  9
$DIMALTTD
 70
               2
  9
$DIMTXSTY
  7
________
  9
$DIMAUNIT
 70
               0
  9
$LUNITS
 70
               2
  9
$LUPREC
 70
               4
  9
$SKETCHINC
 40
0.1
  9
$FILLETRAD
 40
0.0
  9
$AUNITS
 70
               0
  9
$AUPREC
 70
               0
  9
$MENU
  1
acad
  9
$ELEVATION
 40
0.0
  9
$PELEVATION
 40
0.0
  9
$THICKNESS
 40
0.0
  9
$LIMCHECK
 70
               0
  9
$BLIPMODE
 70
               0
  9
$CHAMFERA
 40
0.0
  9
$CHAMFERB
 40
0.0
  9
$CHAMFERC
 40
0.0
  9
$CHAMFERD
 40
0.0
  9
$SKPOLY
 70
               0
  9
$TDCREATE
 40
2458925.593263889
  9
$TDUPDATE
 40
2458925.593263889
  9
$TDINDWG
 40
0.0000000000
  9
$TDUSRTIMER
 40
0.0000000000
  9
$USRTIMER
 70
               1
  9
$ANGBASE
 50
0.0
  9
$ANGDIR
 70
               0
  9
$PDMODE
 70
               1
  9
$PDSIZE
 40
-2.0
  9
$PLINEWID
 40
0.0
  9
$COORDS
 70
               0
  9
$SPLFRAME
 70
               0
  9
$SPLINETYPE
 70
               6
  9
$SPLINESEGS
 70
               8
  9
$ATTDIA
 70
               0
  9
$ATTREQ
 70
               1
  9
$HANDLING
 70
               1
  9
$HANDSEED
  5
566
  9
$SURFTAB1
 70
               6
  9
$SURFTAB2
 70
               6
  9
$SURFTYPE
 70
               6
  9
$SURFU
 70
               6
  9
$SURFV
 70
               6
  9
$UCSNAME
  2

  9
$UCSORG
 10
0.0
 20
0.0
 30
0.0
  9
$UCSXDIR
 10
1.0
 20
0.0
 30
0.0
  9
$UCSYDIR
 10
0.0
 20
1.0
 30
0.0
  9
$PUCSNAME
  2

  9
$PUCSORG
 10
0.0
 20
0.0
 30
0.0
  9
$PUCSXDIR
 10
1.0
 20
0.0
 30
0.0
  9
$PUCSYDIR
 10
0.0
 20
1.0
 30
0.0
  9
$USERI1
 70
               0
  9
$USERI2
 70
               0
  9
$USERI3
 70
               0
  9
$USERI4
 70
               0
  9
$USERI5
 70
               0
  9
$USERR1
 40
0.0
  9
$USERR2
 40
0.0
  9
$USERR3
 40
0.0
  9
$USERR4
 40
0.0
  9
$USERR5
 40
0.0
  9
$WORLDVIEW
 70
               1
  9
$SHADEDGE
 70
               3
  9
$SHADEDIF
 70
              70
  9
$TILEMODE
 70
               1
  9
$MAXACTVP
 70
              16
  9
$PINSBASE
 10
0.0
 20
0.0
 30
0.0
  9
$PLIMCHECK
 70
               0
  9
$PEXTMIN
 10
1.0000000000000000E+20
 20
1.0000000000000000E+20
 30
1.0000000000000000E+20
  9
$PEXTMAX
 10
-1.0000000000000000E+20
 20
-1.0000000000000000E+20
 30
-1.0000000000000000E+20
  9
$PLIMMIN
 10
0.0
 20
0.0
  9
$PLIMMAX
 10
12.0
 20
9.0
  9
$UNITMODE
 70
               0
  9
$VISRETAIN
 70
               0
  9
$PLINEGEN
 70
               1
  9
$PSLTSCALE
 70
               0
  9
$TREEDEPTH
 70
            3020
  9
$PICKSTYLE
 70
               1
  9
$CMLSTYLE
  2
STANDARD
  9
$CMLJUST
 70
               0
  9
$CMLSCALE
 40
1.0
  9
$PROXYGRAPHICS
 70
               0
  9
$MEASUREMENT
 70
               1
  0
ENDSEC
  0
SECTION
  2
CLASSES
  0
CLASS
  1
LWPOLYLINE
  2
AcDbPolyline
  3
"AutoCAD"
 90
        0
280
               0
281
               1
  0
CLASS
  1
IMAGE
  2
AcDbRasterImage
  3
ISM
 90
      127
280
               0
281
               1
  0
CLASS
  1
OLE2FRAME
  2
AcDbOle2Frame
  3
""
 90
        0
280
               0
281
               1
  0
CLASS
  1
HATCH
  2
AcDbHatch
  3
"ACAD_SEDONA"
 90
        0
280
               0
281
               1
  0
CLASS
  1
DICTIONARYVAR
  2
AcDbDictionaryVar
  3
"AutoCAD"
 90
        0
280
               0
281
               0
  0
CLASS
  1
RASTERVARIABLES
  2
AcDbRasterVariables
  3
ISM
 90
        0
280
               0
281
               0
  0
CLASS
  1
IMAGEDEF
  2
AcDbRasterImageDef
  3
ISM
 90
        0
280
               0
281
               0
  0
CLASS
  1
IMAGEDEF_REACTOR
  2
AcDbRasterImageDefReactor
  3
ISM
 90
        1
280
               0
281
               0
  0
CLASS
  1
IDBUFFER
  2
AcDbIdBuffer
  3
"Acad"
 90
        0
280
               0
281
               0
  0
CLASS
  1
SPATIAL_FILTER
  2
AcDbSpatialFilter
  3
"Acad"
 90
        0
280
               0
281
               0
  0
CLASS
  1
XRECORD
  2
AcDbXrecord
  3
"<Built In>"
 90
        0
280
               0
281
               0
  0
CLASS
  1
SORTENTSTABLE
  2
AcDbSortentsTable
  3
"AutoCAD"
 90
        0
280
               0
281
               0
  0
CLASS
  1
LAYER_INDEX
  2
AcDbLayerIndex
  3
"Acad"
 90
        0
280
               0
281
               0
  0
CLASS
  1
SPATIAL_INDEX
  2
AcDbSpatialIndex
  3
"Acad"
 90
        0
280
               0
281
               0
  0
CLASS
  1
OBJECT_PTR
  2
CAseDLPNTableRecord
  3
"ASE-LPNTableRecord"
 90
        1
280
               0
281
               0
  0
CLASS
  1
LAYOUT
  2
AcDbLayout
  3
"AutoCAD 2000"
 90
        1
280
               0
281
               0
  0
CLASS
  1
PLOTSETTINGS
  2
AcDbPlotSettings
  3
"AutoCAD 2000"
 90
        1
280
               0
281
               0
  0
CLASS
  1
ACDBDICTIONARYWDFLT
  2
AcDbDictionaryWithDefault
  3
"AutoCAD 2000"
 90
        1
280
               0
281
               0
  0
CLASS
  1
ACDBPLACEHOLDER
  2
AcDbPlaceHolder
  3
"AutoCAD 2000"
 90
        1
280
               0
281
               0
  0
ENDSEC
  0
SECTION
  2
TABLES
  0
TABLE
  2
VPORT
  5
7
100
AcDbSymbolTable
 70
               1
  0
VPORT
  5
15
100
AcDbSymbolTableRecord
100
AcDbViewportTableRecord
  2
*ACTIVE
 70
               0
 10
0.0
 20
0.0
 11
1.0
 21
1.0
 12
1029.600000004574
 22
331.00000000168734
 13
0.0
 23
0.0
 14
1.0
 24
1.0
 15
0.0
 25
0.0
 16
0.0
 26
0.0
 36
1.0
 17
0.0
 27
0.0
 37
0.0
 40
2719.9999999999995
 41
0.688564
 42
50.0
 43
0.0
 44
0.0
 50
0.0
 51
0.0
 71
               0
 72
             100
 73
               1
 74
               1
 75
               0
 76
               0
 77
               0
 78
               0
  0
ENDTAB
  0
TABLE
  2
LTYPE
  5
4
100
AcDbSymbolTable
 70
              18
  0
LTYPE
  5
11
100
AcDbSymbolTableRecord
100
AcDbLinetypeTableRecord
  2
BYBLOCK
 70
              64
  3

 72
              65
 73
               0
 40
0.0
  0
LTYPE
  5
12
100
AcDbSymbolTableRecord
100
AcDbLinetypeTableRecord
  2
BYLAYER
 70
              64
  3

 72
              65
 73
               0
 40
0.0
  0
LTYPE
  5
13
100
AcDbSymbolTableRecord
100
AcDbLinetypeTableRecord
  2
CONTINUOUS
 70
              64
  3
Solid line
 72
              65
 73
               0
 40
0.0
  0
LTYPE
  5
55
100
AcDbSymbolTableRecord
100
AcDbLinetypeTableRecord
  2
STYLE_01
 70
               0
  3

 72
              65
 73
               2
 40
0.0833282470703125
 49
0.041656494140625
 74
               0
 49
-0.0416717529296875
 74
               0
  0
LTYPE
  5
56
100
AcDbSymbolTableRecord
100
AcDbLinetypeTableRecord
  2
STYLE_02
 70
               0
  3

 72
              65
 73
               2
 40
0.138885498046875
 49
0.0972137451171875
 74
               0
 49
-0.0416717529296875
 74
               0
  0
LTYPE
  5
57
100
AcDbSymbolTableRecord
100
AcDbLinetypeTableRecord
  2
STYLE_03
 70
               0
  3

 72
              65
 73
               2
 40
0.25
 49
0.2083282470703125
 74
               0
 49
-0.0416717529296875
 74
               0
  0
LTYPE
  5
58
100
AcDbSymbolTableRecord
100
AcDbLinetypeTableRecord
  2
STYLE_04
 70
               0
  3

 72
              65
 73
               2
 40
0.3055419921875
 49
0.263885498046875
 74
               0
 49
-0.041656494140625
 74
               0
  0
LTYPE
  5
59
100
AcDbSymbolTableRecord
100
AcDbLinetypeTableRecord
  2
STYLE_05
 70
               0
  3

 72
              65
 73
               2
 40
0.041656494140625
 49
0.013885498046875
 74
               0
 49
-0.02777099609375
 74
               0
  0
LTYPE
  5
5A
100
AcDbSymbolTableRecord
100
AcDbLinetypeTableRecord
  2
STYLE_06
 70
               0
  3

 72
              65
 73
               4
 40
0.65277099609375
 49
0.0555572509765625
 74
               0
 49
-0.0555572509765625
 74
               0
 49
0.486114501953125
 74
               0
 49
-0.0555419921875
 74
               0
  0
LTYPE
  5
5B
100
AcDbSymbolTableRecord
100
AcDbLinetypeTableRecord
  2
STYLE_07
 70
               0
  3

 72
              65
 73
               6
 40
0.375
 49
0.125
 74
               0
 49
-0.041656494140625
 74
               0
 49
0.125
 74
               0
 49
-0.0416717529296875
 74
               0
 49
0.013885498046875
 74
               0
 49
-0.0277862548828125
 74
               0
  0
LTYPE
  5
5C
100
AcDbSymbolTableRecord
100
AcDbLinetypeTableRecord
  2
STYLE_08
 70
               0
  3

 72
              65
 73
               6
 40
0.25
 49
0.125
 74
               0
 49
-0.041656494140625
 74
               0
 49
0.013885498046875
 74
               0
 49
-0.0277862548828125
 74
               0
 49
0.013885498046875
 74
               0
 49
-0.0277862548828125
 74
               0
  0
LTYPE
  5
5D
100
AcDbSymbolTableRecord
100
AcDbLinetypeTableRecord
  2
STYLE_09
 70
               0
  3

 72
              65
 73
               4
 40
1.0
 49
0.75
 74
               0
 49
-0.0555572509765625
 74
               0
 49
0.138885498046875
 74
               0
 49
-0.0555572509765625
 74
               0
  0
LTYPE
  5
5E
100
AcDbSymbolTableRecord
100
AcDbLinetypeTableRecord
  2
STYLE_10
 70
               0
  3

 72
              65
 73
               6
 40
1.1875
 49
0.75
 74
               0
 49
-0.0555572509765625
 74
               0
 49
0.138885498046875
 74
               0
 49
-0.0555572509765625
 74
               0
 49
0.125
 74
               0
 49
-0.0625
 74
               0
  0
LTYPE
  5
5F
100
AcDbSymbolTableRecord
100
AcDbLinetypeTableRecord
  2
STYLE_11
 70
               0
  3

 72
              65
 73
               4
 40
1.5
 49
0.0833282470703125
 74
               0
 49
-0.0555572509765625
 74
               0
 49
1.3055572509765625
 74
               0
 49
-0.0555572509765625
 74
               0
  0
LTYPE
  5
60
100
AcDbSymbolTableRecord
100
AcDbLinetypeTableRecord
  2
STYLE_12
 70
               0
  3

 72
              65
 73
               4
 40
1.111114501953125
 49
0.7916717529296875
 74
               0
 49
-0.0833282470703125
 74
               0
 49
0.125
 74
               0
 49
-0.111114501953125
 74
               0
  0
LTYPE
  5
61
100
AcDbSymbolTableRecord
100
AcDbLinetypeTableRecord
  2
STYLE_13
 70
               0
  3

 72
              65
 73
               8
 40
0.8055572509765625
 49
0.013885498046875
 74
               0
 49
-0.0416717529296875
 74
               0
 49
0.0416717529296875
 74
               0
 49
-0.041656494140625
 74
               0
 49
0.0416717529296875
 74
               0
 49
-0.0416717529296875
 74
               0
 49
0.4583282470703125
 74
               0
 49
-0.125
 74
               0
  0
LTYPE
  5
62
100
AcDbSymbolTableRecord
100
AcDbLinetypeTableRecord
  2
STYLE_14
 70
               0
  3

 72
              65
 73
               6
 40
0.5694427490234375
 49
0.361114501953125
 74
               0
 49
-0.041656494140625
 74
               0
 49
0.0416717529296875
 74
               0
 49
-0.0416717529296875
 74
               0
 49
0.041656494140625
 74
               0
 49
-0.0416717529296875
 74
               0
  0
LTYPE
  5
63
100
AcDbSymbolTableRecord
100
AcDbLinetypeTableRecord
  2
STYLE_15
 70
               0
  3

 72
              65
 73
               6
 40
0.6111111111111112
 49
0.4027777777777778
 74
               0
 49
-0.0416666666666666
 74
               0
 49
0.0416666666666667
 74
               0
 49
-0.0416666666666667
 74
               0
 49
0.0416666666666666
 74
               0
 49
-0.0416666666666667
 74
               0
  0
ENDTAB
  0
TABLE
  2
LAYER
  5
2
100
AcDbSymbolTable
 70
               9
  0
LAYER
  5
14
100
AcDbSymbolTableRecord
100
AcDbLayerTableRecord
  2
0
 70
               0
 62
               7
  6
CONTINUOUS
  0
LAYER
  5
6B
100
AcDbSymbolTableRecord
100
AcDbLayerTableRecord
  2
DEFPOINTS
 70
               0
 62
               7
  6
CONTINUOUS
  0
LAYER
  5
6C
100
AcDbSymbolTableRecord
100
AcDbLayerTableRecord
  2
OBJECT
 70
               0
 62
               7
  6
CONTINUOUS
  0
LAYER
  5
6D
100
AcDbSymbolTableRecord
100
AcDbLayerTableRecord
  2
DIMENTION
 70
               0
 62
               7
  6
CONTINUOUS
  0
LAYER
  5
6E
100
AcDbSymbolTableRecord
100
AcDbLayerTableRecord
  2
CENTER
 70
               0
 62
               7
  6
STYLE_09
  0
LAYER
  5
6F
100
AcDbSymbolTableRecord
100
AcDbLayerTableRecord
  2
HIDDEN
 70
               0
 62
               7
  6
STYLE_02
  0
LAYER
  5
70
100
AcDbSymbolTableRecord
100
AcDbLayerTableRecord
  2
FRAME
 70
               0
 62
               7
  6
CONTINUOUS
  0
LAYER
  5
71
100
AcDbSymbolTableRecord
100
AcDbLayerTableRecord
  2
OUTLINE
 70
               0
 62
               7
  6
STYLE_14
  0
LAYER
  5
72
100
AcDbSymbolTableRecord
100
AcDbLayerTableRecord
  2
TEXT
 70
               0
 62
               7
  6
CONTINUOUS
  0
ENDTAB
  0
TABLE
  2
STYLE
  5
3
100
AcDbSymbolTable
 70
               2
  0
STYLE
  5
17
100
AcDbSymbolTableRecord
100
AcDbTextStyleTableRecord
  2
STANDARD
 70
               0
 40
0.0
 41
1.0
 50
0.0
 71
               0
 42
0.0
  3
txt
  4
BIGFONT.SHX
  0
STYLE
  5
54
100
AcDbSymbolTableRecord
100
AcDbTextStyleTableRecord
  2
________
 70
               0
 40
0.0
 41
1.0
 50
0.0
 71
               0
 42
0.0
  3
ＭＳ Ｐゴシック
  4

1001
ACAD
1000
ＭＳ Ｐゴシック
1071
        0
  0
ENDTAB
  0
TABLE
  2
VIEW
  5
5
100
AcDbSymbolTable
 70
               0
  0
ENDTAB
  0
TABLE
  2
UCS
  5
6
100
AcDbSymbolTable
 70
               0
  0
ENDTAB
  0
TABLE
  2
APPID
  5
8
100
AcDbSymbolTable
 70
               1
  0
APPID
  5
16
100
AcDbSymbolTableRecord
100
AcDbRegAppTableRecord
  2
ACAD
 70
               0
  0
ENDTAB
  0
TABLE
  2
DIMSTYLE
  5
9
100
AcDbSymbolTable
 70
               2
  0
DIMSTYLE
105
18
100
AcDbSymbolTableRecord
100
AcDbDimStyleTableRecord
  2
STANDARD
 70
               0
  3

  4

  5

  6

  7

 40
1.0
 41
0.18
 42
0.0625
 43
0.38
 44
0.18
 45
0.0
 46
0.0
 47
0.0
 48
0.0
 71
               0
 72
               0
 73
               1
 74
               1
 75
               0
 76
               0
 77
               0
 78
               0
140
0.18
141
0.09
142
0.0
143
25.399999999999999
144
1.0
145
0.0
146
1.0
147
0.09
170
               0
171
               2
172
               0
173
               0
174
               0
175
               0
176
               0
177
               0
178
               0
270
               2
271
               4
272
               4
273
               2
274
               2
275
               0
280
               0
281
               0
282
               0
283
               1
284
               0
285
               0
286
               0
287
               0
288
               0
340
17
  0
DIMSTYLE
105
6A
100
AcDbSymbolTableRecord
100
AcDbDimStyleTableRecord
  2
CAD
 70
               0
  3
<>
  4
[]
  5
VW_OPENARROW
  6

  7

 40
1.0
 41
31.75
 42
9.9999999627470952
 43
7.9999999938532707
 44
19.99999992549419
 45
0.0
 46
0.0
 47
0.0
 48
0.0
 71
               0
 72
               0
 73
               0
 74
               0
 75
               0
 76
               0
 77
               1
 78
              11
140
33.866666666666667
141
0.0
142
0.0
143
1.0
144
1.0
145
0.0
146
0.7
147
0.099999999627471
170
               0
171
               1
172
               1
173
               0
174
               1
175
               0
176
               0
177
               0
178
               0
270
               2
271
               4
272
               4
273
               2
274
               2
275
               0
280
               0
281
               0
282
               0
283
               1
284
              11
285
              11
286
              11
287
               0
288
               0
340
54
  0
ENDTAB
  0
TABLE
  2
BLOCK_RECORD
  5
1
100
AcDbSymbolTable
 70
              56
  0
BLOCK_RECORD
  5
A
100
AcDbSymbolTableRecord
100
AcDbBlockTableRecord
  2
*MODEL_SPACE
  0
BLOCK_RECORD
  5
B
100
AcDbSymbolTableRecord
100
AcDbBlockTableRecord
  2
*PAPER_SPACE
  0
BLOCK_RECORD
  5
64
100
AcDbSymbolTableRecord
100
AcDbBlockTableRecord
  2
VW_OPENARROW
  0
BLOCK_RECORD
  5
1D
100
AcDbSymbolTableRecord
100
AcDbBlockTableRecord
  2
*U1
  0
BLOCK_RECORD
  5
1E
100
AcDbSymbolTableRecord
100
AcDbBlockTableRecord
  2
*U2
  0
BLOCK_RECORD
  5
1F
100
AcDbSymbolTableRecord
100
AcDbBlockTableRecord
  2
*U3
  0
BLOCK_RECORD
  5
20
100
AcDbSymbolTableRecord
100
AcDbBlockTableRecord
  2
*U4
  0
BLOCK_RECORD
  5
21
100
AcDbSymbolTableRecord
100
AcDbBlockTableRecord
  2
*U5
  0
BLOCK_RECORD
  5
22
100
AcDbSymbolTableRecord
100
AcDbBlockTableRecord
  2
*U6
  0
BLOCK_RECORD
  5
23
100
AcDbSymbolTableRecord
100
AcDbBlockTableRecord
  2
*U7
  0
BLOCK_RECORD
  5
24
100
AcDbSymbolTableRecord
100
AcDbBlockTableRecord
  2
*U8
  0
BLOCK_RECORD
  5
25
100
AcDbSymbolTableRecord
100
AcDbBlockTableRecord
  2
*U9
  0
BLOCK_RECORD
  5
26
100
AcDbSymbolTableRecord
100
AcDbBlockTableRecord
  2
*U10
  0
BLOCK_RECORD
  5
27
100
AcDbSymbolTableRecord
100
AcDbBlockTableRecord
  2
*D11
  0
BLOCK_RECORD
  5
28
100
AcDbSymbolTableRecord
100
AcDbBlockTableRecord
  2
*D12
  0
BLOCK_RECORD
  5
29
100
AcDbSymbolTableRecord
100
AcDbBlockTableRecord
  2
*D13
  0
BLOCK_RECORD
  5
2A
100
AcDbSymbolTableRecord
100
AcDbBlockTableRecord
  2
*D14
  0
BLOCK_RECORD
  5
2B
100
AcDbSymbolTableRecord
100
AcDbBlockTableRecord
  2
*D15
  0
BLOCK_RECORD
  5
2C
100
AcDbSymbolTableRecord
100
AcDbBlockTableRecord
  2
*D16
  0
BLOCK_RECORD
  5
2D
100
AcDbSymbolTableRecord
100
AcDbBlockTableRecord
  2
*D17
  0
BLOCK_RECORD
  5
2E
100
AcDbSymbolTableRecord
100
AcDbBlockTableRecord
  2
*D18
  0
BLOCK_RECORD
  5
2F
100
AcDbSymbolTableRecord
100
AcDbBlockTableRecord
  2
*D19
  0
BLOCK_RECORD
  5
30
100
AcDbSymbolTableRecord
100
AcDbBlockTableRecord
  2
*D20
  0
BLOCK_RECORD
  5
31
100
AcDbSymbolTableRecord
100
AcDbBlockTableRecord
  2
*D21
  0
BLOCK_RECORD
  5
32
100
AcDbSymbolTableRecord
100
AcDbBlockTableRecord
  2
*U22
  0
BLOCK_RECORD
  5
33
100
AcDbSymbolTableRecord
100
AcDbBlockTableRecord
  2
*U23
  0
BLOCK_RECORD
  5
34
100
AcDbSymbolTableRecord
100
AcDbBlockTableRecord
  2
*U24
  0
BLOCK_RECORD
  5
35
100
AcDbSymbolTableRecord
100
AcDbBlockTableRecord
  2
*U25
  0
BLOCK_RECORD
  5
36
100
AcDbSymbolTableRecord
100
AcDbBlockTableRecord
  2
*D26
  0
BLOCK_RECORD
  5
37
100
AcDbSymbolTableRecord
100
AcDbBlockTableRecord
  2
*D27
  0
BLOCK_RECORD
  5
38
100
AcDbSymbolTableRecord
100
AcDbBlockTableRecord
  2
*D28
  0
BLOCK_RECORD
  5
39
100
AcDbSymbolTableRecord
100
AcDbBlockTableRecord
  2
*D29
  0
BLOCK_RECORD
  5
3A
100
AcDbSymbolTableRecord
100
AcDbBlockTableRecord
  2
*D30
  0
BLOCK_RECORD
  5
3B
100
AcDbSymbolTableRecord
100
AcDbBlockTableRecord
  2
*D31
  0
BLOCK_RECORD
  5
3C
100
AcDbSymbolTableRecord
100
AcDbBlockTableRecord
  2
*D32
  0
BLOCK_RECORD
  5
3D
100
AcDbSymbolTableRecord
100
AcDbBlockTableRecord
  2
*D33
  0
BLOCK_RECORD
  5
3E
100
AcDbSymbolTableRecord
100
AcDbBlockTableRecord
  2
*U34
  0
BLOCK_RECORD
  5
3F
100
AcDbSymbolTableRecord
100
AcDbBlockTableRecord
  2
*U35
  0
BLOCK_RECORD
  5
40
100
AcDbSymbolTableRecord
100
AcDbBlockTableRecord
  2
*D36
  0
BLOCK_RECORD
  5
41
100
AcDbSymbolTableRecord
100
AcDbBlockTableRecord
  2
*D37
  0
BLOCK_RECORD
  5
42
100
AcDbSymbolTableRecord
100
AcDbBlockTableRecord
  2
*U38
  0
BLOCK_RECORD
  5
43
100
AcDbSymbolTableRecord
100
AcDbBlockTableRecord
  2
*U39
  0
BLOCK_RECORD
  5
44
100
AcDbSymbolTableRecord
100
AcDbBlockTableRecord
  2
*U40
  0
BLOCK_RECORD
  5
45
100
AcDbSymbolTableRecord
100
AcDbBlockTableRecord
  2
*U41
  0
BLOCK_RECORD
  5
46
100
AcDbSymbolTableRecord
100
AcDbBlockTableRecord
  2
*U42
  0
BLOCK_RECORD
  5
47
100
AcDbSymbolTableRecord
100
AcDbBlockTableRecord
  2
*U43
  0
BLOCK_RECORD
  5
48
100
AcDbSymbolTableRecord
100
AcDbBlockTableRecord
  2
*U44
  0
BLOCK_RECORD
  5
49
100
AcDbSymbolTableRecord
100
AcDbBlockTableRecord
  2
*U45
  0
BLOCK_RECORD
  5
4A
100
AcDbSymbolTableRecord
100
AcDbBlockTableRecord
  2
*U46
  0
BLOCK_RECORD
  5
4B
100
AcDbSymbolTableRecord
100
AcDbBlockTableRecord
  2
*U47
  0
BLOCK_RECORD
  5
4C
100
AcDbSymbolTableRecord
100
AcDbBlockTableRecord
  2
*U48
  0
BLOCK_RECORD
  5
4D
100
AcDbSymbolTableRecord
100
AcDbBlockTableRecord
  2
*U49
  0
BLOCK_RECORD
  5
4E
100
AcDbSymbolTableRecord
100
AcDbBlockTableRecord
  2
*U50
  0
BLOCK_RECORD
  5
4F
100
AcDbSymbolTableRecord
100
AcDbBlockTableRecord
  2
*U51
  0
BLOCK_RECORD
  5
50
100
AcDbSymbolTableRecord
100
AcDbBlockTableRecord
  2
*U52
  0
BLOCK_RECORD
  5
51
100
AcDbSymbolTableRecord
100
AcDbBlockTableRecord
  2
*U53
  0
BLOCK_RECORD
  5
52
100
AcDbSymbolTableRecord
100
AcDbBlockTableRecord
  2
*D54
  0
BLOCK_RECORD
  5
53
100
AcDbSymbolTableRecord
100
AcDbBlockTableRecord
  2
*D55
  0
ENDTAB
  0
ENDSEC
  0
SECTION
  2
BLOCKS
  0
BLOCK
  5
D
100
AcDbEntity
  8
0
100
AcDbBlockBegin
  2
*MODEL_SPACE
 70
               0
 10
0.0
 20
0.0
 30
0.0
  3
*MODEL_SPACE
  1

  0
ENDBLK
  5
E
100
AcDbEntity
  8
0
100
AcDbBlockEnd
  0
BLOCK
  5
F
100
AcDbEntity
 67
               1
  8
0
100
AcDbBlockBegin
  2
*PAPER_SPACE
 70
               0
 10
0.0
 20
0.0
 30
0.0
  3
*PAPER_SPACE
  1

  0
ENDBLK
  5
10
100
AcDbEntity
 67
               1
  8
0
100
AcDbBlockEnd
  0
BLOCK
  5
65
100
AcDbEntity
  8
0
  6
BYBLOCK
 62
               0
100
AcDbBlockBegin
  2
VW_OPENARROW
 70
               0
 10
0.0
 20
0.0
 30
0.0
  3
VW_OPENARROW
  1

  0
LINE
  5
66
100
AcDbEntity
  8
0
  6
BYBLOCK
 62
               0
100
AcDbLine
 10
0.0
 20
0.0
 30
0.0
 11
-1.0
 21
0.0
 31
0.0
  0
LINE
  5
67
100
AcDbEntity
  8
0
  6
BYBLOCK
 62
               0
100
AcDbLine
 10
0.0
 20
0.0
 30
0.0
 11
-0.9921874999999999
 21
-0.2658558393652545
 31
0.0
  0
LINE
  5
68
100
AcDbEntity
  8
0
  6
BYBLOCK
 62
               0
100
AcDbLine
 10
0.0
 20
0.0
 30
0.0
 11
-0.9921874999999999
 21
0.2658558393652548
 31
0.0
  0
ENDBLK
  5
69
100
AcDbEntity
  8
0
100
AcDbBlockEnd
  0
BLOCK
  5
73
100
AcDbEntity
  8
FRAME
100
AcDbBlockBegin
  2
*U1
 70
               1
 10
0.0
 20
0.0
 30
0.0
  3
*U1
  1

  0
ENDBLK
  5
74
100
AcDbEntity
  8
FRAME
100
AcDbBlockEnd
  0
BLOCK
  5
75
100
AcDbEntity
  8
FRAME
100
AcDbBlockBegin
  2
*U2
 70
               1
 10
0.0
 20
0.0
 30
0.0
  3
*U2
  1

  0
ENDBLK
  5
76
100
AcDbEntity
  8
FRAME
100
AcDbBlockEnd
  0
BLOCK
  5
77
100
AcDbEntity
  8
FRAME
100
AcDbBlockBegin
  2
*U3
 70
               1
 10
0.0
 20
0.0
 30
0.0
  3
*U3
  1

  0
ENDBLK
  5
78
100
AcDbEntity
  8
FRAME
100
AcDbBlockEnd
  0
BLOCK
  5
79
100
AcDbEntity
  8
FRAME
100
AcDbBlockBegin
  2
*U4
 70
               1
 10
0.0
 20
0.0
 30
0.0
  3
*U4
  1

  0
ENDBLK
  5
7A
100
AcDbEntity
  8
FRAME
100
AcDbBlockEnd
  0
BLOCK
  5
7B
100
AcDbEntity
  8
FRAME
100
AcDbBlockBegin
  2
*U5
 70
               1
 10
0.0
 20
0.0
 30
0.0
  3
*U5
  1

  0
ENDBLK
  5
7C
100
AcDbEntity
  8
FRAME
100
AcDbBlockEnd
  0
BLOCK
  5
7D
100
AcDbEntity
  8
FRAME
100
AcDbBlockBegin
  2
*U6
 70
               1
 10
0.0
 20
0.0
 30
0.0
  3
*U6
  1

  0
INSERT
  5
7E
100
AcDbEntity
  8
FRAME
 62
               0
100
AcDbBlockReference
  2
*U1
 10
0.0
 20
0.0
 30
0.0
  0
INSERT
  5
7F
100
AcDbEntity
  8
FRAME
 62
               0
100
AcDbBlockReference
  2
*U2
 10
0.0
 20
0.0
 30
0.0
  0
INSERT
  5
80
100
AcDbEntity
  8
FRAME
 62
               0
100
AcDbBlockReference
  2
*U3
 10
0.0
 20
0.0
 30
0.0
  0
INSERT
  5
81
100
AcDbEntity
  8
FRAME
 62
               0
100
AcDbBlockReference
  2
*U4
 10
0.0
 20
0.0
 30
0.0
  0
INSERT
  5
82
100
AcDbEntity
  8
FRAME
 62
               0
100
AcDbBlockReference
  2
*U5
 10
0.0
 20
0.0
 30
0.0
  0
LWPOLYLINE
  5
83
100
AcDbEntity
  8
FRAME
 62
               0
100
AcDbPolyline
 90
       12
 70
             129
 10
-1762.8014244559727
 20
-1322.388394291102
 10
-1775.7620303399599
 20
-1322.388394291102
 10
-1808.9767724260273
 20
-1322.388394291102
 10
-1821.7623384093167
 20
-1322.388394291102
 10
-1823.3158598695563
 20
-1322.388394291102
 10
-1823.3158598695563
 20
-1380.0000000016873
 10
-1808.9767724260273
 20
-1380.0000000016873
 10
-1808.9767724260273
 20
-1377.1044636278841
 10
-1775.7620303399599
 20
-1377.1044636278841
 10
-1775.7620303399599
 20
-1380.0000000016873
 10
-1761.4265948537204
 20
-1380.0000000016873
 10
-1761.4265948537204
 20
-1322.388394291102
  0
ENDBLK
  5
84
100
AcDbEntity
  8
FRAME
100
AcDbBlockEnd
  0
BLOCK
  5
85
100
AcDbEntity
  8
OBJECT
100
AcDbBlockBegin
  2
*U7
 70
               1
 10
0.0
 20
0.0
 30
0.0
  3
*U7
  1

  0
LINE
  5
86
100
AcDbEntity
  8
OBJECT
 62
               0
100
AcDbLine
 10
1068.9146341417684
 20
-1010.0000000016869
 30
0.0
 11
1068.9146341417684
 21
-1190.0000000016873
 31
0.0
  0
LINE
  5
87
100
AcDbEntity
  8
OBJECT
 62
               0
100
AcDbLine
 10
1030.9146341417684
 20
-1010.0000000016869
 30
0.0
 11
1030.9146341417684
 21
-1190.0000000016873
 31
0.0
  0
ENDBLK
  5
88
100
AcDbEntity
  8
OBJECT
100
AcDbBlockEnd
  0
BLOCK
  5
89
100
AcDbEntity
  8
OBJECT
100
AcDbBlockBegin
  2
*U8
 70
               1
 10
0.0
 20
0.0
 30
0.0
  3
*U8
  1

  0
LINE
  5
8A
100
AcDbEntity
  8
OBJECT
 62
               0
100
AcDbLine
 10
-753.70330000457284
 20
-1065.6495000016869
 30
0.0
 11
-755.66660000457409
 21
-1065.6977000016871
 31
0.0
  0
LINE
  5
8B
100
AcDbEntity
  8
OBJECT
 62
               0
100
AcDbLine
 10
-751.74530000457412
 20
-1065.505000001687
 30
0.0
 11
-753.70330000457284
 21
-1065.6495000016869
 31
0.0
  0
LINE
  5
8C
100
AcDbEntity
  8
OBJECT
 62
               0
100
AcDbLine
 10
-749.7962000045743
 20
-1065.2646000016869
 30
0.0
 11
-751.74530000457412
 21
-1065.505000001687
 31
0.0
  0
LINE
  5
8D
100
AcDbEntity
  8
OBJECT
 62
               0
100
AcDbLine
 10
-747.86180000457421
 20
-1064.9289000016872
 30
0.0
 11
-749.7962000045743
 21
-1065.2646000016869
 31
0.0
  0
LINE
  5
8E
100
AcDbEntity
  8
OBJECT
 62
               0
100
AcDbLine
 10
-745.94560000457454
 20
-1064.498500001687
 30
0.0
 11
-747.86180000457421
 21
-1064.9289000016872
 31
0.0
  0
LINE
  5
8F
100
AcDbEntity
  8
OBJECT
 62
               0
100
AcDbLine
 10
-744.05340000457431
 20
-1063.9748000016873
 30
0.0
 11
-745.94560000457454
 21
-1064.498500001687
 31
0.0
  0
LINE
  5
90
100
AcDbEntity
  8
OBJECT
 62
               0
100
AcDbLine
 10
-742.18870000457423
 20
-1063.3586000016869
 30
0.0
 11
-744.05340000457431
 21
-1063.9748000016873
 31
0.0
  0
LINE
  5
91
100
AcDbEntity
  8
OBJECT
 62
               0
100
AcDbLine
 10
-740.35700000457359
 20
-1062.6519000016872
 30
0.0
 11
-742.18870000457423
 21
-1063.3586000016869
 31
0.0
  0
LINE
  5
92
100
AcDbEntity
  8
OBJECT
 62
               0
100
AcDbLine
 10
-738.56160000457271
 20
-1061.8559000016869
 30
0.0
 11
-740.35700000457359
 21
-1062.6519000016872
 31
0.0
  0
LINE
  5
93
100
AcDbEntity
  8
OBJECT
 62
               0
100
AcDbLine
 10
-736.8080000045727
 20
-1060.973100001687
 30
0.0
 11
-738.56160000457271
 21
-1061.8559000016869
 31
0.0
  0
LINE
  5
94
100
AcDbEntity
  8
OBJECT
 62
               0
100
AcDbLine
 10
-735.09930000457348
 20
-1060.0049000016872
 30
0.0
 11
-736.8080000045727
 21
-1060.973100001687
 31
0.0
  0
LINE
  5
95
100
AcDbEntity
  8
OBJECT
 62
               0
100
AcDbLine
 10
-733.44070000457282
 20
-1058.954400001687
 30
0.0
 11
-735.09930000457348
 21
-1060.0049000016872
 31
0.0
  0
LINE
  5
96
100
AcDbEntity
  8
OBJECT
 62
               0
100
AcDbLine
 10
-731.83510000457386
 20
-1057.8234000016871
 30
0.0
 11
-733.44070000457282
 21
-1058.954400001687
 31
0.0
  0
LINE
  5
97
100
AcDbEntity
  8
OBJECT
 62
               0
100
AcDbLine
 10
-730.28750000457399
 20
-1056.615400001687
 30
0.0
 11
-731.83510000457386
 21
-1057.8234000016871
 31
0.0
  0
LINE
  5
98
100
AcDbEntity
  8
OBJECT
 62
               0
100
AcDbLine
 10
-728.80060000457411
 20
-1055.3324000016871
 30
0.0
 11
-730.28750000457399
 21
-1056.615400001687
 31
0.0
  0
LINE
  5
99
100
AcDbEntity
  8
OBJECT
 62
               0
100
AcDbLine
 10
-727.37890000457332
 20
-1053.9786000016868
 30
0.0
 11
-728.80060000457411
 21
-1055.3324000016871
 31
0.0
  0
LINE
  5
9A
100
AcDbEntity
  8
OBJECT
 62
               0
100
AcDbLine
 10
-726.02490000457396
 20
-1052.5560000016869
 30
0.0
 11
-727.37890000457332
 21
-1053.9786000016868
 31
0.0
  0
LINE
  5
9B
100
AcDbEntity
  8
OBJECT
 62
               0
100
AcDbLine
 10
-724.74270000457432
 20
-1051.0692000016872
 30
0.0
 11
-726.02490000457396
 21
-1052.5560000016869
 31
0.0
  0
LINE
  5
9C
100
AcDbEntity
  8
OBJECT
 62
               0
100
AcDbLine
 10
-723.53470000457378
 20
-1049.5208000016871
 30
0.0
 11
-724.74270000457432
 21
-1051.0692000016872
 31
0.0
  0
LINE
  5
9D
100
AcDbEntity
  8
OBJECT
 62
               0
100
AcDbLine
 10
-722.40450000457417
 20
-1047.915500001687
 30
0.0
 11
-723.53470000457378
 21
-1049.5208000016871
 31
0.0
  0
LINE
  5
9E
100
AcDbEntity
  8
OBJECT
 62
               0
100
AcDbLine
 10
-721.35400000457298
 20
-1046.2561000016869
 30
0.0
 11
-722.40450000457417
 21
-1047.915500001687
 31
0.0
  0
LINE
  5
9F
100
AcDbEntity
  8
OBJECT
 62
               0
100
AcDbLine
 10
-720.38660000457344
 20
-1044.547700001687
 30
0.0
 11
-721.35400000457298
 21
-1046.2561000016869
 31
0.0
  0
LINE
  5
A0
100
AcDbEntity
  8
OBJECT
 62
               0
100
AcDbLine
 10
-719.50390000457332
 20
-1042.7933000016867
 30
0.0
 11
-720.38660000457344
 21
-1044.547700001687
 31
0.0
  0
LINE
  5
A1
100
AcDbEntity
  8
OBJECT
 62
               0
100
AcDbLine
 10
-718.70860000457355
 20
-1040.9983000016871
 30
0.0
 11
-719.50390000457332
 21
-1042.7933000016867
 31
0.0
  0
LINE
  5
A2
100
AcDbEntity
  8
OBJECT
 62
               0
100
AcDbLine
 10
-718.00220000457443
 20
-1039.1659000016873
 30
0.0
 11
-718.70860000457355
 21
-1040.9983000016871
 31
0.0
  0
LINE
  5
A3
100
AcDbEntity
  8
OBJECT
 62
               0
100
AcDbLine
 10
-717.38670000457455
 20
-1037.3015000016869
 30
0.0
 11
-718.00220000457443
 21
-1039.1659000016873
 31
0.0
  0
LINE
  5
A4
100
AcDbEntity
  8
OBJECT
 62
               0
100
AcDbLine
 10
-716.86330000457451
 20
-1035.4086000016871
 30
0.0
 11
-717.38670000457455
 21
-1037.3015000016869
 31
0.0
  0
LINE
  5
A5
100
AcDbEntity
  8
OBJECT
 62
               0
100
AcDbLine
 10
-716.43350000457463
 20
-1033.4929000016871
 30
0.0
 11
-716.86330000457451
 21
-1035.4086000016871
 31
0.0
  0
LINE
  5
A6
100
AcDbEntity
  8
OBJECT
 62
               0
100
AcDbLine
 10
-716.09820000457398
 20
-1031.5579000016871
 30
0.0
 11
-716.43350000457463
 21
-1033.4929000016871
 31
0.0
  0
LINE
  5
A7
100
AcDbEntity
  8
OBJECT
 62
               0
100
AcDbLine
 10
-715.85830000457349
 20
-1029.609300001687
 30
0.0
 11
-716.09820000457398
 21
-1031.5579000016871
 31
0.0
  0
LINE
  5
A8
100
AcDbEntity
  8
OBJECT
 62
               0
100
AcDbLine
 10
-715.71430000457326
 20
-1027.6506000016873
 30
0.0
 11
-715.85830000457349
 21
-1029.609300001687
 31
0.0
  0
LINE
  5
A9
100
AcDbEntity
  8
OBJECT
 62
               0
100
AcDbLine
 10
-715.66660000457409
 20
-1025.6977000016871
 30
0.0
 11
-715.71430000457326
 21
-1027.6506000016873
 31
0.0
  0
LINE
  5
AA
100
AcDbEntity
  8
OBJECT
 62
               0
100
AcDbLine
 10
-715.66660000457409
 20
-1010.0000000016869
 30
0.0
 11
-715.66660000457409
 21
-1025.6977000016871
 31
0.0
  0
LINE
  5
AB
100
AcDbEntity
  8
OBJECT
 62
               0
100
AcDbLine
 10
-704.00000000457362
 20
-1010.0000000016869
 30
0.0
 11
-715.66660000457409
 21
-1010.0000000016869
 31
0.0
  0
ENDBLK
  5
AC
100
AcDbEntity
  8
OBJECT
100
AcDbBlockEnd
  0
BLOCK
  5
AD
100
AcDbEntity
  8
OBJECT
100
AcDbBlockBegin
  2
*U9
 70
               1
 10
0.0
 20
0.0
 30
0.0
  3
*U9
  1

  0
LINE
  5
AE
100
AcDbEntity
  8
OBJECT
 62
               0
100
AcDbLine
 10
-751.54590000457279
 20
-1074.9397000016872
 30
0.0
 11
-754.00000000457362
 21
-1075.0000000016873
 31
0.0
  0
LINE
  5
AF
100
AcDbEntity
  8
OBJECT
 62
               0
100
AcDbLine
 10
-749.09840000457439
 20
-1074.7592000016868
 30
0.0
 11
-751.54590000457279
 21
-1074.9397000016872
 31
0.0
  0
LINE
  5
B0
100
AcDbEntity
  8
OBJECT
 62
               0
100
AcDbLine
 10
-746.66200000457388
 20
-1074.4586000016873
 30
0.0
 11
-749.09840000457439
 21
-1074.7592000016868
 31
0.0
  0
LINE
  5
B1
100
AcDbEntity
  8
OBJECT
 62
               0
100
AcDbLine
 10
-744.24400000457422
 20
-1074.0390000016871
 30
0.0
 11
-746.66200000457388
 21
-1074.4586000016873
 31
0.0
  0
LINE
  5
B2
100
AcDbEntity
  8
OBJECT
 62
               0
100
AcDbLine
 10
-741.84880000457338
 20
-1073.5010000016871
 30
0.0
 11
-744.24400000457422
 21
-1074.0390000016871
 31
0.0
  0
LINE
  5
B3
100
AcDbEntity
  8
OBJECT
 62
               0
100
AcDbLine
 10
-739.4835000045739
 20
-1072.846300001687
 30
0.0
 11
-741.84880000457338
 21
-1073.5010000016871
 31
0.0
  0
LINE
  5
B4
100
AcDbEntity
  8
OBJECT
 62
               0
100
AcDbLine
 10
-737.15260000457306
 20
-1072.0762000016869
 30
0.0
 11
-739.4835000045739
 21
-1072.846300001687
 31
0.0
  0
LINE
  5
B5
100
AcDbEntity
  8
OBJECT
 62
               0
100
AcDbLine
 10
-734.8629000045737
 20
-1071.1928000016871
 30
0.0
 11
-737.15260000457306
 21
-1072.0762000016869
 31
0.0
  0
LINE
  5
B6
100
AcDbEntity
  8
OBJECT
 62
               0
100
AcDbLine
 10
-732.61870000457452
 20
-1070.1978000016873
 30
0.0
 11
-734.8629000045737
 21
-1071.1928000016871
 31
0.0
  0
LINE
  5
B7
100
AcDbEntity
  8
OBJECT
 62
               0
100
AcDbLine
 10
-730.4267000045736
 20
-1069.0942000016869
 30
0.0
 11
-732.61870000457452
 21
-1070.1978000016873
 31
0.0
  0
LINE
  5
B8
100
AcDbEntity
  8
OBJECT
 62
               0
100
AcDbLine
 10
-728.29080000457429
 20
-1067.8840000016874
 30
0.0
 11
-730.4267000045736
 21
-1069.0942000016869
 31
0.0
  0
LINE
  5
B9
100
AcDbEntity
  8
OBJECT
 62
               0
100
AcDbLine
 10
-726.21760000457357
 20
-1066.5709000016871
 30
0.0
 11
-728.29080000457429
 21
-1067.8840000016874
 31
0.0
  0
LINE
  5
BA
100
AcDbEntity
  8
OBJECT
 62
               0
100
AcDbLine
 10
-724.21070000457325
 20
-1065.1571000016868
 30
0.0
 11
-726.21760000457357
 21
-1066.5709000016871
 31
0.0
  0
LINE
  5
BB
100
AcDbEntity
  8
OBJECT
 62
               0
100
AcDbLine
 10
-722.27620000457387
 20
-1063.647100001687
 30
0.0
 11
-724.21070000457325
 21
-1065.1571000016868
 31
0.0
  0
LINE
  5
BC
100
AcDbEntity
  8
OBJECT
 62
               0
100
AcDbLine
 10
-720.41750000457318
 20
-1062.0434000016869
 30
0.0
 11
-722.27620000457387
 21
-1063.647100001687
 31
0.0
  0
LINE
  5
BD
100
AcDbEntity
  8
OBJECT
 62
               0
100
AcDbLine
 10
-718.64040000457385
 20
-1060.3511000016872
 30
0.0
 11
-720.41750000457318
 21
-1062.0434000016869
 31
0.0
  0
LINE
  5
BE
100
AcDbEntity
  8
OBJECT
 62
               0
100
AcDbLine
 10
-716.94790000457283
 20
-1058.572900001687
 30
0.0
 11
-718.64040000457385
 21
-1060.3511000016872
 31
0.0
  0
LINE
  5
BF
100
AcDbEntity
  8
OBJECT
 62
               0
100
AcDbLine
 10
-715.34520000457337
 20
-1056.7144000016872
 30
0.0
 11
-716.94790000457283
 21
-1058.572900001687
 31
0.0
  0
LINE
  5
C0
100
AcDbEntity
  8
OBJECT
 62
               0
100
AcDbLine
 10
-713.83510000457386
 20
-1054.7789000016867
 30
0.0
 11
-715.34520000457337
 21
-1056.7144000016872
 31
0.0
  0
LINE
  5
C1
100
AcDbEntity
  8
OBJECT
 62
               0
100
AcDbLine
 10
-712.4223000045738
 20
-1052.7722000016868
 30
0.0
 11
-713.83510000457386
 21
-1054.7789000016867
 31
0.0
  0
LINE
  5
C2
100
AcDbEntity
  8
OBJECT
 62
               0
100
AcDbLine
 10
-711.1093000045737
 20
-1050.6980000016868
 30
0.0
 11
-712.4223000045738
 21
-1052.7722000016868
 31
0.0
  0
LINE
  5
C3
100
AcDbEntity
  8
OBJECT
 62
               0
100
AcDbLine
 10
-709.90000000457326
 20
-1048.5625000016873
 30
0.0
 11
-711.1093000045737
 21
-1050.6980000016868
 31
0.0
  0
LINE
  5
C4
100
AcDbEntity
  8
OBJECT
 62
               0
100
AcDbLine
 10
-708.79660000457329
 20
-1046.3696000016873
 30
0.0
 11
-709.90000000457326
 21
-1048.5625000016873
 31
0.0
  0
LINE
  5
C5
100
AcDbEntity
  8
OBJECT
 62
               0
100
AcDbLine
 10
-707.8025000045734
 20
-1044.1258000016871
 30
0.0
 11
-708.79660000457329
 21
-1046.3696000016873
 31
0.0
  0
LINE
  5
C6
100
AcDbEntity
  8
OBJECT
 62
               0
100
AcDbLine
 10
-706.91950000457359
 20
-1041.8352000016869
 30
0.0
 11
-707.8025000045734
 21
-1044.1258000016871
 31
0.0
  0
LINE
  5
C7
100
AcDbEntity
  8
OBJECT
 62
               0
100
AcDbLine
 10
-706.15010000457437
 20
-1039.504800001687
 30
0.0
 11
-706.91950000457359
 21
-1041.8352000016869
 31
0.0
  0
LINE
  5
C8
100
AcDbEntity
  8
OBJECT
 62
               0
100
AcDbLine
 10
-705.49580000457422
 20
-1037.1387000016869
 30
0.0
 11
-706.15010000457437
 21
-1039.504800001687
 31
0.0
  0
LINE
  5
C9
100
AcDbEntity
  8
OBJECT
 62
               0
100
AcDbLine
 10
-704.95870000457285
 20
-1034.744000001687
 30
0.0
 11
-705.49580000457422
 21
-1037.1387000016869
 31
0.0
  0
LINE
  5
CA
100
AcDbEntity
  8
OBJECT
 62
               0
100
AcDbLine
 10
-704.53950000457439
 20
-1032.3252000016871
 30
0.0
 11
-704.95870000457285
 21
-1034.744000001687
 31
0.0
  0
LINE
  5
CB
100
AcDbEntity
  8
OBJECT
 62
               0
100
AcDbLine
 10
-704.23960000457441
 20
-1029.8895000016871
 30
0.0
 11
-704.53950000457439
 21
-1032.3252000016871
 31
0.0
  0
LINE
  5
CC
100
AcDbEntity
  8
OBJECT
 62
               0
100
AcDbLine
 10
-704.05960000457412
 20
-1027.4412000016871
 30
0.0
 11
-704.23960000457441
 21
-1029.8895000016871
 31
0.0
  0
LINE
  5
CD
100
AcDbEntity
  8
OBJECT
 62
               0
100
AcDbLine
 10
-704.00000000457362
 20
-1025.0000000016869
 30
0.0
 11
-704.05960000457412
 21
-1027.4412000016871
 31
0.0
  0
LINE
  5
CE
100
AcDbEntity
  8
OBJECT
 62
               0
100
AcDbLine
 10
-704.00000000457362
 20
-1013.0000000016869
 30
0.0
 11
-704.00000000457362
 21
-1025.0000000016869
 31
0.0
  0
ENDBLK
  5
CF
100
AcDbEntity
  8
OBJECT
100
AcDbBlockEnd
  0
BLOCK
  5
D0
100
AcDbEntity
  8
OBJECT
100
AcDbBlockBegin
  2
*U10
 70
               1
 10
0.0
 20
0.0
 30
0.0
  3
*U10
  1

  0
LINE
  5
D1
100
AcDbEntity
  8
OBJECT
 62
               0
100
AcDbLine
 10
-754.00000000457362
 20
-1075.0000000016873
 30
0.0
 11
-1178.5000000045736
 21
-1075.0000000016873
 31
0.0
  0
LINE
  5
D2
100
AcDbEntity
  8
OBJECT
 62
               0
100
AcDbLine
 10
-755.66660000457409
 20
-1065.6977000016871
 30
0.0
 11
-1178.5000000045736
 21
-1065.6977000016871
 31
0.0
  0
INSERT
  5
D3
100
AcDbEntity
  8
OBJECT
 62
               0
100
AcDbBlockReference
  2
*U8
 10
0.0
 20
0.0
 30
0.0
  0
INSERT
  5
D4
100
AcDbEntity
  8
OBJECT
 62
               0
100
AcDbBlockReference
  2
*U9
 10
0.0
 20
0.0
 30
0.0
  0
ENDBLK
  5
D5
100
AcDbEntity
  8
OBJECT
100
AcDbBlockEnd
  0
BLOCK
  5
D6
100
AcDbEntity
  8
DIMENTION
100
AcDbBlockBegin
  2
*D11
 70
               1
 10
0.0
 20
0.0
 30
0.0
  3
*D11
  1

  0
LINE
  5
D7
100
AcDbEntity
  8
DIMENTION
 62
               0
100
AcDbLine
 10
-226.99999996274687
 20
1150.0000000000002
 30
0.0
 11
-319.99999992549397
 21
1150.0000000000002
 31
0.0
  0
LINE
  5
D8
100
AcDbEntity
  8
DIMENTION
 62
               0
100
AcDbLine
 10
-217.99999996274687
 20
855.00000000000023
 30
0.0
 11
-319.99999992549397
 21
855.00000000000023
 31
0.0
  0
LINE
  5
D9
100
AcDbEntity
  8
DIMENTION
 62
               0
100
AcDbLine
 10
-299.99999999999977
 20
1150.0000000000002
 30
0.0
 11
-299.99999999999977
 21
855.00000000000023
 31
0.0
  0
LINE
  5
DA
100
AcDbEntity
  8
DIMENTION
 62
               0
100
AcDbLine
 10
-299.99999999999977
 20
1150.0000000000002
 30
0.0
 11
-291.49261314031173
 21
1118.2500000000002
 31
0.0
  0
LINE
  5
DB
100
AcDbEntity
  8
DIMENTION
 62
               0
100
AcDbLine
 10
-299.99999999999977
 20
1150.0000000000002
 30
0.0
 11
-308.50738685968781
 21
1118.2500000000002
 31
0.0
  0
LINE
  5
DC
100
AcDbEntity
  8
DIMENTION
 62
               0
100
AcDbLine
 10
-299.99999999999977
 20
855.00000000000023
 30
0.0
 11
-308.50738685968781
 21
886.75000000000023
 31
0.0
  0
LINE
  5
DD
100
AcDbEntity
  8
DIMENTION
 62
               0
100
AcDbLine
 10
-299.99999999999977
 20
855.00000000000023
 30
0.0
 11
-291.49261314031173
 21
886.75000000000023
 31
0.0
  0
MTEXT
  5
DE
100
AcDbEntity
  8
DIMENTION
 62
               0
100
AcDbMText
 10
-347.33333333333326
 20
970.75000000000023
 30
0.0
 40
33.866666666666667
 41
0.0
 71
               1
 72
               1
  1
295
  7
________
 11
0.0
 21
1.0
 31
0.0
  0
POINT
  5
DF
100
AcDbEntity
  8
DEFPOINTS
 62
               0
100
AcDbPoint
 10
-207.99999999999977
 20
855.00000000000023
 30
0.0
  0
POINT
  5
E0
100
AcDbEntity
  8
DEFPOINTS
 62
               0
100
AcDbPoint
 10
-216.99999999999977
 20
1150.0000000000002
 30
0.0
  0
POINT
  5
E1
100
AcDbEntity
  8
DEFPOINTS
 62
               0
100
AcDbPoint
 10
-299.99999999999977
 20
1150.0000000000002
 30
0.0
  0
ENDBLK
  5
E2
100
AcDbEntity
  8
DIMENTION
100
AcDbBlockEnd
  0
BLOCK
  5
E3
100
AcDbEntity
  8
DIMENTION
100
AcDbBlockBegin
  2
*D12
 70
               1
 10
0.0
 20
0.0
 30
0.0
  3
*D12
  1

  0
LINE
  5
E4
100
AcDbEntity
  8
DIMENTION
 62
               0
100
AcDbLine
 10
-4.9999999627468696
 20
1275.0000000000005
 30
0.0
 11
-69.999999925493967
 21
1275.0000000000005
 31
0.0
  0
LINE
  5
E5
100
AcDbEntity
  8
DIMENTION
 62
               0
100
AcDbLine
 10
16.717300037253381
 20
1150.0000000000002
 30
0.0
 11
-69.999999925493967
 21
1150.0000000000002
 31
0.0
  0
LINE
  5
E6
100
AcDbEntity
  8
DIMENTION
 62
               0
100
AcDbLine
 10
-49.999999999999773
 20
1275.0000000000005
 30
0.0
 11
-49.999999999999773
 21
1150.0000000000002
 31
0.0
  0
LINE
  5
E7
100
AcDbEntity
  8
DIMENTION
 62
               0
100
AcDbLine
 10
-49.999999999999773
 20
1275.0000000000005
 30
0.0
 11
-41.492613140311732
 21
1243.2500000000005
 31
0.0
  0
LINE
  5
E8
100
AcDbEntity
  8
DIMENTION
 62
               0
100
AcDbLine
 10
-49.999999999999773
 20
1275.0000000000005
 30
0.0
 11
-58.507386859687813
 21
1243.2500000000005
 31
0.0
  0
LINE
  5
E9
100
AcDbEntity
  8
DIMENTION
 62
               0
100
AcDbLine
 10
-49.999999999999773
 20
1150.0000000000002
 30
0.0
 11
-58.507386859687813
 21
1181.7500000000002
 31
0.0
  0
LINE
  5
EA
100
AcDbEntity
  8
DIMENTION
 62
               0
100
AcDbLine
 10
-49.999999999999773
 20
1150.0000000000002
 30
0.0
 11
-41.492613140311732
 21
1181.7500000000002
 31
0.0
  0
MTEXT
  5
EB
100
AcDbEntity
  8
DIMENTION
 62
               0
100
AcDbMText
 10
-97.333333333333258
 20
1180.7500000000005
 30
0.0
 40
33.866666666666667
 41
0.0
 71
               1
 72
               1
  1
125
  7
________
 11
0.0
 21
1.0
 31
0.0
  0
POINT
  5
EC
100
AcDbEntity
  8
DEFPOINTS
 62
               0
100
AcDbPoint
 10
26.717300000000478
 20
1150.0000000000002
 30
0.0
  0
POINT
  5
ED
100
AcDbEntity
  8
DEFPOINTS
 62
               0
100
AcDbPoint
 10
5.0000000000002274
 20
1275.0000000000005
 30
0.0
  0
POINT
  5
EE
100
AcDbEntity
  8
DEFPOINTS
 62
               0
100
AcDbPoint
 10
-49.999999999999773
 20
1275.0000000000005
 30
0.0
  0
ENDBLK
  5
EF
100
AcDbEntity
  8
DIMENTION
100
AcDbBlockEnd
  0
BLOCK
  5
F0
100
AcDbEntity
  8
DIMENTION
100
AcDbBlockBegin
  2
*D13
 70
               1
 10
0.0
 20
0.0
 30
0.0
  3
*D13
  1

  0
LINE
  5
F1
100
AcDbEntity
  8
DIMENTION
 62
               0
100
AcDbLine
 10
100.00000000000023
 20
1245.0000000372534
 30
0.0
 11
100.00000000000023
 21
1180.0000000745063
 31
0.0
  0
LINE
  5
F2
100
AcDbEntity
  8
DIMENTION
 62
               0
100
AcDbLine
 10
30.000000000000227
 20
1265.0000000372534
 30
0.0
 11
30.000000000000227
 21
1180.0000000745063
 31
0.0
  0
LINE
  5
F3
100
AcDbEntity
  8
DIMENTION
 62
               0
100
AcDbLine
 10
100.00000000000023
 20
1200.0000000000005
 30
0.0
 11
30.000000000000227
 21
1200.0000000000005
 31
0.0
  0
LINE
  5
F4
100
AcDbEntity
  8
DIMENTION
 62
               0
100
AcDbLine
 10
100.00000000000023
 20
1200.0000000000005
 30
0.0
 11
68.250000000000227
 21
1191.4926131403124
 31
0.0
  0
LINE
  5
F5
100
AcDbEntity
  8
DIMENTION
 62
               0
100
AcDbLine
 10
100.00000000000023
 20
1200.0000000000005
 30
0.0
 11
68.250000000000227
 21
1208.5073868596887
 31
0.0
  0
LINE
  5
F6
100
AcDbEntity
  8
DIMENTION
 62
               0
100
AcDbLine
 10
30.000000000000227
 20
1200.0000000000005
 30
0.0
 11
61.750000000000227
 21
1208.5073868596887
 31
0.0
  0
LINE
  5
F7
100
AcDbEntity
  8
DIMENTION
 62
               0
100
AcDbLine
 10
30.000000000000227
 20
1200.0000000000005
 30
0.0
 11
61.750000000000227
 21
1191.4926131403124
 31
0.0
  0
MTEXT
  5
F8
100
AcDbEntity
  8
DIMENTION
 62
               0
100
AcDbMText
 10
43.833333333333599
 20
1247.3333333333339
 30
0.0
 40
33.866666666666667
 41
0.0
 71
               1
 72
               1
  1
70
  7
________
  0
POINT
  5
F9
100
AcDbEntity
  8
DEFPOINTS
 62
               0
100
AcDbPoint
 10
30.000000000000227
 20
1275.0000000000005
 30
0.0
  0
POINT
  5
FA
100
AcDbEntity
  8
DEFPOINTS
 62
               0
100
AcDbPoint
 10
100.00000000000023
 20
1255.0000000000005
 30
0.0
  0
POINT
  5
FB
100
AcDbEntity
  8
DEFPOINTS
 62
               0
100
AcDbPoint
 10
100.00000000000023
 20
1200.0000000000005
 30
0.0
  0
ENDBLK
  5
FC
100
AcDbEntity
  8
DIMENTION
100
AcDbBlockEnd
  0
BLOCK
  5
FD
100
AcDbEntity
  8
DIMENTION
100
AcDbBlockBegin
  2
*D14
 70
               1
 10
0.0
 20
0.0
 30
0.0
  3
*D14
  1

  0
LINE
  5
FE
100
AcDbEntity
  8
DIMENTION
 62
               0
100
AcDbLine
 10
-216.99999996274687
 20
855.00000000000023
 30
0.0
 11
-419.99999992549397
 21
855.00000000000023
 31
0.0
  0
LINE
  5
FF
100
AcDbEntity
  8
DIMENTION
 62
               0
100
AcDbLine
 10
-216.99999996274687
 20
1460.0000000000005
 30
0.0
 11
-419.99999992549397
 21
1460.0000000000005
 31
0.0
  0
LINE
  5
100
100
AcDbEntity
  8
DIMENTION
 62
               0
100
AcDbLine
 10
-399.99999999999977
 20
855.00000000000023
 30
0.0
 11
-399.99999999999977
 21
1460.0000000000005
 31
0.0
  0
LINE
  5
101
100
AcDbEntity
  8
DIMENTION
 62
               0
100
AcDbLine
 10
-399.99999999999977
 20
855.00000000000023
 30
0.0
 11
-408.50738685968781
 21
886.75000000000023
 31
0.0
  0
LINE
  5
102
100
AcDbEntity
  8
DIMENTION
 62
               0
100
AcDbLine
 10
-399.99999999999977
 20
855.00000000000023
 30
0.0
 11
-391.49261314031173
 21
886.75000000000023
 31
0.0
  0
LINE
  5
103
100
AcDbEntity
  8
DIMENTION
 62
               0
100
AcDbLine
 10
-399.99999999999977
 20
1460.0000000000005
 30
0.0
 11
-391.49261314031173
 21
1428.2500000000005
 31
0.0
  0
LINE
  5
104
100
AcDbEntity
  8
DIMENTION
 62
               0
100
AcDbLine
 10
-399.99999999999977
 20
1460.0000000000005
 30
0.0
 11
-408.50738685968781
 21
1428.2500000000005
 31
0.0
  0
MTEXT
  5
105
100
AcDbEntity
  8
DIMENTION
 62
               0
100
AcDbMText
 10
-447.33333333333326
 20
1125.7500000000005
 30
0.0
 40
33.866666666666667
 41
0.0
 71
               1
 72
               1
  1
605
  7
________
 11
0.0
 21
1.0
 31
0.0
  0
POINT
  5
106
100
AcDbEntity
  8
DEFPOINTS
 62
               0
100
AcDbPoint
 10
-206.99999999999977
 20
1460.0000000000005
 30
0.0
  0
POINT
  5
107
100
AcDbEntity
  8
DEFPOINTS
 62
               0
100
AcDbPoint
 10
-206.99999999999977
 20
855.00000000000023
 30
0.0
  0
POINT
  5
108
100
AcDbEntity
  8
DEFPOINTS
 62
               0
100
AcDbPoint
 10
-399.99999999999977
 20
855.00000000000023
 30
0.0
  0
ENDBLK
  5
109
100
AcDbEntity
  8
DIMENTION
100
AcDbBlockEnd
  0
BLOCK
  5
10A
100
AcDbEntity
  8
DIMENTION
100
AcDbBlockBegin
  2
*D15
 70
               1
 10
0.0
 20
0.0
 30
0.0
  3
*D15
  1

  0
LINE
  5
10B
100
AcDbEntity
  8
DIMENTION
 62
               0
100
AcDbLine
 10
-205.99999996274687
 20
843.00000000000023
 30
0.0
 11
-419.99999992549397
 21
843.00000000000023
 31
0.0
  0
LINE
  5
10C
100
AcDbEntity
  8
DIMENTION
 62
               0
100
AcDbLine
 10
-228.99999996274687
 20
855.00000000000023
 30
0.0
 11
-419.99999992549397
 21
855.00000000000023
 31
0.0
  0
LINE
  5
10D
100
AcDbEntity
  8
DIMENTION
 62
               0
100
AcDbLine
 10
-399.99999999999977
 20
855.00000000000023
 30
0.0
 11
-399.99999999999977
 21
843.00000000000023
 31
0.0
  0
LINE
  5
10E
100
AcDbEntity
  8
DIMENTION
 62
               0
100
AcDbLine
 10
-399.99999999999977
 20
843.00000000000023
 30
0.0
 11
-399.99999999999977
 21
757.66666666666697
 31
0.0
  0
LINE
  5
10F
100
AcDbEntity
  8
DIMENTION
 62
               0
100
AcDbLine
 10
-399.99999999999977
 20
843.00000000000023
 30
0.0
 11
-391.49261314031173
 21
811.25000000000023
 31
0.0
  0
LINE
  5
110
100
AcDbEntity
  8
DIMENTION
 62
               0
100
AcDbLine
 10
-399.99999999999977
 20
843.00000000000023
 30
0.0
 11
-408.50738685968781
 21
811.25000000000023
 31
0.0
  0
LINE
  5
111
100
AcDbEntity
  8
DIMENTION
 62
               0
100
AcDbLine
 10
-399.99999999999977
 20
855.00000000000023
 30
0.0
 11
-399.99999999999977
 21
915.00000001303874
 31
0.0
  0
LINE
  5
112
100
AcDbEntity
  8
DIMENTION
 62
               0
100
AcDbLine
 10
-399.99999999999977
 20
855.00000000000023
 30
0.0
 11
-408.50738685968781
 21
886.75000000000023
 31
0.0
  0
LINE
  5
113
100
AcDbEntity
  8
DIMENTION
 62
               0
100
AcDbLine
 10
-399.99999999999977
 20
855.00000000000023
 30
0.0
 11
-391.49261314031173
 21
886.75000000000023
 31
0.0
  0
MTEXT
  5
114
100
AcDbEntity
  8
DIMENTION
 62
               0
100
AcDbMText
 10
-447.33333333333326
 20
757.66666666666686
 30
0.0
 40
33.866666666666667
 41
0.0
 71
               1
 72
               1
  1
12
  7
________
 11
0.0
 21
1.0
 31
0.0
  0
POINT
  5
115
100
AcDbEntity
  8
DEFPOINTS
 62
               0
100
AcDbPoint
 10
-218.99999999999977
 20
855.00000000000023
 30
0.0
  0
POINT
  5
116
100
AcDbEntity
  8
DEFPOINTS
 62
               0
100
AcDbPoint
 10
-195.99999999999977
 20
843.00000000000023
 30
0.0
  0
POINT
  5
117
100
AcDbEntity
  8
DEFPOINTS
 62
               0
100
AcDbPoint
 10
-399.99999999999977
 20
843.00000000000023
 30
0.0
  0
ENDBLK
  5
118
100
AcDbEntity
  8
DIMENTION
100
AcDbBlockEnd
  0
BLOCK
  5
119
100
AcDbEntity
  8
DIMENTION
100
AcDbBlockBegin
  2
*D16
 70
               1
 10
0.0
 20
0.0
 30
0.0
  3
*D16
  1

  0
LINE
  5
11A
100
AcDbEntity
  8
DIMENTION
 62
               0
100
AcDbLine
 10
-199.99999999999977
 20
833.00000003725313
 30
0.0
 11
-199.99999999999977
 21
730.00000007450581
 31
0.0
  0
LINE
  5
11B
100
AcDbEntity
  8
DIMENTION
 62
               0
100
AcDbLine
 10
400.00000000000023
 20
833.00000003725313
 30
0.0
 11
400.00000000000023
 21
730.00000007450581
 31
0.0
  0
LINE
  5
11C
100
AcDbEntity
  8
DIMENTION
 62
               0
100
AcDbLine
 10
-199.99999999999977
 20
750.0
 30
0.0
 11
400.00000000000023
 21
750.0
 31
0.0
  0
LINE
  5
11D
100
AcDbEntity
  8
DIMENTION
 62
               0
100
AcDbLine
 10
-199.99999999999977
 20
750.0
 30
0.0
 11
-168.24999999999977
 21
758.50738685968815
 31
0.0
  0
LINE
  5
11E
100
AcDbEntity
  8
DIMENTION
 62
               0
100
AcDbLine
 10
-199.99999999999977
 20
750.0
 30
0.0
 11
-168.24999999999977
 21
741.49261314031185
 31
0.0
  0
LINE
  5
11F
100
AcDbEntity
  8
DIMENTION
 62
               0
100
AcDbLine
 10
400.00000000000023
 20
750.0
 30
0.0
 11
368.25000000000023
 21
741.49261314031185
 31
0.0
  0
LINE
  5
120
100
AcDbEntity
  8
DIMENTION
 62
               0
100
AcDbLine
 10
400.00000000000023
 20
750.0
 30
0.0
 11
368.25000000000023
 21
758.50738685968815
 31
0.0
  0
MTEXT
  5
121
100
AcDbEntity
  8
DIMENTION
 62
               0
100
AcDbMText
 10
71.967041015625227
 20
797.33333333333326
 30
0.0
 40
33.866666666666667
 41
0.0
 71
               1
 72
               1
  1
600
  7
________
  0
POINT
  5
122
100
AcDbEntity
  8
DEFPOINTS
 62
               0
100
AcDbPoint
 10
400.00000000000023
 20
843.00000000000023
 30
0.0
  0
POINT
  5
123
100
AcDbEntity
  8
DEFPOINTS
 62
               0
100
AcDbPoint
 10
-199.99999999999977
 20
843.00000000000023
 30
0.0
  0
POINT
  5
124
100
AcDbEntity
  8
DEFPOINTS
 62
               0
100
AcDbPoint
 10
-199.99999999999977
 20
750.0
 30
0.0
  0
ENDBLK
  5
125
100
AcDbEntity
  8
DIMENTION
100
AcDbBlockEnd
  0
BLOCK
  5
126
100
AcDbEntity
  8
DIMENTION
100
AcDbBlockBegin
  2
*D17
 70
               1
 10
0.0
 20
0.0
 30
0.0
  3
*D17
  1

  0
LINE
  5
127
100
AcDbEntity
  8
DIMENTION
 62
               0
100
AcDbLine
 10
-221.99999996274687
 20
1460.0000000000005
 30
0.0
 11
-419.99999992549397
 21
1460.0000000000005
 31
0.0
  0
LINE
  5
128
100
AcDbEntity
  8
DIMENTION
 62
               0
100
AcDbLine
 10
-221.99999996274687
 20
1510.0000000000005
 30
0.0
 11
-419.99999992549397
 21
1510.0000000000005
 31
0.0
  0
LINE
  5
129
100
AcDbEntity
  8
DIMENTION
 62
               0
100
AcDbLine
 10
-399.99999999999977
 20
1510.0000000000005
 30
0.0
 11
-399.99999999999977
 21
1460.0000000000005
 31
0.0
  0
LINE
  5
12A
100
AcDbEntity
  8
DIMENTION
 62
               0
100
AcDbLine
 10
-399.99999999999977
 20
1460.0000000000005
 30
0.0
 11
-399.99999999999977
 21
1399.9999999869619
 31
0.0
  0
LINE
  5
12B
100
AcDbEntity
  8
DIMENTION
 62
               0
100
AcDbLine
 10
-399.99999999999977
 20
1460.0000000000005
 30
0.0
 11
-391.49261314031173
 21
1428.2500000000005
 31
0.0
  0
LINE
  5
12C
100
AcDbEntity
  8
DIMENTION
 62
               0
100
AcDbLine
 10
-399.99999999999977
 20
1460.0000000000005
 30
0.0
 11
-408.50738685968781
 21
1428.2500000000005
 31
0.0
  0
LINE
  5
12D
100
AcDbEntity
  8
DIMENTION
 62
               0
100
AcDbLine
 10
-399.99999999999977
 20
1510.0000000000005
 30
0.0
 11
-399.99999999999977
 21
1667.0000000000002
 31
0.0
  0
LINE
  5
12E
100
AcDbEntity
  8
DIMENTION
 62
               0
100
AcDbLine
 10
-399.99999999999977
 20
1510.0000000000005
 30
0.0
 11
-408.50738685968781
 21
1541.7500000000005
 31
0.0
  0
LINE
  5
12F
100
AcDbEntity
  8
DIMENTION
 62
               0
100
AcDbLine
 10
-399.99999999999977
 20
1510.0000000000005
 30
0.0
 11
-391.49261314031173
 21
1541.7500000000005
 31
0.0
  0
MTEXT
  5
130
100
AcDbEntity
  8
DIMENTION
 62
               0
100
AcDbMText
 10
-447.33333333333326
 20
1540.0000000000002
 30
0.0
 40
33.866666666666667
 41
0.0
 71
               1
 72
               1
  1
50以上
  7
________
 11
0.0
 21
1.0
 31
0.0
  0
POINT
  5
131
100
AcDbEntity
  8
DEFPOINTS
 62
               0
100
AcDbPoint
 10
-211.99999999999977
 20
1510.0000000000005
 30
0.0
  0
POINT
  5
132
100
AcDbEntity
  8
DEFPOINTS
 62
               0
100
AcDbPoint
 10
-211.99999999999977
 20
1460.0000000000005
 30
0.0
  0
POINT
  5
133
100
AcDbEntity
  8
DEFPOINTS
 62
               0
100
AcDbPoint
 10
-399.99999999999977
 20
1460.0000000000005
 30
0.0
  0
ENDBLK
  5
134
100
AcDbEntity
  8
DIMENTION
100
AcDbBlockEnd
  0
BLOCK
  5
135
100
AcDbEntity
  8
DIMENTION
100
AcDbBlockBegin
  2
*D18
 70
               1
 10
0.0
 20
0.0
 30
0.0
  3
*D18
  1

  0
LINE
  5
136
100
AcDbEntity
  8
DIMENTION
 62
               0
100
AcDbLine
 10
-209.49999996274687
 20
-629.99999999999955
 30
0.0
 11
-269.99999992549397
 21
-629.99999999999955
 31
0.0
  0
LINE
  5
137
100
AcDbEntity
  8
DIMENTION
 62
               0
100
AcDbLine
 10
-179.49999996274687
 20
-850.0
 30
0.0
 11
-269.99999992549397
 21
-850.0
 31
0.0
  0
LINE
  5
138
100
AcDbEntity
  8
DIMENTION
 62
               0
100
AcDbLine
 10
-249.99999999999977
 20
-629.99999999999955
 30
0.0
 11
-249.99999999999977
 21
-850.0
 31
0.0
  0
LINE
  5
139
100
AcDbEntity
  8
DIMENTION
 62
               0
100
AcDbLine
 10
-249.99999999999977
 20
-629.99999999999955
 30
0.0
 11
-241.49261314031173
 21
-661.74999999999955
 31
0.0
  0
LINE
  5
13A
100
AcDbEntity
  8
DIMENTION
 62
               0
100
AcDbLine
 10
-249.99999999999977
 20
-629.99999999999955
 30
0.0
 11
-258.50738685968781
 21
-661.74999999999955
 31
0.0
  0
LINE
  5
13B
100
AcDbEntity
  8
DIMENTION
 62
               0
100
AcDbLine
 10
-249.99999999999977
 20
-850.0
 30
0.0
 11
-258.50738685968781
 21
-818.25
 31
0.0
  0
LINE
  5
13C
100
AcDbEntity
  8
DIMENTION
 62
               0
100
AcDbLine
 10
-249.99999999999977
 20
-850.0
 30
0.0
 11
-241.49261314031173
 21
-818.25
 31
0.0
  0
MTEXT
  5
13D
100
AcDbEntity
  8
DIMENTION
 62
               0
100
AcDbMText
 10
-297.33333333333326
 20
-771.74999999999977
 30
0.0
 40
33.866666666666667
 41
0.0
 71
               1
 72
               1
  1
220
  7
________
 11
0.0
 21
1.0
 31
0.0
  0
POINT
  5
13E
100
AcDbEntity
  8
DEFPOINTS
 62
               0
100
AcDbPoint
 10
-169.49999999999977
 20
-850.0
 30
0.0
  0
POINT
  5
13F
100
AcDbEntity
  8
DEFPOINTS
 62
               0
100
AcDbPoint
 10
-199.49999999999977
 20
-629.99999999999955
 30
0.0
  0
POINT
  5
140
100
AcDbEntity
  8
DEFPOINTS
 62
               0
100
AcDbPoint
 10
-249.99999999999977
 20
-629.99999999999955
 30
0.0
  0
ENDBLK
  5
141
100
AcDbEntity
  8
DIMENTION
100
AcDbBlockEnd
  0
BLOCK
  5
142
100
AcDbEntity
  8
DIMENTION
100
AcDbBlockBegin
  2
*D19
 70
               1
 10
0.0
 20
0.0
 30
0.0
  3
*D19
  1

  0
LINE
  5
143
100
AcDbEntity
  8
DIMENTION
 62
               0
100
AcDbLine
 10
100.00000000000023
 20
1433.0000000372534
 30
0.0
 11
100.00000000000023
 21
1330.000000074506
 31
0.0
  0
LINE
  5
144
100
AcDbEntity
  8
DIMENTION
 62
               0
100
AcDbLine
 10
205.00000000000023
 20
1412.5000000372534
 30
0.0
 11
205.00000000000023
 21
1330.000000074506
 31
0.0
  0
LINE
  5
145
100
AcDbEntity
  8
DIMENTION
 62
               0
100
AcDbLine
 10
100.00000000000023
 20
1350.0000000000002
 30
0.0
 11
205.00000000000023
 21
1350.0000000000002
 31
0.0
  0
LINE
  5
146
100
AcDbEntity
  8
DIMENTION
 62
               0
100
AcDbLine
 10
100.00000000000023
 20
1350.0000000000002
 30
0.0
 11
131.75000000000023
 21
1358.5073868596885
 31
0.0
  0
LINE
  5
147
100
AcDbEntity
  8
DIMENTION
 62
               0
100
AcDbLine
 10
100.00000000000023
 20
1350.0000000000002
 30
0.0
 11
131.75000000000023
 21
1341.4926131403122
 31
0.0
  0
LINE
  5
148
100
AcDbEntity
  8
DIMENTION
 62
               0
100
AcDbLine
 10
205.00000000000023
 20
1350.0000000000002
 30
0.0
 11
173.25000000000023
 21
1341.4926131403122
 31
0.0
  0
LINE
  5
149
100
AcDbEntity
  8
DIMENTION
 62
               0
100
AcDbLine
 10
205.00000000000023
 20
1350.0000000000002
 30
0.0
 11
173.25000000000023
 21
1358.5073868596885
 31
0.0
  0
MTEXT
  5
14A
100
AcDbEntity
  8
DIMENTION
 62
               0
100
AcDbMText
 10
120.75000000000023
 20
1397.3333333333337
 30
0.0
 40
33.866666666666667
 41
0.0
 71
               1
 72
               1
  1
105
  7
________
  0
POINT
  5
14B
100
AcDbEntity
  8
DEFPOINTS
 62
               0
100
AcDbPoint
 10
205.00000000000023
 20
1422.5000000000005
 30
0.0
  0
POINT
  5
14C
100
AcDbEntity
  8
DEFPOINTS
 62
               0
100
AcDbPoint
 10
100.00000000000023
 20
1443.0000000000005
 30
0.0
  0
POINT
  5
14D
100
AcDbEntity
  8
DEFPOINTS
 62
               0
100
AcDbPoint
 10
100.00000000000023
 20
1350.0000000000002
 30
0.0
  0
ENDBLK
  5
14E
100
AcDbEntity
  8
DIMENTION
100
AcDbBlockEnd
  0
BLOCK
  5
14F
100
AcDbEntity
  8
DIMENTION
100
AcDbBlockBegin
  2
*D20
 70
               1
 10
0.0
 20
0.0
 30
0.0
  3
*D20
  1

  0
LINE
  5
150
100
AcDbEntity
  8
DIMENTION
 62
               0
100
AcDbLine
 10
182.50000003725313
 20
1435.0000000000005
 30
0.0
 11
30.000000074506033
 21
1435.0000000000005
 31
0.0
  0
LINE
  5
151
100
AcDbEntity
  8
DIMENTION
 62
               0
100
AcDbLine
 10
90.00000003725313
 20
1460.0000000000005
 30
0.0
 11
30.000000074506033
 21
1460.0000000000005
 31
0.0
  0
LINE
  5
152
100
AcDbEntity
  8
DIMENTION
 62
               0
100
AcDbLine
 10
50.000000000000227
 20
1460.0000000000005
 30
0.0
 11
50.000000000000227
 21
1435.0000000000005
 31
0.0
  0
LINE
  5
153
100
AcDbEntity
  8
DIMENTION
 62
               0
100
AcDbLine
 10
50.000000000000227
 20
1435.0000000000005
 30
0.0
 11
50.000000000000227
 21
1349.0000000000005
 31
0.0
  0
LINE
  5
154
100
AcDbEntity
  8
DIMENTION
 62
               0
100
AcDbLine
 10
50.000000000000227
 20
1435.0000000000005
 30
0.0
 11
58.507386859688381
 21
1403.2500000000005
 31
0.0
  0
LINE
  5
155
100
AcDbEntity
  8
DIMENTION
 62
               0
100
AcDbLine
 10
50.000000000000227
 20
1435.0000000000005
 30
0.0
 11
41.492613140312073
 21
1403.2500000000005
 31
0.0
  0
LINE
  5
156
100
AcDbEntity
  8
DIMENTION
 62
               0
100
AcDbLine
 10
50.000000000000227
 20
1460.0000000000005
 30
0.0
 11
50.000000000000227
 21
1520.000000013039
 31
0.0
  0
LINE
  5
157
100
AcDbEntity
  8
DIMENTION
 62
               0
100
AcDbLine
 10
50.000000000000227
 20
1460.0000000000005
 30
0.0
 11
41.492613140312073
 21
1491.7500000000005
 31
0.0
  0
LINE
  5
158
100
AcDbEntity
  8
DIMENTION
 62
               0
100
AcDbLine
 10
50.000000000000227
 20
1460.0000000000005
 30
0.0
 11
58.507386859688381
 21
1491.7500000000005
 31
0.0
  0
MTEXT
  5
159
100
AcDbEntity
  8
DIMENTION
 62
               0
100
AcDbMText
 10
2.6666666666669698
 20
1349.0000000000005
 30
0.0
 40
33.866666666666667
 41
0.0
 71
               1
 72
               1
  1
25
  7
________
 11
0.0
 21
1.0
 31
0.0
  0
POINT
  5
15A
100
AcDbEntity
  8
DEFPOINTS
 62
               0
100
AcDbPoint
 10
100.00000000000023
 20
1460.0000000000005
 30
0.0
  0
POINT
  5
15B
100
AcDbEntity
  8
DEFPOINTS
 62
               0
100
AcDbPoint
 10
192.50000000000023
 20
1435.0000000000005
 30
0.0
  0
POINT
  5
15C
100
AcDbEntity
  8
DEFPOINTS
 62
               0
100
AcDbPoint
 10
50.000000000000227
 20
1435.0000000000005
 30
0.0
  0
ENDBLK
  5
15D
100
AcDbEntity
  8
DIMENTION
100
AcDbBlockEnd
  0
BLOCK
  5
15E
100
AcDbEntity
  8
DIMENTION
100
AcDbBlockBegin
  2
*D21
 70
               1
 10
0.0
 20
0.0
 30
0.0
  3
*D21
  1

  0
LINE
  5
15F
100
AcDbEntity
  8
DIMENTION
 62
               0
100
AcDbLine
 10
-199.99999999999977
 20
845.00000003725313
 30
0.0
 11
-199.99999999999977
 21
730.00000007450581
 31
0.0
  0
LINE
  5
160
100
AcDbEntity
  8
DIMENTION
 62
               0
100
AcDbLine
 10
-211.99999999999977
 20
845.00000003725313
 30
0.0
 11
-211.99999999999977
 21
730.00000007450581
 31
0.0
  0
LINE
  5
161
100
AcDbEntity
  8
DIMENTION
 62
               0
100
AcDbLine
 10
-211.99999999999977
 20
750.0
 30
0.0
 11
-199.99999999999977
 21
750.0
 31
0.0
  0
LINE
  5
162
100
AcDbEntity
  8
DIMENTION
 62
               0
100
AcDbLine
 10
-199.99999999999977
 20
750.0
 30
0.0
 11
-139.99999998696126
 21
750.0
 31
0.0
  0
LINE
  5
163
100
AcDbEntity
  8
DIMENTION
 62
               0
100
AcDbLine
 10
-199.99999999999977
 20
750.0
 30
0.0
 11
-168.24999999999977
 21
758.50738685968815
 31
0.0
  0
LINE
  5
164
100
AcDbEntity
  8
DIMENTION
 62
               0
100
AcDbLine
 10
-199.99999999999977
 20
750.0
 30
0.0
 11
-168.24999999999977
 21
741.49261314031185
 31
0.0
  0
LINE
  5
165
100
AcDbEntity
  8
DIMENTION
 62
               0
100
AcDbLine
 10
-211.99999999999977
 20
750.0
 30
0.0
 11
-292.33333333333303
 21
750.0
 31
0.0
  0
LINE
  5
166
100
AcDbEntity
  8
DIMENTION
 62
               0
100
AcDbLine
 10
-211.99999999999977
 20
750.0
 30
0.0
 11
-243.74999999999977
 21
741.49261314031185
 31
0.0
  0
LINE
  5
167
100
AcDbEntity
  8
DIMENTION
 62
               0
100
AcDbLine
 10
-211.99999999999977
 20
750.0
 30
0.0
 11
-243.74999999999977
 21
758.50738685968815
 31
0.0
  0
MTEXT
  5
168
100
AcDbEntity
  8
DIMENTION
 62
               0
100
AcDbMText
 10
-292.33333333333326
 20
797.33333333333326
 30
0.0
 40
33.866666666666667
 41
0.0
 71
               1
 72
               1
  1
12
  7
________
  0
POINT
  5
169
100
AcDbEntity
  8
DEFPOINTS
 62
               0
100
AcDbPoint
 10
-211.99999999999977
 20
855.00000000000023
 30
0.0
  0
POINT
  5
16A
100
AcDbEntity
  8
DEFPOINTS
 62
               0
100
AcDbPoint
 10
-199.99999999999977
 20
855.00000000000023
 30
0.0
  0
POINT
  5
16B
100
AcDbEntity
  8
DEFPOINTS
 62
               0
100
AcDbPoint
 10
-199.99999999999977
 20
750.0
 30
0.0
  0
ENDBLK
  5
16C
100
AcDbEntity
  8
DIMENTION
100
AcDbBlockEnd
  0
BLOCK
  5
16D
100
AcDbEntity
  8
HIDDEN
100
AcDbBlockBegin
  2
*U22
 70
               1
 10
0.0
 20
0.0
 30
0.0
  3
*U22
  1

  0
POLYLINE
  5
16E
100
AcDbEntity
  8
HIDDEN
 62
               0
100
AcDb2dPolyline
 66
               1
 10
0.0
 20
0.0
 30
0.0
 75
               5
  0
VERTEX
  5
16F
100
AcDbEntity
  8
HIDDEN
 62
               0
100
AcDbVertex
100
AcDb2dVertex
 10
-1244.0000000045736
 20
909.99999999831311
 30
0.0
  0
VERTEX
  5
170
100
AcDbEntity
  8
HIDDEN
 62
               0
100
AcDbVertex
100
AcDb2dVertex
 10
-1244.0000000045736
 20
1109.9999999983131
 30
0.0
  0
VERTEX
  5
171
100
AcDbEntity
  8
HIDDEN
 62
               0
100
AcDbVertex
100
AcDb2dVertex
 10
-1266.0000000045736
 20
1109.9999999983131
 30
0.0
  0
VERTEX
  5
172
100
AcDbEntity
  8
HIDDEN
 62
               0
100
AcDbVertex
100
AcDb2dVertex
 10
-1266.0000000045736
 20
909.99999999831311
 30
0.0
  0
SEQEND
  5
173
100
AcDbEntity
  8
HIDDEN
 62
               0
  0
POLYLINE
  5
174
100
AcDbEntity
  8
HIDDEN
 62
               0
100
AcDb2dPolyline
 66
               1
 10
0.0
 20
0.0
 30
0.0
 75
               5
  0
VERTEX
  5
175
100
AcDbEntity
  8
HIDDEN
 62
               0
100
AcDbVertex
100
AcDb2dVertex
 10
-594.00000000457362
 20
909.99999999831311
 30
0.0
  0
VERTEX
  5
176
100
AcDbEntity
  8
HIDDEN
 62
               0
100
AcDbVertex
100
AcDb2dVertex
 10
-594.00000000457362
 20
1109.9999999983131
 30
0.0
  0
VERTEX
  5
177
100
AcDbEntity
  8
HIDDEN
 62
               0
100
AcDbVertex
100
AcDb2dVertex
 10
-616.00000000457362
 20
1109.9999999983131
 30
0.0
  0
VERTEX
  5
178
100
AcDbEntity
  8
HIDDEN
 62
               0
100
AcDbVertex
100
AcDb2dVertex
 10
-616.00000000457362
 20
909.99999999831311
 30
0.0
  0
SEQEND
  5
179
100
AcDbEntity
  8
HIDDEN
 62
               0
  0
ENDBLK
  5
17A
100
AcDbEntity
  8
HIDDEN
100
AcDbBlockEnd
  0
BLOCK
  5
17B
100
AcDbEntity
  8
OBJECT
100
AcDbBlockBegin
  2
*U23
 70
               1
 10
0.0
 20
0.0
 30
0.0
  3
*U23
  1

  0
LINE
  5
17C
100
AcDbEntity
  8
OBJECT
 62
               0
100
AcDbLine
 10
588.91463414176837
 20
-1010.0000000016869
 30
0.0
 11
588.91463414176837
 21
-1190.0000000016873
 31
0.0
  0
LINE
  5
17D
100
AcDbEntity
  8
OBJECT
 62
               0
100
AcDbLine
 10
550.91463414176837
 20
-1010.0000000016869
 30
0.0
 11
550.91463414176837
 21
-1190.0000000016873
 31
0.0
  0
ENDBLK
  5
17E
100
AcDbEntity
  8
OBJECT
100
AcDbBlockEnd
  0
BLOCK
  5
17F
100
AcDbEntity
  8
OBJECT
100
AcDbBlockBegin
  2
*U24
 70
               1
 10
0.0
 20
0.0
 30
0.0
  3
*U24
  1

  0
LINE
  5
180
100
AcDbEntity
  8
OBJECT
 62
               0
100
AcDbLine
 10
-679.00000000457362
 20
-1010.0000000016869
 30
0.0
 11
-679.00000000457362
 21
-1190.0000000016873
 31
0.0
  0
LINE
  5
181
100
AcDbEntity
  8
OBJECT
 62
               0
100
AcDbLine
 10
-641.00000000457362
 20
-1010.0000000016869
 30
0.0
 11
-641.00000000457362
 21
-1190.0000000016873
 31
0.0
  0
ENDBLK
  5
182
100
AcDbEntity
  8
OBJECT
100
AcDbBlockEnd
  0
BLOCK
  5
183
100
AcDbEntity
  8
OBJECT
100
AcDbBlockBegin
  2
*U25
 70
               1
 10
0.0
 20
0.0
 30
0.0
  3
*U25
  1

  0
LINE
  5
184
100
AcDbEntity
  8
OBJECT
 62
               0
100
AcDbLine
 10
-1219.0000000045736
 20
-1010.0000000016869
 30
0.0
 11
-1219.0000000045736
 21
-1190.0000000016873
 31
0.0
  0
LINE
  5
185
100
AcDbEntity
  8
OBJECT
 62
               0
100
AcDbLine
 10
-1181.0000000045736
 20
-1010.0000000016869
 30
0.0
 11
-1181.0000000045736
 21
-1190.0000000016873
 31
0.0
  0
ENDBLK
  5
186
100
AcDbEntity
  8
OBJECT
100
AcDbBlockEnd
  0
BLOCK
  5
187
100
AcDbEntity
  8
DIMENTION
100
AcDbBlockBegin
  2
*D26
 70
               1
 10
0.0
 20
0.0
 30
0.0
  3
*D26
  1

  0
LINE
  5
188
100
AcDbEntity
  8
DIMENTION
 62
               0
100
AcDbLine
 10
100.00000000000023
 20
964.00000003725336
 30
0.0
 11
100.00000000000023
 21
880.00000007450626
 31
0.0
  0
LINE
  5
189
100
AcDbEntity
  8
DIMENTION
 62
               0
100
AcDbLine
 10
150.00000000000023
 20
1014.0000000372534
 30
0.0
 11
150.00000000000023
 21
880.00000007450626
 31
0.0
  0
LINE
  5
18A
100
AcDbEntity
  8
DIMENTION
 62
               0
100
AcDbLine
 10
150.00000000000023
 20
900.00000000000045
 30
0.0
 11
100.00000000000023
 21
900.00000000000045
 31
0.0
  0
LINE
  5
18B
100
AcDbEntity
  8
DIMENTION
 62
               0
100
AcDbLine
 10
100.00000000000023
 20
900.00000000000045
 30
0.0
 11
39.999999986961711
 21
900.00000000000045
 31
0.0
  0
LINE
  5
18C
100
AcDbEntity
  8
DIMENTION
 62
               0
100
AcDbLine
 10
100.00000000000023
 20
900.00000000000045
 30
0.0
 11
68.250000000000227
 21
891.49261314031219
 31
0.0
  0
LINE
  5
18D
100
AcDbEntity
  8
DIMENTION
 62
               0
100
AcDbLine
 10
100.00000000000023
 20
900.00000000000045
 30
0.0
 11
68.250000000000227
 21
908.50738685968849
 31
0.0
  0
LINE
  5
18E
100
AcDbEntity
  8
DIMENTION
 62
               0
100
AcDbLine
 10
150.00000000000023
 20
900.00000000000045
 30
0.0
 11
210.00000001303874
 21
900.00000000000045
 31
0.0
  0
LINE
  5
18F
100
AcDbEntity
  8
DIMENTION
 62
               0
100
AcDbLine
 10
150.00000000000023
 20
900.00000000000045
 30
0.0
 11
181.75000000000023
 21
908.50738685968849
 31
0.0
  0
LINE
  5
190
100
AcDbEntity
  8
DIMENTION
 62
               0
100
AcDbLine
 10
150.00000000000023
 20
900.00000000000045
 30
0.0
 11
181.75000000000023
 21
891.49261314031219
 31
0.0
  0
MTEXT
  5
191
100
AcDbEntity
  8
DIMENTION
 62
               0
100
AcDbMText
 10
103.8333333333336
 20
947.33333333333371
 30
0.0
 40
33.866666666666667
 41
0.0
 71
               1
 72
               1
  1
50
  7
________
  0
POINT
  5
192
100
AcDbEntity
  8
DEFPOINTS
 62
               0
100
AcDbPoint
 10
150.00000000000023
 20
1024.0000000000005
 30
0.0
  0
POINT
  5
193
100
AcDbEntity
  8
DEFPOINTS
 62
               0
100
AcDbPoint
 10
100.00000000000023
 20
974.00000000000045
 30
0.0
  0
POINT
  5
194
100
AcDbEntity
  8
DEFPOINTS
 62
               0
100
AcDbPoint
 10
100.00000000000023
 20
900.00000000000045
 30
0.0
  0
ENDBLK
  5
195
100
AcDbEntity
  8
DIMENTION
100
AcDbBlockEnd
  0
BLOCK
  5
196
100
AcDbEntity
  8
DIMENTION
100
AcDbBlockBegin
  2
*D27
 70
               1
 10
0.0
 20
0.0
 30
0.0
  3
*D27
  1

  0
LINE
  5
197
100
AcDbEntity
  8
DIMENTION
 62
               0
100
AcDbLine
 10
1543.0000000372531
 20
-49.999999999999488
 30
0.0
 11
1280.0000000745058
 21
-49.999999999999488
 31
0.0
  0
LINE
  5
198
100
AcDbEntity
  8
DIMENTION
 62
               0
100
AcDbLine
 10
1554.117300037253
 20
-849.99999999999955
 30
0.0
 11
1280.0000000745058
 21
-849.99999999999955
 31
0.0
  0
LINE
  5
199
100
AcDbEntity
  8
DIMENTION
 62
               0
100
AcDbLine
 10
1300.0
 20
-49.999999999999488
 30
0.0
 11
1300.0
 21
-849.99999999999955
 31
0.0
  0
LINE
  5
19A
100
AcDbEntity
  8
DIMENTION
 62
               0
100
AcDbLine
 10
1300.0
 20
-49.999999999999488
 30
0.0
 11
1308.5073868596883
 21
-81.749999999999488
 31
0.0
  0
LINE
  5
19B
100
AcDbEntity
  8
DIMENTION
 62
               0
100
AcDbLine
 10
1300.0
 20
-49.999999999999488
 30
0.0
 11
1291.492613140312
 21
-81.749999999999488
 31
0.0
  0
LINE
  5
19C
100
AcDbEntity
  8
DIMENTION
 62
               0
100
AcDbLine
 10
1300.0
 20
-849.99999999999955
 30
0.0
 11
1291.492613140312
 21
-818.24999999999955
 31
0.0
  0
LINE
  5
19D
100
AcDbEntity
  8
DIMENTION
 62
               0
100
AcDbLine
 10
1300.0
 20
-849.99999999999955
 30
0.0
 11
1308.5073868596883
 21
-818.24999999999955
 31
0.0
  0
MTEXT
  5
19E
100
AcDbEntity
  8
DIMENTION
 62
               0
100
AcDbMText
 10
1252.6666666666667
 20
-582.71499623192631
 30
0.0
 40
33.866666666666667
 41
0.0
 71
               1
 72
               1
  1
800（基準高さ）
  7
________
 11
0.0
 21
1.0
 31
0.0
  0
POINT
  5
19F
100
AcDbEntity
  8
DEFPOINTS
 62
               0
100
AcDbPoint
 10
1564.1173000000001
 20
-849.99999999999955
 30
0.0
  0
POINT
  5
1A0
100
AcDbEntity
  8
DEFPOINTS
 62
               0
100
AcDbPoint
 10
1553.0000000000002
 20
-49.999999999999488
 30
0.0
  0
POINT
  5
1A1
100
AcDbEntity
  8
DEFPOINTS
 62
               0
100
AcDbPoint
 10
1300.0
 20
-49.999999999999488
 30
0.0
  0
ENDBLK
  5
1A2
100
AcDbEntity
  8
DIMENTION
100
AcDbBlockEnd
  0
BLOCK
  5
1A3
100
AcDbEntity
  8
DIMENTION
100
AcDbBlockBegin
  2
*D28
 70
               1
 10
0.0
 20
0.0
 30
0.0
  3
*D28
  1

  0
LINE
  5
1A4
100
AcDbEntity
  8
DIMENTION
 62
               0
100
AcDbLine
 10
1349.0000000372531
 20
-849.99999999999955
 30
0.0
 11
1190.000000074506
 21
-849.99999999999955
 31
0.0
  0
LINE
  5
1A5
100
AcDbEntity
  8
DIMENTION
 62
               0
100
AcDbLine
 10
1852.9146341835951
 20
515.00000000000023
 30
0.0
 11
1190.000000074506
 21
515.00000000000023
 31
0.0
  0
LINE
  5
1A6
100
AcDbEntity
  8
DIMENTION
 62
               0
100
AcDbLine
 10
1210.0000000000002
 20
-849.99999999999955
 30
0.0
 11
1210.0000000000002
 21
515.00000000000023
 31
0.0
  0
LINE
  5
1A7
100
AcDbEntity
  8
DIMENTION
 62
               0
100
AcDbLine
 10
1210.0000000000002
 20
-849.99999999999955
 30
0.0
 11
1201.4926131403122
 21
-818.24999999999955
 31
0.0
  0
LINE
  5
1A8
100
AcDbEntity
  8
DIMENTION
 62
               0
100
AcDbLine
 10
1210.0000000000002
 20
-849.99999999999955
 30
0.0
 11
1218.5073868596883
 21
-818.24999999999955
 31
0.0
  0
LINE
  5
1A9
100
AcDbEntity
  8
DIMENTION
 62
               0
100
AcDbLine
 10
1210.0000000000002
 20
515.00000000000023
 30
0.0
 11
1218.5073868596883
 21
483.25000000000028
 31
0.0
  0
LINE
  5
1AA
100
AcDbEntity
  8
DIMENTION
 62
               0
100
AcDbLine
 10
1210.0000000000002
 20
515.00000000000023
 30
0.0
 11
1201.4926131403122
 21
483.25000000000028
 31
0.0
  0
MTEXT
  5
1AB
100
AcDbEntity
  8
DIMENTION
 62
               0
100
AcDbMText
 10
1162.666666666667
 20
-209.83333333333286
 30
0.0
 40
33.866666666666667
 41
0.0
 71
               1
 72
               1
  1
1365
  7
________
 11
0.0
 21
1.0
 31
0.0
  0
POINT
  5
1AC
100
AcDbEntity
  8
DEFPOINTS
 62
               0
100
AcDbPoint
 10
1862.9146341463422
 20
515.00000000000023
 30
0.0
  0
POINT
  5
1AD
100
AcDbEntity
  8
DEFPOINTS
 62
               0
100
AcDbPoint
 10
1359.0000000000002
 20
-849.99999999999955
 30
0.0
  0
POINT
  5
1AE
100
AcDbEntity
  8
DEFPOINTS
 62
               0
100
AcDbPoint
 10
1210.0000000000002
 20
-849.99999999999955
 30
0.0
  0
ENDBLK
  5
1AF
100
AcDbEntity
  8
DIMENTION
100
AcDbBlockEnd
  0
BLOCK
  5
1B0
100
AcDbEntity
  8
DIMENTION
100
AcDbBlockBegin
  2
*D29
 70
               1
 10
0.0
 20
0.0
 30
0.0
  3
*D29
  1

  0
LINE
  5
1B1
100
AcDbEntity
  8
DIMENTION
 62
               0
100
AcDbLine
 10
129.00000003725313
 20
1035.0000000000005
 30
0.0
 11
6.000000074505806
 21
1035.0000000000005
 31
0.0
  0
LINE
  5
1B2
100
AcDbEntity
  8
DIMENTION
 62
               0
100
AcDbLine
 10
100.00000003725313
 20
855.00000000000023
 30
0.0
 11
6.000000074505806
 21
855.00000000000023
 31
0.0
  0
LINE
  5
1B3
100
AcDbEntity
  8
DIMENTION
 62
               0
100
AcDbLine
 10
26.0
 20
1035.0000000000005
 30
0.0
 11
26.0
 21
855.00000000000023
 31
0.0
  0
LINE
  5
1B4
100
AcDbEntity
  8
DIMENTION
 62
               0
100
AcDbLine
 10
26.0
 20
1035.0000000000005
 30
0.0
 11
34.507386859688154
 21
1003.2500000000005
 31
0.0
  0
LINE
  5
1B5
100
AcDbEntity
  8
DIMENTION
 62
               0
100
AcDbLine
 10
26.0
 20
1035.0000000000005
 30
0.0
 11
17.492613140311846
 21
1003.2500000000005
 31
0.0
  0
LINE
  5
1B6
100
AcDbEntity
  8
DIMENTION
 62
               0
100
AcDbLine
 10
26.0
 20
855.00000000000023
 30
0.0
 11
17.492613140311846
 21
886.75000000000023
 31
0.0
  0
LINE
  5
1B7
100
AcDbEntity
  8
DIMENTION
 62
               0
100
AcDbLine
 10
26.0
 20
855.00000000000023
 30
0.0
 11
34.507386859688154
 21
886.75000000000023
 31
0.0
  0
MTEXT
  5
1B8
100
AcDbEntity
  8
DIMENTION
 62
               0
100
AcDbMText
 10
-21.333333333333485
 20
913.25000000000045
 30
0.0
 40
33.866666666666667
 41
0.0
 71
               1
 72
               1
  1
180
  7
________
 11
0.0
 21
1.0
 31
0.0
  0
POINT
  5
1B9
100
AcDbEntity
  8
DEFPOINTS
 62
               0
100
AcDbPoint
 10
110.00000000000023
 20
855.00000000000023
 30
0.0
  0
POINT
  5
1BA
100
AcDbEntity
  8
DEFPOINTS
 62
               0
100
AcDbPoint
 10
139.00000000000023
 20
1035.0000000000005
 30
0.0
  0
POINT
  5
1BB
100
AcDbEntity
  8
DEFPOINTS
 62
               0
100
AcDbPoint
 10
26.0
 20
1035.0000000000005
 30
0.0
  0
ENDBLK
  5
1BC
100
AcDbEntity
  8
DIMENTION
100
AcDbBlockEnd
  0
BLOCK
  5
1BD
100
AcDbEntity
  8
DIMENTION
100
AcDbBlockBegin
  2
*D30
 70
               1
 10
0.0
 20
0.0
 30
0.0
  3
*D30
  1

  0
LINE
  5
1BE
100
AcDbEntity
  8
DIMENTION
 62
               0
100
AcDbLine
 10
1852.9146341835951
 20
945.00000000000023
 30
0.0
 11
1112.000000074506
 21
945.00000000000023
 31
0.0
  0
LINE
  5
1BF
100
AcDbEntity
  8
DIMENTION
 62
               0
100
AcDbLine
 10
1578.048780525055
 20
-850.0
 30
0.0
 11
1112.000000074506
 21
-850.0
 31
0.0
  0
LINE
  5
1C0
100
AcDbEntity
  8
DIMENTION
 62
               0
100
AcDbLine
 10
1132.0000000000002
 20
945.00000000000023
 30
0.0
 11
1132.0000000000002
 21
-850.0
 31
0.0
  0
LINE
  5
1C1
100
AcDbEntity
  8
DIMENTION
 62
               0
100
AcDbLine
 10
1132.0000000000002
 20
945.00000000000023
 30
0.0
 11
1140.5073868596883
 21
913.25000000000023
 31
0.0
  0
LINE
  5
1C2
100
AcDbEntity
  8
DIMENTION
 62
               0
100
AcDbLine
 10
1132.0000000000002
 20
945.00000000000023
 30
0.0
 11
1123.4926131403122
 21
913.25000000000023
 31
0.0
  0
LINE
  5
1C3
100
AcDbEntity
  8
DIMENTION
 62
               0
100
AcDbLine
 10
1132.0000000000002
 20
-850.0
 30
0.0
 11
1123.4926131403122
 21
-818.25
 31
0.0
  0
LINE
  5
1C4
100
AcDbEntity
  8
DIMENTION
 62
               0
100
AcDbLine
 10
1132.0000000000002
 20
-850.0
 30
0.0
 11
1140.5073868596883
 21
-818.25
 31
0.0
  0
MTEXT
  5
1C5
100
AcDbEntity
  8
DIMENTION
 62
               0
100
AcDbMText
 10
1084.666666666667
 20
-96.078332795037113
 30
0.0
 40
33.866666666666667
 41
0.0
 71
               1
 72
               1
  1
1795（ドア開放時）
  7
________
 11
0.0
 21
1.0
 31
0.0
  0
POINT
  5
1C6
100
AcDbEntity
  8
DEFPOINTS
 62
               0
100
AcDbPoint
 10
1588.0487804878021
 20
-850.0
 30
0.0
  0
POINT
  5
1C7
100
AcDbEntity
  8
DEFPOINTS
 62
               0
100
AcDbPoint
 10
1862.9146341463422
 20
945.00000000000023
 30
0.0
  0
POINT
  5
1C8
100
AcDbEntity
  8
DEFPOINTS
 62
               0
100
AcDbPoint
 10
1132.0000000000002
 20
945.00000000000023
 30
0.0
  0
ENDBLK
  5
1C9
100
AcDbEntity
  8
DIMENTION
100
AcDbBlockEnd
  0
BLOCK
  5
1CA
100
AcDbEntity
  8
DIMENTION
100
AcDbBlockBegin
  2
*D31
 70
               1
 10
0.0
 20
0.0
 30
0.0
  3
*D31
  1

  0
LINE
  5
1CB
100
AcDbEntity
  8
DIMENTION
 62
               0
100
AcDbLine
 10
1542.9146341835951
 20
-49.999999999999716
 30
0.0
 11
1280.0000000745058
 21
-49.999999999999716
 31
0.0
  0
LINE
  5
1CC
100
AcDbEntity
  8
DIMENTION
 62
               0
100
AcDbLine
 10
1565.7796860867093
 20
360.00000000000006
 30
0.0
 11
1280.0000000745058
 21
360.00000000000006
 31
0.0
  0
LINE
  5
1CD
100
AcDbEntity
  8
DIMENTION
 62
               0
100
AcDbLine
 10
1300.0
 20
-49.999999999999716
 30
0.0
 11
1300.0
 21
360.00000000000006
 31
0.0
  0
LINE
  5
1CE
100
AcDbEntity
  8
DIMENTION
 62
               0
100
AcDbLine
 10
1300.0
 20
-49.999999999999716
 30
0.0
 11
1291.492613140312
 21
-18.249999999999716
 31
0.0
  0
LINE
  5
1CF
100
AcDbEntity
  8
DIMENTION
 62
               0
100
AcDbLine
 10
1300.0
 20
-49.999999999999716
 30
0.0
 11
1308.5073868596883
 21
-18.249999999999716
 31
0.0
  0
LINE
  5
1D0
100
AcDbEntity
  8
DIMENTION
 62
               0
100
AcDbLine
 10
1300.0
 20
360.00000000000006
 30
0.0
 11
1308.5073868596883
 21
328.25000000000006
 31
0.0
  0
LINE
  5
1D1
100
AcDbEntity
  8
DIMENTION
 62
               0
100
AcDbLine
 10
1300.0
 20
360.00000000000006
 30
0.0
 11
1291.492613140312
 21
328.25000000000006
 31
0.0
  0
MTEXT
  5
1D2
100
AcDbEntity
  8
DIMENTION
 62
               0
100
AcDbMText
 10
1252.6666666666667
 20
59.750000000000171
 30
0.0
 40
33.866666666666667
 41
0.0
 71
               1
 72
               1
  1
410（開口）
  7
________
 11
0.0
 21
1.0
 31
0.0
  0
POINT
  5
1D3
100
AcDbEntity
  8
DEFPOINTS
 62
               0
100
AcDbPoint
 10
1575.7796860494564
 20
360.00000000000006
 30
0.0
  0
POINT
  5
1D4
100
AcDbEntity
  8
DEFPOINTS
 62
               0
100
AcDbPoint
 10
1552.9146341463422
 20
-49.999999999999716
 30
0.0
  0
POINT
  5
1D5
100
AcDbEntity
  8
DEFPOINTS
 62
               0
100
AcDbPoint
 10
1300.0
 20
-49.999999999999716
 30
0.0
  0
ENDBLK
  5
1D6
100
AcDbEntity
  8
DIMENTION
100
AcDbBlockEnd
  0
BLOCK
  5
1D7
100
AcDbEntity
  8
DIMENTION
100
AcDbBlockBegin
  2
*D32
 70
               1
 10
0.0
 20
0.0
 30
0.0
  3
*D32
  1

  0
LINE
  5
1D8
100
AcDbEntity
  8
DIMENTION
 62
               0
100
AcDbLine
 10
-244.99999999999977
 20
480.00009996274736
 30
0.0
 11
-244.99999999999977
 21
613.99999992549419
 31
0.0
  0
LINE
  5
1D9
100
AcDbEntity
  8
DIMENTION
 62
               0
100
AcDbLine
 10
445.00000000000023
 20
480.00009996274736
 30
0.0
 11
445.00000000000023
 21
613.99999992549419
 31
0.0
  0
LINE
  5
1DA
100
AcDbEntity
  8
DIMENTION
 62
               0
100
AcDbLine
 10
-244.99999999999977
 20
594.0
 30
0.0
 11
445.00000000000023
 21
594.0
 31
0.0
  0
LINE
  5
1DB
100
AcDbEntity
  8
DIMENTION
 62
               0
100
AcDbLine
 10
-244.99999999999977
 20
594.0
 30
0.0
 11
-213.24999999999977
 21
602.50738685968815
 31
0.0
  0
LINE
  5
1DC
100
AcDbEntity
  8
DIMENTION
 62
               0
100
AcDbLine
 10
-244.99999999999977
 20
594.0
 30
0.0
 11
-213.24999999999977
 21
585.49261314031185
 31
0.0
  0
LINE
  5
1DD
100
AcDbEntity
  8
DIMENTION
 62
               0
100
AcDbLine
 10
445.00000000000023
 20
594.0
 30
0.0
 11
413.25000000000023
 21
585.49261314031185
 31
0.0
  0
LINE
  5
1DE
100
AcDbEntity
  8
DIMENTION
 62
               0
100
AcDbLine
 10
445.00000000000023
 20
594.0
 30
0.0
 11
413.25000000000023
 21
602.50738685968815
 31
0.0
  0
MTEXT
  5
1DF
100
AcDbEntity
  8
DIMENTION
 62
               0
100
AcDbMText
 10
68.250000000000227
 20
637.33333333333326
 30
0.0
 40
33.866666666666667
 41
0.0
 71
               1
 72
               1
  1
690
  7
________
  0
POINT
  5
1E0
100
AcDbEntity
  8
DEFPOINTS
 62
               0
100
AcDbPoint
 10
445.00000000000023
 20
470.00010000000026
 30
0.0
  0
POINT
  5
1E1
100
AcDbEntity
  8
DEFPOINTS
 62
               0
100
AcDbPoint
 10
-244.99999999999977
 20
470.00010000000026
 30
0.0
  0
POINT
  5
1E2
100
AcDbEntity
  8
DEFPOINTS
 62
               0
100
AcDbPoint
 10
-244.99999999999977
 20
594.0
 30
0.0
  0
ENDBLK
  5
1E3
100
AcDbEntity
  8
DIMENTION
100
AcDbBlockEnd
  0
BLOCK
  5
1E4
100
AcDbEntity
  8
DIMENTION
100
AcDbBlockBegin
  2
*D33
 70
               1
 10
0.0
 20
0.0
 30
0.0
  3
*D33
  1

  0
LINE
  5
1E5
100
AcDbEntity
  8
DIMENTION
 62
               0
100
AcDbLine
 10
421.99999996274732
 20
-49.999999999999716
 30
0.0
 11
511.99999992549419
 21
-49.999999999999716
 31
0.0
  0
LINE
  5
1E6
100
AcDbEntity
  8
DIMENTION
 62
               0
100
AcDbLine
 10
438.99999996274732
 20
170.00000000000028
 30
0.0
 11
511.99999992549419
 21
170.00000000000028
 31
0.0
  0
LINE
  5
1E7
100
AcDbEntity
  8
DIMENTION
 62
               0
100
AcDbLine
 10
492.0
 20
-49.999999999999716
 30
0.0
 11
492.0
 21
170.00000000000028
 31
0.0
  0
LINE
  5
1E8
100
AcDbEntity
  8
DIMENTION
 62
               0
100
AcDbLine
 10
492.0
 20
-49.999999999999716
 30
0.0
 11
483.49261314031185
 21
-18.249999999999716
 31
0.0
  0
LINE
  5
1E9
100
AcDbEntity
  8
DIMENTION
 62
               0
100
AcDbLine
 10
492.0
 20
-49.999999999999716
 30
0.0
 11
500.50738685968815
 21
-18.249999999999716
 31
0.0
  0
LINE
  5
1EA
100
AcDbEntity
  8
DIMENTION
 62
               0
100
AcDbLine
 10
492.0
 20
170.00000000000028
 30
0.0
 11
500.50738685968815
 21
138.25000000000028
 31
0.0
  0
LINE
  5
1EB
100
AcDbEntity
  8
DIMENTION
 62
               0
100
AcDbLine
 10
492.0
 20
170.00000000000028
 30
0.0
 11
483.49261314031185
 21
138.25000000000028
 31
0.0
  0
MTEXT
  5
1EC
100
AcDbEntity
  8
DIMENTION
 62
               0
100
AcDbMText
 10
448.66676666666672
 20
28.250000000000284
 30
0.0
 40
33.866666666666667
 41
0.0
 71
               1
 72
               1
  1
220
  7
________
 11
0.0
 21
1.0
 31
0.0
  0
POINT
  5
1ED
100
AcDbEntity
  8
DEFPOINTS
 62
               0
100
AcDbPoint
 10
429.00000000000023
 20
170.00000000000028
 30
0.0
  0
POINT
  5
1EE
100
AcDbEntity
  8
DEFPOINTS
 62
               0
100
AcDbPoint
 10
412.00000000000023
 20
-49.999999999999716
 30
0.0
  0
POINT
  5
1EF
100
AcDbEntity
  8
DEFPOINTS
 62
               0
100
AcDbPoint
 10
492.0
 20
-49.999999999999716
 30
0.0
  0
ENDBLK
  5
1F0
100
AcDbEntity
  8
DIMENTION
100
AcDbBlockEnd
  0
BLOCK
  5
1F1
100
AcDbEntity
  8
OBJECT
100
AcDbBlockBegin
  2
*U34
 70
               1
 10
0.0
 20
0.0
 30
0.0
  3
*U34
  1

  0
LINE
  5
1F2
100
AcDbEntity
  8
OBJECT
 62
               0
100
AcDbLine
 10
-640.00000000457362
 20
-427.00000000168711
 30
0.0
 11
-640.00000000457362
 21
-388.00000000168711
 31
0.0
  0
LINE
  5
1F3
100
AcDbEntity
  8
OBJECT
 62
               0
100
AcDbLine
 10
-633.00000000457362
 20
-430.00000000168711
 30
0.0
 11
-637.00000000457362
 21
-430.00000000168711
 31
0.0
  0
LINE
  5
1F4
100
AcDbEntity
  8
OBJECT
 62
               0
100
AcDbLine
 10
-630.00000000457362
 20
-388.00000000168711
 30
0.0
 11
-630.00000000457362
 21
-427.00000000168711
 31
0.0
  0
LINE
  5
1F5
100
AcDbEntity
  8
OBJECT
 62
               0
100
AcDbLine
 10
-637.00000000457362
 20
-385.00000000168711
 30
0.0
 11
-633.00000000457362
 21
-385.00000000168711
 31
0.0
  0
ARC
  5
1F6
100
AcDbEntity
  8
OBJECT
 62
               0
100
AcDbCircle
 10
-637.00000000457362
 20
-388.00000000168711
 30
0.0
 40
3.0
100
AcDbArc
 50
90.0
 51
180.0
  0
ARC
  5
1F7
100
AcDbEntity
  8
OBJECT
 62
               0
100
AcDbCircle
 10
-633.00000000457362
 20
-388.00000000168711
 30
0.0
 40
3.0
100
AcDbArc
 50
0.0
 51
90.0
  0
ARC
  5
1F8
100
AcDbEntity
  8
OBJECT
 62
               0
100
AcDbCircle
 10
-637.00000000457362
 20
-427.00000000168711
 30
0.0
 40
3.0
100
AcDbArc
 50
180.0
 51
270.0
  0
ARC
  5
1F9
100
AcDbEntity
  8
OBJECT
 62
               0
100
AcDbCircle
 10
-633.00000000457362
 20
-427.00000000168711
 30
0.0
 40
3.0
100
AcDbArc
 50
270.0
 51
0.0
  0
ENDBLK
  5
1FA
100
AcDbEntity
  8
OBJECT
100
AcDbBlockEnd
  0
BLOCK
  5
1FB
100
AcDbEntity
  8
OBJECT
100
AcDbBlockBegin
  2
*U35
 70
               1
 10
0.0
 20
0.0
 30
0.0
  3
*U35
  1

  0
LINE
  5
1FC
100
AcDbEntity
  8
OBJECT
 62
               0
100
AcDbLine
 10
-1220.0000000045736
 20
-427.00000000168711
 30
0.0
 11
-1220.0000000045736
 21
-388.00000000168711
 31
0.0
  0
LINE
  5
1FD
100
AcDbEntity
  8
OBJECT
 62
               0
100
AcDbLine
 10
-1227.0000000045736
 20
-430.00000000168711
 30
0.0
 11
-1223.0000000045736
 21
-430.00000000168711
 31
0.0
  0
LINE
  5
1FE
100
AcDbEntity
  8
OBJECT
 62
               0
100
AcDbLine
 10
-1230.0000000045736
 20
-388.00000000168711
 30
0.0
 11
-1230.0000000045736
 21
-427.00000000168711
 31
0.0
  0
LINE
  5
1FF
100
AcDbEntity
  8
OBJECT
 62
               0
100
AcDbLine
 10
-1223.0000000045736
 20
-385.00000000168711
 30
0.0
 11
-1227.0000000045736
 21
-385.00000000168711
 31
0.0
  0
ARC
  5
200
100
AcDbEntity
  8
OBJECT
 62
               0
100
AcDbCircle
 10
-1223.0000000045736
 20
-388.00000000168711
 30
0.0
 40
3.0
100
AcDbArc
 50
0.0
 51
90.0
  0
ARC
  5
201
100
AcDbEntity
  8
OBJECT
 62
               0
100
AcDbCircle
 10
-1227.0000000045736
 20
-388.00000000168711
 30
0.0
 40
3.0
100
AcDbArc
 50
90.0
 51
180.0
  0
ARC
  5
202
100
AcDbEntity
  8
OBJECT
 62
               0
100
AcDbCircle
 10
-1223.0000000045736
 20
-427.00000000168711
 30
0.0
 40
3.0
100
AcDbArc
 50
270.0
 51
0.0
  0
ARC
  5
203
100
AcDbEntity
  8
OBJECT
 62
               0
100
AcDbCircle
 10
-1227.0000000045736
 20
-427.00000000168711
 30
0.0
 40
3.0
100
AcDbArc
 50
180.0
 51
270.0
  0
ENDBLK
  5
204
100
AcDbEntity
  8
OBJECT
100
AcDbBlockEnd
  0
BLOCK
  5
205
100
AcDbEntity
  8
DIMENTION
100
AcDbBlockBegin
  2
*D36
 70
               1
 10
0.0
 20
0.0
 30
0.0
  3
*D36
  1

  0
LINE
  5
206
100
AcDbEntity
  8
DIMENTION
 62
               0
100
AcDbLine
 10
1542.9146341835951
 20
-49.999999999999716
 30
0.0
 11
1351.9146342208489
 21
-49.999999999999716
 31
0.0
  0
LINE
  5
207
100
AcDbEntity
  8
DIMENTION
 62
               0
100
AcDbLine
 10
1501.8829289580315
 20
125.26791798131063
 30
0.0
 11
1351.9146342208489
 21
125.26791798131063
 31
0.0
  0
LINE
  5
208
100
AcDbEntity
  8
DIMENTION
 62
               0
100
AcDbLine
 10
1371.9146341463431
 20
-49.999999999999716
 30
0.0
 11
1371.9146341463431
 21
125.26791798131063
 31
0.0
  0
LINE
  5
209
100
AcDbEntity
  8
DIMENTION
 62
               0
100
AcDbLine
 10
1371.9146341463431
 20
-49.999999999999716
 30
0.0
 11
1363.4072472866551
 21
-18.249999999999716
 31
0.0
  0
LINE
  5
20A
100
AcDbEntity
  8
DIMENTION
 62
               0
100
AcDbLine
 10
1371.9146341463431
 20
-49.999999999999716
 30
0.0
 11
1380.4220210060312
 21
-18.249999999999716
 31
0.0
  0
LINE
  5
20B
100
AcDbEntity
  8
DIMENTION
 62
               0
100
AcDbLine
 10
1371.9146341463431
 20
125.26791798131063
 30
0.0
 11
1380.4220210060312
 21
93.517917981310632
 31
0.0
  0
LINE
  5
20C
100
AcDbEntity
  8
DIMENTION
 62
               0
100
AcDbLine
 10
1371.9146341463431
 20
125.26791798131063
 30
0.0
 11
1363.4072472866551
 21
93.517917981310632
 31
0.0
  0
MTEXT
  5
20D
100
AcDbEntity
  8
DIMENTION
 62
               0
100
AcDbMText
 10
1324.5813008130099
 20
5.8839589906554579
 30
0.0
 40
33.866666666666667
 41
0.0
 71
               1
 72
               1
  1
175
  7
________
 11
0.0
 21
1.0
 31
0.0
  0
POINT
  5
20E
100
AcDbEntity
  8
DEFPOINTS
 62
               0
100
AcDbPoint
 10
1511.8829289207786
 20
125.26791798131063
 30
0.0
  0
POINT
  5
20F
100
AcDbEntity
  8
DEFPOINTS
 62
               0
100
AcDbPoint
 10
1552.9146341463422
 20
-49.999999999999716
 30
0.0
  0
POINT
  5
210
100
AcDbEntity
  8
DEFPOINTS
 62
               0
100
AcDbPoint
 10
1371.9146341463431
 20
-49.999999999999716
 30
0.0
  0
ENDBLK
  5
211
100
AcDbEntity
  8
DIMENTION
100
AcDbBlockEnd
  0
BLOCK
  5
212
100
AcDbEntity
  8
DIMENTION
100
AcDbBlockBegin
  2
*D37
 70
               1
 10
0.0
 20
0.0
 30
0.0
  3
*D37
  1

  0
LINE
  5
213
100
AcDbEntity
  8
DIMENTION
 62
               0
100
AcDbLine
 10
1564.9146341463422
 20
-92.99999996274704
 30
0.0
 11
1564.9146341463422
 21
-169.99999992549414
 31
0.0
  0
LINE
  5
214
100
AcDbEntity
  8
DIMENTION
 62
               0
100
AcDbLine
 10
1421.2146341463438
 20
460.00000003725319
 30
0.0
 11
1421.2146341463438
 21
-169.99999992549414
 31
0.0
  0
LINE
  5
215
100
AcDbEntity
  8
DIMENTION
 62
               0
100
AcDbLine
 10
1564.9146341463422
 20
-149.99999999999994
 30
0.0
 11
1421.2146341463438
 21
-149.99999999999994
 31
0.0
  0
LINE
  5
216
100
AcDbEntity
  8
DIMENTION
 62
               0
100
AcDbLine
 10
1564.9146341463422
 20
-149.99999999999994
 30
0.0
 11
1533.1646341463422
 21
-158.5073868596881
 31
0.0
  0
LINE
  5
217
100
AcDbEntity
  8
DIMENTION
 62
               0
100
AcDbLine
 10
1564.9146341463422
 20
-149.99999999999994
 30
0.0
 11
1533.1646341463422
 21
-141.49261314031179
 31
0.0
  0
LINE
  5
218
100
AcDbEntity
  8
DIMENTION
 62
               0
100
AcDbLine
 10
1421.2146341463438
 20
-149.99999999999994
 30
0.0
 11
1452.9646341463438
 21
-141.49261314031179
 31
0.0
  0
LINE
  5
219
100
AcDbEntity
  8
DIMENTION
 62
               0
100
AcDbLine
 10
1421.2146341463438
 20
-149.99999999999994
 30
0.0
 11
1452.9646341463438
 21
-158.5073868596881
 31
0.0
  0
MTEXT
  5
21A
100
AcDbEntity
  8
DIMENTION
 62
               0
100
AcDbMText
 10
1461.314634146343
 20
-106.6667666666666
 30
0.0
 40
33.866666666666667
 41
0.0
 71
               1
 72
               1
  1
145
  7
________
  0
POINT
  5
21B
100
AcDbEntity
  8
DEFPOINTS
 62
               0
100
AcDbPoint
 10
1421.2146341463438
 20
470.00000000000028
 30
0.0
  0
POINT
  5
21C
100
AcDbEntity
  8
DEFPOINTS
 62
               0
100
AcDbPoint
 10
1564.9146341463422
 20
-82.999999999999943
 30
0.0
  0
POINT
  5
21D
100
AcDbEntity
  8
DEFPOINTS
 62
               0
100
AcDbPoint
 10
1564.9146341463422
 20
-149.99999999999994
 30
0.0
  0
ENDBLK
  5
21E
100
AcDbEntity
  8
DIMENTION
100
AcDbBlockEnd
  0
BLOCK
  5
21F
100
AcDbEntity
  8
OBJECT
100
AcDbBlockBegin
  2
*U38
 70
               1
 10
0.0
 20
0.0
 30
0.0
  3
*U38
  1

  0
LINE
  5
220
100
AcDbEntity
  8
OBJECT
 62
               0
100
AcDbLine
 10
656.92259025719954
 20
-407.98771918074931
 30
0.0
 11
649.26923471288433
 21
-172.72992774235286
 31
0.0
  0
LINE
  5
221
100
AcDbEntity
  8
OBJECT
 62
               0
100
AcDbLine
 10
678.80666593048522
 20
-158.02309993586255
 30
0.0
 11
686.90672809239572
 21
-407.01228169942556
 31
0.0
  0
ARC
  5
222
100
AcDbEntity
  8
OBJECT
 62
               0
100
AcDbCircle
 10
663.59092600083318
 20
-151.6353575797491
 30
0.0
 40
14.999999999999837
100
AcDbArc
 50
82.91162253974359
 51
150.0262420634163
  0
ARC
  5
223
100
AcDbEntity
  8
OBJECT
 62
               0
100
AcDbCircle
 10
671.91465917479741
 20
-407.50000044008743
 30
0.0
 40
14.999999999999892
100
AcDbArc
 50
181.86327676912555
 51
1.8632767691254912
  0
CIRCLE
  5
224
100
AcDbEntity
  8
OBJECT
 62
               0
100
AcDbCircle
 10
663.59092600083318
 20
-151.6353575797491
 30
0.0
 40
6.499999999999841
  0
LINE
  5
225
100
AcDbEntity
  8
OBJECT
  6
CONTINUOUS
 62
               0
100
AcDbLine
 10
671.91376842239083
 20
-415.00483415037047
 30
0.0
 11
665.41422410381824
 21
-411.25126824789163
 31
0.0
  0
LINE
  5
226
100
AcDbEntity
  8
OBJECT
  6
CONTINUOUS
 62
               0
100
AcDbLine
 10
678.41422400800298
 20
-411.25284660870307
 30
0.0
 11
671.91376842239083
 21
-415.00483415037047
 31
0.0
  0
LINE
  5
227
100
AcDbEntity
  8
OBJECT
  6
CONTINUOUS
 62
               0
100
AcDbLine
 10
671.91559095646994
 20
-399.99372726207935
 30
0.0
 11
678.41513527504117
 21
-403.74729316455773
 31
0.0
  0
LINE
  5
228
100
AcDbEntity
  8
OBJECT
  6
CONTINUOUS
 62
               0
100
AcDbLine
 10
665.4151353708578
 20
-403.74571480374584
 30
0.0
 11
671.91559095646994
 21
-399.99372726207935
 31
0.0
  0
LINE
  5
229
100
AcDbEntity
  8
OBJECT
  6
CONTINUOUS
 62
               0
100
AcDbLine
 10
665.41422410381824
 20
-411.25126824789163
 30
0.0
 11
665.4151353708578
 21
-403.74571480374584
 31
0.0
  0
LINE
  5
22A
100
AcDbEntity
  8
OBJECT
  6
CONTINUOUS
 62
               0
100
AcDbLine
 10
678.41513527504117
 20
-403.74729316455773
 30
0.0
 11
678.41422400800298
 21
-411.25284660870307
 31
0.0
  0
ARC
  5
22B
100
AcDbEntity
  8
OBJECT
  6
CONTINUOUS
 62
               0
100
AcDbCircle
 10
671.91465926417709
 20
-407.49928041392445
 30
0.0
 40
22.500000000000028
100
AcDbArc
 50
133.67367196337779
 51
271.61858932342614
  0
ARC
  5
22C
100
AcDbEntity
  8
OBJECT
  6
CONTINUOUS
 62
               0
100
AcDbCircle
 10
671.91465926417709
 20
-407.49928041392445
 30
0.0
 40
22.500000000000334
100
AcDbArc
 50
271.61859546436392
 51
49.808280568586525
  0
POINT
  5
22D
100
AcDbEntity
  8
OBJECT
  6
CONTINUOUS
 62
               0
100
AcDbPoint
 10
671.91465917479741
 20
-407.50000044008743
 30
0.0
  0
LINE
  5
22E
100
AcDbEntity
  8
OBJECT
  6
CONTINUOUS
 62
               0
100
AcDbLine
 10
663.5900352484266
 20
-159.14019129003168
 30
0.0
 11
657.09049092985401
 21
-155.38662538755284
 31
0.0
  0
LINE
  5
22F
100
AcDbEntity
  8
OBJECT
  6
CONTINUOUS
 62
               0
100
AcDbLine
 10
670.09049083403829
 20
-155.38820374836473
 30
0.0
 11
663.5900352484266
 21
-159.14019129003168
 31
0.0
  0
LINE
  5
230
100
AcDbEntity
  8
OBJECT
  6
CONTINUOUS
 62
               0
100
AcDbLine
 10
663.59185778250526
 20
-144.12908440174056
 30
0.0
 11
670.09140210107694
 21
-147.88265030421917
 31
0.0
  0
LINE
  5
231
100
AcDbEntity
  8
OBJECT
  6
CONTINUOUS
 62
               0
100
AcDbLine
 10
657.09140219689357
 20
-147.88107194340751
 30
0.0
 11
663.59185778250526
 21
-144.12908440174056
 31
0.0
  0
LINE
  5
232
100
AcDbEntity
  8
OBJECT
  6
CONTINUOUS
 62
               0
100
AcDbLine
 10
657.09049092985401
 20
-155.38662538755284
 30
0.0
 11
657.09140219689357
 21
-147.88107194340751
 31
0.0
  0
LINE
  5
233
100
AcDbEntity
  8
OBJECT
  6
CONTINUOUS
 62
               0
100
AcDbLine
 10
670.09140210107694
 20
-147.88265030421917
 30
0.0
 11
670.09049083403829
 21
-155.38820374836473
 31
0.0
  0
CIRCLE
  5
234
100
AcDbEntity
  8
OBJECT
 62
               0
100
AcDbCircle
 10
671.91465926417709
 20
-407.49928041392445
 30
0.0
 40
6.499999999999833
  0
ENDBLK
  5
235
100
AcDbEntity
  8
OBJECT
100
AcDbBlockEnd
  0
BLOCK
  5
236
100
AcDbEntity
  8
OBJECT
100
AcDbBlockBegin
  2
*U39
 70
               1
 10
0.0
 20
0.0
 30
0.0
  3
*U39
  1

  0
CIRCLE
  5
237
100
AcDbEntity
  8
OBJECT
 62
               0
100
AcDbCircle
 10
1105.5932421925179
 20
17.339574970062358
 30
0.0
 40
4.0999999999988042
  0
POINT
  5
238
100
AcDbEntity
  8
OBJECT
  6
CONTINUOUS
 62
               0
100
AcDbPoint
 10
1105.5932421925179
 20
17.339574970062358
 30
0.0
  0
POINT
  5
239
100
AcDbEntity
  8
OBJECT
  6
CONTINUOUS
 62
               0
100
AcDbPoint
 10
1105.5932792776109
 20
17.338405500554245
 30
0.0
  0
POINT
  5
23A
100
AcDbEntity
  8
OBJECT
  6
CONTINUOUS
 62
               0
100
AcDbPoint
 10
663.55441384607752
 20
-151.65354392566837
 30
0.0
  0
LINE
  5
23B
100
AcDbEntity
  8
OBJECT
 62
               0
100
AcDbLine
 10
1097.5337733164122
 20
8.8516446313381039
 30
0.0
 11
1080.8012847521175
 21
42.411648005085453
 31
0.0
  0
ARC
  5
23C
100
AcDbEntity
  8
OBJECT
 62
               0
100
AcDbCircle
 10
1106.4831075587374
 20
13.313641677162423
 30
0.0
 40
10.000000050889986
100
AcDbArc
 50
206.50012095116458
 51
323.18746939218443
  0
LINE
  5
23D
100
AcDbEntity
  8
OBJECT
 62
               0
100
AcDbLine
 10
1154.1858254627052
 20
79.000022999006205
 30
0.0
 11
1159.7633216508027
 21
67.813355207757695
 31
0.0
  0
LINE
  5
23E
100
AcDbEntity
  8
OBJECT
 62
               0
100
AcDbLine
 10
1156.4548344360076
 20
108.0663540072203
 30
0.0
 11
1167.609826812203
 21
85.693018424723505
 31
0.0
  0
ARC
  5
23F
100
AcDbEntity
  8
OBJECT
 62
               0
100
AcDbCircle
 10
481.88292891620472
 20
-242.23208202037677
 30
0.0
 40
12.49999999999995
100
AcDbArc
 50
116.50012048611325
 51
296.50011432946326
  0
LINE
  5
240
100
AcDbEntity
  8
OBJECT
 62
               0
100
AcDbLine
 10
487.46042510430266
 20
-253.4187498116255
 30
0.0
 11
1167.609826812203
 21
85.693018424723505
 31
0.0
  0
LINE
  5
241
100
AcDbEntity
  8
OBJECT
 62
               0
100
AcDbLine
 10
1156.4548344360076
 20
108.0663540072203
 30
0.0
 11
476.30543272810678
 21
-231.04541422912803
 31
0.0
  0
LINE
  5
242
100
AcDbEntity
  8
OBJECT
 62
               0
100
AcDbLine
 10
1114.4891110506935
 20
7.3216546023643332
 30
0.0
 11
1159.7633216508027
 21
67.813355207757695
 31
0.0
  0
ENDBLK
  5
243
100
AcDbEntity
  8
OBJECT
100
AcDbBlockEnd
  0
BLOCK
  5
244
100
AcDbEntity
  8
OUTLINE
100
AcDbBlockBegin
  2
*U40
 70
               1
 10
0.0
 20
0.0
 30
0.0
  3
*U40
  1

  0
CIRCLE
  5
245
100
AcDbEntity
  8
OUTLINE
 62
               0
100
AcDbCircle
 10
1066.295220482679
 20
71.398062975015819
 30
0.0
 40
4.0999999999992882
  0
POINT
  5
246
100
AcDbEntity
  8
OUTLINE
  6
CONTINUOUS
 62
               0
100
AcDbPoint
 10
1066.295220482679
 20
71.398062975015819
 30
0.0
  0
POINT
  5
247
100
AcDbEntity
  8
OUTLINE
  6
CONTINUOUS
 62
               0
100
AcDbPoint
 10
1066.294396344909
 20
71.397232414259406
 30
0.0
  0
POINT
  5
248
100
AcDbEntity
  8
OUTLINE
  6
CONTINUOUS
 62
               0
100
AcDbPoint
 10
639.76790625375565
 20
276.41379460715484
 30
0.0
  0
LINE
  5
249
100
AcDbEntity
  8
OUTLINE
 62
               0
100
AcDbLine
 10
1054.5905424069667
 20
71.420671466639533
 30
0.0
 11
1067.4739563788805
 21
106.638105280427
 31
0.0
  0
ARC
  5
24A
100
AcDbEntity
  8
OUTLINE
 62
               0
100
AcDbCircle
 10
1063.9818581663205
 20
67.985094466205965
 30
0.0
 40
10.00000005088976
100
AcDbArc
 50
159.90622284807313
 51
276.59357128909085
  0
LINE
  5
24B
100
AcDbEntity
  8
OUTLINE
 62
               0
100
AcDbLine
 10
1144.4827449850216
 20
78.46637339517747
 30
0.0
 11
1140.1882736610498
 21
66.727228790582785
 31
0.0
  0
LINE
  5
24C
100
AcDbEntity
  8
OUTLINE
 62
               0
100
AcDbLine
 10
1167.1586611584773
 20
96.791297015601913
 30
0.0
 11
1158.5697185105353
 21
73.313007806412543
 31
0.0
  0
ARC
  5
24D
100
AcDbEntity
  8
OUTLINE
 62
               0
100
AcDbCircle
 10
449.12419787513431
 20
346.15600890844394
 30
0.0
 40
12.500000000000055
100
AcDbArc
 50
69.906222383017379
 51
249.90621622636885
  0
LINE
  5
24E
100
AcDbEntity
  8
OUTLINE
 62
               0
100
AcDbLine
 10
444.8297265511635
 20
334.4168643038488
 30
0.0
 11
1158.5697185105353
 21
73.313007806412543
 31
0.0
  0
LINE
  5
24F
100
AcDbEntity
  8
OUTLINE
 62
               0
100
AcDbLine
 10
1167.1586611584773
 20
96.791297015601913
 30
0.0
 11
453.41866919910558
 21
357.89515351303908
 31
0.0
  0
LINE
  5
250
100
AcDbEntity
  8
OUTLINE
 62
               0
100
AcDbLine
 10
1065.1301150840407
 20
58.051237860200445
 30
0.0
 11
1140.1882736610498
 21
66.727228790582785
 31
0.0
  0
ENDBLK
  5
251
100
AcDbEntity
  8
OUTLINE
100
AcDbBlockEnd
  0
BLOCK
  5
252
100
AcDbEntity
  8
OBJECT
100
AcDbBlockBegin
  2
*U41
 70
               1
 10
0.0
 20
0.0
 30
0.0
  3
*U41
  1

  0
LINE
  5
253
100
AcDbEntity
  8
OBJECT
 62
               0
100
AcDbLine
 10
-758.50000449829236
 20
-688.50000000168689
 30
0.0
 11
-758.50000449829236
 21
-683.50000000168689
 31
0.0
  0
LINE
  5
254
100
AcDbEntity
  8
OBJECT
 62
               0
100
AcDbLine
 10
-748.50000449829236
 20
-693.50000000168689
 30
0.0
 11
-753.50000449829236
 21
-693.50000000168689
 31
0.0
  0
LINE
  5
255
100
AcDbEntity
  8
OBJECT
 62
               0
100
AcDbLine
 10
-743.50000449829236
 20
-683.50000000168689
 30
0.0
 11
-743.50000449829236
 21
-688.50000000168689
 31
0.0
  0
LINE
  5
256
100
AcDbEntity
  8
OBJECT
 62
               0
100
AcDbLine
 10
-753.50000449829236
 20
-678.50000000168689
 30
0.0
 11
-748.50000449829236
 21
-678.50000000168689
 31
0.0
  0
ARC
  5
257
100
AcDbEntity
  8
OBJECT
 62
               0
100
AcDbCircle
 10
-753.50000449829236
 20
-683.50000000168689
 30
0.0
 40
5.0
100
AcDbArc
 50
90.0
 51
180.0
  0
ARC
  5
258
100
AcDbEntity
  8
OBJECT
 62
               0
100
AcDbCircle
 10
-753.50000449829236
 20
-688.50000000168689
 30
0.0
 40
5.0
100
AcDbArc
 50
180.0
 51
270.0
  0
ARC
  5
259
100
AcDbEntity
  8
OBJECT
 62
               0
100
AcDbCircle
 10
-748.50000449829236
 20
-688.50000000168689
 30
0.0
 40
5.0
100
AcDbArc
 50
270.0
 51
0.0
  0
ARC
  5
25A
100
AcDbEntity
  8
OBJECT
 62
               0
100
AcDbCircle
 10
-748.50000449829236
 20
-683.50000000168689
 30
0.0
 40
5.0
100
AcDbArc
 50
0.0
 51
90.0
  0
POINT
  5
25B
100
AcDbEntity
  8
OBJECT
  6
CONTINUOUS
 62
               0
100
AcDbPoint
 10
-751.00000449829236
 20
-686.00000000168689
 30
0.0
  0
ENDBLK
  5
25C
100
AcDbEntity
  8
OBJECT
100
AcDbBlockEnd
  0
BLOCK
  5
25D
100
AcDbEntity
  8
OBJECT
100
AcDbBlockBegin
  2
*U42
 70
               1
 10
0.0
 20
0.0
 30
0.0
  3
*U42
  1

  0
LWPOLYLINE
  5
25E
100
AcDbEntity
  8
OBJECT
 62
               0
100
AcDbPolyline
 90
        7
 70
             128
 10
-809.42015848470032
 20
-663.56206633810575
 10
-805.0371357535912
 20
-663.56206633810575
 10
-804.84214334912554
 20
-663.78806460193823
 10
-805.45881544098552
 20
-664.28484737091071
 10
-809.20931864100271
 20
-664.28484737091071
 10
-809.69679965216596
 20
-663.78806460193823
 10
-809.42015848470032
 20
-663.56206633810575
  0
LWPOLYLINE
  5
25F
100
AcDbEntity
  8
OBJECT
 62
               0
100
AcDbPolyline
 90
        7
 70
             128
 10
-804.56584669120889
 20
-664.07400752721401
 10
-804.35500684751128
 20
-664.28484737091071
 10
-804.92344760257743
 20
-668.32181026052672
 10
-805.37751118753363
 20
-668.68354528647774
 10
-805.71857564057314
 20
-668.32181026052672
 10
-805.18320780216595
 20
-664.58663773541934
 10
-804.56584669120889
 20
-664.07400752721401
  0
LWPOLYLINE
  5
260
100
AcDbEntity
  8
OBJECT
 62
               0
100
AcDbPolyline
 90
        7
 70
             128
 10
-810.03717508610839
 20
-664.07400752721401
 10
-809.56657504282316
 20
-664.58663773541934
 10
-810.0860954419993
 20
-668.32181026052672
 10
-810.54084804605168
 20
-668.68354528647774
 10
-810.88191249909119
 20
-668.32181026052672
 10
-810.31312723447695
 20
-664.28484737091071
 10
-810.03717508610839
 20
-664.07400752721401
  0
LWPOLYLINE
  5
261
100
AcDbEntity
  8
OBJECT
 62
               0
100
AcDbPolyline
 90
        7
 70
             128
 10
-810.26489589768312
 20
-668.9701772308506
 10
-809.82633524241078
 20
-668.60844220489957
 10
-806.07617655194258
 20
-668.60844220489957
 10
-805.73511209890307
 20
-668.9701772308506
 10
-806.17263922552934
 20
-669.33122323770544
 10
-809.92383144464361
 20
-669.33122323770544
 10
-810.26489589768312
 20
-668.9701772308506
  0
LWPOLYLINE
  5
262
100
AcDbEntity
  8
OBJECT
 62
               0
100
AcDbPolyline
 90
        7
 70
             128
 10
-810.62180778995548
 20
-669.25543113702929
 10
-810.28074333691598
 20
-669.61716616298122
 10
-810.8006082456393
 20
-673.35302770718567
 10
-811.43381679582831
 20
-673.86496889629393
 10
-811.64500114907491
 20
-673.63897063246145
 10
-811.05967942613074
 20
-669.61716616298122
 10
-810.62180778995548
 20
-669.25543113702929
  0
LWPOLYLINE
  5
263
100
AcDbEntity
  8
OBJECT
 62
               0
100
AcDbPolyline
 90
        7
 70
             128
 10
-805.45881544098552
 20
-669.25543113702929
 10
-805.11775098794601
 20
-669.61716616298122
 10
-805.68688076210924
 20
-673.63897063246145
 10
-805.96248840092881
 20
-673.86496889629393
 10
-806.43308844421404
 20
-673.35302770718567
 10
-805.89703158670977
 20
-669.61716616298122
 10
-805.45881544098552
 20
-669.25543113702929
  0
LWPOLYLINE
  5
264
100
AcDbEntity
  8
OBJECT
 62
               0
100
AcDbPolyline
 90
        7
 70
             128
 10
-811.15786464745975
 20
-674.15160084066679
 10
-810.54084804605168
 20
-673.63897063246145
 10
-806.79051710080853
 20
-673.63897063246145
 10
-806.30355285396922
 20
-674.15160084066679
 10
-806.57916049278879
 20
-674.36175166526732
 10
-810.94633578466596
 20
-674.36175166526732
 10
-811.15786464745975
 20
-674.15160084066679
  0
ENDBLK
  5
265
100
AcDbEntity
  8
OBJECT
100
AcDbBlockEnd
  0
BLOCK
  5
266
100
AcDbEntity
  8
OBJECT
100
AcDbBlockBegin
  2
*U43
 70
               1
 10
0.0
 20
0.0
 30
0.0
  3
*U43
  1

  0
LWPOLYLINE
  5
267
100
AcDbEntity
  8
OBJECT
 62
               0
100
AcDbPolyline
 90
        7
 70
             128
 10
-799.42015848470032
 20
-663.56206633810575
 10
-795.0371357535912
 20
-663.56206633810575
 10
-794.84214334912554
 20
-663.78806460193823
 10
-795.45881544098552
 20
-664.28484737091071
 10
-799.20931864100271
 20
-664.28484737091071
 10
-799.69679965216596
 20
-663.78806460193823
 10
-799.42015848470032
 20
-663.56206633810575
  0
LWPOLYLINE
  5
268
100
AcDbEntity
  8
OBJECT
 62
               0
100
AcDbPolyline
 90
        7
 70
             128
 10
-794.56584669120889
 20
-664.07400752721401
 10
-794.35500684751128
 20
-664.28484737091071
 10
-794.92344760257743
 20
-668.32181026052672
 10
-795.37751118753363
 20
-668.68354528647774
 10
-795.71857564057314
 20
-668.32181026052672
 10
-795.18320780216595
 20
-664.58663773541934
 10
-794.56584669120889
 20
-664.07400752721401
  0
LWPOLYLINE
  5
269
100
AcDbEntity
  8
OBJECT
 62
               0
100
AcDbPolyline
 90
        7
 70
             128
 10
-800.03717508610839
 20
-664.07400752721401
 10
-799.56657504282316
 20
-664.58663773541934
 10
-800.0860954419993
 20
-668.32181026052672
 10
-800.54084804605168
 20
-668.68354528647774
 10
-800.88191249909119
 20
-668.32181026052672
 10
-800.31312723447695
 20
-664.28484737091071
 10
-800.03717508610839
 20
-664.07400752721401
  0
LWPOLYLINE
  5
26A
100
AcDbEntity
  8
OBJECT
 62
               0
100
AcDbPolyline
 90
        7
 70
             128
 10
-800.26489589768312
 20
-668.9701772308506
 10
-799.82633524241078
 20
-668.60844220489957
 10
-796.07617655194258
 20
-668.60844220489957
 10
-795.73511209890307
 20
-668.9701772308506
 10
-796.17263922552934
 20
-669.33122323770544
 10
-799.92383144464361
 20
-669.33122323770544
 10
-800.26489589768312
 20
-668.9701772308506
  0
LWPOLYLINE
  5
26B
100
AcDbEntity
  8
OBJECT
 62
               0
100
AcDbPolyline
 90
        7
 70
             128
 10
-800.62180778995548
 20
-669.25543113702929
 10
-800.28074333691598
 20
-669.61716616298122
 10
-800.8006082456393
 20
-673.35302770718567
 10
-801.43381679582831
 20
-673.86496889629393
 10
-801.64500114907491
 20
-673.63897063246145
 10
-801.05967942613074
 20
-669.61716616298122
 10
-800.62180778995548
 20
-669.25543113702929
  0
LWPOLYLINE
  5
26C
100
AcDbEntity
  8
OBJECT
 62
               0
100
AcDbPolyline
 90
        7
 70
             128
 10
-795.45881544098552
 20
-669.25543113702929
 10
-795.11775098794601
 20
-669.61716616298122
 10
-795.68688076210924
 20
-673.63897063246145
 10
-795.96248840092881
 20
-673.86496889629393
 10
-796.43308844421404
 20
-673.35302770718567
 10
-795.89703158670977
 20
-669.61716616298122
 10
-795.45881544098552
 20
-669.25543113702929
  0
LWPOLYLINE
  5
26D
100
AcDbEntity
  8
OBJECT
 62
               0
100
AcDbPolyline
 90
        7
 70
             128
 10
-801.15786464745975
 20
-674.15160084066679
 10
-800.54084804605168
 20
-673.63897063246145
 10
-796.79051710080853
 20
-673.63897063246145
 10
-796.30355285396922
 20
-674.15160084066679
 10
-796.57916049278879
 20
-674.36175166526732
 10
-800.94633578466596
 20
-674.36175166526732
 10
-801.15786464745975
 20
-674.15160084066679
  0
ENDBLK
  5
26E
100
AcDbEntity
  8
OBJECT
100
AcDbBlockEnd
  0
BLOCK
  5
26F
100
AcDbEntity
  8
OBJECT
100
AcDbBlockBegin
  2
*U44
 70
               1
 10
0.0
 20
0.0
 30
0.0
  3
*U44
  1

  0
LWPOLYLINE
  5
270
100
AcDbEntity
  8
OBJECT
 62
               0
100
AcDbPolyline
 90
        5
 70
             128
 10
-792.0000039982931
 20
-675.46190900168654
 10
-814.0000039982931
 20
-675.46190900168654
 10
-814.0000039982931
 20
-662.46190900168654
 10
-792.0000039982931
 20
-662.46190900168654
 10
-792.0000039982931
 20
-675.46190900168654
  0
INSERT
  5
271
100
AcDbEntity
  8
OBJECT
 62
               0
100
AcDbBlockReference
  2
*U42
 10
0.0
 20
0.0
 30
0.0
  0
INSERT
  5
272
100
AcDbEntity
  8
OBJECT
 62
               0
100
AcDbBlockReference
  2
*U43
 10
0.0
 20
0.0
 30
0.0
  0
POINT
  5
273
100
AcDbEntity
  8
OBJECT
  6
CONTINUOUS
 62
               0
100
AcDbPoint
 10
-803.0000039982931
 20
-668.96190900168654
 30
0.0
  0
ENDBLK
  5
274
100
AcDbEntity
  8
OBJECT
100
AcDbBlockEnd
  0
BLOCK
  5
275
100
AcDbEntity
  8
OBJECT
100
AcDbBlockBegin
  2
*U45
 70
               1
 10
0.0
 20
0.0
 30
0.0
  3
*U45
  1

  0
LWPOLYLINE
  5
276
100
AcDbEntity
  8
OBJECT
 62
               0
100
AcDbPolyline
 90
        7
 70
             128
 10
-809.42015848470032
 20
-680.60015633810576
 10
-805.0371357535912
 20
-680.60015633810576
 10
-804.84214334912554
 20
-680.82615460193824
 10
-805.45881544098552
 20
-681.32293737091072
 10
-809.20931864100271
 20
-681.32293737091072
 10
-809.69679965216596
 20
-680.82615460193824
 10
-809.42015848470032
 20
-680.60015633810576
  0
LWPOLYLINE
  5
277
100
AcDbEntity
  8
OBJECT
 62
               0
100
AcDbPolyline
 90
        7
 70
             128
 10
-804.56584669120889
 20
-681.11209752721402
 10
-804.35500684751128
 20
-681.32293737091072
 10
-804.92344760257743
 20
-685.35990026052673
 10
-805.37751118753363
 20
-685.72163528647775
 10
-805.71857564057314
 20
-685.35990026052673
 10
-805.18320780216595
 20
-681.62472773541936
 10
-804.56584669120889
 20
-681.11209752721402
  0
LWPOLYLINE
  5
278
100
AcDbEntity
  8
OBJECT
 62
               0
100
AcDbPolyline
 90
        7
 70
             128
 10
-810.03717508610839
 20
-681.11209752721402
 10
-809.56657504282316
 20
-681.62472773541936
 10
-810.0860954419993
 20
-685.35990026052673
 10
-810.54084804605168
 20
-685.72163528647775
 10
-810.88191249909119
 20
-685.35990026052673
 10
-810.31312723447695
 20
-681.32293737091072
 10
-810.03717508610839
 20
-681.11209752721402
  0
LWPOLYLINE
  5
279
100
AcDbEntity
  8
OBJECT
 62
               0
100
AcDbPolyline
 90
        7
 70
             128
 10
-810.26489589768312
 20
-686.00826723085061
 10
-809.82633524241078
 20
-685.64653220489959
 10
-806.07617655194258
 20
-685.64653220489959
 10
-805.73511209890307
 20
-686.00826723085061
 10
-806.17263922552934
 20
-686.36931323770546
 10
-809.92383144464361
 20
-686.36931323770546
 10
-810.26489589768312
 20
-686.00826723085061
  0
LWPOLYLINE
  5
27A
100
AcDbEntity
  8
OBJECT
 62
               0
100
AcDbPolyline
 90
        7
 70
             128
 10
-810.62180778995548
 20
-686.2935211370293
 10
-810.28074333691598
 20
-686.65525616298123
 10
-810.8006082456393
 20
-690.39111770718569
 10
-811.43381679582831
 20
-690.90305889629394
 10
-811.64500114907491
 20
-690.67706063246146
 10
-811.05967942613074
 20
-686.65525616298123
 10
-810.62180778995548
 20
-686.2935211370293
  0
LWPOLYLINE
  5
27B
100
AcDbEntity
  8
OBJECT
 62
               0
100
AcDbPolyline
 90
        7
 70
             128
 10
-805.45881544098552
 20
-686.2935211370293
 10
-805.11775098794601
 20
-686.65525616298123
 10
-805.68688076210924
 20
-690.67706063246146
 10
-805.96248840092881
 20
-690.90305889629394
 10
-806.43308844421404
 20
-690.39111770718569
 10
-805.89703158670977
 20
-686.65525616298123
 10
-805.45881544098552
 20
-686.2935211370293
  0
LWPOLYLINE
  5
27C
100
AcDbEntity
  8
OBJECT
 62
               0
100
AcDbPolyline
 90
        7
 70
             128
 10
-811.15786464745975
 20
-691.1896908406668
 10
-810.54084804605168
 20
-690.67706063246146
 10
-806.79051710080853
 20
-690.67706063246146
 10
-806.30355285396922
 20
-691.1896908406668
 10
-806.57916049278879
 20
-691.39984166526733
 10
-810.94633578466596
 20
-691.39984166526733
 10
-811.15786464745975
 20
-691.1896908406668
  0
ENDBLK
  5
27D
100
AcDbEntity
  8
OBJECT
100
AcDbBlockEnd
  0
BLOCK
  5
27E
100
AcDbEntity
  8
OBJECT
100
AcDbBlockBegin
  2
*U46
 70
               1
 10
0.0
 20
0.0
 30
0.0
  3
*U46
  1

  0
LWPOLYLINE
  5
27F
100
AcDbEntity
  8
OBJECT
 62
               0
100
AcDbPolyline
 90
        7
 70
             128
 10
-799.42015848470032
 20
-680.60015633810576
 10
-795.0371357535912
 20
-680.60015633810576
 10
-794.84214334912554
 20
-680.82615460193824
 10
-795.45881544098552
 20
-681.32293737091072
 10
-799.20931864100271
 20
-681.32293737091072
 10
-799.69679965216596
 20
-680.82615460193824
 10
-799.42015848470032
 20
-680.60015633810576
  0
LWPOLYLINE
  5
280
100
AcDbEntity
  8
OBJECT
 62
               0
100
AcDbPolyline
 90
        7
 70
             128
 10
-794.56584669120889
 20
-681.11209752721402
 10
-794.35500684751128
 20
-681.32293737091072
 10
-794.92344760257743
 20
-685.35990026052673
 10
-795.37751118753363
 20
-685.72163528647775
 10
-795.71857564057314
 20
-685.35990026052673
 10
-795.18320780216595
 20
-681.62472773541936
 10
-794.56584669120889
 20
-681.11209752721402
  0
LWPOLYLINE
  5
281
100
AcDbEntity
  8
OBJECT
 62
               0
100
AcDbPolyline
 90
        7
 70
             128
 10
-800.03717508610839
 20
-681.11209752721402
 10
-799.56657504282316
 20
-681.62472773541936
 10
-800.0860954419993
 20
-685.35990026052673
 10
-800.54084804605168
 20
-685.72163528647775
 10
-800.88191249909119
 20
-685.35990026052673
 10
-800.31312723447695
 20
-681.32293737091072
 10
-800.03717508610839
 20
-681.11209752721402
  0
LWPOLYLINE
  5
282
100
AcDbEntity
  8
OBJECT
 62
               0
100
AcDbPolyline
 90
        7
 70
             128
 10
-800.26489589768312
 20
-686.00826723085061
 10
-799.82633524241078
 20
-685.64653220489959
 10
-796.07617655194258
 20
-685.64653220489959
 10
-795.73511209890307
 20
-686.00826723085061
 10
-796.17263922552934
 20
-686.36931323770546
 10
-799.92383144464361
 20
-686.36931323770546
 10
-800.26489589768312
 20
-686.00826723085061
  0
LWPOLYLINE
  5
283
100
AcDbEntity
  8
OBJECT
 62
               0
100
AcDbPolyline
 90
        7
 70
             128
 10
-800.62180778995548
 20
-686.2935211370293
 10
-800.28074333691598
 20
-686.65525616298123
 10
-800.8006082456393
 20
-690.39111770718569
 10
-801.43381679582831
 20
-690.90305889629394
 10
-801.64500114907491
 20
-690.67706063246146
 10
-801.05967942613074
 20
-686.65525616298123
 10
-800.62180778995548
 20
-686.2935211370293
  0
LWPOLYLINE
  5
284
100
AcDbEntity
  8
OBJECT
 62
               0
100
AcDbPolyline
 90
        7
 70
             128
 10
-795.45881544098552
 20
-686.2935211370293
 10
-795.11775098794601
 20
-686.65525616298123
 10
-795.68688076210924
 20
-690.67706063246146
 10
-795.96248840092881
 20
-690.90305889629394
 10
-796.43308844421404
 20
-690.39111770718569
 10
-795.89703158670977
 20
-686.65525616298123
 10
-795.45881544098552
 20
-686.2935211370293
  0
LWPOLYLINE
  5
285
100
AcDbEntity
  8
OBJECT
 62
               0
100
AcDbPolyline
 90
        7
 70
             128
 10
-801.15786464745975
 20
-691.1896908406668
 10
-800.54084804605168
 20
-690.67706063246146
 10
-796.79051710080853
 20
-690.67706063246146
 10
-796.30355285396922
 20
-691.1896908406668
 10
-796.57916049278879
 20
-691.39984166526733
 10
-800.94633578466596
 20
-691.39984166526733
 10
-801.15786464745975
 20
-691.1896908406668
  0
ENDBLK
  5
286
100
AcDbEntity
  8
OBJECT
100
AcDbBlockEnd
  0
BLOCK
  5
287
100
AcDbEntity
  8
OBJECT
100
AcDbBlockBegin
  2
*U47
 70
               1
 10
0.0
 20
0.0
 30
0.0
  3
*U47
  1

  0
LWPOLYLINE
  5
288
100
AcDbEntity
  8
OBJECT
 62
               0
100
AcDbPolyline
 90
        5
 70
             128
 10
-792.0000039982931
 20
-692.49999900168655
 10
-814.0000039982931
 20
-692.49999900168655
 10
-814.0000039982931
 20
-679.49999900168655
 10
-792.0000039982931
 20
-679.49999900168655
 10
-792.0000039982931
 20
-692.49999900168655
  0
INSERT
  5
289
100
AcDbEntity
  8
OBJECT
 62
               0
100
AcDbBlockReference
  2
*U45
 10
0.0
 20
0.0
 30
0.0
  0
INSERT
  5
28A
100
AcDbEntity
  8
OBJECT
 62
               0
100
AcDbBlockReference
  2
*U46
 10
0.0
 20
0.0
 30
0.0
  0
POINT
  5
28B
100
AcDbEntity
  8
OBJECT
  6
CONTINUOUS
 62
               0
100
AcDbPoint
 10
-803.0000039982931
 20
-685.99999900168655
 30
0.0
  0
ENDBLK
  5
28C
100
AcDbEntity
  8
OBJECT
100
AcDbBlockEnd
  0
BLOCK
  5
28D
100
AcDbEntity
  8
OBJECT
100
AcDbBlockBegin
  2
*U48
 70
               1
 10
0.0
 20
0.0
 30
0.0
  3
*U48
  1

  0
LINE
  5
28E
100
AcDbEntity
  8
OBJECT
 62
               0
100
AcDbLine
 10
-781.50000449829236
 20
-688.50000000168689
 30
0.0
 11
-781.50000449829236
 21
-683.50000000168689
 31
0.0
  0
LINE
  5
28F
100
AcDbEntity
  8
OBJECT
 62
               0
100
AcDbLine
 10
-771.50000449829236
 20
-693.50000000168689
 30
0.0
 11
-776.50000449829236
 21
-693.50000000168689
 31
0.0
  0
LINE
  5
290
100
AcDbEntity
  8
OBJECT
 62
               0
100
AcDbLine
 10
-766.50000449829236
 20
-683.50000000168689
 30
0.0
 11
-766.50000449829236
 21
-688.50000000168689
 31
0.0
  0
LINE
  5
291
100
AcDbEntity
  8
OBJECT
 62
               0
100
AcDbLine
 10
-776.50000449829236
 20
-678.50000000168689
 30
0.0
 11
-771.50000449829236
 21
-678.50000000168689
 31
0.0
  0
ARC
  5
292
100
AcDbEntity
  8
OBJECT
 62
               0
100
AcDbCircle
 10
-776.50000449829236
 20
-683.50000000168689
 30
0.0
 40
5.0
100
AcDbArc
 50
90.0
 51
180.0
  0
ARC
  5
293
100
AcDbEntity
  8
OBJECT
 62
               0
100
AcDbCircle
 10
-776.50000449829236
 20
-688.50000000168689
 30
0.0
 40
5.0
100
AcDbArc
 50
180.0
 51
270.0
  0
ARC
  5
294
100
AcDbEntity
  8
OBJECT
 62
               0
100
AcDbCircle
 10
-771.50000449829236
 20
-688.50000000168689
 30
0.0
 40
5.0
100
AcDbArc
 50
270.0
 51
0.0
  0
ARC
  5
295
100
AcDbEntity
  8
OBJECT
 62
               0
100
AcDbCircle
 10
-771.50000449829236
 20
-683.50000000168689
 30
0.0
 40
5.0
100
AcDbArc
 50
0.0
 51
90.0
  0
POINT
  5
296
100
AcDbEntity
  8
OBJECT
  6
CONTINUOUS
 62
               0
100
AcDbPoint
 10
-774.00000449829236
 20
-686.00000000168689
 30
0.0
  0
ENDBLK
  5
297
100
AcDbEntity
  8
OBJECT
100
AcDbBlockEnd
  0
BLOCK
  5
298
100
AcDbEntity
  8
OBJECT
100
AcDbBlockBegin
  2
*U49
 70
               1
 10
0.0
 20
0.0
 30
0.0
  3
*U49
  1

  0
LINE
  5
299
100
AcDbEntity
  8
OBJECT
 62
               0
100
AcDbLine
 10
-758.50000449829236
 20
-668.50000000168689
 30
0.0
 11
-758.50000449829236
 21
-663.50000000168689
 31
0.0
  0
LINE
  5
29A
100
AcDbEntity
  8
OBJECT
 62
               0
100
AcDbLine
 10
-748.50000449829236
 20
-673.50000000168689
 30
0.0
 11
-753.50000449829236
 21
-673.50000000168689
 31
0.0
  0
LINE
  5
29B
100
AcDbEntity
  8
OBJECT
 62
               0
100
AcDbLine
 10
-743.50000449829236
 20
-663.50000000168689
 30
0.0
 11
-743.50000449829236
 21
-668.50000000168689
 31
0.0
  0
LINE
  5
29C
100
AcDbEntity
  8
OBJECT
 62
               0
100
AcDbLine
 10
-753.50000449829236
 20
-658.50000000168689
 30
0.0
 11
-748.50000449829236
 21
-658.50000000168689
 31
0.0
  0
ARC
  5
29D
100
AcDbEntity
  8
OBJECT
 62
               0
100
AcDbCircle
 10
-753.50000449829236
 20
-663.50000000168689
 30
0.0
 40
5.0
100
AcDbArc
 50
90.0
 51
180.0
  0
ARC
  5
29E
100
AcDbEntity
  8
OBJECT
 62
               0
100
AcDbCircle
 10
-753.50000449829236
 20
-668.50000000168689
 30
0.0
 40
5.0
100
AcDbArc
 50
180.0
 51
270.0
  0
ARC
  5
29F
100
AcDbEntity
  8
OBJECT
 62
               0
100
AcDbCircle
 10
-748.50000449829236
 20
-668.50000000168689
 30
0.0
 40
5.0
100
AcDbArc
 50
270.0
 51
0.0
  0
ARC
  5
2A0
100
AcDbEntity
  8
OBJECT
 62
               0
100
AcDbCircle
 10
-748.50000449829236
 20
-663.50000000168689
 30
0.0
 40
5.0
100
AcDbArc
 50
0.0
 51
90.0
  0
POINT
  5
2A1
100
AcDbEntity
  8
OBJECT
  6
CONTINUOUS
 62
               0
100
AcDbPoint
 10
-751.00000449829236
 20
-666.00000000168689
 30
0.0
  0
ENDBLK
  5
2A2
100
AcDbEntity
  8
OBJECT
100
AcDbBlockEnd
  0
BLOCK
  5
2A3
100
AcDbEntity
  8
OBJECT
100
AcDbBlockBegin
  2
*U50
 70
               1
 10
0.0
 20
0.0
 30
0.0
  3
*U50
  1

  0
LINE
  5
2A4
100
AcDbEntity
  8
OBJECT
 62
               0
100
AcDbLine
 10
-758.50000449829236
 20
-640.50000000168689
 30
0.0
 11
-758.50000449829236
 21
-635.50000000168689
 31
0.0
  0
LINE
  5
2A5
100
AcDbEntity
  8
OBJECT
 62
               0
100
AcDbLine
 10
-748.50000449829236
 20
-645.50000000168689
 30
0.0
 11
-753.50000449829236
 21
-645.50000000168689
 31
0.0
  0
LINE
  5
2A6
100
AcDbEntity
  8
OBJECT
 62
               0
100
AcDbLine
 10
-743.50000449829236
 20
-635.50000000168689
 30
0.0
 11
-743.50000449829236
 21
-640.50000000168689
 31
0.0
  0
LINE
  5
2A7
100
AcDbEntity
  8
OBJECT
 62
               0
100
AcDbLine
 10
-753.50000449829236
 20
-630.50000000168689
 30
0.0
 11
-748.50000449829236
 21
-630.50000000168689
 31
0.0
  0
ARC
  5
2A8
100
AcDbEntity
  8
OBJECT
 62
               0
100
AcDbCircle
 10
-753.50000449829236
 20
-635.50000000168689
 30
0.0
 40
5.0
100
AcDbArc
 50
90.0
 51
180.0
  0
ARC
  5
2A9
100
AcDbEntity
  8
OBJECT
 62
               0
100
AcDbCircle
 10
-753.50000449829236
 20
-640.50000000168689
 30
0.0
 40
5.0
100
AcDbArc
 50
180.0
 51
270.0
  0
ARC
  5
2AA
100
AcDbEntity
  8
OBJECT
 62
               0
100
AcDbCircle
 10
-748.50000449829236
 20
-640.50000000168689
 30
0.0
 40
5.0
100
AcDbArc
 50
270.0
 51
0.0
  0
ARC
  5
2AB
100
AcDbEntity
  8
OBJECT
 62
               0
100
AcDbCircle
 10
-748.50000449829236
 20
-635.50000000168689
 30
0.0
 40
5.0
100
AcDbArc
 50
0.0
 51
90.0
  0
POINT
  5
2AC
100
AcDbEntity
  8
OBJECT
  6
CONTINUOUS
 62
               0
100
AcDbPoint
 10
-751.00000449829236
 20
-638.00000000168689
 30
0.0
  0
ENDBLK
  5
2AD
100
AcDbEntity
  8
OBJECT
100
AcDbBlockEnd
  0
BLOCK
  5
2AE
100
AcDbEntity
  8
OBJECT
100
AcDbBlockBegin
  2
*U51
 70
               1
 10
0.0
 20
0.0
 30
0.0
  3
*U51
  1

  0
LINE
  5
2AF
100
AcDbEntity
  8
OBJECT
 62
               0
100
AcDbLine
 10
-815.99999999829265
 20
-696.50000000168689
 30
0.0
 11
-815.99999999829265
 21
-621.50000000168666
 31
0.0
  0
LINE
  5
2B0
100
AcDbEntity
  8
OBJECT
 62
               0
100
AcDbLine
 10
-794.99999999829265
 20
-701.50000000168689
 30
0.0
 11
-810.99999999829265
 21
-701.50000000168689
 31
0.0
  0
LINE
  5
2B1
100
AcDbEntity
  8
OBJECT
 62
               0
100
AcDbLine
 10
-789.99999999829265
 20
-621.50000000168666
 30
0.0
 11
-789.99999999829265
 21
-696.50000000168689
 31
0.0
  0
LINE
  5
2B2
100
AcDbEntity
  8
OBJECT
 62
               0
100
AcDbLine
 10
-810.99999999829265
 20
-616.50000000168666
 30
0.0
 11
-794.99999999829265
 21
-616.50000000168666
 31
0.0
  0
ARC
  5
2B3
100
AcDbEntity
  8
OBJECT
 62
               0
100
AcDbCircle
 10
-810.99999999829265
 20
-621.50000000168666
 30
0.0
 40
5.0
100
AcDbArc
 50
90.0
 51
180.0
  0
ARC
  5
2B4
100
AcDbEntity
  8
OBJECT
 62
               0
100
AcDbCircle
 10
-794.99999999829265
 20
-621.50000000168666
 30
0.0
 40
5.0
100
AcDbArc
 50
0.0
 51
90.0
  0
ARC
  5
2B5
100
AcDbEntity
  8
OBJECT
 62
               0
100
AcDbCircle
 10
-794.99999999829265
 20
-696.50000000168689
 30
0.0
 40
5.0
100
AcDbArc
 50
270.0
 51
0.0
  0
ARC
  5
2B6
100
AcDbEntity
  8
OBJECT
 62
               0
100
AcDbCircle
 10
-810.99999999829265
 20
-696.50000000168689
 30
0.0
 40
5.0
100
AcDbArc
 50
180.0
 51
270.0
  0
ENDBLK
  5
2B7
100
AcDbEntity
  8
OBJECT
100
AcDbBlockEnd
  0
BLOCK
  5
2B8
100
AcDbEntity
  8
OBJECT
100
AcDbBlockBegin
  2
*U52
 70
               1
 10
0.0
 20
0.0
 30
0.0
  3
*U52
  1

  0
LINE
  5
2B9
100
AcDbEntity
  8
OBJECT
 62
               0
100
AcDbLine
 10
-787.99999999829265
 20
-696.50000000168689
 30
0.0
 11
-787.99999999829265
 21
-621.50000000168666
 31
0.0
  0
LINE
  5
2BA
100
AcDbEntity
  8
OBJECT
 62
               0
100
AcDbLine
 10
-766.99999999829265
 20
-701.50000000168689
 30
0.0
 11
-782.99999999829265
 21
-701.50000000168689
 31
0.0
  0
LINE
  5
2BB
100
AcDbEntity
  8
OBJECT
 62
               0
100
AcDbLine
 10
-761.99999999829265
 20
-621.50000000168666
 30
0.0
 11
-761.99999999829265
 21
-696.50000000168689
 31
0.0
  0
LINE
  5
2BC
100
AcDbEntity
  8
OBJECT
 62
               0
100
AcDbLine
 10
-782.99999999829265
 20
-616.50000000168666
 30
0.0
 11
-766.99999999829265
 21
-616.50000000168666
 31
0.0
  0
ARC
  5
2BD
100
AcDbEntity
  8
OBJECT
 62
               0
100
AcDbCircle
 10
-782.99999999829265
 20
-621.50000000168666
 30
0.0
 40
5.0
100
AcDbArc
 50
90.0
 51
180.0
  0
ARC
  5
2BE
100
AcDbEntity
  8
OBJECT
 62
               0
100
AcDbCircle
 10
-766.99999999829265
 20
-621.50000000168666
 30
0.0
 40
5.0
100
AcDbArc
 50
0.0
 51
90.0
  0
ARC
  5
2BF
100
AcDbEntity
  8
OBJECT
 62
               0
100
AcDbCircle
 10
-766.99999999829265
 20
-696.50000000168689
 30
0.0
 40
5.0
100
AcDbArc
 50
270.0
 51
0.0
  0
ARC
  5
2C0
100
AcDbEntity
  8
OBJECT
 62
               0
100
AcDbCircle
 10
-782.99999999829265
 20
-696.50000000168689
 30
0.0
 40
5.0
100
AcDbArc
 50
180.0
 51
270.0
  0
ENDBLK
  5
2C1
100
AcDbEntity
  8
OBJECT
100
AcDbBlockEnd
  0
BLOCK
  5
2C2
100
AcDbEntity
  8
OBJECT
100
AcDbBlockBegin
  2
*U53
 70
               1
 10
0.0
 20
0.0
 30
0.0
  3
*U53
  1

  0
INSERT
  5
2C3
100
AcDbEntity
  8
OBJECT
 62
               0
100
AcDbBlockReference
  2
*U41
 10
0.0
 20
0.0
 30
0.0
  0
POLYLINE
  5
2C4
100
AcDbEntity
  8
OBJECT
 62
               0
100
AcDb2dPolyline
 66
               1
 10
0.0
 20
0.0
 30
0.0
 70
               1
 75
               5
  0
VERTEX
  5
2C5
100
AcDbEntity
  8
OBJECT
 62
               0
100
AcDbVertex
100
AcDb2dVertex
 10
-823.99999999829265
 20
-704.00000000168689
 30
0.0
  0
VERTEX
  5
2C6
100
AcDbEntity
  8
OBJECT
 62
               0
100
AcDbVertex
100
AcDb2dVertex
 10
-733.99999999829265
 20
-704.00000000168689
 30
0.0
  0
VERTEX
  5
2C7
100
AcDbEntity
  8
OBJECT
 62
               0
100
AcDbVertex
100
AcDb2dVertex
 10
-733.99999999829265
 20
-614.00000000168666
 30
0.0
  0
VERTEX
  5
2C8
100
AcDbEntity
  8
OBJECT
 62
               0
100
AcDbVertex
100
AcDb2dVertex
 10
-823.99999999829265
 20
-614.00000000168666
 30
0.0
  0
SEQEND
  5
2C9
100
AcDbEntity
  8
OBJECT
 62
               0
  0
CIRCLE
  5
2CA
100
AcDbEntity
  8
OBJECT
 62
               0
100
AcDbCircle
 10
-767.99999999829265
 20
-638.00000000168689
 30
0.0
 40
2.5
  0
CIRCLE
  5
2CB
100
AcDbEntity
  8
OBJECT
 62
               0
100
AcDbCircle
 10
-767.99999999829265
 20
-652.00000000168689
 30
0.0
 40
2.5
  0
CIRCLE
  5
2CC
100
AcDbEntity
  8
OBJECT
 62
               0
100
AcDbCircle
 10
-767.99999999829265
 20
-666.00000000168689
 30
0.0
 40
2.5
  0
CIRCLE
  5
2CD
100
AcDbEntity
  8
OBJECT
 62
               0
100
AcDbCircle
 10
-750.99999999829265
 20
-624.00000000168666
 30
0.0
 40
2.4999999999995275
  0
CIRCLE
  5
2CE
100
AcDbEntity
  8
OBJECT
 62
               0
100
AcDbCircle
 10
-795.0000039982931
 20
-624.00000000168666
 30
0.0
 40
2.5000000000000946
  0
CIRCLE
  5
2CF
100
AcDbEntity
  8
OBJECT
 62
               0
100
AcDbCircle
 10
-795.0000039982931
 20
-638.00000000168689
 30
0.0
 40
2.5
  0
CIRCLE
  5
2D0
100
AcDbEntity
  8
OBJECT
 62
               0
100
AcDbCircle
 10
-751.0000039982931
 20
-652.00000000168689
 30
0.0
 40
2.5
  0
CIRCLE
  5
2D1
100
AcDbEntity
  8
OBJECT
 62
               0
100
AcDbCircle
 10
-795.0000039982931
 20
-652.00000000168689
 30
0.0
 40
2.5000019999997676
  0
CIRCLE
  5
2D2
100
AcDbEntity
  8
OBJECT
 62
               0
100
AcDbCircle
 10
-768.00000099829299
 20
-624.00000000168666
 30
0.0
 40
2.5000000000005032
  0
INSERT
  5
2D3
100
AcDbEntity
  8
OBJECT
 62
               0
100
AcDbBlockReference
  2
*U44
 10
0.0
 20
0.0
 30
0.0
  0
INSERT
  5
2D4
100
AcDbEntity
  8
OBJECT
 62
               0
100
AcDbBlockReference
  2
*U47
 10
0.0
 20
0.0
 30
0.0
  0
CIRCLE
  5
2D5
100
AcDbEntity
  8
OBJECT
 62
               0
100
AcDbCircle
 10
-795.0000039982931
 20
-624.00000000168666
 30
0.0
 40
4.0000000000005151
  0
CIRCLE
  5
2D6
100
AcDbEntity
  8
OBJECT
 62
               0
100
AcDbCircle
 10
-795.0000039982931
 20
-638.00000000168689
 30
0.0
 40
4.0000000000005151
  0
CIRCLE
  5
2D7
100
AcDbEntity
  8
OBJECT
 62
               0
100
AcDbCircle
 10
-795.0000039982931
 20
-652.00000000168689
 30
0.0
 40
4.0000000000005151
  0
CIRCLE
  5
2D8
100
AcDbEntity
  8
OBJECT
 62
               0
100
AcDbCircle
 10
-768.00000099829299
 20
-624.00000000168666
 30
0.0
 40
4.0000000000005151
  0
CIRCLE
  5
2D9
100
AcDbEntity
  8
OBJECT
 62
               0
100
AcDbCircle
 10
-750.99999999829265
 20
-624.00000000168666
 30
0.0
 40
3.9999999999996056
  0
CIRCLE
  5
2DA
100
AcDbEntity
  8
OBJECT
 62
               0
100
AcDbCircle
 10
-751.0000039982931
 20
-652.00000000168689
 30
0.0
 40
4.0000000000005151
  0
CIRCLE
  5
2DB
100
AcDbEntity
  8
OBJECT
 62
               0
100
AcDbCircle
 10
-767.99999999829265
 20
-638.00000000168689
 30
0.0
 40
3.9999999999996056
  0
CIRCLE
  5
2DC
100
AcDbEntity
  8
OBJECT
 62
               0
100
AcDbCircle
 10
-767.99999999829265
 20
-652.00000000168689
 30
0.0
 40
3.9999999999996056
  0
CIRCLE
  5
2DD
100
AcDbEntity
  8
OBJECT
 62
               0
100
AcDbCircle
 10
-767.99999999829265
 20
-666.00000000168689
 30
0.0
 40
3.9999999999996056
  0
INSERT
  5
2DE
100
AcDbEntity
  8
OBJECT
 62
               0
100
AcDbBlockReference
  2
*U48
 10
0.0
 20
0.0
 30
0.0
  0
INSERT
  5
2DF
100
AcDbEntity
  8
OBJECT
 62
               0
100
AcDbBlockReference
  2
*U49
 10
0.0
 20
0.0
 30
0.0
  0
INSERT
  5
2E0
100
AcDbEntity
  8
OBJECT
 62
               0
100
AcDbBlockReference
  2
*U50
 10
0.0
 20
0.0
 30
0.0
  0
INSERT
  5
2E1
100
AcDbEntity
  8
OBJECT
 62
               0
100
AcDbBlockReference
  2
*U51
 10
0.0
 20
0.0
 30
0.0
  0
INSERT
  5
2E2
100
AcDbEntity
  8
OBJECT
 62
               0
100
AcDbBlockReference
  2
*U52
 10
0.0
 20
0.0
 30
0.0
  0
ENDBLK
  5
2E3
100
AcDbEntity
  8
OBJECT
100
AcDbBlockEnd
  0
BLOCK
  5
2E4
100
AcDbEntity
  8
DIMENTION
100
AcDbBlockBegin
  2
*D54
 70
               1
 10
0.0
 20
0.0
 30
0.0
  3
*D54
  1

  0
LINE
  5
2E5
100
AcDbEntity
  8
DIMENTION
 62
               0
100
AcDbLine
 10
-2.9999999627468696
 20
-669.99999999999955
 30
0.0
 11
-69.999999925493967
 21
-669.99999999999955
 31
0.0
  0
LINE
  5
2E6
100
AcDbEntity
  8
DIMENTION
 62
               0
100
AcDbLine
 10
-29.99999996274687
 20
-849.99999999999932
 30
0.0
 11
-69.999999925493967
 21
-849.99999999999932
 31
0.0
  0
LINE
  5
2E7
100
AcDbEntity
  8
DIMENTION
 62
               0
100
AcDbLine
 10
-49.999999999999773
 20
-669.99999999999955
 30
0.0
 11
-49.999999999999773
 21
-849.99999999999932
 31
0.0
  0
LINE
  5
2E8
100
AcDbEntity
  8
DIMENTION
 62
               0
100
AcDbLine
 10
-49.999999999999773
 20
-669.99999999999955
 30
0.0
 11
-41.492613140311732
 21
-701.74999999999955
 31
0.0
  0
LINE
  5
2E9
100
AcDbEntity
  8
DIMENTION
 62
               0
100
AcDbLine
 10
-49.999999999999773
 20
-669.99999999999955
 30
0.0
 11
-58.507386859687813
 21
-701.74999999999955
 31
0.0
  0
LINE
  5
2EA
100
AcDbEntity
  8
DIMENTION
 62
               0
100
AcDbLine
 10
-49.999999999999773
 20
-849.99999999999932
 30
0.0
 11
-58.507386859687813
 21
-818.24999999999932
 31
0.0
  0
LINE
  5
2EB
100
AcDbEntity
  8
DIMENTION
 62
               0
100
AcDbLine
 10
-49.999999999999773
 20
-849.99999999999932
 30
0.0
 11
-41.492613140311732
 21
-818.24999999999932
 31
0.0
  0
MTEXT
  5
2EC
100
AcDbEntity
  8
DIMENTION
 62
               0
100
AcDbMText
 10
-93.333333329607967
 20
-791.74999999999932
 30
0.0
 40
33.866666666666667
 41
0.0
 71
               1
 72
               1
  1
180
  7
________
 11
0.0
 21
1.0
 31
0.0
  0
POINT
  5
2ED
100
AcDbEntity
  8
DEFPOINTS
 62
               0
100
AcDbPoint
 10
-19.999999999999773
 20
-849.99999999999932
 30
0.0
  0
POINT
  5
2EE
100
AcDbEntity
  8
DEFPOINTS
 62
               0
100
AcDbPoint
 10
7.0000000000002274
 20
-669.99999999999955
 30
0.0
  0
POINT
  5
2EF
100
AcDbEntity
  8
DEFPOINTS
 62
               0
100
AcDbPoint
 10
-49.999999999999773
 20
-669.99999999999955
 30
0.0
  0
ENDBLK
  5
2F0
100
AcDbEntity
  8
DIMENTION
100
AcDbBlockEnd
  0
BLOCK
  5
2F1
100
AcDbEntity
  8
DIMENTION
100
AcDbBlockBegin
  2
*D55
 70
               1
 10
0.0
 20
0.0
 30
0.0
  3
*D55
  1

  0
LINE
  5
2F2
100
AcDbEntity
  8
DIMENTION
 62
               0
100
AcDbLine
 10
169.99999996274732
 20
-659.99999999999955
 30
0.0
 11
231.99999992549442
 21
-659.99999999999955
 31
0.0
  0
LINE
  5
2F3
100
AcDbEntity
  8
DIMENTION
 62
               0
100
AcDbLine
 10
139.99999996274732
 20
-849.99999999999932
 30
0.0
 11
231.99999992549442
 21
-849.99999999999932
 31
0.0
  0
LINE
  5
2F4
100
AcDbEntity
  8
DIMENTION
 62
               0
100
AcDbLine
 10
212.00000000000023
 20
-659.99999999999955
 30
0.0
 11
212.00000000000023
 21
-849.99999999999932
 31
0.0
  0
LINE
  5
2F5
100
AcDbEntity
  8
DIMENTION
 62
               0
100
AcDbLine
 10
212.00000000000023
 20
-659.99999999999955
 30
0.0
 11
220.50738685968838
 21
-691.74999999999955
 31
0.0
  0
LINE
  5
2F6
100
AcDbEntity
  8
DIMENTION
 62
               0
100
AcDbLine
 10
212.00000000000023
 20
-659.99999999999955
 30
0.0
 11
203.49261314031207
 21
-691.74999999999955
 31
0.0
  0
LINE
  5
2F7
100
AcDbEntity
  8
DIMENTION
 62
               0
100
AcDbLine
 10
212.00000000000023
 20
-849.99999999999932
 30
0.0
 11
203.49261314031207
 21
-818.24999999999932
 31
0.0
  0
LINE
  5
2F8
100
AcDbEntity
  8
DIMENTION
 62
               0
100
AcDbLine
 10
212.00000000000023
 20
-849.99999999999932
 30
0.0
 11
220.50738685968838
 21
-818.24999999999932
 31
0.0
  0
MTEXT
  5
2F9
100
AcDbEntity
  8
DIMENTION
 62
               0
100
AcDbMText
 10
168.66666667039226
 20
-786.74999999999932
 30
0.0
 40
33.866666666666667
 41
0.0
 71
               1
 72
               1
  1
190
  7
________
 11
0.0
 21
1.0
 31
0.0
  0
POINT
  5
2FA
100
AcDbEntity
  8
DEFPOINTS
 62
               0
100
AcDbPoint
 10
130.00000000000023
 20
-849.99999999999932
 30
0.0
  0
POINT
  5
2FB
100
AcDbEntity
  8
DEFPOINTS
 62
               0
100
AcDbPoint
 10
160.00000000000023
 20
-659.99999999999955
 30
0.0
  0
POINT
  5
2FC
100
AcDbEntity
  8
DEFPOINTS
 62
               0
100
AcDbPoint
 10
212.00000000000023
 20
-659.99999999999955
 30
0.0
  0
ENDBLK
  5
2FD
100
AcDbEntity
  8
DIMENTION
100
AcDbBlockEnd
  0
ENDSEC
  0
SECTION
  2
ENTITIES
  0
LINE
  5
2FE
100
AcDbEntity
  8
FRAME
100
AcDbLine
 10
-995.39999999542601
 20
-1028.9999999983124
 30
0.0
 11
-995.39999999542601
 21
1691.0000000016871
 31
0.0
  0
LINE
  5
2FF
100
AcDbEntity
  8
FRAME
100
AcDbLine
 10
3054.6000000045738
 20
-1028.9999999983124
 30
0.0
 11
-995.39999999542601
 21
-1028.9999999983124
 31
0.0
  0
LINE
  5
300
100
AcDbEntity
  8
FRAME
100
AcDbLine
 10
3054.6000000045738
 20
1691.0000000016871
 30
0.0
 11
3054.6000000045738
 21
-1028.9999999983124
 31
0.0
  0
LINE
  5
301
100
AcDbEntity
  8
FRAME
100
AcDbLine
 10
-995.39999999542601
 20
1691.0000000016871
 30
0.0
 11
3054.6000000045738
 21
1691.0000000016871
 31
0.0
  0
LINE
  5
302
100
AcDbEntity
  8
FRAME
100
AcDbLine
 10
2294.3600000045735
 20
-1028.9999999983124
 30
0.0
 11
2294.3600000045735
 21
-888.99999999831266
 31
0.0
  0
LINE
  5
303
100
AcDbEntity
  8
FRAME
100
AcDbLine
 10
2074.3600000045735
 20
-1028.9999999983124
 30
0.0
 11
2074.3600000045735
 21
-888.99999999831266
 31
0.0
  0
LINE
  5
304
100
AcDbEntity
  8
FRAME
100
AcDbLine
 10
1474.3600000045737
 20
-1028.9999999983124
 30
0.0
 11
1474.3600000045737
 21
-888.99999999831266
 31
0.0
  0
LINE
  5
305
100
AcDbEntity
  8
FRAME
100
AcDbLine
 10
354.60000000457387
 20
-1028.9999999983124
 30
0.0
 11
354.60000000457387
 21
-888.99999999831266
 31
0.0
  0
MTEXT
  5
306
100
AcDbEntity
  8
TEXT
100
AcDbMText
 10
379.36000000457386
 20
-894.12999999831254
 30
0.0
 40
28.2224
 41
109.36099999999999
 71
               1
 72
               1
  1
品　名
  7
________
  0
MTEXT
  5
307
100
AcDbEntity
  8
TEXT
100
AcDbMText
 10
1494.3600000045737
 20
-899.12999999831254
 30
0.0
 40
28.2224
 41
0.0
 71
               1
 72
               1
  1
形　式
  7
________
  0
MTEXT
  5
308
100
AcDbEntity
  8
TEXT
100
AcDbMText
 10
2099.3600000045735
 20
-899.12999999831254
 30
0.0
 40
28.2224
 41
0.0
 71
               1
 72
               1
  1
尺　度
  7
________
  0
MTEXT
  5
309
100
AcDbEntity
  8
TEXT
100
AcDbMText
 10
2319.3600000045735
 20
-899.12999999831254
 30
0.0
 40
28.2224
 41
0.0
 71
               1
 72
               1
  1
図　番
  7
________
  0
LINE
  5
30A
100
AcDbEntity
  8
FRAME
100
AcDbLine
 10
-65.399999995426015
 20
-1028.9999999983124
 30
0.0
 11
-65.399999995426015
 21
-888.99999999831266
 31
0.0
  0
MTEXT
  5
30B
100
AcDbEntity
  8
TEXT
100
AcDbMText
 10
2128.8120000045737
 20
-954.01399999831256
 30
0.0
 40
39.51111111111112
 41
0.0
 71
               1
 72
               1
  1
1：10
  7
________
  0
LINE
  5
30C
100
AcDbEntity
  8
FRAME
100
AcDbLine
 10
-995.39999999542601
 20
-888.99999999831266
 30
0.0
 11
3054.6000000045738
 21
-888.99999999831266
 31
0.0
  0
MTEXT
  5
30D
100
AcDbEntity
  8
TEXT
100
AcDbMText
 10
941.81100000457388
 20
-932.91799999831255
 30
0.0
 40
50.799999999999997
 41
0.0
 71
               1
 72
               1
  1
自動食器洗浄機
  7
________
  0
LINE
  5
30E
100
AcDbEntity
  8
FRAME
100
AcDbLine
 10
-65.399999995426015
 20
-937.93999999831249
 30
0.0
 11
354.60000000457387
 21
-937.93999999831249
 31
0.0
  0
LINE
  5
30F
100
AcDbEntity
  8
FRAME
100
AcDbLine
 10
-65.399999995426015
 20
-982.32999999831259
 30
0.0
 11
354.60000000457387
 21
-982.32999999831259
 31
0.0
  0
MTEXT
  5
310
100
AcDbEntity
  8
TEXT
100
AcDbMText
 10
1641.5861000045738
 20
-928.52139999831252
 30
0.0
 40
50.799999999999997
 41
0.0
 71
               1
 72
               1
  1
SD82E3B
  7
________
  0
MTEXT
  5
311
100
AcDbEntity
  8
TEXT
100
AcDbMText
 10
2464.0000000045738
 20
-918.83330669899397
 30
0.0
 40
67.733279999999993
 41
0.0
 71
               1
 72
               1
  1
A301-293A
  7
________
  0
MTEXT
  5
312
100
AcDbEntity
  8
TEXT
100
AcDbMText
 10
2204.766700004574
 20
1098.3866000016874
 30
0.0
 40
33.866666666666667
 41
0.0
 71
               1
 72
               1
  1
※洗剤，リンス剤及び供給装置については、\P　洗剤メーカーにご相談ください。
  7
________
  0
MTEXT
  5
313
100
AcDbEntity
  8
TEXT
100
AcDbMText
 10
-55.639999995426024
 20
-897.10879999831263
 30
0.0
 40
28.2224
 41
0.0
 71
               1
 72
               1
  1
検  図
  7
________
  0
MTEXT
  5
314
100
AcDbEntity
  8
TEXT
100
AcDbMText
 10
-55.639999995426024
 20
-942.18999999831249
 30
0.0
 40
28.2224
 41
0.0
 71
               1
 72
               1
  1
担  当
  7
________
  0
MTEXT
  5
315
100
AcDbEntity
  8
TEXT
100
AcDbMText
 10
-55.639999995426024
 20
-987.05999999831261
 30
0.0
 40
28.2224
 41
0.0
 71
               1
 72
               1
  1
年月日
  7
________
  0
MTEXT
  5
316
100
AcDbEntity
  8
TEXT
100
AcDbMText
 10
129.67599999999982
 20
-987.74485962113567
 30
0.0
 40
28.222222222222229
 41
0.0
 71
               1
 72
               1
  1
19.12.26
  7
________
  0
MTEXT
  5
317
100
AcDbEntity
  8
TEXT
100
AcDbMText
 10
143.56431111002973
 20
-943.59185962113588
 30
0.0
 40
28.222222222222229
 41
0.0
 71
               1
 72
               1
  1
下　野
  7
________
  0
MTEXT
  5
318
100
AcDbEntity
  8
TEXT
100
AcDbMText
 10
143.56431111002973
 20
-897.59185962113588
 30
0.0
 40
28.222222222222229
 41
0.0
 71
               1
 72
               1
  1
大　谷
  7
________
  0
MTEXT
  5
319
100
AcDbEntity
  8
TEXT
100
AcDbMText
 10
1409.146700004575
 20
1585.8032000016874
 30
0.0
 40
25.400000000000002
 41
0.0
 71
               1
 72
               1
  1
上部 回転ノズル\P下部 ４バルブ４アーム回転ノズル
  7
________
  0
LINE
  5
31A
100
AcDbEntity
  8
TEXT
100
AcDbLine
 10
1084.6000000045742
 20
991.00000000168734
 30
0.0
 11
1084.6000000045742
 21
1671.0000000016871
 31
0.0
  0
LINE
  5
31B
100
AcDbEntity
  8
TEXT
100
AcDbLine
 10
1084.6000000045742
 20
1671.0000000016871
 30
0.0
 11
3034.6000000045742
 21
1671.0000000016871
 31
0.0
  0
LINE
  5
31C
100
AcDbEntity
  8
TEXT
100
AcDbLine
 10
1254.6000000045742
 20
1671.0000000016871
 30
0.0
 11
1254.6000000045742
 21
1391.0000000016873
 31
0.0
  0
LINE
  5
31D
100
AcDbEntity
  8
TEXT
100
AcDbLine
 10
1384.6000000045742
 20
1671.0000000016871
 30
0.0
 11
1384.6000000045742
 21
991.00000000168734
 31
0.0
  0
LINE
  5
31E
100
AcDbEntity
  8
TEXT
100
AcDbLine
 10
2104.6000000045742
 20
991.00000000168734
 30
0.0
 11
2104.6000000045742
 21
1671.0000000016871
 31
0.0
  0
LINE
  5
31F
100
AcDbEntity
  8
TEXT
100
AcDbLine
 10
3034.6000000045742
 20
1671.0000000016871
 30
0.0
 11
3034.6000000045742
 21
1151.0000000016873
 31
0.0
  0
LINE
  5
320
100
AcDbEntity
  8
TEXT
100
AcDbLine
 10
2414.6000000045742
 20
1671.0000000016871
 30
0.0
 11
2414.6000000045742
 21
1151.0000000016873
 31
0.0
  0
MTEXT
  5
321
100
AcDbEntity
  8
TEXT
100
AcDbMText
 10
1102.2389000045741
 20
1646.7500000016871
 30
0.0
 40
25.400000000000002
 41
0.0
 71
               1
 72
               1
  1
洗浄方式
  7
________
  0
MTEXT
  5
322
100
AcDbEntity
  8
TEXT
100
AcDbMText
 10
1268.9497000045749
 20
1645.6921000016873
 30
0.0
 40
25.400000000000002
 41
0.0
 71
               1
 72
               1
  1
洗　浄
  7
________
  0
MTEXT
  5
323
100
AcDbEntity
  8
TEXT
100
AcDbMText
 10
1268.9497000045749
 20
1566.5000000016871
 30
0.0
 40
25.400000000000002
 41
0.0
 71
               1
 72
               1
  1
すすぎ
  7
________
  0
MTEXT
  5
324
100
AcDbEntity
  8
TEXT
100
AcDbMText
 10
1409.146700004575
 20
1667.2199000016872
 30
0.0
 40
25.400000000000002
 41
0.0
 71
               1
 72
               1
  1
上部 回転ノズル\P下部 回転ノズル
  7
________
  0
MTEXT
  5
325
100
AcDbEntity
  8
TEXT
100
AcDbMText
 10
1097.2407000045741
 20
1501.4143000016873
 30
0.0
 40
25.400000000000002
 41
0.0
 71
               1
 72
               1
  1
洗浄時間
  7
________
  0
MTEXT
  5
326
100
AcDbEntity
  8
TEXT
100
AcDbMText
 10
1101.2300000045743
 20
1388.1366000016872
 30
0.0
 40
25.400000000000002
 41
0.0
 71
               1
 72
               1
  1
ラ ッ ク 処 理 数
  7
________
  0
MTEXT
  5
327
100
AcDbEntity
  8
TEXT
100
AcDbMText
 10
1101.2300000045743
 20
1263.7477000016872
 30
0.0
 40
25.400000000000002
 41
0.0
 71
               1
 72
               1
  1
必要給水(湯)能力
  7
________
  0
MTEXT
  5
328
100
AcDbEntity
  8
TEXT
100
AcDbMText
 10
1097.2407000045741
 20
1105.355500001687
 30
0.0
 40
25.400000000000002
 41
0.0
 71
               1
 72
               1
  1
すすぎ湯消費量
  7
________
  0
MTEXT
  5
329
100
AcDbEntity
  8
TEXT
100
AcDbMText
 10
2125.8749932712972
 20
1665.375
 30
0.0
 40
25.400000000000002
 41
0.0
 71
               1
 72
               1
  1
洗　　浄　　槽
  7
________
  0
MTEXT
  5
32A
100
AcDbEntity
  8
TEXT
100
AcDbMText
 10
2120.6000000045742
 20
1545.9699000016874
 30
0.0
 40
25.400000000000002
 41
0.0
 71
               1
 72
               1
  1
すすぎ湯タンク
  7
________
  0
MTEXT
  5
32B
100
AcDbEntity
  8
TEXT
100
AcDbMText
 10
1411.2111000045743
 20
1388.1366000016872
 30
0.0
 40
25.400000000000002
 41
0.0
 71
               1
 72
               1
  1
　短　：60ﾗｯｸ／ h（500 mm角形ラック）\P標　準：55ﾗｯｸ／ h（500 mm角形ラック）\P　長　：40ﾗｯｸ／ h（500 mm角形ラック）\P
  7
________
  0
MTEXT
  5
32C
100
AcDbEntity
  8
TEXT
100
AcDbMText
 10
1411.2111000045743
 20
1261.4722000016875
 30
0.0
 40
25.400000000000002
 41
0.0
 71
               1
 72
               1
  1
温　　度：69 ℃以上\P流　　量：3.4 L／ min以上\P給  湯  圧：49.1kPa ～491kPa\P　　　　　（0.5 ～ 5.0 kgf／ cm ）
  7
________
  0
MTEXT
  5
32D
100
AcDbEntity
  8
TEXT
100
AcDbMText
 10
1407.6834000045747
 20
1104.0532000016872
 30
0.0
 40
25.400000000000002
 41
0.0
 71
               1
 72
               1
  1
　短　：2.2 L／ ﾗｯｸ\P標　準：2.8 L／ ﾗｯｸ\P　長　：3.0 L／ ﾗｯｸ
  7
________
  0
MTEXT
  5
32E
100
AcDbEntity
  8
TEXT
100
AcDbMText
 10
2434.491820195256
 20
1665.3888000016877
 30
0.0
 40
25.400000000000002
 41
0.0
 71
               1
 72
               1
  1
容　　量：42 L\P加熱方式：すすぎタンク熱伝導式
  7
________
  0
MTEXT
  5
32F
100
AcDbEntity
  8
TEXT
100
AcDbMText
 10
2431.0445000045747
 20
1545.9699000016874
 30
0.0
 40
25.400000000000002
 41
0.0
 71
               1
 72
               1
  1
容　　量：13 L（有効　5 L）\P加熱方式：電気ヒータ ー 3.0 kW\P温度制御：サーミスター方式（85 ℃）
  7
________
  0
MTEXT
  5
330
100
AcDbEntity
  8
TEXT
100
AcDbMText
 10
2120.6000000045742
 20
1385.8199000016873
 30
0.0
 40
25.400000000000002
 41
0.0
 71
               1
 72
               1
  1
洗  浄  ポ  ン  プ
  7
________
  0
MTEXT
  5
331
100
AcDbEntity
  8
TEXT
100
AcDbMText
 10
2120.6000000045742
 20
1347.3464741305536
 30
0.0
 40
25.400000000000002
 41
0.0
 71
               1
 72
               1
  1
すすぎ ポ ン プ
  7
________
  0
MTEXT
  5
332
100
AcDbEntity
  8
TEXT
100
AcDbMText
 10
2120.6000000045742
 20
1305.9421000016875
 30
0.0
 40
25.400000000000002
 41
0.0
 71
               1
 72
               1
  1
電　　　　　源
  7
________
  0
MTEXT
  5
333
100
AcDbEntity
  8
TEXT
100
AcDbMText
 10
2120.6000000045742
 20
1265.2779999971578
 30
0.0
 40
25.400000000000002
 41
0.0
 71
               1
 72
               1
  1
消　費　電　力
  7
________
  0
MTEXT
  5
334
100
AcDbEntity
  8
TEXT
100
AcDbMText
 10
2120.6000000045742
 20
1186.6366000016872
 30
0.0
 40
25.400000000000002
 41
0.0
 71
               1
 72
               1
  1
質　　　　　量
  7
________
  0
MTEXT
  5
335
100
AcDbEntity
  8
TEXT
100
AcDbMText
 10
2431.0445000045747
 20
1385.8199000016873
 30
0.0
 40
25.400000000000002
 41
0.0
 71
               1
 72
               1
  1
電動機定格出力　400 W
  7
________
  0
MTEXT
  5
336
100
AcDbEntity
  8
TEXT
100
AcDbMText
 10
2431.0445000045747
 20
1346.3464741305536
 30
0.0
 40
25.400000000000002
 41
0.0
 71
               1
 72
               1
  1
電動機定格出力　90 W
  7
________
  0
MTEXT
  5
337
100
AcDbEntity
  8
TEXT
100
AcDbMText
 10
2431.0445000045747
 20
1305.3750000034099
 30
0.0
 40
25.400000000000002
 41
0.0
 71
               1
 72
               1
  1
三相 200 V　50・60 Hz
  7
________
  0
MTEXT
  5
338
100
AcDbEntity
  8
TEXT
100
AcDbMText
 10
2431.0445000045747
 20
1265.3750000034099
 30
0.0
 40
25.400000000000002
 41
0.0
 71
               1
 72
               1
  1
3.7 kW
  7
________
  0
MTEXT
  5
339
100
AcDbEntity
  8
TEXT
100
AcDbMText
 10
2431.0445000045747
 20
1185.3750000034104
 30
0.0
 40
25.400000000000002
 41
0.0
 71
               1
 72
               1
  1
85 kg
  7
________
  0
MTEXT
  5
33A
100
AcDbEntity
  8
TEXT
100
AcDbMText
 10
2120.6000000045742
 20
1226.0532000016872
 30
0.0
 40
25.400000000000002
 41
0.0
 71
               1
 72
               1
  1
最  大  電  流  値
  7
________
  0
MTEXT
  5
33B
100
AcDbEntity
  8
TEXT
100
AcDbMText
 10
2431.0445000045747
 20
1225.8750000034099
 30
0.0
 40
25.400000000000002
 41
0.0
 71
               1
 72
               1
  1
11.0 A
  7
________
  0
MTEXT
  5
33C
100
AcDbEntity
  8
TEXT
100
AcDbMText
 10
1788.0902777777778
 20
1143.5601081509969
 30
0.0
 40
14.111111111111112
 41
0.0
 71
               1
 72
               1
  1
2
  7
________
  0
LINE
  5
33D
100
AcDbEntity
  8
TEXT
100
AcDbLine
 10
1254.6000000045742
 20
1591.0000000016871
 30
0.0
 11
2104.6000000045742
 21
1591.0000000016871
 31
0.0
  0
LINE
  5
33E
100
AcDbEntity
  8
TEXT
100
AcDbLine
 10
1084.6000000045742
 20
1511.0000000016873
 30
0.0
 11
2104.6000000045742
 21
1511.0000000016873
 31
0.0
  0
LINE
  5
33F
100
AcDbEntity
  8
TEXT
100
AcDbLine
 10
1084.6000000045742
 20
1391.0000000016873
 30
0.0
 11
2104.6000000045742
 21
1391.0000000016873
 31
0.0
  0
LINE
  5
340
100
AcDbEntity
  8
TEXT
100
AcDbLine
 10
1084.6000000045742
 20
1271.0000000016873
 30
0.0
 11
2104.6000000045742
 21
1271.0000000016873
 31
0.0
  0
LINE
  5
341
100
AcDbEntity
  8
TEXT
100
AcDbLine
 10
1084.6000000045742
 20
1111.0000000016873
 30
0.0
 11
2104.6000000045742
 21
1111.0000000016873
 31
0.0
  0
LINE
  5
342
100
AcDbEntity
  8
TEXT
100
AcDbLine
 10
1084.6000000045742
 20
991.00000000168734
 30
0.0
 11
2104.6000000045742
 21
991.00000000168734
 31
0.0
  0
MTEXT
  5
343
100
AcDbEntity
  8
TEXT
100
AcDbMText
 10
1405.9008000045751
 20
1505.9422000033744
 30
0.0
 40
25.400000000000002
 41
0.0
 71
               1
 72
               1
  1
1ラック60秒  洗浄50秒、水切5秒、すすぎ5秒\P1ラック65秒  洗浄54秒、水切5秒、すすぎ6秒\P1ラック90秒  洗浄78秒、水切5秒、すすぎ7秒
  7
________
  0
MTEXT
  5
344
100
AcDbEntity
  8
TEXT
100
AcDbMText
 10
1286.4497000045749
 20
1503.3750000016873
 30
0.0
 40
25.400000000000002
 41
0.0
 71
               1
 72
               1
  1
 短 \P標準\P 長 
  7
________
  0
LINE
  5
345
100
AcDbEntity
  8
TEXT
100
AcDbLine
 10
2104.6000000045742
 20
1551.0000000016871
 30
0.0
 11
3034.6000000045742
 21
1551.0000000016871
 31
0.0
  0
LINE
  5
346
100
AcDbEntity
  8
TEXT
100
AcDbLine
 10
2104.6000000045742
 20
1391.0000000016873
 30
0.0
 11
3034.6000000045742
 21
1391.0000000016873
 31
0.0
  0
LINE
  5
347
100
AcDbEntity
  8
TEXT
100
AcDbLine
 10
2104.6000000045742
 20
1351.0000000016873
 30
0.0
 11
3034.6000000045742
 21
1351.0000000016873
 31
0.0
  0
LINE
  5
348
100
AcDbEntity
  8
TEXT
100
AcDbLine
 10
2104.6000000045742
 20
1311.0000000016873
 30
0.0
 11
3034.6000000045742
 21
1311.0000000016873
 31
0.0
  0
LINE
  5
349
100
AcDbEntity
  8
TEXT
100
AcDbLine
 10
2104.6000000045742
 20
1311.0000000016873
 30
0.0
 11
3034.6000000045742
 21
1311.0000000016873
 31
0.0
  0
LINE
  5
34A
100
AcDbEntity
  8
TEXT
100
AcDbLine
 10
2104.6000000045742
 20
1271.0000000016873
 30
0.0
 11
3034.6000000045742
 21
1271.0000000016873
 31
0.0
  0
LINE
  5
34B
100
AcDbEntity
  8
TEXT
100
AcDbLine
 10
2104.6000000045742
 20
1231.0000000016873
 30
0.0
 11
3034.6000000045742
 21
1231.0000000016873
 31
0.0
  0
LINE
  5
34C
100
AcDbEntity
  8
TEXT
100
AcDbLine
 10
2104.6000000045742
 20
1191.0000000016873
 30
0.0
 11
3034.6000000045742
 21
1191.0000000016873
 31
0.0
  0
LINE
  5
34D
100
AcDbEntity
  8
TEXT
100
AcDbLine
 10
2104.6000000045742
 20
1151.0000000016873
 30
0.0
 11
3034.6000000045742
 21
1151.0000000016873
 31
0.0
  0
INSERT
  5
34E
100
AcDbEntity
  8
FRAME
100
AcDbBlockReference
  2
*U6
 10
1030.0000000045738
 20
380.0000000016874
 30
0.0
  0
LINE
  5
34F
100
AcDbEntity
  8
OBJECT
100
AcDbLine
 10
1000.0000000000002
 20
-850.0
 30
0.0
 11
2300.0
 21
-850.0
 31
0.0
  0
POLYLINE
  5
350
100
AcDbEntity
  8
OBJECT
100
AcDb2dPolyline
 66
               1
 10
0.0
 20
0.0
 30
0.0
 70
               1
 75
               5
  0
VERTEX
  5
351
100
AcDbEntity
  8
OBJECT
100
AcDbVertex
100
AcDb2dVertex
 10
1564.9146341463422
 20
-209.99999999999994
 30
0.0
  0
VERTEX
  5
352
100
AcDbEntity
  8
OBJECT
100
AcDbVertex
100
AcDb2dVertex
 10
1566.9146341463422
 20
-209.99999999999994
 30
0.0
  0
VERTEX
  5
353
100
AcDbEntity
  8
OBJECT
100
AcDbVertex
100
AcDb2dVertex
 10
1569.9146341463422
 20
-209.99999999999994
 30
0.0
  0
VERTEX
  5
354
100
AcDbEntity
  8
OBJECT
100
AcDbVertex
100
AcDb2dVertex
 10
1569.9146341463422
 20
-211.99999999999994
 30
0.0
  0
VERTEX
  5
355
100
AcDbEntity
  8
OBJECT
100
AcDbVertex
100
AcDb2dVertex
 10
1566.9146341463422
 20
-211.99999999999994
 30
0.0
  0
VERTEX
  5
356
100
AcDbEntity
  8
OBJECT
100
AcDbVertex
100
AcDb2dVertex
 10
1566.9146341463422
 20
-219.99999999999994
 30
0.0
  0
VERTEX
  5
357
100
AcDbEntity
  8
OBJECT
100
AcDbVertex
100
AcDb2dVertex
 10
1564.9146341463422
 20
-219.99999999999994
 30
0.0
  0
SEQEND
  5
358
100
AcDbEntity
  8
OBJECT
  0
LWPOLYLINE
  5
359
100
AcDbEntity
  8
OBJECT
100
AcDbPolyline
 90
        6
 70
             129
 10
1569.9146341463422
 20
-211.99999999999994
 10
1572.9146341463422
 20
-211.99999999999994
 42
-0.414213562373095
 10
1575.9146341463422
 20
-214.99999999999994
 10
1575.9146341463422
 20
-626.99999999999955
 42
-0.414213562373095
 10
1572.9146341463422
 20
-629.99999999999955
 10
1569.9146341463422
 20
-629.99999999999955
  0
LINE
  5
35A
100
AcDbEntity
  8
OBJECT
100
AcDbLine
 10
1564.9146341463422
 20
-209.99999999999994
 30
0.0
 11
1779.9146341463422
 21
-209.99999999999994
 31
0.0
  0
LINE
  5
35B
100
AcDbEntity
  8
OBJECT
100
AcDbLine
 10
1564.9146341463422
 20
-54.999999999999716
 30
0.0
 11
1564.9146341463422
 21
-209.99999999999994
 31
0.0
  0
POLYLINE
  5
35C
100
AcDbEntity
  8
OBJECT
100
AcDb2dPolyline
 66
               1
 10
0.0
 20
0.0
 30
0.0
 70
               1
 75
               5
  0
VERTEX
  5
35D
100
AcDbEntity
  8
OBJECT
100
AcDbVertex
100
AcDb2dVertex
 10
-211.99999999999977
 20
1460.0000000000005
 30
0.0
  0
VERTEX
  5
35E
100
AcDbEntity
  8
OBJECT
100
AcDbVertex
100
AcDb2dVertex
 10
412.00000000000023
 20
1460.0000000000005
 30
0.0
  0
VERTEX
  5
35F
100
AcDbEntity
  8
OBJECT
100
AcDbVertex
100
AcDb2dVertex
 10
412.00000000000023
 20
855.00000000000023
 30
0.0
  0
VERTEX
  5
360
100
AcDbEntity
  8
OBJECT
100
AcDbVertex
100
AcDb2dVertex
 10
400.00000000000023
 20
843.00000000000023
 30
0.0
  0
VERTEX
  5
361
100
AcDbEntity
  8
OBJECT
100
AcDbVertex
100
AcDb2dVertex
 10
-199.99999999999977
 20
843.00000000000023
 30
0.0
  0
VERTEX
  5
362
100
AcDbEntity
  8
OBJECT
100
AcDbVertex
100
AcDb2dVertex
 10
-211.99999999999977
 20
855.00000000000023
 30
0.0
  0
SEQEND
  5
363
100
AcDbEntity
  8
OBJECT
  0
POLYLINE
  5
364
100
AcDbEntity
  8
OBJECT
100
AcDb2dPolyline
 66
               1
 10
0.0
 20
0.0
 30
0.0
 70
               1
 75
               5
  0
VERTEX
  5
365
100
AcDbEntity
  8
OBJECT
100
AcDbVertex
100
AcDb2dVertex
 10
-199.99999999999977
 20
1460.0000000000005
 30
0.0
  0
VERTEX
  5
366
100
AcDbEntity
  8
OBJECT
100
AcDbVertex
100
AcDb2dVertex
 10
400.00000000000023
 20
1460.0000000000005
 30
0.0
  0
VERTEX
  5
367
100
AcDbEntity
  8
OBJECT
100
AcDbVertex
100
AcDb2dVertex
 10
400.00000000000023
 20
855.00000000000023
 30
0.0
  0
VERTEX
  5
368
100
AcDbEntity
  8
OBJECT
100
AcDbVertex
100
AcDb2dVertex
 10
-199.99999999999977
 20
855.00000000000023
 30
0.0
  0
SEQEND
  5
369
100
AcDbEntity
  8
OBJECT
  0
LINE
  5
36A
100
AcDbEntity
  8
CENTER
100
AcDbLine
 10
100.00000000000023
 20
1507.5000000000005
 30
0.0
 11
100.00000000000023
 21
807.50000000000023
 31
0.0
  0
LINE
  5
36B
100
AcDbEntity
  8
CENTER
100
AcDbLine
 10
-9.9999999999997726
 20
1275.0000000000005
 30
0.0
 11
70.000000000000227
 21
1275.0000000000005
 31
0.0
  0
LINE
  5
36C
100
AcDbEntity
  8
CENTER
100
AcDbLine
 10
30.000000000000227
 20
1315.0000000000005
 30
0.0
 11
30.000000000000227
 21
1235.0000000000005
 31
0.0
  0
POLYLINE
  5
36D
100
AcDbEntity
  8
OBJECT
100
AcDb2dPolyline
 66
               1
 10
0.0
 20
0.0
 30
0.0
 70
               1
 75
               5
  0
VERTEX
  5
36E
100
AcDbEntity
  8
OBJECT
100
AcDbVertex
100
AcDb2dVertex
 10
-195.99999999999977
 20
1411.0000000000005
 30
0.0
  0
VERTEX
  5
36F
100
AcDbEntity
  8
OBJECT
100
AcDbVertex
100
AcDb2dVertex
 10
-199.99999999999977
 20
1415.0000000000005
 30
0.0
  0
VERTEX
  5
370
100
AcDbEntity
  8
OBJECT
100
AcDbVertex
100
AcDb2dVertex
 10
-199.99999999999977
 20
1460.0000000000005
 30
0.0
  0
VERTEX
  5
371
100
AcDbEntity
  8
OBJECT
100
AcDbVertex
100
AcDb2dVertex
 10
400.00000000000023
 20
1460.0000000000005
 30
0.0
  0
VERTEX
  5
372
100
AcDbEntity
  8
OBJECT
100
AcDbVertex
100
AcDb2dVertex
 10
400.00000000000023
 20
1415.0000000000005
 30
0.0
  0
VERTEX
  5
373
100
AcDbEntity
  8
OBJECT
100
AcDbVertex
100
AcDb2dVertex
 10
396.00000000000023
 20
1411.0000000000005
 30
0.0
  0
VERTEX
  5
374
100
AcDbEntity
  8
OBJECT
100
AcDbVertex
100
AcDb2dVertex
 10
393.1715999999999
 20
1413.8284000000003
 30
0.0
  0
VERTEX
  5
375
100
AcDbEntity
  8
OBJECT
100
AcDbVertex
100
AcDb2dVertex
 10
396.00000000000023
 20
1416.6568000000002
 30
0.0
  0
VERTEX
  5
376
100
AcDbEntity
  8
OBJECT
100
AcDbVertex
100
AcDb2dVertex
 10
396.00000000000023
 20
1456.0000000000005
 30
0.0
  0
VERTEX
  5
377
100
AcDbEntity
  8
OBJECT
100
AcDbVertex
100
AcDb2dVertex
 10
-195.99999999999977
 20
1456.0000000000005
 30
0.0
  0
VERTEX
  5
378
100
AcDbEntity
  8
OBJECT
100
AcDbVertex
100
AcDb2dVertex
 10
-195.99999999999977
 20
1416.6568000000002
 30
0.0
  0
VERTEX
  5
379
100
AcDbEntity
  8
OBJECT
100
AcDbVertex
100
AcDb2dVertex
 10
-193.17159999999944
 20
1413.8284000000003
 30
0.0
  0
SEQEND
  5
37A
100
AcDbEntity
  8
OBJECT
  0
POLYLINE
  5
37B
100
AcDbEntity
  8
OBJECT
100
AcDb2dPolyline
 66
               1
 10
0.0
 20
0.0
 30
0.0
 75
               5
  0
VERTEX
  5
37C
100
AcDbEntity
  8
OBJECT
100
AcDbVertex
100
AcDb2dVertex
 10
195.39539999999965
 20
1443.0000000000005
 30
0.0
  0
VERTEX
  5
37D
100
AcDbEntity
  8
OBJECT
100
AcDbVertex
100
AcDb2dVertex
 10
-189.99999999999977
 20
1443.0000000000005
 30
0.0
  0
VERTEX
  5
37E
100
AcDbEntity
  8
OBJECT
100
AcDbVertex
100
AcDb2dVertex
 10
-189.99999999999977
 20
865.00000000000023
 30
0.0
  0
VERTEX
  5
37F
100
AcDbEntity
  8
OBJECT
100
AcDbVertex
100
AcDb2dVertex
 10
390.00000000000023
 20
865.00000000000023
 30
0.0
  0
VERTEX
  5
380
100
AcDbEntity
  8
OBJECT
100
AcDbVertex
100
AcDb2dVertex
 10
390.00000000000023
 20
1443.0000000000005
 30
0.0
  0
VERTEX
  5
381
100
AcDbEntity
  8
OBJECT
100
AcDbVertex
100
AcDb2dVertex
 10
214.60470000000009
 20
1443.0000000000005
 30
0.0
  0
SEQEND
  5
382
100
AcDbEntity
  8
OBJECT
  0
LINE
  5
383
100
AcDbEntity
  8
OBJECT
100
AcDbLine
 10
-399.99999999999977
 20
-850.0
 30
0.0
 11
500.00000000000023
 21
-850.0
 31
0.0
  0
POLYLINE
  5
384
100
AcDbEntity
  8
OBJECT
100
AcDb2dPolyline
 66
               1
 10
0.0
 20
0.0
 30
0.0
 70
               1
 75
               5
  0
VERTEX
  5
385
100
AcDbEntity
  8
OBJECT
100
AcDbVertex
100
AcDb2dVertex
 10
-199.99999999999977
 20
-64.999999999999716
 30
0.0
  0
VERTEX
  5
386
100
AcDbEntity
  8
OBJECT
100
AcDbVertex
100
AcDb2dVertex
 10
400.00000000000023
 20
-64.999999999999716
 30
0.0
  0
VERTEX
  5
387
100
AcDbEntity
  8
OBJECT
100
AcDbVertex
100
AcDb2dVertex
 10
400.00000000000023
 20
-209.99999999999994
 30
0.0
  0
VERTEX
  5
388
100
AcDbEntity
  8
OBJECT
100
AcDbVertex
100
AcDb2dVertex
 10
-199.99999999999977
 20
-209.99999999999994
 30
0.0
  0
SEQEND
  5
389
100
AcDbEntity
  8
OBJECT
  0
LWPOLYLINE
  5
38A
100
AcDbEntity
  8
OBJECT
100
AcDbPolyline
 90
        6
 70
             129
 10
-199.99999999999977
 20
-209.99999999999994
 10
400.00000000000023
 20
-209.99999999999994
 10
400.00000000000023
 20
-214.99999999999994
 42
-0.414213562373095
 10
395.00000000000023
 20
-219.99999999999994
 10
-194.99999999999977
 20
-219.99999999999994
 42
-0.414213562373095
 10
-199.99999999999977
 20
-214.99999999999994
  0
LINE
  5
38B
100
AcDbEntity
  8
CENTER
100
AcDbLine
 10
100.00000000000023
 20
570.00000000000023
 30
0.0
 11
100.00000000000023
 21
-871.0
 31
0.0
  0
LINE
  5
38C
100
AcDbEntity
  8
OBJECT
100
AcDbLine
 10
-499.99999999999977
 20
1510.0000000000005
 30
0.0
 11
600.00000000000023
 21
1510.0000000000005
 31
0.0
  0
LINE
  5
38D
100
AcDbEntity
  8
CENTER
100
AcDbLine
 10
478.00000000000023
 20
1150.0000000000002
 30
0.0
 11
-285.99999999999977
 21
1150.0000000000002
 31
0.0
  0
LINE
  5
38E
100
AcDbEntity
  8
OBJECT
100
AcDbLine
 10
-199.99999999999977
 20
1460.0000000000005
 30
0.0
 11
-199.99999999999977
 21
1472.0000000000005
 31
0.0
  0
LINE
  5
38F
100
AcDbEntity
  8
OBJECT
100
AcDbLine
 10
400.00000000000023
 20
1460.0000000000005
 30
0.0
 11
-199.99999999999977
 21
1460.0000000000005
 31
0.0
  0
POLYLINE
  5
390
100
AcDbEntity
  8
OBJECT
100
AcDb2dPolyline
 66
               1
 10
0.0
 20
0.0
 30
0.0
 75
               5
  0
VERTEX
  5
391
100
AcDbEntity
  8
OBJECT
100
AcDbVertex
100
AcDb2dVertex
 10
400.00000000000023
 20
-214.17939999999993
 30
0.0
  0
VERTEX
  5
392
100
AcDbEntity
  8
OBJECT
100
AcDbVertex
100
AcDb2dVertex
 10
400.00000000000023
 20
-629.99999999999955
 30
0.0
  0
VERTEX
  5
393
100
AcDbEntity
  8
OBJECT
100
AcDbVertex
100
AcDb2dVertex
 10
-199.99999999999977
 20
-629.99999999999955
 30
0.0
  0
VERTEX
  5
394
100
AcDbEntity
  8
OBJECT
100
AcDbVertex
100
AcDb2dVertex
 10
-199.99999999999977
 20
-214.17939999999993
 30
0.0
  0
SEQEND
  5
395
100
AcDbEntity
  8
OBJECT
  0
LINE
  5
396
100
AcDbEntity
  8
OBJECT
100
AcDbLine
 10
1569.9146341463422
 20
-629.99999999999955
 30
0.0
 11
2109.914634146342
 21
-629.99999999999955
 31
0.0
  0
INSERT
  5
397
100
AcDbEntity
  8
OBJECT
100
AcDbBlockReference
  2
*U7
 10
1030.0000000045738
 20
380.0000000016874
 30
0.0
  0
LINE
  5
398
100
AcDbEntity
  8
OBJECT
100
AcDbLine
 10
-307.99999999999977
 20
-695.0
 30
0.0
 11
-190.49999999999977
 21
-695.0
 31
0.0
  0
LINE
  5
399
100
AcDbEntity
  8
OBJECT
100
AcDbLine
 10
-190.49999999999977
 20
-685.0
 30
0.0
 11
-307.99999999999977
 21
-685.0
 31
0.0
  0
INSERT
  5
39A
100
AcDbEntity
  8
OBJECT
100
AcDbBlockReference
  2
*U10
 10
1030.0000000045738
 20
380.0000000016874
 30
0.0
  0
LWPOLYLINE
  5
39B
100
AcDbEntity
  8
OBJECT
100
AcDbPolyline
 90
        5
 70
             129
 10
157.00000000000023
 20
1492.0000000000005
 42
0.414213562373095
 10
150.00000000000023
 20
1499.0000000000005
 42
0.414213562373095
 10
143.00000000000023
 20
1492.0000000000005
 10
143.00000000000023
 20
1472.0000000000005
 10
157.00000000000023
 20
1472.0000000000005
  0
LINE
  5
39C
100
AcDbEntity
  8
OBJECT
100
AcDbLine
 10
-199.99999999999977
 20
1472.0000000000005
 30
0.0
 11
400.00000000000023
 21
1472.0000000000005
 31
0.0
  0
LINE
  5
39D
100
AcDbEntity
  8
OBJECT
100
AcDbLine
 10
2169.914634146342
 20
-489.99999999999949
 30
0.0
 11
2169.914634146342
 21
-54.999999999999716
 31
0.0
  0
DIMENSION
  5
39E
100
AcDbEntity
  8
DIMENTION
100
AcDbDimension
  2
*D11
 10
-299.99999999999977
 20
1150.0000000000002
 30
0.0
 11
-299.99999999999977
 21
1002.5000000000002
 31
0.0
  3
CAD
100
AcDbAlignedDimension
 13
-207.99999999999977
 23
855.00000000000023
 33
0.0
 14
-216.99999999999977
 24
1150.0000000000002
 34
0.0
 50
90.0
100
AcDbRotatedDimension
1001
ACAD
1000
DSTYLE
1002
{
1070
             271
1070
               0
1070
             340
1005
54
1070
             147
1040
5.0
1002
}
  0
DIMENSION
  5
39F
100
AcDbEntity
  8
DIMENTION
100
AcDbDimension
  2
*D12
 10
-49.999999999999773
 20
1275.0000000000005
 30
0.0
 11
-49.999999999999773
 21
1212.5000000000005
 31
0.0
  3
CAD
100
AcDbAlignedDimension
 13
26.717300000000478
 23
1150.0000000000002
 33
0.0
 14
5.0000000000002274
 24
1275.0000000000005
 34
0.0
 50
90.0
100
AcDbRotatedDimension
1001
ACAD
1000
DSTYLE
1002
{
1070
             271
1070
               0
1070
             340
1005
54
1070
             147
1040
5.0
1002
}
  0
DIMENSION
  5
3A0
100
AcDbEntity
  8
DIMENTION
100
AcDbDimension
  2
*D13
 10
100.00000000000023
 20
1200.0000000000005
 30
0.0
 11
65.000000000000227
 21
1200.0000000000005
 31
0.0
  3
CAD
100
AcDbAlignedDimension
 13
30.000000000000227
 23
1275.0000000000005
 33
0.0
 14
100.00000000000023
 24
1255.0000000000005
 34
0.0
100
AcDbRotatedDimension
1001
ACAD
1000
DSTYLE
1002
{
1070
             271
1070
               0
1070
             340
1005
54
1070
             147
1040
5.0
1002
}
  0
DIMENSION
  5
3A1
100
AcDbEntity
  8
DIMENTION
100
AcDbDimension
  2
*D14
 10
-399.99999999999977
 20
855.00000000000023
 30
0.0
 11
-399.99999999999977
 21
1157.5000000000005
 31
0.0
  3
CAD
100
AcDbAlignedDimension
 13
-206.99999999999977
 23
1460.0000000000005
 33
0.0
 14
-206.99999999999977
 24
855.00000000000023
 34
0.0
 50
90.0
100
AcDbRotatedDimension
1001
ACAD
1000
DSTYLE
1002
{
1070
             271
1070
               0
1070
             340
1005
54
1070
             147
1040
5.0
1002
}
  0
DIMENSION
  5
3A2
100
AcDbEntity
  8
DIMENTION
100
AcDbDimension
  2
*D15
 10
-399.99999999999977
 20
843.00000000000023
 30
0.0
 11
-404.99999999999977
 21
800.00000000000023
 31
0.0
 70
             128
  3
CAD
100
AcDbAlignedDimension
 13
-218.99999999999977
 23
855.00000000000023
 33
0.0
 14
-195.99999999999977
 24
843.00000000000023
 34
0.0
 50
90.0
100
AcDbRotatedDimension
1001
ACAD
1000
DSTYLE
1002
{
1070
             271
1070
               0
1070
             340
1005
54
1070
             174
1070
               0
1070
             147
1040
5.0
1002
}
  0
DIMENSION
  5
3A3
100
AcDbEntity
  8
DIMENTION
100
AcDbDimension
  2
*D16
 10
-199.99999999999977
 20
750.0
 30
0.0
 11
103.71704101562523
 21
755.0
 31
0.0
 70
             128
  3
CAD
100
AcDbAlignedDimension
 13
400.00000000000023
 23
843.00000000000023
 33
0.0
 14
-199.99999999999977
 24
843.00000000000023
 34
0.0
100
AcDbRotatedDimension
1001
ACAD
1000
DSTYLE
1002
{
1070
             271
1070
               0
1070
             340
1005
54
1070
             147
1040
5.0
1002
}
  0
DIMENSION
  5
3A4
100
AcDbEntity
  8
DIMENTION
100
AcDbDimension
  2
*D17
 10
-399.99999999999977
 20
1460.0000000000005
 30
0.0
 11
-404.99999999999977
 21
1540.0000000000002
 31
0.0
 70
             128
  3
CAD
100
AcDbAlignedDimension
 13
-211.99999999999977
 23
1510.0000000000005
 33
0.0
 14
-211.99999999999977
 24
1460.0000000000005
 34
0.0
 50
90.0
100
AcDbRotatedDimension
1001
ACAD
1000
DSTYLE
1002
{
1070
             271
1070
               0
1070
             340
1005
54
1070
               3
1000
<>以上
1070
             174
1070
               0
1070
             147
1040
5.0
1002
}
  0
DIMENSION
  5
3A5
100
AcDbEntity
  8
DIMENTION
100
AcDbDimension
  2
*D18
 10
-249.99999999999977
 20
-629.99999999999955
 30
0.0
 11
-249.99999999999977
 21
-739.99999999999977
 31
0.0
  3
CAD
100
AcDbAlignedDimension
 13
-169.49999999999977
 23
-850.0
 33
0.0
 14
-199.49999999999977
 24
-629.99999999999955
 34
0.0
 50
90.0
100
AcDbRotatedDimension
1001
ACAD
1000
DSTYLE
1002
{
1070
             271
1070
               0
1070
             340
1005
54
1070
             147
1040
5.0
1002
}
  0
LINE
  5
3A6
100
AcDbEntity
  8
CENTER
100
AcDbLine
 10
190.00000000000023
 20
1035.0000000000005
 30
0.0
 11
110.00000000000023
 21
1035.0000000000005
 31
0.0
  0
LINE
  5
3A7
100
AcDbEntity
  8
CENTER
100
AcDbLine
 10
150.00000000000023
 20
995.00000000000045
 30
0.0
 11
150.00000000000023
 21
1075.0000000000002
 31
0.0
  0
CIRCLE
  5
3A8
100
AcDbEntity
  8
HIDDEN
100
AcDbCircle
 10
150.00000000000023
 20
1035.0000000000005
 30
0.0
 40
11.0
  0
CIRCLE
  5
3A9
100
AcDbEntity
  8
HIDDEN
100
AcDbCircle
 10
205.00000000000023
 20
1435.0000000000005
 30
0.0
 40
12.5
  0
LINE
  5
3AA
100
AcDbEntity
  8
CENTER
100
AcDbLine
 10
235.00000000000023
 20
1435.0000000000005
 30
0.0
 11
175.00000000000023
 21
1435.0000000000005
 31
0.0
  0
LINE
  5
3AB
100
AcDbEntity
  8
CENTER
100
AcDbLine
 10
205.00000000000023
 20
1405.0000000000005
 30
0.0
 11
205.00000000000023
 21
1465.0000000000005
 31
0.0
  0
DIMENSION
  5
3AC
100
AcDbEntity
  8
DIMENTION
100
AcDbDimension
  2
*D19
 10
100.00000000000023
 20
1350.0000000000002
 30
0.0
 11
152.50000000000023
 21
1350.0000000000002
 31
0.0
  3
CAD
100
AcDbAlignedDimension
 13
205.00000000000023
 23
1422.5000000000005
 33
0.0
 14
100.00000000000023
 24
1443.0000000000005
 34
0.0
100
AcDbRotatedDimension
1001
ACAD
1000
DSTYLE
1002
{
1070
             340
1005
54
1070
             147
1040
5.0
1002
}
  0
DIMENSION
  5
3AD
100
AcDbEntity
  8
DIMENTION
100
AcDbDimension
  2
*D20
 10
50.000000000000227
 20
1435.0000000000005
 30
0.0
 11
45.000000000000227
 21
1391.3333333333337
 31
0.0
 70
             128
  3
CAD
100
AcDbAlignedDimension
 13
100.00000000000023
 23
1460.0000000000005
 33
0.0
 14
192.50000000000023
 24
1435.0000000000005
 34
0.0
 50
90.0
100
AcDbRotatedDimension
1001
ACAD
1000
DSTYLE
1002
{
1070
             340
1005
54
1070
             174
1070
               0
1070
             147
1040
5.0
1002
}
  0
LINE
  5
3AE
100
AcDbEntity
  8
OBJECT
100
AcDbLine
 10
1779.9146341463422
 20
-209.99999999999994
 30
0.0
 11
1779.9146341463422
 21
-489.99999999999949
 31
0.0
  0
LINE
  5
3AF
100
AcDbEntity
  8
OBJECT
100
AcDbLine
 10
2169.914634146342
 20
-69.999999999999716
 30
0.0
 11
2169.914634146342
 21
-54.999999999999716
 31
0.0
  0
LINE
  5
3B0
100
AcDbEntity
  8
OBJECT
100
AcDbLine
 10
-367.99999999999977
 20
-634.99999999999955
 30
0.0
 11
-367.99999999999977
 21
-582.99999999999955
 31
0.0
  0
LINE
  5
3B1
100
AcDbEntity
  8
OBJECT
100
AcDbLine
 10
-357.99999999999977
 20
-582.99999999999955
 30
0.0
 11
-357.99999999999977
 21
-634.99999999999955
 31
0.0
  0
ARC
  5
3B2
100
AcDbEntity
  8
OBJECT
100
AcDbCircle
 10
-307.99999999999977
 20
-634.99999999999955
 30
0.0
 40
50.0
100
AcDbArc
 50
180.0
 51
270.0
  0
ARC
  5
3B3
100
AcDbEntity
  8
OBJECT
100
AcDbCircle
 10
-307.99999999999977
 20
-634.99999999999955
 30
0.0
 40
60.0
100
AcDbArc
 50
180.0
 51
270.0
  0
DIMENSION
  5
3B4
100
AcDbEntity
  8
DIMENTION
100
AcDbDimension
  2
*D21
 10
-199.99999999999977
 20
750.0
 30
0.0
 11
-249.99999999999977
 21
755.0
 31
0.0
 70
             128
  3
CAD
100
AcDbAlignedDimension
 13
-211.99999999999977
 23
855.00000000000023
 33
0.0
 14
-199.99999999999977
 24
855.00000000000023
 34
0.0
100
AcDbRotatedDimension
1001
ACAD
1000
DSTYLE
1002
{
1070
             340
1005
54
1070
             174
1070
               0
1070
             147
1040
5.0
1002
}
  0
LINE
  5
3B5
100
AcDbEntity
  8
OBJECT
100
AcDbLine
 10
2109.914634146342
 20
-629.99999999999955
 30
0.0
 11
2109.914634146342
 21
-489.99999999999949
 31
0.0
  0
LINE
  5
3B6
100
AcDbEntity
  8
OBJECT
100
AcDbLine
 10
1779.9146341463422
 20
-489.99999999999949
 30
0.0
 11
2169.914634146342
 21
-489.99999999999949
 31
0.0
  0
LINE
  5
3B7
100
AcDbEntity
  8
OBJECT
100
AcDbLine
 10
-363.99999999999977
 20
-582.99999999999955
 30
0.0
 11
-363.99999999999977
 21
-567.99999999999955
 31
0.0
  0
LINE
  5
3B8
100
AcDbEntity
  8
OBJECT
100
AcDbLine
 10
-365.99999999999977
 20
-582.99999999999955
 30
0.0
 11
-365.99999999999977
 21
-567.99999999999955
 31
0.0
  0
LINE
  5
3B9
100
AcDbEntity
  8
OBJECT
100
AcDbLine
 10
-359.99999999999977
 20
-582.99999999999955
 30
0.0
 11
-359.99999999999977
 21
-567.99999999999955
 31
0.0
  0
LINE
  5
3BA
100
AcDbEntity
  8
OBJECT
100
AcDbLine
 10
-361.99999999999977
 20
-582.99999999999955
 30
0.0
 11
-361.99999999999977
 21
-567.99999999999955
 31
0.0
  0
LINE
  5
3BB
100
AcDbEntity
  8
OBJECT
100
AcDbLine
 10
-367.99999999999977
 20
-582.99999999999955
 30
0.0
 11
-357.99999999999977
 21
-582.99999999999955
 31
0.0
  0
LINE
  5
3BC
100
AcDbEntity
  8
OBJECT
100
AcDbLine
 10
-366.99999999999977
 20
-582.99999999999955
 30
0.0
 11
-373.79999999999905
 21
-567.39999999999964
 31
0.0
  0
LWPOLYLINE
  5
3BD
100
AcDbEntity
  8
OBJECT
100
AcDbPolyline
 90
        7
 70
             129
 10
1620.9146341463422
 20
-240.49999999999994
 10
1680.9146341463422
 20
-240.49999999999994
 10
1680.9146341463422
 20
-240.49999999999994
 42
-0.414213562373095
 10
1670.9146341463422
 20
-250.49999999999994
 10
1630.9146341463422
 20
-250.49999999999994
 10
1630.9146341463422
 20
-250.49999999999994
 42
-0.414213562373095
 10
1620.9146341463422
 20
-240.49999999999994
 42
-0.414213562373095
  0
LWPOLYLINE
  5
3BE
100
AcDbEntity
  8
OBJECT
100
AcDbPolyline
 90
        7
 70
             129
 10
1620.9146341463422
 20
-255.49999999999994
 10
1680.9146341463422
 20
-255.49999999999994
 10
1680.9146341463422
 20
-255.49999999999994
 42
-0.414213562373095
 10
1670.9146341463422
 20
-265.49999999999994
 10
1630.9146341463422
 20
-265.49999999999994
 10
1630.9146341463422
 20
-265.49999999999994
 42
-0.414213562373095
 10
1620.9146341463422
 20
-255.49999999999994
 42
-0.414213562373095
  0
LWPOLYLINE
  5
3BF
100
AcDbEntity
  8
OBJECT
100
AcDbPolyline
 90
        7
 70
             129
 10
1620.9146341463422
 20
-270.49999999999949
 10
1680.9146341463422
 20
-270.49999999999949
 10
1680.9146341463422
 20
-270.49999999999949
 42
-0.414213562373095
 10
1670.9146341463422
 20
-280.49999999999949
 10
1630.9146341463422
 20
-280.49999999999949
 10
1630.9146341463422
 20
-280.49999999999949
 42
-0.414213562373095
 10
1620.9146341463422
 20
-270.49999999999949
 42
-0.414213562373095
  0
LWPOLYLINE
  5
3C0
100
AcDbEntity
  8
OBJECT
100
AcDbPolyline
 90
        7
 70
             129
 10
1620.9146341463422
 20
-285.49999999999949
 10
1680.9146341463422
 20
-285.49999999999949
 10
1680.9146341463422
 20
-285.49999999999949
 42
-0.414213562373095
 10
1670.9146341463422
 20
-295.49999999999949
 10
1630.9146341463422
 20
-295.49999999999949
 10
1630.9146341463422
 20
-295.49999999999949
 42
-0.414213562373095
 10
1620.9146341463422
 20
-285.49999999999949
 42
-0.414213562373095
  0
LWPOLYLINE
  5
3C1
100
AcDbEntity
  8
OBJECT
100
AcDbPolyline
 90
        7
 70
             129
 10
1620.9146341463422
 20
-300.49999999999949
 10
1680.9146341463422
 20
-300.49999999999949
 10
1680.9146341463422
 20
-300.49999999999949
 42
-0.414213562373095
 10
1670.9146341463422
 20
-310.49999999999949
 10
1630.9146341463422
 20
-310.49999999999949
 10
1630.9146341463422
 20
-310.49999999999949
 42
-0.414213562373095
 10
1620.9146341463422
 20
-300.49999999999949
 42
-0.414213562373095
  0
LWPOLYLINE
  5
3C2
100
AcDbEntity
  8
OBJECT
100
AcDbPolyline
 90
        7
 70
             129
 10
1620.9146341463422
 20
-315.49999999999949
 10
1680.9146341463422
 20
-315.49999999999949
 10
1680.9146341463422
 20
-315.49999999999949
 42
-0.414213562373095
 10
1670.9146341463422
 20
-325.49999999999949
 10
1630.9146341463422
 20
-325.49999999999949
 10
1630.9146341463422
 20
-325.49999999999949
 42
-0.414213562373095
 10
1620.9146341463422
 20
-315.49999999999949
 42
-0.414213562373095
  0
LWPOLYLINE
  5
3C3
100
AcDbEntity
  8
OBJECT
100
AcDbPolyline
 90
        7
 70
             129
 10
1620.9146341463422
 20
-330.49999999999949
 10
1680.9146341463422
 20
-330.49999999999949
 10
1680.9146341463422
 20
-330.49999999999949
 42
-0.414213562373095
 10
1670.9146341463422
 20
-340.49999999999949
 10
1630.9146341463422
 20
-340.49999999999949
 10
1630.9146341463422
 20
-340.49999999999949
 42
-0.414213562373095
 10
1620.9146341463422
 20
-330.49999999999949
 42
-0.414213562373095
  0
LWPOLYLINE
  5
3C4
100
AcDbEntity
  8
OBJECT
100
AcDbPolyline
 90
        7
 70
             129
 10
1620.9146341463422
 20
-345.49999999999949
 10
1680.9146341463422
 20
-345.49999999999949
 10
1680.9146341463422
 20
-345.49999999999949
 42
-0.414213562373095
 10
1670.9146341463422
 20
-355.49999999999949
 10
1630.9146341463422
 20
-355.49999999999949
 10
1630.9146341463422
 20
-355.49999999999949
 42
-0.414213562373095
 10
1620.9146341463422
 20
-345.49999999999949
 42
-0.414213562373095
  0
LWPOLYLINE
  5
3C5
100
AcDbEntity
  8
OBJECT
100
AcDbPolyline
 90
        7
 70
             129
 10
1620.9146341463422
 20
-360.49999999999949
 10
1680.9146341463422
 20
-360.49999999999949
 10
1680.9146341463422
 20
-360.49999999999949
 42
-0.414213562373095
 10
1670.9146341463422
 20
-370.49999999999949
 10
1630.9146341463422
 20
-370.49999999999949
 10
1630.9146341463422
 20
-370.49999999999949
 42
-0.414213562373095
 10
1620.9146341463422
 20
-360.49999999999949
 42
-0.414213562373095
  0
LWPOLYLINE
  5
3C6
100
AcDbEntity
  8
OBJECT
100
AcDbPolyline
 90
        7
 70
             129
 10
1620.9146341463422
 20
-375.49999999999949
 10
1680.9146341463422
 20
-375.49999999999949
 10
1680.9146341463422
 20
-375.49999999999949
 42
-0.414213562373095
 10
1670.9146341463422
 20
-385.49999999999949
 10
1630.9146341463422
 20
-385.49999999999949
 10
1630.9146341463422
 20
-385.49999999999949
 42
-0.414213562373095
 10
1620.9146341463422
 20
-375.49999999999949
 42
-0.414213562373095
  0
LINE
  5
3C7
100
AcDbEntity
  8
OBJECT
100
AcDbLine
 10
2169.914634146342
 20
-516.99999999999955
 30
0.0
 11
2109.914634146342
 21
-516.99999999999955
 31
0.0
  0
LINE
  5
3C8
100
AcDbEntity
  8
OBJECT
100
AcDbLine
 10
2169.914634146342
 20
-502.99999999999949
 30
0.0
 11
2109.914634146342
 21
-502.99999999999949
 31
0.0
  0
LINE
  5
3C9
100
AcDbEntity
  8
OBJECT
100
AcDbLine
 10
2196.914634146342
 20
-44.999999999999716
 30
0.0
 11
2196.914634146342
 21
-489.99999999999949
 31
0.0
  0
LINE
  5
3CA
100
AcDbEntity
  8
OBJECT
100
AcDbLine
 10
2182.914634146342
 20
-44.999999999999716
 30
0.0
 11
2182.914634146342
 21
-489.99999999999949
 31
0.0
  0
ARC
  5
3CB
100
AcDbEntity
  8
OBJECT
100
AcDbCircle
 10
2169.914634146342
 20
-489.99999999999949
 30
0.0
 40
13.0
100
AcDbArc
 50
270.0
 51
0.0
  0
ARC
  5
3CC
100
AcDbEntity
  8
OBJECT
100
AcDbCircle
 10
2169.914634146342
 20
-489.99999999999949
 30
0.0
 40
27.0
100
AcDbArc
 50
270.0
 51
0.0
  0
LINE
  5
3CD
100
AcDbEntity
  8
OBJECT
100
AcDbLine
 10
1569.9146341463422
 20
-209.99999999999994
 30
0.0
 11
1569.9146341463422
 21
-629.99999999999955
 31
0.0
  0
MTEXT
  5
3CE
100
AcDbEntity
  8
DIMENTION
100
AcDbMText
 10
510.00000000000023
 20
955.00000000000023
 30
0.0
 40
33.866666666666667
 41
0.0
 71
               7
 72
               1
  1
ラック通過センター
  7
________
  0
LINE
  5
3CF
100
AcDbEntity
  8
DIMENTION
100
AcDbLine
 10
100.00000000000023
 20
1150.0000000000002
 30
0.0
 11
500.00000000000023
 21
950.00000000000023
 31
0.0
  0
LINE
  5
3D0
100
AcDbEntity
  8
DIMENTION
100
AcDbLine
 10
100.00000000000023
 20
1150.0000000000002
 30
0.0
 11
132.15172995488842
 21
1143.1659388290461
 31
0.0
  0
LINE
  5
3D1
100
AcDbEntity
  8
DIMENTION
100
AcDbLine
 10
100.00000000000023
 20
1150.0000000000002
 30
0.0
 11
124.42718433107348
 21
1128.0056644374931
 31
0.0
  0
LINE
  5
3D2
100
AcDbEntity
  8
DIMENTION
100
AcDbLine
 10
500.00000000000023
 20
950.00000000000023
 30
0.0
 11
860.00000000000023
 21
950.00000000000023
 31
0.0
  0
LINE
  5
3D3
100
AcDbEntity
  8
OBJECT
100
AcDbLine
 10
2060.914634146342
 20
-810.0
 30
0.0
 11
2098.914634146342
 21
-810.0
 31
0.0
  0
LWPOLYLINE
  5
3D4
100
AcDbEntity
  8
OBJECT
100
AcDbPolyline
 90
        6
 70
             129
 10
2063.0
 20
-810.0
 10
2097.0
 20
-810.0
 10
2097.0
 20
-845.0
 42
-0.414213562373095
 10
2092.0
 20
-850.0
 10
2068.0
 20
-850.0
 42
-0.414213562373095
 10
2063.0
 20
-845.0
  0
LINE
  5
3D5
100
AcDbEntity
  8
OBJECT
100
AcDbLine
 10
2087.0487804878048
 20
-848.0
 30
0.0
 11
2087.0487804878048
 21
-831.0
 31
0.0
  0
LINE
  5
3D6
100
AcDbEntity
  8
OBJECT
100
AcDbLine
 10
2072.5365853658532
 20
-848.0
 30
0.0
 11
2072.5365853658532
 21
-831.0
 31
0.0
  0
SPLINE
  5
3D7
100
AcDbEntity
  8
OBJECT
100
AcDbSpline
210
0.0
220
0.0
230
1.0
 70
               8
 71
               2
 72
              10
 73
               7
 74
               0
 42
0.000001
 43
0.000001
 40
0.0
 40
0.0
 40
0.0
 40
0.2408703639462747
 40
0.2408703639462747
 40
0.7675310293941325
 40
0.7675310293941325
 40
1.0
 40
1.0
 40
1.0
 10
2066.3170731707323
 20
-828.0
 30
0.0
 10
2067.9756097560967
 20
-827.0
 30
0.0
 10
2072.5365853658532
 20
-831.0
 30
0.0
 10
2080.0
 20
-825.5
 30
0.0
 10
2087.0487804878048
 20
-831.0
 30
0.0
 10
2090.3658536585372
 20
-827.0
 30
0.0
 10
2092.8536585365855
 20
-828.0
 30
0.0
  0
LINE
  5
3D8
100
AcDbEntity
  8
OBJECT
100
AcDbLine
 10
400.00000000000023
 20
1460.0000000000005
 30
0.0
 11
400.00000000000023
 21
1472.0000000000005
 31
0.0
  0
MTEXT
  5
3D9
100
AcDbEntity
  8
TEXT
100
AcDbMText
 10
2350.0
 20
-690.91669999999976
 30
0.0
 40
33.866666666666667
 41
0.0
 71
               1
 72
               1
  1
注）指示なき寸法公差は±5とする
  7
________
  0
MTEXT
  5
3DA
100
AcDbEntity
  8
TEXT
100
AcDbMText
 10
2350.0
 20
-545.0
 30
0.0
 40
33.866666666666667
 41
0.0
 71
               1
 72
               1
  1
注）アジャスト調整範囲：\P　　基準高さ（800）に対して-30，+60
  7
________
  0
INSERT
  5
3DB
100
AcDbEntity
  8
HIDDEN
100
AcDbBlockReference
  2
*U22
 10
1030.0000000045738
 20
380.0000000016874
 30
0.0
  0
CIRCLE
  5
3DC
100
AcDbEntity
  8
HIDDEN
100
AcDbCircle
 10
30.000000000000227
 20
1275.0000000000005
 30
0.0
 40
25.0
  0
INSERT
  5
3DD
100
AcDbEntity
  8
OBJECT
100
AcDbBlockReference
  2
*U23
 10
1030.0000000045738
 20
380.0000000016874
 30
0.0
  0
LINE
  5
3DE
100
AcDbEntity
  8
OBJECT
100
AcDbLine
 10
1580.9146341463422
 20
-810.0
 30
0.0
 11
1618.9146341463422
 21
-810.0
 31
0.0
  0
LWPOLYLINE
  5
3DF
100
AcDbEntity
  8
OBJECT
100
AcDbPolyline
 90
        6
 70
             129
 10
1583.0000000000002
 20
-810.0
 10
1617.0000000000002
 20
-810.0
 10
1617.0000000000002
 20
-845.0
 42
-0.414213562373095
 10
1612.0000000000002
 20
-850.0
 10
1588.0000000000002
 20
-850.0
 42
-0.414213562373095
 10
1583.0000000000002
 20
-845.0
  0
LINE
  5
3E0
100
AcDbEntity
  8
OBJECT
100
AcDbLine
 10
1607.0487804878051
 20
-848.0
 30
0.0
 11
1607.0487804878051
 21
-831.0
 31
0.0
  0
LINE
  5
3E1
100
AcDbEntity
  8
OBJECT
100
AcDbLine
 10
1592.5365853658534
 20
-848.0
 30
0.0
 11
1592.5365853658534
 21
-831.0
 31
0.0
  0
SPLINE
  5
3E2
100
AcDbEntity
  8
OBJECT
100
AcDbSpline
210
0.0
220
0.0
230
1.0
 70
               8
 71
               2
 72
              10
 73
               7
 74
               0
 42
0.000001
 43
0.000001
 40
0.0
 40
0.0
 40
0.0
 40
0.240870363946275
 40
0.240870363946275
 40
0.7675310293941324
 40
0.7675310293941324
 40
1.0
 40
1.0
 40
1.0
 10
1586.3170731707326
 20
-828.0
 30
0.0
 10
1587.9756097560969
 20
-827.0
 30
0.0
 10
1592.5365853658534
 20
-831.0
 30
0.0
 10
1600.0000000000002
 20
-825.5
 30
0.0
 10
1607.0487804878051
 20
-831.0
 30
0.0
 10
1610.3658536585374
 20
-827.0
 30
0.0
 10
1612.8536585365857
 20
-828.0
 30
0.0
  0
INSERT
  5
3E3
100
AcDbEntity
  8
OBJECT
100
AcDbBlockReference
  2
*U24
 10
1030.0000000045738
 20
380.0000000016874
 30
0.0
  0
LINE
  5
3E4
100
AcDbEntity
  8
OBJECT
100
AcDbLine
 10
351.00000000000023
 20
-810.0
 30
0.0
 11
389.00000000000023
 21
-810.0
 31
0.0
  0
LWPOLYLINE
  5
3E5
100
AcDbEntity
  8
OBJECT
100
AcDbPolyline
 90
        6
 70
             129
 10
353.00000000000023
 20
-810.0
 10
387.00000000000023
 20
-810.0
 10
387.00000000000023
 20
-845.0
 42
-0.414213562373095
 10
382.00000000000023
 20
-850.0
 10
358.00000000000023
 20
-850.0
 42
-0.414213562373095
 10
353.00000000000023
 20
-845.0
  0
LINE
  5
3E6
100
AcDbEntity
  8
OBJECT
100
AcDbLine
 10
378.50000000000023
 20
-848.0
 30
0.0
 11
378.50000000000023
 21
-831.0
 31
0.0
  0
LINE
  5
3E7
100
AcDbEntity
  8
OBJECT
100
AcDbLine
 10
361.00000000000023
 20
-848.0
 30
0.0
 11
361.00000000000023
 21
-831.0
 31
0.0
  0
SPLINE
  5
3E8
100
AcDbEntity
  8
OBJECT
100
AcDbSpline
210
0.0
220
0.0
230
1.0
 70
               8
 71
               2
 72
              10
 73
               7
 74
               0
 42
0.000001
 43
0.000001
 40
0.0
 40
0.0
 40
0.0
 40
0.2391095954640664
 40
0.2391095954640664
 40
0.7708424925849841
 40
0.7708424925849841
 40
1.0
 40
1.0
 40
1.0
 10
353.50000000000023
 20
-828.0
 30
0.0
 10
355.50000000000023
 20
-827.0
 30
0.0
 10
361.00000000000023
 20
-831.0
 30
0.0
 10
370.00000000000023
 20
-825.5
 30
0.0
 10
378.50000000000023
 20
-831.0
 30
0.0
 10
382.50000000000023
 20
-827.0
 30
0.0
 10
385.50000000000023
 20
-828.0
 30
0.0
  0
INSERT
  5
3E9
100
AcDbEntity
  8
OBJECT
100
AcDbBlockReference
  2
*U25
 10
1030.0000000045738
 20
380.0000000016874
 30
0.0
  0
LINE
  5
3EA
100
AcDbEntity
  8
OBJECT
100
AcDbLine
 10
-188.99999999999977
 20
-810.0
 30
0.0
 11
-150.99999999999977
 21
-810.0
 31
0.0
  0
LWPOLYLINE
  5
3EB
100
AcDbEntity
  8
OBJECT
100
AcDbPolyline
 90
        6
 70
             129
 10
-186.99999999999977
 20
-810.0
 10
-152.99999999999977
 20
-810.0
 10
-152.99999999999977
 20
-845.0
 42
-0.414213562373095
 10
-157.99999999999977
 20
-850.0
 10
-181.99999999999977
 20
-850.0
 42
-0.414213562373095
 10
-186.99999999999977
 20
-845.0
  0
LINE
  5
3EC
100
AcDbEntity
  8
OBJECT
100
AcDbLine
 10
-161.49999999999977
 20
-848.0
 30
0.0
 11
-161.49999999999977
 21
-831.0
 31
0.0
  0
LINE
  5
3ED
100
AcDbEntity
  8
OBJECT
100
AcDbLine
 10
-178.99999999999977
 20
-848.0
 30
0.0
 11
-178.99999999999977
 21
-831.0
 31
0.0
  0
SPLINE
  5
3EE
100
AcDbEntity
  8
OBJECT
100
AcDbSpline
210
0.0
220
0.0
230
1.0
 70
               8
 71
               2
 72
              10
 73
               7
 74
               0
 42
0.000001
 43
0.000001
 40
0.0
 40
0.0
 40
0.0
 40
0.2391095954640664
 40
0.2391095954640664
 40
0.7708424925849841
 40
0.7708424925849841
 40
1.0
 40
1.0
 40
1.0
 10
-186.49999999999977
 20
-828.0
 30
0.0
 10
-184.49999999999977
 20
-827.0
 30
0.0
 10
-178.99999999999977
 20
-831.0
 30
0.0
 10
-169.99999999999977
 20
-825.5
 30
0.0
 10
-161.49999999999977
 20
-831.0
 30
0.0
 10
-157.49999999999977
 20
-827.0
 30
0.0
 10
-154.49999999999977
 20
-828.0
 30
0.0
  0
DIMENSION
  5
3EF
100
AcDbEntity
  8
DIMENTION
100
AcDbDimension
  2
*D26
 10
100.00000000000023
 20
900.00000000000045
 30
0.0
 11
125.00000000000023
 21
900.00000000000045
 31
0.0
  3
CAD
100
AcDbAlignedDimension
 13
150.00000000000023
 23
1024.0000000000005
 33
0.0
 14
100.00000000000023
 24
974.00000000000045
 34
0.0
100
AcDbRotatedDimension
1001
ACAD
1000
DSTYLE
1002
{
1070
             340
1005
54
1070
             147
1040
5.0
1002
}
  0
POINT
  5
3F0
100
AcDbEntity
  8
DIMENTION
  6
CONTINUOUS
100
AcDbPoint
 10
1600.0000000000002
 20
-850.0
 30
0.0
  0
MTEXT
  5
3F1
100
AcDbEntity
  8
DIMENTION
100
AcDbMText
 10
-669.99999999999977
 20
1400.0000000000005
 30
0.0
 40
33.866666666666667
 41
0.0
 71
               4
 72
               1
  1
排水口 40A\Pおすねじ
  7
________
  0
LINE
  5
3F2
100
AcDbEntity
  8
DIMENTION
100
AcDbLine
 10
5.8068941368858304
 20
1281.3002879851861
 30
0.0
 11
-449.99999999999977
 21
1400.0000000000005
 31
0.0
  0
LINE
  5
3F3
100
AcDbEntity
  8
DIMENTION
100
AcDbLine
 10
5.8068941368858304
 20
1281.3002879851861
 30
0.0
 11
-25.249495628113664
 21
1281.3002879851861
 31
0.0
  0
LINE
  5
3F4
100
AcDbEntity
  8
DIMENTION
100
AcDbLine
 10
5.8068941368858304
 20
1281.3002879851861
 30
0.0
 11
-21.088728349434859
 21
1296.8284828676858
 31
0.0
  0
LINE
  5
3F5
100
AcDbEntity
  8
DIMENTION
100
AcDbLine
 10
-449.99999999999977
 20
1400.0000000000005
 30
0.0
 11
-669.99999999999977
 21
1400.0000000000005
 31
0.0
  0
LINE
  5
3F6
100
AcDbEntity
  8
DIMENTION
100
AcDbLine
 10
-449.99999999999977
 20
1400.0000000000005
 30
0.0
 11
-449.99999999999977
 21
1350.0000000000005
 31
0.0
  0
LINE
  5
3F7
100
AcDbEntity
  8
DIMENTION
100
AcDbLine
 10
-449.99999999999977
 20
1350.0000000000005
 30
0.0
 11
-669.99999999999977
 21
1350.0000000000005
 31
0.0
  0
POINT
  5
3F8
100
AcDbEntity
  8
DIMENTION
  6
CONTINUOUS
100
AcDbPoint
 10
30.000000000000227
 20
1275.0000000000005
 30
0.0
  0
LINE
  5
3F9
100
AcDbEntity
  8
DIMENTION
100
AcDbLine
 10
500.00000000000023
 20
1250.0000000000005
 30
0.0
 11
800.00000000000023
 21
1250.0000000000005
 31
0.0
  0
MTEXT
  5
3FA
100
AcDbEntity
  8
DIMENTION
100
AcDbMText
 10
510.00000000000023
 20
1252.0000000000005
 30
0.0
 40
33.866666666666667
 41
0.0
 71
               4
 72
               1
  1
すすぎタンク\Pオーバーフロー
  7
________
  0
LINE
  5
3FB
100
AcDbEntity
  8
DIMENTION
100
AcDbLine
 10
216.31995696792387
 20
1429.6982480023648
 30
0.0
 11
500.00000000000023
 21
1250.0000000000005
 31
0.0
  0
LINE
  5
3FC
100
AcDbEntity
  8
DIMENTION
100
AcDbLine
 10
216.31995696792387
 20
1429.6982480023648
 30
0.0
 11
245.85633882652871
 21
1420.1012957810478
 31
0.0
  0
LINE
  5
3FD
100
AcDbEntity
  8
DIMENTION
100
AcDbLine
 10
216.31995696792387
 20
1429.6982480023648
 30
0.0
 11
237.10073788269506
 21
1406.6188526504964
 31
0.0
  0
POINT
  5
3FE
100
AcDbEntity
  8
DIMENTION
  6
CONTINUOUS
100
AcDbPoint
 10
205.00000000000023
 20
1435.0000000000005
 30
0.0
  0
MTEXT
  5
3FF
100
AcDbEntity
  8
DIMENTION
100
AcDbMText
 10
600.00000000000023
 20
750.0
 30
0.0
 40
33.866666666666667
 41
0.0
 71
               4
 72
               1
  1
給湯（水）口\P15Aおすねじ
  7
________
  0
LINE
  5
400
100
AcDbEntity
  8
DIMENTION
100
AcDbLine
 10
590.00000000000023
 20
750.0
 30
0.0
 11
159.23245593100614
 21
1029.0198864992351
 31
0.0
  0
LINE
  5
401
100
AcDbEntity
  8
DIMENTION
100
AcDbLine
 10
159.23245593100614
 20
1029.0198864992351
 30
0.0
 11
188.76883778961098
 21
1019.4229342779181
 31
0.0
  0
LINE
  5
402
100
AcDbEntity
  8
DIMENTION
100
AcDbLine
 10
159.23245593100614
 20
1029.0198864992351
 30
0.0
 11
180.01323684577733
 21
1005.9404911473666
 31
0.0
  0
LINE
  5
403
100
AcDbEntity
  8
DIMENTION
100
AcDbLine
 10
590.00000000000023
 20
750.0
 30
0.0
 11
830.00000000000023
 21
750.0
 31
0.0
  0
LINE
  5
404
100
AcDbEntity
  8
DIMENTION
100
AcDbLine
 10
590.00000000000023
 20
700.0
 30
0.0
 11
830.00000000000023
 21
700.0
 31
0.0
  0
POINT
  5
405
100
AcDbEntity
  8
DIMENTION
  6
CONTINUOUS
100
AcDbPoint
 10
150.00000000000023
 20
1035.0000000000002
 30
0.0
  0
DIMENSION
  5
406
100
AcDbEntity
  8
DIMENTION
100
AcDbDimension
  2
*D27
 10
1300.0
 20
-49.999999999999488
 30
0.0
 11
1295.0
 21
-449.99999999999949
 31
0.0
 70
             128
  3
CAD
100
AcDbAlignedDimension
 13
1564.1173000000001
 23
-849.99999999999955
 33
0.0
 14
1553.0000000000002
 24
-49.999999999999488
 34
0.0
 50
90.0
100
AcDbRotatedDimension
1001
ACAD
1000
DSTYLE
1002
{
1070
             271
1070
               0
1070
             340
1005
54
1070
               3
1000
<>（基準高さ
1070
             147
1040
5.0
1002
}
  0
DIMENSION
  5
407
100
AcDbEntity
  8
DIMENTION
100
AcDbDimension
  2
*D28
 10
1210.0000000000002
 20
-849.99999999999955
 30
0.0
 11
1210.0000000000002
 21
-167.4999999999996
 31
0.0
  3
CAD
100
AcDbAlignedDimension
 13
1862.9146341463422
 23
515.00000000000023
 33
0.0
 14
1359.0000000000002
 24
-849.99999999999955
 34
0.0
 50
90.0
100
AcDbRotatedDimension
1001
ACAD
1000
DSTYLE
1002
{
1070
             271
1070
               0
1070
             340
1005
54
1070
             147
1040
5.0
1002
}
  0
POINT
  5
408
100
AcDbEntity
  8
DIMENTION
  6
CONTINUOUS
100
AcDbPoint
 10
1600.0000000000002
 20
-849.99999999999955
 30
0.0
  0
LINE
  5
409
100
AcDbEntity
  8
DIMENTION
100
AcDbLine
 10
590.00000000000023
 20
750.0
 30
0.0
 11
590.00000000000023
 21
700.0
 31
0.0
  0
DIMENSION
  5
40A
100
AcDbEntity
  8
DIMENTION
100
AcDbDimension
  2
*D29
 10
26.0
 20
1035.0000000000005
 30
0.0
 11
26.0
 21
945.00000000000045
 31
0.0
  3
CAD
100
AcDbAlignedDimension
 13
110.00000000000023
 23
855.00000000000023
 33
0.0
 14
139.00000000000023
 24
1035.0000000000005
 34
0.0
 50
90.0
100
AcDbRotatedDimension
1001
ACAD
1000
DSTYLE
1002
{
1070
             340
1005
54
1070
             147
1040
5.0
1002
}
  0
DIMENSION
  5
40B
100
AcDbEntity
  8
DIMENTION
100
AcDbDimension
  2
*D30
 10
1132.0000000000002
 20
945.00000000000023
 30
0.0
 11
1127.0000000000002
 21
65.000000000000057
 31
0.0
 70
             128
  3
CAD
100
AcDbAlignedDimension
 13
1588.0487804878021
 23
-850.0
 33
0.0
 14
1862.9146341463422
 24
945.00000000000023
 34
0.0
 50
90.0
100
AcDbRotatedDimension
1001
ACAD
1000
DSTYLE
1002
{
1070
             340
1005
54
1070
               3
1000
<>（ドア開放
1070
             147
1040
5.0
1002
}
  0
DIMENSION
  5
40C
100
AcDbEntity
  8
DIMENTION
100
AcDbDimension
  2
*D31
 10
1300.0
 20
-49.999999999999716
 30
0.0
 11
1300.0
 21
155.00000000000017
 31
0.0
  3
CAD
100
AcDbAlignedDimension
 13
1575.7796860494564
 23
360.00000000000006
 33
0.0
 14
1552.9146341463422
 24
-49.999999999999716
 34
0.0
 50
90.0
100
AcDbRotatedDimension
1001
ACAD
1000
DSTYLE
1002
{
1070
             340
1005
54
1070
               3
1000
<>（開口）
1070
             147
1040
5.0
1002
}
  0
LINE
  5
40D
100
AcDbEntity
  8
OBJECT
100
AcDbLine
 10
-206.99999999999977
 20
-64.999999999999716
 30
0.0
 11
407.00000000000023
 21
-64.999999999999716
 31
0.0
  0
LINE
  5
40E
100
AcDbEntity
  8
OBJECT
100
AcDbLine
 10
412.00000000000023
 20
-49.999999999999716
 30
0.0
 11
412.00000000000023
 21
-59.999999999999716
 31
0.0
  0
LINE
  5
40F
100
AcDbEntity
  8
OBJECT
100
AcDbLine
 10
-211.99999999999977
 20
-49.999999999999716
 30
0.0
 11
412.00000000000023
 21
-49.999999999999716
 31
0.0
  0
LINE
  5
410
100
AcDbEntity
  8
OBJECT
100
AcDbLine
 10
-189.99999999999977
 20
435.00000000000028
 30
0.0
 11
390.00000000000023
 21
435.00000000000028
 31
0.0
  0
POLYLINE
  5
411
100
AcDbEntity
  8
OBJECT
100
AcDb2dPolyline
 66
               1
 10
0.0
 20
0.0
 30
0.0
 70
               1
 75
               5
  0
VERTEX
  5
412
100
AcDbEntity
  8
OBJECT
100
AcDbVertex
100
AcDb2dVertex
 10
443.71950000000129
 20
220.79440000000028
 30
0.0
  0
VERTEX
  5
413
100
AcDbEntity
  8
OBJECT
100
AcDbVertex
100
AcDb2dVertex
 10
443.71950000000129
 20
220.79440000000028
 30
0.0
  0
VERTEX
  5
414
100
AcDbEntity
  8
OBJECT
100
AcDbVertex
100
AcDb2dVertex
 10
437.50000000000023
 20
220.79440000000028
 30
0.0
  0
VERTEX
  5
415
100
AcDbEntity
  8
OBJECT
100
AcDbVertex
100
AcDb2dVertex
 10
437.50000000000023
 20
221.80000000000024
 30
0.0
  0
VERTEX
  5
416
100
AcDbEntity
  8
OBJECT
100
AcDbVertex
100
AcDb2dVertex
 10
437.50000000000023
 20
234.80000000000024
 30
0.0
  0
VERTEX
  5
417
100
AcDbEntity
  8
OBJECT
100
AcDbVertex
100
AcDb2dVertex
 10
437.50000000000023
 20
235.80560000000042
 30
0.0
  0
VERTEX
  5
418
100
AcDbEntity
  8
OBJECT
100
AcDbVertex
100
AcDb2dVertex
 10
443.71950000000129
 20
235.80560000000042
 30
0.0
  0
VERTEX
  5
419
100
AcDbEntity
  8
OBJECT
100
AcDbVertex
100
AcDb2dVertex
 10
444.30010000000061
 20
234.80000000000024
 30
0.0
  0
VERTEX
  5
41A
100
AcDbEntity
  8
OBJECT
100
AcDbVertex
100
AcDb2dVertex
 10
444.30010000000061
 20
221.80000000000024
 30
0.0
  0
SEQEND
  5
41B
100
AcDbEntity
  8
OBJECT
  0
SPLINE
  5
41C
100
AcDbEntity
  8
OBJECT
100
AcDbSpline
210
0.0
220
0.0
230
1.0
 70
               8
 71
               2
 72
               6
 73
               3
 74
               0
 42
0.000001
 43
0.000001
 40
0.0
 40
0.0
 40
0.0
 40
1.0
 40
1.0
 40
1.0
 10
443.71950000000129
 20
235.80560000000042
 30
0.0
 10
444.87831069958838
 20
233.92920000000032
 30
0.0
 10
443.71950000000129
 20
232.05280000000022
 30
0.0
  0
SPLINE
  5
41D
100
AcDbEntity
  8
OBJECT
100
AcDbSpline
210
0.0
220
0.0
230
1.0
 70
               8
 71
               2
 72
               6
 73
               3
 74
               0
 42
0.000001
 43
0.000001
 40
0.0
 40
0.0
 40
0.0
 40
1.0
 40
1.0
 40
1.0
 10
443.71950000000129
 20
232.05280000000022
 30
0.0
 10
444.87831069958838
 20
228.30000000000024
 30
0.0
 10
443.71950000000129
 20
224.54720000000026
 30
0.0
  0
SPLINE
  5
41E
100
AcDbEntity
  8
OBJECT
100
AcDbSpline
210
0.0
220
0.0
230
1.0
 70
               8
 71
               2
 72
               6
 73
               3
 74
               0
 42
0.000001
 43
0.000001
 40
0.0
 40
0.0
 40
0.0
 40
1.0
 40
1.0
 40
1.0
 10
443.71950000000129
 20
224.54720000000026
 30
0.0
 10
444.87831069958838
 20
222.6708000000005
 30
0.0
 10
443.71950000000129
 20
220.79440000000028
 30
0.0
  0
LINE
  5
41F
100
AcDbEntity
  8
OBJECT
100
AcDbLine
 10
443.71950000000129
 20
232.05280000000022
 30
0.0
 11
437.51950000000056
 21
232.05280000000022
 31
0.0
  0
LINE
  5
420
100
AcDbEntity
  8
OBJECT
100
AcDbLine
 10
443.71950000000129
 20
224.54720000000026
 30
0.0
 11
437.51950000000056
 21
224.54720000000026
 31
0.0
  0
POLYLINE
  5
421
100
AcDbEntity
  8
OBJECT
100
AcDb2dPolyline
 66
               1
 10
0.0
 20
0.0
 30
0.0
 75
               5
  0
VERTEX
  5
422
100
AcDbEntity
  8
OBJECT
100
AcDbVertex
100
AcDb2dVertex
 10
400.00000000000023
 20
476.00000000000028
 30
0.0
  0
VERTEX
  5
423
100
AcDbEntity
  8
OBJECT
100
AcDbVertex
100
AcDb2dVertex
 10
412.00000000000023
 20
476.00000000000028
 30
0.0
  0
VERTEX
  5
424
100
AcDbEntity
  8
OBJECT
100
AcDbVertex
100
AcDb2dVertex
 10
412.00000000000023
 20
464.00000000000028
 30
0.0
  0
VERTEX
  5
425
100
AcDbEntity
  8
OBJECT
100
AcDbVertex
100
AcDb2dVertex
 10
400.00000000000023
 20
464.00000000000028
 30
0.0
  0
SEQEND
  5
426
100
AcDbEntity
  8
OBJECT
  0
POLYLINE
  5
427
100
AcDbEntity
  8
OBJECT
100
AcDb2dPolyline
 66
               1
 10
0.0
 20
0.0
 30
0.0
 75
               5
  0
VERTEX
  5
428
100
AcDbEntity
  8
OBJECT
100
AcDbVertex
100
AcDb2dVertex
 10
412.50000000000023
 20
475.00000000000028
 30
0.0
  0
VERTEX
  5
429
100
AcDbEntity
  8
OBJECT
100
AcDbVertex
100
AcDb2dVertex
 10
412.00000000000023
 20
475.00000000000028
 30
0.0
  0
VERTEX
  5
42A
100
AcDbEntity
  8
OBJECT
100
AcDbVertex
100
AcDb2dVertex
 10
412.00000000000023
 20
465.00000000000028
 30
0.0
  0
VERTEX
  5
42B
100
AcDbEntity
  8
OBJECT
100
AcDbVertex
100
AcDb2dVertex
 10
412.50000000000023
 20
465.00000000000028
 30
0.0
  0
SEQEND
  5
42C
100
AcDbEntity
  8
OBJECT
  0
LINE
  5
42D
100
AcDbEntity
  8
OBJECT
100
AcDbLine
 10
400.00000000000023
 20
490.00000000000028
 30
0.0
 11
390.00000000000023
 21
490.00000000000028
 31
0.0
  0
LINE
  5
42E
100
AcDbEntity
  8
OBJECT
100
AcDbLine
 10
400.00000000000023
 20
153.91046790712772
 30
0.0
 11
400.00000000000023
 21
490.00000000000028
 31
0.0
  0
LINE
  5
42F
100
AcDbEntity
  8
OBJECT
100
AcDbLine
 10
393.00000000000023
 20
490.00000000000028
 30
0.0
 11
393.00000000000023
 21
152.20091261266731
 31
0.0
  0
LINE
  5
430
100
AcDbEntity
  8
OBJECT
100
AcDbLine
 10
390.00000000000023
 20
515.00000000000023
 30
0.0
 11
390.00000000000023
 21
151.6693713233206
 31
0.0
  0
LINE
  5
431
100
AcDbEntity
  8
OBJECT
100
AcDbLine
 10
390.00000000000023
 20
126.77698742992385
 30
0.0
 11
390.00000000000023
 21
-49.999999999999716
 31
0.0
  0
LINE
  5
432
100
AcDbEntity
  8
OBJECT
100
AcDbLine
 10
-189.99999999999977
 20
515.00000000000023
 30
0.0
 11
390.00000000000023
 21
515.00000000000023
 31
0.0
  0
LINE
  5
433
100
AcDbEntity
  8
OBJECT
100
AcDbLine
 10
400.00000000000023
 20
-49.999999999999716
 30
0.0
 11
400.00000000000023
 21
128.99694229263451
 31
0.0
  0
LINE
  5
434
100
AcDbEntity
  8
OBJECT
100
AcDbLine
 10
393.00000000000023
 20
127.32926292534233
 30
0.0
 11
393.00000000000023
 21
-4.9999999999997158
 31
0.0
  0
DIMENSION
  5
435
100
AcDbEntity
  8
DIMENTION
100
AcDbDimension
  2
*D32
 10
-244.99999999999977
 20
594.0
 30
0.0
 11
100.00000000000023
 21
594.0
 31
0.0
  3
CAD
100
AcDbAlignedDimension
 13
445.00000000000023
 23
470.00010000000026
 33
0.0
 14
-244.99999999999977
 24
470.00010000000026
 34
0.0
100
AcDbRotatedDimension
1001
ACAD
1000
DSTYLE
1002
{
1070
             271
1070
               0
1070
             340
1005
54
1070
             147
1040
0.9999999999999999
1002
}
  0
LINE
  5
436
100
AcDbEntity
  8
OBJECT
100
AcDbLine
 10
412.50000000000023
 20
163.24397704365362
 30
0.0
 11
412.50000000000023
 21
485.70160000000038
 31
0.0
  0
LINE
  5
437
100
AcDbEntity
  8
OBJECT
100
AcDbLine
 10
-171.38642629838091
 20
150.26791798131063
 30
0.0
 11
371.41357370161927
 21
150.26791798131063
 31
0.0
  0
LINE
  5
438
100
AcDbEntity
  8
OBJECT
100
AcDbLine
 10
371.41357370161882
 20
125.26791798131063
 30
0.0
 11
-171.38642629838091
 21
125.26791798131063
 31
0.0
  0
LINE
  5
439
100
AcDbEntity
  8
OBJECT
100
AcDbLine
 10
437.50000000000023
 20
485.70160000000038
 30
0.0
 11
437.50000000000023
 21
163.24397704365362
 31
0.0
  0
LINE
  5
43A
100
AcDbEntity
  8
OBJECT
100
AcDbLine
 10
412.50000000000023
 20
485.70160000000038
 30
0.0
 11
437.50000000000023
 21
485.70160000000038
 31
0.0
  0
DIMENSION
  5
43B
100
AcDbEntity
  8
DIMENTION
100
AcDbDimension
  2
*D33
 10
492.0
 20
-49.999999999999716
 30
0.0
 11
492.0
 21
60.000000000000284
 31
0.0
  3
CAD
100
AcDbAlignedDimension
 13
429.00000000000023
 23
170.00000000000028
 33
0.0
 14
412.00000000000023
 24
-49.999999999999716
 34
0.0
 50
90.0
100
AcDbRotatedDimension
1001
ACAD
1000
DSTYLE
1002
{
1070
             340
1005
54
1070
             147
1040
0.9998999999999999
1002
}
  0
LINE
  5
43C
100
AcDbEntity
  8
OBJECT
100
AcDbLine
 10
402.00000000000023
 20
225.00000000000051
 30
0.0
 11
400.00000000000023
 21
225.00000000000051
 31
0.0
  0
LINE
  5
43D
100
AcDbEntity
  8
OBJECT
100
AcDbLine
 10
402.00000000000023
 20
-49.999999999999716
 30
0.0
 11
402.00000000000023
 21
129.57607433726008
 31
0.0
  0
LINE
  5
43E
100
AcDbEntity
  8
OBJECT
100
AcDbLine
 10
402.00000000000023
 20
154.56584701689604
 30
0.0
 11
402.00000000000023
 21
225.00000000000051
 31
0.0
  0
LINE
  5
43F
100
AcDbEntity
  8
OBJECT
100
AcDbLine
 10
404.00000000000023
 20
167.50000000000028
 30
0.0
 11
402.00000000000023
 21
167.50000000000028
 31
0.0
  0
LINE
  5
440
100
AcDbEntity
  8
OBJECT
100
AcDbLine
 10
404.00000000000023
 20
191.6582674534539
 30
0.0
 11
404.00000000000023
 21
167.50000000000028
 31
0.0
  0
LINE
  5
441
100
AcDbEntity
  8
OBJECT
100
AcDbLine
 10
406.00000000000023
 20
189.00000000000051
 30
0.0
 11
406.00000000000023
 21
171.00000000000028
 31
0.0
  0
LINE
  5
442
100
AcDbEntity
  8
OBJECT
100
AcDbLine
 10
407.50000000000023
 20
189.00000000000051
 30
0.0
 11
407.50000000000023
 21
171.00000000000028
 31
0.0
  0
LINE
  5
443
100
AcDbEntity
  8
OBJECT
100
AcDbLine
 10
404.00000000000023
 20
171.00000000000028
 30
0.0
 11
406.00000000000023
 21
171.00000000000028
 31
0.0
  0
LINE
  5
444
100
AcDbEntity
  8
OBJECT
100
AcDbLine
 10
412.50000000000023
 20
171.00000000000028
 30
0.0
 11
407.50000000000023
 21
171.00000000000028
 31
0.0
  0
LINE
  5
445
100
AcDbEntity
  8
HIDDEN
100
AcDbLine
 10
421.00000000000023
 20
187.00000000000051
 30
0.0
 11
421.00000000000023
 21
173.00000000000028
 31
0.0
  0
LINE
  5
446
100
AcDbEntity
  8
OBJECT
100
AcDbLine
 10
406.00000000000023
 20
172.00000000000028
 30
0.0
 11
407.50000000000023
 21
172.00000000000028
 31
0.0
  0
LINE
  5
447
100
AcDbEntity
  8
HIDDEN
100
AcDbLine
 10
421.00000000000023
 20
176.00000000000028
 30
0.0
 11
424.00000000000023
 21
176.00000000000028
 31
0.0
  0
LINE
  5
448
100
AcDbEntity
  8
HIDDEN
100
AcDbLine
 10
426.00000000000023
 20
170.00000000000028
 30
0.0
 11
426.00000000000023
 21
200.00000000000051
 31
0.0
  0
LINE
  5
449
100
AcDbEntity
  8
HIDDEN
100
AcDbLine
 10
429.00000000000023
 20
170.00000000000028
 30
0.0
 11
426.00000000000023
 21
170.00000000000028
 31
0.0
  0
LINE
  5
44A
100
AcDbEntity
  8
HIDDEN
100
AcDbLine
 10
429.00000000000023
 20
190.00000000000051
 30
0.0
 11
429.00000000000023
 21
170.00000000000028
 31
0.0
  0
LINE
  5
44B
100
AcDbEntity
  8
HIDDEN
100
AcDbLine
 10
424.00000000000023
 20
175.00000000000028
 30
0.0
 11
424.00000000000023
 21
185.00000000000051
 31
0.0
  0
LINE
  5
44C
100
AcDbEntity
  8
HIDDEN
100
AcDbLine
 10
431.00000000000023
 20
175.00000000000028
 30
0.0
 11
429.00000000000023
 21
175.00000000000028
 31
0.0
  0
LINE
  5
44D
100
AcDbEntity
  8
HIDDEN
100
AcDbLine
 10
426.00000000000023
 20
175.00000000000028
 30
0.0
 11
424.00000000000023
 21
175.00000000000028
 31
0.0
  0
LINE
  5
44E
100
AcDbEntity
  8
HIDDEN
100
AcDbLine
 10
431.00000000000023
 20
185.00000000000051
 30
0.0
 11
431.00000000000023
 21
175.00000000000028
 31
0.0
  0
LINE
  5
44F
100
AcDbEntity
  8
HIDDEN
100
AcDbLine
 10
424.00000000000023
 20
185.00000000000051
 30
0.0
 11
426.00000000000023
 21
185.00000000000051
 31
0.0
  0
INSERT
  5
450
100
AcDbEntity
  8
OBJECT
100
AcDbBlockReference
  2
*U34
 10
1030.0000000045738
 20
380.0000000016874
 30
0.0
  0
ARC
  5
451
100
AcDbEntity
  8
OBJECT
100
AcDbCircle
 10
407.00000000000023
 20
-59.999999999999716
 30
0.0
 40
5.0
100
AcDbArc
 50
270.0
 51
0.0
  0
ARC
  5
452
100
AcDbEntity
  8
HIDDEN
100
AcDbCircle
 10
419.00000000000023
 20
173.00000000000028
 30
0.0
 40
2.0
100
AcDbArc
 50
270.0
 51
0.0
  0
LINE
  5
453
100
AcDbEntity
  8
OBJECT
100
AcDbLine
 10
404.00000000000023
 20
189.00000000000051
 30
0.0
 11
406.00000000000023
 21
189.00000000000051
 31
0.0
  0
LINE
  5
454
100
AcDbEntity
  8
OBJECT
100
AcDbLine
 10
412.50000000000023
 20
189.00000000000051
 30
0.0
 11
407.50000000000023
 21
189.00000000000051
 31
0.0
  0
LINE
  5
455
100
AcDbEntity
  8
OBJECT
100
AcDbLine
 10
406.00000000000023
 20
188.00000000000051
 30
0.0
 11
407.50000000000023
 21
188.00000000000051
 31
0.0
  0
LINE
  5
456
100
AcDbEntity
  8
HIDDEN
100
AcDbLine
 10
421.00000000000023
 20
184.00000000000051
 30
0.0
 11
424.00000000000023
 21
184.00000000000051
 31
0.0
  0
LINE
  5
457
100
AcDbEntity
  8
HIDDEN
100
AcDbLine
 10
429.00000000000023
 20
190.00000000000051
 30
0.0
 11
426.00000000000023
 21
190.00000000000051
 31
0.0
  0
LINE
  5
458
100
AcDbEntity
  8
HIDDEN
100
AcDbLine
 10
431.00000000000023
 20
185.00000000000051
 30
0.0
 11
429.00000000000023
 21
185.00000000000051
 31
0.0
  0
LINE
  5
459
100
AcDbEntity
  8
HIDDEN
100
AcDbLine
 10
426.00000000000023
 20
185.00000000000051
 30
0.0
 11
424.00000000000023
 21
185.00000000000051
 31
0.0
  0
ARC
  5
45A
100
AcDbEntity
  8
HIDDEN
100
AcDbCircle
 10
419.00000000000023
 20
187.00000000000051
 30
0.0
 40
2.0
100
AcDbArc
 50
0.0
 51
90.0
  0
SPLINE
  5
45B
100
AcDbEntity
  8
OBJECT
100
AcDbSpline
210
0.0
220
0.0
230
1.0
 70
               8
 71
               2
 72
              10
 73
               7
 74
               0
 42
0.000001
 43
0.000001
 40
0.0
 40
0.0
 40
0.0
 40
0.4547777859909571
 40
0.4547777859909571
 40
0.8035774133482003
 40
0.8035774133482003
 40
1.0
 40
1.0
 40
1.0
 10
371.41357370161927
 20
150.26791798131063
 30
0.0
 10
382.42628551053826
 20
150.26791798131063
 30
0.0
 10
391.96357370161923
 20
152.0063802546573
 30
0.0
 10
401.50086189270019
 20
153.74484252800397
 30
0.0
 10
407.00721779715968
 20
156.75594751248207
 30
0.0
 10
412.51357370161918
 20
159.76705249696016
 30
0.0
 10
412.51357370161918
 20
163.24397704365362
 30
0.0
  0
SPLINE
  5
45C
100
AcDbEntity
  8
OBJECT
100
AcDbSpline
210
0.0
220
0.0
230
1.0
 70
               8
 71
               2
 72
              10
 73
               7
 74
               0
 42
0.000001
 43
0.000001
 40
0.0
 40
0.0
 40
0.0
 40
0.4032987358771503
 40
0.4032987358771503
 40
0.741428409575448
 40
0.741428409575448
 40
1.0
 40
1.0
 40
1.0
 10
371.41357370161882
 20
125.26791798131063
 30
0.0
 10
389.12501532131614
 20
125.26791798131063
 30
0.0
 10
404.463573701619
 20
130.3557451600463
 30
0.0
 10
419.80213208192185
 20
135.44357233878196
 30
0.0
 10
428.65785289177052
 20
144.25594751248207
 30
0.0
 10
437.51357370161918
 20
153.06832268618217
 30
0.0
 10
437.51357370161918
 20
163.24397704365362
 30
0.0
  0
POLYLINE
  5
45D
100
AcDbEntity
  8
OBJECT
100
AcDb2dPolyline
 66
               1
 10
0.0
 20
0.0
 30
0.0
 70
               1
 75
               5
  0
VERTEX
  5
45E
100
AcDbEntity
  8
OBJECT
100
AcDbVertex
100
AcDb2dVertex
 10
443.71950000000129
 20
462.49440000000033
 30
0.0
  0
VERTEX
  5
45F
100
AcDbEntity
  8
OBJECT
100
AcDbVertex
100
AcDb2dVertex
 10
443.71950000000129
 20
462.49440000000033
 30
0.0
  0
VERTEX
  5
460
100
AcDbEntity
  8
OBJECT
100
AcDbVertex
100
AcDb2dVertex
 10
437.50000000000023
 20
462.49440000000033
 30
0.0
  0
VERTEX
  5
461
100
AcDbEntity
  8
OBJECT
100
AcDbVertex
100
AcDb2dVertex
 10
437.50000000000023
 20
463.50000000000028
 30
0.0
  0
VERTEX
  5
462
100
AcDbEntity
  8
OBJECT
100
AcDbVertex
100
AcDb2dVertex
 10
437.50000000000023
 20
476.50000000000028
 30
0.0
  0
VERTEX
  5
463
100
AcDbEntity
  8
OBJECT
100
AcDbVertex
100
AcDb2dVertex
 10
437.50000000000023
 20
477.50560000000047
 30
0.0
  0
VERTEX
  5
464
100
AcDbEntity
  8
OBJECT
100
AcDbVertex
100
AcDb2dVertex
 10
443.71950000000129
 20
477.50560000000047
 30
0.0
  0
VERTEX
  5
465
100
AcDbEntity
  8
OBJECT
100
AcDbVertex
100
AcDb2dVertex
 10
444.30010000000061
 20
476.50000000000028
 30
0.0
  0
VERTEX
  5
466
100
AcDbEntity
  8
OBJECT
100
AcDbVertex
100
AcDb2dVertex
 10
444.30010000000061
 20
463.50000000000028
 30
0.0
  0
SEQEND
  5
467
100
AcDbEntity
  8
OBJECT
  0
SPLINE
  5
468
100
AcDbEntity
  8
OBJECT
100
AcDbSpline
210
0.0
220
0.0
230
1.0
 70
               8
 71
               2
 72
               6
 73
               3
 74
               0
 42
0.000001
 43
0.000001
 40
0.0
 40
0.0
 40
0.0
 40
1.0
 40
1.0
 40
1.0
 10
443.71950000000129
 20
477.50560000000047
 30
0.0
 10
444.87831069958838
 20
475.62920000000037
 30
0.0
 10
443.71950000000129
 20
473.75280000000026
 30
0.0
  0
SPLINE
  5
469
100
AcDbEntity
  8
OBJECT
100
AcDbSpline
210
0.0
220
0.0
230
1.0
 70
               8
 71
               2
 72
               6
 73
               3
 74
               0
 42
0.000001
 43
0.000001
 40
0.0
 40
0.0
 40
0.0
 40
1.0
 40
1.0
 40
1.0
 10
443.71950000000129
 20
473.75280000000026
 30
0.0
 10
444.87831069958838
 20
470.00000000000028
 30
0.0
 10
443.71950000000129
 20
466.2472000000003
 30
0.0
  0
SPLINE
  5
46A
100
AcDbEntity
  8
OBJECT
100
AcDbSpline
210
0.0
220
0.0
230
1.0
 70
               8
 71
               2
 72
               6
 73
               3
 74
               0
 42
0.000001
 43
0.000001
 40
0.0
 40
0.0
 40
0.0
 40
1.0
 40
1.0
 40
1.0
 10
443.71950000000129
 20
466.2472000000003
 30
0.0
 10
444.87831069958838
 20
464.37080000000054
 30
0.0
 10
443.71950000000129
 20
462.49440000000033
 30
0.0
  0
LINE
  5
46B
100
AcDbEntity
  8
OBJECT
100
AcDbLine
 10
443.71950000000129
 20
473.75280000000026
 30
0.0
 11
437.51950000000056
 21
473.75280000000026
 31
0.0
  0
LINE
  5
46C
100
AcDbEntity
  8
OBJECT
100
AcDbLine
 10
443.71950000000129
 20
466.2472000000003
 30
0.0
 11
437.51950000000056
 21
466.2472000000003
 31
0.0
  0
LINE
  5
46D
100
AcDbEntity
  8
OBJECT
100
AcDbLine
 10
-211.99999999999977
 20
-49.999999999999716
 30
0.0
 11
-211.99999999999977
 21
-59.999999999999716
 31
0.0
  0
POLYLINE
  5
46E
100
AcDbEntity
  8
OBJECT
100
AcDb2dPolyline
 66
               1
 10
0.0
 20
0.0
 30
0.0
 70
               1
 75
               5
  0
VERTEX
  5
46F
100
AcDbEntity
  8
OBJECT
100
AcDbVertex
100
AcDb2dVertex
 10
-243.71950000000083
 20
220.79440000000028
 30
0.0
  0
VERTEX
  5
470
100
AcDbEntity
  8
OBJECT
100
AcDbVertex
100
AcDb2dVertex
 10
-243.71950000000083
 20
220.79440000000028
 30
0.0
  0
VERTEX
  5
471
100
AcDbEntity
  8
OBJECT
100
AcDbVertex
100
AcDb2dVertex
 10
-237.49999999999977
 20
220.79440000000028
 30
0.0
  0
VERTEX
  5
472
100
AcDbEntity
  8
OBJECT
100
AcDbVertex
100
AcDb2dVertex
 10
-237.49999999999977
 20
221.80000000000024
 30
0.0
  0
VERTEX
  5
473
100
AcDbEntity
  8
OBJECT
100
AcDbVertex
100
AcDb2dVertex
 10
-237.49999999999977
 20
234.80000000000024
 30
0.0
  0
VERTEX
  5
474
100
AcDbEntity
  8
OBJECT
100
AcDbVertex
100
AcDb2dVertex
 10
-237.49999999999977
 20
235.80560000000042
 30
0.0
  0
VERTEX
  5
475
100
AcDbEntity
  8
OBJECT
100
AcDbVertex
100
AcDb2dVertex
 10
-243.71950000000083
 20
235.80560000000042
 30
0.0
  0
VERTEX
  5
476
100
AcDbEntity
  8
OBJECT
100
AcDbVertex
100
AcDb2dVertex
 10
-244.30010000000016
 20
234.80000000000024
 30
0.0
  0
VERTEX
  5
477
100
AcDbEntity
  8
OBJECT
100
AcDbVertex
100
AcDb2dVertex
 10
-244.30010000000016
 20
221.80000000000024
 30
0.0
  0
SEQEND
  5
478
100
AcDbEntity
  8
OBJECT
  0
SPLINE
  5
479
100
AcDbEntity
  8
OBJECT
100
AcDbSpline
210
0.0
220
0.0
230
1.0
 70
               8
 71
               2
 72
               6
 73
               3
 74
               0
 42
0.000001
 43
0.000001
 40
0.0
 40
0.0
 40
0.0
 40
1.0
 40
1.0
 40
1.0
 10
-243.71950000000083
 20
235.80560000000042
 30
0.0
 10
-244.87831069958793
 20
233.92920000000032
 30
0.0
 10
-243.71950000000083
 20
232.05280000000022
 30
0.0
  0
SPLINE
  5
47A
100
AcDbEntity
  8
OBJECT
100
AcDbSpline
210
0.0
220
0.0
230
1.0
 70
               8
 71
               2
 72
               6
 73
               3
 74
               0
 42
0.000001
 43
0.000001
 40
0.0
 40
0.0
 40
0.0
 40
1.0
 40
1.0
 40
1.0
 10
-243.71950000000083
 20
232.05280000000022
 30
0.0
 10
-244.87831069958793
 20
228.30000000000024
 30
0.0
 10
-243.71950000000083
 20
224.54720000000026
 30
0.0
  0
SPLINE
  5
47B
100
AcDbEntity
  8
OBJECT
100
AcDbSpline
210
0.0
220
0.0
230
1.0
 70
               8
 71
               2
 72
               6
 73
               3
 74
               0
 42
0.000001
 43
0.000001
 40
0.0
 40
0.0
 40
0.0
 40
1.0
 40
1.0
 40
1.0
 10
-243.71950000000083
 20
224.54720000000026
 30
0.0
 10
-244.87831069958793
 20
222.6708000000005
 30
0.0
 10
-243.71950000000083
 20
220.79440000000028
 30
0.0
  0
LINE
  5
47C
100
AcDbEntity
  8
OBJECT
100
AcDbLine
 10
-243.71950000000083
 20
232.05280000000022
 30
0.0
 11
-237.51950000000011
 21
232.05280000000022
 31
0.0
  0
LINE
  5
47D
100
AcDbEntity
  8
OBJECT
100
AcDbLine
 10
-243.71950000000083
 20
224.54720000000026
 30
0.0
 11
-237.51950000000011
 21
224.54720000000026
 31
0.0
  0
POLYLINE
  5
47E
100
AcDbEntity
  8
OBJECT
100
AcDb2dPolyline
 66
               1
 10
0.0
 20
0.0
 30
0.0
 75
               5
  0
VERTEX
  5
47F
100
AcDbEntity
  8
OBJECT
100
AcDbVertex
100
AcDb2dVertex
 10
-199.99999999999977
 20
476.00000000000028
 30
0.0
  0
VERTEX
  5
480
100
AcDbEntity
  8
OBJECT
100
AcDbVertex
100
AcDb2dVertex
 10
-211.99999999999977
 20
476.00000000000028
 30
0.0
  0
VERTEX
  5
481
100
AcDbEntity
  8
OBJECT
100
AcDbVertex
100
AcDb2dVertex
 10
-211.99999999999977
 20
464.00000000000028
 30
0.0
  0
VERTEX
  5
482
100
AcDbEntity
  8
OBJECT
100
AcDbVertex
100
AcDb2dVertex
 10
-199.99999999999977
 20
464.00000000000028
 30
0.0
  0
SEQEND
  5
483
100
AcDbEntity
  8
OBJECT
  0
POLYLINE
  5
484
100
AcDbEntity
  8
OBJECT
100
AcDb2dPolyline
 66
               1
 10
0.0
 20
0.0
 30
0.0
 75
               5
  0
VERTEX
  5
485
100
AcDbEntity
  8
OBJECT
100
AcDbVertex
100
AcDb2dVertex
 10
-212.49999999999977
 20
475.00000000000028
 30
0.0
  0
VERTEX
  5
486
100
AcDbEntity
  8
OBJECT
100
AcDbVertex
100
AcDb2dVertex
 10
-211.99999999999977
 20
475.00000000000028
 30
0.0
  0
VERTEX
  5
487
100
AcDbEntity
  8
OBJECT
100
AcDbVertex
100
AcDb2dVertex
 10
-211.99999999999977
 20
465.00000000000028
 30
0.0
  0
VERTEX
  5
488
100
AcDbEntity
  8
OBJECT
100
AcDbVertex
100
AcDb2dVertex
 10
-212.49999999999977
 20
465.00000000000028
 30
0.0
  0
SEQEND
  5
489
100
AcDbEntity
  8
OBJECT
  0
LINE
  5
48A
100
AcDbEntity
  8
OBJECT
100
AcDbLine
 10
-199.99999999999977
 20
490.00000000000028
 30
0.0
 11
-189.99999999999977
 21
490.00000000000028
 31
0.0
  0
LINE
  5
48B
100
AcDbEntity
  8
OBJECT
100
AcDbLine
 10
-199.99999999999977
 20
153.91841082392835
 30
0.0
 11
-199.99999999999977
 21
490.00000000000028
 31
0.0
  0
LINE
  5
48C
100
AcDbEntity
  8
OBJECT
100
AcDbLine
 10
-192.99999999999977
 20
490.00000000000028
 30
0.0
 11
-192.99999999999977
 21
152.20661921536163
 31
0.0
  0
LINE
  5
48D
100
AcDbEntity
  8
OBJECT
100
AcDbLine
 10
-189.99999999999977
 20
515.00000000000023
 30
0.0
 11
-189.99999999999977
 21
151.6734922478866
 31
0.0
  0
LINE
  5
48E
100
AcDbEntity
  8
OBJECT
100
AcDbLine
 10
-189.99999999999977
 20
126.78103734972404
 30
0.0
 11
-189.99999999999977
 21
-49.999999999999716
 31
0.0
  0
LINE
  5
48F
100
AcDbEntity
  8
OBJECT
100
AcDbLine
 10
-199.99999999999977
 20
-49.999999999999716
 30
0.0
 11
-199.99999999999977
 21
129.00447894012592
 31
0.0
  0
LINE
  5
490
100
AcDbEntity
  8
OBJECT
100
AcDbLine
 10
-192.99999999999977
 20
127.3346987284994
 30
0.0
 11
-192.99999999999977
 21
-4.9999999999997158
 31
0.0
  0
LINE
  5
491
100
AcDbEntity
  8
OBJECT
100
AcDbLine
 10
-212.48642629838128
 20
163.24397704365362
 30
0.0
 11
-212.49999999999977
 21
485.70160000000038
 31
0.0
  0
LINE
  5
492
100
AcDbEntity
  8
OBJECT
100
AcDbLine
 10
-237.49999999999977
 20
485.70160000000038
 30
0.0
 11
-237.49999999999977
 21
163.24397704365362
 31
0.0
  0
LINE
  5
493
100
AcDbEntity
  8
OBJECT
100
AcDbLine
 10
-212.49999999999977
 20
485.70160000000038
 30
0.0
 11
-237.49999999999977
 21
485.70160000000038
 31
0.0
  0
LINE
  5
494
100
AcDbEntity
  8
OBJECT
100
AcDbLine
 10
-201.99999999999977
 20
-49.999999999999716
 30
0.0
 11
-201.99999999999977
 21
129.58410619642456
 31
0.0
  0
INSERT
  5
495
100
AcDbEntity
  8
OBJECT
100
AcDbBlockReference
  2
*U35
 10
1030.0000000045738
 20
380.0000000016874
 30
0.0
  0
ARC
  5
496
100
AcDbEntity
  8
OBJECT
100
AcDbCircle
 10
-206.99999999999977
 20
-59.999999999999716
 30
0.0
 40
5.0
100
AcDbArc
 50
180.0
 51
270.0
  0
SPLINE
  5
497
100
AcDbEntity
  8
OBJECT
100
AcDbSpline
210
0.0
220
0.0
230
1.0
 70
               8
 71
               2
 72
              10
 73
               7
 74
               0
 42
0.000001
 43
0.000001
 40
0.0
 40
0.0
 40
0.0
 40
0.4547777859909575
 40
0.4547777859909575
 40
0.8035774133482012
 40
0.8035774133482012
 40
1.0
 40
1.0
 40
1.0
 10
-171.38642629838137
 20
150.26791798131063
 30
0.0
 10
-182.39913810730036
 20
150.26791798131063
 30
0.0
 10
-191.93642629838132
 20
152.0063802546573
 30
0.0
 10
-201.47371448946228
 20
153.74484252800397
 30
0.0
 10
-206.98007039392178
 20
156.75594751248207
 30
0.0
 10
-212.48642629838128
 20
159.76705249696016
 30
0.0
 10
-212.48642629838128
 20
163.24397704365362
 30
0.0
  0
SPLINE
  5
498
100
AcDbEntity
  8
OBJECT
100
AcDbSpline
210
0.0
220
0.0
230
1.0
 70
               8
 71
               2
 72
              10
 73
               7
 74
               0
 42
0.000001
 43
0.000001
 40
0.0
 40
0.0
 40
0.0
 40
0.4032987358771502
 40
0.4032987358771502
 40
0.7414284095754479
 40
0.7414284095754479
 40
1.0
 40
1.0
 40
1.0
 10
-171.38642629838091
 20
125.26791798131063
 30
0.0
 10
-189.09786791807824
 20
125.26791798131063
 30
0.0
 10
-204.43642629838109
 20
130.3557451600463
 30
0.0
 10
-219.77498467868395
 20
135.44357233878196
 30
0.0
 10
-228.63070548853261
 20
144.25594751248207
 30
0.0
 10
-237.48642629838128
 20
153.06832268618217
 30
0.0
 10
-237.48642629838128
 20
163.24397704365362
 30
0.0
  0
POLYLINE
  5
499
100
AcDbEntity
  8
OBJECT
100
AcDb2dPolyline
 66
               1
 10
0.0
 20
0.0
 30
0.0
 70
               1
 75
               5
  0
VERTEX
  5
49A
100
AcDbEntity
  8
OBJECT
100
AcDbVertex
100
AcDb2dVertex
 10
-243.71950000000083
 20
462.49440000000033
 30
0.0
  0
VERTEX
  5
49B
100
AcDbEntity
  8
OBJECT
100
AcDbVertex
100
AcDb2dVertex
 10
-243.71950000000083
 20
462.49440000000033
 30
0.0
  0
VERTEX
  5
49C
100
AcDbEntity
  8
OBJECT
100
AcDbVertex
100
AcDb2dVertex
 10
-237.49999999999977
 20
462.49440000000033
 30
0.0
  0
VERTEX
  5
49D
100
AcDbEntity
  8
OBJECT
100
AcDbVertex
100
AcDb2dVertex
 10
-237.49999999999977
 20
463.50000000000028
 30
0.0
  0
VERTEX
  5
49E
100
AcDbEntity
  8
OBJECT
100
AcDbVertex
100
AcDb2dVertex
 10
-237.49999999999977
 20
476.50000000000028
 30
0.0
  0
VERTEX
  5
49F
100
AcDbEntity
  8
OBJECT
100
AcDbVertex
100
AcDb2dVertex
 10
-237.49999999999977
 20
477.50560000000047
 30
0.0
  0
VERTEX
  5
4A0
100
AcDbEntity
  8
OBJECT
100
AcDbVertex
100
AcDb2dVertex
 10
-243.71950000000083
 20
477.50560000000047
 30
0.0
  0
VERTEX
  5
4A1
100
AcDbEntity
  8
OBJECT
100
AcDbVertex
100
AcDb2dVertex
 10
-244.30010000000016
 20
476.50000000000028
 30
0.0
  0
VERTEX
  5
4A2
100
AcDbEntity
  8
OBJECT
100
AcDbVertex
100
AcDb2dVertex
 10
-244.30010000000016
 20
463.50000000000028
 30
0.0
  0
SEQEND
  5
4A3
100
AcDbEntity
  8
OBJECT
  0
SPLINE
  5
4A4
100
AcDbEntity
  8
OBJECT
100
AcDbSpline
210
0.0
220
0.0
230
1.0
 70
               8
 71
               2
 72
               6
 73
               3
 74
               0
 42
0.000001
 43
0.000001
 40
0.0
 40
0.0
 40
0.0
 40
1.0
 40
1.0
 40
1.0
 10
-243.71950000000083
 20
477.50560000000047
 30
0.0
 10
-244.87831069958793
 20
475.62920000000037
 30
0.0
 10
-243.71950000000083
 20
473.75280000000026
 30
0.0
  0
SPLINE
  5
4A5
100
AcDbEntity
  8
OBJECT
100
AcDbSpline
210
0.0
220
0.0
230
1.0
 70
               8
 71
               2
 72
               6
 73
               3
 74
               0
 42
0.000001
 43
0.000001
 40
0.0
 40
0.0
 40
0.0
 40
1.0
 40
1.0
 40
1.0
 10
-243.71950000000083
 20
473.75280000000026
 30
0.0
 10
-244.87831069958793
 20
470.00000000000028
 30
0.0
 10
-243.71950000000083
 20
466.2472000000003
 30
0.0
  0
SPLINE
  5
4A6
100
AcDbEntity
  8
OBJECT
100
AcDbSpline
210
0.0
220
0.0
230
1.0
 70
               8
 71
               2
 72
               6
 73
               3
 74
               0
 42
0.000001
 43
0.000001
 40
0.0
 40
0.0
 40
0.0
 40
1.0
 40
1.0
 40
1.0
 10
-243.71950000000083
 20
466.2472000000003
 30
0.0
 10
-244.87831069958793
 20
464.37080000000054
 30
0.0
 10
-243.71950000000083
 20
462.49440000000033
 30
0.0
  0
LINE
  5
4A7
100
AcDbEntity
  8
OBJECT
100
AcDbLine
 10
-243.71950000000083
 20
473.75280000000026
 30
0.0
 11
-237.51950000000011
 21
473.75280000000026
 31
0.0
  0
LINE
  5
4A8
100
AcDbEntity
  8
OBJECT
100
AcDbLine
 10
-243.71950000000083
 20
466.2472000000003
 30
0.0
 11
-237.51950000000011
 21
466.2472000000003
 31
0.0
  0
LINE
  5
4A9
100
AcDbEntity
  8
OBJECT
100
AcDbLine
 10
-201.99999999999977
 20
225.00000000000051
 30
0.0
 11
-199.99999999999977
 21
225.00000000000051
 31
0.0
  0
LINE
  5
4AA
100
AcDbEntity
  8
OBJECT
100
AcDbLine
 10
-201.99999999999977
 20
154.57537711484071
 30
0.0
 11
-201.99999999999977
 21
225.00000000000051
 31
0.0
  0
LINE
  5
4AB
100
AcDbEntity
  8
OBJECT
100
AcDbLine
 10
-203.99999999999977
 20
167.50000000000028
 30
0.0
 11
-201.99999999999977
 21
167.50000000000028
 31
0.0
  0
LINE
  5
4AC
100
AcDbEntity
  8
OBJECT
100
AcDbLine
 10
-203.99999999999977
 20
191.6582674534539
 30
0.0
 11
-203.99999999999977
 21
167.50000000000028
 31
0.0
  0
LINE
  5
4AD
100
AcDbEntity
  8
OBJECT
100
AcDbLine
 10
-205.99999999999977
 20
189.00000000000051
 30
0.0
 11
-205.99999999999977
 21
171.00000000000028
 31
0.0
  0
LINE
  5
4AE
100
AcDbEntity
  8
OBJECT
100
AcDbLine
 10
-207.49999999999977
 20
189.00000000000051
 30
0.0
 11
-207.49999999999977
 21
171.00000000000028
 31
0.0
  0
LINE
  5
4AF
100
AcDbEntity
  8
OBJECT
100
AcDbLine
 10
-203.99999999999977
 20
171.00000000000028
 30
0.0
 11
-205.99999999999977
 21
171.00000000000028
 31
0.0
  0
LINE
  5
4B0
100
AcDbEntity
  8
OBJECT
100
AcDbLine
 10
-212.49999999999977
 20
171.00000000000028
 30
0.0
 11
-207.49999999999977
 21
171.00000000000028
 31
0.0
  0
LINE
  5
4B1
100
AcDbEntity
  8
HIDDEN
100
AcDbLine
 10
-220.99999999999977
 20
187.00000000000051
 30
0.0
 11
-220.99999999999977
 21
173.00000000000028
 31
0.0
  0
LINE
  5
4B2
100
AcDbEntity
  8
OBJECT
100
AcDbLine
 10
-205.99999999999977
 20
172.00000000000028
 30
0.0
 11
-207.49999999999977
 21
172.00000000000028
 31
0.0
  0
LINE
  5
4B3
100
AcDbEntity
  8
HIDDEN
100
AcDbLine
 10
-220.99999999999977
 20
176.00000000000028
 30
0.0
 11
-223.99999999999977
 21
176.00000000000028
 31
0.0
  0
LINE
  5
4B4
100
AcDbEntity
  8
HIDDEN
100
AcDbLine
 10
-225.99999999999977
 20
170.00000000000028
 30
0.0
 11
-225.99999999999977
 21
200.00000000000051
 31
0.0
  0
LINE
  5
4B5
100
AcDbEntity
  8
HIDDEN
100
AcDbLine
 10
-228.99999999999977
 20
170.00000000000028
 30
0.0
 11
-225.99999999999977
 21
170.00000000000028
 31
0.0
  0
LINE
  5
4B6
100
AcDbEntity
  8
HIDDEN
100
AcDbLine
 10
-228.99999999999977
 20
190.00000000000051
 30
0.0
 11
-228.99999999999977
 21
170.00000000000028
 31
0.0
  0
LINE
  5
4B7
100
AcDbEntity
  8
HIDDEN
100
AcDbLine
 10
-223.99999999999977
 20
175.00000000000028
 30
0.0
 11
-223.99999999999977
 21
185.00000000000051
 31
0.0
  0
LINE
  5
4B8
100
AcDbEntity
  8
HIDDEN
100
AcDbLine
 10
-230.99999999999977
 20
175.00000000000028
 30
0.0
 11
-228.99999999999977
 21
175.00000000000028
 31
0.0
  0
LINE
  5
4B9
100
AcDbEntity
  8
HIDDEN
100
AcDbLine
 10
-225.99999999999977
 20
175.00000000000028
 30
0.0
 11
-223.99999999999977
 21
175.00000000000028
 31
0.0
  0
LINE
  5
4BA
100
AcDbEntity
  8
HIDDEN
100
AcDbLine
 10
-230.99999999999977
 20
185.00000000000051
 30
0.0
 11
-230.99999999999977
 21
175.00000000000028
 31
0.0
  0
LINE
  5
4BB
100
AcDbEntity
  8
HIDDEN
100
AcDbLine
 10
-223.99999999999977
 20
185.00000000000051
 30
0.0
 11
-225.99999999999977
 21
185.00000000000051
 31
0.0
  0
ARC
  5
4BC
100
AcDbEntity
  8
HIDDEN
100
AcDbCircle
 10
-218.99999999999977
 20
173.00000000000028
 30
0.0
 40
2.0
100
AcDbArc
 50
180.0
 51
270.0
  0
LINE
  5
4BD
100
AcDbEntity
  8
OBJECT
100
AcDbLine
 10
-203.99999999999977
 20
189.00000000000051
 30
0.0
 11
-205.99999999999977
 21
189.00000000000051
 31
0.0
  0
LINE
  5
4BE
100
AcDbEntity
  8
OBJECT
100
AcDbLine
 10
-212.49999999999977
 20
189.00000000000051
 30
0.0
 11
-207.49999999999977
 21
189.00000000000051
 31
0.0
  0
LINE
  5
4BF
100
AcDbEntity
  8
OBJECT
100
AcDbLine
 10
-205.99999999999977
 20
188.00000000000051
 30
0.0
 11
-207.49999999999977
 21
188.00000000000051
 31
0.0
  0
LINE
  5
4C0
100
AcDbEntity
  8
HIDDEN
100
AcDbLine
 10
-220.99999999999977
 20
184.00000000000051
 30
0.0
 11
-223.99999999999977
 21
184.00000000000051
 31
0.0
  0
LINE
  5
4C1
100
AcDbEntity
  8
HIDDEN
100
AcDbLine
 10
-228.99999999999977
 20
190.00000000000051
 30
0.0
 11
-225.99999999999977
 21
190.00000000000051
 31
0.0
  0
LINE
  5
4C2
100
AcDbEntity
  8
HIDDEN
100
AcDbLine
 10
-230.99999999999977
 20
185.00000000000051
 30
0.0
 11
-228.99999999999977
 21
185.00000000000051
 31
0.0
  0
LINE
  5
4C3
100
AcDbEntity
  8
HIDDEN
100
AcDbLine
 10
-225.99999999999977
 20
185.00000000000051
 30
0.0
 11
-223.99999999999977
 21
185.00000000000051
 31
0.0
  0
ARC
  5
4C4
100
AcDbEntity
  8
HIDDEN
100
AcDbCircle
 10
-218.99999999999977
 20
187.00000000000051
 30
0.0
 40
2.0
100
AcDbArc
 50
90.0
 51
180.0
  0
LINE
  5
4C5
100
AcDbEntity
  8
OBJECT
100
AcDbLine
 10
-203.99999999999977
 20
191.6582674534539
 30
0.0
 11
-201.99999999999977
 21
191.6582674534539
 31
0.0
  0
LINE
  5
4C6
100
AcDbEntity
  8
OBJECT
100
AcDbLine
 10
404.00000000000023
 20
191.6582674534539
 30
0.0
 11
402.00000000000023
 21
191.6582674534539
 31
0.0
  0
DIMENSION
  5
4C7
100
AcDbEntity
  8
DIMENTION
100
AcDbDimension
  2
*D36
 10
1371.9146341463431
 20
-49.999999999999716
 30
0.0
 11
1371.9146341463431
 21
37.633958990655458
 31
0.0
  3
CAD
100
AcDbAlignedDimension
 13
1511.8829289207786
 23
125.26791798131063
 33
0.0
 14
1552.9146341463422
 24
-49.999999999999716
 34
0.0
 50
90.0
100
AcDbRotatedDimension
1001
ACAD
1000
DSTYLE
1002
{
1070
             271
1070
               0
1070
             340
1005
54
1070
             147
1040
5.0
1002
}
  0
LINE
  5
4C8
100
AcDbEntity
  8
OBJECT
100
AcDbLine
 10
1552.9146341463422
 20
-64.999999999999943
 30
0.0
 11
1552.9146341463422
 21
-49.999999999999716
 31
0.0
  0
LINE
  5
4C9
100
AcDbEntity
  8
OBJECT
100
AcDbLine
 10
2181.914634146342
 20
-54.999999999999716
 30
0.0
 11
1557.9146341463422
 21
-54.999999999999716
 31
0.0
  0
LINE
  5
4CA
100
AcDbEntity
  8
OBJECT
100
AcDbLine
 10
2181.914634146342
 20
-49.999999999999716
 30
0.0
 11
2181.914634146342
 21
-54.999999999999716
 31
0.0
  0
LINE
  5
4CB
100
AcDbEntity
  8
OBJECT
100
AcDbLine
 10
1557.9146341463422
 20
-54.999999999999716
 30
0.0
 11
1557.9146341463422
 21
-64.999999999999943
 31
0.0
  0
LINE
  5
4CC
100
AcDbEntity
  8
OBJECT
100
AcDbLine
 10
1552.9146341463422
 20
-64.999999999999943
 30
0.0
 11
1557.9146341463422
 21
-64.999999999999943
 31
0.0
  0
DIMENSION
  5
4CD
100
AcDbEntity
  8
DIMENTION
100
AcDbDimension
  2
*D37
 10
1564.9146341463422
 20
-149.99999999999994
 30
0.0
 11
1493.064634146343
 21
-149.99999999999994
 31
0.0
  1
145
  3
CAD
100
AcDbAlignedDimension
 13
1421.2146341463438
 23
470.00000000000028
 33
0.0
 14
1564.9146341463422
 24
-82.999999999999943
 34
0.0
100
AcDbRotatedDimension
1001
ACAD
1000
DSTYLE
1002
{
1070
             271
1070
               0
1070
             340
1005
54
1070
             147
1040
0.9998999999999999
1002
}
  0
LINE
  5
4CE
100
AcDbEntity
  8
OBJECT
100
AcDbLine
 10
1573.9146341463422
 20
446.8628834942561
 30
0.0
 11
1573.9146341463422
 21
182.94730340209964
 31
0.0
  0
LINE
  5
4CF
100
AcDbEntity
  8
OBJECT
100
AcDbLine
 10
1573.9146341463422
 20
155.02200347841409
 30
0.0
 11
1573.9146341463422
 21
-49.999999999999716
 31
0.0
  0
LINE
  5
4D0
100
AcDbEntity
  8
OBJECT
100
AcDbLine
 10
1862.9146341463422
 20
515.00000000000023
 30
0.0
 11
1581.8818567423916
 21
456.65409465661952
 31
0.0
  0
LINE
  5
4D1
100
AcDbEntity
  8
OBJECT
100
AcDbLine
 10
2151.914634146342
 20
490.00000000000028
 30
0.0
 11
1862.9146341463422
 21
515.00000000000023
 31
0.0
  0
LINE
  5
4D2
100
AcDbEntity
  8
OBJECT
100
AcDbLine
 10
2120.3146341463416
 20
487.00000000000028
 30
0.0
 11
2120.3146341463416
 21
455.08989292996608
 31
0.0
  0
LINE
  5
4D3
100
AcDbEntity
  8
OBJECT
100
AcDbLine
 10
2169.914634146342
 20
490.00000000000028
 30
0.0
 11
2123.3146341463416
 21
490.00000000000028
 31
0.0
  0
LINE
  5
4D4
100
AcDbEntity
  8
OBJECT
100
AcDbLine
 10
2169.914634146342
 20
227.00000000000028
 30
0.0
 11
2149.5997733086369
 21
227.00000000000028
 31
0.0
  0
LINE
  5
4D5
100
AcDbEntity
  8
OBJECT
100
AcDbLine
 10
2124.914634146342
 20
-49.999999999999716
 30
0.0
 11
2124.914634146342
 21
216.54643361266727
 31
0.0
  0
LINE
  5
4D6
100
AcDbEntity
  8
OBJECT
100
AcDbLine
 10
1552.9146341463422
 20
-49.999999999999716
 30
0.0
 11
2181.914634146342
 21
-49.999999999999716
 31
0.0
  0
LINE
  5
4D7
100
AcDbEntity
  8
OBJECT
100
AcDbLine
 10
2120.3146341463416
 20
403.30464243349371
 30
0.0
 11
2120.3146341463416
 21
-49.999999999999716
 31
0.0
  0
LINE
  5
4D8
100
AcDbEntity
  8
OBJECT
100
AcDbLine
 10
2169.914634146342
 20
-49.999999999999716
 30
0.0
 11
2169.914634146342
 21
421.01639674577774
 31
0.0
  0
LINE
  5
4D9
100
AcDbEntity
  8
OBJECT
100
AcDbLine
 10
2169.914634146342
 20
479.81967092034148
 30
0.0
 11
2169.914634146342
 21
490.00000000000028
 31
0.0
  0
ARC
  5
4DA
100
AcDbEntity
  8
OBJECT
100
AcDbCircle
 10
2123.3146341463416
 20
487.00000000000028
 30
0.0
 40
3.0
100
AcDbArc
 50
90.0
 51
180.0
  0
POINT
  5
4DB
100
AcDbEntity
  8
OBJECT
  6
CONTINUOUS
100
AcDbPoint
 10
1573.9146341463422
 20
455.00000000000028
 30
0.0
  0
ARC
  5
4DC
100
AcDbEntity
  8
OBJECT
100
AcDbCircle
 10
1583.9146341463422
 20
446.8628834942561
 30
0.0
 40
10.000000000000114
100
AcDbArc
 50
101.72869815645652
 51
180.0
  0
ARC
  5
4DD
100
AcDbEntity
  8
DIMENTION
  6
STYLE_15
100
AcDbCircle
 10
2178.7027997420928
 20
470.21450902884118
 30
0.0
 40
757.50000000000023
100
AcDbArc
 50
159.90465488297417
 51
206.4751878049716
  0
POINT
  5
4DE
100
AcDbEntity
  8
OUTLINE
  6
CONTINUOUS
100
AcDbPoint
 10
2169.914634146342
 20
490.00000000000028
 30
0.0
  0
LINE
  5
4DF
100
AcDbEntity
  8
OBJECT
100
AcDbLine
 10
2185.714634146344
 20
490.00000000000028
 30
0.0
 11
2168.714634146344
 21
490.00000000000028
 31
0.0
  0
LINE
  5
4E0
100
AcDbEntity
  8
OBJECT
100
AcDbLine
 10
2195.714634146344
 20
450.00000000000051
 30
0.0
 11
2195.714634146344
 21
464.49842955455284
 31
0.0
  0
LINE
  5
4E1
100
AcDbEntity
  8
OBJECT
100
AcDbLine
 10
2195.714634146344
 20
469.50810759190409
 30
0.0
 11
2195.714634146344
 21
480.00000000000028
 31
0.0
  0
LINE
  5
4E2
100
AcDbEntity
  8
OBJECT
100
AcDbLine
 10
2182.9452541463434
 20
393.21032000000019
 30
0.0
 11
2195.714634146344
 21
450.00000000000051
 31
0.0
  0
LINE
  5
4E3
100
AcDbEntity
  8
OBJECT
100
AcDbLine
 10
2169.914634146342
 20
390.00000000000051
 30
0.0
 11
2178.2765241463439
 21
390.00000000000051
 31
0.0
  0
CIRCLE
  5
4E4
100
AcDbEntity
  8
OBJECT
100
AcDbCircle
 10
2178.714634146344
 20
470.00000000000028
 30
0.0
 40
5.0999999999999091
  0
ARC
  5
4E5
100
AcDbEntity
  8
OBJECT
100
AcDbCircle
 10
2185.714634146344
 20
480.00000000000028
 30
0.0
 40
10.0
100
AcDbArc
 50
0.0
 51
90.0
  0
ARC
  5
4E6
100
AcDbEntity
  8
OBJECT
100
AcDbCircle
 10
2178.2765241463439
 20
395.00000000000051
 30
0.0
 40
5.0
100
AcDbArc
 50
270.0
 51
339.02654581172942
  0
POINT
  5
4E7
100
AcDbEntity
  8
OBJECT
  6
CONTINUOUS
100
AcDbPoint
 10
2138.7146341463431
 20
182.00000000000074
 30
0.0
  0
POINT
  5
4E8
100
AcDbEntity
  8
OBJECT
  6
CONTINUOUS
100
AcDbPoint
 10
2138.7146341463431
 20
182.00000000000074
 30
0.0
  0
INSERT
  5
4E9
100
AcDbEntity
  8
OBJECT
100
AcDbBlockReference
  2
*U38
 10
1030.0000000045738
 20
380.0000000016874
 30
0.0
  0
POINT
  5
4EA
100
AcDbEntity
  8
OBJECT
  6
CONTINUOUS
100
AcDbPoint
 10
2138.7146341463431
 20
182.00000000000074
 30
0.0
  0
LINE
  5
4EB
100
AcDbEntity
  8
OBJECT
  6
CONTINUOUS
100
AcDbLine
 10
2125.8739643267863
 20
205.81947383862558
 30
0.0
 11
2123.8508612017677
 21
347.80506132462921
 31
0.0
  0
LINE
  5
4EC
100
AcDbEntity
  8
OBJECT
  6
CONTINUOUS
100
AcDbLine
 10
2150.842932502138
 20
208.17545097311478
 30
0.0
 11
2125.8454699165741
 21
207.81927084547084
 31
0.0
  0
LINE
  5
4ED
100
AcDbEntity
  8
OBJECT
  6
CONTINUOUS
100
AcDbLine
 10
2123.8508612017677
 20
347.80506132462921
 30
0.0
 11
2148.8483237873315
 21
348.16124145227315
 31
0.0
  0
LINE
  5
4EE
100
AcDbEntity
  8
OBJECT
  6
CONTINUOUS
100
AcDbLine
 10
2125.8739643267863
 20
205.81947383862558
 30
0.0
 11
2150.8714269123502
 21
206.17565396626975
 31
0.0
  0
LINE
  5
4EF
100
AcDbEntity
  8
OBJECT
  6
CONTINUOUS
100
AcDbLine
 10
2140.9889212925727
 20
373.33182176050656
 30
0.0
 11
2147.0310539295706
 21
370.41760948032089
 31
0.0
  0
LINE
  5
4F0
100
AcDbEntity
  8
OBJECT
  6
CONTINUOUS
100
AcDbLine
 10
2130.9899362583474
 20
373.18934970944889
 30
0.0
 11
2140.9889212925727
 21
373.33182176050656
 31
0.0
  0
CIRCLE
  5
4F1
100
AcDbEntity
  8
OBJECT
  6
CONTINUOUS
100
AcDbCircle
 10
2138.7146341463431
 20
182.00000000000074
 30
0.0
 40
3.9999999999995999
  0
LINE
  5
4F2
100
AcDbEntity
  8
OBJECT
  6
CONTINUOUS
100
AcDbLine
 10
2150.8714269123502
 20
206.17565396626975
 30
0.0
 11
2148.8483237873315
 21
348.16124145227315
 31
0.0
  0
LINE
  5
4F3
100
AcDbEntity
  8
OBJECT
100
AcDbLine
 10
2143.6080764826738
 20
386.21816264359728
 30
0.0
 11
2140.9889212925727
 21
373.33182176050656
 31
0.0
  0
LINE
  5
4F4
100
AcDbEntity
  8
OBJECT
100
AcDbLine
 10
2147.0310539295706
 20
370.41760948032089
 30
0.0
 11
2147.3484816607406
 21
348.13987072481365
 31
0.0
  0
LINE
  5
4F5
100
AcDbEntity
  8
OBJECT
  6
CONTINUOUS
100
AcDbLine
 10
2130.9899362583474
 20
373.18934970944889
 30
0.0
 11
2125.0332868531295
 21
370.10417096854695
 31
0.0
  0
LINE
  5
4F6
100
AcDbEntity
  8
OBJECT
100
AcDbLine
 10
2127.2132616409754
 20
389.3910205853627
 30
0.0
 11
2130.9899362583474
 21
373.18934970944889
 31
0.0
  0
LINE
  5
4F7
100
AcDbEntity
  8
OBJECT
100
AcDbLine
 10
2125.0332868542582
 20
370.10417096913153
 30
0.0
 11
2125.3507145854446
 21
347.82643221248696
 31
0.0
  0
LINE
  5
4F8
100
AcDbEntity
  8
OBJECT
100
AcDbLine
 10
2128.9150004497633
 20
183.99177795270231
 30
0.0
 11
2133.3732031024547
 21
205.92632787691883
 31
0.0
  0
LINE
  5
4F9
100
AcDbEntity
  8
OBJECT
100
AcDbLine
 10
2148.4535407958283
 20
184.27017580090848
 30
0.0
 11
2143.372199393767
 21
206.06880008837476
 31
0.0
  0
ARC
  5
4FA
100
AcDbEntity
  8
OBJECT
100
AcDbCircle
 10
2138.7146341463431
 20
182.00000000000074
 30
0.0
 40
10.000000000000075
100
AcDbArc
 50
168.5111171354676
 51
13.121547490474684
  0
INSERT
  5
4FB
100
AcDbEntity
  8
OBJECT
100
AcDbBlockReference
  2
*U39
 10
1030.0000000045738
 20
380.0000000016874
 30
0.0
  0
LINE
  5
4FC
100
AcDbEntity
  8
OUTLINE
100
AcDbLine
 10
1687.0343629773763
 20
400.60929477566793
 30
0.0
 11
1655.5625975009118
 21
648.30028105217025
 31
0.0
  0
LINE
  5
4FD
100
AcDbEntity
  8
OUTLINE
100
AcDbLine
 10
1687.2779863554968
 20
636.69800230425426
 30
0.0
 11
1716.7950903514841
 21
404.39071066974935
 31
0.0
  0
ARC
  5
4FE
100
AcDbEntity
  8
OUTLINE
100
AcDbCircle
 10
1669.6466443682673
 20
656.45820964843097
 30
0.0
 40
14.999999999999627
100
AcDbArc
 50
36.734642238671626
 51
103.46388531333665
  0
ARC
  5
4FF
100
AcDbEntity
  8
OUTLINE
100
AcDbCircle
 10
1701.9147266644302
 20
402.50000272270864
 30
0.0
 40
14.999999999999828
100
AcDbArc
 50
187.24123406728515
 51
7.2412340672851769
  0
CIRCLE
  5
500
100
AcDbEntity
  8
OUTLINE
100
AcDbCircle
 10
1669.6466443682673
 20
656.45820964843097
 30
0.0
 40
6.4999999999999725
  0
LINE
  5
501
100
AcDbEntity
  8
OUTLINE
  6
CONTINUOUS
100
AcDbLine
 10
1702.6172325941918
 20
395.02812108345034
 30
0.0
 11
1695.7944945699626
 21
398.15599243407775
 31
0.0
  0
LINE
  5
502
100
AcDbEntity
  8
OUTLINE
  6
CONTINUOUS
100
AcDbLine
 10
1708.7374176557194
 20
399.37284986048513
 30
0.0
 11
1702.6172325941918
 21
395.02812108345034
 31
0.0
  0
LINE
  5
503
100
AcDbEntity
  8
OUTLINE
  6
CONTINUOUS
100
AcDbLine
 10
1701.2121266687884
 20
409.97332133877404
 30
0.0
 11
1708.0348646930163
 21
406.84544998814687
 31
0.0
  0
LINE
  5
504
100
AcDbEntity
  8
OUTLINE
  6
CONTINUOUS
100
AcDbLine
 10
1695.0919416072604
 20
405.62859256173948
 30
0.0
 11
1701.2121266687884
 21
409.97332133877404
 31
0.0
  0
LINE
  5
505
100
AcDbEntity
  8
OUTLINE
  6
CONTINUOUS
100
AcDbLine
 10
1695.7944945699626
 20
398.15599243407775
 30
0.0
 11
1695.0919416072604
 21
405.62859256173948
 31
0.0
  0
LINE
  5
506
100
AcDbEntity
  8
OUTLINE
  6
CONTINUOUS
100
AcDbLine
 10
1708.0348646930163
 20
406.84544998814687
 30
0.0
 11
1708.7374176557194
 21
399.37284986048513
 31
0.0
  0
ARC
  5
507
100
AcDbEntity
  8
OUTLINE
  6
CONTINUOUS
100
AcDbCircle
 10
1701.9146592687509
 20
402.50071958776294
 30
0.0
 40
22.499999999999932
100
AcDbArc
 50
139.05162926153767
 51
276.99654662158622
  0
ARC
  5
508
100
AcDbEntity
  8
OUTLINE
  6
CONTINUOUS
100
AcDbCircle
 10
1701.9146592687509
 20
402.50071958776294
 30
0.0
 40
22.500000000000341
100
AcDbArc
 50
276.99655276252412
 51
55.186237866745934
  0
POINT
  5
509
100
AcDbEntity
  8
OUTLINE
  6
CONTINUOUS
100
AcDbPoint
 10
1701.9147266644302
 20
402.50000272270864
 30
0.0
  0
LINE
  5
50A
100
AcDbEntity
  8
OUTLINE
  6
CONTINUOUS
100
AcDbLine
 10
1670.3491502980289
 20
648.98632800917267
 30
0.0
 11
1663.5264122737997
 21
652.11419935980007
 31
0.0
  0
LINE
  5
50B
100
AcDbEntity
  8
OUTLINE
  6
CONTINUOUS
100
AcDbLine
 10
1676.4693353595565
 20
653.33105678620768
 30
0.0
 11
1670.3491502980289
 21
648.98632800917267
 31
0.0
  0
LINE
  5
50C
100
AcDbEntity
  8
OUTLINE
  6
CONTINUOUS
100
AcDbLine
 10
1668.9440443726251
 20
663.93152826449636
 30
0.0
 11
1675.7667823968534
 21
660.80365691386919
 31
0.0
  0
LINE
  5
50D
100
AcDbEntity
  8
OUTLINE
  6
CONTINUOUS
100
AcDbLine
 10
1662.823859311098
 20
659.5867994874618
 30
0.0
 11
1668.9440443726251
 21
663.93152826449636
 31
0.0
  0
LINE
  5
50E
100
AcDbEntity
  8
OUTLINE
  6
CONTINUOUS
100
AcDbLine
 10
1663.5264122737997
 20
652.11419935980007
 30
0.0
 11
1662.823859311098
 21
659.5867994874618
 31
0.0
  0
LINE
  5
50F
100
AcDbEntity
  8
OUTLINE
  6
CONTINUOUS
100
AcDbLine
 10
1675.7667823968534
 20
660.80365691386919
 30
0.0
 11
1676.4693353595565
 21
653.33105678620768
 31
0.0
  0
CIRCLE
  5
510
100
AcDbEntity
  8
OUTLINE
100
AcDbCircle
 10
1701.9146592687509
 20
402.50071958776294
 30
0.0
 40
6.4999999999999432
  0
LINE
  5
511
100
AcDbEntity
  8
OUTLINE
100
AcDbLine
 10
1573.9146341463422
 20
876.86288349425604
 30
0.0
 11
1573.9146341463422
 21
704.78947678345639
 31
0.0
  0
LINE
  5
512
100
AcDbEntity
  8
OUTLINE
100
AcDbLine
 10
1573.9146341463422
 20
678.16913854538029
 30
0.0
 11
1573.9146341463422
 21
360.00000000000028
 31
0.0
  0
LINE
  5
513
100
AcDbEntity
  8
OUTLINE
100
AcDbLine
 10
1862.9146341463422
 20
945.00000000000023
 30
0.0
 11
1581.8818567423916
 21
886.65409465661946
 31
0.0
  0
LINE
  5
514
100
AcDbEntity
  8
OUTLINE
100
AcDbLine
 10
2151.914634146342
 20
920.00000000000023
 30
0.0
 11
1862.9146341463422
 21
945.00000000000023
 31
0.0
  0
POINT
  5
515
100
AcDbEntity
  8
OUTLINE
  6
CONTINUOUS
100
AcDbPoint
 10
1573.9146341463422
 20
885.00000000000023
 30
0.0
  0
ARC
  5
516
100
AcDbEntity
  8
OUTLINE
100
AcDbCircle
 10
1583.9146341463422
 20
876.86288349425604
 30
0.0
 40
10.000000000000114
100
AcDbArc
 50
101.72869815645652
 51
180.0
  0
LINE
  5
517
100
AcDbEntity
  8
OUTLINE
100
AcDbLine
 10
1573.9146341463422
 20
360.00000000000028
 30
0.0
 11
2151.914634146342
 21
360.00000000000028
 31
0.0
  0
LINE
  5
518
100
AcDbEntity
  8
OUTLINE
100
AcDbLine
 10
2151.914634146342
 20
920.00000000000023
 30
0.0
 11
2151.914634146342
 21
360.00000000000028
 31
0.0
  0
INSERT
  5
519
100
AcDbEntity
  8
OUTLINE
100
AcDbBlockReference
  2
*U40
 10
1030.0000000045738
 20
380.0000000016874
 30
0.0
  0
ARC
  5
51A
100
AcDbEntity
  8
OBJECT
100
AcDbCircle
 10
2138.7146341463431
 20
182.00000000000074
 30
0.0
 40
12.500000000000039
100
AcDbArc
 50
131.64121948939194
 51
49.991444851562179
  0
POINT
  5
51B
100
AcDbEntity
  8
OBJECT
  6
CONTINUOUS
100
AcDbPoint
 10
1552.9146341463422
 20
-49.999999999999716
 30
0.0
  0
LINE
  5
51C
100
AcDbEntity
  8
OBJECT
100
AcDbLine
 10
2184.914634146342
 20
401.96880788260052
 30
0.0
 11
2184.914634146342
 21
-4.9999999999997158
 31
0.0
  0
LINE
  5
51D
100
AcDbEntity
  8
OBJECT
100
AcDbLine
 10
2194.914634146342
 20
430.00000000000006
 30
0.0
 11
2194.914634146342
 21
-4.9999999999997158
 31
0.0
  0
LINE
  5
51E
100
AcDbEntity
  8
OBJECT
100
AcDbLine
 10
2198.5646341463421
 20
-44.999999999999716
 30
0.0
 11
2198.5646341463421
 21
-4.9999999999997158
 31
0.0
  0
LINE
  5
51F
100
AcDbEntity
  8
OBJECT
100
AcDbLine
 10
2181.2646341463424
 20
-44.999999999999716
 30
0.0
 11
2181.2646341463424
 21
-4.9999999999997158
 31
0.0
  0
LINE
  5
520
100
AcDbEntity
  8
OBJECT
100
AcDbLine
 10
2181.2646341463424
 20
-4.9999999999997158
 30
0.0
 11
2198.5646341463421
 21
-4.9999999999997158
 31
0.0
  0
LINE
  5
521
100
AcDbEntity
  8
OBJECT
100
AcDbLine
 10
2181.2646341463424
 20
-44.999999999999716
 30
0.0
 11
2198.5646341463421
 21
-44.999999999999716
 31
0.0
  0
ARC
  5
522
100
AcDbEntity
  8
OBJECT
100
AcDbCircle
 10
2169.914634146342
 20
430.00000000000006
 30
0.0
 40
25.0
100
AcDbArc
 50
0.0
 51
21.088932989912792
  0
MTEXT
  5
523
100
AcDbEntity
  8
DIMENTION
100
AcDbMText
 10
-604.99999999999977
 20
-439.99999999999994
 30
0.0
 40
33.866666666666667
 41
0.0
 71
               1
 72
               1
  1
電源コード\P3m，VCT，2.0mm ×４
  7
________
  0
MTEXT
  5
524
100
AcDbEntity
  8
DIMENTION
100
AcDbMText
 10
-303.7083333333328
 20
-482.49999999999994
 30
0.0
 40
16.933333333333334
 41
0.0
 71
               1
 72
               1
  1
2
  7
________
  0
LINE
  5
525
100
AcDbEntity
  8
DIMENTION
100
AcDbLine
 10
600.00000000000023
 20
1.0000000000002842
 30
0.0
 11
820.00000000000023
 21
1.0000000000002842
 31
0.0
  0
LINE
  5
526
100
AcDbEntity
  8
DIMENTION
100
AcDbLine
 10
600.00000000000023
 20
1.0000000000002842
 30
0.0
 11
302.00000000000023
 21
-234.99999999999972
 31
0.0
  0
LINE
  5
527
100
AcDbEntity
  8
DIMENTION
100
AcDbLine
 10
302.00000000000023
 20
-234.99999999999972
 30
0.0
 11
320.69020192544247
 21
-210.19726431980183
 31
0.0
  0
LINE
  5
528
100
AcDbEntity
  8
DIMENTION
100
AcDbLine
 10
302.00000000000023
 20
-234.99999999999972
 30
0.0
 11
330.58755750939292
 21
-222.8653017803187
 31
0.0
  0
MTEXT
  5
529
100
AcDbEntity
  8
DIMENTION
100
AcDbMText
 10
605.60000000000059
 20
6.6000000000001364
 30
0.0
 40
33.866666666666667
 41
0.0
 71
               7
 72
               1
  1
操作パネル
  7
________
  0
ARC
  5
52A
100
AcDbEntity
  8
OBJECT
  6
CONTINUOUS
100
AcDbCircle
 10
180.00000000628484
 20
-558.50000000000773
 30
0.0
 40
8.0
100
AcDbArc
 50
270.0
 51
90.0
  0
ARC
  5
52B
100
AcDbEntity
  8
OBJECT
  6
CONTINUOUS
100
AcDbCircle
 10
180.00000000628484
 20
-558.50000000000773
 30
0.0
 40
8.0
100
AcDbArc
 50
90.0
 51
269.99999385905949
  0
LINE
  5
52C
100
AcDbEntity
  8
OBJECT
  6
CONTINUOUS
100
AcDbLine
 10
205.99598662835456
 20
-524.99999999999955
 30
0.0
 11
200.0000000062812
 21
-524.99999999999955
 31
0.0
  0
LINE
  5
52D
100
AcDbEntity
  8
OBJECT
  6
CONTINUOUS
100
AcDbLine
 10
200.0000000062812
 20
-524.99999999999955
 30
0.0
 11
200.0000000062812
 21
-519.99999999999955
 31
0.0
  0
LINE
  5
52E
100
AcDbEntity
  8
OBJECT
  6
CONTINUOUS
100
AcDbLine
 10
200.0000000062812
 20
-519.99999999999955
 30
0.0
 11
160.0000000062812
 21
-519.99999999999955
 31
0.0
  0
LINE
  5
52F
100
AcDbEntity
  8
OBJECT
  6
CONTINUOUS
100
AcDbLine
 10
160.0000000062812
 20
-519.99999999999955
 30
0.0
 11
160.0000000062812
 21
-524.99999999999955
 31
0.0
  0
LINE
  5
530
100
AcDbEntity
  8
OBJECT
  6
CONTINUOUS
100
AcDbLine
 10
160.0000000062812
 20
-524.99999999999955
 30
0.0
 11
154.00401338420784
 21
-524.99999999999955
 31
0.0
  0
ARC
  5
531
100
AcDbEntity
  8
OBJECT
  6
CONTINUOUS
100
AcDbCircle
 10
154.00401338420784
 20
-525.00401337792619
 30
0.0
 40
0.0040133779266398
100
AcDbArc
 50
90.0
 51
180.0
  0
LINE
  5
532
100
AcDbEntity
  8
OBJECT
  6
CONTINUOUS
100
AcDbLine
 10
154.0000000062812
 20
-525.00401337792619
 30
0.0
 11
154.0000000062812
 21
-587.99598662207381
 31
0.0
  0
LINE
  5
533
100
AcDbEntity
  8
OBJECT
  6
CONTINUOUS
100
AcDbLine
 10
154.00401338420784
 20
-588.00000000000045
 30
0.0
 11
205.99598662835456
 21
-588.00000000000045
 31
0.0
  0
ARC
  5
534
100
AcDbEntity
  8
OBJECT
  6
CONTINUOUS
100
AcDbCircle
 10
205.99598662835456
 20
-587.99598662207381
 30
0.0
 40
0.0040133779266398
100
AcDbArc
 50
270.0
 51
0.0
  0
LINE
  5
535
100
AcDbEntity
  8
OBJECT
  6
CONTINUOUS
100
AcDbLine
 10
206.0000000062812
 20
-587.99598662207381
 30
0.0
 11
206.0000000062812
 21
-525.00401337792619
 31
0.0
  0
INSERT
  5
536
100
AcDbEntity
  8
OBJECT
100
AcDbBlockReference
  2
*U53
 10
1030.0000000045738
 20
380.0000000016874
 30
0.0
  0
ARC
  5
537
100
AcDbEntity
  8
OBJECT
  6
CONTINUOUS
100
AcDbCircle
 10
205.99598662835456
 20
-587.99598662207359
 30
0.0
 40
0.0040133779266398
100
AcDbArc
 50
270.0
 51
0.0
  0
DIMENSION
  5
538
100
AcDbEntity
  8
DIMENTION
100
AcDbDimension
  2
*D54
 10
-49.999999999999773
 20
-669.99999999999955
 30
0.0
 11
-50.999999996274482
 21
-759.99999999999932
 31
0.0
 70
             128
  3
CAD
100
AcDbAlignedDimension
 13
-19.999999999999773
 23
-849.99999999999932
 33
0.0
 14
7.0000000000002274
 24
-669.99999999999955
 34
0.0
 50
90.0
100
AcDbRotatedDimension
1001
ACAD
1000
DSTYLE
1002
{
1070
             271
1070
               0
1070
             340
1005
54
1070
             147
1040
0.9999999962747097
1002
}
  0
DIMENSION
  5
539
100
AcDbEntity
  8
DIMENTION
100
AcDbDimension
  2
*D55
 10
212.00000000000023
 20
-659.99999999999955
 30
0.0
 11
212.99999999627494
 21
-754.99999999999932
 31
0.0
 70
             128
  3
CAD
100
AcDbAlignedDimension
 13
130.00000000000023
 23
-849.99999999999932
 33
0.0
 14
160.00000000000023
 24
-659.99999999999955
 34
0.0
 50
90.0
100
AcDbRotatedDimension
1001
ACAD
1000
DSTYLE
1002
{
1070
             271
1070
               0
1070
             340
1005
54
1070
             147
1040
0.9999999962747097
1002
}
  0
LINE
  5
53A
100
AcDbEntity
  8
OBJECT
100
AcDbLine
 10
5.0000000000002274
 20
-645.93019999999979
 30
0.0
 11
5.0000000000002274
 21
-629.99999999999955
 31
0.0
  0
LINE
  5
53B
100
AcDbEntity
  8
OBJECT
100
AcDbLine
 10
7.0000000000002274
 20
-669.99999999999955
 30
0.0
 11
5.0000000000002274
 21
-645.93019999999979
 31
0.0
  0
LINE
  5
53C
100
AcDbEntity
  8
OBJECT
100
AcDbLine
 10
53.000000000000227
 20
-669.99999999999955
 30
0.0
 11
7.0000000000002274
 21
-669.99999999999955
 31
0.0
  0
LINE
  5
53D
100
AcDbEntity
  8
OBJECT
100
AcDbLine
 10
5.0000000000002274
 20
-645.93019999999979
 30
0.0
 11
55.000000000000227
 21
-645.93019999999979
 31
0.0
  0
LINE
  5
53E
100
AcDbEntity
  8
OBJECT
100
AcDbLine
 10
12.000000000000227
 20
-669.99999999999955
 30
0.0
 11
10.000000000000227
 21
-645.93019999999979
 31
0.0
  0
LINE
  5
53F
100
AcDbEntity
  8
CENTER
100
AcDbLine
 10
30.000000000000227
 20
-594.49999999999955
 30
0.0
 11
30.000000000000227
 21
-702.49999999999932
 31
0.0
  0
LINE
  5
540
100
AcDbEntity
  8
OBJECT
100
AcDbLine
 10
139.00000000000023
 20
-643.99999999999955
 30
0.0
 11
161.00000000000023
 21
-643.99999999999955
 31
0.0
  0
LINE
  5
541
100
AcDbEntity
  8
OBJECT
100
AcDbLine
 10
145.00000000000023
 20
-659.99999999999955
 30
0.0
 11
144.00000000000023
 21
-643.99999999999955
 31
0.0
  0
LINE
  5
542
100
AcDbEntity
  8
OBJECT
100
AcDbLine
 10
155.00000000000023
 20
-659.99999999999955
 30
0.0
 11
156.00000000000023
 21
-643.99999999999955
 31
0.0
  0
LINE
  5
543
100
AcDbEntity
  8
CENTER
100
AcDbLine
 10
150.00000000000023
 20
-609.99999999999955
 30
0.0
 11
150.00000000000023
 21
-669.99999999999955
 31
0.0
  0
POLYLINE
  5
544
100
AcDbEntity
  8
OBJECT
100
AcDb2dPolyline
 66
               1
 10
0.0
 20
0.0
 30
0.0
 75
               5
  0
VERTEX
  5
545
100
AcDbEntity
  8
OBJECT
100
AcDbVertex
100
AcDb2dVertex
 10
161.00000000000023
 20
-629.99999999999955
 30
0.0
  0
VERTEX
  5
546
100
AcDbEntity
  8
OBJECT
100
AcDbVertex
100
AcDb2dVertex
 10
161.00000000000023
 20
-643.99999999999955
 30
0.0
  0
VERTEX
  5
547
100
AcDbEntity
  8
OBJECT
100
AcDbVertex
100
AcDb2dVertex
 10
160.00000000000023
 20
-659.99999999999955
 30
0.0
  0
VERTEX
  5
548
100
AcDbEntity
  8
OBJECT
100
AcDbVertex
100
AcDb2dVertex
 10
140.00000000000023
 20
-659.99999999999955
 30
0.0
  0
VERTEX
  5
549
100
AcDbEntity
  8
OBJECT
100
AcDbVertex
100
AcDb2dVertex
 10
139.00000000000023
 20
-643.99999999999955
 30
0.0
  0
VERTEX
  5
54A
100
AcDbEntity
  8
OBJECT
100
AcDbVertex
100
AcDb2dVertex
 10
139.00000000000023
 20
-629.99999999999955
 30
0.0
  0
SEQEND
  5
54B
100
AcDbEntity
  8
OBJECT
  0
POINT
  5
54C
100
AcDbEntity
  8
CENTER
  6
CONTINUOUS
100
AcDbPoint
 10
100.00000000000023
 20
-629.99999999999955
 30
0.0
  0
POINT
  5
54D
100
AcDbEntity
  8
DIMENTION
  6
CONTINUOUS
100
AcDbPoint
 10
30.000000000000227
 20
-669.99999999999955
 30
0.0
  0
LINE
  5
54E
100
AcDbEntity
  8
OBJECT
100
AcDbLine
 10
55.000000000000227
 20
-645.93019999999979
 30
0.0
 11
55.000000000000227
 21
-629.99999999999955
 31
0.0
  0
LINE
  5
54F
100
AcDbEntity
  8
OBJECT
100
AcDbLine
 10
53.000000000000227
 20
-669.99999999999955
 30
0.0
 11
55.000000000000227
 21
-645.93019999999979
 31
0.0
  0
LINE
  5
550
100
AcDbEntity
  8
OBJECT
100
AcDbLine
 10
48.000000000000227
 20
-669.99999999999955
 30
0.0
 11
50.000000000000227
 21
-645.93019999999979
 31
0.0
  0
MTEXT
  5
551
100
AcDbEntity
  8
TEXT
100
AcDbMText
 10
2495.0
 20
880.86111111111109
 30
0.0
 40
33.866666666666667
 41
0.0
 71
               1
 72
               1
  1
給水装置　形式認証番号\P　　　　　     TW4003
  7
________
  0
MTEXT
  5
552
100
AcDbEntity
  8
TEXT
100
AcDbMText
 10
2440.0
 20
723.52777777777749
 30
0.0
 40
33.866666666666667
 41
0.0
 71
               1
 72
               1
  1
可燃物からの離隔距離（cm）
  7
________
  0
LINE
  5
553
100
AcDbEntity
  8
TEXT
100
AcDbLine
 10
2407.0
 20
669.52777777777749
 30
0.0
 11
2967.0
 21
669.52777777777749
 31
0.0
  0
LINE
  5
554
100
AcDbEntity
  8
TEXT
100
AcDbLine
 10
2407.0
 20
739.52777777777749
 30
0.0
 11
2967.0
 21
739.52777777777749
 31
0.0
  0
LINE
  5
555
100
AcDbEntity
  8
TEXT
100
AcDbLine
 10
2407.0
 20
599.52777777777749
 30
0.0
 11
2967.0
 21
599.52777777777749
 31
0.0
  0
LINE
  5
556
100
AcDbEntity
  8
TEXT
100
AcDbLine
 10
2407.0
 20
529.5277777777776
 30
0.0
 11
2967.0
 21
529.5277777777776
 31
0.0
  0
LINE
  5
557
100
AcDbEntity
  8
TEXT
100
AcDbLine
 10
2407.0
 20
529.5277777777776
 30
0.0
 11
2407.0
 21
739.52777777777749
 31
0.0
  0
LINE
  5
558
100
AcDbEntity
  8
TEXT
100
AcDbLine
 10
2967.0
 20
529.5277777777776
 30
0.0
 11
2967.0
 21
739.52777777777749
 31
0.0
  0
LINE
  5
559
100
AcDbEntity
  8
TEXT
100
AcDbLine
 10
2547.0
 20
529.5277777777776
 30
0.0
 11
2547.0
 21
669.52777777777749
 31
0.0
  0
LINE
  5
55A
100
AcDbEntity
  8
TEXT
100
AcDbLine
 10
2687.0
 20
529.5277777777776
 30
0.0
 11
2687.0
 21
669.52777777777749
 31
0.0
  0
LINE
  5
55B
100
AcDbEntity
  8
TEXT
100
AcDbLine
 10
2827.0
 20
529.5277777777776
 30
0.0
 11
2827.0
 21
669.52777777777749
 31
0.0
  0
MTEXT
  5
55C
100
AcDbEntity
  8
TEXT
100
AcDbMText
 10
2429.0
 20
656.52777777777749
 30
0.0
 40
33.866666666666667
 41
0.0
 71
               1
 72
               1
  1
上方
  7
________
  0
MTEXT
  5
55D
100
AcDbEntity
  8
TEXT
100
AcDbMText
 10
2415.0
 20
586.52777777777749
 30
0.0
 40
33.866666666666667
 41
0.0
 71
               1
 72
               1
  1
50以上
  7
________
  0
MTEXT
  5
55E
100
AcDbEntity
  8
TEXT
100
AcDbMText
 10
2574.0
 20
656.52777777777749
 30
0.0
 40
33.866666666666667
 41
0.0
 71
               1
 72
               1
  1
側方
  7
________
  0
MTEXT
  5
55F
100
AcDbEntity
  8
TEXT
100
AcDbMText
 10
2565.0
 20
588.52777777777749
 30
0.0
 40
33.866666666666667
 41
0.0
 71
               1
 72
               1
  1
0以上
  7
________
  0
MTEXT
  5
560
100
AcDbEntity
  8
TEXT
100
AcDbMText
 10
2714.0
 20
656.52777777777749
 30
0.0
 40
33.866666666666667
 41
0.0
 71
               1
 72
               1
  1
前方
  7
________
  0
MTEXT
  5
561
100
AcDbEntity
  8
TEXT
100
AcDbMText
 10
2854.0
 20
656.52777777777749
 30
0.0
 40
33.866666666666667
 41
0.0
 71
               1
 72
               1
  1
後方
  7
________
  0
MTEXT
  5
562
100
AcDbEntity
  8
TEXT
100
AcDbMText
 10
2845.0
 20
588.52777777777749
 30
0.0
 40
33.866666666666667
 41
0.0
 71
               1
 72
               1
  1
0以上
  7
________
  0
LINE
  5
563
100
AcDbEntity
  8
TEXT
100
AcDbLine
 10
2687.0
 20
529.5277777777776
 30
0.0
 11
2827.0
 21
599.52777777777749
 31
0.0
  0
LINE
  5
564
100
AcDbEntity
  8
DIMENTION
100
AcDbLine
 10
500.00000000000023
 20
1200.0000000000005
 30
0.0
 11
800.00000000000023
 21
1200.0000000000005
 31
0.0
  0
LINE
  5
565
100
AcDbEntity
  8
DIMENTION
100
AcDbLine
 10
500.00000000000023
 20
1250.0000000000005
 30
0.0
 11
500.00000000000023
 21
1200.0000000000005
 31
0.0
  0
ENDSEC
  0
SECTION
  2
OBJECTS
  0
DICTIONARY
  5
19
100
AcDbDictionary
  3
ACAD_GROUP
350
1A
  3
ACAD_MLINESTYLE
350
1B
  0
DICTIONARY
  5
1A
102
{ACAD_REACTORS
330
19
102
}
100
AcDbDictionary
  0
DICTIONARY
  5
1B
102
{ACAD_REACTORS
330
19
102
}
100
AcDbDictionary
  3
STANDARD
350
1C
  0
MLINESTYLE
  5
1C
102
{ACAD_REACTORS
330
1B
102
}
100
AcDbMlineStyle
  2
STANDARD
 70
               0
  3

 62
               0
 51
90.0
 52
90.0
 71
               2
 49
0.5
 62
             256
  6
BYLAYER
 49
-0.5
 62
             256
  6
BYLAYER
  0
ENDSEC
  0
EOF
