  0
SECTION
  2
HEADER
  9
$ACADVER
  1
AC1012
  9
$DWGCODEPAGE
  3
dos932
  9
$INSBASE
 10
0.0
 20
0.0
 30
0.0
  9
$EXTMIN
 10
0.0000000044972239
 20
0.000000003128207
 30
0.0
  9
$EXTMAX
 10
4050.000000004497
 20
2720.0000000031278
 30
0.0
  9
$LIMMIN
 10
0.0
 20
0.0
  9
$LIMMAX
 10
0.0
 20
0.0
  9
$ORTHOMODE
 70
               0
  9
$REGENMODE
 70
               1
  9
$FILLMODE
 70
               1
  9
$QTEXTMODE
 70
               0
  9
$MIRRTEXT
 70
               1
  9
$DRAGMODE
 70
               2
  9
$LTSCALE
 40
127.0
  9
$OSMODE
 70
               0
  9
$ATTMODE
 70
               1
  9
$TEXTSIZE
 40
0.2
  9
$TRACEWID
 40
1.0
  9
$TEXTSTYLE
  7
STANDARD
  9
$CLAYER
  8
0
  9
$CELTYPE
  6
CONTINUOUS
  9
$CECOLOR
 62
             256
  9
$CELTSCALE
 40
1.0
  9
$DELOBJ
 70
               1
  9
$DISPSILH
 70
               0
  9
$DIMSCALE
 40
1.0
  9
$DIMASZ
 40
21.7506103515625
  9
$DIMEXO
 40
9.9999999999999982
  9
$DIMDLI
 40
7.9999999999999991
  9
$DIMRND
 40
0.0
  9
$DIMDLE
 40
0.0
  9
$DIMEXE
 40
19.999999999999996
  9
$DIMTP
 40
0.0
  9
$DIMTM
 40
0.0
  9
$DIMTXT
 40
33.866666666666667
  9
$DIMCEN
 40
0.0
  9
$DIMTSZ
 40
0.0
  9
$DIMTOL
 70
               0
  9
$DIMLIM
 70
               0
  9
$DIMTIH
 70
               0
  9
$DIMTOH
 70
               0
  9
$DIMSE1
 70
               0
  9
$DIMSE2
 70
               0
  9
$DIMTAD
 70
               1
  9
$DIMZIN
 70
              11
  9
$DIMBLK
  1
VW_OPENARROW
  9
$DIMASO
 70
               1
  9
$DIMSHO
 70
               1
  9
$DIMPOST
  1
<>
  9
$DIMAPOST
  1
[]
  9
$DIMALT
 70
               0
  9
$DIMALTD
 70
               1
  9
$DIMALTF
 40
1.0
  9
$DIMLFAC
 40
1.0
  9
$DIMTOFL
 70
               1
  9
$DIMTVP
 40
0.0
  9
$DIMTIX
 70
               1
  9
$DIMSOXD
 70
               0
  9
$DIMSAH
 70
               0
  9
$DIMBLK1
  1

  9
$DIMBLK2
  1

  9
$DIMSTYLE
  2
CAD
  9
$DIMCLRD
 70
               0
  9
$DIMCLRE
 70
               0
  9
$DIMCLRT
 70
               0
  9
$DIMTFAC
 40
0.7
  9
$DIMGAP
 40
0.099999999627471
  9
$DIMJUST
 70
               0
  9
$DIMSD1
 70
               0
  9
$DIMSD2
 70
               0
  9
$DIMTOLJ
 70
               1
  9
$DIMTZIN
 70
              11
  9
$DIMALTZ
 70
              11
  9
$DIMALTTZ
 70
              11
  9
$DIMFIT
 70
               0
  9
$DIMUPT
 70
               0
  9
$DIMUNIT
 70
               2
  9
$DIMDEC
 70
               4
  9
$DIMTDEC
 70
               4
  9
$DIMALTU
 70
               2
  9
$DIMALTTD
 70
               2
  9
$DIMTXSTY
  7
________
  9
$DIMAUNIT
 70
               0
  9
$LUNITS
 70
               2
  9
$LUPREC
 70
               4
  9
$SKETCHINC
 40
0.1
  9
$FILLETRAD
 40
0.0
  9
$AUNITS
 70
               0
  9
$AUPREC
 70
               0
  9
$MENU
  1
acad
  9
$ELEVATION
 40
0.0
  9
$PELEVATION
 40
0.0
  9
$THICKNESS
 40
0.0
  9
$LIMCHECK
 70
               0
  9
$BLIPMODE
 70
               0
  9
$CHAMFERA
 40
0.0
  9
$CHAMFERB
 40
0.0
  9
$CHAMFERC
 40
0.0
  9
$CHAMFERD
 40
0.0
  9
$SKPOLY
 70
               0
  9
$TDCREATE
 40
2460349.642719907
  9
$TDUPDATE
 40
2460349.642719907
  9
$TDINDWG
 40
0.0000000000
  9
$TDUSRTIMER
 40
0.0000000000
  9
$USRTIMER
 70
               1
  9
$ANGBASE
 50
0.0
  9
$ANGDIR
 70
               0
  9
$PDMODE
 70
               1
  9
$PDSIZE
 40
-2.0
  9
$PLINEWID
 40
0.0
  9
$COORDS
 70
               0
  9
$SPLFRAME
 70
               0
  9
$SPLINETYPE
 70
               6
  9
$SPLINESEGS
 70
               8
  9
$ATTDIA
 70
               0
  9
$ATTREQ
 70
               1
  9
$HANDLING
 70
               1
  9
$HANDSEED
  5
82F
  9
$SURFTAB1
 70
               6
  9
$SURFTAB2
 70
               6
  9
$SURFTYPE
 70
               6
  9
$SURFU
 70
               6
  9
$SURFV
 70
               6
  9
$UCSNAME
  2

  9
$UCSORG
 10
0.0
 20
0.0
 30
0.0
  9
$UCSXDIR
 10
1.0
 20
0.0
 30
0.0
  9
$UCSYDIR
 10
0.0
 20
1.0
 30
0.0
  9
$PUCSNAME
  2

  9
$PUCSORG
 10
0.0
 20
0.0
 30
0.0
  9
$PUCSXDIR
 10
1.0
 20
0.0
 30
0.0
  9
$PUCSYDIR
 10
0.0
 20
1.0
 30
0.0
  9
$USERI1
 70
               0
  9
$USERI2
 70
               0
  9
$USERI3
 70
               0
  9
$USERI4
 70
               0
  9
$USERI5
 70
               0
  9
$USERR1
 40
0.0
  9
$USERR2
 40
0.0
  9
$USERR3
 40
0.0
  9
$USERR4
 40
0.0
  9
$USERR5
 40
0.0
  9
$WORLDVIEW
 70
               1
  9
$SHADEDGE
 70
               3
  9
$SHADEDIF
 70
              70
  9
$TILEMODE
 70
               1
  9
$MAXACTVP
 70
              16
  9
$PINSBASE
 10
0.0
 20
0.0
 30
0.0
  9
$PLIMCHECK
 70
               0
  9
$PEXTMIN
 10
1.0000000000000000E+20
 20
1.0000000000000000E+20
 30
1.0000000000000000E+20
  9
$PEXTMAX
 10
-1.0000000000000000E+20
 20
-1.0000000000000000E+20
 30
-1.0000000000000000E+20
  9
$PLIMMIN
 10
0.0
 20
0.0
  9
$PLIMMAX
 10
12.0
 20
9.0
  9
$UNITMODE
 70
               0
  9
$VISRETAIN
 70
               0
  9
$PLINEGEN
 70
               1
  9
$PSLTSCALE
 70
               0
  9
$TREEDEPTH
 70
            3020
  9
$PICKSTYLE
 70
               1
  9
$CMLSTYLE
  2
STANDARD
  9
$CMLJUST
 70
               0
  9
$CMLSCALE
 40
1.0
  9
$SAVEIMAGES
 70
               0
  0
ENDSEC
  0
SECTION
  2
CLASSES
  0
CLASS
  1
LWPOLYLINE
  2
AcDbPolyline
  3
"AutoCAD"
 90
        0
280
               0
281
               1
  0
CLASS
  1
IMAGE
  2
AcDbRasterImage
  3
ISM
 90
      127
280
               0
281
               1
  0
CLASS
  1
OLE2FRAME
  2
AcDbOle2Frame
  3
""
 90
        0
280
               0
281
               1
  0
CLASS
  1
HATCH
  2
AcDbHatch
  3
"ACAD_SEDONA"
 90
        0
280
               0
281
               1
  0
CLASS
  1
DICTIONARYVAR
  2
AcDbDictionaryVar
  3
"AutoCAD"
 90
        0
280
               0
281
               0
  0
CLASS
  1
RASTERVARIABLES
  2
AcDbRasterVariables
  3
ISM
 90
        0
280
               0
281
               0
  0
CLASS
  1
IMAGEDEF
  2
AcDbRasterImageDef
  3
ISM
 90
        0
280
               0
281
               0
  0
CLASS
  1
IMAGEDEF_REACTOR
  2
AcDbRasterImageDefReactor
  3
ISM
 90
        1
280
               0
281
               0
  0
CLASS
  1
IDBUFFER
  2
AcDbIdBuffer
  3
"Acad"
 90
        0
280
               0
281
               0
  0
CLASS
  1
SPATIAL_FILTER
  2
AcDbSpatialFilter
  3
"Acad"
 90
        0
280
               0
281
               0
  0
CLASS
  1
XRECORD
  2
AcDbXrecord
  3
"<Built In>"
 90
        0
280
               0
281
               0
  0
CLASS
  1
SORTENTSTABLE
  2
AcDbSortentsTable
  3
"AutoCAD"
 90
        0
280
               0
281
               0
  0
CLASS
  1
LAYER_INDEX
  2
AcDbLayerIndex
  3
"Acad"
 90
        0
280
               0
281
               0
  0
CLASS
  1
SPATIAL_INDEX
  2
AcDbSpatialIndex
  3
"Acad"
 90
        0
280
               0
281
               0
  0
CLASS
  1
OBJECT_PTR
  2
CAseDLPNTableRecord
  3
"ASE-LPNTableRecord"
 90
        1
280
               0
281
               0
  0
CLASS
  1
LAYOUT
  2
AcDbLayout
  3
"AutoCAD 2000"
 90
        1
280
               0
281
               0
  0
CLASS
  1
PLOTSETTINGS
  2
AcDbPlotSettings
  3
"AutoCAD 2000"
 90
        1
280
               0
281
               0
  0
CLASS
  1
ACDBDICTIONARYWDFLT
  2
AcDbDictionaryWithDefault
  3
"AutoCAD 2000"
 90
        1
280
               0
281
               0
  0
CLASS
  1
ACDBPLACEHOLDER
  2
AcDbPlaceHolder
  3
"AutoCAD 2000"
 90
        1
280
               0
281
               0
  0
ENDSEC
  0
SECTION
  2
TABLES
  0
TABLE
  2
VPORT
  5
7
100
AcDbSymbolTable
 70
               1
  0
VPORT
  5
15
100
AcDbSymbolTableRecord
100
AcDbViewportTableRecord
  2
*ACTIVE
 70
               0
 10
0.0
 20
0.0
 11
1.0
 21
1.0
 12
2025.0000000044972
 22
1360.000000003128
 13
0.0
 23
0.0
 14
1.0
 24
1.0
 15
0.0
 25
0.0
 16
0.0
 26
0.0
 36
1.0
 17
0.0
 27
0.0
 37
0.0
 40
2719.9999999999995
 41
0.688564
 42
50.0
 43
0.0
 44
0.0
 50
0.0
 51
0.0
 71
               0
 72
             100
 73
               1
 74
               1
 75
               0
 76
               0
 77
               0
 78
               0
  0
ENDTAB
  0
TABLE
  2
LTYPE
  5
4
100
AcDbSymbolTable
 70
              14
  0
LTYPE
  5
11
100
AcDbSymbolTableRecord
100
AcDbLinetypeTableRecord
  2
BYBLOCK
 70
              64
  3

 72
              65
 73
               0
 40
0.0
  0
LTYPE
  5
12
100
AcDbSymbolTableRecord
100
AcDbLinetypeTableRecord
  2
BYLAYER
 70
              64
  3

 72
              65
 73
               0
 40
0.0
  0
LTYPE
  5
13
100
AcDbSymbolTableRecord
100
AcDbLinetypeTableRecord
  2
CONTINUOUS
 70
              64
  3
Solid line
 72
              65
 73
               0
 40
0.0
  0
LTYPE
  5
70
100
AcDbSymbolTableRecord
100
AcDbLinetypeTableRecord
  2
STYLE_01
 70
               0
  3

 72
              65
 73
               2
 40
0.166656494140625
 49
0.08331298828125
 74
               0
 49
-0.083343505859375
 74
               0
  0
LTYPE
  5
71
100
AcDbSymbolTableRecord
100
AcDbLinetypeTableRecord
  2
STYLE_02
 70
               0
  3

 72
              65
 73
               2
 40
0.27777099609375
 49
0.194427490234375
 74
               0
 49
-0.083343505859375
 74
               0
  0
LTYPE
  5
72
100
AcDbSymbolTableRecord
100
AcDbLinetypeTableRecord
  2
STYLE_03
 70
               0
  3

 72
              65
 73
               2
 40
0.5
 49
0.416656494140625
 74
               0
 49
-0.083343505859375
 74
               0
  0
LTYPE
  5
73
100
AcDbSymbolTableRecord
100
AcDbLinetypeTableRecord
  2
STYLE_04
 70
               0
  3

 72
              65
 73
               2
 40
0.611083984375
 49
0.52777099609375
 74
               0
 49
-0.08331298828125
 74
               0
  0
LTYPE
  5
74
100
AcDbSymbolTableRecord
100
AcDbLinetypeTableRecord
  2
STYLE_05
 70
               0
  3

 72
              65
 73
               2
 40
0.08331298828125
 49
0.02777099609375
 74
               0
 49
-0.0555419921875
 74
               0
  0
LTYPE
  5
75
100
AcDbSymbolTableRecord
100
AcDbLinetypeTableRecord
  2
STYLE_06
 70
               0
  3

 72
              65
 73
               4
 40
1.3055419921875
 49
0.111114501953125
 74
               0
 49
-0.111114501953125
 74
               0
 49
0.97222900390625
 74
               0
 49
-0.111083984375
 74
               0
  0
LTYPE
  5
76
100
AcDbSymbolTableRecord
100
AcDbLinetypeTableRecord
  2
STYLE_07
 70
               0
  3

 72
              65
 73
               6
 40
0.75
 49
0.25
 74
               0
 49
-0.08331298828125
 74
               0
 49
0.25
 74
               0
 49
-0.083343505859375
 74
               0
 49
0.02777099609375
 74
               0
 49
-0.055572509765625
 74
               0
  0
LTYPE
  5
77
100
AcDbSymbolTableRecord
100
AcDbLinetypeTableRecord
  2
STYLE_08
 70
               0
  3

 72
              65
 73
               6
 40
0.5
 49
0.25
 74
               0
 49
-0.08331298828125
 74
               0
 49
0.02777099609375
 74
               0
 49
-0.055572509765625
 74
               0
 49
0.02777099609375
 74
               0
 49
-0.055572509765625
 74
               0
  0
LTYPE
  5
78
100
AcDbSymbolTableRecord
100
AcDbLinetypeTableRecord
  2
STYLE_09
 70
               0
  3

 72
              65
 73
               4
 40
2.0
 49
1.5
 74
               0
 49
-0.111114501953125
 74
               0
 49
0.27777099609375
 74
               0
 49
-0.111114501953125
 74
               0
  0
LTYPE
  5
79
100
AcDbSymbolTableRecord
100
AcDbLinetypeTableRecord
  2
STYLE_10
 70
               0
  3

 72
              65
 73
               6
 40
2.375
 49
1.5
 74
               0
 49
-0.111114501953125
 74
               0
 49
0.27777099609375
 74
               0
 49
-0.111114501953125
 74
               0
 49
0.25
 74
               0
 49
-0.125
 74
               0
  0
LTYPE
  5
7A
100
AcDbSymbolTableRecord
100
AcDbLinetypeTableRecord
  2
STYLE_11
 70
               0
  3

 72
              65
 73
               4
 40
3.0
 49
0.166656494140625
 74
               0
 49
-0.111114501953125
 74
               0
 49
2.611114501953125
 74
               0
 49
-0.111114501953125
 74
               0
  0
ENDTAB
  0
TABLE
  2
LAYER
  5
2
100
AcDbSymbolTable
 70
               9
  0
LAYER
  5
14
100
AcDbSymbolTableRecord
100
AcDbLayerTableRecord
  2
0
 70
               0
 62
               7
  6
CONTINUOUS
  0
LAYER
  5
82
100
AcDbSymbolTableRecord
100
AcDbLayerTableRecord
  2
DEFPOINTS
 70
               0
 62
               7
  6
CONTINUOUS
  0
LAYER
  5
83
100
AcDbSymbolTableRecord
100
AcDbLayerTableRecord
  2
OBJECT
 70
               0
 62
               7
  6
CONTINUOUS
  0
LAYER
  5
84
100
AcDbSymbolTableRecord
100
AcDbLayerTableRecord
  2
DIMENTION
 70
               0
 62
               7
  6
CONTINUOUS
  0
LAYER
  5
85
100
AcDbSymbolTableRecord
100
AcDbLayerTableRecord
  2
CENTER
 70
               0
 62
               7
  6
STYLE_09
  0
LAYER
  5
86
100
AcDbSymbolTableRecord
100
AcDbLayerTableRecord
  2
HIDDEN
 70
               0
 62
               7
  6
STYLE_02
  0
LAYER
  5
87
100
AcDbSymbolTableRecord
100
AcDbLayerTableRecord
  2
FRAME
 70
               0
 62
               7
  6
CONTINUOUS
  0
LAYER
  5
88
100
AcDbSymbolTableRecord
100
AcDbLayerTableRecord
  2
OUTLINE
 70
               0
 62
               7
  6
CONTINUOUS
  0
LAYER
  5
89
100
AcDbSymbolTableRecord
100
AcDbLayerTableRecord
  2
TEXT
 70
               0
 62
               7
  6
CONTINUOUS
  0
ENDTAB
  0
TABLE
  2
STYLE
  5
3
100
AcDbSymbolTable
 70
               3
  0
STYLE
  5
17
100
AcDbSymbolTableRecord
100
AcDbTextStyleTableRecord
  2
STANDARD
 70
               0
 40
0.0
 41
1.0
 50
0.0
 71
               0
 42
0.0
  3
txt
  4
BIGFONT.SHX
  0
STYLE
  5
6E
100
AcDbSymbolTableRecord
100
AcDbTextStyleTableRecord
  2
_HGS_____E
 70
               0
 40
0.0
 41
1.0
 50
0.0
 71
               0
 42
0.0
  3
@HGSｺﾞｼｯｸE
  4

1001
ACAD
1000
@HGSｺﾞｼｯｸE
1071
        0
  0
STYLE
  5
6F
100
AcDbSymbolTableRecord
100
AcDbTextStyleTableRecord
  2
________
 70
               0
 40
0.0
 41
1.0
 50
0.0
 71
               0
 42
0.0
  3
ＭＳ Ｐゴシック
  4

1001
ACAD
1000
ＭＳ Ｐゴシック
1071
        0
  0
ENDTAB
  0
TABLE
  2
VIEW
  5
5
100
AcDbSymbolTable
 70
               0
  0
ENDTAB
  0
TABLE
  2
UCS
  5
6
100
AcDbSymbolTable
 70
               0
  0
ENDTAB
  0
TABLE
  2
APPID
  5
8
100
AcDbSymbolTable
 70
               1
  0
APPID
  5
16
100
AcDbSymbolTableRecord
100
AcDbRegAppTableRecord
  2
ACAD
 70
               0
  0
ENDTAB
  0
TABLE
  2
DIMSTYLE
  5
9
100
AcDbSymbolTable
 70
               2
  0
DIMSTYLE
105
18
100
AcDbSymbolTableRecord
100
AcDbDimStyleTableRecord
  2
STANDARD
 70
               0
  3

  4

  5

  6

  7

 40
1.0
 41
0.18
 42
0.0625
 43
0.38
 44
0.18
 45
0.0
 46
0.0
 47
0.0
 48
0.0
 71
               0
 72
               0
 73
               1
 74
               1
 75
               0
 76
               0
 77
               0
 78
               0
140
0.18
141
0.09
142
0.0
143
25.399999999999999
144
1.0
145
0.0
146
1.0
147
0.09
170
               0
171
               2
172
               0
173
               0
174
               0
175
               0
176
               0
177
               0
178
               0
270
               2
271
               4
272
               4
273
               2
274
               2
275
               0
280
               0
281
               0
282
               0
283
               1
284
               0
285
               0
286
               0
287
               0
288
               0
340
17
  0
DIMSTYLE
105
81
100
AcDbSymbolTableRecord
100
AcDbDimStyleTableRecord
  2
CAD
 70
               0
  3
<>
  4
[]
  5
VW_OPENARROW
  6

  7

 40
1.0
 41
21.7506103515625
 42
9.9999999999999982
 43
7.9999999999999991
 44
19.999999999999996
 45
0.0
 46
0.0
 47
0.0
 48
0.0
 71
               0
 72
               0
 73
               0
 74
               0
 75
               0
 76
               0
 77
               1
 78
              11
140
33.866666666666667
141
0.0
142
0.0
143
1.0
144
1.0
145
0.0
146
0.7
147
0.099999999627471
170
               0
171
               1
172
               1
173
               0
174
               1
175
               0
176
               0
177
               0
178
               0
270
               2
271
               4
272
               4
273
               2
274
               2
275
               0
280
               0
281
               0
282
               0
283
               1
284
              11
285
              11
286
              11
287
               0
288
               0
340
6F
  0
ENDTAB
  0
TABLE
  2
BLOCK_RECORD
  5
1
100
AcDbSymbolTable
 70
              82
  0
BLOCK_RECORD
  5
A
100
AcDbSymbolTableRecord
100
AcDbBlockTableRecord
  2
*MODEL_SPACE
  0
BLOCK_RECORD
  5
B
100
AcDbSymbolTableRecord
100
AcDbBlockTableRecord
  2
*PAPER_SPACE
  0
BLOCK_RECORD
  5
7B
100
AcDbSymbolTableRecord
100
AcDbBlockTableRecord
  2
VW_OPENARROW
  0
BLOCK_RECORD
  5
1D
100
AcDbSymbolTableRecord
100
AcDbBlockTableRecord
  2
*U1
  0
BLOCK_RECORD
  5
1E
100
AcDbSymbolTableRecord
100
AcDbBlockTableRecord
  2
*D2
  0
BLOCK_RECORD
  5
1F
100
AcDbSymbolTableRecord
100
AcDbBlockTableRecord
  2
*D3
  0
BLOCK_RECORD
  5
20
100
AcDbSymbolTableRecord
100
AcDbBlockTableRecord
  2
*D4
  0
BLOCK_RECORD
  5
21
100
AcDbSymbolTableRecord
100
AcDbBlockTableRecord
  2
*U5
  0
BLOCK_RECORD
  5
22
100
AcDbSymbolTableRecord
100
AcDbBlockTableRecord
  2
*U6
  0
BLOCK_RECORD
  5
23
100
AcDbSymbolTableRecord
100
AcDbBlockTableRecord
  2
*U7
  0
BLOCK_RECORD
  5
24
100
AcDbSymbolTableRecord
100
AcDbBlockTableRecord
  2
*D8
  0
BLOCK_RECORD
  5
25
100
AcDbSymbolTableRecord
100
AcDbBlockTableRecord
  2
*D9
  0
BLOCK_RECORD
  5
26
100
AcDbSymbolTableRecord
100
AcDbBlockTableRecord
  2
*D10
  0
BLOCK_RECORD
  5
27
100
AcDbSymbolTableRecord
100
AcDbBlockTableRecord
  2
*D11
  0
BLOCK_RECORD
  5
28
100
AcDbSymbolTableRecord
100
AcDbBlockTableRecord
  2
*D12
  0
BLOCK_RECORD
  5
29
100
AcDbSymbolTableRecord
100
AcDbBlockTableRecord
  2
*D13
  0
BLOCK_RECORD
  5
2A
100
AcDbSymbolTableRecord
100
AcDbBlockTableRecord
  2
*D14
  0
BLOCK_RECORD
  5
2B
100
AcDbSymbolTableRecord
100
AcDbBlockTableRecord
  2
*D15
  0
BLOCK_RECORD
  5
2C
100
AcDbSymbolTableRecord
100
AcDbBlockTableRecord
  2
*D16
  0
BLOCK_RECORD
  5
2D
100
AcDbSymbolTableRecord
100
AcDbBlockTableRecord
  2
*D17
  0
BLOCK_RECORD
  5
2E
100
AcDbSymbolTableRecord
100
AcDbBlockTableRecord
  2
*D18
  0
BLOCK_RECORD
  5
2F
100
AcDbSymbolTableRecord
100
AcDbBlockTableRecord
  2
*D19
  0
BLOCK_RECORD
  5
30
100
AcDbSymbolTableRecord
100
AcDbBlockTableRecord
  2
*D20
  0
BLOCK_RECORD
  5
31
100
AcDbSymbolTableRecord
100
AcDbBlockTableRecord
  2
*D21
  0
BLOCK_RECORD
  5
32
100
AcDbSymbolTableRecord
100
AcDbBlockTableRecord
  2
*D22
  0
BLOCK_RECORD
  5
33
100
AcDbSymbolTableRecord
100
AcDbBlockTableRecord
  2
*D23
  0
BLOCK_RECORD
  5
34
100
AcDbSymbolTableRecord
100
AcDbBlockTableRecord
  2
*D24
  0
BLOCK_RECORD
  5
35
100
AcDbSymbolTableRecord
100
AcDbBlockTableRecord
  2
*D25
  0
BLOCK_RECORD
  5
36
100
AcDbSymbolTableRecord
100
AcDbBlockTableRecord
  2
*D26
  0
BLOCK_RECORD
  5
37
100
AcDbSymbolTableRecord
100
AcDbBlockTableRecord
  2
*D27
  0
BLOCK_RECORD
  5
38
100
AcDbSymbolTableRecord
100
AcDbBlockTableRecord
  2
*D28
  0
BLOCK_RECORD
  5
39
100
AcDbSymbolTableRecord
100
AcDbBlockTableRecord
  2
*D29
  0
BLOCK_RECORD
  5
3A
100
AcDbSymbolTableRecord
100
AcDbBlockTableRecord
  2
*D30
  0
BLOCK_RECORD
  5
3B
100
AcDbSymbolTableRecord
100
AcDbBlockTableRecord
  2
*U31
  0
BLOCK_RECORD
  5
3C
100
AcDbSymbolTableRecord
100
AcDbBlockTableRecord
  2
*U32
  0
BLOCK_RECORD
  5
3D
100
AcDbSymbolTableRecord
100
AcDbBlockTableRecord
  2
*U33
  0
BLOCK_RECORD
  5
3E
100
AcDbSymbolTableRecord
100
AcDbBlockTableRecord
  2
*U34
  0
BLOCK_RECORD
  5
3F
100
AcDbSymbolTableRecord
100
AcDbBlockTableRecord
  2
*U35
  0
BLOCK_RECORD
  5
40
100
AcDbSymbolTableRecord
100
AcDbBlockTableRecord
  2
*U36
  0
BLOCK_RECORD
  5
41
100
AcDbSymbolTableRecord
100
AcDbBlockTableRecord
  2
*U37
  0
BLOCK_RECORD
  5
42
100
AcDbSymbolTableRecord
100
AcDbBlockTableRecord
  2
*U38
  0
BLOCK_RECORD
  5
43
100
AcDbSymbolTableRecord
100
AcDbBlockTableRecord
  2
*U39
  0
BLOCK_RECORD
  5
44
100
AcDbSymbolTableRecord
100
AcDbBlockTableRecord
  2
*U40
  0
BLOCK_RECORD
  5
45
100
AcDbSymbolTableRecord
100
AcDbBlockTableRecord
  2
*U41
  0
BLOCK_RECORD
  5
46
100
AcDbSymbolTableRecord
100
AcDbBlockTableRecord
  2
*U42
  0
BLOCK_RECORD
  5
47
100
AcDbSymbolTableRecord
100
AcDbBlockTableRecord
  2
*U43
  0
BLOCK_RECORD
  5
48
100
AcDbSymbolTableRecord
100
AcDbBlockTableRecord
  2
*U44
  0
BLOCK_RECORD
  5
49
100
AcDbSymbolTableRecord
100
AcDbBlockTableRecord
  2
*D45
  0
BLOCK_RECORD
  5
4A
100
AcDbSymbolTableRecord
100
AcDbBlockTableRecord
  2
*D46
  0
BLOCK_RECORD
  5
4B
100
AcDbSymbolTableRecord
100
AcDbBlockTableRecord
  2
*D47
  0
BLOCK_RECORD
  5
4C
100
AcDbSymbolTableRecord
100
AcDbBlockTableRecord
  2
*D48
  0
BLOCK_RECORD
  5
4D
100
AcDbSymbolTableRecord
100
AcDbBlockTableRecord
  2
*D49
  0
BLOCK_RECORD
  5
4E
100
AcDbSymbolTableRecord
100
AcDbBlockTableRecord
  2
*D50
  0
BLOCK_RECORD
  5
4F
100
AcDbSymbolTableRecord
100
AcDbBlockTableRecord
  2
*D51
  0
BLOCK_RECORD
  5
50
100
AcDbSymbolTableRecord
100
AcDbBlockTableRecord
  2
*D52
  0
BLOCK_RECORD
  5
51
100
AcDbSymbolTableRecord
100
AcDbBlockTableRecord
  2
*D53
  0
BLOCK_RECORD
  5
52
100
AcDbSymbolTableRecord
100
AcDbBlockTableRecord
  2
*D54
  0
BLOCK_RECORD
  5
53
100
AcDbSymbolTableRecord
100
AcDbBlockTableRecord
  2
*U55
  0
BLOCK_RECORD
  5
54
100
AcDbSymbolTableRecord
100
AcDbBlockTableRecord
  2
*D56
  0
BLOCK_RECORD
  5
55
100
AcDbSymbolTableRecord
100
AcDbBlockTableRecord
  2
*U57
  0
BLOCK_RECORD
  5
56
100
AcDbSymbolTableRecord
100
AcDbBlockTableRecord
  2
*D58
  0
BLOCK_RECORD
  5
57
100
AcDbSymbolTableRecord
100
AcDbBlockTableRecord
  2
*D59
  0
BLOCK_RECORD
  5
58
100
AcDbSymbolTableRecord
100
AcDbBlockTableRecord
  2
*U60
  0
BLOCK_RECORD
  5
59
100
AcDbSymbolTableRecord
100
AcDbBlockTableRecord
  2
*U61
  0
BLOCK_RECORD
  5
5A
100
AcDbSymbolTableRecord
100
AcDbBlockTableRecord
  2
*U62
  0
BLOCK_RECORD
  5
5B
100
AcDbSymbolTableRecord
100
AcDbBlockTableRecord
  2
*U63
  0
BLOCK_RECORD
  5
5C
100
AcDbSymbolTableRecord
100
AcDbBlockTableRecord
  2
*U64
  0
BLOCK_RECORD
  5
5D
100
AcDbSymbolTableRecord
100
AcDbBlockTableRecord
  2
*U65
  0
BLOCK_RECORD
  5
5E
100
AcDbSymbolTableRecord
100
AcDbBlockTableRecord
  2
*U66
  0
BLOCK_RECORD
  5
5F
100
AcDbSymbolTableRecord
100
AcDbBlockTableRecord
  2
*U67
  0
BLOCK_RECORD
  5
60
100
AcDbSymbolTableRecord
100
AcDbBlockTableRecord
  2
*U68
  0
BLOCK_RECORD
  5
61
100
AcDbSymbolTableRecord
100
AcDbBlockTableRecord
  2
*U69
  0
BLOCK_RECORD
  5
62
100
AcDbSymbolTableRecord
100
AcDbBlockTableRecord
  2
*U70
  0
BLOCK_RECORD
  5
63
100
AcDbSymbolTableRecord
100
AcDbBlockTableRecord
  2
*U71
  0
BLOCK_RECORD
  5
64
100
AcDbSymbolTableRecord
100
AcDbBlockTableRecord
  2
*U72
  0
BLOCK_RECORD
  5
65
100
AcDbSymbolTableRecord
100
AcDbBlockTableRecord
  2
*U73
  0
BLOCK_RECORD
  5
66
100
AcDbSymbolTableRecord
100
AcDbBlockTableRecord
  2
*U74
  0
BLOCK_RECORD
  5
67
100
AcDbSymbolTableRecord
100
AcDbBlockTableRecord
  2
*D75
  0
BLOCK_RECORD
  5
68
100
AcDbSymbolTableRecord
100
AcDbBlockTableRecord
  2
*D76
  0
BLOCK_RECORD
  5
69
100
AcDbSymbolTableRecord
100
AcDbBlockTableRecord
  2
*D77
  0
BLOCK_RECORD
  5
6A
100
AcDbSymbolTableRecord
100
AcDbBlockTableRecord
  2
*D78
  0
BLOCK_RECORD
  5
6B
100
AcDbSymbolTableRecord
100
AcDbBlockTableRecord
  2
*D79
  0
BLOCK_RECORD
  5
6C
100
AcDbSymbolTableRecord
100
AcDbBlockTableRecord
  2
*D80
  0
BLOCK_RECORD
  5
6D
100
AcDbSymbolTableRecord
100
AcDbBlockTableRecord
  2
*D81
  0
ENDTAB
  0
ENDSEC
  0
SECTION
  2
BLOCKS
  0
BLOCK
  5
D
100
AcDbEntity
  8
0
100
AcDbBlockBegin
  2
*MODEL_SPACE
 70
               0
 10
0.0
 20
0.0
 30
0.0
  3
*MODEL_SPACE
  1

  0
ENDBLK
  5
E
100
AcDbEntity
  8
0
100
AcDbBlockEnd
  0
BLOCK
  5
F
100
AcDbEntity
 67
               1
  8
0
100
AcDbBlockBegin
  2
*PAPER_SPACE
 70
               0
 10
0.0
 20
0.0
 30
0.0
  3
*PAPER_SPACE
  1

  0
ENDBLK
  5
10
100
AcDbEntity
 67
               1
  8
0
100
AcDbBlockEnd
  0
BLOCK
  5
7C
100
AcDbEntity
  8
0
  6
BYBLOCK
 62
               0
100
AcDbBlockBegin
  2
VW_OPENARROW
 70
               0
 10
0.0
 20
0.0
 30
0.0
  3
VW_OPENARROW
  1

  0
LINE
  5
7D
100
AcDbEntity
  8
0
  6
BYBLOCK
 62
               0
100
AcDbLine
 10
0.0
 20
0.0
 30
0.0
 11
-1.0
 21
0.0
 31
0.0
  0
LINE
  5
7E
100
AcDbEntity
  8
0
  6
BYBLOCK
 62
               0
100
AcDbLine
 10
0.0
 20
0.0
 30
0.0
 11
-0.9921874999999999
 21
-0.2658558393652545
 31
0.0
  0
LINE
  5
7F
100
AcDbEntity
  8
0
  6
BYBLOCK
 62
               0
100
AcDbLine
 10
0.0
 20
0.0
 30
0.0
 11
-0.9921874999999999
 21
0.2658558393652548
 31
0.0
  0
ENDBLK
  5
80
100
AcDbEntity
  8
0
100
AcDbBlockEnd
  0
BLOCK
  5
8A
100
AcDbEntity
  8
OBJECT
100
AcDbBlockBegin
  2
*U1
 70
               1
 10
0.0
 20
0.0
 30
0.0
  3
*U1
  1

  0
POLYLINE
  5
8B
100
AcDbEntity
  8
OBJECT
 62
               0
100
AcDb2dPolyline
 66
               1
 10
0.0
 20
0.0
 30
0.0
 70
             129
  0
VERTEX
  5
8C
100
AcDbEntity
  8
OBJECT
 62
               0
100
AcDbVertex
100
AcDb2dVertex
 10
39.991999999999997
 20
-658.0
 30
0.0
 42
-0.414213562373095
 70
               2
  0
VERTEX
  5
8D
100
AcDbEntity
  8
OBJECT
 62
               0
100
AcDbVertex
100
AcDb2dVertex
 10
43.991999999999997
 20
-654.0
 30
0.0
  0
VERTEX
  5
8E
100
AcDbEntity
  8
OBJECT
 62
               0
100
AcDbVertex
100
AcDb2dVertex
 10
105.99199999999999
 20
-654.0
 30
0.0
 42
-0.4142135623730929
 70
               2
 50
7730576700335508.0
  0
VERTEX
  5
8F
100
AcDbEntity
  8
OBJECT
 62
               0
100
AcDbVertex
100
AcDb2dVertex
 10
109.99199999999999
 20
-658.0
 30
0.0
  0
VERTEX
  5
90
100
AcDbEntity
  8
OBJECT
 62
               0
100
AcDbVertex
100
AcDb2dVertex
 10
109.99199999999999
 20
-774.99999999999989
 30
0.0
 42
-0.414213562373095
 70
               2
  0
VERTEX
  5
91
100
AcDbEntity
  8
OBJECT
 62
               0
100
AcDbVertex
100
AcDb2dVertex
 10
105.99199999999999
 20
-778.99999999999989
 30
0.0
  0
VERTEX
  5
92
100
AcDbEntity
  8
OBJECT
 62
               0
100
AcDbVertex
100
AcDb2dVertex
 10
43.991999999999997
 20
-778.99999999999989
 30
0.0
 42
-0.4142135623730976
 70
               2
 50
-6587165474810273.0
  0
VERTEX
  5
93
100
AcDbEntity
  8
OBJECT
 62
               0
100
AcDbVertex
100
AcDb2dVertex
 10
39.991999999999997
 20
-774.99999999999989
 30
0.0
  0
SEQEND
  5
94
100
AcDbEntity
  8
OBJECT
 62
               0
  0
POLYLINE
  5
95
100
AcDbEntity
  8
OBJECT
 62
               0
100
AcDb2dPolyline
 66
               1
 10
0.0
 20
0.0
 30
0.0
 70
             129
  0
VERTEX
  5
96
100
AcDbEntity
  8
OBJECT
 62
               0
100
AcDbVertex
100
AcDb2dVertex
 10
41.991999999999997
 20
-658.0
 30
0.0
 42
-0.414213562373095
 70
               2
  0
VERTEX
  5
97
100
AcDbEntity
  8
OBJECT
 62
               0
100
AcDbVertex
100
AcDb2dVertex
 10
43.991999999999997
 20
-656.0
 30
0.0
  0
VERTEX
  5
98
100
AcDbEntity
  8
OBJECT
 62
               0
100
AcDbVertex
100
AcDb2dVertex
 10
105.99199999999999
 20
-656.0
 30
0.0
  0
VERTEX
  5
99
100
AcDbEntity
  8
OBJECT
 62
               0
100
AcDbVertex
100
AcDb2dVertex
 10
106.33450000000008
 20
-656.0
 30
0.0
 42
-0.41421356237309
 70
               2
 50
3334728685653816.5
  0
VERTEX
  5
9A
100
AcDbEntity
  8
OBJECT
 62
               0
100
AcDbVertex
100
AcDb2dVertex
 10
107.99199999999999
 20
-657.65749999999991
 30
0.0
  0
VERTEX
  5
9B
100
AcDbEntity
  8
OBJECT
 62
               0
100
AcDbVertex
100
AcDb2dVertex
 10
107.99199999999999
 20
-775.34249999999997
 30
0.0
  0
VERTEX
  5
9C
100
AcDbEntity
  8
OBJECT
 62
               0
100
AcDbVertex
100
AcDb2dVertex
 10
107.99199999999999
 20
-775.34249999999997
 30
0.0
 42
-0.4142135623730749
 70
               2
  0
VERTEX
  5
9D
100
AcDbEntity
  8
OBJECT
 62
               0
100
AcDbVertex
100
AcDb2dVertex
 10
106.33450000000008
 20
-776.99999999999989
 30
0.0
  0
VERTEX
  5
9E
100
AcDbEntity
  8
OBJECT
 62
               0
100
AcDbVertex
100
AcDb2dVertex
 10
105.99199999999999
 20
-776.99999999999989
 30
0.0
  0
VERTEX
  5
9F
100
AcDbEntity
  8
OBJECT
 62
               0
100
AcDbVertex
100
AcDb2dVertex
 10
43.991999999999997
 20
-776.99999999999989
 30
0.0
  0
VERTEX
  5
A0
100
AcDbEntity
  8
OBJECT
 62
               0
100
AcDbVertex
100
AcDb2dVertex
 10
43.649499999999911
 20
-776.99999999999989
 30
0.0
 42
-0.4142135623731014
 70
               2
 50
-2711251979866788.5
  0
VERTEX
  5
A1
100
AcDbEntity
  8
OBJECT
 62
               0
100
AcDbVertex
100
AcDb2dVertex
 10
41.991999999999997
 20
-775.34249999999997
 30
0.0
  0
SEQEND
  5
A2
100
AcDbEntity
  8
OBJECT
 62
               0
  0
CIRCLE
  5
A3
100
AcDbEntity
  8
OBJECT
 62
               0
100
AcDbCircle
 10
87.49199999999999
 20
-679.99999999999989
 30
0.0
 40
2.5
  0
CIRCLE
  5
A4
100
AcDbEntity
  8
OBJECT
 62
               0
100
AcDbCircle
 10
75.99199999999999
 20
-696.99999999999989
 30
0.0
 40
2.5
  0
CIRCLE
  5
A5
100
AcDbEntity
  8
OBJECT
 62
               0
100
AcDbCircle
 10
87.49199999999999
 20
-696.99999999999989
 30
0.0
 40
2.5
  0
CIRCLE
  5
A6
100
AcDbEntity
  8
OBJECT
 62
               0
100
AcDbCircle
 10
64.49199999999999
 20
-696.99999999999989
 30
0.0
 40
2.5
  0
CIRCLE
  5
A7
100
AcDbEntity
  8
OBJECT
 62
               0
100
AcDbCircle
 10
75.99199999999999
 20
-724.99999999999989
 30
0.0
 40
2.5
  0
CIRCLE
  5
A8
100
AcDbEntity
  8
OBJECT
 62
               0
100
AcDbCircle
 10
87.49199999999999
 20
-724.99999999999989
 30
0.0
 40
2.5
  0
CIRCLE
  5
A9
100
AcDbEntity
  8
OBJECT
 62
               0
100
AcDbCircle
 10
64.49199999999999
 20
-724.99999999999989
 30
0.0
 40
2.5
  0
POLYLINE
  5
AA
100
AcDbEntity
  8
OBJECT
 62
               0
100
AcDb2dPolyline
 66
               1
 10
0.0
 20
0.0
 30
0.0
 70
               1
 75
               5
  0
VERTEX
  5
AB
100
AcDbEntity
  8
OBJECT
 62
               0
100
AcDbVertex
100
AcDb2dVertex
 10
65.49199999999999
 20
-750.49999999999989
 30
0.0
  0
VERTEX
  5
AC
100
AcDbEntity
  8
OBJECT
 62
               0
100
AcDbVertex
100
AcDb2dVertex
 10
81.49199999999999
 20
-750.49999999999989
 30
0.0
  0
VERTEX
  5
AD
100
AcDbEntity
  8
OBJECT
 62
               0
100
AcDbVertex
100
AcDb2dVertex
 10
81.49199999999999
 20
-761.49999999999989
 30
0.0
  0
VERTEX
  5
AE
100
AcDbEntity
  8
OBJECT
 62
               0
100
AcDbVertex
100
AcDb2dVertex
 10
65.49199999999999
 20
-761.49999999999989
 30
0.0
  0
SEQEND
  5
AF
100
AcDbEntity
  8
OBJECT
 62
               0
  0
CIRCLE
  5
B0
100
AcDbEntity
  8
OBJECT
 62
               0
100
AcDbCircle
 10
64.49199999999999
 20
-679.99999999999989
 30
0.0
 40
2.5
  0
ENDBLK
  5
B1
100
AcDbEntity
  8
OBJECT
100
AcDbBlockEnd
  0
BLOCK
  5
B2
100
AcDbEntity
  8
DIMENTION
100
AcDbBlockBegin
  2
*D2
 70
               1
 10
0.0
 20
0.0
 30
0.0
  3
*D2
  1

  0
LINE
  5
B3
100
AcDbEntity
  8
DIMENTION
 62
               0
100
AcDbLine
 10
2038.392000004497
 20
2165.0000000031278
 30
0.0
 11
1903.392000004497
 21
2165.0000000031278
 31
0.0
  0
LINE
  5
B4
100
AcDbEntity
  8
DIMENTION
 62
               0
100
AcDbLine
 10
2228.3920000044973
 20
1985.000000003128
 30
0.0
 11
1903.392000004497
 21
1985.000000003128
 31
0.0
  0
LINE
  5
B5
100
AcDbEntity
  8
DIMENTION
 62
               0
100
AcDbLine
 10
1923.392000004497
 20
2165.0000000031278
 30
0.0
 11
1923.392000004497
 21
1985.000000003128
 31
0.0
  0
LINE
  5
B6
100
AcDbEntity
  8
DIMENTION
 62
               0
100
AcDbLine
 10
1923.392000004497
 20
2165.0000000031278
 30
0.0
 11
1929.2200584830823
 21
2143.2493896515653
 31
0.0
  0
LINE
  5
B7
100
AcDbEntity
  8
DIMENTION
 62
               0
100
AcDbLine
 10
1923.392000004497
 20
2165.0000000031278
 30
0.0
 11
1917.563941525912
 21
2143.2493896515653
 31
0.0
  0
LINE
  5
B8
100
AcDbEntity
  8
DIMENTION
 62
               0
100
AcDbLine
 10
1923.392000004497
 20
1985.000000003128
 30
0.0
 11
1917.5639415259118
 21
2006.7506103546905
 31
0.0
  0
LINE
  5
B9
100
AcDbEntity
  8
DIMENTION
 62
               0
100
AcDbLine
 10
1923.392000004497
 20
1985.000000003128
 30
0.0
 11
1929.2200584830823
 21
2006.7506103546905
 31
0.0
  0
MTEXT
  5
BA
100
AcDbEntity
  8
DIMENTION
 62
               0
100
AcDbMText
 10
1880.0586666748891
 20
2043.250000003128
 30
0.0
 40
33.866666666666667
 41
0.0
 71
               1
 72
               1
  1
180
  7
________
 11
0.0
 21
1.0
 31
0.0
  0
POINT
  5
BB
100
AcDbEntity
  8
DEFPOINTS
 62
               0
100
AcDbPoint
 10
2238.3920000044973
 20
1985.000000003128
 30
0.0
  0
POINT
  5
BC
100
AcDbEntity
  8
DEFPOINTS
 62
               0
100
AcDbPoint
 10
2048.3920000044973
 20
2165.0000000031278
 30
0.0
  0
POINT
  5
BD
100
AcDbEntity
  8
DEFPOINTS
 62
               0
100
AcDbPoint
 10
1923.392000004497
 20
2165.0000000031278
 30
0.0
  0
ENDBLK
  5
BE
100
AcDbEntity
  8
DIMENTION
100
AcDbBlockEnd
  0
BLOCK
  5
BF
100
AcDbEntity
  8
DIMENTION
100
AcDbBlockBegin
  2
*D3
 70
               1
 10
0.0
 20
0.0
 30
0.0
  3
*D3
  1

  0
LINE
  5
C0
100
AcDbEntity
  8
DIMENTION
 62
               0
100
AcDbLine
 10
2228.3920000044973
 20
2075.0000000031278
 30
0.0
 11
1951.392000004497
 21
2075.0000000031278
 31
0.0
  0
LINE
  5
C1
100
AcDbEntity
  8
DIMENTION
 62
               0
100
AcDbLine
 10
2270.3920000044973
 20
2165.0000000031278
 30
0.0
 11
1951.392000004497
 21
2165.0000000031278
 31
0.0
  0
LINE
  5
C2
100
AcDbEntity
  8
DIMENTION
 62
               0
100
AcDbLine
 10
1971.392000004497
 20
2075.0000000031278
 30
0.0
 11
1971.392000004497
 21
2165.0000000031278
 31
0.0
  0
LINE
  5
C3
100
AcDbEntity
  8
DIMENTION
 62
               0
100
AcDbLine
 10
1971.392000004497
 20
2075.0000000031278
 30
0.0
 11
1965.5639415259118
 21
2096.7506103546903
 31
0.0
  0
LINE
  5
C4
100
AcDbEntity
  8
DIMENTION
 62
               0
100
AcDbLine
 10
1971.392000004497
 20
2075.0000000031278
 30
0.0
 11
1977.2200584830823
 21
2096.7506103546903
 31
0.0
  0
LINE
  5
C5
100
AcDbEntity
  8
DIMENTION
 62
               0
100
AcDbLine
 10
1971.392000004497
 20
2165.0000000031278
 30
0.0
 11
1977.2200584830823
 21
2143.2493896515653
 31
0.0
  0
LINE
  5
C6
100
AcDbEntity
  8
DIMENTION
 62
               0
100
AcDbLine
 10
1971.392000004497
 20
2165.0000000031278
 30
0.0
 11
1965.5639415259118
 21
2143.2493896515653
 31
0.0
  0
MTEXT
  5
C7
100
AcDbEntity
  8
DIMENTION
 62
               0
100
AcDbMText
 10
1928.0586666748891
 20
2098.8333333364612
 30
0.0
 40
33.866666666666667
 41
0.0
 71
               1
 72
               1
  1
90
  7
________
 11
0.0
 21
1.0
 31
0.0
  0
POINT
  5
C8
100
AcDbEntity
  8
DEFPOINTS
 62
               0
100
AcDbPoint
 10
2280.3920000044973
 20
2165.0000000031278
 30
0.0
  0
POINT
  5
C9
100
AcDbEntity
  8
DEFPOINTS
 62
               0
100
AcDbPoint
 10
2238.3920000044973
 20
2075.0000000031278
 30
0.0
  0
POINT
  5
CA
100
AcDbEntity
  8
DEFPOINTS
 62
               0
100
AcDbPoint
 10
1971.392000004497
 20
2075.0000000031278
 30
0.0
  0
ENDBLK
  5
CB
100
AcDbEntity
  8
DIMENTION
100
AcDbBlockEnd
  0
BLOCK
  5
CC
100
AcDbEntity
  8
DIMENTION
100
AcDbBlockBegin
  2
*D4
 70
               1
 10
0.0
 20
0.0
 30
0.0
  3
*D4
  1

  0
LINE
  5
CD
100
AcDbEntity
  8
DIMENTION
 62
               0
100
AcDbLine
 10
2238.3920000044973
 20
2065.0000000031278
 30
0.0
 11
2238.3920000044973
 21
1804.0000000031278
 31
0.0
  0
LINE
  5
CE
100
AcDbEntity
  8
DIMENTION
 62
               0
100
AcDbLine
 10
2280.3920000044973
 20
1825.000000003128
 30
0.0
 11
2280.3920000044973
 21
1804.0000000031278
 31
0.0
  0
LINE
  5
CF
100
AcDbEntity
  8
DIMENTION
 62
               0
100
AcDbLine
 10
2280.3920000044973
 20
1824.0000000031278
 30
0.0
 11
2238.3920000044973
 21
1824.0000000031278
 31
0.0
  0
LINE
  5
D0
100
AcDbEntity
  8
DIMENTION
 62
               0
100
AcDbLine
 10
2238.3920000044973
 20
1824.0000000031278
 30
0.0
 11
2171.0586666711638
 21
1824.0000000031278
 31
0.0
  0
LINE
  5
D1
100
AcDbEntity
  8
DIMENTION
 62
               0
100
AcDbLine
 10
2238.3920000044973
 20
1824.0000000031278
 30
0.0
 11
2216.6413896529348
 21
1818.1719415245427
 31
0.0
  0
LINE
  5
D2
100
AcDbEntity
  8
DIMENTION
 62
               0
100
AcDbLine
 10
2238.3920000044973
 20
1824.0000000031278
 30
0.0
 11
2216.6413896529348
 21
1829.828058481713
 31
0.0
  0
LINE
  5
D3
100
AcDbEntity
  8
DIMENTION
 62
               0
100
AcDbLine
 10
2280.3920000044973
 20
1824.0000000031278
 30
0.0
 11
2320.3920000044973
 21
1824.0000000031278
 31
0.0
  0
LINE
  5
D4
100
AcDbEntity
  8
DIMENTION
 62
               0
100
AcDbLine
 10
2280.3920000044973
 20
1824.0000000031278
 30
0.0
 11
2302.1426103560598
 21
1829.828058481713
 31
0.0
  0
LINE
  5
D5
100
AcDbEntity
  8
DIMENTION
 62
               0
100
AcDbLine
 10
2280.3920000044973
 20
1824.0000000031278
 30
0.0
 11
2302.1426103560598
 21
1818.1719415245427
 31
0.0
  0
MTEXT
  5
D6
100
AcDbEntity
  8
DIMENTION
 62
               0
100
AcDbMText
 10
2171.0586666711638
 20
1867.3333333327359
 30
0.0
 40
33.866666666666667
 41
0.0
 71
               1
 72
               1
  1
40
  7
________
  0
POINT
  5
D7
100
AcDbEntity
  8
DEFPOINTS
 62
               0
100
AcDbPoint
 10
2280.3920000044973
 20
1835.000000003128
 30
0.0
  0
POINT
  5
D8
100
AcDbEntity
  8
DEFPOINTS
 62
               0
100
AcDbPoint
 10
2238.3920000044973
 20
2075.0000000031278
 30
0.0
  0
POINT
  5
D9
100
AcDbEntity
  8
DEFPOINTS
 62
               0
100
AcDbPoint
 10
2238.3920000044973
 20
1824.0000000031278
 30
0.0
  0
ENDBLK
  5
DA
100
AcDbEntity
  8
DIMENTION
100
AcDbBlockEnd
  0
BLOCK
  5
DB
100
AcDbEntity
  8
OBJECT
100
AcDbBlockBegin
  2
*U5
 70
               1
 10
0.0
 20
0.0
 30
0.0
  3
*U5
  1

  0
POLYLINE
  5
DC
100
AcDbEntity
  8
OBJECT
 62
               0
100
AcDb2dPolyline
 66
               1
 10
0.0
 20
0.0
 30
0.0
 70
               1
 75
               5
  0
VERTEX
  5
DD
100
AcDbEntity
  8
OBJECT
 62
               0
100
AcDbVertex
100
AcDb2dVertex
 10
357.49199999999996
 20
-632.5
 30
0.0
  0
VERTEX
  5
DE
100
AcDbEntity
  8
OBJECT
 62
               0
100
AcDbVertex
100
AcDb2dVertex
 10
492.49199999999996
 20
-632.5
 30
0.0
  0
VERTEX
  5
DF
100
AcDbEntity
  8
OBJECT
 62
               0
100
AcDbVertex
100
AcDb2dVertex
 10
492.49199999999996
 20
-662.5
 30
0.0
  0
VERTEX
  5
E0
100
AcDbEntity
  8
OBJECT
 62
               0
100
AcDbVertex
100
AcDb2dVertex
 10
357.49199999999996
 20
-662.5
 30
0.0
  0
SEQEND
  5
E1
100
AcDbEntity
  8
OBJECT
 62
               0
  0
POLYLINE
  5
E2
100
AcDbEntity
  8
OBJECT
 62
               0
100
AcDb2dPolyline
 66
               1
 10
0.0
 20
0.0
 30
0.0
 70
             129
  0
VERTEX
  5
E3
100
AcDbEntity
  8
OBJECT
 62
               0
100
AcDbVertex
100
AcDb2dVertex
 10
419.99199999999996
 20
-642.5
 30
0.0
 42
-0.414213562373095
 70
               2
  0
VERTEX
  5
E4
100
AcDbEntity
  8
OBJECT
 62
               0
100
AcDbVertex
100
AcDb2dVertex
 10
424.99199999999996
 20
-637.5
 30
0.0
 42
-0.414213562373095
 70
               2
 50
1.8714839861558573E+17
  0
VERTEX
  5
E5
100
AcDbEntity
  8
OBJECT
 62
               0
100
AcDbVertex
100
AcDb2dVertex
 10
429.99199999999996
 20
-642.5
 30
0.0
 42
-0.414213562373095
 70
               2
  0
VERTEX
  5
E6
100
AcDbEntity
  8
OBJECT
 62
               0
100
AcDbVertex
100
AcDb2dVertex
 10
424.99199999999996
 20
-647.5
 30
0.0
 42
-0.414213562373095
 70
               2
 50
3.1191399769264294E+17
  0
VERTEX
  5
E7
100
AcDbEntity
  8
OBJECT
 62
               0
100
AcDbVertex
100
AcDb2dVertex
 10
419.99199999999996
 20
-642.5
 30
0.0
  0
SEQEND
  5
E8
100
AcDbEntity
  8
OBJECT
 62
               0
  0
POLYLINE
  5
E9
100
AcDbEntity
  8
OBJECT
 62
               0
100
AcDb2dPolyline
 66
               1
 10
0.0
 20
0.0
 30
0.0
 70
             129
  0
VERTEX
  5
EA
100
AcDbEntity
  8
OBJECT
 62
               0
100
AcDbVertex
100
AcDb2dVertex
 10
470.99199999999996
 20
-642.5
 30
0.0
 42
-0.414213562373095
 70
               2
  0
VERTEX
  5
EB
100
AcDbEntity
  8
OBJECT
 62
               0
100
AcDbVertex
100
AcDb2dVertex
 10
474.99199999999996
 20
-638.5
 30
0.0
 42
-0.414213562373095
 70
               2
 50
1.8714839861558573E+17
  0
VERTEX
  5
EC
100
AcDbEntity
  8
OBJECT
 62
               0
100
AcDbVertex
100
AcDb2dVertex
 10
478.99199999999996
 20
-642.5
 30
0.0
 42
-0.414213562373095
 70
               2
  0
VERTEX
  5
ED
100
AcDbEntity
  8
OBJECT
 62
               0
100
AcDbVertex
100
AcDb2dVertex
 10
474.99199999999996
 20
-646.5
 30
0.0
 42
-0.414213562373095
 70
               2
 50
3.1191399769264294E+17
  0
VERTEX
  5
EE
100
AcDbEntity
  8
OBJECT
 62
               0
100
AcDbVertex
100
AcDb2dVertex
 10
470.99199999999996
 20
-642.5
 30
0.0
  0
SEQEND
  5
EF
100
AcDbEntity
  8
OBJECT
 62
               0
  0
POLYLINE
  5
F0
100
AcDbEntity
  8
OBJECT
 62
               0
100
AcDb2dPolyline
 66
               1
 10
0.0
 20
0.0
 30
0.0
 70
             129
  0
VERTEX
  5
F1
100
AcDbEntity
  8
OBJECT
 62
               0
100
AcDbVertex
100
AcDb2dVertex
 10
396.99199999999996
 20
-628.5
 30
0.0
 42
-0.414213562373095
 70
               2
  0
VERTEX
  5
F2
100
AcDbEntity
  8
OBJECT
 62
               0
100
AcDbVertex
100
AcDb2dVertex
 10
399.99199999999996
 20
-625.5
 30
0.0
 42
-0.414213562373095
 70
               2
 50
1.8714839861558573E+17
  0
VERTEX
  5
F3
100
AcDbEntity
  8
OBJECT
 62
               0
100
AcDbVertex
100
AcDb2dVertex
 10
402.99199999999996
 20
-628.5
 30
0.0
 42
-0.414213562373095
 70
               2
  0
VERTEX
  5
F4
100
AcDbEntity
  8
OBJECT
 62
               0
100
AcDbVertex
100
AcDb2dVertex
 10
399.99199999999996
 20
-631.5
 30
0.0
 42
-0.414213562373095
 70
               2
 50
3.1191399769264294E+17
  0
VERTEX
  5
F5
100
AcDbEntity
  8
OBJECT
 62
               0
100
AcDbVertex
100
AcDb2dVertex
 10
396.99199999999996
 20
-628.5
 30
0.0
  0
SEQEND
  5
F6
100
AcDbEntity
  8
OBJECT
 62
               0
  0
POLYLINE
  5
F7
100
AcDbEntity
  8
OBJECT
 62
               0
100
AcDb2dPolyline
 66
               1
 10
0.0
 20
0.0
 30
0.0
 70
             129
  0
VERTEX
  5
F8
100
AcDbEntity
  8
OBJECT
 62
               0
100
AcDbVertex
100
AcDb2dVertex
 10
446.99199999999996
 20
-628.68209999999999
 30
0.0
 42
-0.414213562373095
 70
               2
  0
VERTEX
  5
F9
100
AcDbEntity
  8
OBJECT
 62
               0
100
AcDbVertex
100
AcDb2dVertex
 10
449.99199999999996
 20
-625.68209999999999
 30
0.0
 42
-0.414213562373095
 70
               2
 50
1.8714839861558573E+17
  0
VERTEX
  5
FA
100
AcDbEntity
  8
OBJECT
 62
               0
100
AcDbVertex
100
AcDb2dVertex
 10
452.99199999999996
 20
-628.68209999999999
 30
0.0
 42
-0.414213562373095
 70
               2
  0
VERTEX
  5
FB
100
AcDbEntity
  8
OBJECT
 62
               0
100
AcDbVertex
100
AcDb2dVertex
 10
449.99199999999996
 20
-631.68209999999999
 30
0.0
 42
-0.414213562373095
 70
               2
 50
3.1191399769264294E+17
  0
VERTEX
  5
FC
100
AcDbEntity
  8
OBJECT
 62
               0
100
AcDbVertex
100
AcDb2dVertex
 10
446.99199999999996
 20
-628.68209999999999
 30
0.0
  0
SEQEND
  5
FD
100
AcDbEntity
  8
OBJECT
 62
               0
  0
POLYLINE
  5
FE
100
AcDbEntity
  8
OBJECT
 62
               0
100
AcDb2dPolyline
 66
               1
 10
0.0
 20
0.0
 30
0.0
 70
             129
  0
VERTEX
  5
FF
100
AcDbEntity
  8
OBJECT
 62
               0
100
AcDbVertex
100
AcDb2dVertex
 10
407.32049999999998
 20
-637.25
 30
0.0
 42
0.4142135623731034
 70
               2
  0
VERTEX
  5
100
100
AcDbEntity
  8
OBJECT
 62
               0
100
AcDbVertex
100
AcDb2dVertex
 10
405.32049999999998
 20
-635.25
 30
0.0
  0
VERTEX
  5
101
100
AcDbEntity
  8
OBJECT
 62
               0
100
AcDbVertex
100
AcDb2dVertex
 10
394.82049999999998
 20
-635.25
 30
0.0
 42
0.414213562373095
 70
               2
 50
9.3574199307792870E+17
  0
VERTEX
  5
102
100
AcDbEntity
  8
OBJECT
 62
               0
100
AcDbVertex
100
AcDb2dVertex
 10
392.82049999999998
 20
-637.25
 30
0.0
  0
VERTEX
  5
103
100
AcDbEntity
  8
OBJECT
 62
               0
100
AcDbVertex
100
AcDb2dVertex
 10
392.82049999999998
 20
-647.75
 30
0.0
 42
0.4142135623730867
 70
               2
  0
VERTEX
  5
104
100
AcDbEntity
  8
OBJECT
 62
               0
100
AcDbVertex
100
AcDb2dVertex
 10
394.82049999999998
 20
-649.75
 30
0.0
  0
VERTEX
  5
105
100
AcDbEntity
  8
OBJECT
 62
               0
100
AcDbVertex
100
AcDb2dVertex
 10
405.32049999999998
 20
-649.75
 30
0.0
 42
0.414213562373095
 70
               2
 50
3.1191399769264294E+17
  0
VERTEX
  5
106
100
AcDbEntity
  8
OBJECT
 62
               0
100
AcDbVertex
100
AcDb2dVertex
 10
407.32049999999998
 20
-647.75
 30
0.0
  0
SEQEND
  5
107
100
AcDbEntity
  8
OBJECT
 62
               0
  0
POLYLINE
  5
108
100
AcDbEntity
  8
OBJECT
 62
               0
100
AcDb2dPolyline
 66
               1
 10
0.0
 20
0.0
 30
0.0
 70
             129
  0
VERTEX
  5
109
100
AcDbEntity
  8
OBJECT
 62
               0
100
AcDbVertex
100
AcDb2dVertex
 10
457.32049999999998
 20
-637.25
 30
0.0
 42
0.4142135623731034
 70
               2
  0
VERTEX
  5
10A
100
AcDbEntity
  8
OBJECT
 62
               0
100
AcDbVertex
100
AcDb2dVertex
 10
455.32049999999998
 20
-635.25
 30
0.0
  0
VERTEX
  5
10B
100
AcDbEntity
  8
OBJECT
 62
               0
100
AcDbVertex
100
AcDb2dVertex
 10
444.82049999999998
 20
-635.25
 30
0.0
 42
0.414213562373095
 70
               2
 50
9.3574199307792870E+17
  0
VERTEX
  5
10C
100
AcDbEntity
  8
OBJECT
 62
               0
100
AcDbVertex
100
AcDb2dVertex
 10
442.82049999999998
 20
-637.25
 30
0.0
  0
VERTEX
  5
10D
100
AcDbEntity
  8
OBJECT
 62
               0
100
AcDbVertex
100
AcDb2dVertex
 10
442.82049999999998
 20
-647.75
 30
0.0
 42
0.4142135623730867
 70
               2
  0
VERTEX
  5
10E
100
AcDbEntity
  8
OBJECT
 62
               0
100
AcDbVertex
100
AcDb2dVertex
 10
444.82049999999998
 20
-649.75
 30
0.0
  0
VERTEX
  5
10F
100
AcDbEntity
  8
OBJECT
 62
               0
100
AcDbVertex
100
AcDb2dVertex
 10
455.32049999999998
 20
-649.75
 30
0.0
 42
0.414213562373095
 70
               2
 50
3.1191399769264294E+17
  0
VERTEX
  5
110
100
AcDbEntity
  8
OBJECT
 62
               0
100
AcDbVertex
100
AcDb2dVertex
 10
457.32049999999998
 20
-647.75
 30
0.0
  0
SEQEND
  5
111
100
AcDbEntity
  8
OBJECT
 62
               0
  0
POLYLINE
  5
112
100
AcDbEntity
  8
OBJECT
 62
               0
100
AcDb2dPolyline
 66
               1
 10
0.0
 20
0.0
 30
0.0
 70
             129
  0
VERTEX
  5
113
100
AcDbEntity
  8
OBJECT
 62
               0
100
AcDbVertex
100
AcDb2dVertex
 10
382.32049999999998
 20
-637.25
 30
0.0
 42
0.4142135623731034
 70
               2
  0
VERTEX
  5
114
100
AcDbEntity
  8
OBJECT
 62
               0
100
AcDbVertex
100
AcDb2dVertex
 10
380.32049999999998
 20
-635.25
 30
0.0
  0
VERTEX
  5
115
100
AcDbEntity
  8
OBJECT
 62
               0
100
AcDbVertex
100
AcDb2dVertex
 10
369.82049999999998
 20
-635.25
 30
0.0
 42
0.414213562373095
 70
               2
 50
9.3574199307792870E+17
  0
VERTEX
  5
116
100
AcDbEntity
  8
OBJECT
 62
               0
100
AcDbVertex
100
AcDb2dVertex
 10
367.82049999999998
 20
-637.25
 30
0.0
  0
VERTEX
  5
117
100
AcDbEntity
  8
OBJECT
 62
               0
100
AcDbVertex
100
AcDb2dVertex
 10
367.82049999999998
 20
-647.75
 30
0.0
 42
0.4142135623730867
 70
               2
  0
VERTEX
  5
118
100
AcDbEntity
  8
OBJECT
 62
               0
100
AcDbVertex
100
AcDb2dVertex
 10
369.82049999999998
 20
-649.75
 30
0.0
  0
VERTEX
  5
119
100
AcDbEntity
  8
OBJECT
 62
               0
100
AcDbVertex
100
AcDb2dVertex
 10
380.32049999999998
 20
-649.75
 30
0.0
 42
0.414213562373095
 70
               2
 50
3.1191399769264294E+17
  0
VERTEX
  5
11A
100
AcDbEntity
  8
OBJECT
 62
               0
100
AcDbVertex
100
AcDb2dVertex
 10
382.32049999999998
 20
-647.75
 30
0.0
  0
SEQEND
  5
11B
100
AcDbEntity
  8
OBJECT
 62
               0
  0
POLYLINE
  5
11C
100
AcDbEntity
  8
OBJECT
 62
               0
100
AcDb2dPolyline
 66
               1
 10
0.0
 20
0.0
 30
0.0
 70
               1
 75
               5
  0
VERTEX
  5
11D
100
AcDbEntity
  8
OBJECT
 62
               0
100
AcDbVertex
100
AcDb2dVertex
 10
356.49199999999996
 20
-625.5
 30
0.0
  0
VERTEX
  5
11E
100
AcDbEntity
  8
OBJECT
 62
               0
100
AcDbVertex
100
AcDb2dVertex
 10
493.49199999999996
 20
-625.5
 30
0.0
  0
VERTEX
  5
11F
100
AcDbEntity
  8
OBJECT
 62
               0
100
AcDbVertex
100
AcDb2dVertex
 10
493.49199999999996
 20
-662.5
 30
0.0
  0
VERTEX
  5
120
100
AcDbEntity
  8
OBJECT
 62
               0
100
AcDbVertex
100
AcDb2dVertex
 10
356.49199999999996
 20
-662.5
 30
0.0
  0
SEQEND
  5
121
100
AcDbEntity
  8
OBJECT
 62
               0
  0
ENDBLK
  5
122
100
AcDbEntity
  8
OBJECT
100
AcDbBlockEnd
  0
BLOCK
  5
123
100
AcDbEntity
  8
OBJECT
100
AcDbBlockBegin
  2
*U6
 70
               1
 10
0.0
 20
0.0
 30
0.0
  3
*U6
  1

  0
POLYLINE
  5
124
100
AcDbEntity
  8
OBJECT
 62
               0
100
AcDb2dPolyline
 66
               1
 10
0.0
 20
0.0
 30
0.0
 70
             129
  0
VERTEX
  5
125
100
AcDbEntity
  8
OBJECT
 62
               0
100
AcDbVertex
100
AcDb2dVertex
 10
1424.992
 20
1007.0
 30
0.0
 42
0.414213562373095
 70
               2
  0
VERTEX
  5
126
100
AcDbEntity
  8
OBJECT
 62
               0
100
AcDbVertex
100
AcDb2dVertex
 10
1422.992
 20
1009.0
 30
0.0
  0
VERTEX
  5
127
100
AcDbEntity
  8
OBJECT
 62
               0
100
AcDbVertex
100
AcDb2dVertex
 10
266.99199999999996
 20
1009.0
 30
0.0
 42
0.414213562373095
 70
               2
 50
9.3574199307792870E+17
  0
VERTEX
  5
128
100
AcDbEntity
  8
OBJECT
 62
               0
100
AcDbVertex
100
AcDb2dVertex
 10
264.99199999999996
 20
1007.0
 30
0.0
  0
VERTEX
  5
129
100
AcDbEntity
  8
OBJECT
 62
               0
100
AcDbVertex
100
AcDb2dVertex
 10
264.99199999999996
 20
988.99999999999989
 30
0.0
 42
0.414213562373095
 70
               2
  0
VERTEX
  5
12A
100
AcDbEntity
  8
OBJECT
 62
               0
100
AcDbVertex
100
AcDb2dVertex
 10
266.99199999999996
 20
986.99999999999989
 30
0.0
  0
VERTEX
  5
12B
100
AcDbEntity
  8
OBJECT
 62
               0
100
AcDbVertex
100
AcDb2dVertex
 10
1422.992
 20
986.99999999999989
 30
0.0
 42
0.4142135623731117
 70
               2
 50
3.1191399769264294E+17
  0
VERTEX
  5
12C
100
AcDbEntity
  8
OBJECT
 62
               0
100
AcDbVertex
100
AcDb2dVertex
 10
1424.992
 20
988.99999999999989
 30
0.0
  0
SEQEND
  5
12D
100
AcDbEntity
  8
OBJECT
 62
               0
  0
POLYLINE
  5
12E
100
AcDbEntity
  8
OBJECT
 62
               0
100
AcDb2dPolyline
 66
               1
 10
0.0
 20
0.0
 30
0.0
 70
               1
 75
               5
  0
VERTEX
  5
12F
100
AcDbEntity
  8
OBJECT
 62
               0
100
AcDbVertex
100
AcDb2dVertex
 10
1424.992
 20
1023.0
 30
0.0
  0
VERTEX
  5
130
100
AcDbEntity
  8
OBJECT
 62
               0
100
AcDbVertex
100
AcDb2dVertex
 10
1399.992
 20
1015.0
 30
0.0
  0
VERTEX
  5
131
100
AcDbEntity
  8
OBJECT
 62
               0
100
AcDbVertex
100
AcDb2dVertex
 10
289.99199999999996
 20
1015.0
 30
0.0
  0
VERTEX
  5
132
100
AcDbEntity
  8
OBJECT
 62
               0
100
AcDbVertex
100
AcDb2dVertex
 10
264.99199999999996
 20
1023.0
 30
0.0
  0
VERTEX
  5
133
100
AcDbEntity
  8
OBJECT
 62
               0
100
AcDbVertex
100
AcDb2dVertex
 10
264.99199999999996
 20
1017.0
 30
0.0
  0
VERTEX
  5
134
100
AcDbEntity
  8
OBJECT
 62
               0
100
AcDbVertex
100
AcDb2dVertex
 10
289.99199999999996
 20
1009.0
 30
0.0
  0
VERTEX
  5
135
100
AcDbEntity
  8
OBJECT
 62
               0
100
AcDbVertex
100
AcDb2dVertex
 10
1399.992
 20
1009.0
 30
0.0
  0
VERTEX
  5
136
100
AcDbEntity
  8
OBJECT
 62
               0
100
AcDbVertex
100
AcDb2dVertex
 10
1424.992
 20
1017.0
 30
0.0
  0
SEQEND
  5
137
100
AcDbEntity
  8
OBJECT
 62
               0
  0
LINE
  5
138
100
AcDbEntity
  8
OBJECT
 62
               0
100
AcDbLine
 10
289.99199999999996
 20
1008.0
 30
0.0
 11
289.99199999999996
 21
987.99999999999989
 31
0.0
  0
LINE
  5
139
100
AcDbEntity
  8
OBJECT
 62
               0
100
AcDbLine
 10
1399.992
 20
1008.0
 30
0.0
 11
1399.992
 21
987.99999999999989
 31
0.0
  0
ENDBLK
  5
13A
100
AcDbEntity
  8
OBJECT
100
AcDbBlockEnd
  0
BLOCK
  5
13B
100
AcDbEntity
  8
OBJECT
100
AcDbBlockBegin
  2
*U7
 70
               1
 10
0.0
 20
0.0
 30
0.0
  3
*U7
  1

  0
POLYLINE
  5
13C
100
AcDbEntity
  8
OBJECT
 62
               0
100
AcDb2dPolyline
 66
               1
 10
0.0
 20
0.0
 30
0.0
 70
             129
  0
VERTEX
  5
13D
100
AcDbEntity
  8
OBJECT
 62
               0
100
AcDbVertex
100
AcDb2dVertex
 10
1424.992
 20
505.0
 30
0.0
 42
-0.414213562373095
 70
               2
  0
VERTEX
  5
13E
100
AcDbEntity
  8
OBJECT
 62
               0
100
AcDbVertex
100
AcDb2dVertex
 10
1422.992
 20
503.0
 30
0.0
  0
VERTEX
  5
13F
100
AcDbEntity
  8
OBJECT
 62
               0
100
AcDbVertex
100
AcDb2dVertex
 10
266.99199999999996
 20
503.0
 30
0.0
 42
-0.414213562373095
 70
               2
 50
3.1191399769264294E+17
  0
VERTEX
  5
140
100
AcDbEntity
  8
OBJECT
 62
               0
100
AcDbVertex
100
AcDb2dVertex
 10
264.99199999999996
 20
505.0
 30
0.0
  0
VERTEX
  5
141
100
AcDbEntity
  8
OBJECT
 62
               0
100
AcDbVertex
100
AcDb2dVertex
 10
264.99199999999996
 20
523.0
 30
0.0
 42
-0.414213562373095
 70
               2
  0
VERTEX
  5
142
100
AcDbEntity
  8
OBJECT
 62
               0
100
AcDbVertex
100
AcDb2dVertex
 10
266.99199999999996
 20
525.0
 30
0.0
  0
VERTEX
  5
143
100
AcDbEntity
  8
OBJECT
 62
               0
100
AcDbVertex
100
AcDb2dVertex
 10
1422.992
 20
525.0
 30
0.0
 42
-0.414213562373095
 70
               2
 50
1.8714839861558573E+17
  0
VERTEX
  5
144
100
AcDbEntity
  8
OBJECT
 62
               0
100
AcDbVertex
100
AcDb2dVertex
 10
1424.992
 20
523.0
 30
0.0
  0
SEQEND
  5
145
100
AcDbEntity
  8
OBJECT
 62
               0
  0
POLYLINE
  5
146
100
AcDbEntity
  8
OBJECT
 62
               0
100
AcDb2dPolyline
 66
               1
 10
0.0
 20
0.0
 30
0.0
 70
               1
 75
               5
  0
VERTEX
  5
147
100
AcDbEntity
  8
OBJECT
 62
               0
100
AcDbVertex
100
AcDb2dVertex
 10
1424.992
 20
488.99999999999994
 30
0.0
  0
VERTEX
  5
148
100
AcDbEntity
  8
OBJECT
 62
               0
100
AcDbVertex
100
AcDb2dVertex
 10
1399.992
 20
497.0
 30
0.0
  0
VERTEX
  5
149
100
AcDbEntity
  8
OBJECT
 62
               0
100
AcDbVertex
100
AcDb2dVertex
 10
289.99199999999996
 20
497.0
 30
0.0
  0
VERTEX
  5
14A
100
AcDbEntity
  8
OBJECT
 62
               0
100
AcDbVertex
100
AcDb2dVertex
 10
264.99199999999996
 20
488.99999999999994
 30
0.0
  0
VERTEX
  5
14B
100
AcDbEntity
  8
OBJECT
 62
               0
100
AcDbVertex
100
AcDb2dVertex
 10
264.99199999999996
 20
495.0
 30
0.0
  0
VERTEX
  5
14C
100
AcDbEntity
  8
OBJECT
 62
               0
100
AcDbVertex
100
AcDb2dVertex
 10
289.99199999999996
 20
503.0
 30
0.0
  0
VERTEX
  5
14D
100
AcDbEntity
  8
OBJECT
 62
               0
100
AcDbVertex
100
AcDb2dVertex
 10
1399.992
 20
503.0
 30
0.0
  0
VERTEX
  5
14E
100
AcDbEntity
  8
OBJECT
 62
               0
100
AcDbVertex
100
AcDb2dVertex
 10
1424.992
 20
495.0
 30
0.0
  0
SEQEND
  5
14F
100
AcDbEntity
  8
OBJECT
 62
               0
  0
LINE
  5
150
100
AcDbEntity
  8
OBJECT
 62
               0
100
AcDbLine
 10
289.99199999999996
 20
504.0
 30
0.0
 11
289.99199999999996
 21
524.0
 31
0.0
  0
LINE
  5
151
100
AcDbEntity
  8
OBJECT
 62
               0
100
AcDbLine
 10
1399.992
 20
504.0
 30
0.0
 11
1399.992
 21
524.0
 31
0.0
  0
ENDBLK
  5
152
100
AcDbEntity
  8
OBJECT
100
AcDbBlockEnd
  0
BLOCK
  5
153
100
AcDbEntity
  8
DIMENTION
100
AcDbBlockBegin
  2
*D8
 70
               1
 10
0.0
 20
0.0
 30
0.0
  3
*D8
  1

  0
LINE
  5
154
100
AcDbEntity
  8
DIMENTION
 62
               0
100
AcDbLine
 10
3488.3920000044973
 20
990.00000000312798
 30
0.0
 11
3722.4000000044971
 21
990.00000000312798
 31
0.0
  0
LINE
  5
155
100
AcDbEntity
  8
DIMENTION
 62
               0
100
AcDbLine
 10
3430.3920000044973
 20
190.00000000312798
 30
0.0
 11
3722.4000000044971
 21
190.00000000312798
 31
0.0
  0
LINE
  5
156
100
AcDbEntity
  8
DIMENTION
 62
               0
100
AcDbLine
 10
3702.4000000044971
 20
990.00000000312798
 30
0.0
 11
3702.4000000044971
 21
190.00000000312798
 31
0.0
  0
LINE
  5
157
100
AcDbEntity
  8
DIMENTION
 62
               0
100
AcDbLine
 10
3702.4000000044971
 20
990.00000000312798
 30
0.0
 11
3708.2280584830823
 21
968.24938965156548
 31
0.0
  0
LINE
  5
158
100
AcDbEntity
  8
DIMENTION
 62
               0
100
AcDbLine
 10
3702.4000000044971
 20
990.00000000312798
 30
0.0
 11
3696.5719415259118
 21
968.24938965156548
 31
0.0
  0
LINE
  5
159
100
AcDbEntity
  8
DIMENTION
 62
               0
100
AcDbLine
 10
3702.4000000044971
 20
190.00000000312798
 30
0.0
 11
3696.5719415259118
 21
211.75061035469048
 31
0.0
  0
LINE
  5
15A
100
AcDbEntity
  8
DIMENTION
 62
               0
100
AcDbLine
 10
3702.4000000044971
 20
190.00000000312798
 30
0.0
 11
3708.2280584830823
 21
211.75061035469048
 31
0.0
  0
MTEXT
  5
15B
100
AcDbEntity
  8
DIMENTION
 62
               0
100
AcDbMText
 10
3659.0666666748889
 20
558.25000000312798
 30
0.0
 40
33.866666666666667
 41
0.0
 71
               1
 72
               1
  1
800
  7
________
 11
0.0
 21
1.0
 31
0.0
  0
POINT
  5
15C
100
AcDbEntity
  8
DEFPOINTS
 62
               0
100
AcDbPoint
 10
3420.3920000044973
 20
190.00000000312798
 30
0.0
  0
POINT
  5
15D
100
AcDbEntity
  8
DEFPOINTS
 62
               0
100
AcDbPoint
 10
3478.3920000044973
 20
990.00000000312798
 30
0.0
  0
POINT
  5
15E
100
AcDbEntity
  8
DEFPOINTS
 62
               0
100
AcDbPoint
 10
3702.4000000044971
 20
990.00000000312798
 30
0.0
  0
ENDBLK
  5
15F
100
AcDbEntity
  8
DIMENTION
100
AcDbBlockEnd
  0
BLOCK
  5
160
100
AcDbEntity
  8
DIMENTION
100
AcDbBlockBegin
  2
*D9
 70
               1
 10
0.0
 20
0.0
 30
0.0
  3
*D9
  1

  0
LINE
  5
161
100
AcDbEntity
  8
DIMENTION
 62
               0
100
AcDbLine
 10
3455.3920000044973
 20
1540.000000003128
 30
0.0
 11
3455.3920000044973
 21
1643.000000003128
 31
0.0
  0
LINE
  5
162
100
AcDbEntity
  8
DIMENTION
 62
               0
100
AcDbLine
 10
2285.3920000044973
 20
1540.000000003128
 30
0.0
 11
2285.3920000044973
 21
1643.000000003128
 31
0.0
  0
LINE
  5
163
100
AcDbEntity
  8
DIMENTION
 62
               0
100
AcDbLine
 10
3455.3920000044973
 20
1623.000000003128
 30
0.0
 11
2285.3920000044973
 21
1623.000000003128
 31
0.0
  0
LINE
  5
164
100
AcDbEntity
  8
DIMENTION
 62
               0
100
AcDbLine
 10
3455.3920000044973
 20
1623.000000003128
 30
0.0
 11
3433.6413896529348
 21
1617.1719415245427
 31
0.0
  0
LINE
  5
165
100
AcDbEntity
  8
DIMENTION
 62
               0
100
AcDbLine
 10
3455.3920000044973
 20
1623.000000003128
 30
0.0
 11
3433.6413896529348
 21
1628.8280584817132
 31
0.0
  0
LINE
  5
166
100
AcDbEntity
  8
DIMENTION
 62
               0
100
AcDbLine
 10
2285.3920000044973
 20
1623.000000003128
 30
0.0
 11
2307.1426103560598
 21
1628.8280584817132
 31
0.0
  0
LINE
  5
167
100
AcDbEntity
  8
DIMENTION
 62
               0
100
AcDbLine
 10
2285.3920000044973
 20
1623.000000003128
 30
0.0
 11
2307.1426103560598
 21
1617.1719415245427
 31
0.0
  0
MTEXT
  5
168
100
AcDbEntity
  8
DIMENTION
 62
               0
100
AcDbMText
 10
2828.0586666711638
 20
1666.3333333327359
 30
0.0
 40
33.866666666666667
 41
0.0
 71
               1
 72
               1
  1
1170
  7
________
  0
POINT
  5
169
100
AcDbEntity
  8
DEFPOINTS
 62
               0
100
AcDbPoint
 10
2285.3920000044973
 20
1530.000000003128
 30
0.0
  0
POINT
  5
16A
100
AcDbEntity
  8
DEFPOINTS
 62
               0
100
AcDbPoint
 10
3455.3920000044973
 20
1530.000000003128
 30
0.0
  0
POINT
  5
16B
100
AcDbEntity
  8
DEFPOINTS
 62
               0
100
AcDbPoint
 10
3455.3920000044973
 20
1623.000000003128
 30
0.0
  0
ENDBLK
  5
16C
100
AcDbEntity
  8
DIMENTION
100
AcDbBlockEnd
  0
BLOCK
  5
16D
100
AcDbEntity
  8
DIMENTION
100
AcDbBlockBegin
  2
*D10
 70
               1
 10
0.0
 20
0.0
 30
0.0
  3
*D10
  1

  0
LINE
  5
16E
100
AcDbEntity
  8
DIMENTION
 62
               0
100
AcDbLine
 10
3465.3920000044973
 20
1530.000000003128
 30
0.0
 11
3799.4000000044971
 21
1530.000000003128
 31
0.0
  0
LINE
  5
16F
100
AcDbEntity
  8
DIMENTION
 62
               0
100
AcDbLine
 10
3430.3920000044973
 20
190.00000000312798
 30
0.0
 11
3799.4000000044971
 21
190.00000000312798
 31
0.0
  0
LINE
  5
170
100
AcDbEntity
  8
DIMENTION
 62
               0
100
AcDbLine
 10
3779.4000000044971
 20
1530.000000003128
 30
0.0
 11
3779.4000000044971
 21
190.00000000312798
 31
0.0
  0
LINE
  5
171
100
AcDbEntity
  8
DIMENTION
 62
               0
100
AcDbLine
 10
3779.4000000044971
 20
1530.000000003128
 30
0.0
 11
3785.2280584830823
 21
1508.2493896515655
 31
0.0
  0
LINE
  5
172
100
AcDbEntity
  8
DIMENTION
 62
               0
100
AcDbLine
 10
3779.4000000044971
 20
1530.000000003128
 30
0.0
 11
3773.5719415259118
 21
1508.2493896515655
 31
0.0
  0
LINE
  5
173
100
AcDbEntity
  8
DIMENTION
 62
               0
100
AcDbLine
 10
3779.4000000044971
 20
190.00000000312798
 30
0.0
 11
3773.5719415259118
 21
211.75061035469048
 31
0.0
  0
LINE
  5
174
100
AcDbEntity
  8
DIMENTION
 62
               0
100
AcDbLine
 10
3779.4000000044971
 20
190.00000000312798
 30
0.0
 11
3785.2280584830823
 21
211.75061035469048
 31
0.0
  0
MTEXT
  5
175
100
AcDbEntity
  8
DIMENTION
 62
               0
100
AcDbMText
 10
3736.0666666748893
 20
817.66666666979472
 30
0.0
 40
33.866666666666667
 41
0.0
 71
               1
 72
               1
  1
1340
  7
________
 11
0.0
 21
1.0
 31
0.0
  0
POINT
  5
176
100
AcDbEntity
  8
DEFPOINTS
 62
               0
100
AcDbPoint
 10
3420.3920000044973
 20
190.00000000312798
 30
0.0
  0
POINT
  5
177
100
AcDbEntity
  8
DEFPOINTS
 62
               0
100
AcDbPoint
 10
3455.3920000044973
 20
1530.000000003128
 30
0.0
  0
POINT
  5
178
100
AcDbEntity
  8
DEFPOINTS
 62
               0
100
AcDbPoint
 10
3779.4000000044971
 20
1530.000000003128
 30
0.0
  0
ENDBLK
  5
179
100
AcDbEntity
  8
DIMENTION
100
AcDbBlockEnd
  0
BLOCK
  5
17A
100
AcDbEntity
  8
DIMENTION
100
AcDbBlockBegin
  2
*D11
 70
               1
 10
0.0
 20
0.0
 30
0.0
  3
*D11
  1

  0
LINE
  5
17B
100
AcDbEntity
  8
DIMENTION
 62
               0
100
AcDbLine
 10
2450.3920000044973
 20
360.00000000312798
 30
0.0
 11
2385.4000000044971
 21
360.00000000312798
 31
0.0
  0
LINE
  5
17C
100
AcDbEntity
  8
DIMENTION
 62
               0
100
AcDbLine
 10
2450.3920000044973
 20
190.00000000312798
 30
0.0
 11
2385.4000000044971
 21
190.00000000312798
 31
0.0
  0
LINE
  5
17D
100
AcDbEntity
  8
DIMENTION
 62
               0
100
AcDbLine
 10
2405.4000000044971
 20
360.00000000312798
 30
0.0
 11
2405.4000000044971
 21
190.00000000312798
 31
0.0
  0
LINE
  5
17E
100
AcDbEntity
  8
DIMENTION
 62
               0
100
AcDbLine
 10
2405.4000000044971
 20
360.00000000312798
 30
0.0
 11
2411.2280584830823
 21
338.24938965156548
 31
0.0
  0
LINE
  5
17F
100
AcDbEntity
  8
DIMENTION
 62
               0
100
AcDbLine
 10
2405.4000000044971
 20
360.00000000312798
 30
0.0
 11
2399.5719415259118
 21
338.24938965156548
 31
0.0
  0
LINE
  5
180
100
AcDbEntity
  8
DIMENTION
 62
               0
100
AcDbLine
 10
2405.4000000044971
 20
190.00000000312798
 30
0.0
 11
2399.5719415259118
 21
211.75061035469048
 31
0.0
  0
LINE
  5
181
100
AcDbEntity
  8
DIMENTION
 62
               0
100
AcDbLine
 10
2405.4000000044971
 20
190.00000000312798
 30
0.0
 11
2411.2280584830823
 21
211.75061035469048
 31
0.0
  0
MTEXT
  5
182
100
AcDbEntity
  8
DIMENTION
 62
               0
100
AcDbMText
 10
2362.0666666748889
 20
243.25000000312798
 30
0.0
 40
33.866666666666667
 41
0.0
 71
               1
 72
               1
  1
170
  7
________
 11
0.0
 21
1.0
 31
0.0
  0
POINT
  5
183
100
AcDbEntity
  8
DEFPOINTS
 62
               0
100
AcDbPoint
 10
2460.3920000044973
 20
190.00000000312798
 30
0.0
  0
POINT
  5
184
100
AcDbEntity
  8
DEFPOINTS
 62
               0
100
AcDbPoint
 10
2460.3920000044973
 20
360.00000000312798
 30
0.0
  0
POINT
  5
185
100
AcDbEntity
  8
DEFPOINTS
 62
               0
100
AcDbPoint
 10
2405.4000000044971
 20
360.00000000312798
 30
0.0
  0
ENDBLK
  5
186
100
AcDbEntity
  8
DIMENTION
100
AcDbBlockEnd
  0
BLOCK
  5
187
100
AcDbEntity
  8
DIMENTION
100
AcDbBlockBegin
  2
*D12
 70
               1
 10
0.0
 20
0.0
 30
0.0
  3
*D12
  1

  0
LINE
  5
188
100
AcDbEntity
  8
DIMENTION
 62
               0
100
AcDbLine
 10
3630.3920000044973
 20
440.00000000312809
 30
0.0
 11
3677.4000000044971
 21
440.00000000312809
 31
0.0
  0
LINE
  5
189
100
AcDbEntity
  8
DIMENTION
 62
               0
100
AcDbLine
 10
3440.3920000044973
 20
190.00000000312798
 30
0.0
 11
3677.4000000044971
 21
190.00000000312798
 31
0.0
  0
LINE
  5
18A
100
AcDbEntity
  8
DIMENTION
 62
               0
100
AcDbLine
 10
3657.4000000044971
 20
440.00000000312809
 30
0.0
 11
3657.4000000044971
 21
190.00000000312798
 31
0.0
  0
LINE
  5
18B
100
AcDbEntity
  8
DIMENTION
 62
               0
100
AcDbLine
 10
3657.4000000044971
 20
440.00000000312809
 30
0.0
 11
3663.2280584830823
 21
418.24938965156559
 31
0.0
  0
LINE
  5
18C
100
AcDbEntity
  8
DIMENTION
 62
               0
100
AcDbLine
 10
3657.4000000044971
 20
440.00000000312809
 30
0.0
 11
3651.5719415259118
 21
418.24938965156559
 31
0.0
  0
LINE
  5
18D
100
AcDbEntity
  8
DIMENTION
 62
               0
100
AcDbLine
 10
3657.4000000044971
 20
190.00000000312798
 30
0.0
 11
3651.5719415259118
 21
211.75061035469048
 31
0.0
  0
LINE
  5
18E
100
AcDbEntity
  8
DIMENTION
 62
               0
100
AcDbLine
 10
3657.4000000044971
 20
190.00000000312798
 30
0.0
 11
3663.2280584830823
 21
211.75061035469048
 31
0.0
  0
MTEXT
  5
18F
100
AcDbEntity
  8
DIMENTION
 62
               0
100
AcDbMText
 10
3614.0666666748889
 20
295.25103760078423
 30
0.0
 40
33.866666666666667
 41
0.0
 71
               1
 72
               1
  1
250
  7
________
 11
0.0
 21
1.0
 31
0.0
  0
POINT
  5
190
100
AcDbEntity
  8
DEFPOINTS
 62
               0
100
AcDbPoint
 10
3430.3920000044973
 20
190.00000000312798
 30
0.0
  0
POINT
  5
191
100
AcDbEntity
  8
DEFPOINTS
 62
               0
100
AcDbPoint
 10
3620.3920000044973
 20
440.00000000312809
 30
0.0
  0
POINT
  5
192
100
AcDbEntity
  8
DEFPOINTS
 62
               0
100
AcDbPoint
 10
3657.4000000044971
 20
440.00000000312809
 30
0.0
  0
ENDBLK
  5
193
100
AcDbEntity
  8
DIMENTION
100
AcDbBlockEnd
  0
BLOCK
  5
194
100
AcDbEntity
  8
DIMENTION
100
AcDbBlockBegin
  2
*D13
 70
               1
 10
0.0
 20
0.0
 30
0.0
  3
*D13
  1

  0
LINE
  5
195
100
AcDbEntity
  8
DIMENTION
 62
               0
100
AcDbLine
 10
1417.3920000044973
 20
1540.000000003128
 30
0.0
 11
1417.3920000044973
 21
1730.000000003128
 31
0.0
  0
LINE
  5
196
100
AcDbEntity
  8
DIMENTION
 62
               0
100
AcDbLine
 10
772.39200000449728
 20
1540.000000003128
 30
0.0
 11
772.39200000449728
 21
1730.000000003128
 31
0.0
  0
LINE
  5
197
100
AcDbEntity
  8
DIMENTION
 62
               0
100
AcDbLine
 10
1417.3920000044973
 20
1710.000000003128
 30
0.0
 11
772.39200000449728
 21
1710.000000003128
 31
0.0
  0
LINE
  5
198
100
AcDbEntity
  8
DIMENTION
 62
               0
100
AcDbLine
 10
1417.3920000044973
 20
1710.000000003128
 30
0.0
 11
1395.6413896529348
 21
1704.1719415245427
 31
0.0
  0
LINE
  5
199
100
AcDbEntity
  8
DIMENTION
 62
               0
100
AcDbLine
 10
1417.3920000044973
 20
1710.000000003128
 30
0.0
 11
1395.6413896529348
 21
1715.8280584817132
 31
0.0
  0
LINE
  5
19A
100
AcDbEntity
  8
DIMENTION
 62
               0
100
AcDbLine
 10
772.39200000449728
 20
1710.000000003128
 30
0.0
 11
794.14261035605978
 21
1715.8280584817132
 31
0.0
  0
LINE
  5
19B
100
AcDbEntity
  8
DIMENTION
 62
               0
100
AcDbLine
 10
772.39200000449728
 20
1710.000000003128
 30
0.0
 11
794.14261035605978
 21
1704.1719415245427
 31
0.0
  0
MTEXT
  5
19C
100
AcDbEntity
  8
DIMENTION
 62
               0
100
AcDbMText
 10
1063.1420000044973
 20
1753.3333333327359
 30
0.0
 40
33.866666666666667
 41
0.0
 71
               1
 72
               1
  1
645
  7
________
  0
POINT
  5
19D
100
AcDbEntity
  8
DEFPOINTS
 62
               0
100
AcDbPoint
 10
772.39200000449728
 20
1530.000000003128
 30
0.0
  0
POINT
  5
19E
100
AcDbEntity
  8
DEFPOINTS
 62
               0
100
AcDbPoint
 10
1417.3920000044973
 20
1530.000000003128
 30
0.0
  0
POINT
  5
19F
100
AcDbEntity
  8
DEFPOINTS
 62
               0
100
AcDbPoint
 10
1417.3920000044973
 20
1710.000000003128
 30
0.0
  0
ENDBLK
  5
1A0
100
AcDbEntity
  8
DIMENTION
100
AcDbBlockEnd
  0
BLOCK
  5
1A1
100
AcDbEntity
  8
DIMENTION
100
AcDbBlockBegin
  2
*D14
 70
               1
 10
0.0
 20
0.0
 30
0.0
  3
*D14
  1

  0
LINE
  5
1A2
100
AcDbEntity
  8
DIMENTION
 62
               0
100
AcDbLine
 10
1383.8920000044973
 20
1390.000000003128
 30
0.0
 11
1223.3920000044973
 21
1390.000000003128
 31
0.0
  0
LINE
  5
1A3
100
AcDbEntity
  8
DIMENTION
 62
               0
100
AcDbLine
 10
1383.8920000044973
 20
990.00000000312798
 30
0.0
 11
1223.3920000044973
 21
990.00000000312798
 31
0.0
  0
LINE
  5
1A4
100
AcDbEntity
  8
DIMENTION
 62
               0
100
AcDbLine
 10
1243.3920000044973
 20
1390.000000003128
 30
0.0
 11
1243.3920000044973
 21
990.00000000312798
 31
0.0
  0
LINE
  5
1A5
100
AcDbEntity
  8
DIMENTION
 62
               0
100
AcDbLine
 10
1243.3920000044973
 20
1390.000000003128
 30
0.0
 11
1249.2200584830823
 21
1368.2493896515655
 31
0.0
  0
LINE
  5
1A6
100
AcDbEntity
  8
DIMENTION
 62
               0
100
AcDbLine
 10
1243.3920000044973
 20
1390.000000003128
 30
0.0
 11
1237.563941525912
 21
1368.2493896515655
 31
0.0
  0
LINE
  5
1A7
100
AcDbEntity
  8
DIMENTION
 62
               0
100
AcDbLine
 10
1243.3920000044973
 20
990.00000000312798
 30
0.0
 11
1237.563941525912
 21
1011.7506103546905
 31
0.0
  0
LINE
  5
1A8
100
AcDbEntity
  8
DIMENTION
 62
               0
100
AcDbLine
 10
1243.3920000044973
 20
990.00000000312798
 30
0.0
 11
1249.2200584830823
 21
1011.7506103546905
 31
0.0
  0
MTEXT
  5
1A9
100
AcDbEntity
  8
DIMENTION
 62
               0
100
AcDbMText
 10
1200.0586666748891
 20
1158.250000003128
 30
0.0
 40
33.866666666666667
 41
0.0
 71
               1
 72
               1
  1
400
  7
________
 11
0.0
 21
1.0
 31
0.0
  0
POINT
  5
1AA
100
AcDbEntity
  8
DEFPOINTS
 62
               0
100
AcDbPoint
 10
1393.8920000044973
 20
990.00000000312798
 30
0.0
  0
POINT
  5
1AB
100
AcDbEntity
  8
DEFPOINTS
 62
               0
100
AcDbPoint
 10
1393.8920000044973
 20
1390.000000003128
 30
0.0
  0
POINT
  5
1AC
100
AcDbEntity
  8
DEFPOINTS
 62
               0
100
AcDbPoint
 10
1243.3920000044973
 20
1390.000000003128
 30
0.0
  0
ENDBLK
  5
1AD
100
AcDbEntity
  8
DIMENTION
100
AcDbBlockEnd
  0
BLOCK
  5
1AE
100
AcDbEntity
  8
DIMENTION
100
AcDbBlockBegin
  2
*D15
 70
               1
 10
0.0
 20
0.0
 30
0.0
  3
*D15
  1

  0
LINE
  5
1AF
100
AcDbEntity
  8
DIMENTION
 62
               0
100
AcDbLine
 10
2490.3920000044973
 20
2255.0000000031278
 30
0.0
 11
2490.3920000044973
 21
2345.0000000031278
 31
0.0
  0
LINE
  5
1B0
100
AcDbEntity
  8
DIMENTION
 62
               0
100
AcDbLine
 10
2870.3920000044973
 20
2255.0000000031278
 30
0.0
 11
2870.3920000044973
 21
2345.0000000031278
 31
0.0
  0
LINE
  5
1B1
100
AcDbEntity
  8
DIMENTION
 62
               0
100
AcDbLine
 10
2490.3920000044973
 20
2325.0000000031278
 30
0.0
 11
2870.3920000044973
 21
2325.0000000031278
 31
0.0
  0
LINE
  5
1B2
100
AcDbEntity
  8
DIMENTION
 62
               0
100
AcDbLine
 10
2490.3920000044973
 20
2325.0000000031278
 30
0.0
 11
2512.1426103560598
 21
2330.828058481713
 31
0.0
  0
LINE
  5
1B3
100
AcDbEntity
  8
DIMENTION
 62
               0
100
AcDbLine
 10
2490.3920000044973
 20
2325.0000000031278
 30
0.0
 11
2512.1426103560598
 21
2319.1719415245425
 31
0.0
  0
LINE
  5
1B4
100
AcDbEntity
  8
DIMENTION
 62
               0
100
AcDbLine
 10
2870.3920000044973
 20
2325.0000000031278
 30
0.0
 11
2848.6413896529348
 21
2319.1719415245425
 31
0.0
  0
LINE
  5
1B5
100
AcDbEntity
  8
DIMENTION
 62
               0
100
AcDbLine
 10
2870.3920000044973
 20
2325.0000000031278
 30
0.0
 11
2848.6413896529348
 21
2330.828058481713
 31
0.0
  0
MTEXT
  5
1B6
100
AcDbEntity
  8
DIMENTION
 62
               0
100
AcDbMText
 10
2648.6420000044973
 20
2368.3333333327359
 30
0.0
 40
33.866666666666667
 41
0.0
 71
               1
 72
               1
  1
380
  7
________
  0
POINT
  5
1B7
100
AcDbEntity
  8
DEFPOINTS
 62
               0
100
AcDbPoint
 10
2870.3920000044973
 20
2245.0000000031278
 30
0.0
  0
POINT
  5
1B8
100
AcDbEntity
  8
DEFPOINTS
 62
               0
100
AcDbPoint
 10
2490.3920000044973
 20
2245.0000000031278
 30
0.0
  0
POINT
  5
1B9
100
AcDbEntity
  8
DEFPOINTS
 62
               0
100
AcDbPoint
 10
2490.3920000044973
 20
2325.0000000031278
 30
0.0
  0
ENDBLK
  5
1BA
100
AcDbEntity
  8
DIMENTION
100
AcDbBlockEnd
  0
BLOCK
  5
1BB
100
AcDbEntity
  8
DIMENTION
100
AcDbBlockBegin
  2
*D16
 70
               1
 10
0.0
 20
0.0
 30
0.0
  3
*D16
  1

  0
LINE
  5
1BC
100
AcDbEntity
  8
DIMENTION
 62
               0
100
AcDbLine
 10
3488.3920000044973
 20
2495.0000000031278
 30
0.0
 11
3780.4000000044971
 21
2495.0000000031278
 31
0.0
  0
LINE
  5
1BD
100
AcDbEntity
  8
DIMENTION
 62
               0
100
AcDbLine
 10
3470.3920000044973
 20
1835.000000003128
 30
0.0
 11
3780.4000000044971
 21
1835.000000003128
 31
0.0
  0
LINE
  5
1BE
100
AcDbEntity
  8
DIMENTION
 62
               0
100
AcDbLine
 10
3760.4000000044971
 20
2495.0000000031278
 30
0.0
 11
3760.4000000044971
 21
1835.000000003128
 31
0.0
  0
LINE
  5
1BF
100
AcDbEntity
  8
DIMENTION
 62
               0
100
AcDbLine
 10
3760.4000000044971
 20
2495.0000000031278
 30
0.0
 11
3766.2280584830823
 21
2473.2493896515653
 31
0.0
  0
LINE
  5
1C0
100
AcDbEntity
  8
DIMENTION
 62
               0
100
AcDbLine
 10
3760.4000000044971
 20
2495.0000000031278
 30
0.0
 11
3754.5719415259118
 21
2473.2493896515653
 31
0.0
  0
LINE
  5
1C1
100
AcDbEntity
  8
DIMENTION
 62
               0
100
AcDbLine
 10
3760.4000000044971
 20
1835.000000003128
 30
0.0
 11
3754.5719415259118
 21
1856.7506103546905
 31
0.0
  0
LINE
  5
1C2
100
AcDbEntity
  8
DIMENTION
 62
               0
100
AcDbLine
 10
3760.4000000044971
 20
1835.000000003128
 30
0.0
 11
3766.2280584830823
 21
1856.7506103546905
 31
0.0
  0
MTEXT
  5
1C3
100
AcDbEntity
  8
DIMENTION
 62
               0
100
AcDbMText
 10
3717.0666666748889
 20
2125.2537841828153
 30
0.0
 40
33.866666666666667
 41
0.0
 71
               1
 72
               1
  1
660
  7
________
 11
0.0
 21
1.0
 31
0.0
  0
POINT
  5
1C4
100
AcDbEntity
  8
DEFPOINTS
 62
               0
100
AcDbPoint
 10
3460.3920000044973
 20
1835.000000003128
 30
0.0
  0
POINT
  5
1C5
100
AcDbEntity
  8
DEFPOINTS
 62
               0
100
AcDbPoint
 10
3478.3920000044973
 20
2495.0000000031278
 30
0.0
  0
POINT
  5
1C6
100
AcDbEntity
  8
DEFPOINTS
 62
               0
100
AcDbPoint
 10
3760.4000000044971
 20
2495.0000000031278
 30
0.0
  0
ENDBLK
  5
1C7
100
AcDbEntity
  8
DIMENTION
100
AcDbBlockEnd
  0
BLOCK
  5
1C8
100
AcDbEntity
  8
DIMENTION
100
AcDbBlockBegin
  2
*D17
 70
               1
 10
0.0
 20
0.0
 30
0.0
  3
*D17
  1

  0
LINE
  5
1C9
100
AcDbEntity
  8
DIMENTION
 62
               0
100
AcDbLine
 10
3488.3920000044973
 20
1806.500000003128
 30
0.0
 11
3780.4000000044971
 21
1806.500000003128
 31
0.0
  0
LINE
  5
1CA
100
AcDbEntity
  8
DIMENTION
 62
               0
100
AcDbLine
 10
3470.3920000044973
 20
1835.000000003128
 30
0.0
 11
3780.4000000044971
 21
1835.000000003128
 31
0.0
  0
LINE
  5
1CB
100
AcDbEntity
  8
DIMENTION
 62
               0
100
AcDbLine
 10
3760.4000000044971
 20
1835.000000003128
 30
0.0
 11
3760.4000000044971
 21
1806.500000003128
 31
0.0
  0
LINE
  5
1CC
100
AcDbEntity
  8
DIMENTION
 62
               0
100
AcDbLine
 10
3760.4000000044971
 20
1806.500000003128
 30
0.0
 11
3760.4000000044971
 21
1724.6666666697947
 31
0.0
  0
LINE
  5
1CD
100
AcDbEntity
  8
DIMENTION
 62
               0
100
AcDbLine
 10
3760.4000000044971
 20
1806.500000003128
 30
0.0
 11
3766.2280584830823
 21
1784.7493896515655
 31
0.0
  0
LINE
  5
1CE
100
AcDbEntity
  8
DIMENTION
 62
               0
100
AcDbLine
 10
3760.4000000044971
 20
1806.500000003128
 30
0.0
 11
3754.5719415259118
 21
1784.7493896515655
 31
0.0
  0
LINE
  5
1CF
100
AcDbEntity
  8
DIMENTION
 62
               0
100
AcDbLine
 10
3760.4000000044971
 20
1835.000000003128
 30
0.0
 11
3760.4000000044971
 21
1875.000000003128
 31
0.0
  0
LINE
  5
1D0
100
AcDbEntity
  8
DIMENTION
 62
               0
100
AcDbLine
 10
3760.4000000044971
 20
1835.000000003128
 30
0.0
 11
3754.5719415259118
 21
1856.7506103546905
 31
0.0
  0
LINE
  5
1D1
100
AcDbEntity
  8
DIMENTION
 62
               0
100
AcDbLine
 10
3760.4000000044971
 20
1835.000000003128
 30
0.0
 11
3766.2280584830823
 21
1856.7506103546905
 31
0.0
  0
MTEXT
  5
1D2
100
AcDbEntity
  8
DIMENTION
 62
               0
100
AcDbMText
 10
3717.0666666748889
 20
1724.6666666697945
 30
0.0
 40
33.866666666666667
 41
0.0
 71
               1
 72
               1
  1
29
  7
________
 11
0.0
 21
1.0
 31
0.0
  0
POINT
  5
1D3
100
AcDbEntity
  8
DEFPOINTS
 62
               0
100
AcDbPoint
 10
3460.3920000044973
 20
1835.000000003128
 30
0.0
  0
POINT
  5
1D4
100
AcDbEntity
  8
DEFPOINTS
 62
               0
100
AcDbPoint
 10
3478.3920000044973
 20
1806.500000003128
 30
0.0
  0
POINT
  5
1D5
100
AcDbEntity
  8
DEFPOINTS
 62
               0
100
AcDbPoint
 10
3760.4000000044971
 20
1806.500000003128
 30
0.0
  0
ENDBLK
  5
1D6
100
AcDbEntity
  8
DIMENTION
100
AcDbBlockEnd
  0
BLOCK
  5
1D7
100
AcDbEntity
  8
DIMENTION
100
AcDbBlockBegin
  2
*D18
 70
               1
 10
0.0
 20
0.0
 30
0.0
  3
*D18
  1

  0
LINE
  5
1D8
100
AcDbEntity
  8
DIMENTION
 62
               0
100
AcDbLine
 10
3470.3920000044973
 20
2513.0000000031278
 30
0.0
 11
3780.4000000044971
 21
2513.0000000031278
 31
0.0
  0
LINE
  5
1D9
100
AcDbEntity
  8
DIMENTION
 62
               0
100
AcDbLine
 10
3488.3920000044973
 20
2495.0000000031278
 30
0.0
 11
3780.4000000044971
 21
2495.0000000031278
 31
0.0
  0
LINE
  5
1DA
100
AcDbEntity
  8
DIMENTION
 62
               0
100
AcDbLine
 10
3760.4000000044971
 20
2495.0000000031278
 30
0.0
 11
3760.4000000044971
 21
2513.0000000031278
 31
0.0
  0
LINE
  5
1DB
100
AcDbEntity
  8
DIMENTION
 62
               0
100
AcDbLine
 10
3760.4000000044971
 20
2513.0000000031278
 30
0.0
 11
3760.4000000044971
 21
2576.3333333364612
 31
0.0
  0
LINE
  5
1DC
100
AcDbEntity
  8
DIMENTION
 62
               0
100
AcDbLine
 10
3760.4000000044971
 20
2513.0000000031278
 30
0.0
 11
3754.5719415259118
 21
2534.7506103546903
 31
0.0
  0
LINE
  5
1DD
100
AcDbEntity
  8
DIMENTION
 62
               0
100
AcDbLine
 10
3760.4000000044971
 20
2513.0000000031278
 30
0.0
 11
3766.2280584830823
 21
2534.7506103546903
 31
0.0
  0
LINE
  5
1DE
100
AcDbEntity
  8
DIMENTION
 62
               0
100
AcDbLine
 10
3760.4000000044971
 20
2495.0000000031278
 30
0.0
 11
3760.4000000044971
 21
2455.0000000031278
 31
0.0
  0
LINE
  5
1DF
100
AcDbEntity
  8
DIMENTION
 62
               0
100
AcDbLine
 10
3760.4000000044971
 20
2495.0000000031278
 30
0.0
 11
3766.2280584830823
 21
2473.2493896515653
 31
0.0
  0
LINE
  5
1E0
100
AcDbEntity
  8
DIMENTION
 62
               0
100
AcDbLine
 10
3760.4000000044971
 20
2495.0000000031278
 30
0.0
 11
3754.5719415259118
 21
2473.2493896515653
 31
0.0
  0
MTEXT
  5
1E1
100
AcDbEntity
  8
DIMENTION
 62
               0
100
AcDbMText
 10
3717.0666666748889
 20
2534.0000000031278
 30
0.0
 40
33.866666666666667
 41
0.0
 71
               1
 72
               1
  1
18
  7
________
 11
0.0
 21
1.0
 31
0.0
  0
POINT
  5
1E2
100
AcDbEntity
  8
DEFPOINTS
 62
               0
100
AcDbPoint
 10
3478.3920000044973
 20
2495.0000000031278
 30
0.0
  0
POINT
  5
1E3
100
AcDbEntity
  8
DEFPOINTS
 62
               0
100
AcDbPoint
 10
3460.3920000044973
 20
2513.0000000031278
 30
0.0
  0
POINT
  5
1E4
100
AcDbEntity
  8
DEFPOINTS
 62
               0
100
AcDbPoint
 10
3760.4000000044971
 20
2513.0000000031278
 30
0.0
  0
ENDBLK
  5
1E5
100
AcDbEntity
  8
DIMENTION
100
AcDbBlockEnd
  0
BLOCK
  5
1E6
100
AcDbEntity
  8
DIMENTION
100
AcDbBlockBegin
  2
*D19
 70
               1
 10
0.0
 20
0.0
 30
0.0
  3
*D19
  1

  0
LINE
  5
1E7
100
AcDbEntity
  8
DIMENTION
 62
               0
100
AcDbLine
 10
3470.3920000044973
 20
2513.0000000031278
 30
0.0
 11
3850.3920000044973
 21
2513.0000000031278
 31
0.0
  0
LINE
  5
1E8
100
AcDbEntity
  8
DIMENTION
 62
               0
100
AcDbLine
 10
3488.3920000044973
 20
1806.500000003128
 30
0.0
 11
3850.3920000044973
 21
1806.500000003128
 31
0.0
  0
LINE
  5
1E9
100
AcDbEntity
  8
DIMENTION
 62
               0
100
AcDbLine
 10
3830.3920000044973
 20
2513.0000000031278
 30
0.0
 11
3830.3920000044973
 21
1806.500000003128
 31
0.0
  0
LINE
  5
1EA
100
AcDbEntity
  8
DIMENTION
 62
               0
100
AcDbLine
 10
3830.3920000044973
 20
2513.0000000031278
 30
0.0
 11
3836.2200584830825
 21
2491.2493896515653
 31
0.0
  0
LINE
  5
1EB
100
AcDbEntity
  8
DIMENTION
 62
               0
100
AcDbLine
 10
3830.3920000044973
 20
2513.0000000031278
 30
0.0
 11
3824.563941525912
 21
2491.2493896515653
 31
0.0
  0
LINE
  5
1EC
100
AcDbEntity
  8
DIMENTION
 62
               0
100
AcDbLine
 10
3830.3920000044973
 20
1806.500000003128
 30
0.0
 11
3824.563941525912
 21
1828.2506103546905
 31
0.0
  0
LINE
  5
1ED
100
AcDbEntity
  8
DIMENTION
 62
               0
100
AcDbLine
 10
3830.3920000044973
 20
1806.500000003128
 30
0.0
 11
3836.2200584830825
 21
1828.2506103546905
 31
0.0
  0
MTEXT
  5
1EE
100
AcDbEntity
  8
DIMENTION
 62
               0
100
AcDbMText
 10
3787.0586666748886
 20
2128.0000000031278
 30
0.0
 40
33.866666666666667
 41
0.0
 71
               1
 72
               1
  1
707
  7
________
 11
0.0
 21
1.0
 31
0.0
  0
POINT
  5
1EF
100
AcDbEntity
  8
DEFPOINTS
 62
               0
100
AcDbPoint
 10
3478.3920000044973
 20
1806.500000003128
 30
0.0
  0
POINT
  5
1F0
100
AcDbEntity
  8
DEFPOINTS
 62
               0
100
AcDbPoint
 10
3460.3920000044973
 20
2513.0000000031278
 30
0.0
  0
POINT
  5
1F1
100
AcDbEntity
  8
DEFPOINTS
 62
               0
100
AcDbPoint
 10
3830.3920000044973
 20
2513.0000000031278
 30
0.0
  0
ENDBLK
  5
1F2
100
AcDbEntity
  8
DIMENTION
100
AcDbBlockEnd
  0
BLOCK
  5
1F3
100
AcDbEntity
  8
DIMENTION
100
AcDbBlockBegin
  2
*D20
 70
               1
 10
0.0
 20
0.0
 30
0.0
  3
*D20
  1

  0
LINE
  5
1F4
100
AcDbEntity
  8
DIMENTION
 62
               0
100
AcDbLine
 10
2280.3920000044973
 20
1814.500000003128
 30
0.0
 11
2280.3920000044973
 21
1720.000000003128
 31
0.0
  0
LINE
  5
1F5
100
AcDbEntity
  8
DIMENTION
 62
               0
100
AcDbLine
 10
3460.3920000044973
 20
1814.500000003128
 30
0.0
 11
3460.3920000044973
 21
1720.000000003128
 31
0.0
  0
LINE
  5
1F6
100
AcDbEntity
  8
DIMENTION
 62
               0
100
AcDbLine
 10
2280.3920000044973
 20
1740.000000003128
 30
0.0
 11
3460.3920000044973
 21
1740.000000003128
 31
0.0
  0
LINE
  5
1F7
100
AcDbEntity
  8
DIMENTION
 62
               0
100
AcDbLine
 10
2280.3920000044973
 20
1740.000000003128
 30
0.0
 11
2302.1426103560598
 21
1745.828058481713
 31
0.0
  0
LINE
  5
1F8
100
AcDbEntity
  8
DIMENTION
 62
               0
100
AcDbLine
 10
2280.3920000044973
 20
1740.000000003128
 30
0.0
 11
2302.1426103560598
 21
1734.1719415245427
 31
0.0
  0
LINE
  5
1F9
100
AcDbEntity
  8
DIMENTION
 62
               0
100
AcDbLine
 10
3460.3920000044973
 20
1740.000000003128
 30
0.0
 11
3438.6413896529348
 21
1734.1719415245427
 31
0.0
  0
LINE
  5
1FA
100
AcDbEntity
  8
DIMENTION
 62
               0
100
AcDbLine
 10
3460.3920000044973
 20
1740.000000003128
 30
0.0
 11
3438.6413896529348
 21
1745.828058481713
 31
0.0
  0
MTEXT
  5
1FB
100
AcDbEntity
  8
DIMENTION
 62
               0
100
AcDbMText
 10
2828.0586666711638
 20
1783.3333333327359
 30
0.0
 40
33.866666666666667
 41
0.0
 71
               1
 72
               1
  1
1180
  7
________
  0
POINT
  5
1FC
100
AcDbEntity
  8
DEFPOINTS
 62
               0
100
AcDbPoint
 10
3460.3920000044973
 20
1824.500000003128
 30
0.0
  0
POINT
  5
1FD
100
AcDbEntity
  8
DEFPOINTS
 62
               0
100
AcDbPoint
 10
2280.3920000044973
 20
1824.500000003128
 30
0.0
  0
POINT
  5
1FE
100
AcDbEntity
  8
DEFPOINTS
 62
               0
100
AcDbPoint
 10
2280.3920000044973
 20
1740.000000003128
 30
0.0
  0
ENDBLK
  5
1FF
100
AcDbEntity
  8
DIMENTION
100
AcDbBlockEnd
  0
BLOCK
  5
200
100
AcDbEntity
  8
DIMENTION
100
AcDbBlockBegin
  2
*D21
 70
               1
 10
0.0
 20
0.0
 30
0.0
  3
*D21
  1

  0
LINE
  5
201
100
AcDbEntity
  8
DIMENTION
 62
               0
100
AcDbLine
 10
3478.3920000044973
 20
1796.500000003128
 30
0.0
 11
3478.3920000044973
 21
1720.000000003128
 31
0.0
  0
LINE
  5
202
100
AcDbEntity
  8
DIMENTION
 62
               0
100
AcDbLine
 10
3460.3920000044973
 20
1814.500000003128
 30
0.0
 11
3460.3920000044973
 21
1720.000000003128
 31
0.0
  0
LINE
  5
203
100
AcDbEntity
  8
DIMENTION
 62
               0
100
AcDbLine
 10
3460.3920000044973
 20
1740.000000003128
 30
0.0
 11
3478.3920000044973
 21
1740.000000003128
 31
0.0
  0
LINE
  5
204
100
AcDbEntity
  8
DIMENTION
 62
               0
100
AcDbLine
 10
3478.3920000044973
 20
1740.000000003128
 30
0.0
 11
3555.7253333378303
 21
1740.000000003128
 31
0.0
  0
LINE
  5
205
100
AcDbEntity
  8
DIMENTION
 62
               0
100
AcDbLine
 10
3478.3920000044973
 20
1740.000000003128
 30
0.0
 11
3500.1426103560598
 21
1745.828058481713
 31
0.0
  0
LINE
  5
206
100
AcDbEntity
  8
DIMENTION
 62
               0
100
AcDbLine
 10
3478.3920000044973
 20
1740.000000003128
 30
0.0
 11
3500.1426103560598
 21
1734.1719415245427
 31
0.0
  0
LINE
  5
207
100
AcDbEntity
  8
DIMENTION
 62
               0
100
AcDbLine
 10
3460.3920000044973
 20
1740.000000003128
 30
0.0
 11
3420.3920000044973
 21
1740.000000003128
 31
0.0
  0
LINE
  5
208
100
AcDbEntity
  8
DIMENTION
 62
               0
100
AcDbLine
 10
3460.3920000044973
 20
1740.000000003128
 30
0.0
 11
3438.6413896529348
 21
1734.1719415245427
 31
0.0
  0
LINE
  5
209
100
AcDbEntity
  8
DIMENTION
 62
               0
100
AcDbLine
 10
3460.3920000044973
 20
1740.000000003128
 30
0.0
 11
3438.6413896529348
 21
1745.828058481713
 31
0.0
  0
MTEXT
  5
20A
100
AcDbEntity
  8
DIMENTION
 62
               0
100
AcDbMText
 10
3513.3920000044973
 20
1783.3333333327359
 30
0.0
 40
33.866666666666667
 41
0.0
 71
               1
 72
               1
  1
18
  7
________
  0
POINT
  5
20B
100
AcDbEntity
  8
DEFPOINTS
 62
               0
100
AcDbPoint
 10
3460.3920000044973
 20
1824.500000003128
 30
0.0
  0
POINT
  5
20C
100
AcDbEntity
  8
DEFPOINTS
 62
               0
100
AcDbPoint
 10
3478.3920000044973
 20
1806.500000003128
 30
0.0
  0
POINT
  5
20D
100
AcDbEntity
  8
DEFPOINTS
 62
               0
100
AcDbPoint
 10
3478.3920000044973
 20
1740.000000003128
 30
0.0
  0
ENDBLK
  5
20E
100
AcDbEntity
  8
DIMENTION
100
AcDbBlockEnd
  0
BLOCK
  5
20F
100
AcDbEntity
  8
DIMENTION
100
AcDbBlockBegin
  2
*D22
 70
               1
 10
0.0
 20
0.0
 30
0.0
  3
*D22
  1

  0
LINE
  5
210
100
AcDbEntity
  8
DIMENTION
 62
               0
100
AcDbLine
 10
2262.3920000044973
 20
1796.500000003128
 30
0.0
 11
2262.3920000044973
 21
1720.000000003128
 31
0.0
  0
LINE
  5
211
100
AcDbEntity
  8
DIMENTION
 62
               0
100
AcDbLine
 10
2280.3920000044973
 20
1814.500000003128
 30
0.0
 11
2280.3920000044973
 21
1720.000000003128
 31
0.0
  0
LINE
  5
212
100
AcDbEntity
  8
DIMENTION
 62
               0
100
AcDbLine
 10
2280.3920000044973
 20
1740.000000003128
 30
0.0
 11
2262.3920000044973
 21
1740.000000003128
 31
0.0
  0
LINE
  5
213
100
AcDbEntity
  8
DIMENTION
 62
               0
100
AcDbLine
 10
2262.3920000044973
 20
1740.000000003128
 30
0.0
 11
2196.0586666711638
 21
1740.000000003128
 31
0.0
  0
LINE
  5
214
100
AcDbEntity
  8
DIMENTION
 62
               0
100
AcDbLine
 10
2262.3920000044973
 20
1740.000000003128
 30
0.0
 11
2240.6413896529348
 21
1734.1719415245427
 31
0.0
  0
LINE
  5
215
100
AcDbEntity
  8
DIMENTION
 62
               0
100
AcDbLine
 10
2262.3920000044973
 20
1740.000000003128
 30
0.0
 11
2240.6413896529348
 21
1745.828058481713
 31
0.0
  0
LINE
  5
216
100
AcDbEntity
  8
DIMENTION
 62
               0
100
AcDbLine
 10
2280.3920000044973
 20
1740.000000003128
 30
0.0
 11
2320.3920000044973
 21
1740.000000003128
 31
0.0
  0
LINE
  5
217
100
AcDbEntity
  8
DIMENTION
 62
               0
100
AcDbLine
 10
2280.3920000044973
 20
1740.000000003128
 30
0.0
 11
2302.1426103560598
 21
1745.828058481713
 31
0.0
  0
LINE
  5
218
100
AcDbEntity
  8
DIMENTION
 62
               0
100
AcDbLine
 10
2280.3920000044973
 20
1740.000000003128
 30
0.0
 11
2302.1426103560598
 21
1734.1719415245427
 31
0.0
  0
MTEXT
  5
219
100
AcDbEntity
  8
DIMENTION
 62
               0
100
AcDbMText
 10
2196.0586666711638
 20
1783.3333333327359
 30
0.0
 40
33.866666666666667
 41
0.0
 71
               1
 72
               1
  1
18
  7
________
  0
POINT
  5
21A
100
AcDbEntity
  8
DEFPOINTS
 62
               0
100
AcDbPoint
 10
2280.3920000044973
 20
1824.500000003128
 30
0.0
  0
POINT
  5
21B
100
AcDbEntity
  8
DEFPOINTS
 62
               0
100
AcDbPoint
 10
2262.3920000044973
 20
1806.500000003128
 30
0.0
  0
POINT
  5
21C
100
AcDbEntity
  8
DEFPOINTS
 62
               0
100
AcDbPoint
 10
2262.3920000044973
 20
1740.000000003128
 30
0.0
  0
ENDBLK
  5
21D
100
AcDbEntity
  8
DIMENTION
100
AcDbBlockEnd
  0
BLOCK
  5
21E
100
AcDbEntity
  8
DIMENTION
100
AcDbBlockBegin
  2
*D23
 70
               1
 10
0.0
 20
0.0
 30
0.0
  3
*D23
  1

  0
LINE
  5
21F
100
AcDbEntity
  8
DIMENTION
 62
               0
100
AcDbLine
 10
3478.3920000044973
 20
1796.500000003128
 30
0.0
 11
3478.3920000044973
 21
1675.000000003128
 31
0.0
  0
LINE
  5
220
100
AcDbEntity
  8
DIMENTION
 62
               0
100
AcDbLine
 10
2262.3920000044973
 20
1796.500000003128
 30
0.0
 11
2262.3920000044973
 21
1675.000000003128
 31
0.0
  0
LINE
  5
221
100
AcDbEntity
  8
DIMENTION
 62
               0
100
AcDbLine
 10
3478.3920000044973
 20
1695.000000003128
 30
0.0
 11
2262.3920000044973
 21
1695.000000003128
 31
0.0
  0
LINE
  5
222
100
AcDbEntity
  8
DIMENTION
 62
               0
100
AcDbLine
 10
3478.3920000044973
 20
1695.000000003128
 30
0.0
 11
3456.6413896529348
 21
1689.1719415245427
 31
0.0
  0
LINE
  5
223
100
AcDbEntity
  8
DIMENTION
 62
               0
100
AcDbLine
 10
3478.3920000044973
 20
1695.000000003128
 30
0.0
 11
3456.6413896529348
 21
1700.828058481713
 31
0.0
  0
LINE
  5
224
100
AcDbEntity
  8
DIMENTION
 62
               0
100
AcDbLine
 10
2262.3920000044973
 20
1695.000000003128
 30
0.0
 11
2284.1426103560598
 21
1700.828058481713
 31
0.0
  0
LINE
  5
225
100
AcDbEntity
  8
DIMENTION
 62
               0
100
AcDbLine
 10
2262.3920000044973
 20
1695.000000003128
 30
0.0
 11
2284.1426103560598
 21
1689.1719415245427
 31
0.0
  0
MTEXT
  5
226
100
AcDbEntity
  8
DIMENTION
 62
               0
100
AcDbMText
 10
2828.0586666711638
 20
1738.3333333327359
 30
0.0
 40
33.866666666666667
 41
0.0
 71
               1
 72
               1
  1
1216
  7
________
  0
POINT
  5
227
100
AcDbEntity
  8
DEFPOINTS
 62
               0
100
AcDbPoint
 10
2262.3920000044973
 20
1806.500000003128
 30
0.0
  0
POINT
  5
228
100
AcDbEntity
  8
DEFPOINTS
 62
               0
100
AcDbPoint
 10
3478.3920000044973
 20
1806.500000003128
 30
0.0
  0
POINT
  5
229
100
AcDbEntity
  8
DEFPOINTS
 62
               0
100
AcDbPoint
 10
3478.3920000044973
 20
1695.000000003128
 30
0.0
  0
ENDBLK
  5
22A
100
AcDbEntity
  8
DIMENTION
100
AcDbBlockEnd
  0
BLOCK
  5
22B
100
AcDbEntity
  8
DIMENTION
100
AcDbBlockBegin
  2
*D24
 70
               1
 10
0.0
 20
0.0
 30
0.0
  3
*D24
  1

  0
LINE
  5
22C
100
AcDbEntity
  8
DIMENTION
 62
               0
100
AcDbLine
 10
3620.3920000044973
 20
2215.0000000031278
 30
0.0
 11
3620.3920000044973
 21
2290.0000000031278
 31
0.0
  0
LINE
  5
22D
100
AcDbEntity
  8
DIMENTION
 62
               0
100
AcDbLine
 10
3460.3920000044973
 20
2215.0000000031278
 30
0.0
 11
3460.3920000044973
 21
2290.0000000031278
 31
0.0
  0
LINE
  5
22E
100
AcDbEntity
  8
DIMENTION
 62
               0
100
AcDbLine
 10
3620.3920000044973
 20
2270.0000000031278
 30
0.0
 11
3460.3920000044973
 21
2270.0000000031278
 31
0.0
  0
LINE
  5
22F
100
AcDbEntity
  8
DIMENTION
 62
               0
100
AcDbLine
 10
3620.3920000044973
 20
2270.0000000031278
 30
0.0
 11
3598.6413896529348
 21
2264.1719415245425
 31
0.0
  0
LINE
  5
230
100
AcDbEntity
  8
DIMENTION
 62
               0
100
AcDbLine
 10
3620.3920000044973
 20
2270.0000000031278
 30
0.0
 11
3598.6413896529348
 21
2275.828058481713
 31
0.0
  0
LINE
  5
231
100
AcDbEntity
  8
DIMENTION
 62
               0
100
AcDbLine
 10
3460.3920000044973
 20
2270.0000000031278
 30
0.0
 11
3482.1426103560598
 21
2275.828058481713
 31
0.0
  0
LINE
  5
232
100
AcDbEntity
  8
DIMENTION
 62
               0
100
AcDbLine
 10
3460.3920000044973
 20
2270.0000000031278
 30
0.0
 11
3482.1426103560598
 21
2264.1719415245425
 31
0.0
  0
MTEXT
  5
233
100
AcDbEntity
  8
DIMENTION
 62
               0
100
AcDbMText
 10
3508.6420000044973
 20
2313.3333333327359
 30
0.0
 40
33.866666666666667
 41
0.0
 71
               1
 72
               1
  1
160
  7
________
  0
POINT
  5
234
100
AcDbEntity
  8
DEFPOINTS
 62
               0
100
AcDbPoint
 10
3460.3920000044973
 20
2205.0000000031278
 30
0.0
  0
POINT
  5
235
100
AcDbEntity
  8
DEFPOINTS
 62
               0
100
AcDbPoint
 10
3620.3920000044973
 20
2205.0000000031278
 30
0.0
  0
POINT
  5
236
100
AcDbEntity
  8
DEFPOINTS
 62
               0
100
AcDbPoint
 10
3620.3920000044973
 20
2270.0000000031278
 30
0.0
  0
ENDBLK
  5
237
100
AcDbEntity
  8
DIMENTION
100
AcDbBlockEnd
  0
BLOCK
  5
238
100
AcDbEntity
  8
DIMENTION
100
AcDbBlockBegin
  2
*D25
 70
               1
 10
0.0
 20
0.0
 30
0.0
  3
*D25
  1

  0
LINE
  5
239
100
AcDbEntity
  8
DIMENTION
 62
               0
100
AcDbLine
 10
3630.3920000044973
 20
2125.0000000031278
 30
0.0
 11
3709.4000000044971
 21
2125.0000000031278
 31
0.0
  0
LINE
  5
23A
100
AcDbEntity
  8
DIMENTION
 62
               0
100
AcDbLine
 10
3630.3920000044973
 20
2205.0000000031278
 30
0.0
 11
3709.4000000044971
 21
2205.0000000031278
 31
0.0
  0
LINE
  5
23B
100
AcDbEntity
  8
DIMENTION
 62
               0
100
AcDbLine
 10
3689.4000000044971
 20
2125.0000000031278
 30
0.0
 11
3689.4000000044971
 21
2205.0000000031278
 31
0.0
  0
LINE
  5
23C
100
AcDbEntity
  8
DIMENTION
 62
               0
100
AcDbLine
 10
3689.4000000044971
 20
2125.0000000031278
 30
0.0
 11
3683.5719415259118
 21
2146.7506103546903
 31
0.0
  0
LINE
  5
23D
100
AcDbEntity
  8
DIMENTION
 62
               0
100
AcDbLine
 10
3689.4000000044971
 20
2125.0000000031278
 30
0.0
 11
3695.2280584830823
 21
2146.7506103546903
 31
0.0
  0
LINE
  5
23E
100
AcDbEntity
  8
DIMENTION
 62
               0
100
AcDbLine
 10
3689.4000000044971
 20
2205.0000000031278
 30
0.0
 11
3695.2280584830823
 21
2183.2493896515653
 31
0.0
  0
LINE
  5
23F
100
AcDbEntity
  8
DIMENTION
 62
               0
100
AcDbLine
 10
3689.4000000044971
 20
2205.0000000031278
 30
0.0
 11
3683.5719415259118
 21
2183.2493896515653
 31
0.0
  0
MTEXT
  5
240
100
AcDbEntity
  8
DIMENTION
 62
               0
100
AcDbMText
 10
3646.0666666748889
 20
2143.8333333364612
 30
0.0
 40
33.866666666666667
 41
0.0
 71
               1
 72
               1
  1
80
  7
________
 11
0.0
 21
1.0
 31
0.0
  0
POINT
  5
241
100
AcDbEntity
  8
DEFPOINTS
 62
               0
100
AcDbPoint
 10
3620.3920000044973
 20
2205.0000000031278
 30
0.0
  0
POINT
  5
242
100
AcDbEntity
  8
DEFPOINTS
 62
               0
100
AcDbPoint
 10
3620.3920000044973
 20
2125.0000000031278
 30
0.0
  0
POINT
  5
243
100
AcDbEntity
  8
DEFPOINTS
 62
               0
100
AcDbPoint
 10
3689.4000000044971
 20
2125.0000000031278
 30
0.0
  0
ENDBLK
  5
244
100
AcDbEntity
  8
DIMENTION
100
AcDbBlockEnd
  0
BLOCK
  5
245
100
AcDbEntity
  8
DIMENTION
100
AcDbBlockBegin
  2
*D26
 70
               1
 10
0.0
 20
0.0
 30
0.0
  3
*D26
  1

  0
LINE
  5
246
100
AcDbEntity
  8
DIMENTION
 62
               0
100
AcDbLine
 10
1417.3920000044973
 20
1540.000000003128
 30
0.0
 11
1417.3920000044973
 21
1650.000000003128
 31
0.0
  0
LINE
  5
247
100
AcDbEntity
  8
DIMENTION
 62
               0
100
AcDbLine
 10
1100.3920000044973
 20
1540.000000003128
 30
0.0
 11
1100.3920000044973
 21
1650.000000003128
 31
0.0
  0
LINE
  5
248
100
AcDbEntity
  8
DIMENTION
 62
               0
100
AcDbLine
 10
1417.3920000044973
 20
1630.000000003128
 30
0.0
 11
1100.3920000044973
 21
1630.000000003128
 31
0.0
  0
LINE
  5
249
100
AcDbEntity
  8
DIMENTION
 62
               0
100
AcDbLine
 10
1417.3920000044973
 20
1630.000000003128
 30
0.0
 11
1395.6413896529348
 21
1624.1719415245427
 31
0.0
  0
LINE
  5
24A
100
AcDbEntity
  8
DIMENTION
 62
               0
100
AcDbLine
 10
1417.3920000044973
 20
1630.000000003128
 30
0.0
 11
1395.6413896529348
 21
1635.8280584817132
 31
0.0
  0
LINE
  5
24B
100
AcDbEntity
  8
DIMENTION
 62
               0
100
AcDbLine
 10
1100.3920000044973
 20
1630.000000003128
 30
0.0
 11
1122.1426103560598
 21
1635.8280584817132
 31
0.0
  0
LINE
  5
24C
100
AcDbEntity
  8
DIMENTION
 62
               0
100
AcDbLine
 10
1100.3920000044973
 20
1630.000000003128
 30
0.0
 11
1122.1426103560598
 21
1624.1719415245427
 31
0.0
  0
MTEXT
  5
24D
100
AcDbEntity
  8
DIMENTION
 62
               0
100
AcDbMText
 10
1227.1420000044973
 20
1673.3333333327359
 30
0.0
 40
33.866666666666667
 41
0.0
 71
               1
 72
               1
  1
317
  7
________
  0
POINT
  5
24E
100
AcDbEntity
  8
DEFPOINTS
 62
               0
100
AcDbPoint
 10
1100.3920000044973
 20
1530.000000003128
 30
0.0
  0
POINT
  5
24F
100
AcDbEntity
  8
DEFPOINTS
 62
               0
100
AcDbPoint
 10
1417.3920000044973
 20
1530.000000003128
 30
0.0
  0
POINT
  5
250
100
AcDbEntity
  8
DEFPOINTS
 62
               0
100
AcDbPoint
 10
1417.3920000044973
 20
1630.000000003128
 30
0.0
  0
ENDBLK
  5
251
100
AcDbEntity
  8
DIMENTION
100
AcDbBlockEnd
  0
BLOCK
  5
252
100
AcDbEntity
  8
DIMENTION
100
AcDbBlockBegin
  2
*D27
 70
               1
 10
0.0
 20
0.0
 30
0.0
  3
*D27
  1

  0
LINE
  5
253
100
AcDbEntity
  8
DIMENTION
 62
               0
100
AcDbLine
 10
772.39200000449728
 20
1540.000000003128
 30
0.0
 11
772.39200000449728
 21
1650.000000003128
 31
0.0
  0
LINE
  5
254
100
AcDbEntity
  8
DIMENTION
 62
               0
100
AcDbLine
 10
1100.3920000044973
 20
1540.000000003128
 30
0.0
 11
1100.3920000044973
 21
1650.000000003128
 31
0.0
  0
LINE
  5
255
100
AcDbEntity
  8
DIMENTION
 62
               0
100
AcDbLine
 10
772.39200000449728
 20
1630.000000003128
 30
0.0
 11
1100.3920000044973
 21
1630.000000003128
 31
0.0
  0
LINE
  5
256
100
AcDbEntity
  8
DIMENTION
 62
               0
100
AcDbLine
 10
772.39200000449728
 20
1630.000000003128
 30
0.0
 11
794.14261035605978
 21
1635.8280584817132
 31
0.0
  0
LINE
  5
257
100
AcDbEntity
  8
DIMENTION
 62
               0
100
AcDbLine
 10
772.39200000449728
 20
1630.000000003128
 30
0.0
 11
794.14261035605978
 21
1624.1719415245427
 31
0.0
  0
LINE
  5
258
100
AcDbEntity
  8
DIMENTION
 62
               0
100
AcDbLine
 10
1100.3920000044973
 20
1630.000000003128
 30
0.0
 11
1078.6413896529348
 21
1624.1719415245427
 31
0.0
  0
LINE
  5
259
100
AcDbEntity
  8
DIMENTION
 62
               0
100
AcDbLine
 10
1100.3920000044973
 20
1630.000000003128
 30
0.0
 11
1078.6413896529348
 21
1635.8280584817132
 31
0.0
  0
MTEXT
  5
25A
100
AcDbEntity
  8
DIMENTION
 62
               0
100
AcDbMText
 10
904.64200000449728
 20
1673.3333333327359
 30
0.0
 40
33.866666666666667
 41
0.0
 71
               1
 72
               1
  1
328
  7
________
  0
POINT
  5
25B
100
AcDbEntity
  8
DEFPOINTS
 62
               0
100
AcDbPoint
 10
1100.3920000044973
 20
1530.000000003128
 30
0.0
  0
POINT
  5
25C
100
AcDbEntity
  8
DEFPOINTS
 62
               0
100
AcDbPoint
 10
772.39200000449728
 20
1530.000000003128
 30
0.0
  0
POINT
  5
25D
100
AcDbEntity
  8
DEFPOINTS
 62
               0
100
AcDbPoint
 10
772.39200000449728
 20
1630.000000003128
 30
0.0
  0
ENDBLK
  5
25E
100
AcDbEntity
  8
DIMENTION
100
AcDbBlockEnd
  0
BLOCK
  5
25F
100
AcDbEntity
  8
DIMENTION
100
AcDbBlockBegin
  2
*D28
 70
               1
 10
0.0
 20
0.0
 30
0.0
  3
*D28
  1

  0
LINE
  5
260
100
AcDbEntity
  8
DIMENTION
 62
               0
100
AcDbLine
 10
2430.3920000044973
 20
1912.000000003128
 30
0.0
 11
2355.3920000044973
 21
1912.000000003128
 31
0.0
  0
LINE
  5
261
100
AcDbEntity
  8
DIMENTION
 62
               0
100
AcDbLine
 10
2430.3920000044973
 20
2418.0000000031278
 30
0.0
 11
2355.3920000044973
 21
2418.0000000031278
 31
0.0
  0
LINE
  5
262
100
AcDbEntity
  8
DIMENTION
 62
               0
100
AcDbLine
 10
2375.3920000044973
 20
1912.000000003128
 30
0.0
 11
2375.3920000044973
 21
2418.0000000031278
 31
0.0
  0
LINE
  5
263
100
AcDbEntity
  8
DIMENTION
 62
               0
100
AcDbLine
 10
2375.3920000044973
 20
1912.000000003128
 30
0.0
 11
2369.563941525912
 21
1933.7506103546905
 31
0.0
  0
LINE
  5
264
100
AcDbEntity
  8
DIMENTION
 62
               0
100
AcDbLine
 10
2375.3920000044973
 20
1912.000000003128
 30
0.0
 11
2381.2200584830821
 21
1933.7506103546905
 31
0.0
  0
LINE
  5
265
100
AcDbEntity
  8
DIMENTION
 62
               0
100
AcDbLine
 10
2375.3920000044973
 20
2418.0000000031278
 30
0.0
 11
2381.2200584830821
 21
2396.2493896515653
 31
0.0
  0
LINE
  5
266
100
AcDbEntity
  8
DIMENTION
 62
               0
100
AcDbLine
 10
2375.3920000044973
 20
2418.0000000031278
 30
0.0
 11
2369.563941525912
 21
2396.2493896515653
 31
0.0
  0
MTEXT
  5
267
100
AcDbEntity
  8
DIMENTION
 62
               0
100
AcDbMText
 10
2332.0586666748891
 20
2099.2469482453153
 30
0.0
 40
33.866666666666667
 41
0.0
 71
               1
 72
               1
  1
506
  7
________
 11
0.0
 21
1.0
 31
0.0
  0
POINT
  5
268
100
AcDbEntity
  8
DEFPOINTS
 62
               0
100
AcDbPoint
 10
2440.3920000044973
 20
2418.0000000031278
 30
0.0
  0
POINT
  5
269
100
AcDbEntity
  8
DEFPOINTS
 62
               0
100
AcDbPoint
 10
2440.3920000044973
 20
1912.000000003128
 30
0.0
  0
POINT
  5
26A
100
AcDbEntity
  8
DEFPOINTS
 62
               0
100
AcDbPoint
 10
2375.3920000044973
 20
1912.000000003128
 30
0.0
  0
ENDBLK
  5
26B
100
AcDbEntity
  8
DIMENTION
100
AcDbBlockEnd
  0
BLOCK
  5
26C
100
AcDbEntity
  8
DIMENTION
100
AcDbBlockBegin
  2
*D29
 70
               1
 10
0.0
 20
0.0
 30
0.0
  3
*D29
  1

  0
LINE
  5
26D
100
AcDbEntity
  8
DIMENTION
 62
               0
100
AcDbLine
 10
2518.3920000044973
 20
2495.0000000031278
 30
0.0
 11
2706.3920000044973
 21
2495.0000000031278
 31
0.0
  0
LINE
  5
26E
100
AcDbEntity
  8
DIMENTION
 62
               0
100
AcDbLine
 10
2518.3920000044973
 20
2565.0000000031278
 30
0.0
 11
2706.3920000044973
 21
2565.0000000031278
 31
0.0
  0
LINE
  5
26F
100
AcDbEntity
  8
DIMENTION
 62
               0
100
AcDbLine
 10
2686.3920000044973
 20
2495.0000000031278
 30
0.0
 11
2686.3920000044973
 21
2565.0000000031278
 31
0.0
  0
LINE
  5
270
100
AcDbEntity
  8
DIMENTION
 62
               0
100
AcDbLine
 10
2686.3920000044973
 20
2495.0000000031278
 30
0.0
 11
2680.563941525912
 21
2516.7506103546903
 31
0.0
  0
LINE
  5
271
100
AcDbEntity
  8
DIMENTION
 62
               0
100
AcDbLine
 10
2686.3920000044973
 20
2495.0000000031278
 30
0.0
 11
2692.2200584830821
 21
2516.7506103546903
 31
0.0
  0
LINE
  5
272
100
AcDbEntity
  8
DIMENTION
 62
               0
100
AcDbLine
 10
2686.3920000044973
 20
2565.0000000031278
 30
0.0
 11
2692.2200584830821
 21
2543.2493896515653
 31
0.0
  0
LINE
  5
273
100
AcDbEntity
  8
DIMENTION
 62
               0
100
AcDbLine
 10
2686.3920000044973
 20
2565.0000000031278
 30
0.0
 11
2680.563941525912
 21
2543.2493896515653
 31
0.0
  0
MTEXT
  5
274
100
AcDbEntity
  8
DIMENTION
 62
               0
100
AcDbMText
 10
2643.0586666748891
 20
2508.8333333364612
 30
0.0
 40
33.866666666666667
 41
0.0
 71
               1
 72
               1
  1
70
  7
________
 11
0.0
 21
1.0
 31
0.0
  0
POINT
  5
275
100
AcDbEntity
  8
DEFPOINTS
 62
               0
100
AcDbPoint
 10
2508.3920000044973
 20
2565.0000000031278
 30
0.0
  0
POINT
  5
276
100
AcDbEntity
  8
DEFPOINTS
 62
               0
100
AcDbPoint
 10
2508.3920000044973
 20
2495.0000000031278
 30
0.0
  0
POINT
  5
277
100
AcDbEntity
  8
DEFPOINTS
 62
               0
100
AcDbPoint
 10
2686.3920000044973
 20
2495.0000000031278
 30
0.0
  0
ENDBLK
  5
278
100
AcDbEntity
  8
DIMENTION
100
AcDbBlockEnd
  0
BLOCK
  5
279
100
AcDbEntity
  8
DIMENTION
100
AcDbBlockBegin
  2
*D30
 70
               1
 10
0.0
 20
0.0
 30
0.0
  3
*D30
  1

  0
LINE
  5
27A
100
AcDbEntity
  8
DIMENTION
 62
               0
100
AcDbLine
 10
2518.3920000044973
 20
2565.0000000031278
 30
0.0
 11
2706.3920000044973
 21
2565.0000000031278
 31
0.0
  0
LINE
  5
27B
100
AcDbEntity
  8
DIMENTION
 62
               0
100
AcDbLine
 10
2480.3920000044973
 20
2575.0000000031278
 30
0.0
 11
2706.3920000044973
 21
2575.0000000031278
 31
0.0
  0
LINE
  5
27C
100
AcDbEntity
  8
DIMENTION
 62
               0
100
AcDbLine
 10
2686.3920000044973
 20
2575.0000000031278
 30
0.0
 11
2686.3920000044973
 21
2565.0000000031278
 31
0.0
  0
LINE
  5
27D
100
AcDbEntity
  8
DIMENTION
 62
               0
100
AcDbLine
 10
2686.3920000044973
 20
2565.0000000031278
 30
0.0
 11
2686.3920000044973
 21
2525.0000000031278
 31
0.0
  0
LINE
  5
27E
100
AcDbEntity
  8
DIMENTION
 62
               0
100
AcDbLine
 10
2686.3920000044973
 20
2565.0000000031278
 30
0.0
 11
2692.2200584830821
 21
2543.2493896515653
 31
0.0
  0
LINE
  5
27F
100
AcDbEntity
  8
DIMENTION
 62
               0
100
AcDbLine
 10
2686.3920000044973
 20
2565.0000000031278
 30
0.0
 11
2680.563941525912
 21
2543.2493896515653
 31
0.0
  0
LINE
  5
280
100
AcDbEntity
  8
DIMENTION
 62
               0
100
AcDbLine
 10
2686.3920000044973
 20
2575.0000000031278
 30
0.0
 11
2686.3920000044973
 21
2640.2733333364613
 31
0.0
  0
LINE
  5
281
100
AcDbEntity
  8
DIMENTION
 62
               0
100
AcDbLine
 10
2686.3920000044973
 20
2575.0000000031278
 30
0.0
 11
2680.563941525912
 21
2596.7506103546903
 31
0.0
  0
LINE
  5
282
100
AcDbEntity
  8
DIMENTION
 62
               0
100
AcDbLine
 10
2686.3920000044973
 20
2575.0000000031278
 30
0.0
 11
2692.2200584830821
 21
2596.7506103546903
 31
0.0
  0
MTEXT
  5
283
100
AcDbEntity
  8
DIMENTION
 62
               0
100
AcDbMText
 10
2643.0586666748891
 20
2597.9400000031278
 30
0.0
 40
33.866666666666667
 41
0.0
 71
               1
 72
               1
  1
10
  7
________
 11
0.0
 21
1.0
 31
0.0
  0
POINT
  5
284
100
AcDbEntity
  8
DEFPOINTS
 62
               0
100
AcDbPoint
 10
2470.3920000044973
 20
2575.0000000031278
 30
0.0
  0
POINT
  5
285
100
AcDbEntity
  8
DEFPOINTS
 62
               0
100
AcDbPoint
 10
2508.3920000044973
 20
2565.0000000031278
 30
0.0
  0
POINT
  5
286
100
AcDbEntity
  8
DEFPOINTS
 62
               0
100
AcDbPoint
 10
2686.3920000044973
 20
2565.0000000031278
 30
0.0
  0
ENDBLK
  5
287
100
AcDbEntity
  8
DIMENTION
100
AcDbBlockEnd
  0
BLOCK
  5
288
100
AcDbEntity
  8
OBJECT
100
AcDbBlockBegin
  2
*U31
 70
               1
 10
0.0
 20
0.0
 30
0.0
  3
*U31
  1

  0
LINE
  5
289
100
AcDbEntity
  8
OBJECT
 62
               0
100
AcDbLine
 10
254.99199999999999
 20
-534.0
 30
0.0
 11
254.99199999999999
 21
-564.0
 31
0.0
  0
LINE
  5
28A
100
AcDbEntity
  8
OBJECT
 62
               0
100
AcDbLine
 10
254.99199999999999
 20
-534.0
 30
0.0
 11
249.99199999999999
 21
-534.0
 31
0.0
  0
LINE
  5
28B
100
AcDbEntity
  8
OBJECT
 62
               0
100
AcDbLine
 10
249.99199999999999
 20
-534.0
 30
0.0
 11
249.99199999999999
 21
-559.0
 31
0.0
  0
LINE
  5
28C
100
AcDbEntity
  8
OBJECT
 62
               0
100
AcDbLine
 10
254.99199999999999
 20
-564.0
 30
0.0
 11
249.99199999999999
 21
-564.0
 31
0.0
  0
LINE
  5
28D
100
AcDbEntity
  8
OBJECT
 62
               0
100
AcDbLine
 10
249.99199999999999
 20
-559.0
 30
0.0
 11
244.99199999999999
 21
-559.0
 31
0.0
  0
LINE
  5
28E
100
AcDbEntity
  8
OBJECT
 62
               0
100
AcDbLine
 10
244.99199999999999
 20
-559.0
 30
0.0
 11
244.99199999999999
 21
-579.0
 31
0.0
  0
LINE
  5
28F
100
AcDbEntity
  8
OBJECT
 62
               0
100
AcDbLine
 10
244.99199999999999
 20
-579.0
 30
0.0
 11
249.99199999999999
 21
-579.0
 31
0.0
  0
LINE
  5
290
100
AcDbEntity
  8
OBJECT
 62
               0
100
AcDbLine
 10
249.99199999999999
 20
-579.0
 30
0.0
 11
249.99199999999999
 21
-564.0
 31
0.0
  0
ENDBLK
  5
291
100
AcDbEntity
  8
OBJECT
100
AcDbBlockEnd
  0
BLOCK
  5
292
100
AcDbEntity
  8
OBJECT
100
AcDbBlockBegin
  2
*U32
 70
               1
 10
0.0
 20
0.0
 30
0.0
  3
*U32
  1

  0
INSERT
  5
293
100
AcDbEntity
  8
OBJECT
 62
               0
100
AcDbBlockReference
  2
*U31
 10
0.0
 20
0.0
 30
0.0
  0
ENDBLK
  5
294
100
AcDbEntity
  8
OBJECT
100
AcDbBlockEnd
  0
BLOCK
  5
295
100
AcDbEntity
  8
OBJECT
100
AcDbBlockBegin
  2
*U33
 70
               1
 10
0.0
 20
0.0
 30
0.0
  3
*U33
  1

  0
LINE
  5
296
100
AcDbEntity
  8
OBJECT
 62
               0
100
AcDbLine
 10
-1128.0080999999998
 20
-644.0
 30
0.0
 11
-1128.0080999999998
 21
-728.99999999999989
 31
0.0
  0
LINE
  5
297
100
AcDbEntity
  8
OBJECT
 62
               0
100
AcDbLine
 10
-1102.0078999999998
 20
-644.0
 30
0.0
 11
-1102.0078999999998
 21
-728.99999999999989
 31
0.0
  0
ENDBLK
  5
298
100
AcDbEntity
  8
OBJECT
100
AcDbBlockEnd
  0
BLOCK
  5
299
100
AcDbEntity
  8
OBJECT
100
AcDbBlockBegin
  2
*U34
 70
               1
 10
0.0
 20
0.0
 30
0.0
  3
*U34
  1

  0
INSERT
  5
29A
100
AcDbEntity
  8
OBJECT
 62
               0
100
AcDbBlockReference
  2
*U33
 10
0.0
 20
0.0
 30
0.0
  0
LINE
  5
29B
100
AcDbEntity
  8
OBJECT
 62
               0
100
AcDbLine
 10
-1102.0078999999998
 20
-728.99999999999989
 30
0.0
 11
-1128.0080999999998
 21
-728.99999999999989
 31
0.0
  0
ARC
  5
29C
100
AcDbEntity
  8
OBJECT
 62
               0
100
AcDbCircle
 10
-1115.0079999999998
 20
-644.0
 30
0.0
 40
13.000099999999975
100
AcDbArc
 50
0.0
 51
180.0
  0
ARC
  5
29D
100
AcDbEntity
  8
OBJECT
 62
               0
100
AcDbCircle
 10
-1115.0079999999998
 20
-644.0
 30
0.0
 40
20.000001049249914
100
AcDbArc
 50
310.54197628204292
 51
229.45802371795708
  0
ENDBLK
  5
29E
100
AcDbEntity
  8
OBJECT
100
AcDbBlockEnd
  0
BLOCK
  5
29F
100
AcDbEntity
  8
OBJECT
100
AcDbBlockBegin
  2
*U35
 70
               1
 10
0.0
 20
0.0
 30
0.0
  3
*U35
  1

  0
LINE
  5
2A0
100
AcDbEntity
  8
OBJECT
 62
               0
100
AcDbLine
 10
57.491999999999997
 20
-1119.0
 30
0.0
 11
57.491999999999997
 21
-1129.0
 31
0.0
  0
LINE
  5
2A1
100
AcDbEntity
  8
OBJECT
 62
               0
100
AcDbLine
 10
42.491999999999997
 20
-1119.0
 30
0.0
 11
42.491999999999997
 21
-1129.0
 31
0.0
  0
ENDBLK
  5
2A2
100
AcDbEntity
  8
OBJECT
100
AcDbBlockEnd
  0
BLOCK
  5
2A3
100
AcDbEntity
  8
OBJECT
100
AcDbBlockBegin
  2
*U36
 70
               1
 10
0.0
 20
0.0
 30
0.0
  3
*U36
  1

  0
INSERT
  5
2A4
100
AcDbEntity
  8
OBJECT
 62
               0
100
AcDbBlockReference
  2
*U35
 10
0.0
 20
0.0
 30
0.0
  0
LINE
  5
2A5
100
AcDbEntity
  8
OBJECT
 62
               0
100
AcDbLine
 10
42.491999999999997
 20
-1129.0
 30
0.0
 11
57.491999999999997
 21
-1129.0
 31
0.0
  0
LINE
  5
2A6
100
AcDbEntity
  8
OBJECT
 62
               0
100
AcDbLine
 10
55.991999999999997
 20
-1139.0
 30
0.0
 11
43.991999999999997
 21
-1139.0
 31
0.0
  0
LINE
  5
2A7
100
AcDbEntity
  8
OBJECT
 62
               0
100
AcDbLine
 10
42.491999999999997
 20
-1129.0
 30
0.0
 11
43.991999999999997
 21
-1139.0
 31
0.0
  0
LINE
  5
2A8
100
AcDbEntity
  8
OBJECT
 62
               0
100
AcDbLine
 10
57.491999999999997
 20
-1129.0
 30
0.0
 11
55.991999999999997
 21
-1139.0
 31
0.0
  0
ENDBLK
  5
2A9
100
AcDbEntity
  8
OBJECT
100
AcDbBlockEnd
  0
BLOCK
  5
2AA
100
AcDbEntity
  8
OBJECT
100
AcDbBlockBegin
  2
*U37
 70
               1
 10
0.0
 20
0.0
 30
0.0
  3
*U37
  1

  0
INSERT
  5
2AB
100
AcDbEntity
  8
OBJECT
 62
               0
100
AcDbBlockReference
  2
*U36
 10
0.0
 20
0.0
 30
0.0
  0
LINE
  5
2AC
100
AcDbEntity
  8
OBJECT
 62
               0
100
AcDbLine
 10
42.491999999999997
 20
-1119.0
 30
0.0
 11
57.491999999999997
 21
-1119.0
 31
0.0
  0
ENDBLK
  5
2AD
100
AcDbEntity
  8
OBJECT
100
AcDbBlockEnd
  0
BLOCK
  5
2AE
100
AcDbEntity
  8
OBJECT
100
AcDbBlockBegin
  2
*U38
 70
               1
 10
0.0
 20
0.0
 30
0.0
  3
*U38
  1

  0
LINE
  5
2AF
100
AcDbEntity
  8
OBJECT
 62
               0
100
AcDbLine
 10
227.49199999999999
 20
-1119.0
 30
0.0
 11
227.49199999999999
 21
-1129.0
 31
0.0
  0
LINE
  5
2B0
100
AcDbEntity
  8
OBJECT
 62
               0
100
AcDbLine
 10
212.49199999999999
 20
-1119.0
 30
0.0
 11
212.49199999999999
 21
-1129.0
 31
0.0
  0
ENDBLK
  5
2B1
100
AcDbEntity
  8
OBJECT
100
AcDbBlockEnd
  0
BLOCK
  5
2B2
100
AcDbEntity
  8
OBJECT
100
AcDbBlockBegin
  2
*U39
 70
               1
 10
0.0
 20
0.0
 30
0.0
  3
*U39
  1

  0
LINE
  5
2B3
100
AcDbEntity
  8
OBJECT
 62
               0
100
AcDbLine
 10
-842.50799999999981
 20
-1119.0
 30
0.0
 11
-842.50799999999981
 21
-1129.0
 31
0.0
  0
LINE
  5
2B4
100
AcDbEntity
  8
OBJECT
 62
               0
100
AcDbLine
 10
-827.50799999999981
 20
-1119.0
 30
0.0
 11
-827.50799999999981
 21
-1129.0
 31
0.0
  0
ENDBLK
  5
2B5
100
AcDbEntity
  8
OBJECT
100
AcDbBlockEnd
  0
BLOCK
  5
2B6
100
AcDbEntity
  8
CENTER
100
AcDbBlockBegin
  2
*U40
 70
               1
 10
0.0
 20
0.0
 30
0.0
  3
*U40
  1

  0
LINE
  5
2B7
100
AcDbEntity
  8
CENTER
 62
               0
100
AcDbLine
 10
187.99199999999999
 20
665.99999999999989
 30
0.0
 11
237.99199999999999
 21
665.99999999999989
 31
0.0
  0
LINE
  5
2B8
100
AcDbEntity
  8
CENTER
 62
               0
100
AcDbLine
 10
212.99199999999999
 20
640.99999999999989
 30
0.0
 11
212.99199999999999
 21
690.99999999999989
 31
0.0
  0
ENDBLK
  5
2B9
100
AcDbEntity
  8
CENTER
100
AcDbBlockEnd
  0
BLOCK
  5
2BA
100
AcDbEntity
  8
CENTER
100
AcDbBlockBegin
  2
*U41
 70
               1
 10
0.0
 20
0.0
 30
0.0
  3
*U41
  1

  0
LINE
  5
2BB
100
AcDbEntity
  8
CENTER
 62
               0
100
AcDbLine
 10
187.99199999999999
 20
576.0
 30
0.0
 11
237.99199999999999
 21
576.0
 31
0.0
  0
LINE
  5
2BC
100
AcDbEntity
  8
CENTER
 62
               0
100
AcDbLine
 10
212.99199999999999
 20
551.0
 30
0.0
 11
212.99199999999999
 21
601.0
 31
0.0
  0
ENDBLK
  5
2BD
100
AcDbEntity
  8
CENTER
100
AcDbBlockEnd
  0
BLOCK
  5
2BE
100
AcDbEntity
  8
OBJECT
100
AcDbBlockBegin
  2
*U42
 70
               1
 10
0.0
 20
0.0
 30
0.0
  3
*U42
  1

  0
POLYLINE
  5
2BF
100
AcDbEntity
  8
OBJECT
 62
               0
100
AcDb2dPolyline
 66
               1
 10
0.0
 20
0.0
 30
0.0
 70
               1
 75
               5
  0
VERTEX
  5
2C0
100
AcDbEntity
  8
OBJECT
 62
               0
100
AcDbVertex
100
AcDb2dVertex
 10
306.99199999999996
 20
1156.0
 30
0.0
  0
VERTEX
  5
2C1
100
AcDbEntity
  8
OBJECT
 62
               0
100
AcDbVertex
100
AcDb2dVertex
 10
482.99199999999996
 20
1156.0
 30
0.0
  0
VERTEX
  5
2C2
100
AcDbEntity
  8
OBJECT
 62
               0
100
AcDbVertex
100
AcDb2dVertex
 10
482.99199999999996
 20
1086.0
 30
0.0
  0
VERTEX
  5
2C3
100
AcDbEntity
  8
OBJECT
 62
               0
100
AcDbVertex
100
AcDb2dVertex
 10
306.99199999999996
 20
1086.0
 30
0.0
  0
SEQEND
  5
2C4
100
AcDbEntity
  8
OBJECT
 62
               0
  0
LINE
  5
2C5
100
AcDbEntity
  8
OBJECT
 62
               0
100
AcDbLine
 10
482.99199999999996
 20
1156.0
 30
0.0
 11
306.99199999999996
 21
1086.0
 31
0.0
  0
LINE
  5
2C6
100
AcDbEntity
  8
OBJECT
 62
               0
100
AcDbLine
 10
306.99199999999996
 20
1156.0
 30
0.0
 11
482.99199999999996
 21
1086.0
 31
0.0
  0
ENDBLK
  5
2C7
100
AcDbEntity
  8
OBJECT
100
AcDbBlockEnd
  0
BLOCK
  5
2C8
100
AcDbEntity
  8
OBJECT
100
AcDbBlockBegin
  2
*U43
 70
               1
 10
0.0
 20
0.0
 30
0.0
  3
*U43
  1

  0
ARC
  5
2C9
100
AcDbEntity
  8
OBJECT
 62
               0
100
AcDbCircle
 10
18.991999999999997
 20
-669.99999999999989
 30
0.0
 40
43.999999999999886
100
AcDbArc
 50
90.0
 51
180.0
  0
LINE
  5
2CA
100
AcDbEntity
  8
OBJECT
 62
               0
100
AcDbLine
 10
-25.007999999999999
 20
-669.99999999999989
 30
0.0
 11
-25.007999999999999
 21
-725.99999999999989
 31
0.0
  0
ARC
  5
2CB
100
AcDbEntity
  8
OBJECT
 62
               0
100
AcDbCircle
 10
18.991999999999997
 20
-669.99999999999989
 30
0.0
 40
17.999999999999886
100
AcDbArc
 50
90.0
 51
180.0
  0
LINE
  5
2CC
100
AcDbEntity
  8
OBJECT
 62
               0
100
AcDbLine
 10
0.9919999999999999
 20
-669.99999999999989
 30
0.0
 11
0.9919999999999999
 21
-725.99999999999989
 31
0.0
  0
LINE
  5
2CD
100
AcDbEntity
  8
OBJECT
 62
               0
100
AcDbLine
 10
-25.007999999999999
 20
-725.99999999999989
 30
0.0
 11
0.9919999999999999
 21
-725.99999999999989
 31
0.0
  0
ENDBLK
  5
2CE
100
AcDbEntity
  8
OBJECT
100
AcDbBlockEnd
  0
BLOCK
  5
2CF
100
AcDbEntity
  8
OBJECT
100
AcDbBlockBegin
  2
*U44
 70
               1
 10
0.0
 20
0.0
 30
0.0
  3
*U44
  1

  0
LINE
  5
2D0
100
AcDbEntity
  8
OBJECT
 62
               0
100
AcDbLine
 10
-1325.0079999999998
 20
-458.99999999999994
 30
0.0
 11
-1325.0079999999998
 21
-478.99999999999994
 31
0.0
  0
LINE
  5
2D1
100
AcDbEntity
  8
OBJECT
 62
               0
100
AcDbLine
 10
-1325.0079999999998
 20
-458.99999999999994
 30
0.0
 11
-1330.0079999999998
 21
-458.99999999999994
 31
0.0
  0
LINE
  5
2D2
100
AcDbEntity
  8
OBJECT
 62
               0
100
AcDbLine
 10
-1325.0079999999998
 20
-478.99999999999994
 30
0.0
 11
-1335.0079999999998
 21
-478.99999999999994
 31
0.0
  0
LINE
  5
2D3
100
AcDbEntity
  8
OBJECT
 62
               0
100
AcDbLine
 10
-1330.0079999999998
 20
-458.99999999999994
 30
0.0
 11
-1330.0079999999998
 21
-473.99999999999994
 31
0.0
  0
LINE
  5
2D4
100
AcDbEntity
  8
OBJECT
 62
               0
100
AcDbLine
 10
-1335.0079999999998
 20
-478.99999999999994
 30
0.0
 11
-1335.0079999999998
 21
-473.99999999999994
 31
0.0
  0
LINE
  5
2D5
100
AcDbEntity
  8
OBJECT
 62
               0
100
AcDbLine
 10
-1335.0079999999998
 20
-473.99999999999994
 30
0.0
 11
-1330.0079999999998
 21
-473.99999999999994
 31
0.0
  0
ENDBLK
  5
2D6
100
AcDbEntity
  8
OBJECT
100
AcDbBlockEnd
  0
BLOCK
  5
2D7
100
AcDbEntity
  8
DIMENTION
100
AcDbBlockBegin
  2
*D45
 70
               1
 10
0.0
 20
0.0
 30
0.0
  3
*D45
  1

  0
LINE
  5
2D8
100
AcDbEntity
  8
DIMENTION
 62
               0
100
AcDbLine
 10
2035.392000004497
 20
190.00000000312798
 30
0.0
 11
1783.4000000044971
 21
190.00000000312798
 31
0.0
  0
LINE
  5
2D9
100
AcDbEntity
  8
DIMENTION
 62
               0
100
AcDbLine
 10
2035.392000004497
 20
850.00000000312798
 30
0.0
 11
1783.4000000044971
 21
850.00000000312798
 31
0.0
  0
LINE
  5
2DA
100
AcDbEntity
  8
DIMENTION
 62
               0
100
AcDbLine
 10
1803.4000000044971
 20
190.00000000312798
 30
0.0
 11
1803.4000000044971
 21
850.00000000312798
 31
0.0
  0
LINE
  5
2DB
100
AcDbEntity
  8
DIMENTION
 62
               0
100
AcDbLine
 10
1803.4000000044971
 20
190.00000000312798
 30
0.0
 11
1797.5719415259118
 21
211.75061035469048
 31
0.0
  0
LINE
  5
2DC
100
AcDbEntity
  8
DIMENTION
 62
               0
100
AcDbLine
 10
1803.4000000044971
 20
190.00000000312798
 30
0.0
 11
1809.2280584830823
 21
211.75061035469048
 31
0.0
  0
LINE
  5
2DD
100
AcDbEntity
  8
DIMENTION
 62
               0
100
AcDbLine
 10
1803.4000000044971
 20
850.00000000312798
 30
0.0
 11
1809.2280584830823
 21
828.24938965156548
 31
0.0
  0
LINE
  5
2DE
100
AcDbEntity
  8
DIMENTION
 62
               0
100
AcDbLine
 10
1803.4000000044971
 20
850.00000000312798
 30
0.0
 11
1797.5719415259118
 21
828.24938965156548
 31
0.0
  0
MTEXT
  5
2DF
100
AcDbEntity
  8
DIMENTION
 62
               0
100
AcDbMText
 10
1760.0666666748891
 20
488.25000000312798
 30
0.0
 40
33.866666666666667
 41
0.0
 71
               1
 72
               1
  1
660
  7
________
 11
0.0
 21
1.0
 31
0.0
  0
POINT
  5
2E0
100
AcDbEntity
  8
DEFPOINTS
 62
               0
100
AcDbPoint
 10
2045.392000004497
 20
850.00000000312798
 30
0.0
  0
POINT
  5
2E1
100
AcDbEntity
  8
DEFPOINTS
 62
               0
100
AcDbPoint
 10
2045.392000004497
 20
190.00000000312798
 30
0.0
  0
POINT
  5
2E2
100
AcDbEntity
  8
DEFPOINTS
 62
               0
100
AcDbPoint
 10
1803.4000000044971
 20
190.00000000312798
 30
0.0
  0
ENDBLK
  5
2E3
100
AcDbEntity
  8
DIMENTION
100
AcDbBlockEnd
  0
BLOCK
  5
2E4
100
AcDbEntity
  8
DIMENTION
100
AcDbBlockBegin
  2
*D46
 70
               1
 10
0.0
 20
0.0
 30
0.0
  3
*D46
  1

  0
LINE
  5
2E5
100
AcDbEntity
  8
DIMENTION
 62
               0
100
AcDbLine
 10
2034.392000004497
 20
790.00000000312798
 30
0.0
 11
1835.4000000044971
 21
790.00000000312798
 31
0.0
  0
LINE
  5
2E6
100
AcDbEntity
  8
DIMENTION
 62
               0
100
AcDbLine
 10
2034.392000004497
 20
190.00000000312798
 30
0.0
 11
1835.4000000044971
 21
190.00000000312798
 31
0.0
  0
LINE
  5
2E7
100
AcDbEntity
  8
DIMENTION
 62
               0
100
AcDbLine
 10
1855.4000000044971
 20
790.00000000312798
 30
0.0
 11
1855.4000000044971
 21
190.00000000312798
 31
0.0
  0
LINE
  5
2E8
100
AcDbEntity
  8
DIMENTION
 62
               0
100
AcDbLine
 10
1855.4000000044971
 20
790.00000000312798
 30
0.0
 11
1861.2280584830823
 21
768.24938965156548
 31
0.0
  0
LINE
  5
2E9
100
AcDbEntity
  8
DIMENTION
 62
               0
100
AcDbLine
 10
1855.4000000044971
 20
790.00000000312798
 30
0.0
 11
1849.5719415259118
 21
768.24938965156548
 31
0.0
  0
LINE
  5
2EA
100
AcDbEntity
  8
DIMENTION
 62
               0
100
AcDbLine
 10
1855.4000000044971
 20
190.00000000312798
 30
0.0
 11
1849.5719415259118
 21
211.75061035469048
 31
0.0
  0
LINE
  5
2EB
100
AcDbEntity
  8
DIMENTION
 62
               0
100
AcDbLine
 10
1855.4000000044971
 20
190.00000000312798
 30
0.0
 11
1861.2280584830823
 21
211.75061035469048
 31
0.0
  0
MTEXT
  5
2EC
100
AcDbEntity
  8
DIMENTION
 62
               0
100
AcDbMText
 10
1812.0666666748891
 20
458.25000000312798
 30
0.0
 40
33.866666666666667
 41
0.0
 71
               1
 72
               1
  1
600
  7
________
 11
0.0
 21
1.0
 31
0.0
  0
POINT
  5
2ED
100
AcDbEntity
  8
DEFPOINTS
 62
               0
100
AcDbPoint
 10
2044.392000004497
 20
190.00000000312798
 30
0.0
  0
POINT
  5
2EE
100
AcDbEntity
  8
DEFPOINTS
 62
               0
100
AcDbPoint
 10
2044.392000004497
 20
790.00000000312798
 30
0.0
  0
POINT
  5
2EF
100
AcDbEntity
  8
DEFPOINTS
 62
               0
100
AcDbPoint
 10
1855.4000000044971
 20
790.00000000312798
 30
0.0
  0
ENDBLK
  5
2F0
100
AcDbEntity
  8
DIMENTION
100
AcDbBlockEnd
  0
BLOCK
  5
2F1
100
AcDbEntity
  8
DIMENTION
100
AcDbBlockBegin
  2
*D47
 70
               1
 10
0.0
 20
0.0
 30
0.0
  3
*D47
  1

  0
LINE
  5
2F2
100
AcDbEntity
  8
DIMENTION
 62
               0
100
AcDbLine
 10
2235.3920000044973
 20
190.00000000312798
 30
0.0
 11
1994.4000000044971
 21
190.00000000312798
 31
0.0
  0
LINE
  5
2F3
100
AcDbEntity
  8
DIMENTION
 62
               0
100
AcDbLine
 10
2235.3920000044973
 20
250.00000000312798
 30
0.0
 11
1994.4000000044971
 21
250.00000000312798
 31
0.0
  0
LINE
  5
2F4
100
AcDbEntity
  8
DIMENTION
 62
               0
100
AcDbLine
 10
2014.4000000044971
 20
250.00000000312798
 30
0.0
 11
2014.4000000044971
 21
190.00000000312798
 31
0.0
  0
LINE
  5
2F5
100
AcDbEntity
  8
DIMENTION
 62
               0
100
AcDbLine
 10
2014.4000000044971
 20
190.00000000312798
 30
0.0
 11
2014.4000000044971
 21
150.00000000312798
 31
0.0
  0
LINE
  5
2F6
100
AcDbEntity
  8
DIMENTION
 62
               0
100
AcDbLine
 10
2014.4000000044971
 20
190.00000000312798
 30
0.0
 11
2020.2280584830823
 21
168.24938965156548
 31
0.0
  0
LINE
  5
2F7
100
AcDbEntity
  8
DIMENTION
 62
               0
100
AcDbLine
 10
2014.4000000044971
 20
190.00000000312798
 30
0.0
 11
2008.5719415259118
 21
168.24938965156548
 31
0.0
  0
LINE
  5
2F8
100
AcDbEntity
  8
DIMENTION
 62
               0
100
AcDbLine
 10
2014.4000000044971
 20
250.00000000312798
 30
0.0
 11
2014.4000000044971
 21
290.00000000312798
 31
0.0
  0
LINE
  5
2F9
100
AcDbEntity
  8
DIMENTION
 62
               0
100
AcDbLine
 10
2014.4000000044971
 20
250.00000000312798
 30
0.0
 11
2008.5719415259118
 21
271.75061035469048
 31
0.0
  0
LINE
  5
2FA
100
AcDbEntity
  8
DIMENTION
 62
               0
100
AcDbLine
 10
2014.4000000044971
 20
250.00000000312798
 30
0.0
 11
2020.2280584830823
 21
271.75061035469048
 31
0.0
  0
MTEXT
  5
2FB
100
AcDbEntity
  8
DIMENTION
 62
               0
100
AcDbMText
 10
1971.0666666748891
 20
198.83333333646124
 30
0.0
 40
33.866666666666667
 41
0.0
 71
               1
 72
               1
  1
60
  7
________
 11
0.0
 21
1.0
 31
0.0
  0
POINT
  5
2FC
100
AcDbEntity
  8
DEFPOINTS
 62
               0
100
AcDbPoint
 10
2245.3920000044973
 20
250.00000000312798
 30
0.0
  0
POINT
  5
2FD
100
AcDbEntity
  8
DEFPOINTS
 62
               0
100
AcDbPoint
 10
2245.3920000044973
 20
190.00000000312798
 30
0.0
  0
POINT
  5
2FE
100
AcDbEntity
  8
DEFPOINTS
 62
               0
100
AcDbPoint
 10
2014.4000000044971
 20
190.00000000312798
 30
0.0
  0
ENDBLK
  5
2FF
100
AcDbEntity
  8
DIMENTION
100
AcDbBlockEnd
  0
BLOCK
  5
300
100
AcDbEntity
  8
DIMENTION
100
AcDbBlockBegin
  2
*D48
 70
               1
 10
0.0
 20
0.0
 30
0.0
  3
*D48
  1

  0
LINE
  5
301
100
AcDbEntity
  8
DIMENTION
 62
               0
100
AcDbLine
 10
2216.3920000044973
 20
190.00000000312798
 30
0.0
 11
1885.392000004497
 21
190.00000000312798
 31
0.0
  0
LINE
  5
302
100
AcDbEntity
  8
DIMENTION
 62
               0
100
AcDbLine
 10
2216.3920000044973
 20
325.00000000312798
 30
0.0
 11
1885.392000004497
 21
325.00000000312798
 31
0.0
  0
LINE
  5
303
100
AcDbEntity
  8
DIMENTION
 62
               0
100
AcDbLine
 10
1905.392000004497
 20
190.00000000312798
 30
0.0
 11
1905.392000004497
 21
325.00000000312798
 31
0.0
  0
LINE
  5
304
100
AcDbEntity
  8
DIMENTION
 62
               0
100
AcDbLine
 10
1905.392000004497
 20
190.00000000312798
 30
0.0
 11
1899.5639415259118
 21
211.75061035469048
 31
0.0
  0
LINE
  5
305
100
AcDbEntity
  8
DIMENTION
 62
               0
100
AcDbLine
 10
1905.392000004497
 20
190.00000000312798
 30
0.0
 11
1911.2200584830823
 21
211.75061035469048
 31
0.0
  0
LINE
  5
306
100
AcDbEntity
  8
DIMENTION
 62
               0
100
AcDbLine
 10
1905.392000004497
 20
325.00000000312798
 30
0.0
 11
1911.2200584830823
 21
303.24938965156548
 31
0.0
  0
LINE
  5
307
100
AcDbEntity
  8
DIMENTION
 62
               0
100
AcDbLine
 10
1905.392000004497
 20
325.00000000312798
 30
0.0
 11
1899.5639415259118
 21
303.24938965156548
 31
0.0
  0
MTEXT
  5
308
100
AcDbEntity
  8
DIMENTION
 62
               0
100
AcDbMText
 10
1862.0586666748891
 20
223.70448303535454
 30
0.0
 40
33.866666666666667
 41
0.0
 71
               1
 72
               1
  1
135
  7
________
 11
0.0
 21
1.0
 31
0.0
  0
POINT
  5
309
100
AcDbEntity
  8
DEFPOINTS
 62
               0
100
AcDbPoint
 10
2226.3920000044973
 20
325.00000000312798
 30
0.0
  0
POINT
  5
30A
100
AcDbEntity
  8
DEFPOINTS
 62
               0
100
AcDbPoint
 10
2226.3920000044973
 20
190.00000000312798
 30
0.0
  0
POINT
  5
30B
100
AcDbEntity
  8
DEFPOINTS
 62
               0
100
AcDbPoint
 10
1905.392000004497
 20
190.00000000312798
 30
0.0
  0
ENDBLK
  5
30C
100
AcDbEntity
  8
DIMENTION
100
AcDbBlockEnd
  0
BLOCK
  5
30D
100
AcDbEntity
  8
DIMENTION
100
AcDbBlockBegin
  2
*D49
 70
               1
 10
0.0
 20
0.0
 30
0.0
  3
*D49
  1

  0
LINE
  5
30E
100
AcDbEntity
  8
DIMENTION
 62
               0
100
AcDbLine
 10
2040.392000004497
 20
290.00000000312798
 30
0.0
 11
1939.4000000044971
 21
290.00000000312798
 31
0.0
  0
LINE
  5
30F
100
AcDbEntity
  8
DIMENTION
 62
               0
100
AcDbLine
 10
2040.392000004497
 20
190.00000000312798
 30
0.0
 11
1939.4000000044971
 21
190.00000000312798
 31
0.0
  0
LINE
  5
310
100
AcDbEntity
  8
DIMENTION
 62
               0
100
AcDbLine
 10
1959.4000000044971
 20
290.00000000312798
 30
0.0
 11
1959.4000000044971
 21
190.00000000312798
 31
0.0
  0
LINE
  5
311
100
AcDbEntity
  8
DIMENTION
 62
               0
100
AcDbLine
 10
1959.4000000044971
 20
290.00000000312798
 30
0.0
 11
1965.2280584830823
 21
268.24938965156548
 31
0.0
  0
LINE
  5
312
100
AcDbEntity
  8
DIMENTION
 62
               0
100
AcDbLine
 10
1959.4000000044971
 20
290.00000000312798
 30
0.0
 11
1953.5719415259118
 21
268.24938965156548
 31
0.0
  0
LINE
  5
313
100
AcDbEntity
  8
DIMENTION
 62
               0
100
AcDbLine
 10
1959.4000000044971
 20
190.00000000312798
 30
0.0
 11
1953.5719415259118
 21
211.75061035469048
 31
0.0
  0
LINE
  5
314
100
AcDbEntity
  8
DIMENTION
 62
               0
100
AcDbLine
 10
1959.4000000044971
 20
190.00000000312798
 30
0.0
 11
1965.2280584830823
 21
211.75061035469048
 31
0.0
  0
MTEXT
  5
315
100
AcDbEntity
  8
DIMENTION
 62
               0
100
AcDbMText
 10
1916.0666666748891
 20
208.25000000312798
 30
0.0
 40
33.866666666666667
 41
0.0
 71
               1
 72
               1
  1
100
  7
________
 11
0.0
 21
1.0
 31
0.0
  0
POINT
  5
316
100
AcDbEntity
  8
DEFPOINTS
 62
               0
100
AcDbPoint
 10
2050.3920000044973
 20
190.00000000312798
 30
0.0
  0
POINT
  5
317
100
AcDbEntity
  8
DEFPOINTS
 62
               0
100
AcDbPoint
 10
2050.3920000044973
 20
290.00000000312798
 30
0.0
  0
POINT
  5
318
100
AcDbEntity
  8
DEFPOINTS
 62
               0
100
AcDbPoint
 10
1959.4000000044971
 20
290.00000000312798
 30
0.0
  0
ENDBLK
  5
319
100
AcDbEntity
  8
DIMENTION
100
AcDbBlockEnd
  0
BLOCK
  5
31A
100
AcDbEntity
  8
DIMENTION
100
AcDbBlockBegin
  2
*D50
 70
               1
 10
0.0
 20
0.0
 30
0.0
  3
*D50
  1

  0
LINE
  5
31B
100
AcDbEntity
  8
DIMENTION
 62
               0
100
AcDbLine
 10
690.39200000449728
 20
1590.000000003128
 30
0.0
 11
630.0
 21
1590.000000003128
 31
0.0
  0
LINE
  5
31C
100
AcDbEntity
  8
DIMENTION
 62
               0
100
AcDbLine
 10
690.39200000449728
 20
190.00000000312798
 30
0.0
 11
630.0
 21
190.00000000312798
 31
0.0
  0
LINE
  5
31D
100
AcDbEntity
  8
DIMENTION
 62
               0
100
AcDbLine
 10
650.0
 20
1590.000000003128
 30
0.0
 11
650.0
 21
190.00000000312798
 31
0.0
  0
LINE
  5
31E
100
AcDbEntity
  8
DIMENTION
 62
               0
100
AcDbLine
 10
650.0
 20
1590.000000003128
 30
0.0
 11
655.82805847858526
 21
1568.2493896515655
 31
0.0
  0
LINE
  5
31F
100
AcDbEntity
  8
DIMENTION
 62
               0
100
AcDbLine
 10
650.0
 20
1590.000000003128
 30
0.0
 11
644.17194152141474
 21
1568.2493896515655
 31
0.0
  0
LINE
  5
320
100
AcDbEntity
  8
DIMENTION
 62
               0
100
AcDbLine
 10
650.0
 20
190.00000000312798
 30
0.0
 11
644.17194152141474
 21
211.75061035469048
 31
0.0
  0
LINE
  5
321
100
AcDbEntity
  8
DIMENTION
 62
               0
100
AcDbLine
 10
650.0
 20
190.00000000312798
 30
0.0
 11
655.82805847858526
 21
211.75061035469048
 31
0.0
  0
MTEXT
  5
322
100
AcDbEntity
  8
DIMENTION
 62
               0
100
AcDbMText
 10
606.66666667039203
 20
847.66666666979472
 30
0.0
 40
33.866666666666667
 41
0.0
 71
               1
 72
               1
  1
1400
  7
________
 11
0.0
 21
1.0
 31
0.0
  0
POINT
  5
323
100
AcDbEntity
  8
DEFPOINTS
 62
               0
100
AcDbPoint
 10
700.39200000449728
 20
190.00000000312798
 30
0.0
  0
POINT
  5
324
100
AcDbEntity
  8
DEFPOINTS
 62
               0
100
AcDbPoint
 10
700.39200000449728
 20
1590.000000003128
 30
0.0
  0
POINT
  5
325
100
AcDbEntity
  8
DEFPOINTS
 62
               0
100
AcDbPoint
 10
650.0
 20
1590.000000003128
 30
0.0
  0
ENDBLK
  5
326
100
AcDbEntity
  8
DIMENTION
100
AcDbBlockEnd
  0
BLOCK
  5
327
100
AcDbEntity
  8
DIMENTION
100
AcDbBlockBegin
  2
*D51
 70
               1
 10
0.0
 20
0.0
 30
0.0
  3
*D51
  1

  0
LINE
  5
328
100
AcDbEntity
  8
DIMENTION
 62
               0
100
AcDbLine
 10
2048.3920000044973
 20
2045.0000000031278
 30
0.0
 11
2048.3920000044973
 21
1760.0000000031278
 31
0.0
  0
LINE
  5
329
100
AcDbEntity
  8
DIMENTION
 62
               0
100
AcDbLine
 10
2280.3920000044973
 20
1880.000000003128
 30
0.0
 11
2280.3920000044973
 21
1760.0000000031278
 31
0.0
  0
LINE
  5
32A
100
AcDbEntity
  8
DIMENTION
 62
               0
100
AcDbLine
 10
2048.3920000044973
 20
1780.0000000031278
 30
0.0
 11
2280.3920000044973
 21
1780.0000000031278
 31
0.0
  0
LINE
  5
32B
100
AcDbEntity
  8
DIMENTION
 62
               0
100
AcDbLine
 10
2048.3920000044973
 20
1780.0000000031278
 30
0.0
 11
2070.1426103560598
 21
1785.828058481713
 31
0.0
  0
LINE
  5
32C
100
AcDbEntity
  8
DIMENTION
 62
               0
100
AcDbLine
 10
2048.3920000044973
 20
1780.0000000031278
 30
0.0
 11
2070.1426103560598
 21
1774.1719415245427
 31
0.0
  0
LINE
  5
32D
100
AcDbEntity
  8
DIMENTION
 62
               0
100
AcDbLine
 10
2280.3920000044973
 20
1780.0000000031278
 30
0.0
 11
2258.6413896529348
 21
1774.1719415245427
 31
0.0
  0
LINE
  5
32E
100
AcDbEntity
  8
DIMENTION
 62
               0
100
AcDbLine
 10
2280.3920000044973
 20
1780.0000000031278
 30
0.0
 11
2258.6413896529348
 21
1785.828058481713
 31
0.0
  0
MTEXT
  5
32F
100
AcDbEntity
  8
DIMENTION
 62
               0
100
AcDbMText
 10
2132.6490800826223
 20
1823.3333333327359
 30
0.0
 40
33.866666666666667
 41
0.0
 71
               1
 72
               1
  1
230
  7
________
  0
POINT
  5
330
100
AcDbEntity
  8
DEFPOINTS
 62
               0
100
AcDbPoint
 10
2280.3920000044973
 20
1890.000000003128
 30
0.0
  0
POINT
  5
331
100
AcDbEntity
  8
DEFPOINTS
 62
               0
100
AcDbPoint
 10
2048.3920000044973
 20
2055.0000000031278
 30
0.0
  0
POINT
  5
332
100
AcDbEntity
  8
DEFPOINTS
 62
               0
100
AcDbPoint
 10
2048.3920000044973
 20
1780.0000000031278
 30
0.0
  0
ENDBLK
  5
333
100
AcDbEntity
  8
DIMENTION
100
AcDbBlockEnd
  0
BLOCK
  5
334
100
AcDbEntity
  8
DIMENTION
100
AcDbBlockBegin
  2
*D52
 70
               1
 10
0.0
 20
0.0
 30
0.0
  3
*D52
  1

  0
LINE
  5
335
100
AcDbEntity
  8
DIMENTION
 62
               0
100
AcDbLine
 10
1998.5468000044971
 20
2342.9998000031278
 30
0.0
 11
1998.5468000044971
 21
1760.000000003128
 31
0.0
  0
LINE
  5
336
100
AcDbEntity
  8
DIMENTION
 62
               0
100
AcDbLine
 10
2048.3920000044973
 20
2045.0000000031278
 30
0.0
 11
2048.3920000044973
 21
1760.000000003128
 31
0.0
  0
LINE
  5
337
100
AcDbEntity
  8
DIMENTION
 62
               0
100
AcDbLine
 10
2048.3920000044973
 20
1780.000000003128
 30
0.0
 11
1998.5468000044971
 21
1780.000000003128
 31
0.0
  0
LINE
  5
338
100
AcDbEntity
  8
DIMENTION
 62
               0
100
AcDbLine
 10
1998.5468000044971
 20
1780.000000003128
 30
0.0
 11
1958.5468000044971
 21
1780.000000003128
 31
0.0
  0
LINE
  5
339
100
AcDbEntity
  8
DIMENTION
 62
               0
100
AcDbLine
 10
1998.5468000044971
 20
1780.000000003128
 30
0.0
 11
1976.7961896529346
 21
1774.1719415245427
 31
0.0
  0
LINE
  5
33A
100
AcDbEntity
  8
DIMENTION
 62
               0
100
AcDbLine
 10
1998.5468000044971
 20
1780.000000003128
 30
0.0
 11
1976.7961896529346
 21
1785.8280584817132
 31
0.0
  0
LINE
  5
33B
100
AcDbEntity
  8
DIMENTION
 62
               0
100
AcDbLine
 10
2048.3920000044973
 20
1780.000000003128
 30
0.0
 11
2088.3920000044973
 21
1780.000000003128
 31
0.0
  0
LINE
  5
33C
100
AcDbEntity
  8
DIMENTION
 62
               0
100
AcDbLine
 10
2048.3920000044973
 20
1780.000000003128
 30
0.0
 11
2070.1426103560598
 21
1785.8280584817132
 31
0.0
  0
LINE
  5
33D
100
AcDbEntity
  8
DIMENTION
 62
               0
100
AcDbLine
 10
2048.3920000044973
 20
1780.000000003128
 30
0.0
 11
2070.1426103560598
 21
1774.1719415245427
 31
0.0
  0
MTEXT
  5
33E
100
AcDbEntity
  8
DIMENTION
 62
               0
100
AcDbMText
 10
2002.3027333378304
 20
1823.3333333327359
 30
0.0
 40
33.866666666666667
 41
0.0
 71
               1
 72
               1
  1
50
  7
________
  0
POINT
  5
33F
100
AcDbEntity
  8
DEFPOINTS
 62
               0
100
AcDbPoint
 10
2048.3920000044973
 20
2055.0000000031278
 30
0.0
  0
POINT
  5
340
100
AcDbEntity
  8
DEFPOINTS
 62
               0
100
AcDbPoint
 10
1998.5468000044971
 20
2352.9998000031278
 30
0.0
  0
POINT
  5
341
100
AcDbEntity
  8
DEFPOINTS
 62
               0
100
AcDbPoint
 10
1998.5468000044971
 20
1780.000000003128
 30
0.0
  0
ENDBLK
  5
342
100
AcDbEntity
  8
DIMENTION
100
AcDbBlockEnd
  0
BLOCK
  5
343
100
AcDbEntity
  8
DIMENTION
100
AcDbBlockBegin
  2
*D53
 70
               1
 10
0.0
 20
0.0
 30
0.0
  3
*D53
  1

  0
LINE
  5
344
100
AcDbEntity
  8
DIMENTION
 62
               0
100
AcDbLine
 10
2508.3920000044973
 20
2575.0000000031278
 30
0.0
 11
2508.3920000044973
 21
2669.0000000031278
 31
0.0
  0
LINE
  5
345
100
AcDbEntity
  8
DIMENTION
 62
               0
100
AcDbLine
 10
2332.3920000044973
 20
2575.0000000031278
 30
0.0
 11
2332.3920000044973
 21
2669.0000000031278
 31
0.0
  0
LINE
  5
346
100
AcDbEntity
  8
DIMENTION
 62
               0
100
AcDbLine
 10
2508.3920000044973
 20
2649.0000000031278
 30
0.0
 11
2332.3920000044973
 21
2649.0000000031278
 31
0.0
  0
LINE
  5
347
100
AcDbEntity
  8
DIMENTION
 62
               0
100
AcDbLine
 10
2508.3920000044973
 20
2649.0000000031278
 30
0.0
 11
2486.6413896529348
 21
2643.1719415245425
 31
0.0
  0
LINE
  5
348
100
AcDbEntity
  8
DIMENTION
 62
               0
100
AcDbLine
 10
2508.3920000044973
 20
2649.0000000031278
 30
0.0
 11
2486.6413896529348
 21
2654.828058481713
 31
0.0
  0
LINE
  5
349
100
AcDbEntity
  8
DIMENTION
 62
               0
100
AcDbLine
 10
2332.3920000044973
 20
2649.0000000031278
 30
0.0
 11
2354.1426103560598
 21
2654.828058481713
 31
0.0
  0
LINE
  5
34A
100
AcDbEntity
  8
DIMENTION
 62
               0
100
AcDbLine
 10
2332.3920000044973
 20
2649.0000000031278
 30
0.0
 11
2354.1426103560598
 21
2643.1719415245425
 31
0.0
  0
MTEXT
  5
34B
100
AcDbEntity
  8
DIMENTION
 62
               0
100
AcDbMText
 10
2388.6420000044973
 20
2692.3333333327359
 30
0.0
 40
33.866666666666667
 41
0.0
 71
               1
 72
               1
  1
176
  7
________
  0
POINT
  5
34C
100
AcDbEntity
  8
DEFPOINTS
 62
               0
100
AcDbPoint
 10
2332.3920000044973
 20
2565.0000000031278
 30
0.0
  0
POINT
  5
34D
100
AcDbEntity
  8
DEFPOINTS
 62
               0
100
AcDbPoint
 10
2508.3920000044973
 20
2565.0000000031278
 30
0.0
  0
POINT
  5
34E
100
AcDbEntity
  8
DEFPOINTS
 62
               0
100
AcDbPoint
 10
2508.3920000044973
 20
2649.0000000031278
 30
0.0
  0
ENDBLK
  5
34F
100
AcDbEntity
  8
DIMENTION
100
AcDbBlockEnd
  0
BLOCK
  5
350
100
AcDbEntity
  8
DIMENTION
100
AcDbBlockBegin
  2
*D54
 70
               1
 10
0.0
 20
0.0
 30
0.0
  3
*D54
  1

  0
LINE
  5
351
100
AcDbEntity
  8
DIMENTION
 62
               0
100
AcDbLine
 10
2870.3920000044973
 20
2523.0000000031278
 30
0.0
 11
2870.3920000044973
 21
2669.0000000031278
 31
0.0
  0
LINE
  5
352
100
AcDbEntity
  8
DIMENTION
 62
               0
100
AcDbLine
 10
2508.3920000044973
 20
2575.0000000031278
 30
0.0
 11
2508.3920000044973
 21
2669.0000000031278
 31
0.0
  0
LINE
  5
353
100
AcDbEntity
  8
DIMENTION
 62
               0
100
AcDbLine
 10
2870.3920000044973
 20
2649.0000000031278
 30
0.0
 11
2508.3920000044973
 21
2649.0000000031278
 31
0.0
  0
LINE
  5
354
100
AcDbEntity
  8
DIMENTION
 62
               0
100
AcDbLine
 10
2870.3920000044973
 20
2649.0000000031278
 30
0.0
 11
2848.6413896529348
 21
2643.1719415245425
 31
0.0
  0
LINE
  5
355
100
AcDbEntity
  8
DIMENTION
 62
               0
100
AcDbLine
 10
2870.3920000044973
 20
2649.0000000031278
 30
0.0
 11
2848.6413896529348
 21
2654.828058481713
 31
0.0
  0
LINE
  5
356
100
AcDbEntity
  8
DIMENTION
 62
               0
100
AcDbLine
 10
2508.3920000044973
 20
2649.0000000031278
 30
0.0
 11
2530.1426103560598
 21
2654.828058481713
 31
0.0
  0
LINE
  5
357
100
AcDbEntity
  8
DIMENTION
 62
               0
100
AcDbLine
 10
2508.3920000044973
 20
2649.0000000031278
 30
0.0
 11
2530.1426103560598
 21
2643.1719415245425
 31
0.0
  0
MTEXT
  5
358
100
AcDbEntity
  8
DIMENTION
 62
               0
100
AcDbMText
 10
2657.6420000044973
 20
2692.3333333327359
 30
0.0
 40
33.866666666666667
 41
0.0
 71
               1
 72
               1
  1
362
  7
________
  0
POINT
  5
359
100
AcDbEntity
  8
DEFPOINTS
 62
               0
100
AcDbPoint
 10
2508.3920000044973
 20
2565.0000000031278
 30
0.0
  0
POINT
  5
35A
100
AcDbEntity
  8
DEFPOINTS
 62
               0
100
AcDbPoint
 10
2870.3920000044973
 20
2513.0000000031278
 30
0.0
  0
POINT
  5
35B
100
AcDbEntity
  8
DEFPOINTS
 62
               0
100
AcDbPoint
 10
2870.3920000044973
 20
2649.0000000031278
 30
0.0
  0
ENDBLK
  5
35C
100
AcDbEntity
  8
DIMENTION
100
AcDbBlockEnd
  0
BLOCK
  5
35D
100
AcDbEntity
  8
OBJECT
100
AcDbBlockBegin
  2
*U55
 70
               1
 10
0.0
 20
0.0
 30
0.0
  3
*U55
  1

  0
LINE
  5
35E
100
AcDbEntity
  8
OBJECT
 62
               0
100
AcDbLine
 10
294.99199999999996
 20
121.0
 30
0.0
 11
294.99199999999996
 21
180.99999999999997
 31
0.0
  0
LINE
  5
35F
100
AcDbEntity
  8
OBJECT
 62
               0
100
AcDbLine
 10
494.99199999999996
 20
180.99999999999997
 30
0.0
 11
494.99199999999996
 21
121.0
 31
0.0
  0
LINE
  5
360
100
AcDbEntity
  8
OBJECT
 62
               0
100
AcDbLine
 10
294.99199999999996
 20
180.99999999999997
 30
0.0
 11
494.99199999999996
 21
180.99999999999997
 31
0.0
  0
ENDBLK
  5
361
100
AcDbEntity
  8
OBJECT
100
AcDbBlockEnd
  0
BLOCK
  5
362
100
AcDbEntity
  8
DIMENTION
100
AcDbBlockBegin
  2
*D56
 70
               1
 10
0.0
 20
0.0
 30
0.0
  3
*D56
  1

  0
LINE
  5
363
100
AcDbEntity
  8
DIMENTION
 62
               0
100
AcDbLine
 10
2530.3920000044973
 20
1590.000000003128
 30
0.0
 11
3799.4000000044971
 21
1590.000000003128
 31
0.0
  0
LINE
  5
364
100
AcDbEntity
  8
DIMENTION
 62
               0
100
AcDbLine
 10
3465.3920000044973
 20
1530.000000003128
 30
0.0
 11
3799.4000000044971
 21
1530.000000003128
 31
0.0
  0
LINE
  5
365
100
AcDbEntity
  8
DIMENTION
 62
               0
100
AcDbLine
 10
3779.4000000044971
 20
1530.000000003128
 30
0.0
 11
3779.4000000044971
 21
1590.000000003128
 31
0.0
  0
LINE
  5
366
100
AcDbEntity
  8
DIMENTION
 62
               0
100
AcDbLine
 10
3779.4000000044971
 20
1590.000000003128
 30
0.0
 11
3779.4000000044971
 21
1630.000000003128
 31
0.0
  0
LINE
  5
367
100
AcDbEntity
  8
DIMENTION
 62
               0
100
AcDbLine
 10
3779.4000000044971
 20
1590.000000003128
 30
0.0
 11
3773.5719415259118
 21
1611.7506103546905
 31
0.0
  0
LINE
  5
368
100
AcDbEntity
  8
DIMENTION
 62
               0
100
AcDbLine
 10
3779.4000000044971
 20
1590.000000003128
 30
0.0
 11
3785.2280584830823
 21
1611.7506103546905
 31
0.0
  0
LINE
  5
369
100
AcDbEntity
  8
DIMENTION
 62
               0
100
AcDbLine
 10
3779.4000000044971
 20
1530.000000003128
 30
0.0
 11
3779.4000000044971
 21
1490.000000003128
 31
0.0
  0
LINE
  5
36A
100
AcDbEntity
  8
DIMENTION
 62
               0
100
AcDbLine
 10
3779.4000000044971
 20
1530.000000003128
 30
0.0
 11
3785.2280584830823
 21
1508.2493896515655
 31
0.0
  0
LINE
  5
36B
100
AcDbEntity
  8
DIMENTION
 62
               0
100
AcDbLine
 10
3779.4000000044971
 20
1530.000000003128
 30
0.0
 11
3773.5719415259118
 21
1508.2493896515655
 31
0.0
  0
MTEXT
  5
36C
100
AcDbEntity
  8
DIMENTION
 62
               0
100
AcDbMText
 10
3736.0666666748884
 20
1538.8333333364612
 30
0.0
 40
33.866666666666667
 41
0.0
 71
               1
 72
               1
  1
60
  7
________
 11
0.0
 21
1.0
 31
0.0
  0
POINT
  5
36D
100
AcDbEntity
  8
DEFPOINTS
 62
               0
100
AcDbPoint
 10
3455.3920000044973
 20
1530.000000003128
 30
0.0
  0
POINT
  5
36E
100
AcDbEntity
  8
DEFPOINTS
 62
               0
100
AcDbPoint
 10
2520.3920000044973
 20
1590.000000003128
 30
0.0
  0
POINT
  5
36F
100
AcDbEntity
  8
DEFPOINTS
 62
               0
100
AcDbPoint
 10
3779.4000000044971
 20
1590.000000003128
 30
0.0
  0
ENDBLK
  5
370
100
AcDbEntity
  8
DIMENTION
100
AcDbBlockEnd
  0
BLOCK
  5
371
100
AcDbEntity
  8
CENTER
100
AcDbBlockBegin
  2
*U57
 70
               1
 10
0.0
 20
0.0
 30
0.0
  3
*U57
  1

  0
LINE
  5
372
100
AcDbEntity
  8
CENTER
 62
               0
100
AcDbLine
 10
459.99199999999996
 20
835.99999999999989
 30
0.0
 11
469.99199999999996
 21
835.99999999999989
 31
0.0
  0
LINE
  5
373
100
AcDbEntity
  8
CENTER
 62
               0
100
AcDbLine
 10
464.99199999999996
 20
830.99999999999989
 30
0.0
 11
464.99199999999996
 21
840.99999999999989
 31
0.0
  0
LINE
  5
374
100
AcDbEntity
  8
CENTER
 62
               0
100
AcDbLine
 10
389.99199999999996
 20
835.99999999999989
 30
0.0
 11
449.99199999999996
 21
835.99999999999989
 31
0.0
  0
LINE
  5
375
100
AcDbEntity
  8
CENTER
 62
               0
100
AcDbLine
 10
479.99199999999996
 20
835.99999999999989
 30
0.0
 11
539.99199999999996
 21
835.99999999999989
 31
0.0
  0
LINE
  5
376
100
AcDbEntity
  8
CENTER
 62
               0
100
AcDbLine
 10
464.99199999999996
 20
910.99999999999989
 30
0.0
 11
464.99199999999996
 21
850.99999999999989
 31
0.0
  0
LINE
  5
377
100
AcDbEntity
  8
CENTER
 62
               0
100
AcDbLine
 10
464.99199999999996
 20
820.99999999999989
 30
0.0
 11
464.99199999999996
 21
760.99999999999989
 31
0.0
  0
ENDBLK
  5
378
100
AcDbEntity
  8
CENTER
100
AcDbBlockEnd
  0
BLOCK
  5
379
100
AcDbEntity
  8
DIMENTION
100
AcDbBlockBegin
  2
*D58
 70
               1
 10
0.0
 20
0.0
 30
0.0
  3
*D58
  1

  0
LINE
  5
37A
100
AcDbEntity
  8
DIMENTION
 62
               0
100
AcDbLine
 10
2500.3920000044973
 20
2245.0000000031278
 30
0.0
 11
2605.4000000044971
 21
2245.0000000031278
 31
0.0
  0
LINE
  5
37B
100
AcDbEntity
  8
DIMENTION
 62
               0
100
AcDbLine
 10
2500.3920000044973
 20
2165.0000000031278
 30
0.0
 11
2605.4000000044971
 21
2165.0000000031278
 31
0.0
  0
LINE
  5
37C
100
AcDbEntity
  8
DIMENTION
 62
               0
100
AcDbLine
 10
2585.4000000044971
 20
2245.0000000031278
 30
0.0
 11
2585.4000000044971
 21
2165.0000000031278
 31
0.0
  0
LINE
  5
37D
100
AcDbEntity
  8
DIMENTION
 62
               0
100
AcDbLine
 10
2585.4000000044971
 20
2245.0000000031278
 30
0.0
 11
2591.2280584830823
 21
2223.2493896515653
 31
0.0
  0
LINE
  5
37E
100
AcDbEntity
  8
DIMENTION
 62
               0
100
AcDbLine
 10
2585.4000000044971
 20
2245.0000000031278
 30
0.0
 11
2579.5719415259118
 21
2223.2493896515653
 31
0.0
  0
LINE
  5
37F
100
AcDbEntity
  8
DIMENTION
 62
               0
100
AcDbLine
 10
2585.4000000044971
 20
2165.0000000031278
 30
0.0
 11
2579.5719415259118
 21
2186.7506103546903
 31
0.0
  0
LINE
  5
380
100
AcDbEntity
  8
DIMENTION
 62
               0
100
AcDbLine
 10
2585.4000000044971
 20
2165.0000000031278
 30
0.0
 11
2591.2280584830823
 21
2186.7506103546903
 31
0.0
  0
MTEXT
  5
381
100
AcDbEntity
  8
DIMENTION
 62
               0
100
AcDbMText
 10
2542.0666666748893
 20
2183.8333333364612
 30
0.0
 40
33.866666666666667
 41
0.0
 71
               1
 72
               1
  1
80
  7
________
 11
0.0
 21
1.0
 31
0.0
  0
POINT
  5
382
100
AcDbEntity
  8
DEFPOINTS
 62
               0
100
AcDbPoint
 10
2490.3920000044973
 20
2165.0000000031278
 30
0.0
  0
POINT
  5
383
100
AcDbEntity
  8
DEFPOINTS
 62
               0
100
AcDbPoint
 10
2490.3920000044973
 20
2245.0000000031278
 30
0.0
  0
POINT
  5
384
100
AcDbEntity
  8
DEFPOINTS
 62
               0
100
AcDbPoint
 10
2585.4000000044971
 20
2245.0000000031278
 30
0.0
  0
ENDBLK
  5
385
100
AcDbEntity
  8
DIMENTION
100
AcDbBlockEnd
  0
BLOCK
  5
386
100
AcDbEntity
  8
DIMENTION
100
AcDbBlockBegin
  2
*D59
 70
               1
 10
0.0
 20
0.0
 30
0.0
  3
*D59
  1

  0
LINE
  5
387
100
AcDbEntity
  8
DIMENTION
 62
               0
100
AcDbLine
 10
2041.392000004497
 20
2565.0000000031278
 30
0.0
 11
1903.392000004497
 21
2565.0000000031278
 31
0.0
  0
LINE
  5
388
100
AcDbEntity
  8
DIMENTION
 62
               0
100
AcDbLine
 10
2038.392000004497
 20
2165.0000000031278
 30
0.0
 11
1903.392000004497
 21
2165.0000000031278
 31
0.0
  0
LINE
  5
389
100
AcDbEntity
  8
DIMENTION
 62
               0
100
AcDbLine
 10
1923.392000004497
 20
2565.0000000031278
 30
0.0
 11
1923.392000004497
 21
2165.0000000031278
 31
0.0
  0
LINE
  5
38A
100
AcDbEntity
  8
DIMENTION
 62
               0
100
AcDbLine
 10
1923.392000004497
 20
2565.0000000031278
 30
0.0
 11
1929.2200584830823
 21
2543.2493896515653
 31
0.0
  0
LINE
  5
38B
100
AcDbEntity
  8
DIMENTION
 62
               0
100
AcDbLine
 10
1923.392000004497
 20
2565.0000000031278
 30
0.0
 11
1917.5639415259118
 21
2543.2493896515653
 31
0.0
  0
LINE
  5
38C
100
AcDbEntity
  8
DIMENTION
 62
               0
100
AcDbLine
 10
1923.392000004497
 20
2165.0000000031278
 30
0.0
 11
1917.5639415259118
 21
2186.7506103546903
 31
0.0
  0
LINE
  5
38D
100
AcDbEntity
  8
DIMENTION
 62
               0
100
AcDbLine
 10
1923.392000004497
 20
2165.0000000031278
 30
0.0
 11
1929.2200584830823
 21
2186.7506103546903
 31
0.0
  0
MTEXT
  5
38E
100
AcDbEntity
  8
DIMENTION
 62
               0
100
AcDbMText
 10
1880.0586666748891
 20
2333.2500000031278
 30
0.0
 40
33.866666666666667
 41
0.0
 71
               1
 72
               1
  1
400
  7
________
 11
0.0
 21
1.0
 31
0.0
  0
POINT
  5
38F
100
AcDbEntity
  8
DEFPOINTS
 62
               0
100
AcDbPoint
 10
2048.3920000044973
 20
2165.0000000031278
 30
0.0
  0
POINT
  5
390
100
AcDbEntity
  8
DEFPOINTS
 62
               0
100
AcDbPoint
 10
2051.3920000044973
 20
2565.0000000031278
 30
0.0
  0
POINT
  5
391
100
AcDbEntity
  8
DEFPOINTS
 62
               0
100
AcDbPoint
 10
1923.392000004497
 20
2565.0000000031278
 30
0.0
  0
ENDBLK
  5
392
100
AcDbEntity
  8
DIMENTION
100
AcDbBlockEnd
  0
BLOCK
  5
393
100
AcDbEntity
  8
OBJECT
100
AcDbBlockBegin
  2
*U60
 70
               1
 10
0.0
 20
0.0
 30
0.0
  3
*U60
  1

  0
LINE
  5
394
100
AcDbEntity
  8
OBJECT
  6
CONTINUOUS
 62
               0
100
AcDbLine
 10
1761.8023999999998
 20
-1033.9397999999999
 30
0.0
 11
1759.3489999999999
 21
-1034.0
 31
0.0
  0
LINE
  5
395
100
AcDbEntity
  8
OBJECT
  6
CONTINUOUS
 62
               0
100
AcDbLine
 10
1764.2505999999998
 20
-1033.7592
 30
0.0
 11
1761.8023999999998
 21
-1033.9397999999999
 31
0.0
  0
LINE
  5
396
100
AcDbEntity
  8
OBJECT
  6
CONTINUOUS
 62
               0
100
AcDbLine
 10
1766.6862999999998
 20
-1033.4586999999999
 30
0.0
 11
1764.2505999999998
 21
-1033.7592
 31
0.0
  0
LINE
  5
397
100
AcDbEntity
  8
OBJECT
  6
CONTINUOUS
 62
               0
100
AcDbLine
 10
1769.1049999999998
 20
-1033.0389999999998
 30
0.0
 11
1766.6862999999998
 21
-1033.4586999999999
 31
0.0
  0
LINE
  5
398
100
AcDbEntity
  8
OBJECT
  6
CONTINUOUS
 62
               0
100
AcDbLine
 10
1771.4994999999999
 20
-1032.5011999999999
 30
0.0
 11
1769.1049999999998
 21
-1033.0389999999998
 31
0.0
  0
LINE
  5
399
100
AcDbEntity
  8
OBJECT
  6
CONTINUOUS
 62
               0
100
AcDbLine
 10
1773.8654999999999
 20
-1031.8462999999999
 30
0.0
 11
1771.4994999999999
 21
-1032.5011999999999
 31
0.0
  0
LINE
  5
39A
100
AcDbEntity
  8
OBJECT
  6
CONTINUOUS
 62
               0
100
AcDbLine
 10
1776.1956999999998
 20
-1031.0763999999999
 30
0.0
 11
1773.8654999999999
 21
-1031.8462999999999
 31
0.0
  0
LINE
  5
39B
100
AcDbEntity
  8
OBJECT
  6
CONTINUOUS
 62
               0
100
AcDbLine
 10
1778.4860999999999
 20
-1030.1927999999998
 30
0.0
 11
1776.1956999999998
 21
-1031.0763999999999
 31
0.0
  0
LINE
  5
39C
100
AcDbEntity
  8
OBJECT
  6
CONTINUOUS
 62
               0
100
AcDbLine
 10
1780.7295999999999
 20
-1029.1981000000001
 30
0.0
 11
1778.4860999999999
 21
-1030.1927999999998
 31
0.0
  0
LINE
  5
39D
100
AcDbEntity
  8
OBJECT
  6
CONTINUOUS
 62
               0
100
AcDbLine
 10
1782.9223
 20
-1028.0942
 30
0.0
 11
1780.7295999999999
 21
-1029.1981000000001
 31
0.0
  0
LINE
  5
39E
100
AcDbEntity
  8
OBJECT
  6
CONTINUOUS
 62
               0
100
AcDbLine
 10
1785.0574999999999
 20
-1026.8843999999999
 30
0.0
 11
1782.9223
 21
-1028.0942
 31
0.0
  0
LINE
  5
39F
100
AcDbEntity
  8
OBJECT
  6
CONTINUOUS
 62
               0
100
AcDbLine
 10
1787.1313999999998
 20
-1025.5708999999999
 30
0.0
 11
1785.0574999999999
 21
-1026.8843999999999
 31
0.0
  0
LINE
  5
3A0
100
AcDbEntity
  8
OBJECT
  6
CONTINUOUS
 62
               0
100
AcDbLine
 10
1789.1376999999998
 20
-1024.1576
 30
0.0
 11
1787.1313999999998
 21
-1025.5708999999999
 31
0.0
  0
LINE
  5
3A1
100
AcDbEntity
  8
OBJECT
  6
CONTINUOUS
 62
               0
100
AcDbLine
 10
1791.0727999999999
 20
-1022.6470999999999
 30
0.0
 11
1789.1376999999998
 21
-1024.1576
 31
0.0
  0
LINE
  5
3A2
100
AcDbEntity
  8
OBJECT
  6
CONTINUOUS
 62
               0
100
AcDbLine
 10
1792.9309999999998
 20
-1021.0438999999999
 30
0.0
 11
1791.0727999999999
 21
-1022.6470999999999
 31
0.0
  0
LINE
  5
3A3
100
AcDbEntity
  8
OBJECT
  6
CONTINUOUS
 62
               0
100
AcDbLine
 10
1794.7085999999999
 20
-1019.3510999999999
 30
0.0
 11
1792.9309999999998
 21
-1021.0438999999999
 31
0.0
  0
LINE
  5
3A4
100
AcDbEntity
  8
OBJECT
  6
CONTINUOUS
 62
               0
100
AcDbLine
 10
1796.4005999999999
 20
-1017.5735
 30
0.0
 11
1794.7085999999999
 21
-1019.3510999999999
 31
0.0
  0
LINE
  5
3A5
100
AcDbEntity
  8
OBJECT
  6
CONTINUOUS
 62
               0
100
AcDbLine
 10
1798.0038
 20
-1015.7144
 30
0.0
 11
1796.4005999999999
 21
-1017.5735
 31
0.0
  0
LINE
  5
3A6
100
AcDbEntity
  8
OBJECT
  6
CONTINUOUS
 62
               0
100
AcDbLine
 10
1799.5133999999998
 20
-1013.7794999999999
 30
0.0
 11
1798.0038
 21
-1015.7144
 31
0.0
  0
LINE
  5
3A7
100
AcDbEntity
  8
OBJECT
  6
CONTINUOUS
 62
               0
100
AcDbLine
 10
1800.9266999999998
 20
-1011.7721999999999
 30
0.0
 11
1799.5133999999998
 21
-1013.7794999999999
 31
0.0
  0
LINE
  5
3A8
100
AcDbEntity
  8
OBJECT
  6
CONTINUOUS
 62
               0
100
AcDbLine
 10
1802.2392999999997
 20
-1009.6986999999999
 30
0.0
 11
1800.9266999999998
 21
-1011.7721999999999
 31
0.0
  0
LINE
  5
3A9
100
AcDbEntity
  8
OBJECT
  6
CONTINUOUS
 62
               0
100
AcDbLine
 10
1803.4489999999998
 20
-1007.5624999999999
 30
0.0
 11
1802.2392999999997
 21
-1009.6986999999999
 31
0.0
  0
LINE
  5
3AA
100
AcDbEntity
  8
OBJECT
  6
CONTINUOUS
 62
               0
100
AcDbLine
 10
1804.5519999999999
 20
-1005.3702
 30
0.0
 11
1803.4489999999998
 21
-1007.5624999999999
 31
0.0
  0
LINE
  5
3AB
100
AcDbEntity
  8
OBJECT
  6
CONTINUOUS
 62
               0
100
AcDbLine
 10
1805.5464999999999
 20
-1003.1257999999999
 30
0.0
 11
1804.5519999999999
 21
-1005.3702
 31
0.0
  0
LINE
  5
3AC
100
AcDbEntity
  8
OBJECT
  6
CONTINUOUS
 62
               0
100
AcDbLine
 10
1806.4292999999998
 20
-1000.8358999999999
 30
0.0
 11
1805.5464999999999
 21
-1003.1257999999999
 31
0.0
  0
LINE
  5
3AD
100
AcDbEntity
  8
OBJECT
  6
CONTINUOUS
 62
               0
100
AcDbLine
 10
1807.1988999999999
 20
-998.50479999999993
 30
0.0
 11
1806.4292999999998
 21
-1000.8358999999999
 31
0.0
  0
LINE
  5
3AE
100
AcDbEntity
  8
OBJECT
  6
CONTINUOUS
 62
               0
100
AcDbLine
 10
1807.8529999999998
 20
-996.13939999999991
 30
0.0
 11
1807.1988999999999
 21
-998.50479999999993
 31
0.0
  0
LINE
  5
3AF
100
AcDbEntity
  8
OBJECT
  6
CONTINUOUS
 62
               0
100
AcDbLine
 10
1808.3901999999998
 20
-993.74479999999994
 30
0.0
 11
1807.8529999999998
 21
-996.13939999999991
 31
0.0
  0
LINE
  5
3B0
100
AcDbEntity
  8
OBJECT
  6
CONTINUOUS
 62
               0
100
AcDbLine
 10
1808.8093999999999
 20
-991.32599999999991
 30
0.0
 11
1808.3901999999998
 21
-993.74479999999994
 31
0.0
  0
LINE
  5
3B1
100
AcDbEntity
  8
OBJECT
  6
CONTINUOUS
 62
               0
100
AcDbLine
 10
1809.1092999999998
 20
-988.89019999999994
 30
0.0
 11
1808.8093999999999
 21
-991.32599999999991
 31
0.0
  0
LINE
  5
3B2
100
AcDbEntity
  8
OBJECT
  6
CONTINUOUS
 62
               0
100
AcDbLine
 10
1809.2892999999999
 20
-986.44189999999992
 30
0.0
 11
1809.1092999999998
 21
-988.89019999999994
 31
0.0
  0
LINE
  5
3B3
100
AcDbEntity
  8
OBJECT
  6
CONTINUOUS
 62
               0
100
AcDbLine
 10
1809.3489999999999
 20
-983.99999999999989
 30
0.0
 11
1809.2892999999999
 21
-986.44189999999992
 31
0.0
  0
LINE
  5
3B4
100
AcDbEntity
  8
OBJECT
  6
CONTINUOUS
 62
               0
100
AcDbLine
 10
1809.3489999999999
 20
-833.99999999999989
 30
0.0
 11
1809.3489999999999
 21
-983.99999999999989
 31
0.0
  0
LINE
  5
3B5
100
AcDbEntity
  8
OBJECT
  6
CONTINUOUS
 62
               0
100
AcDbLine
 10
1797.6823999999999
 20
-833.99999999999989
 30
0.0
 11
1809.3489999999999
 21
-833.99999999999989
 31
0.0
  0
LINE
  5
3B6
100
AcDbEntity
  8
OBJECT
  6
CONTINUOUS
 62
               0
100
AcDbLine
 10
1797.6823999999999
 20
-984.69769999999994
 30
0.0
 11
1797.6823999999999
 21
-833.99999999999989
 31
0.0
  0
LINE
  5
3B7
100
AcDbEntity
  8
OBJECT
  6
CONTINUOUS
 62
               0
100
AcDbLine
 10
1797.6346999999998
 20
-986.65129999999988
 30
0.0
 11
1797.6823999999999
 21
-984.69769999999994
 31
0.0
  0
LINE
  5
3B8
100
AcDbEntity
  8
OBJECT
  6
CONTINUOUS
 62
               0
100
AcDbLine
 10
1797.4905999999999
 20
-988.60989999999993
 30
0.0
 11
1797.6346999999998
 21
-986.65129999999988
 31
0.0
  0
LINE
  5
3B9
100
AcDbEntity
  8
OBJECT
  6
CONTINUOUS
 62
               0
100
AcDbLine
 10
1797.2506999999998
 20
-990.55849999999987
 30
0.0
 11
1797.4905999999999
 21
-988.60989999999993
 31
0.0
  0
LINE
  5
3BA
100
AcDbEntity
  8
OBJECT
  6
CONTINUOUS
 62
               0
100
AcDbLine
 10
1796.9153999999999
 20
-992.49349999999993
 30
0.0
 11
1797.2506999999998
 21
-990.55849999999987
 31
0.0
  0
LINE
  5
3BB
100
AcDbEntity
  8
OBJECT
  6
CONTINUOUS
 62
               0
100
AcDbLine
 10
1796.4855999999997
 20
-994.40919999999994
 30
0.0
 11
1796.9153999999999
 21
-992.49349999999993
 31
0.0
  0
LINE
  5
3BC
100
AcDbEntity
  8
OBJECT
  6
CONTINUOUS
 62
               0
100
AcDbLine
 10
1795.9622999999999
 20
-996.30149999999992
 30
0.0
 11
1796.4855999999997
 21
-994.40919999999994
 31
0.0
  0
LINE
  5
3BD
100
AcDbEntity
  8
OBJECT
  6
CONTINUOUS
 62
               0
100
AcDbLine
 10
1795.3465999999999
 20
-998.16639999999995
 30
0.0
 11
1795.9622999999999
 21
-996.30149999999992
 31
0.0
  0
LINE
  5
3BE
100
AcDbEntity
  8
OBJECT
  6
CONTINUOUS
 62
               0
100
AcDbLine
 10
1794.6403999999998
 20
-999.99829999999986
 30
0.0
 11
1795.3465999999999
 21
-998.16639999999995
 31
0.0
  0
LINE
  5
3BF
100
AcDbEntity
  8
OBJECT
  6
CONTINUOUS
 62
               0
100
AcDbLine
 10
1793.8447999999999
 20
-1001.7938999999999
 30
0.0
 11
1794.6403999999998
 21
-999.99829999999986
 31
0.0
  0
LINE
  5
3C0
100
AcDbEntity
  8
OBJECT
  6
CONTINUOUS
 62
               0
100
AcDbLine
 10
1792.9623999999999
 20
-1003.5477
 30
0.0
 11
1793.8447999999999
 21
-1001.7938999999999
 31
0.0
  0
LINE
  5
3C1
100
AcDbEntity
  8
OBJECT
  6
CONTINUOUS
 62
               0
100
AcDbLine
 10
1791.9945999999998
 20
-1005.2565999999999
 30
0.0
 11
1792.9623999999999
 21
-1003.5477
 31
0.0
  0
LINE
  5
3C2
100
AcDbEntity
  8
OBJECT
  6
CONTINUOUS
 62
               0
100
AcDbLine
 10
1790.9444999999998
 20
-1006.9155
 30
0.0
 11
1791.9945999999998
 21
-1005.2565999999999
 31
0.0
  0
LINE
  5
3C3
100
AcDbEntity
  8
OBJECT
  6
CONTINUOUS
 62
               0
100
AcDbLine
 10
1789.8138999999999
 20
-1008.5212999999999
 30
0.0
 11
1790.9444999999998
 21
-1006.9155
 31
0.0
  0
LINE
  5
3C4
100
AcDbEntity
  8
OBJECT
  6
CONTINUOUS
 62
               0
100
AcDbLine
 10
1788.6062999999999
 20
-1010.0691999999999
 30
0.0
 11
1789.8138999999999
 21
-1008.5212999999999
 31
0.0
  0
LINE
  5
3C5
100
AcDbEntity
  8
OBJECT
  6
CONTINUOUS
 62
               0
100
AcDbLine
 10
1787.3236999999999
 20
-1011.5564999999999
 30
0.0
 11
1788.6062999999999
 21
-1010.0691999999999
 31
0.0
  0
LINE
  5
3C6
100
AcDbEntity
  8
OBJECT
  6
CONTINUOUS
 62
               0
100
AcDbLine
 10
1785.9700999999998
 20
-1012.9785999999999
 30
0.0
 11
1787.3236999999999
 21
-1011.5564999999999
 31
0.0
  0
LINE
  5
3C7
100
AcDbEntity
  8
OBJECT
  6
CONTINUOUS
 62
               0
100
AcDbLine
 10
1784.5479999999998
 20
-1014.3327999999999
 30
0.0
 11
1785.9700999999998
 21
-1012.9785999999999
 31
0.0
  0
LINE
  5
3C8
100
AcDbEntity
  8
OBJECT
  6
CONTINUOUS
 62
               0
100
AcDbLine
 10
1783.0614999999998
 20
-1015.6153999999999
 30
0.0
 11
1784.5479999999998
 21
-1014.3327999999999
 31
0.0
  0
LINE
  5
3C9
100
AcDbEntity
  8
OBJECT
  6
CONTINUOUS
 62
               0
100
AcDbLine
 10
1781.5133999999998
 20
-1016.8237999999999
 30
0.0
 11
1783.0614999999998
 21
-1015.6153999999999
 31
0.0
  0
LINE
  5
3CA
100
AcDbEntity
  8
OBJECT
  6
CONTINUOUS
 62
               0
100
AcDbLine
 10
1779.9082999999998
 20
-1017.9544
 30
0.0
 11
1781.5133999999998
 21
-1016.8237999999999
 31
0.0
  0
LINE
  5
3CB
100
AcDbEntity
  8
OBJECT
  6
CONTINUOUS
 62
               0
100
AcDbLine
 10
1778.2491999999997
 20
-1019.0051999999999
 30
0.0
 11
1779.9082999999998
 21
-1017.9544
 31
0.0
  0
LINE
  5
3CC
100
AcDbEntity
  8
OBJECT
  6
CONTINUOUS
 62
               0
100
AcDbLine
 10
1776.5409999999999
 20
-1019.9730999999999
 30
0.0
 11
1778.2491999999997
 21
-1019.0051999999999
 31
0.0
  0
LINE
  5
3CD
100
AcDbEntity
  8
OBJECT
  6
CONTINUOUS
 62
               0
100
AcDbLine
 10
1774.7868999999998
 20
-1020.8561999999999
 30
0.0
 11
1776.5409999999999
 21
-1019.9730999999999
 31
0.0
  0
LINE
  5
3CE
100
AcDbEntity
  8
OBJECT
  6
CONTINUOUS
 62
               0
100
AcDbLine
 10
1772.9919999999997
 20
-1021.6519
 30
0.0
 11
1774.7868999999998
 21
-1020.8561999999999
 31
0.0
  0
LINE
  5
3CF
100
AcDbEntity
  8
OBJECT
  6
CONTINUOUS
 62
               0
100
AcDbLine
 10
1771.1597999999999
 20
-1022.3587999999999
 30
0.0
 11
1772.9919999999997
 21
-1021.6519
 31
0.0
  0
LINE
  5
3D0
100
AcDbEntity
  8
OBJECT
  6
CONTINUOUS
 62
               0
100
AcDbLine
 10
1769.2955999999999
 20
-1022.9748
 30
0.0
 11
1771.1597999999999
 21
-1022.3587999999999
 31
0.0
  0
LINE
  5
3D1
100
AcDbEntity
  8
OBJECT
  6
CONTINUOUS
 62
               0
100
AcDbLine
 10
1767.4027999999998
 20
-1023.4985999999999
 30
0.0
 11
1769.2955999999999
 21
-1022.9748
 31
0.0
  0
LINE
  5
3D2
100
AcDbEntity
  8
OBJECT
  6
CONTINUOUS
 62
               0
100
AcDbLine
 10
1765.4871999999998
 20
-1023.9288999999999
 30
0.0
 11
1767.4027999999998
 21
-1023.4985999999999
 31
0.0
  0
LINE
  5
3D3
100
AcDbEntity
  8
OBJECT
  6
CONTINUOUS
 62
               0
100
AcDbLine
 10
1763.5521999999999
 20
-1024.2646999999999
 30
0.0
 11
1765.4871999999998
 21
-1023.9288999999999
 31
0.0
  0
LINE
  5
3D4
100
AcDbEntity
  8
OBJECT
  6
CONTINUOUS
 62
               0
100
AcDbLine
 10
1761.6036999999999
 20
-1024.5049999999999
 30
0.0
 11
1763.5521999999999
 21
-1024.2646999999999
 31
0.0
  0
LINE
  5
3D5
100
AcDbEntity
  8
OBJECT
  6
CONTINUOUS
 62
               0
100
AcDbLine
 10
1759.6451
 20
-1024.6495
 30
0.0
 11
1761.6036999999999
 21
-1024.5049999999999
 31
0.0
  0
LINE
  5
3D6
100
AcDbEntity
  8
OBJECT
  6
CONTINUOUS
 62
               0
100
AcDbLine
 10
1757.6823999999999
 20
-1024.6976999999999
 30
0.0
 11
1759.6451
 21
-1024.6495
 31
0.0
  0
ENDBLK
  5
3D7
100
AcDbEntity
  8
OBJECT
100
AcDbBlockEnd
  0
BLOCK
  5
3D8
100
AcDbEntity
  8
OBJECT
100
AcDbBlockBegin
  2
*U61
 70
               1
 10
0.0
 20
0.0
 30
0.0
  3
*U61
  1

  0
LINE
  5
3D9
100
AcDbEntity
  8
OBJECT
 62
               0
100
AcDbLine
 10
1380.992
 20
-968.99999999999989
 30
0.0
 11
1380.992
 21
-1179.0
 31
0.0
  0
LINE
  5
3DA
100
AcDbEntity
  8
OBJECT
 62
               0
100
AcDbLine
 10
1418.992
 20
-968.99999999999989
 30
0.0
 11
1418.992
 21
-1179.0
 31
0.0
  0
ENDBLK
  5
3DB
100
AcDbEntity
  8
OBJECT
100
AcDbBlockEnd
  0
BLOCK
  5
3DC
100
AcDbEntity
  8
OBJECT
100
AcDbBlockBegin
  2
*U62
 70
               1
 10
0.0
 20
0.0
 30
0.0
  3
*U62
  1

  0
LINE
  5
3DD
100
AcDbEntity
  8
OBJECT
 62
               0
100
AcDbLine
 10
270.99200000000008
 20
-968.99999999999989
 30
0.0
 11
270.99200000000008
 21
-1179.0
 31
0.0
  0
LINE
  5
3DE
100
AcDbEntity
  8
OBJECT
 62
               0
100
AcDbLine
 10
308.99200000000008
 20
-968.99999999999989
 30
0.0
 11
308.99200000000008
 21
-1179.0
 31
0.0
  0
ENDBLK
  5
3DF
100
AcDbEntity
  8
OBJECT
100
AcDbBlockEnd
  0
BLOCK
  5
3E0
100
AcDbEntity
  8
OBJECT
100
AcDbBlockBegin
  2
*U63
 70
               1
 10
0.0
 20
0.0
 30
0.0
  3
*U63
  1

  0
LINE
  5
3E1
100
AcDbEntity
  8
OBJECT
 62
               0
100
AcDbLine
 10
-649.00799999999981
 20
-969.0
 30
0.0
 11
-649.00799999999981
 21
-1179.0
 31
0.0
  0
LINE
  5
3E2
100
AcDbEntity
  8
OBJECT
 62
               0
100
AcDbLine
 10
-611.00799999999981
 20
-969.0
 30
0.0
 11
-611.00799999999981
 21
-1179.0
 31
0.0
  0
ENDBLK
  5
3E3
100
AcDbEntity
  8
OBJECT
100
AcDbBlockEnd
  0
BLOCK
  5
3E4
100
AcDbEntity
  8
OBJECT
100
AcDbBlockBegin
  2
*U64
 70
               1
 10
0.0
 20
0.0
 30
0.0
  3
*U64
  1

  0
LINE
  5
3E5
100
AcDbEntity
  8
OBJECT
 62
               0
100
AcDbLine
 10
-1239.0079999999998
 20
-1119.0
 30
0.0
 11
-1239.0079999999998
 21
-1179.0
 31
0.0
  0
LINE
  5
3E6
100
AcDbEntity
  8
OBJECT
 62
               0
100
AcDbLine
 10
-1201.0079999999998
 20
-1119.0
 30
0.0
 11
-1201.0079999999998
 21
-1179.0
 31
0.0
  0
ENDBLK
  5
3E7
100
AcDbEntity
  8
OBJECT
100
AcDbBlockEnd
  0
BLOCK
  5
3E8
100
AcDbEntity
  8
FRAME
100
AcDbBlockBegin
  2
*U65
 70
               1
 10
0.0
 20
0.0
 30
0.0
  3
*U65
  1

  0
ENDBLK
  5
3E9
100
AcDbEntity
  8
FRAME
100
AcDbBlockEnd
  0
BLOCK
  5
3EA
100
AcDbEntity
  8
FRAME
100
AcDbBlockBegin
  2
*U66
 70
               1
 10
0.0
 20
0.0
 30
0.0
  3
*U66
  1

  0
ENDBLK
  5
3EB
100
AcDbEntity
  8
FRAME
100
AcDbBlockEnd
  0
BLOCK
  5
3EC
100
AcDbEntity
  8
FRAME
100
AcDbBlockBegin
  2
*U67
 70
               1
 10
0.0
 20
0.0
 30
0.0
  3
*U67
  1

  0
ENDBLK
  5
3ED
100
AcDbEntity
  8
FRAME
100
AcDbBlockEnd
  0
BLOCK
  5
3EE
100
AcDbEntity
  8
FRAME
100
AcDbBlockBegin
  2
*U68
 70
               1
 10
0.0
 20
0.0
 30
0.0
  3
*U68
  1

  0
ENDBLK
  5
3EF
100
AcDbEntity
  8
FRAME
100
AcDbBlockEnd
  0
BLOCK
  5
3F0
100
AcDbEntity
  8
FRAME
100
AcDbBlockBegin
  2
*U69
 70
               1
 10
0.0
 20
0.0
 30
0.0
  3
*U69
  1

  0
ENDBLK
  5
3F1
100
AcDbEntity
  8
FRAME
100
AcDbBlockEnd
  0
BLOCK
  5
3F2
100
AcDbEntity
  8
FRAME
100
AcDbBlockBegin
  2
*U70
 70
               1
 10
0.0
 20
0.0
 30
0.0
  3
*U70
  1

  0
INSERT
  5
3F3
100
AcDbEntity
  8
FRAME
 62
               0
100
AcDbBlockReference
  2
*U65
 10
0.0
 20
0.0
 30
0.0
  0
INSERT
  5
3F4
100
AcDbEntity
  8
FRAME
 62
               0
100
AcDbBlockReference
  2
*U66
 10
0.0
 20
0.0
 30
0.0
  0
INSERT
  5
3F5
100
AcDbEntity
  8
FRAME
 62
               0
100
AcDbBlockReference
  2
*U67
 10
0.0
 20
0.0
 30
0.0
  0
INSERT
  5
3F6
100
AcDbEntity
  8
FRAME
 62
               0
100
AcDbBlockReference
  2
*U68
 10
0.0
 20
0.0
 30
0.0
  0
INSERT
  5
3F7
100
AcDbEntity
  8
FRAME
 62
               0
100
AcDbBlockReference
  2
*U69
 10
0.0
 20
0.0
 30
0.0
  0
POLYLINE
  5
3F8
100
AcDbEntity
  8
FRAME
 62
               0
100
AcDb2dPolyline
 66
               1
 10
0.0
 20
0.0
 30
0.0
 70
             129
  0
VERTEX
  5
3F9
100
AcDbEntity
  8
FRAME
 62
               0
100
AcDbVertex
100
AcDb2dVertex
 10
-1802.0774244513987
 20
-1321.307208978104
 30
0.0
  0
VERTEX
  5
3FA
100
AcDbEntity
  8
FRAME
 62
               0
100
AcDbVertex
100
AcDb2dVertex
 10
-1815.0380303353863
 20
-1321.307208978104
 30
0.0
  0
VERTEX
  5
3FB
100
AcDbEntity
  8
FRAME
 62
               0
100
AcDbVertex
100
AcDb2dVertex
 10
-1848.2527724214538
 20
-1321.307208978104
 30
0.0
  0
VERTEX
  5
3FC
100
AcDbEntity
  8
FRAME
 62
               0
100
AcDbVertex
100
AcDb2dVertex
 10
-1861.0383384047427
 20
-1321.307208978104
 30
0.0
  0
VERTEX
  5
3FD
100
AcDbEntity
  8
FRAME
 62
               0
100
AcDbVertex
100
AcDb2dVertex
 10
-1862.5918598649823
 20
-1321.307208978104
 30
0.0
  0
VERTEX
  5
3FE
100
AcDbEntity
  8
FRAME
 62
               0
100
AcDbVertex
100
AcDb2dVertex
 10
-1862.5918598649823
 20
-1378.9188146886893
 30
0.0
  0
VERTEX
  5
3FF
100
AcDbEntity
  8
FRAME
 62
               0
100
AcDbVertex
100
AcDb2dVertex
 10
-1848.2527724214538
 20
-1378.9188146886893
 30
0.0
  0
VERTEX
  5
400
100
AcDbEntity
  8
FRAME
 62
               0
100
AcDbVertex
100
AcDb2dVertex
 10
-1848.2527724214538
 20
-1376.0232783148861
 30
0.0
  0
VERTEX
  5
401
100
AcDbEntity
  8
FRAME
 62
               0
100
AcDbVertex
100
AcDb2dVertex
 10
-1815.0380303353863
 20
-1376.0232783148861
 30
0.0
  0
VERTEX
  5
402
100
AcDbEntity
  8
FRAME
 62
               0
100
AcDbVertex
100
AcDb2dVertex
 10
-1815.0380303353863
 20
-1378.9188146886893
 30
0.0
  0
VERTEX
  5
403
100
AcDbEntity
  8
FRAME
 62
               0
100
AcDbVertex
100
AcDb2dVertex
 10
-1800.7025948491469
 20
-1378.9188146886893
 30
0.0
  0
VERTEX
  5
404
100
AcDbEntity
  8
FRAME
 62
               0
100
AcDbVertex
100
AcDb2dVertex
 10
-1800.7025948491469
 20
-1321.307208978104
 30
0.0
  0
SEQEND
  5
405
100
AcDbEntity
  8
FRAME
 62
               0
  0
ENDBLK
  5
406
100
AcDbEntity
  8
FRAME
100
AcDbBlockEnd
  0
BLOCK
  5
407
100
AcDbEntity
  8
OBJECT
100
AcDbBlockBegin
  2
*U71
 70
               1
 10
0.0
 20
0.0
 30
0.0
  3
*U71
  1

  0
LINE
  5
408
100
AcDbEntity
  8
OBJECT
 62
               0
100
AcDbLine
 10
259.99199999999996
 20
121.00000000000006
 30
0.0
 11
139.99199999999996
 21
121.00000000000006
 31
0.0
  0
LINE
  5
409
100
AcDbEntity
  8
OBJECT
 62
               0
100
AcDbLine
 10
139.99199999999996
 20
121.00000000000006
 30
0.0
 11
139.99199999999996
 21
41.000000000000057
 31
0.0
  0
LINE
  5
40A
100
AcDbEntity
  8
OBJECT
 62
               0
100
AcDbLine
 10
259.99199999999996
 20
121.00000000000006
 30
0.0
 11
259.99199999999996
 21
-48.999999999999943
 31
0.0
  0
LINE
  5
40B
100
AcDbEntity
  8
OBJECT
 62
               0
100
AcDbLine
 10
139.99199999999996
 20
41.000000000000057
 30
0.0
 11
259.99199999999996
 21
-48.999999999999943
 31
0.0
  0
ENDBLK
  5
40C
100
AcDbEntity
  8
OBJECT
100
AcDbBlockEnd
  0
BLOCK
  5
40D
100
AcDbEntity
  8
OBJECT
100
AcDbBlockBegin
  2
*U72
 70
               1
 10
0.0
 20
0.0
 30
0.0
  3
*U72
  1

  0
LINE
  5
40E
100
AcDbEntity
  8
OBJECT
 62
               0
100
AcDbLine
 10
1429.992
 20
121.00000000000006
 30
0.0
 11
1549.992
 21
121.00000000000006
 31
0.0
  0
LINE
  5
40F
100
AcDbEntity
  8
OBJECT
 62
               0
100
AcDbLine
 10
1549.992
 20
121.00000000000006
 30
0.0
 11
1549.992
 21
41.000000000000057
 31
0.0
  0
LINE
  5
410
100
AcDbEntity
  8
OBJECT
 62
               0
100
AcDbLine
 10
1429.992
 20
121.00000000000006
 30
0.0
 11
1429.992
 21
-48.999999999999943
 31
0.0
  0
LINE
  5
411
100
AcDbEntity
  8
OBJECT
 62
               0
100
AcDbLine
 10
1549.992
 20
41.000000000000057
 30
0.0
 11
1429.992
 21
-48.999999999999943
 31
0.0
  0
ENDBLK
  5
412
100
AcDbEntity
  8
OBJECT
100
AcDbBlockEnd
  0
BLOCK
  5
413
100
AcDbEntity
  8
OUTLINE
100
AcDbBlockBegin
  2
*U73
 70
               1
 10
0.0
 20
0.0
 30
0.0
  3
*U73
  1

  0
LINE
  5
414
100
AcDbEntity
  8
OUTLINE
  6
STYLE_08
 62
               0
100
AcDbLine
 10
1599.992
 20
-98.999999904570188
 30
0.0
 11
1429.992
 21
-98.99999990456655
 31
0.0
  0
LINE
  5
415
100
AcDbEntity
  8
OUTLINE
  6
STYLE_08
 62
               0
100
AcDbLine
 10
1679.992
 20
-178.9999999045707
 30
0.0
 11
1599.992
 21
-98.999999904570188
 31
0.0
  0
LINE
  5
416
100
AcDbEntity
  8
OUTLINE
  6
STYLE_08
 62
               0
100
AcDbLine
 10
1679.992
 20
-398.99999999999994
 30
0.0
 11
1679.992
 21
-178.9999999045707
 31
0.0
  0
LINE
  5
417
100
AcDbEntity
  8
OUTLINE
  6
STYLE_08
 62
               0
100
AcDbLine
 10
1429.992
 20
-398.99999999999994
 30
0.0
 11
1429.992
 21
-98.99999990456655
 31
0.0
  0
LINE
  5
418
100
AcDbEntity
  8
OUTLINE
  6
STYLE_08
 62
               0
100
AcDbLine
 10
1599.992
 20
-98.999999904574281
 30
0.0
 11
1679.992
 21
-178.99999990457434
 31
0.0
  0
LINE
  5
419
100
AcDbEntity
  8
OUTLINE
  6
STYLE_08
 62
               0
100
AcDbLine
 10
1429.992
 20
-398.99999999999994
 30
0.0
 11
1679.992
 21
-398.99999999999994
 31
0.0
  0
ENDBLK
  5
41A
100
AcDbEntity
  8
OUTLINE
100
AcDbBlockEnd
  0
BLOCK
  5
41B
100
AcDbEntity
  8
OUTLINE
100
AcDbBlockBegin
  2
*U74
 70
               1
 10
0.0
 20
0.0
 30
0.0
  3
*U74
  1

  0
LINE
  5
41C
100
AcDbEntity
  8
OUTLINE
  6
STYLE_08
 62
               0
100
AcDbLine
 10
89.991999999999962
 20
-98.999999904570188
 30
0.0
 11
259.99199999999996
 21
-98.99999990456655
 31
0.0
  0
LINE
  5
41D
100
AcDbEntity
  8
OUTLINE
  6
STYLE_08
 62
               0
100
AcDbLine
 10
9.9919999999999618
 20
-178.9999999045707
 30
0.0
 11
89.991999999999962
 21
-98.999999904570188
 31
0.0
  0
LINE
  5
41E
100
AcDbEntity
  8
OUTLINE
  6
STYLE_08
 62
               0
100
AcDbLine
 10
9.9919999999999618
 20
-398.99999999999994
 30
0.0
 11
9.9919999999999618
 21
-178.9999999045707
 31
0.0
  0
LINE
  5
41F
100
AcDbEntity
  8
OUTLINE
  6
STYLE_08
 62
               0
100
AcDbLine
 10
259.99199999999996
 20
-398.99999999999994
 30
0.0
 11
259.99199999999996
 21
-98.99999990456655
 31
0.0
  0
LINE
  5
420
100
AcDbEntity
  8
OUTLINE
  6
STYLE_08
 62
               0
100
AcDbLine
 10
89.991999999999962
 20
-98.999999904574281
 30
0.0
 11
9.9919999999999618
 21
-178.99999990457434
 31
0.0
  0
LINE
  5
421
100
AcDbEntity
  8
OUTLINE
  6
STYLE_08
 62
               0
100
AcDbLine
 10
259.99199999999996
 20
-398.99999999999994
 30
0.0
 11
9.9919999999999618
 21
-398.99999999999994
 31
0.0
  0
ENDBLK
  5
422
100
AcDbEntity
  8
OUTLINE
100
AcDbBlockEnd
  0
BLOCK
  5
423
100
AcDbEntity
  8
DIMENTION
100
AcDbBlockBegin
  2
*D75
 70
               1
 10
0.0
 20
0.0
 30
0.0
  3
*D75
  1

  0
LINE
  5
424
100
AcDbEntity
  8
DIMENTION
 62
               0
100
AcDbLine
 10
2285.3920000044973
 20
1540.000000003128
 30
0.0
 11
2285.3920000044973
 21
1643.000000003128
 31
0.0
  0
LINE
  5
425
100
AcDbEntity
  8
DIMENTION
 62
               0
100
AcDbLine
 10
2165.3920000044973
 20
1540.000000003128
 30
0.0
 11
2165.3920000044973
 21
1643.000000003128
 31
0.0
  0
LINE
  5
426
100
AcDbEntity
  8
DIMENTION
 62
               0
100
AcDbLine
 10
2285.3920000044973
 20
1623.000000003128
 30
0.0
 11
2165.3920000044973
 21
1623.000000003128
 31
0.0
  0
LINE
  5
427
100
AcDbEntity
  8
DIMENTION
 62
               0
100
AcDbLine
 10
2285.3920000044973
 20
1623.000000003128
 30
0.0
 11
2263.6413896529348
 21
1617.1719415245427
 31
0.0
  0
LINE
  5
428
100
AcDbEntity
  8
DIMENTION
 62
               0
100
AcDbLine
 10
2285.3920000044973
 20
1623.000000003128
 30
0.0
 11
2263.6413896529348
 21
1628.8280584817132
 31
0.0
  0
LINE
  5
429
100
AcDbEntity
  8
DIMENTION
 62
               0
100
AcDbLine
 10
2165.3920000044973
 20
1623.000000003128
 30
0.0
 11
2187.1426103560598
 21
1628.8280584817132
 31
0.0
  0
LINE
  5
42A
100
AcDbEntity
  8
DIMENTION
 62
               0
100
AcDbLine
 10
2165.3920000044973
 20
1623.000000003128
 30
0.0
 11
2187.1426103560598
 21
1617.1719415245427
 31
0.0
  0
MTEXT
  5
42B
100
AcDbEntity
  8
DIMENTION
 62
               0
100
AcDbMText
 10
2193.6420000044973
 20
1666.3333333327359
 30
0.0
 40
33.866666666666667
 41
0.0
 71
               1
 72
               1
  1
120
  7
________
  0
POINT
  5
42C
100
AcDbEntity
  8
DEFPOINTS
 62
               0
100
AcDbPoint
 10
2165.3920000044973
 20
1530.000000003128
 30
0.0
  0
POINT
  5
42D
100
AcDbEntity
  8
DEFPOINTS
 62
               0
100
AcDbPoint
 10
2285.3920000044973
 20
1530.000000003128
 30
0.0
  0
POINT
  5
42E
100
AcDbEntity
  8
DEFPOINTS
 62
               0
100
AcDbPoint
 10
2285.3920000044973
 20
1623.000000003128
 30
0.0
  0
ENDBLK
  5
42F
100
AcDbEntity
  8
DIMENTION
100
AcDbBlockEnd
  0
BLOCK
  5
430
100
AcDbEntity
  8
DIMENTION
100
AcDbBlockBegin
  2
*D76
 70
               1
 10
0.0
 20
0.0
 30
0.0
  3
*D76
  1

  0
LINE
  5
431
100
AcDbEntity
  8
DIMENTION
 62
               0
100
AcDbLine
 10
3575.3920000044973
 20
1540.000000003128
 30
0.0
 11
3575.3920000044973
 21
1643.000000003128
 31
0.0
  0
LINE
  5
432
100
AcDbEntity
  8
DIMENTION
 62
               0
100
AcDbLine
 10
3455.3920000044973
 20
1540.000000003128
 30
0.0
 11
3455.3920000044973
 21
1643.000000003128
 31
0.0
  0
LINE
  5
433
100
AcDbEntity
  8
DIMENTION
 62
               0
100
AcDbLine
 10
3575.3920000044973
 20
1623.000000003128
 30
0.0
 11
3455.3920000044973
 21
1623.000000003128
 31
0.0
  0
LINE
  5
434
100
AcDbEntity
  8
DIMENTION
 62
               0
100
AcDbLine
 10
3575.3920000044973
 20
1623.000000003128
 30
0.0
 11
3553.6413896529348
 21
1617.1719415245427
 31
0.0
  0
LINE
  5
435
100
AcDbEntity
  8
DIMENTION
 62
               0
100
AcDbLine
 10
3575.3920000044973
 20
1623.000000003128
 30
0.0
 11
3553.6413896529348
 21
1628.8280584817132
 31
0.0
  0
LINE
  5
436
100
AcDbEntity
  8
DIMENTION
 62
               0
100
AcDbLine
 10
3455.3920000044973
 20
1623.000000003128
 30
0.0
 11
3477.1426103560598
 21
1628.8280584817132
 31
0.0
  0
LINE
  5
437
100
AcDbEntity
  8
DIMENTION
 62
               0
100
AcDbLine
 10
3455.3920000044973
 20
1623.000000003128
 30
0.0
 11
3477.1426103560598
 21
1617.1719415245427
 31
0.0
  0
MTEXT
  5
438
100
AcDbEntity
  8
DIMENTION
 62
               0
100
AcDbMText
 10
3483.6420000044973
 20
1666.3333333327359
 30
0.0
 40
33.866666666666667
 41
0.0
 71
               1
 72
               1
  1
120
  7
________
  0
POINT
  5
439
100
AcDbEntity
  8
DEFPOINTS
 62
               0
100
AcDbPoint
 10
3455.3920000044973
 20
1530.000000003128
 30
0.0
  0
POINT
  5
43A
100
AcDbEntity
  8
DEFPOINTS
 62
               0
100
AcDbPoint
 10
3575.3920000044973
 20
1530.000000003128
 30
0.0
  0
POINT
  5
43B
100
AcDbEntity
  8
DEFPOINTS
 62
               0
100
AcDbPoint
 10
3575.3920000044973
 20
1623.000000003128
 30
0.0
  0
ENDBLK
  5
43C
100
AcDbEntity
  8
DIMENTION
100
AcDbBlockEnd
  0
BLOCK
  5
43D
100
AcDbEntity
  8
DIMENTION
100
AcDbBlockBegin
  2
*D77
 70
               1
 10
0.0
 20
0.0
 30
0.0
  3
*D77
  1

  0
LINE
  5
43E
100
AcDbEntity
  8
DIMENTION
 62
               0
100
AcDbLine
 10
3585.3920000044973
 20
1530.000000003128
 30
0.0
 11
3709.3920000044973
 21
1530.000000003128
 31
0.0
  0
LINE
  5
43F
100
AcDbEntity
  8
DIMENTION
 62
               0
100
AcDbLine
 10
3585.3920000044973
 20
1450.000000003128
 30
0.0
 11
3709.3920000044973
 21
1450.000000003128
 31
0.0
  0
LINE
  5
440
100
AcDbEntity
  8
DIMENTION
 62
               0
100
AcDbLine
 10
3689.3920000044973
 20
1530.000000003128
 30
0.0
 11
3689.3920000044973
 21
1450.000000003128
 31
0.0
  0
LINE
  5
441
100
AcDbEntity
  8
DIMENTION
 62
               0
100
AcDbLine
 10
3689.3920000044973
 20
1530.000000003128
 30
0.0
 11
3695.2200584830825
 21
1508.2493896515655
 31
0.0
  0
LINE
  5
442
100
AcDbEntity
  8
DIMENTION
 62
               0
100
AcDbLine
 10
3689.3920000044973
 20
1530.000000003128
 30
0.0
 11
3683.563941525912
 21
1508.2493896515655
 31
0.0
  0
LINE
  5
443
100
AcDbEntity
  8
DIMENTION
 62
               0
100
AcDbLine
 10
3689.3920000044973
 20
1450.000000003128
 30
0.0
 11
3683.563941525912
 21
1471.7506103546905
 31
0.0
  0
LINE
  5
444
100
AcDbEntity
  8
DIMENTION
 62
               0
100
AcDbLine
 10
3689.3920000044973
 20
1450.000000003128
 30
0.0
 11
3695.2200584830825
 21
1471.7506103546905
 31
0.0
  0
MTEXT
  5
445
100
AcDbEntity
  8
DIMENTION
 62
               0
100
AcDbMText
 10
3646.0586666748886
 20
1468.8333333364615
 30
0.0
 40
33.866666666666667
 41
0.0
 71
               1
 72
               1
  1
80
  7
________
 11
0.0
 21
1.0
 31
0.0
  0
POINT
  5
446
100
AcDbEntity
  8
DEFPOINTS
 62
               0
100
AcDbPoint
 10
3575.3920000044973
 20
1450.000000003128
 30
0.0
  0
POINT
  5
447
100
AcDbEntity
  8
DEFPOINTS
 62
               0
100
AcDbPoint
 10
3575.3920000044973
 20
1530.000000003128
 30
0.0
  0
POINT
  5
448
100
AcDbEntity
  8
DEFPOINTS
 62
               0
100
AcDbPoint
 10
3689.3920000044973
 20
1530.000000003128
 30
0.0
  0
ENDBLK
  5
449
100
AcDbEntity
  8
DIMENTION
100
AcDbBlockEnd
  0
BLOCK
  5
44A
100
AcDbEntity
  8
DIMENTION
100
AcDbBlockBegin
  2
*D78
 70
               1
 10
0.0
 20
0.0
 30
0.0
  3
*D78
  1

  0
LINE
  5
44B
100
AcDbEntity
  8
DIMENTION
 62
               0
100
AcDbLine
 10
2025.392000004497
 20
1010.000000003128
 30
0.0
 11
1959.392000004497
 21
1010.000000003128
 31
0.0
  0
LINE
  5
44C
100
AcDbEntity
  8
DIMENTION
 62
               0
100
AcDbLine
 10
2105.3920000044973
 20
1310.0000000985578
 30
0.0
 11
1959.392000004497
 21
1310.0000000985578
 31
0.0
  0
LINE
  5
44D
100
AcDbEntity
  8
DIMENTION
 62
               0
100
AcDbLine
 10
1979.392000004497
 20
1010.000000003128
 30
0.0
 11
1979.392000004497
 21
1310.0000000985578
 31
0.0
  0
LINE
  5
44E
100
AcDbEntity
  8
DIMENTION
 62
               0
100
AcDbLine
 10
1979.392000004497
 20
1010.000000003128
 30
0.0
 11
1973.5639415259118
 21
1031.7506103546905
 31
0.0
  0
LINE
  5
44F
100
AcDbEntity
  8
DIMENTION
 62
               0
100
AcDbLine
 10
1979.392000004497
 20
1010.000000003128
 30
0.0
 11
1985.2200584830823
 21
1031.7506103546905
 31
0.0
  0
LINE
  5
450
100
AcDbEntity
  8
DIMENTION
 62
               0
100
AcDbLine
 10
1979.392000004497
 20
1310.0000000985578
 30
0.0
 11
1985.2200584830823
 21
1288.2493897469953
 31
0.0
  0
LINE
  5
451
100
AcDbEntity
  8
DIMENTION
 62
               0
100
AcDbLine
 10
1979.392000004497
 20
1310.0000000985578
 30
0.0
 11
1973.5639415259118
 21
1288.2493897469953
 31
0.0
  0
MTEXT
  5
452
100
AcDbEntity
  8
DIMENTION
 62
               0
100
AcDbMText
 10
1936.0586666748891
 20
1128.250000050843
 30
0.0
 40
33.866666666666667
 41
0.0
 71
               1
 72
               1
  1
300
  7
________
 11
0.0
 21
1.0
 31
0.0
  0
POINT
  5
453
100
AcDbEntity
  8
DEFPOINTS
 62
               0
100
AcDbPoint
 10
2115.3920000044973
 20
1310.0000000985578
 30
0.0
  0
POINT
  5
454
100
AcDbEntity
  8
DEFPOINTS
 62
               0
100
AcDbPoint
 10
2035.392000004497
 20
1010.000000003128
 30
0.0
  0
POINT
  5
455
100
AcDbEntity
  8
DEFPOINTS
 62
               0
100
AcDbPoint
 10
1979.392000004497
 20
1010.000000003128
 30
0.0
  0
ENDBLK
  5
456
100
AcDbEntity
  8
DIMENTION
100
AcDbBlockEnd
  0
BLOCK
  5
457
100
AcDbEntity
  8
DIMENTION
100
AcDbBlockBegin
  2
*D79
 70
               1
 10
0.0
 20
0.0
 30
0.0
  3
*D79
  1

  0
LINE
  5
458
100
AcDbEntity
  8
DIMENTION
 62
               0
100
AcDbLine
 10
2035.392000004497
 20
1240.0000000985538
 30
0.0
 11
2035.392000004497
 21
1372.0
 31
0.0
  0
LINE
  5
459
100
AcDbEntity
  8
DIMENTION
 62
               0
100
AcDbLine
 10
2285.3920000044973
 20
1320.0000000985615
 30
0.0
 11
2285.3920000044973
 21
1372.0
 31
0.0
  0
LINE
  5
45A
100
AcDbEntity
  8
DIMENTION
 62
               0
100
AcDbLine
 10
2035.392000004497
 20
1352.0
 30
0.0
 11
2285.3920000044973
 21
1352.0
 31
0.0
  0
LINE
  5
45B
100
AcDbEntity
  8
DIMENTION
 62
               0
100
AcDbLine
 10
2035.392000004497
 20
1352.0
 30
0.0
 11
2057.1426103560598
 21
1357.8280584785853
 31
0.0
  0
LINE
  5
45C
100
AcDbEntity
  8
DIMENTION
 62
               0
100
AcDbLine
 10
2035.392000004497
 20
1352.0
 30
0.0
 11
2057.1426103560598
 21
1346.171941521415
 31
0.0
  0
LINE
  5
45D
100
AcDbEntity
  8
DIMENTION
 62
               0
100
AcDbLine
 10
2285.3920000044973
 20
1352.0
 30
0.0
 11
2263.6413896529348
 21
1346.171941521415
 31
0.0
  0
LINE
  5
45E
100
AcDbEntity
  8
DIMENTION
 62
               0
100
AcDbLine
 10
2285.3920000044973
 20
1352.0
 30
0.0
 11
2263.6413896529348
 21
1357.8280584785853
 31
0.0
  0
MTEXT
  5
45F
100
AcDbEntity
  8
DIMENTION
 62
               0
100
AcDbMText
 10
2128.6420000044973
 20
1395.3333333296082
 30
0.0
 40
33.866666666666667
 41
0.0
 71
               1
 72
               1
  1
250
  7
________
  0
POINT
  5
460
100
AcDbEntity
  8
DEFPOINTS
 62
               0
100
AcDbPoint
 10
2285.3920000044973
 20
1310.0000000985615
 30
0.0
  0
POINT
  5
461
100
AcDbEntity
  8
DEFPOINTS
 62
               0
100
AcDbPoint
 10
2035.392000004497
 20
1230.0000000985538
 30
0.0
  0
POINT
  5
462
100
AcDbEntity
  8
DEFPOINTS
 62
               0
100
AcDbPoint
 10
2035.392000004497
 20
1352.0
 30
0.0
  0
ENDBLK
  5
463
100
AcDbEntity
  8
DIMENTION
100
AcDbBlockEnd
  0
BLOCK
  5
464
100
AcDbEntity
  8
DIMENTION
100
AcDbBlockBegin
  2
*D80
 70
               1
 10
0.0
 20
0.0
 30
0.0
  3
*D80
  1

  0
LINE
  5
465
100
AcDbEntity
  8
DIMENTION
 62
               0
100
AcDbLine
 10
1952.392000004497
 20
1010.000000003128
 30
0.0
 11
1852.9999999999998
 21
1010.000000003128
 31
0.0
  0
LINE
  5
466
100
AcDbEntity
  8
DIMENTION
 62
               0
100
AcDbLine
 10
1952.392000004497
 20
990.00000000312798
 30
0.0
 11
1852.9999999999998
 21
990.00000000312798
 31
0.0
  0
LINE
  5
467
100
AcDbEntity
  8
DIMENTION
 62
               0
100
AcDbLine
 10
1872.9999999999998
 20
990.00000000312798
 30
0.0
 11
1872.9999999999998
 21
1010.000000003128
 31
0.0
  0
LINE
  5
468
100
AcDbEntity
  8
DIMENTION
 62
               0
100
AcDbLine
 10
1872.9999999999998
 20
1010.000000003128
 30
0.0
 11
1872.9999999999998
 21
1197.8800005382961
 31
0.0
  0
LINE
  5
469
100
AcDbEntity
  8
DIMENTION
 62
               0
100
AcDbLine
 10
1872.9999999999998
 20
1010.000000003128
 30
0.0
 11
1867.1719415214145
 21
1031.7506103546905
 31
0.0
  0
LINE
  5
46A
100
AcDbEntity
  8
DIMENTION
 62
               0
100
AcDbLine
 10
1872.9999999999998
 20
1010.000000003128
 30
0.0
 11
1878.828058478585
 21
1031.7506103546905
 31
0.0
  0
LINE
  5
46B
100
AcDbEntity
  8
DIMENTION
 62
               0
100
AcDbLine
 10
1872.9999999999998
 20
990.00000000312798
 30
0.0
 11
1872.9999999999998
 21
950.00000000312798
 31
0.0
  0
LINE
  5
46C
100
AcDbEntity
  8
DIMENTION
 62
               0
100
AcDbLine
 10
1872.9999999999998
 20
990.00000000312798
 30
0.0
 11
1878.828058478585
 21
968.24938965156548
 31
0.0
  0
LINE
  5
46D
100
AcDbEntity
  8
DIMENTION
 62
               0
100
AcDbLine
 10
1872.9999999999998
 20
990.00000000312798
 30
0.0
 11
1867.1719415214145
 21
968.24938965156548
 31
0.0
  0
MTEXT
  5
46E
100
AcDbEntity
  8
DIMENTION
 62
               0
100
AcDbMText
 10
1829.6666666703918
 20
1015.0
 30
0.0
 40
33.866666666666667
 41
0.0
 71
               1
 72
               1
  1
　　20～30
  7
________
 11
0.0
 21
1.0
 31
0.0
  0
POINT
  5
46F
100
AcDbEntity
  8
DEFPOINTS
 62
               0
100
AcDbPoint
 10
1962.392000004497
 20
990.00000000312798
 30
0.0
  0
POINT
  5
470
100
AcDbEntity
  8
DEFPOINTS
 62
               0
100
AcDbPoint
 10
1962.392000004497
 20
1010.000000003128
 30
0.0
  0
POINT
  5
471
100
AcDbEntity
  8
DEFPOINTS
 62
               0
100
AcDbPoint
 10
1872.9999999999998
 20
1010.000000003128
 30
0.0
  0
ENDBLK
  5
472
100
AcDbEntity
  8
DIMENTION
100
AcDbBlockEnd
  0
BLOCK
  5
473
100
AcDbEntity
  8
DIMENTION
100
AcDbBlockBegin
  2
*D81
 70
               1
 10
0.0
 20
0.0
 30
0.0
  3
*D81
  1

  0
LINE
  5
474
100
AcDbEntity
  8
DIMENTION
 62
               0
100
AcDbLine
 10
2475.3920000044973
 20
2575.0000000031278
 30
0.0
 11
3011.0
 21
2575.0000000031278
 31
0.0
  0
LINE
  5
475
100
AcDbEntity
  8
DIMENTION
 62
               0
100
AcDbLine
 10
2475.3920000044973
 20
2595.0000000031278
 30
0.0
 11
3011.0
 21
2595.0000000031278
 31
0.0
  0
LINE
  5
476
100
AcDbEntity
  8
DIMENTION
 62
               0
100
AcDbLine
 10
2991.0
 20
2595.0000000031278
 30
0.0
 11
2991.0
 21
2575.0000000031278
 31
0.0
  0
LINE
  5
477
100
AcDbEntity
  8
DIMENTION
 62
               0
100
AcDbLine
 10
2991.0
 20
2575.0000000031278
 30
0.0
 11
2991.0
 21
2535.0000000031278
 31
0.0
  0
LINE
  5
478
100
AcDbEntity
  8
DIMENTION
 62
               0
100
AcDbLine
 10
2991.0
 20
2575.0000000031278
 30
0.0
 11
2996.8280584785853
 21
2553.2493896515653
 31
0.0
  0
LINE
  5
479
100
AcDbEntity
  8
DIMENTION
 62
               0
100
AcDbLine
 10
2991.0
 20
2575.0000000031278
 30
0.0
 11
2985.1719415214147
 21
2553.2493896515653
 31
0.0
  0
LINE
  5
47A
100
AcDbEntity
  8
DIMENTION
 62
               0
100
AcDbLine
 10
2991.0
 20
2595.0000000031278
 30
0.0
 11
2991.0
 21
2715.333333333333
 31
0.0
  0
LINE
  5
47B
100
AcDbEntity
  8
DIMENTION
 62
               0
100
AcDbLine
 10
2991.0
 20
2595.0000000031278
 30
0.0
 11
2985.1719415214147
 21
2616.7506103546903
 31
0.0
  0
LINE
  5
47C
100
AcDbEntity
  8
DIMENTION
 62
               0
100
AcDbLine
 10
2991.0
 20
2595.0000000031278
 30
0.0
 11
2996.8280584785853
 21
2616.7506103546903
 31
0.0
  0
MTEXT
  5
47D
100
AcDbEntity
  8
DIMENTION
 62
               0
100
AcDbMText
 10
2947.6666666703923
 20
2609.5
 30
0.0
 40
33.866666666666667
 41
0.0
 71
               1
 72
               1
  1
0以上
  7
________
 11
0.0
 21
1.0
 31
0.0
  0
POINT
  5
47E
100
AcDbEntity
  8
DEFPOINTS
 62
               0
100
AcDbPoint
 10
2465.3920000044973
 20
2595.0000000031278
 30
0.0
  0
POINT
  5
47F
100
AcDbEntity
  8
DEFPOINTS
 62
               0
100
AcDbPoint
 10
2465.3920000044973
 20
2575.0000000031278
 30
0.0
  0
POINT
  5
480
100
AcDbEntity
  8
DEFPOINTS
 62
               0
100
AcDbPoint
 10
2991.0
 20
2575.0000000031278
 30
0.0
  0
ENDBLK
  5
481
100
AcDbEntity
  8
DIMENTION
100
AcDbBlockEnd
  0
ENDSEC
  0
SECTION
  2
ENTITIES
  0
LINE
  5
482
100
AcDbEntity
  8
FRAME
  6
CONTINUOUS
100
AcDbLine
 10
0.0000000044972239
 20
0.000000003128207
 30
0.0
 11
0.0000000044972239
 21
2720.0000000031278
 31
0.0
  0
LINE
  5
483
100
AcDbEntity
  8
FRAME
  6
CONTINUOUS
100
AcDbLine
 10
4050.000000004497
 20
0.000000003128207
 30
0.0
 11
0.0000000044972239
 21
0.000000003128207
 31
0.0
  0
LINE
  5
484
100
AcDbEntity
  8
FRAME
  6
CONTINUOUS
100
AcDbLine
 10
4050.000000004497
 20
2720.0000000031278
 30
0.0
 11
4050.000000004497
 21
0.000000003128207
 31
0.0
  0
LINE
  5
485
100
AcDbEntity
  8
FRAME
  6
CONTINUOUS
100
AcDbLine
 10
0.0000000044972239
 20
2720.0000000031278
 30
0.0
 11
4050.000000004497
 21
2720.0000000031278
 31
0.0
  0
LINE
  5
486
100
AcDbEntity
  8
FRAME
  6
CONTINUOUS
100
AcDbLine
 10
3300.000000004497
 20
0.000000003128207
 30
0.0
 11
3300.000000004497
 21
140.00000000312798
 31
0.0
  0
LINE
  5
487
100
AcDbEntity
  8
FRAME
  6
CONTINUOUS
100
AcDbLine
 10
3080.000000004497
 20
0.000000003128207
 30
0.0
 11
3080.000000004497
 21
140.00000000312798
 31
0.0
  0
LINE
  5
488
100
AcDbEntity
  8
FRAME
  6
CONTINUOUS
100
AcDbLine
 10
2280.000000004497
 20
0.000000003128207
 30
0.0
 11
2280.000000004497
 21
140.00000000312798
 31
0.0
  0
LINE
  5
489
100
AcDbEntity
  8
FRAME
  6
CONTINUOUS
100
AcDbLine
 10
1240.000000004497
 20
0.000000003128207
 30
0.0
 11
1240.000000004497
 21
140.00000000312798
 31
0.0
  0
MTEXT
  5
48A
100
AcDbEntity
  8
TEXT
100
AcDbMText
 10
1254.7600000044972
 20
134.8700000031281
 30
0.0
 40
28.222222222222225
 41
109.36099999999999
 71
               1
 72
               1
  1
品　名
  7
________
  0
MTEXT
  5
48B
100
AcDbEntity
  8
TEXT
100
AcDbMText
 10
2299.7600000044972
 20
129.8700000031281
 30
0.0
 40
28.2224
 41
0.0
 71
               1
 72
               1
  1
形　式
  7
________
  0
MTEXT
  5
48C
100
AcDbEntity
  8
TEXT
100
AcDbMText
 10
3104.7600000044968
 20
129.8700000031281
 30
0.0
 40
28.2224
 41
0.0
 71
               1
 72
               1
  1
尺　度
  7
________
  0
MTEXT
  5
48D
100
AcDbEntity
  8
TEXT
100
AcDbMText
 10
3334.7600000044968
 20
129.8700000031281
 30
0.0
 40
28.2224
 41
0.0
 71
               1
 72
               1
  1
図　番
  7
________
  0
LINE
  5
48E
100
AcDbEntity
  8
FRAME
  6
CONTINUOUS
100
AcDbLine
 10
820.00000000449722
 20
0.000000003128207
 30
0.0
 11
820.00000000449722
 21
140.00000000312798
 31
0.0
  0
LINE
  5
48F
100
AcDbEntity
  8
FRAME
  6
CONTINUOUS
100
AcDbLine
 10
0.0000000044972239
 20
140.00000000312798
 30
0.0
 11
4050.000000004497
 21
140.00000000312798
 31
0.0
  0
MTEXT
  5
490
100
AcDbEntity
  8
TEXT
100
AcDbMText
 10
829.76000000449721
 20
131.89120000312801
 30
0.0
 40
28.222222222222225
 41
0.0
 71
               1
 72
               1
  1
検  図
  7
________
  0
MTEXT
  5
491
100
AcDbEntity
  8
TEXT
100
AcDbMText
 10
829.76000000449721
 20
86.810000003128152
 30
0.0
 40
28.222222222222225
 41
0.0
 71
               1
 72
               1
  1
担  当
  7
________
  0
MTEXT
  5
492
100
AcDbEntity
  8
TEXT
100
AcDbMText
 10
829.76000000449721
 20
41.940000003128034
 30
0.0
 40
28.222222222222225
 41
0.0
 71
               1
 72
               1
  1
年月日
  7
________
  0
MTEXT
  5
493
100
AcDbEntity
  8
TEXT
100
AcDbMText
 10
1807.211000004497
 20
96.082000003128087
 30
0.0
 40
50.799999999999997
 41
0.0
 71
               1
 72
               1
  1
自動食器洗浄機
  7
________
  0
LINE
  5
494
100
AcDbEntity
  8
FRAME
  6
CONTINUOUS
100
AcDbLine
 10
820.00000000449722
 20
91.0
 30
0.0
 11
1240.000000004497
 21
91.0
 31
0.0
  0
LINE
  5
495
100
AcDbEntity
  8
FRAME
  6
CONTINUOUS
100
AcDbLine
 10
820.00000000449722
 20
46.670000003128052
 30
0.0
 11
1240.000000004497
 21
46.670000003128052
 31
0.0
  0
MTEXT
  5
496
100
AcDbEntity
  8
DIMENTION
100
AcDbMText
 10
3734.8333333333335
 20
921.29073280129319
 30
0.0
 40
33.866666666666667
 41
0.0
 71
               1
 72
               1
  1
（ドア開放時1720）
  7
________
 11
0.0
 21
1.0
 31
0.0
  0
INSERT
  5
497
100
AcDbEntity
  8
OBJECT
100
AcDbBlockReference
  2
*U1
 10
2025.4000000044971
 20
1409.000000003128
 30
0.0
  0
DIMENSION
  5
498
100
AcDbEntity
  8
DIMENTION
100
AcDbDimension
  2
*D2
 10
1923.392000004497
 20
2165.0000000031278
 30
0.0
 11
1923.392000004497
 21
2075.0000000031278
 31
0.0
  3
CAD
100
AcDbAlignedDimension
 13
2238.3920000044973
 23
1985.000000003128
 33
0.0
 14
2048.3920000044973
 24
2165.0000000031278
 34
0.0
 50
90.0
100
AcDbRotatedDimension
1001
ACAD
1000
DSTYLE
1002
{
1070
             271
1070
               0
1070
             340
1005
6F
1070
             147
1040
0.9999999962747097
1002
}
  0
DIMENSION
  5
499
100
AcDbEntity
  8
DIMENTION
100
AcDbDimension
  2
*D3
 10
1971.392000004497
 20
2075.0000000031278
 30
0.0
 11
1971.392000004497
 21
2120.0000000031278
 31
0.0
  3
CAD
100
AcDbAlignedDimension
 13
2280.3920000044973
 23
2165.0000000031278
 33
0.0
 14
2238.3920000044973
 24
2075.0000000031278
 34
0.0
 50
90.0
100
AcDbRotatedDimension
1001
ACAD
1000
DSTYLE
1002
{
1070
             271
1070
               0
1070
             340
1005
6F
1070
             147
1040
0.9999999962747097
1002
}
  0
DIMENSION
  5
49A
100
AcDbEntity
  8
DIMENTION
100
AcDbDimension
  2
*D4
 10
2238.3920000044973
 20
1824.0000000031278
 30
0.0
 11
2213.3920000044973
 21
1824.9999999994025
 31
0.0
 70
             128
  1
40
  3
CAD
100
AcDbAlignedDimension
 13
2280.3920000044973
 23
1835.000000003128
 33
0.0
 14
2238.3920000044973
 24
2075.0000000031278
 34
0.0
100
AcDbRotatedDimension
1001
ACAD
1000
DSTYLE
1002
{
1070
             271
1070
               0
1070
             340
1005
6F
1070
             174
1070
               0
1070
             147
1040
0.9999999962747097
1002
}
  0
POLYLINE
  5
49B
100
AcDbEntity
  8
OBJECT
100
AcDb2dPolyline
 66
               1
 10
0.0
 20
0.0
 30
0.0
 70
               1
 75
               5
  0
VERTEX
  5
49C
100
AcDbEntity
  8
OBJECT
100
AcDbVertex
100
AcDb2dVertex
 10
2285.3920000044973
 20
1530.000000003128
 30
0.0
  0
VERTEX
  5
49D
100
AcDbEntity
  8
OBJECT
100
AcDbVertex
100
AcDb2dVertex
 10
3455.3920000044973
 20
1530.000000003128
 30
0.0
  0
VERTEX
  5
49E
100
AcDbEntity
  8
OBJECT
100
AcDbVertex
100
AcDb2dVertex
 10
3455.3920000044973
 20
990.00000000312798
 30
0.0
  0
VERTEX
  5
49F
100
AcDbEntity
  8
OBJECT
100
AcDbVertex
100
AcDb2dVertex
 10
2285.3920000044973
 20
990.00000000312798
 30
0.0
  0
SEQEND
  5
4A0
100
AcDbEntity
  8
OBJECT
  0
POLYLINE
  5
4A1
100
AcDbEntity
  8
OBJECT
100
AcDb2dPolyline
 66
               1
 10
0.0
 20
0.0
 30
0.0
 70
             129
  0
VERTEX
  5
4A2
100
AcDbEntity
  8
OBJECT
100
AcDbVertex
100
AcDb2dVertex
 10
3478.3920000044973
 20
990.00000000312798
 30
0.0
  0
VERTEX
  5
4A3
100
AcDbEntity
  8
OBJECT
100
AcDbVertex
100
AcDb2dVertex
 10
2262.3920000044973
 20
990.00000000312798
 30
0.0
  0
VERTEX
  5
4A4
100
AcDbEntity
  8
OBJECT
100
AcDbVertex
100
AcDb2dVertex
 10
2262.3920000044973
 20
980.00000000312798
 30
0.0
 42
0.4142135623730934
 70
               2
  0
VERTEX
  5
4A5
100
AcDbEntity
  8
OBJECT
100
AcDbVertex
100
AcDb2dVertex
 10
2267.3920000044973
 20
975.00000000312798
 30
0.0
  0
VERTEX
  5
4A6
100
AcDbEntity
  8
OBJECT
100
AcDbVertex
100
AcDb2dVertex
 10
3473.3920000044973
 20
975.00000000312798
 30
0.0
 42
0.4142135623730984
 70
               2
 50
3.1191399769264294E+17
  0
VERTEX
  5
4A7
100
AcDbEntity
  8
OBJECT
100
AcDbVertex
100
AcDb2dVertex
 10
3478.3920000044973
 20
980.00000000312798
 30
0.0
  0
SEQEND
  5
4A8
100
AcDbEntity
  8
OBJECT
  0
POLYLINE
  5
4A9
100
AcDbEntity
  8
OBJECT
100
AcDb2dPolyline
 66
               1
 10
0.0
 20
0.0
 30
0.0
 70
               1
 75
               5
  0
VERTEX
  5
4AA
100
AcDbEntity
  8
OBJECT
100
AcDbVertex
100
AcDb2dVertex
 10
2280.3920000044973
 20
975.00000000312798
 30
0.0
  0
VERTEX
  5
4AB
100
AcDbEntity
  8
OBJECT
100
AcDbVertex
100
AcDb2dVertex
 10
3460.3920000044973
 20
975.00000000312798
 30
0.0
  0
VERTEX
  5
4AC
100
AcDbEntity
  8
OBJECT
100
AcDbVertex
100
AcDb2dVertex
 10
3460.3920000044973
 20
440.00000000312809
 30
0.0
  0
VERTEX
  5
4AD
100
AcDbEntity
  8
OBJECT
100
AcDbVertex
100
AcDb2dVertex
 10
2280.3920000044973
 20
440.00000000312809
 30
0.0
  0
SEQEND
  5
4AE
100
AcDbEntity
  8
OBJECT
  0
POLYLINE
  5
4AF
100
AcDbEntity
  8
OBJECT
100
AcDb2dPolyline
 66
               1
 10
0.0
 20
0.0
 30
0.0
 70
               1
 75
               5
  0
VERTEX
  5
4B0
100
AcDbEntity
  8
OBJECT
100
AcDbVertex
100
AcDb2dVertex
 10
2515.3920000044973
 20
1010.000000003128
 30
0.0
  0
VERTEX
  5
4B1
100
AcDbEntity
  8
OBJECT
100
AcDbVertex
100
AcDb2dVertex
 10
3225.3920000044973
 20
1010.000000003128
 30
0.0
  0
VERTEX
  5
4B2
100
AcDbEntity
  8
OBJECT
100
AcDbVertex
100
AcDb2dVertex
 10
3225.3920000044973
 20
990.00000000312798
 30
0.0
  0
VERTEX
  5
4B3
100
AcDbEntity
  8
OBJECT
100
AcDbVertex
100
AcDb2dVertex
 10
2515.3920000044973
 20
990.00000000312798
 30
0.0
  0
SEQEND
  5
4B4
100
AcDbEntity
  8
OBJECT
  0
POLYLINE
  5
4B5
100
AcDbEntity
  8
OBJECT
100
AcDb2dPolyline
 66
               1
 10
0.0
 20
0.0
 30
0.0
 70
               1
 75
               5
  0
VERTEX
  5
4B6
100
AcDbEntity
  8
OBJECT
100
AcDbVertex
100
AcDb2dVertex
 10
2588.3920000044973
 20
1530.000000003128
 30
0.0
  0
VERTEX
  5
4B7
100
AcDbEntity
  8
OBJECT
100
AcDbVertex
100
AcDb2dVertex
 10
3152.3920000044973
 20
1530.000000003128
 30
0.0
  0
VERTEX
  5
4B8
100
AcDbEntity
  8
OBJECT
100
AcDbVertex
100
AcDb2dVertex
 10
3152.3920000044973
 20
1010.000000003128
 30
0.0
  0
VERTEX
  5
4B9
100
AcDbEntity
  8
OBJECT
100
AcDbVertex
100
AcDb2dVertex
 10
2588.3920000044973
 20
1010.000000003128
 30
0.0
  0
SEQEND
  5
4BA
100
AcDbEntity
  8
OBJECT
  0
POLYLINE
  5
4BB
100
AcDbEntity
  8
OBJECT
100
AcDb2dPolyline
 66
               1
 10
0.0
 20
0.0
 30
0.0
 70
               1
 75
               5
  0
VERTEX
  5
4BC
100
AcDbEntity
  8
OBJECT
100
AcDbVertex
100
AcDb2dVertex
 10
2551.3920000044973
 20
1530.000000003128
 30
0.0
  0
VERTEX
  5
4BD
100
AcDbEntity
  8
OBJECT
100
AcDbVertex
100
AcDb2dVertex
 10
2588.3920000044973
 20
1530.000000003128
 30
0.0
  0
VERTEX
  5
4BE
100
AcDbEntity
  8
OBJECT
100
AcDbVertex
100
AcDb2dVertex
 10
2588.3920000044973
 20
1010.000000003128
 30
0.0
  0
VERTEX
  5
4BF
100
AcDbEntity
  8
OBJECT
100
AcDbVertex
100
AcDb2dVertex
 10
2551.3920000044973
 20
1010.000000003128
 30
0.0
  0
SEQEND
  5
4C0
100
AcDbEntity
  8
OBJECT
  0
POLYLINE
  5
4C1
100
AcDbEntity
  8
OBJECT
100
AcDb2dPolyline
 66
               1
 10
0.0
 20
0.0
 30
0.0
 70
               1
 75
               5
  0
VERTEX
  5
4C2
100
AcDbEntity
  8
OBJECT
100
AcDbVertex
100
AcDb2dVertex
 10
3152.3920000044973
 20
1530.000000003128
 30
0.0
  0
VERTEX
  5
4C3
100
AcDbEntity
  8
OBJECT
100
AcDbVertex
100
AcDb2dVertex
 10
3189.3920000044973
 20
1530.000000003128
 30
0.0
  0
VERTEX
  5
4C4
100
AcDbEntity
  8
OBJECT
100
AcDbVertex
100
AcDb2dVertex
 10
3189.3920000044973
 20
1010.000000003128
 30
0.0
  0
VERTEX
  5
4C5
100
AcDbEntity
  8
OBJECT
100
AcDbVertex
100
AcDb2dVertex
 10
3152.3920000044973
 20
1010.000000003128
 30
0.0
  0
SEQEND
  5
4C6
100
AcDbEntity
  8
OBJECT
  0
POLYLINE
  5
4C7
100
AcDbEntity
  8
OBJECT
100
AcDb2dPolyline
 66
               1
 10
0.0
 20
0.0
 30
0.0
 70
             129
  0
VERTEX
  5
4C8
100
AcDbEntity
  8
OBJECT
100
AcDbVertex
100
AcDb2dVertex
 10
2970.3920000044973
 20
1040.000000003128
 30
0.0
 42
0.414213562373095
 70
               2
  0
VERTEX
  5
4C9
100
AcDbEntity
  8
OBJECT
100
AcDbVertex
100
AcDb2dVertex
 10
2966.3920000044973
 20
1044.000000003128
 30
0.0
  0
VERTEX
  5
4CA
100
AcDbEntity
  8
OBJECT
100
AcDbVertex
100
AcDb2dVertex
 10
2774.3920000044973
 20
1044.000000003128
 30
0.0
 42
0.414213562373095
 70
               2
 50
9.3574199307792870E+17
  0
VERTEX
  5
4CB
100
AcDbEntity
  8
OBJECT
100
AcDbVertex
100
AcDb2dVertex
 10
2770.3920000044973
 20
1040.000000003128
 30
0.0
 42
0.414213562373095
 70
               2
  0
VERTEX
  5
4CC
100
AcDbEntity
  8
OBJECT
100
AcDbVertex
100
AcDb2dVertex
 10
2774.3920000044973
 20
1036.000000003128
 30
0.0
  0
VERTEX
  5
4CD
100
AcDbEntity
  8
OBJECT
100
AcDbVertex
100
AcDb2dVertex
 10
2966.3920000044973
 20
1036.000000003128
 30
0.0
 42
0.4142135623730992
 70
               2
 50
3.1191399769264294E+17
  0
VERTEX
  5
4CE
100
AcDbEntity
  8
OBJECT
100
AcDbVertex
100
AcDb2dVertex
 10
2970.3920000044973
 20
1040.000000003128
 30
0.0
  0
SEQEND
  5
4CF
100
AcDbEntity
  8
OBJECT
  0
LINE
  5
4D0
100
AcDbEntity
  8
CENTER
100
AcDbLine
 10
2870.3920000044973
 20
1550.000000003128
 30
0.0
 11
2870.3920000044973
 21
420.00000000312809
 31
0.0
  0
LINE
  5
4D1
100
AcDbEntity
  8
OBJECT
100
AcDbLine
 10
3865.3920000044968
 20
190.00000000312798
 30
0.0
 11
1748.0
 21
190.00000000312798
 31
0.0
  0
POLYLINE
  5
4D2
100
AcDbEntity
  8
OBJECT
100
AcDb2dPolyline
 66
               1
 10
0.0
 20
0.0
 30
0.0
 75
               5
  0
VERTEX
  5
4D3
100
AcDbEntity
  8
OBJECT
100
AcDbVertex
100
AcDb2dVertex
 10
2451.1494000044968
 20
415.00000000312809
 30
0.0
  0
VERTEX
  5
4D4
100
AcDbEntity
  8
OBJECT
100
AcDbVertex
100
AcDb2dVertex
 10
2457.3920000044973
 20
408.75740000312805
 30
0.0
  0
VERTEX
  5
4D5
100
AcDbEntity
  8
OBJECT
100
AcDbVertex
100
AcDb2dVertex
 10
2457.3920000044973
 20
378.00000000312798
 30
0.0
  0
VERTEX
  5
4D6
100
AcDbEntity
  8
OBJECT
100
AcDbVertex
100
AcDb2dVertex
 10
2445.3920000044973
 20
378.00000000312798
 30
0.0
  0
VERTEX
  5
4D7
100
AcDbEntity
  8
OBJECT
100
AcDbVertex
100
AcDb2dVertex
 10
2445.3920000044973
 20
375.00000000312798
 30
0.0
  0
VERTEX
  5
4D8
100
AcDbEntity
  8
OBJECT
100
AcDbVertex
100
AcDb2dVertex
 10
2460.3920000044973
 20
375.00000000312798
 30
0.0
  0
VERTEX
  5
4D9
100
AcDbEntity
  8
OBJECT
100
AcDbVertex
100
AcDb2dVertex
 10
2460.3920000044973
 20
410.00000000312809
 30
0.0
  0
VERTEX
  5
4DA
100
AcDbEntity
  8
OBJECT
100
AcDbVertex
100
AcDb2dVertex
 10
2455.3920000044973
 20
415.00000000312809
 30
0.0
  0
SEQEND
  5
4DB
100
AcDbEntity
  8
OBJECT
  0
POLYLINE
  5
4DC
100
AcDbEntity
  8
OBJECT
100
AcDb2dPolyline
 66
               1
 10
0.0
 20
0.0
 30
0.0
 70
             129
  0
VERTEX
  5
4DD
100
AcDbEntity
  8
OBJECT
100
AcDbVertex
100
AcDb2dVertex
 10
2528.3920000044973
 20
390.00000000312809
 30
0.0
 42
0.4142135623730867
 70
               2
  0
VERTEX
  5
4DE
100
AcDbEntity
  8
OBJECT
100
AcDbVertex
100
AcDb2dVertex
 10
2524.3920000044973
 20
394.00000000312809
 30
0.0
  0
VERTEX
  5
4DF
100
AcDbEntity
  8
OBJECT
100
AcDbVertex
100
AcDb2dVertex
 10
2460.3920000044973
 20
394.00000000312809
 30
0.0
  0
VERTEX
  5
4E0
100
AcDbEntity
  8
OBJECT
100
AcDbVertex
100
AcDb2dVertex
 10
2460.3920000044973
 20
386.00000000312809
 30
0.0
  0
VERTEX
  5
4E1
100
AcDbEntity
  8
OBJECT
100
AcDbVertex
100
AcDb2dVertex
 10
2524.3920000044973
 20
386.00000000312809
 30
0.0
 42
0.414213562373095
 70
               2
 50
3.1191399769264294E+17
  0
VERTEX
  5
4E2
100
AcDbEntity
  8
OBJECT
100
AcDbVertex
100
AcDb2dVertex
 10
2528.3920000044973
 20
390.00000000312809
 30
0.0
  0
SEQEND
  5
4E3
100
AcDbEntity
  8
OBJECT
  0
POLYLINE
  5
4E4
100
AcDbEntity
  8
OBJECT
100
AcDb2dPolyline
 66
               1
 10
0.0
 20
0.0
 30
0.0
 70
               1
 75
               5
  0
VERTEX
  5
4E5
100
AcDbEntity
  8
OBJECT
100
AcDbVertex
100
AcDb2dVertex
 10
2450.3920000044973
 20
398.50000000312809
 30
0.0
  0
VERTEX
  5
4E6
100
AcDbEntity
  8
OBJECT
100
AcDbVertex
100
AcDb2dVertex
 10
2457.3920000044973
 20
398.50000000312809
 30
0.0
  0
VERTEX
  5
4E7
100
AcDbEntity
  8
OBJECT
100
AcDbVertex
100
AcDb2dVertex
 10
2457.3920000044973
 20
381.50000000312798
 30
0.0
  0
VERTEX
  5
4E8
100
AcDbEntity
  8
OBJECT
100
AcDbVertex
100
AcDb2dVertex
 10
2450.3920000044973
 20
381.50000000312798
 30
0.0
  0
SEQEND
  5
4E9
100
AcDbEntity
  8
OBJECT
  0
LINE
  5
4EA
100
AcDbEntity
  8
OBJECT
100
AcDbLine
 10
2450.3920000044973
 20
394.50000000312809
 30
0.0
 11
2457.3920000044973
 21
394.50000000312809
 31
0.0
  0
LINE
  5
4EB
100
AcDbEntity
  8
OBJECT
100
AcDbLine
 10
2450.3920000044973
 20
385.50000000312809
 30
0.0
 11
2457.3920000044973
 21
385.50000000312809
 31
0.0
  0
POLYLINE
  5
4EC
100
AcDbEntity
  8
OBJECT
100
AcDb2dPolyline
 66
               1
 10
0.0
 20
0.0
 30
0.0
 70
               1
 75
               5
  0
VERTEX
  5
4ED
100
AcDbEntity
  8
OBJECT
100
AcDbVertex
100
AcDb2dVertex
 10
2450.3920000044973
 20
394.00000000312809
 30
0.0
  0
VERTEX
  5
4EE
100
AcDbEntity
  8
OBJECT
100
AcDbVertex
100
AcDb2dVertex
 10
2444.3920000044973
 20
394.00000000312809
 30
0.0
  0
VERTEX
  5
4EF
100
AcDbEntity
  8
OBJECT
100
AcDbVertex
100
AcDb2dVertex
 10
2443.3920000044973
 20
393.00000000312809
 30
0.0
  0
VERTEX
  5
4F0
100
AcDbEntity
  8
OBJECT
100
AcDbVertex
100
AcDb2dVertex
 10
2443.3920000044973
 20
387.00000000312809
 30
0.0
  0
VERTEX
  5
4F1
100
AcDbEntity
  8
OBJECT
100
AcDbVertex
100
AcDb2dVertex
 10
2444.3920000044973
 20
386.00000000312809
 30
0.0
  0
VERTEX
  5
4F2
100
AcDbEntity
  8
OBJECT
100
AcDbVertex
100
AcDb2dVertex
 10
2450.3920000044973
 20
386.00000000312809
 30
0.0
  0
SEQEND
  5
4F3
100
AcDbEntity
  8
OBJECT
  0
POLYLINE
  5
4F4
100
AcDbEntity
  8
OBJECT
100
AcDb2dPolyline
 66
               1
 10
0.0
 20
0.0
 30
0.0
 75
               5
  0
VERTEX
  5
4F5
100
AcDbEntity
  8
OBJECT
100
AcDbVertex
100
AcDb2dVertex
 10
2520.3920000044973
 20
394.00000000312809
 30
0.0
  0
VERTEX
  5
4F6
100
AcDbEntity
  8
OBJECT
100
AcDbVertex
100
AcDb2dVertex
 10
2520.3920000044973
 20
415.00000000312809
 30
0.0
  0
VERTEX
  5
4F7
100
AcDbEntity
  8
OBJECT
100
AcDbVertex
100
AcDb2dVertex
 10
2460.3920000044973
 20
415.00000000312809
 30
0.0
  0
VERTEX
  5
4F8
100
AcDbEntity
  8
OBJECT
100
AcDbVertex
100
AcDb2dVertex
 10
2460.3920000044973
 20
360.00000000312798
 30
0.0
  0
VERTEX
  5
4F9
100
AcDbEntity
  8
OBJECT
100
AcDbVertex
100
AcDb2dVertex
 10
2520.3920000044973
 20
360.00000000312798
 30
0.0
  0
VERTEX
  5
4FA
100
AcDbEntity
  8
OBJECT
100
AcDbVertex
100
AcDb2dVertex
 10
2520.3920000044973
 20
386.00000000312809
 30
0.0
  0
SEQEND
  5
4FB
100
AcDbEntity
  8
OBJECT
  0
LINE
  5
4FC
100
AcDbEntity
  8
OBJECT
100
AcDbLine
 10
2450.3920000044973
 20
393.00000000312809
 30
0.0
 11
2443.3920000044973
 21
393.00000000312809
 31
0.0
  0
LINE
  5
4FD
100
AcDbEntity
  8
OBJECT
100
AcDbLine
 10
2450.3920000044973
 20
387.00000000312809
 30
0.0
 11
2443.3920000044973
 21
387.00000000312809
 31
0.0
  0
LINE
  5
4FE
100
AcDbEntity
  8
OBJECT
100
AcDbLine
 10
2444.3920000044973
 20
394.00000000312809
 30
0.0
 11
2444.3920000044973
 21
386.00000000312809
 31
0.0
  0
POLYLINE
  5
4FF
100
AcDbEntity
  8
OBJECT
100
AcDb2dPolyline
 66
               1
 10
0.0
 20
0.0
 30
0.0
 70
               1
 75
               5
  0
VERTEX
  5
500
100
AcDbEntity
  8
OBJECT
100
AcDbVertex
100
AcDb2dVertex
 10
3460.3920000044973
 20
960.00000000312798
 30
0.0
  0
VERTEX
  5
501
100
AcDbEntity
  8
OBJECT
100
AcDbVertex
100
AcDb2dVertex
 10
3620.3920000044973
 20
960.00000000312798
 30
0.0
  0
VERTEX
  5
502
100
AcDbEntity
  8
OBJECT
100
AcDbVertex
100
AcDb2dVertex
 10
3620.3920000044973
 20
440.00000000312809
 30
0.0
  0
VERTEX
  5
503
100
AcDbEntity
  8
OBJECT
100
AcDbVertex
100
AcDb2dVertex
 10
3460.3920000044973
 20
440.00000000312809
 30
0.0
  0
SEQEND
  5
504
100
AcDbEntity
  8
OBJECT
  0
LINE
  5
505
100
AcDbEntity
  8
CENTER
100
AcDbLine
 10
2490.3920000044973
 20
325.00000000312798
 30
0.0
 11
2490.3920000044973
 21
475.00000000312809
 31
0.0
  0
POLYLINE
  5
506
100
AcDbEntity
  8
OBJECT
100
AcDb2dPolyline
 66
               1
 10
0.0
 20
0.0
 30
0.0
 70
               1
 75
               5
  0
VERTEX
  5
507
100
AcDbEntity
  8
OBJECT
100
AcDbVertex
100
AcDb2dVertex
 10
2280.3920000044973
 20
2495.0000000031278
 30
0.0
  0
VERTEX
  5
508
100
AcDbEntity
  8
OBJECT
100
AcDbVertex
100
AcDb2dVertex
 10
3460.3920000044973
 20
2495.0000000031278
 30
0.0
  0
VERTEX
  5
509
100
AcDbEntity
  8
OBJECT
100
AcDbVertex
100
AcDb2dVertex
 10
3460.3920000044973
 20
1835.000000003128
 30
0.0
  0
VERTEX
  5
50A
100
AcDbEntity
  8
OBJECT
100
AcDbVertex
100
AcDb2dVertex
 10
2280.3920000044973
 20
1835.000000003128
 30
0.0
  0
SEQEND
  5
50B
100
AcDbEntity
  8
OBJECT
  0
POLYLINE
  5
50C
100
AcDbEntity
  8
OBJECT
100
AcDb2dPolyline
 66
               1
 10
0.0
 20
0.0
 30
0.0
 70
               1
 75
               5
  0
VERTEX
  5
50D
100
AcDbEntity
  8
OBJECT
100
AcDbVertex
100
AcDb2dVertex
 10
2262.3920000044973
 20
2495.0000000031278
 30
0.0
  0
VERTEX
  5
50E
100
AcDbEntity
  8
OBJECT
100
AcDbVertex
100
AcDb2dVertex
 10
3478.3920000044973
 20
2495.0000000031278
 30
0.0
  0
VERTEX
  5
50F
100
AcDbEntity
  8
OBJECT
100
AcDbVertex
100
AcDb2dVertex
 10
3478.3920000044973
 20
1806.500000003128
 30
0.0
  0
VERTEX
  5
510
100
AcDbEntity
  8
OBJECT
100
AcDbVertex
100
AcDb2dVertex
 10
2262.3920000044973
 20
1806.500000003128
 30
0.0
  0
SEQEND
  5
511
100
AcDbEntity
  8
OBJECT
  0
LINE
  5
512
100
AcDbEntity
  8
CENTER
100
AcDbLine
 10
2870.3920000044973
 20
2533.0000000031278
 30
0.0
 11
2870.3920000044973
 21
1797.000000003128
 31
0.0
  0
LINE
  5
513
100
AcDbEntity
  8
CENTER
100
AcDbLine
 10
3640.3920000044973
 20
2165.0000000031278
 30
0.0
 11
2242.3920000044973
 21
2165.0000000031278
 31
0.0
  0
CIRCLE
  5
514
100
AcDbEntity
  8
OBJECT
100
AcDbCircle
 10
2490.3920000044973
 20
2245.0000000031278
 30
0.0
 40
25.0
  0
POLYLINE
  5
515
100
AcDbEntity
  8
OBJECT
100
AcDb2dPolyline
 66
               1
 10
0.0
 20
0.0
 30
0.0
 70
               1
 75
               5
  0
VERTEX
  5
516
100
AcDbEntity
  8
OBJECT
100
AcDbVertex
100
AcDb2dVertex
 10
1458.8920000044973
 20
990.00000000312798
 30
0.0
  0
VERTEX
  5
517
100
AcDbEntity
  8
OBJECT
100
AcDbVertex
100
AcDb2dVertex
 10
770.39200000449728
 20
990.00000000312798
 30
0.0
  0
VERTEX
  5
518
100
AcDbEntity
  8
OBJECT
100
AcDbVertex
100
AcDb2dVertex
 10
770.39200000449728
 20
985.00000000312798
 30
0.0
  0
VERTEX
  5
519
100
AcDbEntity
  8
OBJECT
100
AcDbVertex
100
AcDb2dVertex
 10
1453.8920000044973
 20
985.00000000312798
 30
0.0
  0
VERTEX
  5
51A
100
AcDbEntity
  8
OBJECT
100
AcDbVertex
100
AcDb2dVertex
 10
1453.8920000044973
 20
975.00000000312798
 30
0.0
  0
VERTEX
  5
51B
100
AcDbEntity
  8
OBJECT
100
AcDbVertex
100
AcDb2dVertex
 10
1458.8920000044973
 20
975.00000000312798
 30
0.0
  0
SEQEND
  5
51C
100
AcDbEntity
  8
OBJECT
  0
POLYLINE
  5
51D
100
AcDbEntity
  8
OBJECT
100
AcDb2dPolyline
 66
               1
 10
0.0
 20
0.0
 30
0.0
 70
               1
 75
               5
  0
VERTEX
  5
51E
100
AcDbEntity
  8
OBJECT
100
AcDbVertex
100
AcDb2dVertex
 10
752.39200000449728
 20
990.00000000312798
 30
0.0
  0
VERTEX
  5
51F
100
AcDbEntity
  8
OBJECT
100
AcDbVertex
100
AcDb2dVertex
 10
770.39200000449728
 20
990.00000000312798
 30
0.0
  0
VERTEX
  5
520
100
AcDbEntity
  8
OBJECT
100
AcDbVertex
100
AcDb2dVertex
 10
770.39200000449728
 20
985.00000000312798
 30
0.0
  0
VERTEX
  5
521
100
AcDbEntity
  8
OBJECT
100
AcDbVertex
100
AcDb2dVertex
 10
752.39200000449728
 20
985.00000000312798
 30
0.0
  0
SEQEND
  5
522
100
AcDbEntity
  8
OBJECT
  0
LINE
  5
523
100
AcDbEntity
  8
OBJECT
100
AcDbLine
 10
1430.3920000044973
 20
440.00000000312809
 30
0.0
 11
1430.3920000044973
 21
935.00000000312798
 31
0.0
  0
LINE
  5
524
100
AcDbEntity
  8
OBJECT
100
AcDbLine
 10
1355.3920000044973
 20
440.00000000312809
 30
0.0
 11
1430.3920000044973
 21
440.00000000312809
 31
0.0
  0
LINE
  5
525
100
AcDbEntity
  8
OBJECT
100
AcDbLine
 10
1550.3920000044973
 20
190.00000000312798
 30
0.0
 11
445.39200000449728
 21
190.00000000312798
 31
0.0
  0
POLYLINE
  5
526
100
AcDbEntity
  8
OBJECT
100
AcDb2dPolyline
 66
               1
 10
0.0
 20
0.0
 30
0.0
 70
             128
  0
VERTEX
  5
527
100
AcDbEntity
  8
OBJECT
100
AcDbVertex
100
AcDb2dVertex
 10
1453.8920000044973
 20
985.00000000312798
 30
0.0
  0
VERTEX
  5
528
100
AcDbEntity
  8
OBJECT
100
AcDbVertex
100
AcDb2dVertex
 10
1453.8920000044973
 20
451.00000000312809
 30
0.0
  0
VERTEX
  5
529
100
AcDbEntity
  8
OBJECT
100
AcDbVertex
100
AcDb2dVertex
 10
1436.8920000044973
 20
451.00000000312809
 30
0.0
  0
VERTEX
  5
52A
100
AcDbEntity
  8
OBJECT
100
AcDbVertex
100
AcDb2dVertex
 10
1436.8920000044973
 20
440.00000000312809
 30
0.0
  0
VERTEX
  5
52B
100
AcDbEntity
  8
OBJECT
100
AcDbVertex
100
AcDb2dVertex
 10
1430.3920000044973
 20
440.00000000312809
 30
0.0
  0
VERTEX
  5
52C
100
AcDbEntity
  8
OBJECT
100
AcDbVertex
100
AcDb2dVertex
 10
1430.3920000044973
 20
985.00000000312798
 30
0.0
  0
SEQEND
  5
52D
100
AcDbEntity
  8
OBJECT
  0
LINE
  5
52E
100
AcDbEntity
  8
CENTER
100
AcDbLine
 10
1100.3920000044973
 20
299.00000000312798
 30
0.0
 11
1100.3920000044973
 21
1550.000000003128
 31
0.0
  0
POLYLINE
  5
52F
100
AcDbEntity
  8
OBJECT
100
AcDb2dPolyline
 66
               1
 10
0.0
 20
0.0
 30
0.0
 70
               1
 75
               5
  0
VERTEX
  5
530
100
AcDbEntity
  8
OBJECT
100
AcDbVertex
100
AcDb2dVertex
 10
772.39200000449728
 20
1530.000000003128
 30
0.0
  0
VERTEX
  5
531
100
AcDbEntity
  8
OBJECT
100
AcDbVertex
100
AcDb2dVertex
 10
1417.3920000044973
 20
1530.000000003128
 30
0.0
  0
VERTEX
  5
532
100
AcDbEntity
  8
OBJECT
100
AcDbVertex
100
AcDb2dVertex
 10
1417.3920000044973
 20
990.00000000312798
 30
0.0
  0
VERTEX
  5
533
100
AcDbEntity
  8
OBJECT
100
AcDbVertex
100
AcDb2dVertex
 10
772.39200000449728
 20
990.00000000312798
 30
0.0
  0
SEQEND
  5
534
100
AcDbEntity
  8
OBJECT
  0
POLYLINE
  5
535
100
AcDbEntity
  8
OBJECT
100
AcDb2dPolyline
 66
               1
 10
0.0
 20
0.0
 30
0.0
 70
               1
 75
               5
  0
VERTEX
  5
536
100
AcDbEntity
  8
OBJECT
100
AcDbVertex
100
AcDb2dVertex
 10
799.39200000449728
 20
1390.000000003128
 30
0.0
  0
VERTEX
  5
537
100
AcDbEntity
  8
OBJECT
100
AcDbVertex
100
AcDb2dVertex
 10
1390.3920000044973
 20
1390.000000003128
 30
0.0
  0
VERTEX
  5
538
100
AcDbEntity
  8
OBJECT
100
AcDbVertex
100
AcDb2dVertex
 10
1390.3920000044973
 20
990.00000000312798
 30
0.0
  0
VERTEX
  5
539
100
AcDbEntity
  8
OBJECT
100
AcDbVertex
100
AcDb2dVertex
 10
799.39200000449728
 20
990.00000000312798
 30
0.0
  0
SEQEND
  5
53A
100
AcDbEntity
  8
OBJECT
  0
INSERT
  5
53B
100
AcDbEntity
  8
OBJECT
100
AcDbBlockReference
  2
*U5
 10
2025.4000000044971
 20
1409.000000003128
 30
0.0
  0
POLYLINE
  5
53C
100
AcDbEntity
  8
OBJECT
100
AcDb2dPolyline
 66
               1
 10
0.0
 20
0.0
 30
0.0
 70
             129
  0
VERTEX
  5
53D
100
AcDbEntity
  8
OBJECT
100
AcDbVertex
100
AcDb2dVertex
 10
2526.8920000044973
 20
788.50000000312798
 30
0.0
 42
0.414213562373095
 70
               2
  0
VERTEX
  5
53E
100
AcDbEntity
  8
OBJECT
100
AcDbVertex
100
AcDb2dVertex
 10
2523.8920000044973
 20
791.50000000312798
 30
0.0
  0
VERTEX
  5
53F
100
AcDbEntity
  8
OBJECT
100
AcDbVertex
100
AcDb2dVertex
 10
2376.8920000044973
 20
791.50000000312798
 30
0.0
 42
0.414213562373095
 70
               2
 50
9.3574199307792870E+17
  0
VERTEX
  5
540
100
AcDbEntity
  8
OBJECT
100
AcDbVertex
100
AcDb2dVertex
 10
2373.8920000044973
 20
788.50000000312798
 30
0.0
  0
VERTEX
  5
541
100
AcDbEntity
  8
OBJECT
100
AcDbVertex
100
AcDb2dVertex
 10
2373.8920000044973
 20
736.50000000312809
 30
0.0
 42
0.414213562373095
 70
               2
  0
VERTEX
  5
542
100
AcDbEntity
  8
OBJECT
100
AcDbVertex
100
AcDb2dVertex
 10
2376.8920000044973
 20
733.50000000312809
 30
0.0
  0
VERTEX
  5
543
100
AcDbEntity
  8
OBJECT
100
AcDbVertex
100
AcDb2dVertex
 10
2523.8920000044973
 20
733.50000000312809
 30
0.0
 42
0.414213562373095
 70
               2
 50
3.1191399769264294E+17
  0
VERTEX
  5
544
100
AcDbEntity
  8
OBJECT
100
AcDbVertex
100
AcDb2dVertex
 10
2526.8920000044973
 20
736.50000000312809
 30
0.0
  0
SEQEND
  5
545
100
AcDbEntity
  8
OBJECT
  0
POLYLINE
  5
546
100
AcDbEntity
  8
OBJECT
100
AcDb2dPolyline
 66
               1
 10
0.0
 20
0.0
 30
0.0
 70
               1
 75
               5
  0
VERTEX
  5
547
100
AcDbEntity
  8
OBJECT
100
AcDbVertex
100
AcDb2dVertex
 10
2378.8920000044973
 20
786.50000000312798
 30
0.0
  0
VERTEX
  5
548
100
AcDbEntity
  8
OBJECT
100
AcDbVertex
100
AcDb2dVertex
 10
2521.8920000044973
 20
786.50000000312798
 30
0.0
  0
VERTEX
  5
549
100
AcDbEntity
  8
OBJECT
100
AcDbVertex
100
AcDb2dVertex
 10
2521.8920000044973
 20
743.50000000312798
 30
0.0
  0
VERTEX
  5
54A
100
AcDbEntity
  8
OBJECT
100
AcDbVertex
100
AcDb2dVertex
 10
2378.8920000044973
 20
743.50000000312798
 30
0.0
  0
SEQEND
  5
54B
100
AcDbEntity
  8
OBJECT
  0
LINE
  5
54C
100
AcDbEntity
  8
CENTER
100
AcDbLine
 10
2450.3920000044973
 20
800.00000000312798
 30
0.0
 11
2450.3920000044973
 21
725.00000000312809
 31
0.0
  0
LINE
  5
54D
100
AcDbEntity
  8
CENTER
100
AcDbLine
 10
2535.3920000044973
 20
762.50000000312798
 30
0.0
 11
2365.3920000044973
 21
762.50000000312798
 31
0.0
  0
ARC
  5
54E
100
AcDbEntity
  8
OBJECT
100
AcDbCircle
 10
2966.3920000044973
 20
1040.000000003128
 30
0.0
 40
7.5000681183573317
100
AcDbArc
 50
212.65880189518506
 51
146.30950872471288
  0
ARC
  5
54F
100
AcDbEntity
  8
OBJECT
100
AcDbCircle
 10
2774.3920000044973
 20
1040.000000003128
 30
0.0
 40
7.5000458831929731
100
AcDbArc
 50
33.690279404550743
 51
326.30972059544888
  0
INSERT
  5
550
100
AcDbEntity
  8
OBJECT
100
AcDbBlockReference
  2
*U6
 10
2025.4000000044971
 20
1409.000000003128
 30
0.0
  0
INSERT
  5
551
100
AcDbEntity
  8
OBJECT
100
AcDbBlockReference
  2
*U7
 10
2025.4000000044971
 20
1409.000000003128
 30
0.0
  0
POLYLINE
  5
552
100
AcDbEntity
  8
OBJECT
100
AcDb2dPolyline
 66
               1
 10
0.0
 20
0.0
 30
0.0
 70
             129
  0
VERTEX
  5
553
100
AcDbEntity
  8
OBJECT
100
AcDbVertex
100
AcDb2dVertex
 10
1458.8920000044973
 20
1010.000000003128
 30
0.0
  0
VERTEX
  5
554
100
AcDbEntity
  8
OBJECT
100
AcDbVertex
100
AcDb2dVertex
 10
1426.3920000044973
 20
1010.000000003128
 30
0.0
 42
0.4142135623730984
 70
               2
 50
9.3574199307792870E+17
  0
VERTEX
  5
555
100
AcDbEntity
  8
OBJECT
100
AcDbVertex
100
AcDb2dVertex
 10
1421.3920000044973
 20
1005.000000003128
 30
0.0
  0
VERTEX
  5
556
100
AcDbEntity
  8
OBJECT
100
AcDbVertex
100
AcDb2dVertex
 10
1421.3920000044973
 20
993.00000000312798
 30
0.0
 42
0.414213562373095
 70
               2
  0
VERTEX
  5
557
100
AcDbEntity
  8
OBJECT
100
AcDbVertex
100
AcDb2dVertex
 10
1424.3920000044973
 20
990.00000000312798
 30
0.0
  0
VERTEX
  5
558
100
AcDbEntity
  8
OBJECT
100
AcDbVertex
100
AcDb2dVertex
 10
1458.8920000044973
 20
990.00000000312798
 30
0.0
  0
SEQEND
  5
559
100
AcDbEntity
  8
OBJECT
  0
POLYLINE
  5
55A
100
AcDbEntity
  8
OBJECT
100
AcDb2dPolyline
 66
               1
 10
0.0
 20
0.0
 30
0.0
 70
             128
  0
VERTEX
  5
55B
100
AcDbEntity
  8
OBJECT
100
AcDbVertex
100
AcDb2dVertex
 10
1428.3920000044973
 20
1036.000000003128
 30
0.0
  0
VERTEX
  5
55C
100
AcDbEntity
  8
OBJECT
100
AcDbVertex
100
AcDb2dVertex
 10
1463.3920000044973
 20
1036.000000003128
 30
0.0
  0
VERTEX
  5
55D
100
AcDbEntity
  8
OBJECT
100
AcDbVertex
100
AcDb2dVertex
 10
1463.3920000044973
 20
1036.000000003128
 30
0.0
  0
VERTEX
  5
55E
100
AcDbEntity
  8
OBJECT
100
AcDbVertex
100
AcDb2dVertex
 10
1463.3920000044973
 20
1036.000000003128
 30
0.0
 42
0.4142135623730909
 70
               2
 50
3.1191399769264294E+17
  0
VERTEX
  5
55F
100
AcDbEntity
  8
OBJECT
100
AcDbVertex
100
AcDb2dVertex
 10
1467.3920000044973
 20
1040.000000003128
 30
0.0
  0
VERTEX
  5
560
100
AcDbEntity
  8
OBJECT
100
AcDbVertex
100
AcDb2dVertex
 10
1467.3920000044973
 20
1040.000000003128
 30
0.0
  0
VERTEX
  5
561
100
AcDbEntity
  8
OBJECT
100
AcDbVertex
100
AcDb2dVertex
 10
1467.3920000044973
 20
1040.000000003128
 30
0.0
 42
0.414213562373095
 70
               2
  0
VERTEX
  5
562
100
AcDbEntity
  8
OBJECT
100
AcDbVertex
100
AcDb2dVertex
 10
1463.3920000044973
 20
1044.000000003128
 30
0.0
  0
VERTEX
  5
563
100
AcDbEntity
  8
OBJECT
100
AcDbVertex
100
AcDb2dVertex
 10
1428.3920000044973
 20
1044.000000003128
 30
0.0
  0
SEQEND
  5
564
100
AcDbEntity
  8
OBJECT
  0
POLYLINE
  5
565
100
AcDbEntity
  8
OBJECT
100
AcDb2dPolyline
 66
               1
 10
0.0
 20
0.0
 30
0.0
 75
               5
  0
VERTEX
  5
566
100
AcDbEntity
  8
OBJECT
100
AcDbVertex
100
AcDb2dVertex
 10
1428.3920000044973
 20
1010.000000003128
 30
0.0
  0
VERTEX
  5
567
100
AcDbEntity
  8
OBJECT
100
AcDbVertex
100
AcDb2dVertex
 10
1428.3920000044973
 20
1530.000000003128
 30
0.0
  0
VERTEX
  5
568
100
AcDbEntity
  8
OBJECT
100
AcDbVertex
100
AcDb2dVertex
 10
1417.3920000044973
 20
1530.000000003128
 30
0.0
  0
VERTEX
  5
569
100
AcDbEntity
  8
OBJECT
100
AcDbVertex
100
AcDb2dVertex
 10
1417.3920000044973
 20
990.00000000312798
 30
0.0
  0
VERTEX
  5
56A
100
AcDbEntity
  8
OBJECT
100
AcDbVertex
100
AcDb2dVertex
 10
1428.3920000044973
 20
990.00000000312798
 30
0.0
  0
VERTEX
  5
56B
100
AcDbEntity
  8
OBJECT
100
AcDbVertex
100
AcDb2dVertex
 10
1428.3920000044973
 20
990.00000000312798
 30
0.0
  0
SEQEND
  5
56C
100
AcDbEntity
  8
OBJECT
  0
POLYLINE
  5
56D
100
AcDbEntity
  8
OBJECT
100
AcDb2dPolyline
 66
               1
 10
0.0
 20
0.0
 30
0.0
 70
               1
 75
               5
  0
VERTEX
  5
56E
100
AcDbEntity
  8
OBJECT
100
AcDbVertex
100
AcDb2dVertex
 10
2620.3920000044973
 20
975.00000000312798
 30
0.0
  0
VERTEX
  5
56F
100
AcDbEntity
  8
OBJECT
100
AcDbVertex
100
AcDb2dVertex
 10
3460.3920000044973
 20
975.00000000312798
 30
0.0
  0
VERTEX
  5
570
100
AcDbEntity
  8
OBJECT
100
AcDbVertex
100
AcDb2dVertex
 10
3460.3920000044973
 20
440.00000000312809
 30
0.0
  0
VERTEX
  5
571
100
AcDbEntity
  8
OBJECT
100
AcDbVertex
100
AcDb2dVertex
 10
2620.3920000044973
 20
440.00000000312809
 30
0.0
  0
SEQEND
  5
572
100
AcDbEntity
  8
OBJECT
  0
LINE
  5
573
100
AcDbEntity
  8
OBJECT
100
AcDbLine
 10
3460.3920000044973
 20
451.00000000312809
 30
0.0
 11
2600.3920000044973
 21
451.00000000312809
 31
0.0
  0
POLYLINE
  5
574
100
AcDbEntity
  8
OBJECT
100
AcDb2dPolyline
 66
               1
 10
0.0
 20
0.0
 30
0.0
 70
             129
  0
VERTEX
  5
575
100
AcDbEntity
  8
OBJECT
100
AcDbVertex
100
AcDb2dVertex
 10
3024.8920000044973
 20
445.50000000312809
 30
0.0
 42
-0.414213562373095
 70
               2
  0
VERTEX
  5
576
100
AcDbEntity
  8
OBJECT
100
AcDbVertex
100
AcDb2dVertex
 10
3030.3920000044973
 20
451.00000000312809
 30
0.0
 42
-0.414213562373089
 70
               2
 50
2763339162442746.5
  0
VERTEX
  5
577
100
AcDbEntity
  8
OBJECT
100
AcDbVertex
100
AcDb2dVertex
 10
3035.8920000044973
 20
445.50000000312809
 30
0.0
 42
-0.414213562373095
 70
               2
  0
VERTEX
  5
578
100
AcDbEntity
  8
OBJECT
100
AcDbVertex
100
AcDb2dVertex
 10
3030.3920000044973
 20
440.00000000312809
 30
0.0
 42
-0.4142135623731011
 70
               2
 50
-2830202108703245.5
  0
VERTEX
  5
579
100
AcDbEntity
  8
OBJECT
100
AcDbVertex
100
AcDb2dVertex
 10
3024.8920000044973
 20
445.50000000312809
 30
0.0
  0
SEQEND
  5
57A
100
AcDbEntity
  8
OBJECT
  0
POLYLINE
  5
57B
100
AcDbEntity
  8
OBJECT
100
AcDb2dPolyline
 66
               1
 10
0.0
 20
0.0
 30
0.0
 70
             129
  0
VERTEX
  5
57C
100
AcDbEntity
  8
OBJECT
100
AcDbVertex
100
AcDb2dVertex
 10
2649.8920000044973
 20
445.50000000312809
 30
0.0
 42
-0.414213562373095
 70
               2
  0
VERTEX
  5
57D
100
AcDbEntity
  8
OBJECT
100
AcDbVertex
100
AcDb2dVertex
 10
2655.3920000044973
 20
451.00000000312809
 30
0.0
 42
-0.414213562373089
 70
               2
 50
2763339162442746.5
  0
VERTEX
  5
57E
100
AcDbEntity
  8
OBJECT
100
AcDbVertex
100
AcDb2dVertex
 10
2660.8920000044973
 20
445.50000000312809
 30
0.0
 42
-0.414213562373095
 70
               2
  0
VERTEX
  5
57F
100
AcDbEntity
  8
OBJECT
100
AcDbVertex
100
AcDb2dVertex
 10
2655.3920000044973
 20
440.00000000312809
 30
0.0
 42
-0.4142135623731011
 70
               2
 50
-2830202108703245.5
  0
VERTEX
  5
580
100
AcDbEntity
  8
OBJECT
100
AcDbVertex
100
AcDb2dVertex
 10
2649.8920000044973
 20
445.50000000312809
 30
0.0
  0
SEQEND
  5
581
100
AcDbEntity
  8
OBJECT
  0
POLYLINE
  5
582
100
AcDbEntity
  8
OBJECT
100
AcDb2dPolyline
 66
               1
 10
0.0
 20
0.0
 30
0.0
 70
             129
  0
VERTEX
  5
583
100
AcDbEntity
  8
OBJECT
100
AcDbVertex
100
AcDb2dVertex
 10
3404.8920000044973
 20
445.50000000312809
 30
0.0
 42
-0.414213562373095
 70
               2
  0
VERTEX
  5
584
100
AcDbEntity
  8
OBJECT
100
AcDbVertex
100
AcDb2dVertex
 10
3410.3920000044973
 20
451.00000000312809
 30
0.0
 42
-0.4142135623730829
 70
               2
 50
1391945968395738.0
  0
VERTEX
  5
585
100
AcDbEntity
  8
OBJECT
100
AcDbVertex
100
AcDb2dVertex
 10
3415.8920000044973
 20
445.50000000312809
 30
0.0
 42
-0.414213562373095
 70
               2
  0
VERTEX
  5
586
100
AcDbEntity
  8
OBJECT
100
AcDbVertex
100
AcDb2dVertex
 10
3410.3920000044973
 20
440.00000000312809
 30
0.0
 42
-0.4142135623731071
 70
               2
 50
-1408709975444380.7
  0
VERTEX
  5
587
100
AcDbEntity
  8
OBJECT
100
AcDbVertex
100
AcDb2dVertex
 10
3404.8920000044973
 20
445.50000000312809
 30
0.0
  0
SEQEND
  5
588
100
AcDbEntity
  8
OBJECT
  0
POLYLINE
  5
589
100
AcDbEntity
  8
OBJECT
100
AcDb2dPolyline
 66
               1
 10
0.0
 20
0.0
 30
0.0
 70
               1
 75
               5
  0
VERTEX
  5
58A
100
AcDbEntity
  8
OBJECT
100
AcDbVertex
100
AcDb2dVertex
 10
2280.3920000044973
 20
975.00000000312798
 30
0.0
  0
VERTEX
  5
58B
100
AcDbEntity
  8
OBJECT
100
AcDbVertex
100
AcDb2dVertex
 10
2620.3920000044973
 20
975.00000000312798
 30
0.0
  0
VERTEX
  5
58C
100
AcDbEntity
  8
OBJECT
100
AcDbVertex
100
AcDb2dVertex
 10
2620.3920000044973
 20
440.00000000312809
 30
0.0
  0
VERTEX
  5
58D
100
AcDbEntity
  8
OBJECT
100
AcDbVertex
100
AcDb2dVertex
 10
2280.3920000044973
 20
440.00000000312809
 30
0.0
  0
SEQEND
  5
58E
100
AcDbEntity
  8
OBJECT
  0
LINE
  5
58F
100
AcDbEntity
  8
OBJECT
100
AcDbLine
 10
2280.3920000044973
 20
451.00000000312809
 30
0.0
 11
2600.3920000044973
 21
451.00000000312809
 31
0.0
  0
POLYLINE
  5
590
100
AcDbEntity
  8
OBJECT
100
AcDb2dPolyline
 66
               1
 10
0.0
 20
0.0
 30
0.0
 70
             129
  0
VERTEX
  5
591
100
AcDbEntity
  8
OBJECT
100
AcDbVertex
100
AcDb2dVertex
 10
2294.8920000044973
 20
445.50000000312809
 30
0.0
 42
-0.414213562373095
 70
               2
  0
VERTEX
  5
592
100
AcDbEntity
  8
OBJECT
100
AcDbVertex
100
AcDb2dVertex
 10
2300.3920000044973
 20
451.00000000312809
 30
0.0
 42
-0.414213562373089
 70
               2
 50
2763339162442746.5
  0
VERTEX
  5
593
100
AcDbEntity
  8
OBJECT
100
AcDbVertex
100
AcDb2dVertex
 10
2305.8920000044973
 20
445.50000000312809
 30
0.0
 42
-0.414213562373095
 70
               2
  0
VERTEX
  5
594
100
AcDbEntity
  8
OBJECT
100
AcDbVertex
100
AcDb2dVertex
 10
2300.3920000044973
 20
440.00000000312809
 30
0.0
 42
-0.4142135623731011
 70
               2
 50
-2830202108703245.5
  0
VERTEX
  5
595
100
AcDbEntity
  8
OBJECT
100
AcDbVertex
100
AcDb2dVertex
 10
2294.8920000044973
 20
445.50000000312809
 30
0.0
  0
SEQEND
  5
596
100
AcDbEntity
  8
OBJECT
  0
POLYLINE
  5
597
100
AcDbEntity
  8
OBJECT
100
AcDb2dPolyline
 66
               1
 10
0.0
 20
0.0
 30
0.0
 70
             129
  0
VERTEX
  5
598
100
AcDbEntity
  8
OBJECT
100
AcDbVertex
100
AcDb2dVertex
 10
2579.8920000044973
 20
445.50000000312809
 30
0.0
 42
-0.414213562373095
 70
               2
  0
VERTEX
  5
599
100
AcDbEntity
  8
OBJECT
100
AcDbVertex
100
AcDb2dVertex
 10
2585.3920000044973
 20
451.00000000312809
 30
0.0
 42
-0.414213562373089
 70
               2
 50
2763339162442746.5
  0
VERTEX
  5
59A
100
AcDbEntity
  8
OBJECT
100
AcDbVertex
100
AcDb2dVertex
 10
2590.8920000044973
 20
445.50000000312809
 30
0.0
 42
-0.414213562373095
 70
               2
  0
VERTEX
  5
59B
100
AcDbEntity
  8
OBJECT
100
AcDbVertex
100
AcDb2dVertex
 10
2585.3920000044973
 20
440.00000000312809
 30
0.0
 42
-0.4142135623731011
 70
               2
 50
-2830202108703245.5
  0
VERTEX
  5
59C
100
AcDbEntity
  8
OBJECT
100
AcDbVertex
100
AcDb2dVertex
 10
2579.8920000044973
 20
445.50000000312809
 30
0.0
  0
SEQEND
  5
59D
100
AcDbEntity
  8
OBJECT
  0
CIRCLE
  5
59E
100
AcDbEntity
  8
OBJECT
100
AcDbCircle
 10
2450.3920000044973
 20
570.00000000312809
 30
0.0
 40
29.999968404150003
  0
LINE
  5
59F
100
AcDbEntity
  8
CENTER
100
AcDbLine
 10
2410.3920000044973
 20
570.00000000312809
 30
0.0
 11
2490.3920000044973
 21
570.00000000312809
 31
0.0
  0
LINE
  5
5A0
100
AcDbEntity
  8
CENTER
100
AcDbLine
 10
2450.3920000044973
 20
530.00000000312809
 30
0.0
 11
2450.3920000044973
 21
610.00000000312809
 31
0.0
  0
LINE
  5
5A1
100
AcDbEntity
  8
OBJECT
100
AcDbLine
 10
1430.3920000044973
 20
840.00000000312798
 30
0.0
 11
1215.3920000044973
 21
840.00000000312798
 31
0.0
  0
POLYLINE
  5
5A2
100
AcDbEntity
  8
OBJECT
100
AcDb2dPolyline
 66
               1
 10
0.0
 20
0.0
 30
0.0
 70
             129
  0
VERTEX
  5
5A3
100
AcDbEntity
  8
OBJECT
100
AcDbVertex
100
AcDb2dVertex
 10
3478.3920000044973
 20
2125.0000000031278
 30
0.0
  0
VERTEX
  5
5A4
100
AcDbEntity
  8
OBJECT
100
AcDbVertex
100
AcDb2dVertex
 10
3610.3920000044973
 20
2125.0000000031278
 30
0.0
 42
0.4142135623730984
 70
               2
 50
3.1191399769264294E+17
  0
VERTEX
  5
5A5
100
AcDbEntity
  8
OBJECT
100
AcDbVertex
100
AcDb2dVertex
 10
3620.3920000044973
 20
2135.0000000031278
 30
0.0
  0
VERTEX
  5
5A6
100
AcDbEntity
  8
OBJECT
100
AcDbVertex
100
AcDb2dVertex
 10
3620.3920000044973
 20
2195.0000000031278
 30
0.0
 42
0.414213562373095
 70
               2
  0
VERTEX
  5
5A7
100
AcDbEntity
  8
OBJECT
100
AcDbVertex
100
AcDb2dVertex
 10
3610.3920000044973
 20
2205.0000000031278
 30
0.0
  0
VERTEX
  5
5A8
100
AcDbEntity
  8
OBJECT
100
AcDbVertex
100
AcDb2dVertex
 10
3560.3920000044973
 20
2205.0000000031278
 30
0.0
  0
VERTEX
  5
5A9
100
AcDbEntity
  8
OBJECT
100
AcDbVertex
100
AcDb2dVertex
 10
3560.3920000044973
 20
2200.0000000031278
 30
0.0
  0
VERTEX
  5
5AA
100
AcDbEntity
  8
OBJECT
100
AcDbVertex
100
AcDb2dVertex
 10
3610.3920000044973
 20
2200.0000000031278
 30
0.0
 42
-0.414213562373095
 70
               2
 50
1.8714839861558573E+17
  0
VERTEX
  5
5AB
100
AcDbEntity
  8
OBJECT
100
AcDbVertex
100
AcDb2dVertex
 10
3615.3920000044973
 20
2195.0000000031278
 30
0.0
  0
VERTEX
  5
5AC
100
AcDbEntity
  8
OBJECT
100
AcDbVertex
100
AcDb2dVertex
 10
3615.3920000044973
 20
2135.0000000031278
 30
0.0
 42
-0.4142135623731018
 70
               2
  0
VERTEX
  5
5AD
100
AcDbEntity
  8
OBJECT
100
AcDbVertex
100
AcDb2dVertex
 10
3610.3920000044973
 20
2130.0000000031278
 30
0.0
  0
VERTEX
  5
5AE
100
AcDbEntity
  8
OBJECT
100
AcDbVertex
100
AcDb2dVertex
 10
3478.3920000044973
 20
2130.0000000031278
 30
0.0
  0
SEQEND
  5
5AF
100
AcDbEntity
  8
OBJECT
  0
DIMENSION
  5
5B0
100
AcDbEntity
  8
DIMENTION
100
AcDbDimension
  2
*D8
 10
3702.4000000044971
 20
990.00000000312798
 30
0.0
 11
3702.4000000044971
 21
590.00000000312798
 31
0.0
 70
               1
  3
CAD
100
AcDbAlignedDimension
 13
3420.3920000044973
 23
190.00000000312798
 33
0.0
 14
3478.3920000044973
 24
990.00000000312798
 34
0.0
 50
90.0
1001
ACAD
1000
DSTYLE
1002
{
1070
             271
1070
               0
1070
             340
1005
6F
1070
             147
1040
0.9999999962747097
1002
}
  0
DIMENSION
  5
5B1
100
AcDbEntity
  8
DIMENTION
100
AcDbDimension
  2
*D9
 10
3455.3920000044973
 20
1623.000000003128
 30
0.0
 11
2870.3920000044973
 21
1623.9999999994027
 31
0.0
 70
             129
  3
CAD
100
AcDbAlignedDimension
 13
2285.3920000044973
 23
1530.000000003128
 33
0.0
 14
3455.3920000044973
 24
1530.000000003128
 34
0.0
1001
ACAD
1000
DSTYLE
1002
{
1070
             271
1070
               0
1070
             340
1005
6F
1070
             147
1040
0.9999999962747097
1002
}
  0
DIMENSION
  5
5B2
100
AcDbEntity
  8
DIMENTION
100
AcDbDimension
  2
*D10
 10
3779.4000000044971
 20
1530.000000003128
 30
0.0
 11
3779.4000000044971
 21
860.00000000312798
 31
0.0
 70
               1
  3
CAD
100
AcDbAlignedDimension
 13
3420.3920000044973
 23
190.00000000312798
 33
0.0
 14
3455.3920000044973
 24
1530.000000003128
 34
0.0
 50
90.0
1001
ACAD
1000
DSTYLE
1002
{
1070
             271
1070
               0
1070
             340
1005
6F
1070
             147
1040
0.9999999962747097
1002
}
  0
DIMENSION
  5
5B3
100
AcDbEntity
  8
DIMENTION
100
AcDbDimension
  2
*D11
 10
2405.4000000044971
 20
360.00000000312798
 30
0.0
 11
2404.4000000082224
 21
275.00000000312798
 31
0.0
 70
             129
  3
CAD
100
AcDbAlignedDimension
 13
2460.3920000044973
 23
190.00000000312798
 33
0.0
 14
2460.3920000044973
 24
360.00000000312798
 34
0.0
 50
90.0
1001
ACAD
1000
DSTYLE
1002
{
1070
             271
1070
               0
1070
             340
1005
6F
1070
             147
1040
0.9999999962747097
1002
}
  0
DIMENSION
  5
5B4
100
AcDbEntity
  8
DIMENTION
100
AcDbDimension
  2
*D12
 10
3657.4000000044971
 20
440.00000000312809
 30
0.0
 11
3658.4000000007718
 21
327.00103760078423
 31
0.0
 70
             129
  3
CAD
100
AcDbAlignedDimension
 13
3430.3920000044973
 23
190.00000000312798
 33
0.0
 14
3620.3920000044973
 24
440.00000000312809
 34
0.0
 50
90.0
1001
ACAD
1000
DSTYLE
1002
{
1070
             271
1070
               0
1070
             340
1005
6F
1070
             147
1040
0.9999999962747097
1002
}
  0
DIMENSION
  5
5B5
100
AcDbEntity
  8
DIMENTION
100
AcDbDimension
  2
*D13
 10
1417.3920000044973
 20
1710.000000003128
 30
0.0
 11
1094.8920000044973
 21
1710.000000003128
 31
0.0
 70
               1
  3
CAD
100
AcDbAlignedDimension
 13
772.39200000449728
 23
1530.000000003128
 33
0.0
 14
1417.3920000044973
 24
1530.000000003128
 34
0.0
1001
ACAD
1000
DSTYLE
1002
{
1070
             271
1070
               0
1070
             340
1005
6F
1070
             147
1040
0.9999999962747097
1002
}
  0
DIMENSION
  5
5B6
100
AcDbEntity
  8
DIMENTION
100
AcDbDimension
  2
*D14
 10
1243.3920000044973
 20
1390.000000003128
 30
0.0
 11
1243.3920000044973
 21
1190.000000003128
 31
0.0
 70
               1
  3
CAD
100
AcDbAlignedDimension
 13
1393.8920000044973
 23
990.00000000312798
 33
0.0
 14
1393.8920000044973
 24
1390.000000003128
 34
0.0
 50
90.0
1001
ACAD
1000
DSTYLE
1002
{
1070
             271
1070
               0
1070
             340
1005
6F
1070
             147
1040
0.9999999962747097
1002
}
  0
DIMENSION
  5
5B7
100
AcDbEntity
  8
DIMENTION
100
AcDbDimension
  2
*D15
 10
2490.3920000044973
 20
2325.0000000031278
 30
0.0
 11
2680.3920000044973
 21
2325.0000000031278
 31
0.0
 70
               1
  3
CAD
100
AcDbAlignedDimension
 13
2870.3920000044973
 23
2245.0000000031278
 33
0.0
 14
2490.3920000044973
 24
2245.0000000031278
 34
0.0
1001
ACAD
1000
DSTYLE
1002
{
1070
             271
1070
               0
1070
             340
1005
6F
1070
             147
1040
0.9999999962747097
1002
}
  0
DIMENSION
  5
5B8
100
AcDbEntity
  8
DIMENTION
100
AcDbDimension
  2
*D16
 10
3760.4000000044971
 20
2495.0000000031278
 30
0.0
 11
3761.4000000007718
 21
2157.0037841828153
 31
0.0
 70
             129
  3
CAD
100
AcDbAlignedDimension
 13
3460.3920000044973
 23
1835.000000003128
 33
0.0
 14
3478.3920000044973
 24
2495.0000000031278
 34
0.0
 50
90.0
1001
ACAD
1000
DSTYLE
1002
{
1070
             271
1070
               0
1070
             340
1005
6F
1070
             147
1040
0.9999999962747097
1002
}
  0
DIMENSION
  5
5B9
100
AcDbEntity
  8
DIMENTION
100
AcDbDimension
  2
*D17
 10
3760.4000000044971
 20
1806.500000003128
 30
0.0
 11
3761.4000000007718
 21
1767.000000003128
 31
0.0
 70
             129
  3
CAD
100
AcDbAlignedDimension
 13
3460.3920000044973
 23
1835.000000003128
 33
0.0
 14
3478.3920000044973
 24
1806.500000003128
 34
0.0
 50
90.0
1001
ACAD
1000
DSTYLE
1002
{
1070
             271
1070
               0
1070
             340
1005
6F
1070
             174
1070
               0
1070
             147
1040
0.9999999962747097
1002
}
  0
DIMENSION
  5
5BA
100
AcDbEntity
  8
DIMENTION
100
AcDbDimension
  2
*D18
 10
3760.4000000044971
 20
2513.0000000031278
 30
0.0
 11
3761.4000000007718
 21
2534.0000000031278
 31
0.0
 70
             129
  3
CAD
100
AcDbAlignedDimension
 13
3478.3920000044973
 23
2495.0000000031278
 33
0.0
 14
3460.3920000044973
 24
2513.0000000031278
 34
0.0
 50
90.0
1001
ACAD
1000
DSTYLE
1002
{
1070
             271
1070
               0
1070
             340
1005
6F
1070
             174
1070
               0
1070
             147
1040
0.9999999962747097
1002
}
  0
DIMENSION
  5
5BB
100
AcDbEntity
  8
DIMENTION
100
AcDbDimension
  2
*D19
 10
3830.3920000044973
 20
2513.0000000031278
 30
0.0
 11
3830.3920000044973
 21
2159.7500000031278
 31
0.0
 70
               1
  3
CAD
100
AcDbAlignedDimension
 13
3478.3920000044973
 23
1806.500000003128
 33
0.0
 14
3460.3920000044973
 24
2513.0000000031278
 34
0.0
 50
90.0
1001
ACAD
1000
DSTYLE
1002
{
1070
             271
1070
               0
1070
             340
1005
6F
1070
             147
1040
0.9999999962747097
1002
}
  0
DIMENSION
  5
5BC
100
AcDbEntity
  8
DIMENTION
100
AcDbDimension
  2
*D20
 10
2280.3920000044973
 20
1740.000000003128
 30
0.0
 11
2870.3920000044973
 21
1740.000000003128
 31
0.0
 70
               1
  3
CAD
100
AcDbAlignedDimension
 13
3460.3920000044973
 23
1824.500000003128
 33
0.0
 14
2280.3920000044973
 24
1824.500000003128
 34
0.0
1001
ACAD
1000
DSTYLE
1002
{
1070
             271
1070
               0
1070
             340
1005
6F
1070
             147
1040
0.9999999962747097
1002
}
  0
DIMENSION
  5
5BD
100
AcDbEntity
  8
DIMENTION
100
AcDbDimension
  2
*D21
 10
3478.3920000044973
 20
1740.000000003128
 30
0.0
 11
3513.3920000044973
 21
1740.9999999994027
 31
0.0
 70
             129
  3
CAD
100
AcDbAlignedDimension
 13
3460.3920000044973
 23
1824.500000003128
 33
0.0
 14
3478.3920000044973
 24
1806.500000003128
 34
0.0
1001
ACAD
1000
DSTYLE
1002
{
1070
             271
1070
               0
1070
             340
1005
6F
1070
             174
1070
               0
1070
             147
1040
0.9999999962747097
1002
}
  0
DIMENSION
  5
5BE
100
AcDbEntity
  8
DIMENTION
100
AcDbDimension
  2
*D22
 10
2262.3920000044973
 20
1740.000000003128
 30
0.0
 11
2238.3920000044973
 21
1740.9999999994027
 31
0.0
 70
             129
  3
CAD
100
AcDbAlignedDimension
 13
2280.3920000044973
 23
1824.500000003128
 33
0.0
 14
2262.3920000044973
 24
1806.500000003128
 34
0.0
1001
ACAD
1000
DSTYLE
1002
{
1070
             271
1070
               0
1070
             340
1005
6F
1070
             174
1070
               0
1070
             147
1040
0.9999999962747097
1002
}
  0
DIMENSION
  5
5BF
100
AcDbEntity
  8
DIMENTION
100
AcDbDimension
  2
*D23
 10
3478.3920000044973
 20
1695.000000003128
 30
0.0
 11
2870.3920000044973
 21
1695.9999999994027
 31
0.0
 70
             129
  3
CAD
100
AcDbAlignedDimension
 13
2262.3920000044973
 23
1806.500000003128
 33
0.0
 14
3478.3920000044973
 24
1806.500000003128
 34
0.0
1001
ACAD
1000
DSTYLE
1002
{
1070
             271
1070
               0
1070
             340
1005
6F
1070
             147
1040
0.9999999962747097
1002
}
  0
DIMENSION
  5
5C0
100
AcDbEntity
  8
DIMENTION
100
AcDbDimension
  2
*D24
 10
3620.3920000044973
 20
2270.0000000031278
 30
0.0
 11
3540.3920000044973
 21
2270.0000000031278
 31
0.0
 70
               1
  3
CAD
100
AcDbAlignedDimension
 13
3460.3920000044973
 23
2205.0000000031278
 33
0.0
 14
3620.3920000044973
 24
2205.0000000031278
 34
0.0
1001
ACAD
1000
DSTYLE
1002
{
1070
             271
1070
               0
1070
             340
1005
6F
1070
             147
1040
0.9999999962747097
1002
}
  0
DIMENSION
  5
5C1
100
AcDbEntity
  8
DIMENTION
100
AcDbDimension
  2
*D25
 10
3689.4000000044971
 20
2125.0000000031278
 30
0.0
 11
3690.4000000007718
 21
2165.0000000031278
 31
0.0
 70
             129
  3
CAD
100
AcDbAlignedDimension
 13
3620.3920000044973
 23
2205.0000000031278
 33
0.0
 14
3620.3920000044973
 24
2125.0000000031278
 34
0.0
 50
90.0
1001
ACAD
1000
DSTYLE
1002
{
1070
             271
1070
               0
1070
             340
1005
6F
1070
             147
1040
0.9999999962747097
1002
}
  0
DIMENSION
  5
5C2
100
AcDbEntity
  8
DIMENTION
100
AcDbDimension
  2
*D26
 10
1417.3920000044973
 20
1630.000000003128
 30
0.0
 11
1258.8920000044973
 21
1630.000000003128
 31
0.0
 70
               1
  3
CAD
100
AcDbAlignedDimension
 13
1100.3920000044973
 23
1530.000000003128
 33
0.0
 14
1417.3920000044973
 24
1530.000000003128
 34
0.0
1001
ACAD
1000
DSTYLE
1002
{
1070
             271
1070
               0
1070
             340
1005
6F
1070
             147
1040
0.9999999962747097
1002
}
  0
DIMENSION
  5
5C3
100
AcDbEntity
  8
DIMENTION
100
AcDbDimension
  2
*D27
 10
772.39200000449728
 20
1630.000000003128
 30
0.0
 11
936.39200000449728
 21
1630.000000003128
 31
0.0
 70
               1
  3
CAD
100
AcDbAlignedDimension
 13
1100.3920000044973
 23
1530.000000003128
 33
0.0
 14
772.39200000449728
 24
1530.000000003128
 34
0.0
1001
ACAD
1000
DSTYLE
1002
{
1070
             271
1070
               0
1070
             340
1005
6F
1070
             147
1040
0.9999999962747097
1002
}
  0
DIMENSION
  5
5C4
100
AcDbEntity
  8
DIMENTION
100
AcDbDimension
  2
*D28
 10
2375.3920000044973
 20
1912.000000003128
 30
0.0
 11
2374.3920000082226
 21
2130.9969482453153
 31
0.0
 70
             129
  3
CAD
100
AcDbAlignedDimension
 13
2440.3920000044973
 23
2418.0000000031278
 33
0.0
 14
2440.3920000044973
 24
1912.000000003128
 34
0.0
 50
90.0
1001
ACAD
1000
DSTYLE
1002
{
1070
             271
1070
               0
1070
             340
1005
6F
1070
             147
1040
0.9999999962747097
1002
}
  0
MTEXT
  5
5C5
100
AcDbEntity
  8
DIMENTION
100
AcDbMText
 10
2582.5884000000001
 20
308.9324000031279
 30
0.0
 40
33.866666666666667
 41
0.0
 71
               1
 72
               1
  1
排水口　\P40Aめすねじ
  7
________
  0
LINE
  5
5C6
100
AcDbEntity
  8
DIMENTION
100
AcDbLine
 10
2566.0
 20
262.41680000312817
 30
0.0
 11
2806.0
 21
262.41680000312817
 31
0.0
  0
LINE
  5
5C7
100
AcDbEntity
  8
DIMENTION
100
AcDbLine
 10
2566.0
 20
262.41680000312817
 30
0.0
 11
2490.3920000044973
 21
360.00000000312798
 31
0.0
  0
LINE
  5
5C8
100
AcDbEntity
  8
DIMENTION
100
AcDbLine
 10
2490.3920000044973
 20
360.00000000312798
 30
0.0
 11
2516.2939282334314
 21
339.76319577905315
 31
0.0
  0
LINE
  5
5C9
100
AcDbEntity
  8
DIMENTION
100
AcDbLine
 10
2490.3920000044973
 20
360.00000000312798
 30
0.0
 11
2502.7053257457178
 21
329.52344933919971
 31
0.0
  0
LINE
  5
5CA
100
AcDbEntity
  8
DIMENTION
100
AcDbLine
 10
2566.0
 20
212.41680000312817
 30
0.0
 11
2806.0
 21
212.41680000312817
 31
0.0
  0
LINE
  5
5CB
100
AcDbEntity
  8
DIMENTION
100
AcDbLine
 10
2566.0
 20
262.41680000312817
 30
0.0
 11
2566.0
 21
212.41680000312817
 31
0.0
  0
POLYLINE
  5
5CC
100
AcDbEntity
  8
OBJECT
100
AcDb2dPolyline
 66
               1
 10
0.0
 20
0.0
 30
0.0
 70
               1
 75
               5
  0
VERTEX
  5
5CD
100
AcDbEntity
  8
OBJECT
100
AcDbVertex
100
AcDb2dVertex
 10
3018.500000004497
 20
2012.4326000031278
 30
0.0
  0
VERTEX
  5
5CE
100
AcDbEntity
  8
OBJECT
100
AcDbVertex
100
AcDb2dVertex
 10
2518.500000004497
 20
2012.4326000031278
 30
0.0
  0
VERTEX
  5
5CF
100
AcDbEntity
  8
OBJECT
100
AcDbVertex
100
AcDb2dVertex
 10
2518.500000004497
 20
2087.488200003128
 30
0.0
  0
VERTEX
  5
5D0
100
AcDbEntity
  8
OBJECT
100
AcDbVertex
100
AcDb2dVertex
 10
3018.500000004497
 20
2087.488200003128
 30
0.0
  0
VERTEX
  5
5D1
100
AcDbEntity
  8
OBJECT
100
AcDbVertex
100
AcDb2dVertex
 10
3018.5010000044967
 20
2149.9604000031277
 30
0.0
  0
VERTEX
  5
5D2
100
AcDbEntity
  8
OBJECT
100
AcDbVertex
100
AcDb2dVertex
 10
3318.500000004497
 20
2049.9598000031278
 30
0.0
  0
VERTEX
  5
5D3
100
AcDbEntity
  8
OBJECT
100
AcDbVertex
100
AcDb2dVertex
 10
3018.4990000044972
 20
1949.9604000031279
 30
0.0
  0
SEQEND
  5
5D4
100
AcDbEntity
  8
OBJECT
  0
MTEXT
  5
5D5
100
AcDbEntity
  8
TEXT
100
AcDbMText
 10
2542.8333000044968
 20
2069.458300003128
 30
0.0
 40
33.866666666666667
 41
0.0
 71
               1
 72
               1
  1
ラック流れ方向
  7
________
  0
POLYLINE
  5
5D6
100
AcDbEntity
  8
OBJECT
100
AcDb2dPolyline
 66
               1
 10
0.0
 20
0.0
 30
0.0
 70
             128
  0
VERTEX
  5
5D7
100
AcDbEntity
  8
OBJECT
100
AcDbVertex
100
AcDb2dVertex
 10
1355.3920000044973
 20
800.00000000312798
 30
0.0
  0
VERTEX
  5
5D8
100
AcDbEntity
  8
OBJECT
100
AcDbVertex
100
AcDb2dVertex
 10
1360.3920000044973
 20
800.00000000312798
 30
0.0
  0
VERTEX
  5
5D9
100
AcDbEntity
  8
OBJECT
100
AcDbVertex
100
AcDb2dVertex
 10
1360.3920000044973
 20
800.00000000312798
 30
0.0
  0
VERTEX
  5
5DA
100
AcDbEntity
  8
OBJECT
100
AcDbVertex
100
AcDb2dVertex
 10
1360.3920000044973
 20
800.00000000312798
 30
0.0
 42
0.4142135623730917
 70
               2
 50
3.1191399769264294E+17
  0
VERTEX
  5
5DB
100
AcDbEntity
  8
OBJECT
100
AcDbVertex
100
AcDb2dVertex
 10
1370.3920000044973
 20
810.00000000312798
 30
0.0
  0
VERTEX
  5
5DC
100
AcDbEntity
  8
OBJECT
100
AcDbVertex
100
AcDb2dVertex
 10
1355.3920000044973
 20
810.00000000312798
 30
0.0
  0
SEQEND
  5
5DD
100
AcDbEntity
  8
OBJECT
  0
POLYLINE
  5
5DE
100
AcDbEntity
  8
OBJECT
100
AcDb2dPolyline
 66
               1
 10
0.0
 20
0.0
 30
0.0
 70
             128
  0
VERTEX
  5
5DF
100
AcDbEntity
  8
OBJECT
100
AcDbVertex
100
AcDb2dVertex
 10
1355.3920000044973
 20
785.00000000312798
 30
0.0
  0
VERTEX
  5
5E0
100
AcDbEntity
  8
OBJECT
100
AcDbVertex
100
AcDb2dVertex
 10
1360.3920000044973
 20
785.00000000312798
 30
0.0
  0
VERTEX
  5
5E1
100
AcDbEntity
  8
OBJECT
100
AcDbVertex
100
AcDb2dVertex
 10
1360.3920000044973
 20
785.00000000312798
 30
0.0
  0
VERTEX
  5
5E2
100
AcDbEntity
  8
OBJECT
100
AcDbVertex
100
AcDb2dVertex
 10
1360.3920000044973
 20
785.00000000312798
 30
0.0
 42
0.4142135623730917
 70
               2
 50
3.1191399769264294E+17
  0
VERTEX
  5
5E3
100
AcDbEntity
  8
OBJECT
100
AcDbVertex
100
AcDb2dVertex
 10
1370.3920000044973
 20
795.00000000312798
 30
0.0
  0
VERTEX
  5
5E4
100
AcDbEntity
  8
OBJECT
100
AcDbVertex
100
AcDb2dVertex
 10
1355.3920000044973
 20
795.00000000312798
 30
0.0
  0
SEQEND
  5
5E5
100
AcDbEntity
  8
OBJECT
  0
POLYLINE
  5
5E6
100
AcDbEntity
  8
OBJECT
100
AcDb2dPolyline
 66
               1
 10
0.0
 20
0.0
 30
0.0
 70
             128
  0
VERTEX
  5
5E7
100
AcDbEntity
  8
OBJECT
100
AcDbVertex
100
AcDb2dVertex
 10
1355.3920000044973
 20
770.00000000312798
 30
0.0
  0
VERTEX
  5
5E8
100
AcDbEntity
  8
OBJECT
100
AcDbVertex
100
AcDb2dVertex
 10
1360.3920000044973
 20
770.00000000312798
 30
0.0
  0
VERTEX
  5
5E9
100
AcDbEntity
  8
OBJECT
100
AcDbVertex
100
AcDb2dVertex
 10
1360.3920000044973
 20
770.00000000312798
 30
0.0
  0
VERTEX
  5
5EA
100
AcDbEntity
  8
OBJECT
100
AcDbVertex
100
AcDb2dVertex
 10
1360.3920000044973
 20
770.00000000312798
 30
0.0
 42
0.4142135623730917
 70
               2
 50
3.1191399769264294E+17
  0
VERTEX
  5
5EB
100
AcDbEntity
  8
OBJECT
100
AcDbVertex
100
AcDb2dVertex
 10
1370.3920000044973
 20
780.00000000312798
 30
0.0
  0
VERTEX
  5
5EC
100
AcDbEntity
  8
OBJECT
100
AcDbVertex
100
AcDb2dVertex
 10
1355.3920000044973
 20
780.00000000312798
 30
0.0
  0
SEQEND
  5
5ED
100
AcDbEntity
  8
OBJECT
  0
POLYLINE
  5
5EE
100
AcDbEntity
  8
OBJECT
100
AcDb2dPolyline
 66
               1
 10
0.0
 20
0.0
 30
0.0
 70
             128
  0
VERTEX
  5
5EF
100
AcDbEntity
  8
OBJECT
100
AcDbVertex
100
AcDb2dVertex
 10
1355.3920000044973
 20
755.00000000312798
 30
0.0
  0
VERTEX
  5
5F0
100
AcDbEntity
  8
OBJECT
100
AcDbVertex
100
AcDb2dVertex
 10
1360.3920000044973
 20
755.00000000312798
 30
0.0
  0
VERTEX
  5
5F1
100
AcDbEntity
  8
OBJECT
100
AcDbVertex
100
AcDb2dVertex
 10
1360.3920000044973
 20
755.00000000312798
 30
0.0
  0
VERTEX
  5
5F2
100
AcDbEntity
  8
OBJECT
100
AcDbVertex
100
AcDb2dVertex
 10
1360.3920000044973
 20
755.00000000312798
 30
0.0
 42
0.4142135623730917
 70
               2
 50
3.1191399769264294E+17
  0
VERTEX
  5
5F3
100
AcDbEntity
  8
OBJECT
100
AcDbVertex
100
AcDb2dVertex
 10
1370.3920000044973
 20
765.00000000312798
 30
0.0
  0
VERTEX
  5
5F4
100
AcDbEntity
  8
OBJECT
100
AcDbVertex
100
AcDb2dVertex
 10
1355.3920000044973
 20
765.00000000312798
 30
0.0
  0
SEQEND
  5
5F5
100
AcDbEntity
  8
OBJECT
  0
POLYLINE
  5
5F6
100
AcDbEntity
  8
OBJECT
100
AcDb2dPolyline
 66
               1
 10
0.0
 20
0.0
 30
0.0
 70
             128
  0
VERTEX
  5
5F7
100
AcDbEntity
  8
OBJECT
100
AcDbVertex
100
AcDb2dVertex
 10
1355.3920000044973
 20
740.00000000312809
 30
0.0
  0
VERTEX
  5
5F8
100
AcDbEntity
  8
OBJECT
100
AcDbVertex
100
AcDb2dVertex
 10
1360.3920000044973
 20
740.00000000312809
 30
0.0
  0
VERTEX
  5
5F9
100
AcDbEntity
  8
OBJECT
100
AcDbVertex
100
AcDb2dVertex
 10
1360.3920000044973
 20
740.00000000312809
 30
0.0
  0
VERTEX
  5
5FA
100
AcDbEntity
  8
OBJECT
100
AcDbVertex
100
AcDb2dVertex
 10
1360.3920000044973
 20
740.00000000312809
 30
0.0
 42
0.4142135623730984
 70
               2
 50
3.1191399769264294E+17
  0
VERTEX
  5
5FB
100
AcDbEntity
  8
OBJECT
100
AcDbVertex
100
AcDb2dVertex
 10
1370.3920000044973
 20
750.00000000312798
 30
0.0
  0
VERTEX
  5
5FC
100
AcDbEntity
  8
OBJECT
100
AcDbVertex
100
AcDb2dVertex
 10
1355.3920000044973
 20
750.00000000312798
 30
0.0
  0
SEQEND
  5
5FD
100
AcDbEntity
  8
OBJECT
  0
POLYLINE
  5
5FE
100
AcDbEntity
  8
OBJECT
100
AcDb2dPolyline
 66
               1
 10
0.0
 20
0.0
 30
0.0
 70
             128
  0
VERTEX
  5
5FF
100
AcDbEntity
  8
OBJECT
100
AcDbVertex
100
AcDb2dVertex
 10
1355.3920000044973
 20
725.00000000312809
 30
0.0
  0
VERTEX
  5
600
100
AcDbEntity
  8
OBJECT
100
AcDbVertex
100
AcDb2dVertex
 10
1360.3920000044973
 20
725.00000000312809
 30
0.0
  0
VERTEX
  5
601
100
AcDbEntity
  8
OBJECT
100
AcDbVertex
100
AcDb2dVertex
 10
1360.3920000044973
 20
725.00000000312809
 30
0.0
  0
VERTEX
  5
602
100
AcDbEntity
  8
OBJECT
100
AcDbVertex
100
AcDb2dVertex
 10
1360.3920000044973
 20
725.00000000312809
 30
0.0
 42
0.414213562373095
 70
               2
 50
3.1191399769264294E+17
  0
VERTEX
  5
603
100
AcDbEntity
  8
OBJECT
100
AcDbVertex
100
AcDb2dVertex
 10
1370.3920000044973
 20
735.00000000312809
 30
0.0
  0
VERTEX
  5
604
100
AcDbEntity
  8
OBJECT
100
AcDbVertex
100
AcDb2dVertex
 10
1355.3920000044973
 20
735.00000000312809
 30
0.0
  0
SEQEND
  5
605
100
AcDbEntity
  8
OBJECT
  0
POLYLINE
  5
606
100
AcDbEntity
  8
OBJECT
100
AcDb2dPolyline
 66
               1
 10
0.0
 20
0.0
 30
0.0
 70
             128
  0
VERTEX
  5
607
100
AcDbEntity
  8
OBJECT
100
AcDbVertex
100
AcDb2dVertex
 10
1355.3920000044973
 20
710.00000000312809
 30
0.0
  0
VERTEX
  5
608
100
AcDbEntity
  8
OBJECT
100
AcDbVertex
100
AcDb2dVertex
 10
1360.3920000044973
 20
710.00000000312809
 30
0.0
  0
VERTEX
  5
609
100
AcDbEntity
  8
OBJECT
100
AcDbVertex
100
AcDb2dVertex
 10
1360.3920000044973
 20
710.00000000312809
 30
0.0
  0
VERTEX
  5
60A
100
AcDbEntity
  8
OBJECT
100
AcDbVertex
100
AcDb2dVertex
 10
1360.3920000044973
 20
710.00000000312809
 30
0.0
 42
0.414213562373095
 70
               2
 50
3.1191399769264294E+17
  0
VERTEX
  5
60B
100
AcDbEntity
  8
OBJECT
100
AcDbVertex
100
AcDb2dVertex
 10
1370.3920000044973
 20
720.00000000312809
 30
0.0
  0
VERTEX
  5
60C
100
AcDbEntity
  8
OBJECT
100
AcDbVertex
100
AcDb2dVertex
 10
1355.3920000044973
 20
720.00000000312809
 30
0.0
  0
SEQEND
  5
60D
100
AcDbEntity
  8
OBJECT
  0
POLYLINE
  5
60E
100
AcDbEntity
  8
OBJECT
100
AcDb2dPolyline
 66
               1
 10
0.0
 20
0.0
 30
0.0
 70
             128
  0
VERTEX
  5
60F
100
AcDbEntity
  8
OBJECT
100
AcDbVertex
100
AcDb2dVertex
 10
1355.3920000044973
 20
695.00000000312809
 30
0.0
  0
VERTEX
  5
610
100
AcDbEntity
  8
OBJECT
100
AcDbVertex
100
AcDb2dVertex
 10
1360.3920000044973
 20
695.00000000312809
 30
0.0
  0
VERTEX
  5
611
100
AcDbEntity
  8
OBJECT
100
AcDbVertex
100
AcDb2dVertex
 10
1360.3920000044973
 20
695.00000000312809
 30
0.0
  0
VERTEX
  5
612
100
AcDbEntity
  8
OBJECT
100
AcDbVertex
100
AcDb2dVertex
 10
1360.3920000044973
 20
695.00000000312809
 30
0.0
 42
0.414213562373095
 70
               2
 50
3.1191399769264294E+17
  0
VERTEX
  5
613
100
AcDbEntity
  8
OBJECT
100
AcDbVertex
100
AcDb2dVertex
 10
1370.3920000044973
 20
705.00000000312809
 30
0.0
  0
VERTEX
  5
614
100
AcDbEntity
  8
OBJECT
100
AcDbVertex
100
AcDb2dVertex
 10
1355.3920000044973
 20
705.00000000312809
 30
0.0
  0
SEQEND
  5
615
100
AcDbEntity
  8
OBJECT
  0
POLYLINE
  5
616
100
AcDbEntity
  8
OBJECT
100
AcDb2dPolyline
 66
               1
 10
0.0
 20
0.0
 30
0.0
 70
             128
  0
VERTEX
  5
617
100
AcDbEntity
  8
OBJECT
100
AcDbVertex
100
AcDb2dVertex
 10
1355.3920000044973
 20
680.00000000312809
 30
0.0
  0
VERTEX
  5
618
100
AcDbEntity
  8
OBJECT
100
AcDbVertex
100
AcDb2dVertex
 10
1360.3920000044973
 20
680.00000000312809
 30
0.0
  0
VERTEX
  5
619
100
AcDbEntity
  8
OBJECT
100
AcDbVertex
100
AcDb2dVertex
 10
1360.3920000044973
 20
680.00000000312809
 30
0.0
  0
VERTEX
  5
61A
100
AcDbEntity
  8
OBJECT
100
AcDbVertex
100
AcDb2dVertex
 10
1360.3920000044973
 20
680.00000000312809
 30
0.0
 42
0.414213562373095
 70
               2
 50
3.1191399769264294E+17
  0
VERTEX
  5
61B
100
AcDbEntity
  8
OBJECT
100
AcDbVertex
100
AcDb2dVertex
 10
1370.3920000044973
 20
690.00000000312809
 30
0.0
  0
VERTEX
  5
61C
100
AcDbEntity
  8
OBJECT
100
AcDbVertex
100
AcDb2dVertex
 10
1355.3920000044973
 20
690.00000000312809
 30
0.0
  0
SEQEND
  5
61D
100
AcDbEntity
  8
OBJECT
  0
POLYLINE
  5
61E
100
AcDbEntity
  8
OBJECT
100
AcDb2dPolyline
 66
               1
 10
0.0
 20
0.0
 30
0.0
 70
             128
  0
VERTEX
  5
61F
100
AcDbEntity
  8
OBJECT
100
AcDbVertex
100
AcDb2dVertex
 10
1355.3920000044973
 20
665.00000000312809
 30
0.0
  0
VERTEX
  5
620
100
AcDbEntity
  8
OBJECT
100
AcDbVertex
100
AcDb2dVertex
 10
1360.3920000044973
 20
665.00000000312809
 30
0.0
  0
VERTEX
  5
621
100
AcDbEntity
  8
OBJECT
100
AcDbVertex
100
AcDb2dVertex
 10
1360.3920000044973
 20
665.00000000312809
 30
0.0
  0
VERTEX
  5
622
100
AcDbEntity
  8
OBJECT
100
AcDbVertex
100
AcDb2dVertex
 10
1360.3920000044973
 20
665.00000000312809
 30
0.0
 42
0.414213562373095
 70
               2
 50
3.1191399769264294E+17
  0
VERTEX
  5
623
100
AcDbEntity
  8
OBJECT
100
AcDbVertex
100
AcDb2dVertex
 10
1370.3920000044973
 20
675.00000000312809
 30
0.0
  0
VERTEX
  5
624
100
AcDbEntity
  8
OBJECT
100
AcDbVertex
100
AcDb2dVertex
 10
1355.3920000044973
 20
675.00000000312809
 30
0.0
  0
SEQEND
  5
625
100
AcDbEntity
  8
OBJECT
  0
POLYLINE
  5
626
100
AcDbEntity
  8
OBJECT
100
AcDb2dPolyline
 66
               1
 10
0.0
 20
0.0
 30
0.0
 70
               1
 75
               5
  0
VERTEX
  5
627
100
AcDbEntity
  8
OBJECT
100
AcDbVertex
100
AcDb2dVertex
 10
3553.3920000044973
 20
2195.0000000031278
 30
0.0
  0
VERTEX
  5
628
100
AcDbEntity
  8
OBJECT
100
AcDbVertex
100
AcDb2dVertex
 10
3553.3920000044973
 20
2135.0000000031278
 30
0.0
  0
VERTEX
  5
629
100
AcDbEntity
  8
OBJECT
100
AcDbVertex
100
AcDb2dVertex
 10
3513.3920000044973
 20
2135.0000000031278
 30
0.0
  0
VERTEX
  5
62A
100
AcDbEntity
  8
OBJECT
100
AcDbVertex
100
AcDb2dVertex
 10
3513.3920000044973
 20
2140.0000000031278
 30
0.0
  0
VERTEX
  5
62B
100
AcDbEntity
  8
OBJECT
100
AcDbVertex
100
AcDb2dVertex
 10
3548.3920000044973
 20
2140.0000000031278
 30
0.0
  0
VERTEX
  5
62C
100
AcDbEntity
  8
OBJECT
100
AcDbVertex
100
AcDb2dVertex
 10
3548.3920000044973
 20
2190.0000000031278
 30
0.0
  0
VERTEX
  5
62D
100
AcDbEntity
  8
OBJECT
100
AcDbVertex
100
AcDb2dVertex
 10
3513.3920000044973
 20
2190.0000000031278
 30
0.0
  0
VERTEX
  5
62E
100
AcDbEntity
  8
OBJECT
100
AcDbVertex
100
AcDb2dVertex
 10
3513.3920000044973
 20
2195.0000000031278
 30
0.0
  0
SEQEND
  5
62F
100
AcDbEntity
  8
OBJECT
  0
POLYLINE
  5
630
100
AcDbEntity
  8
OBJECT
100
AcDb2dPolyline
 66
               1
 10
0.0
 20
0.0
 30
0.0
 70
               1
 75
               5
  0
VERTEX
  5
631
100
AcDbEntity
  8
OBJECT
100
AcDbVertex
100
AcDb2dVertex
 10
3478.3920000044973
 20
2170.0000000031278
 30
0.0
  0
VERTEX
  5
632
100
AcDbEntity
  8
OBJECT
100
AcDbVertex
100
AcDb2dVertex
 10
3548.3920000044973
 20
2170.0000000031278
 30
0.0
  0
VERTEX
  5
633
100
AcDbEntity
  8
OBJECT
100
AcDbVertex
100
AcDb2dVertex
 10
3548.3920000044973
 20
2160.0000000031278
 30
0.0
  0
VERTEX
  5
634
100
AcDbEntity
  8
OBJECT
100
AcDbVertex
100
AcDb2dVertex
 10
3478.3920000044973
 20
2160.0000000031278
 30
0.0
  0
SEQEND
  5
635
100
AcDbEntity
  8
OBJECT
  0
POLYLINE
  5
636
100
AcDbEntity
  8
OBJECT
100
AcDb2dPolyline
 66
               1
 10
0.0
 20
0.0
 30
0.0
 75
               5
  0
VERTEX
  5
637
100
AcDbEntity
  8
OBJECT
100
AcDbVertex
100
AcDb2dVertex
 10
2262.3920000044973
 20
2040.0000000031278
 30
0.0
  0
VERTEX
  5
638
100
AcDbEntity
  8
OBJECT
100
AcDbVertex
100
AcDb2dVertex
 10
2052.8920000044973
 20
2040.0000000031278
 30
0.0
  0
VERTEX
  5
639
100
AcDbEntity
  8
OBJECT
100
AcDbVertex
100
AcDb2dVertex
 10
2052.8920000044973
 20
1910.000000003128
 30
0.0
  0
VERTEX
  5
63A
100
AcDbEntity
  8
OBJECT
100
AcDbVertex
100
AcDb2dVertex
 10
2262.3920000044973
 20
1910.000000003128
 30
0.0
  0
SEQEND
  5
63B
100
AcDbEntity
  8
OBJECT
  0
POLYLINE
  5
63C
100
AcDbEntity
  8
OBJECT
100
AcDb2dPolyline
 66
               1
 10
0.0
 20
0.0
 30
0.0
 75
               5
  0
VERTEX
  5
63D
100
AcDbEntity
  8
OBJECT
100
AcDbVertex
100
AcDb2dVertex
 10
2268.3920000044973
 20
2495.0000000031278
 30
0.0
  0
VERTEX
  5
63E
100
AcDbEntity
  8
OBJECT
100
AcDbVertex
100
AcDb2dVertex
 10
2268.3920000044973
 20
2495.0000000031278
 30
0.0
  0
VERTEX
  5
63F
100
AcDbEntity
  8
OBJECT
100
AcDbVertex
100
AcDb2dVertex
 10
2048.3920000044973
 20
2495.0000000031278
 30
0.0
  0
VERTEX
  5
640
100
AcDbEntity
  8
OBJECT
100
AcDbVertex
100
AcDb2dVertex
 10
2048.3920000044973
 20
2055.0000000031278
 30
0.0
  0
VERTEX
  5
641
100
AcDbEntity
  8
OBJECT
100
AcDbVertex
100
AcDb2dVertex
 10
2262.3920000044973
 20
2055.0000000031278
 30
0.0
  0
SEQEND
  5
642
100
AcDbEntity
  8
OBJECT
  0
POLYLINE
  5
643
100
AcDbEntity
  8
OBJECT
100
AcDb2dPolyline
 66
               1
 10
0.0
 20
0.0
 30
0.0
 75
               5
  0
VERTEX
  5
644
100
AcDbEntity
  8
OBJECT
100
AcDbVertex
100
AcDb2dVertex
 10
2332.3920000044973
 20
2513.0000000031278
 30
0.0
  0
VERTEX
  5
645
100
AcDbEntity
  8
OBJECT
100
AcDbVertex
100
AcDb2dVertex
 10
2280.3920000044973
 20
2513.0000000031278
 30
0.0
  0
VERTEX
  5
646
100
AcDbEntity
  8
OBJECT
100
AcDbVertex
100
AcDb2dVertex
 10
2280.3920000044973
 20
2495.0000000031278
 30
0.0
  0
VERTEX
  5
647
100
AcDbEntity
  8
OBJECT
100
AcDbVertex
100
AcDb2dVertex
 10
3460.3920000044973
 20
2495.0000000031278
 30
0.0
  0
VERTEX
  5
648
100
AcDbEntity
  8
OBJECT
100
AcDbVertex
100
AcDb2dVertex
 10
3460.3920000044973
 20
2513.0000000031278
 30
0.0
  0
VERTEX
  5
649
100
AcDbEntity
  8
OBJECT
100
AcDbVertex
100
AcDb2dVertex
 10
2508.3920000044973
 20
2513.0000000031278
 30
0.0
  0
SEQEND
  5
64A
100
AcDbEntity
  8
OBJECT
  0
LINE
  5
64B
100
AcDbEntity
  8
OBJECT
100
AcDbLine
 10
3865.3920000044968
 20
2595.0000000031278
 30
0.0
 11
1882.9000000044971
 21
2595.0000000031278
 31
0.0
  0
DIMENSION
  5
64C
100
AcDbEntity
  8
DIMENTION
100
AcDbDimension
  2
*D29
 10
2686.3920000044973
 20
2495.0000000031278
 30
0.0
 11
2686.3920000044973
 21
2530.0000000031278
 31
0.0
 70
               1
  3
CAD
100
AcDbAlignedDimension
 13
2508.3920000044973
 23
2565.0000000031278
 33
0.0
 14
2508.3920000044973
 24
2495.0000000031278
 34
0.0
 50
90.0
1001
ACAD
1000
DSTYLE
1002
{
1070
             271
1070
               0
1070
             340
1005
6F
1070
             147
1040
0.9999999962747097
1002
}
  0
DIMENSION
  5
64D
100
AcDbEntity
  8
DIMENTION
100
AcDbDimension
  2
*D30
 10
2686.3920000044973
 20
2565.0000000031278
 30
0.0
 11
2687.392000000772
 21
2597.9400000031283
 31
0.0
 70
             129
  3
CAD
100
AcDbAlignedDimension
 13
2470.3920000044973
 23
2575.0000000031278
 33
0.0
 14
2508.3920000044973
 24
2565.0000000031278
 34
0.0
 50
90.0
1001
ACAD
1000
DSTYLE
1002
{
1070
             271
1070
               0
1070
             340
1005
6F
1070
             174
1070
               0
1070
             147
1040
0.9999999962747097
1002
}
  0
LINE
  5
64E
100
AcDbEntity
  8
CENTER
100
AcDbLine
 10
2160.3920000044973
 20
870.00000000312798
 30
0.0
 11
2160.3920000044973
 21
270.00000000312798
 31
0.0
  0
POLYLINE
  5
64F
100
AcDbEntity
  8
OBJECT
100
AcDb2dPolyline
 66
               1
 10
0.0
 20
0.0
 30
0.0
 70
               1
 75
               5
  0
VERTEX
  5
650
100
AcDbEntity
  8
OBJECT
100
AcDbVertex
100
AcDb2dVertex
 10
2050.3920000044973
 20
835.00000000312798
 30
0.0
  0
VERTEX
  5
651
100
AcDbEntity
  8
OBJECT
100
AcDbVertex
100
AcDb2dVertex
 10
2270.3920000044973
 20
835.00000000312798
 30
0.0
  0
VERTEX
  5
652
100
AcDbEntity
  8
OBJECT
100
AcDbVertex
100
AcDb2dVertex
 10
2270.3920000044973
 20
290.00000000312798
 30
0.0
  0
VERTEX
  5
653
100
AcDbEntity
  8
OBJECT
100
AcDbVertex
100
AcDb2dVertex
 10
2050.3920000044973
 20
290.00000000312798
 30
0.0
  0
SEQEND
  5
654
100
AcDbEntity
  8
OBJECT
  0
INSERT
  5
655
100
AcDbEntity
  8
OBJECT
100
AcDbBlockReference
  2
*U32
 10
2025.4000000044971
 20
1409.000000003128
 30
0.0
  0
LINE
  5
656
100
AcDbEntity
  8
OBJECT
100
AcDbLine
 10
2275.3920000044973
 20
435.00000000312809
 30
0.0
 11
2275.3920000044973
 21
360.00000000312798
 31
0.0
  0
LINE
  5
657
100
AcDbEntity
  8
OBJECT
100
AcDbLine
 10
2275.3920000044973
 20
360.00000000312798
 30
0.0
 11
2270.3920000044973
 21
360.00000000312798
 31
0.0
  0
LINE
  5
658
100
AcDbEntity
  8
OBJECT
100
AcDbLine
 10
2270.3920000044973
 20
440.00000000312809
 30
0.0
 11
2280.8920000044973
 21
440.00000000312809
 31
0.0
  0
LINE
  5
659
100
AcDbEntity
  8
OBJECT
100
AcDbLine
 10
2275.3920000044973
 20
435.00000000312809
 30
0.0
 11
2295.3920000044973
 21
435.00000000312809
 31
0.0
  0
POLYLINE
  5
65A
100
AcDbEntity
  8
OBJECT
100
AcDb2dPolyline
 66
               1
 10
0.0
 20
0.0
 30
0.0
 70
               1
 75
               5
  0
VERTEX
  5
65B
100
AcDbEntity
  8
OBJECT
100
AcDbVertex
100
AcDb2dVertex
 10
2055.3920000044973
 20
820.00000000312798
 30
0.0
  0
VERTEX
  5
65C
100
AcDbEntity
  8
OBJECT
100
AcDbVertex
100
AcDb2dVertex
 10
2265.3920000044973
 20
820.00000000312798
 30
0.0
  0
VERTEX
  5
65D
100
AcDbEntity
  8
OBJECT
100
AcDbVertex
100
AcDb2dVertex
 10
2265.3920000044973
 20
390.00000000312809
 30
0.0
  0
VERTEX
  5
65E
100
AcDbEntity
  8
OBJECT
100
AcDbVertex
100
AcDb2dVertex
 10
2055.3920000044973
 20
390.00000000312809
 30
0.0
  0
SEQEND
  5
65F
100
AcDbEntity
  8
OBJECT
  0
POLYLINE
  5
660
100
AcDbEntity
  8
OBJECT
100
AcDb2dPolyline
 66
               1
 10
0.0
 20
0.0
 30
0.0
 70
               1
 75
               5
  0
VERTEX
  5
661
100
AcDbEntity
  8
OBJECT
100
AcDbVertex
100
AcDb2dVertex
 10
2045.392000004497
 20
850.00000000312798
 30
0.0
  0
VERTEX
  5
662
100
AcDbEntity
  8
OBJECT
100
AcDbVertex
100
AcDb2dVertex
 10
2275.3920000044973
 20
850.00000000312798
 30
0.0
  0
VERTEX
  5
663
100
AcDbEntity
  8
OBJECT
100
AcDbVertex
100
AcDb2dVertex
 10
2275.3920000044973
 20
835.00000000312798
 30
0.0
  0
VERTEX
  5
664
100
AcDbEntity
  8
OBJECT
100
AcDbVertex
100
AcDb2dVertex
 10
2045.392000004497
 20
835.00000000312798
 30
0.0
  0
SEQEND
  5
665
100
AcDbEntity
  8
OBJECT
  0
LINE
  5
666
100
AcDbEntity
  8
OBJECT
100
AcDbLine
 10
2167.8920000044973
 20
325.00000000312798
 30
0.0
 11
2167.8920000044973
 21
390.00000000312809
 31
0.0
  0
LINE
  5
667
100
AcDbEntity
  8
OBJECT
100
AcDbLine
 10
2152.8920000044973
 20
325.00000000312798
 30
0.0
 11
2152.8920000044973
 21
390.00000000312809
 31
0.0
  0
ARC
  5
668
100
AcDbEntity
  8
OBJECT
100
AcDbCircle
 10
2160.3920000044973
 20
325.00000000312798
 30
0.0
 40
7.5
100
AcDbArc
 50
180.0
 51
0.0
  0
ARC
  5
669
100
AcDbEntity
  8
OBJECT
100
AcDbCircle
 10
2160.3920000044973
 20
325.00000000312798
 30
0.0
 40
22.499902480011045
100
AcDbArc
 50
109.47130843373223
 51
70.528691566267781
  0
POLYLINE
  5
66A
100
AcDbEntity
  8
OBJECT
100
AcDb2dPolyline
 66
               1
 10
0.0
 20
0.0
 30
0.0
 70
               1
 75
               5
  0
VERTEX
  5
66B
100
AcDbEntity
  8
OBJECT
100
AcDbVertex
100
AcDb2dVertex
 10
2044.392000004497
 20
790.00000000312798
 30
0.0
  0
VERTEX
  5
66C
100
AcDbEntity
  8
OBJECT
100
AcDbVertex
100
AcDb2dVertex
 10
2050.3920000044973
 20
790.00000000312798
 30
0.0
  0
VERTEX
  5
66D
100
AcDbEntity
  8
OBJECT
100
AcDbVertex
100
AcDb2dVertex
 10
2050.3920000044973
 20
750.00000000312798
 30
0.0
  0
VERTEX
  5
66E
100
AcDbEntity
  8
OBJECT
100
AcDbVertex
100
AcDb2dVertex
 10
2044.392000004497
 20
750.00000000312798
 30
0.0
  0
SEQEND
  5
66F
100
AcDbEntity
  8
OBJECT
  0
POLYLINE
  5
670
100
AcDbEntity
  8
OBJECT
100
AcDb2dPolyline
 66
               1
 10
0.0
 20
0.0
 30
0.0
 70
               1
 75
               5
  0
VERTEX
  5
671
100
AcDbEntity
  8
OBJECT
100
AcDbVertex
100
AcDb2dVertex
 10
770.39200000449728
 20
835.00000000312798
 30
0.0
  0
VERTEX
  5
672
100
AcDbEntity
  8
OBJECT
100
AcDbVertex
100
AcDb2dVertex
 10
1210.3920000044973
 20
835.00000000312798
 30
0.0
  0
VERTEX
  5
673
100
AcDbEntity
  8
OBJECT
100
AcDbVertex
100
AcDb2dVertex
 10
1210.3920000044973
 20
430.00000000312809
 30
0.0
  0
VERTEX
  5
674
100
AcDbEntity
  8
OBJECT
100
AcDbVertex
100
AcDb2dVertex
 10
770.39200000449728
 20
430.00000000312809
 30
0.0
  0
SEQEND
  5
675
100
AcDbEntity
  8
OBJECT
  0
POLYLINE
  5
676
100
AcDbEntity
  8
OBJECT
100
AcDb2dPolyline
 66
               1
 10
0.0
 20
0.0
 30
0.0
 70
               1
 75
               5
  0
VERTEX
  5
677
100
AcDbEntity
  8
OBJECT
100
AcDbVertex
100
AcDb2dVertex
 10
765.39200000449728
 20
850.00000000312798
 30
0.0
  0
VERTEX
  5
678
100
AcDbEntity
  8
OBJECT
100
AcDbVertex
100
AcDb2dVertex
 10
1215.3920000044973
 20
850.00000000312798
 30
0.0
  0
VERTEX
  5
679
100
AcDbEntity
  8
OBJECT
100
AcDbVertex
100
AcDb2dVertex
 10
1215.3920000044973
 20
835.00000000312798
 30
0.0
  0
VERTEX
  5
67A
100
AcDbEntity
  8
OBJECT
100
AcDbVertex
100
AcDb2dVertex
 10
765.39200000449728
 20
835.00000000312798
 30
0.0
  0
SEQEND
  5
67B
100
AcDbEntity
  8
OBJECT
  0
LINE
  5
67C
100
AcDbEntity
  8
OBJECT
100
AcDbLine
 10
1210.3920000044973
 20
800.00000000312798
 30
0.0
 11
1210.3920000044973
 21
430.00000000312809
 31
0.0
  0
INSERT
  5
67D
100
AcDbEntity
  8
OBJECT
100
AcDbBlockReference
  2
*U34
 10
2025.4000000044971
 20
1409.000000003128
 30
0.0
  0
LINE
  5
67E
100
AcDbEntity
  8
OBJECT
100
AcDbLine
 10
770.39200000449728
 20
560.00000000312809
 30
0.0
 11
770.39200000449728
 21
760.00000000312798
 31
0.0
  0
LINE
  5
67F
100
AcDbEntity
  8
OBJECT
100
AcDbLine
 10
700.39200000449728
 20
610.00000000312809
 30
0.0
 11
770.39200000449728
 21
610.00000000312809
 31
0.0
  0
LINE
  5
680
100
AcDbEntity
  8
OBJECT
100
AcDbLine
 10
700.39200000449728
 20
980.00000000312798
 30
0.0
 11
700.39200000449728
 21
610.00000000312809
 31
0.0
  0
LINE
  5
681
100
AcDbEntity
  8
OBJECT
100
AcDbLine
 10
770.39200000449728
 20
850.00000000312798
 30
0.0
 11
770.39200000449728
 21
1590.000000003128
 31
0.0
  0
LINE
  5
682
100
AcDbEntity
  8
OBJECT
100
AcDbLine
 10
700.39200000449728
 20
910.00000000312798
 30
0.0
 11
770.39200000449728
 21
910.00000000312798
 31
0.0
  0
LINE
  5
683
100
AcDbEntity
  8
OBJECT
100
AcDbLine
 10
700.39200000449728
 20
1590.000000003128
 30
0.0
 11
700.39200000449728
 21
980.00000000312798
 31
0.0
  0
LINE
  5
684
100
AcDbEntity
  8
OBJECT
  6
CONTINUOUS
100
AcDbLine
 10
770.39200000449728
 20
1590.000000003128
 30
0.0
 11
700.39200000449728
 21
1590.000000003128
 31
0.0
  0
INSERT
  5
685
100
AcDbEntity
  8
OBJECT
100
AcDbBlockReference
  2
*U37
 10
2025.4000000044971
 20
1409.000000003128
 30
0.0
  0
LINE
  5
686
100
AcDbEntity
  8
CENTER
100
AcDbLine
 10
2075.3920000044973
 20
295.00000000312798
 30
0.0
 11
2075.3920000044973
 21
265.00000000312798
 31
0.0
  0
LINE
  5
687
100
AcDbEntity
  8
OBJECT
100
AcDbLine
 10
1291.3920000044973
 20
365.00000000312798
 30
0.0
 11
1290.7253000044973
 21
360.00000000312798
 31
0.0
  0
LINE
  5
688
100
AcDbEntity
  8
OBJECT
100
AcDbLine
 10
1269.3920000044973
 20
365.00000000312798
 30
0.0
 11
1270.0587000044973
 21
360.00000000312798
 31
0.0
  0
LINE
  5
689
100
AcDbEntity
  8
OBJECT
100
AcDbLine
 10
1296.8920000044973
 20
367.50000000312798
 30
0.0
 11
1260.3920000044973
 21
367.50000000312798
 31
0.0
  0
POLYLINE
  5
68A
100
AcDbEntity
  8
OBJECT
100
AcDb2dPolyline
 66
               1
 10
0.0
 20
0.0
 30
0.0
 70
               1
 75
               5
  0
VERTEX
  5
68B
100
AcDbEntity
  8
OBJECT
100
AcDbVertex
100
AcDb2dVertex
 10
2231.3920000044973
 20
390.00000000312809
 30
0.0
  0
VERTEX
  5
68C
100
AcDbEntity
  8
OBJECT
100
AcDbVertex
100
AcDb2dVertex
 10
2253.3920000044973
 20
390.00000000312809
 30
0.0
  0
VERTEX
  5
68D
100
AcDbEntity
  8
OBJECT
100
AcDbVertex
100
AcDb2dVertex
 10
2253.3920000044973
 20
365.00000000312798
 30
0.0
  0
VERTEX
  5
68E
100
AcDbEntity
  8
OBJECT
100
AcDbVertex
100
AcDb2dVertex
 10
2231.3920000044973
 20
365.00000000312798
 30
0.0
  0
SEQEND
  5
68F
100
AcDbEntity
  8
OBJECT
  0
LINE
  5
690
100
AcDbEntity
  8
OBJECT
100
AcDbLine
 10
2231.3920000044973
 20
365.00000000312798
 30
0.0
 11
2232.058700004497
 21
360.00000000312798
 31
0.0
  0
LINE
  5
691
100
AcDbEntity
  8
OBJECT
100
AcDbLine
 10
2253.3920000044973
 20
365.00000000312798
 30
0.0
 11
2252.7253000044971
 21
360.00000000312798
 31
0.0
  0
LINE
  5
692
100
AcDbEntity
  8
OBJECT
100
AcDbLine
 10
2225.8920000044973
 20
367.50000000312798
 30
0.0
 11
2270.3920000044973
 21
367.50000000312798
 31
0.0
  0
LINE
  5
693
100
AcDbEntity
  8
OBJECT
100
AcDbLine
 10
1296.8920000044973
 20
367.50000000312798
 30
0.0
 11
1296.8920000044973
 21
400.00000000312809
 31
0.0
  0
LINE
  5
694
100
AcDbEntity
  8
CENTER
100
AcDbLine
 10
2245.3920000044973
 20
299.50000000312798
 30
0.0
 11
2245.3920000044973
 21
236.00000000312798
 31
0.0
  0
INSERT
  5
695
100
AcDbEntity
  8
OBJECT
100
AcDbBlockReference
  2
*U38
 10
2025.4000000044971
 20
1409.000000003128
 30
0.0
  0
LINE
  5
696
100
AcDbEntity
  8
OBJECT
100
AcDbLine
 10
2237.8920000044973
 20
280.00000000312798
 30
0.0
 11
2252.8920000044973
 21
280.00000000312798
 31
0.0
  0
LINE
  5
697
100
AcDbEntity
  8
OBJECT
100
AcDbLine
 10
2237.8920000044973
 20
290.00000000312798
 30
0.0
 11
2252.8920000044973
 21
290.00000000312798
 31
0.0
  0
INSERT
  5
698
100
AcDbEntity
  8
OBJECT
100
AcDbBlockReference
  2
*U39
 10
2025.4000000044971
 20
1409.000000003128
 30
0.0
  0
LINE
  5
699
100
AcDbEntity
  8
OBJECT
100
AcDbLine
 10
1197.8920000044973
 20
280.00000000312798
 30
0.0
 11
1182.8920000044973
 21
280.00000000312798
 31
0.0
  0
LINE
  5
69A
100
AcDbEntity
  8
OBJECT
100
AcDbLine
 10
1197.8920000044973
 20
280.00000000312798
 30
0.0
 11
1196.9920000044972
 21
274.00000000312798
 31
0.0
  0
LINE
  5
69B
100
AcDbEntity
  8
OBJECT
100
AcDbLine
 10
1182.8920000044973
 20
280.00000000312798
 30
0.0
 11
1183.7920000044971
 21
274.00000000312798
 31
0.0
  0
LINE
  5
69C
100
AcDbEntity
  8
OBJECT
100
AcDbLine
 10
1197.8920000044973
 20
290.00000000312798
 30
0.0
 11
1182.8920000044973
 21
290.00000000312798
 31
0.0
  0
CIRCLE
  5
69D
100
AcDbEntity
  8
OBJECT
100
AcDbCircle
 10
2238.3920000044973
 20
1985.000000003128
 30
0.0
 40
11.000016684078155
  0
CIRCLE
  5
69E
100
AcDbEntity
  8
OBJECT
100
AcDbCircle
 10
2238.3920000044973
 20
2075.0000000031278
 30
0.0
 40
11.000025293152779
  0
LINE
  5
69F
100
AcDbEntity
  8
CENTER
100
AcDbLine
 10
2158.3920000044973
 20
2585.0000000031278
 30
0.0
 11
2158.3920000044973
 21
1890.000000003128
 31
0.0
  0
LINE
  5
6A0
100
AcDbEntity
  8
OBJECT
100
AcDbLine
 10
2051.3920000044973
 20
2495.0000000031278
 30
0.0
 11
2510.3920000044973
 21
2495.0000000031278
 31
0.0
  0
LINE
  5
6A1
100
AcDbEntity
  8
OBJECT
100
AcDbLine
 10
2051.3920000044973
 20
2565.0000000031278
 30
0.0
 11
2051.3920000044973
 21
2495.0000000031278
 31
0.0
  0
LINE
  5
6A2
100
AcDbEntity
  8
OBJECT
100
AcDbLine
 10
2508.3920000044973
 20
2565.0000000031278
 30
0.0
 11
2051.3920000044973
 21
2565.0000000031278
 31
0.0
  0
INSERT
  5
6A3
100
AcDbEntity
  8
CENTER
100
AcDbBlockReference
  2
*U40
 10
2025.4000000044971
 20
1409.000000003128
 30
0.0
  0
INSERT
  5
6A4
100
AcDbEntity
  8
CENTER
100
AcDbBlockReference
  2
*U41
 10
2025.4000000044971
 20
1409.000000003128
 30
0.0
  0
CIRCLE
  5
6A5
100
AcDbEntity
  8
OBJECT
100
AcDbCircle
 10
2245.3920000044973
 20
250.00000000312798
 30
0.0
 40
13.499941245057373
  0
LINE
  5
6A6
100
AcDbEntity
  8
OBJECT
100
AcDbLine
 10
2231.8920000044973
 20
274.00000000312798
 30
0.0
 11
2258.8920000044973
 21
274.00000000312798
 31
0.0
  0
LINE
  5
6A7
100
AcDbEntity
  8
OBJECT
100
AcDbLine
 10
2231.8920000044973
 20
274.00000000312798
 30
0.0
 11
2231.892100004497
 21
250.00000000312798
 31
0.0
  0
LINE
  5
6A8
100
AcDbEntity
  8
OBJECT
100
AcDbLine
 10
2258.8920000044973
 20
274.00000000312798
 30
0.0
 11
2258.8919000044971
 21
250.00000000312798
 31
0.0
  0
LINE
  5
6A9
100
AcDbEntity
  8
CENTER
100
AcDbLine
 10
2220.3920000044973
 20
250.00000000312798
 30
0.0
 11
2270.3920000044973
 21
250.00000000312798
 31
0.0
  0
LINE
  5
6AA
100
AcDbEntity
  8
CENTER
100
AcDbLine
 10
2245.3920000044973
 20
225.00000000312798
 30
0.0
 11
2245.3920000044973
 21
275.00000000312798
 31
0.0
  0
LINE
  5
6AB
100
AcDbEntity
  8
OBJECT
100
AcDbLine
 10
2237.8920000044973
 20
280.00000000312798
 30
0.0
 11
2237.8920000044973
 21
274.00000000312798
 31
0.0
  0
LINE
  5
6AC
100
AcDbEntity
  8
OBJECT
100
AcDbLine
 10
2252.8920000044973
 20
280.00000000312798
 30
0.0
 11
2252.8920000044973
 21
274.00000000312798
 31
0.0
  0
LINE
  5
6AD
100
AcDbEntity
  8
CENTER
100
AcDbLine
 10
2242.3920000044973
 20
312.50000000312798
 30
0.0
 11
2242.3920000044973
 21
402.50000000312809
 31
0.0
  0
LINE
  5
6AE
100
AcDbEntity
  8
CENTER
100
AcDbLine
 10
1280.3920000044973
 20
310.00000000312798
 30
0.0
 11
1280.3920000044973
 21
418.00000000312809
 31
0.0
  0
INSERT
  5
6AF
100
AcDbEntity
  8
OBJECT
100
AcDbBlockReference
  2
*U42
 10
2025.4000000044971
 20
1409.000000003128
 30
0.0
  0
LINE
  5
6B0
100
AcDbEntity
  8
OBJECT
100
AcDbLine
 10
700.39200000449728
 20
690.00000000312809
 30
0.0
 11
770.39200000449728
 21
690.00000000312809
 31
0.0
  0
POLYLINE
  5
6B1
100
AcDbEntity
  8
OBJECT
100
AcDb2dPolyline
 66
               1
 10
0.0
 20
0.0
 30
0.0
 70
               1
 75
               5
  0
VERTEX
  5
6B2
100
AcDbEntity
  8
OBJECT
100
AcDbVertex
100
AcDb2dVertex
 10
770.39200000449728
 20
430.00000000312809
 30
0.0
  0
VERTEX
  5
6B3
100
AcDbEntity
  8
OBJECT
100
AcDbVertex
100
AcDb2dVertex
 10
1260.3920000044973
 20
430.00000000312809
 30
0.0
  0
VERTEX
  5
6B4
100
AcDbEntity
  8
OBJECT
100
AcDbVertex
100
AcDb2dVertex
 10
1260.3920000044973
 20
290.00000000312798
 30
0.0
  0
VERTEX
  5
6B5
100
AcDbEntity
  8
OBJECT
100
AcDbVertex
100
AcDb2dVertex
 10
770.39200000449728
 20
290.00000000312798
 30
0.0
  0
SEQEND
  5
6B6
100
AcDbEntity
  8
OBJECT
  0
LINE
  5
6B7
100
AcDbEntity
  8
OBJECT
100
AcDbLine
 10
1355.3920000044973
 20
400.00000000312809
 30
0.0
 11
1260.3920000044973
 21
400.00000000312809
 31
0.0
  0
LINE
  5
6B8
100
AcDbEntity
  8
OBJECT
100
AcDbLine
 10
1225.3920000044973
 20
830.00000000312798
 30
0.0
 11
1355.3920000044973
 21
830.00000000312798
 31
0.0
  0
LINE
  5
6B9
100
AcDbEntity
  8
OBJECT
100
AcDbLine
 10
1355.3920000044973
 20
830.00000000312798
 30
0.0
 11
1355.3920000044973
 21
400.00000000312809
 31
0.0
  0
POLYLINE
  5
6BA
100
AcDbEntity
  8
OBJECT
100
AcDb2dPolyline
 66
               1
 10
0.0
 20
0.0
 30
0.0
 70
             129
  0
VERTEX
  5
6BB
100
AcDbEntity
  8
OBJECT
100
AcDbVertex
100
AcDb2dVertex
 10
1327.3920000044973
 20
798.00000000312798
 30
0.0
  0
VERTEX
  5
6BC
100
AcDbEntity
  8
OBJECT
100
AcDbVertex
100
AcDb2dVertex
 10
1267.3920000044973
 20
798.00000000312798
 30
0.0
  0
VERTEX
  5
6BD
100
AcDbEntity
  8
OBJECT
100
AcDbVertex
100
AcDb2dVertex
 10
1267.3920000044973
 20
798.00000000312798
 30
0.0
 42
0.414213562373095
 70
               2
  0
VERTEX
  5
6BE
100
AcDbEntity
  8
OBJECT
100
AcDbVertex
100
AcDb2dVertex
 10
1277.3920000044973
 20
788.00000000312798
 30
0.0
  0
VERTEX
  5
6BF
100
AcDbEntity
  8
OBJECT
100
AcDbVertex
100
AcDb2dVertex
 10
1317.3920000044973
 20
788.00000000312798
 30
0.0
 42
0.414213562373095
 70
               2
 50
3.1191399769264294E+17
  0
VERTEX
  5
6C0
100
AcDbEntity
  8
OBJECT
100
AcDbVertex
100
AcDb2dVertex
 10
1327.3920000044973
 20
798.00000000312798
 30
0.0
  0
SEQEND
  5
6C1
100
AcDbEntity
  8
OBJECT
  0
POLYLINE
  5
6C2
100
AcDbEntity
  8
OBJECT
100
AcDb2dPolyline
 66
               1
 10
0.0
 20
0.0
 30
0.0
 70
             129
  0
VERTEX
  5
6C3
100
AcDbEntity
  8
OBJECT
100
AcDbVertex
100
AcDb2dVertex
 10
1327.3920000044973
 20
782.00000000312798
 30
0.0
  0
VERTEX
  5
6C4
100
AcDbEntity
  8
OBJECT
100
AcDbVertex
100
AcDb2dVertex
 10
1267.3920000044973
 20
782.00000000312798
 30
0.0
  0
VERTEX
  5
6C5
100
AcDbEntity
  8
OBJECT
100
AcDbVertex
100
AcDb2dVertex
 10
1267.3920000044973
 20
782.00000000312798
 30
0.0
 42
0.414213562373095
 70
               2
  0
VERTEX
  5
6C6
100
AcDbEntity
  8
OBJECT
100
AcDbVertex
100
AcDb2dVertex
 10
1277.3920000044973
 20
772.00000000312798
 30
0.0
  0
VERTEX
  5
6C7
100
AcDbEntity
  8
OBJECT
100
AcDbVertex
100
AcDb2dVertex
 10
1317.3920000044973
 20
772.00000000312798
 30
0.0
 42
0.414213562373095
 70
               2
 50
3.1191399769264294E+17
  0
VERTEX
  5
6C8
100
AcDbEntity
  8
OBJECT
100
AcDbVertex
100
AcDb2dVertex
 10
1327.3920000044973
 20
782.00000000312798
 30
0.0
  0
SEQEND
  5
6C9
100
AcDbEntity
  8
OBJECT
  0
POLYLINE
  5
6CA
100
AcDbEntity
  8
OBJECT
100
AcDb2dPolyline
 66
               1
 10
0.0
 20
0.0
 30
0.0
 70
             129
  0
VERTEX
  5
6CB
100
AcDbEntity
  8
OBJECT
100
AcDbVertex
100
AcDb2dVertex
 10
1327.3920000044973
 20
766.00000000312798
 30
0.0
  0
VERTEX
  5
6CC
100
AcDbEntity
  8
OBJECT
100
AcDbVertex
100
AcDb2dVertex
 10
1267.3920000044973
 20
766.00000000312798
 30
0.0
  0
VERTEX
  5
6CD
100
AcDbEntity
  8
OBJECT
100
AcDbVertex
100
AcDb2dVertex
 10
1267.3920000044973
 20
766.00000000312798
 30
0.0
 42
0.414213562373095
 70
               2
  0
VERTEX
  5
6CE
100
AcDbEntity
  8
OBJECT
100
AcDbVertex
100
AcDb2dVertex
 10
1277.3920000044973
 20
756.00000000312798
 30
0.0
  0
VERTEX
  5
6CF
100
AcDbEntity
  8
OBJECT
100
AcDbVertex
100
AcDb2dVertex
 10
1317.3920000044973
 20
756.00000000312798
 30
0.0
 42
0.414213562373095
 70
               2
 50
3.1191399769264294E+17
  0
VERTEX
  5
6D0
100
AcDbEntity
  8
OBJECT
100
AcDbVertex
100
AcDb2dVertex
 10
1327.3920000044973
 20
766.00000000312798
 30
0.0
  0
SEQEND
  5
6D1
100
AcDbEntity
  8
OBJECT
  0
POLYLINE
  5
6D2
100
AcDbEntity
  8
OBJECT
100
AcDb2dPolyline
 66
               1
 10
0.0
 20
0.0
 30
0.0
 70
             129
  0
VERTEX
  5
6D3
100
AcDbEntity
  8
OBJECT
100
AcDbVertex
100
AcDb2dVertex
 10
1327.3920000044973
 20
750.00000000312798
 30
0.0
  0
VERTEX
  5
6D4
100
AcDbEntity
  8
OBJECT
100
AcDbVertex
100
AcDb2dVertex
 10
1267.3920000044973
 20
750.00000000312798
 30
0.0
  0
VERTEX
  5
6D5
100
AcDbEntity
  8
OBJECT
100
AcDbVertex
100
AcDb2dVertex
 10
1267.3920000044973
 20
750.00000000312798
 30
0.0
 42
0.4142135623730917
 70
               2
  0
VERTEX
  5
6D6
100
AcDbEntity
  8
OBJECT
100
AcDbVertex
100
AcDb2dVertex
 10
1277.3920000044973
 20
740.00000000312809
 30
0.0
  0
VERTEX
  5
6D7
100
AcDbEntity
  8
OBJECT
100
AcDbVertex
100
AcDb2dVertex
 10
1317.3920000044973
 20
740.00000000312809
 30
0.0
 42
0.4142135623730984
 70
               2
 50
3.1191399769264294E+17
  0
VERTEX
  5
6D8
100
AcDbEntity
  8
OBJECT
100
AcDbVertex
100
AcDb2dVertex
 10
1327.3920000044973
 20
750.00000000312798
 30
0.0
  0
SEQEND
  5
6D9
100
AcDbEntity
  8
OBJECT
  0
POLYLINE
  5
6DA
100
AcDbEntity
  8
OBJECT
100
AcDb2dPolyline
 66
               1
 10
0.0
 20
0.0
 30
0.0
 70
               1
 75
               5
  0
VERTEX
  5
6DB
100
AcDbEntity
  8
OBJECT
100
AcDbVertex
100
AcDb2dVertex
 10
1210.3920000044973
 20
820.00000000312798
 30
0.0
  0
VERTEX
  5
6DC
100
AcDbEntity
  8
OBJECT
100
AcDbVertex
100
AcDb2dVertex
 10
1225.3920000044973
 20
820.00000000312798
 30
0.0
  0
VERTEX
  5
6DD
100
AcDbEntity
  8
OBJECT
100
AcDbVertex
100
AcDb2dVertex
 10
1225.3920000044973
 20
580.00000000312809
 30
0.0
  0
VERTEX
  5
6DE
100
AcDbEntity
  8
OBJECT
100
AcDbVertex
100
AcDb2dVertex
 10
1210.3920000044973
 20
580.00000000312809
 30
0.0
  0
SEQEND
  5
6DF
100
AcDbEntity
  8
OBJECT
  0
LINE
  5
6E0
100
AcDbEntity
  8
OBJECT
100
AcDbLine
 10
1225.3920000044973
 20
830.00000000312798
 30
0.0
 11
1225.3920000044973
 21
430.00000000312809
 31
0.0
  0
POLYLINE
  5
6E1
100
AcDbEntity
  8
OBJECT
100
AcDb2dPolyline
 66
               1
 10
0.0
 20
0.0
 30
0.0
 70
               1
 75
               5
  0
VERTEX
  5
6E2
100
AcDbEntity
  8
OBJECT
100
AcDbVertex
100
AcDb2dVertex
 10
2108.3920000044973
 20
2055.0000000031278
 30
0.0
  0
VERTEX
  5
6E3
100
AcDbEntity
  8
OBJECT
100
AcDbVertex
100
AcDb2dVertex
 10
2208.3920000044973
 20
2055.0000000031278
 30
0.0
  0
VERTEX
  5
6E4
100
AcDbEntity
  8
OBJECT
100
AcDbVertex
100
AcDb2dVertex
 10
2208.3920000044973
 20
2040.0000000031278
 30
0.0
  0
VERTEX
  5
6E5
100
AcDbEntity
  8
OBJECT
100
AcDbVertex
100
AcDb2dVertex
 10
2108.3920000044973
 20
2040.0000000031278
 30
0.0
  0
SEQEND
  5
6E6
100
AcDbEntity
  8
OBJECT
  0
LINE
  5
6E7
100
AcDbEntity
  8
CENTER
100
AcDbLine
 10
1190.3920000044973
 20
301.00000000312798
 30
0.0
 11
1190.3920000044973
 21
232.00000000312798
 31
0.0
  0
LINE
  5
6E8
100
AcDbEntity
  8
OBJECT
100
AcDbLine
 10
1214.3920000044973
 20
238.00000000312798
 30
0.0
 11
1166.3920000044973
 21
238.00000000312798
 31
0.0
  0
LINE
  5
6E9
100
AcDbEntity
  8
OBJECT
100
AcDbLine
 10
1166.3920000044973
 20
238.00000000312798
 30
0.0
 11
1166.3920000044973
 21
262.00000000312798
 31
0.0
  0
LINE
  5
6EA
100
AcDbEntity
  8
OBJECT
100
AcDbLine
 10
1214.3920000044973
 20
238.00000000312798
 30
0.0
 11
1214.3920000044973
 21
262.00000000312798
 31
0.0
  0
LINE
  5
6EB
100
AcDbEntity
  8
CENTER
100
AcDbLine
 10
1223.8920000044973
 20
250.00000000312798
 30
0.0
 11
1143.8920000044973
 21
250.00000000312798
 31
0.0
  0
LINE
  5
6EC
100
AcDbEntity
  8
OBJECT
100
AcDbLine
 10
1202.3920000044973
 20
274.00000000312798
 30
0.0
 11
1178.3920000044973
 21
274.00000000312798
 31
0.0
  0
LINE
  5
6ED
100
AcDbEntity
  8
OBJECT
100
AcDbLine
 10
1202.3920000044973
 20
274.00000000312798
 30
0.0
 11
1202.3920000044973
 21
262.00000000312798
 31
0.0
  0
LINE
  5
6EE
100
AcDbEntity
  8
OBJECT
100
AcDbLine
 10
1178.3920000044973
 20
274.00000000312798
 30
0.0
 11
1178.3920000044973
 21
262.00000000312798
 31
0.0
  0
ARC
  5
6EF
100
AcDbEntity
  8
OBJECT
100
AcDbCircle
 10
1190.3920000044973
 20
283.60000000312812
 30
0.0
 40
24.709512338368921
100
AcDbArc
 50
240.94539590092302
 51
299.05460409907698
  0
LINE
  5
6F0
100
AcDbEntity
  8
OBJECT
100
AcDbLine
 10
1178.3920000044973
 20
262.00000000312798
 30
0.0
 11
1166.3920000044973
 21
262.00000000312798
 31
0.0
  0
LINE
  5
6F1
100
AcDbEntity
  8
OBJECT
100
AcDbLine
 10
1214.3920000044973
 20
262.00000000312798
 30
0.0
 11
1202.3920000044973
 21
262.00000000312798
 31
0.0
  0
LINE
  5
6F2
100
AcDbEntity
  8
OBJECT
100
AcDbLine
 10
1161.3920000044973
 20
262.00000000312798
 30
0.0
 11
1161.3920000044973
 21
238.00000000312798
 31
0.0
  0
LINE
  5
6F3
100
AcDbEntity
  8
OBJECT
100
AcDbLine
 10
1161.3920000044973
 20
259.00000000312798
 30
0.0
 11
1166.3920000044973
 21
259.00000000312798
 31
0.0
  0
LINE
  5
6F4
100
AcDbEntity
  8
OBJECT
100
AcDbLine
 10
1161.3920000044973
 20
241.00000000312798
 30
0.0
 11
1166.3920000044973
 21
241.00000000312798
 31
0.0
  0
POLYLINE
  5
6F5
100
AcDbEntity
  8
OBJECT
100
AcDb2dPolyline
 66
               1
 10
0.0
 20
0.0
 30
0.0
 70
               1
 75
               5
  0
VERTEX
  5
6F6
100
AcDbEntity
  8
OBJECT
100
AcDbVertex
100
AcDb2dVertex
 10
1153.3920000044973
 20
255.00000000312798
 30
0.0
  0
VERTEX
  5
6F7
100
AcDbEntity
  8
OBJECT
100
AcDbVertex
100
AcDb2dVertex
 10
1161.3920000044973
 20
255.00000000312798
 30
0.0
  0
VERTEX
  5
6F8
100
AcDbEntity
  8
OBJECT
100
AcDbVertex
100
AcDb2dVertex
 10
1161.3920000044973
 20
245.00000000312798
 30
0.0
  0
VERTEX
  5
6F9
100
AcDbEntity
  8
OBJECT
100
AcDbVertex
100
AcDb2dVertex
 10
1153.3920000044973
 20
245.00000000312798
 30
0.0
  0
SEQEND
  5
6FA
100
AcDbEntity
  8
OBJECT
  0
POLYLINE
  5
6FB
100
AcDbEntity
  8
OBJECT
100
AcDb2dPolyline
 66
               1
 10
0.0
 20
0.0
 30
0.0
 70
               1
 75
               5
  0
VERTEX
  5
6FC
100
AcDbEntity
  8
OBJECT
100
AcDbVertex
100
AcDb2dVertex
 10
2042.392000004497
 20
2375.0000000031278
 30
0.0
  0
VERTEX
  5
6FD
100
AcDbEntity
  8
OBJECT
100
AcDbVertex
100
AcDb2dVertex
 10
2048.3920000044973
 20
2375.0000000031278
 30
0.0
  0
VERTEX
  5
6FE
100
AcDbEntity
  8
OBJECT
100
AcDbVertex
100
AcDb2dVertex
 10
2048.3920000044973
 20
2335.0000000031278
 30
0.0
  0
VERTEX
  5
6FF
100
AcDbEntity
  8
OBJECT
100
AcDbVertex
100
AcDb2dVertex
 10
2042.392000004497
 20
2335.0000000031278
 30
0.0
  0
SEQEND
  5
700
100
AcDbEntity
  8
OBJECT
  0
ARC
  5
701
100
AcDbEntity
  8
OBJECT
100
AcDbCircle
 10
2011.392000004497
 20
2355.0000000031278
 30
0.0
 40
13.0
100
AcDbArc
 50
90.0
 51
270.0
  0
LINE
  5
702
100
AcDbEntity
  8
OBJECT
100
AcDbLine
 10
2042.392000004497
 20
2368.0000000031278
 30
0.0
 11
2011.392000004497
 21
2368.0000000031278
 31
0.0
  0
LINE
  5
703
100
AcDbEntity
  8
OBJECT
100
AcDbLine
 10
2042.392000004497
 20
2342.0000000031278
 30
0.0
 11
2011.392000004497
 21
2342.0000000031278
 31
0.0
  0
INSERT
  5
704
100
AcDbEntity
  8
OBJECT
100
AcDbBlockReference
  2
*U43
 10
2025.4000000044971
 20
1409.000000003128
 30
0.0
  0
POLYLINE
  5
705
100
AcDbEntity
  8
OBJECT
100
AcDb2dPolyline
 66
               1
 10
0.0
 20
0.0
 30
0.0
 70
             129
  0
VERTEX
  5
706
100
AcDbEntity
  8
OBJECT
100
AcDbVertex
100
AcDb2dVertex
 10
2470.3920000044973
 20
2570.0000000031278
 30
0.0
 42
0.414213562373095
 70
               2
  0
VERTEX
  5
707
100
AcDbEntity
  8
OBJECT
100
AcDbVertex
100
AcDb2dVertex
 10
2465.3920000044973
 20
2575.0000000031278
 30
0.0
  0
VERTEX
  5
708
100
AcDbEntity
  8
OBJECT
100
AcDbVertex
100
AcDb2dVertex
 10
2375.3920000044973
 20
2575.0000000031278
 30
0.0
 42
0.414213562373095
 70
               2
 50
9.3574199307792870E+17
  0
VERTEX
  5
709
100
AcDbEntity
  8
OBJECT
100
AcDbVertex
100
AcDb2dVertex
 10
2370.3920000044973
 20
2570.0000000031278
 30
0.0
  0
VERTEX
  5
70A
100
AcDbEntity
  8
OBJECT
100
AcDbVertex
100
AcDb2dVertex
 10
2370.3920000044973
 20
2565.0000000031278
 30
0.0
  0
VERTEX
  5
70B
100
AcDbEntity
  8
OBJECT
100
AcDbVertex
100
AcDb2dVertex
 10
2470.3920000044973
 20
2565.0000000031278
 30
0.0
  0
SEQEND
  5
70C
100
AcDbEntity
  8
OBJECT
  0
INSERT
  5
70D
100
AcDbEntity
  8
OBJECT
100
AcDbBlockReference
  2
*U44
 10
2025.4000000044971
 20
1409.000000003128
 30
0.0
  0
POLYLINE
  5
70E
100
AcDbEntity
  8
OBJECT
100
AcDb2dPolyline
 66
               1
 10
0.0
 20
0.0
 30
0.0
 70
               1
 75
               5
  0
VERTEX
  5
70F
100
AcDbEntity
  8
OBJECT
100
AcDbVertex
100
AcDb2dVertex
 10
2228.3920000044973
 20
360.00000000312798
 30
0.0
  0
VERTEX
  5
710
100
AcDbEntity
  8
OBJECT
100
AcDbVertex
100
AcDb2dVertex
 10
2256.3920000044973
 20
360.00000000312798
 30
0.0
  0
VERTEX
  5
711
100
AcDbEntity
  8
OBJECT
100
AcDbVertex
100
AcDb2dVertex
 10
2256.3920000044973
 20
325.00000000312798
 30
0.0
  0
VERTEX
  5
712
100
AcDbEntity
  8
OBJECT
100
AcDbVertex
100
AcDb2dVertex
 10
2228.3920000044973
 20
325.00000000312798
 30
0.0
  0
SEQEND
  5
713
100
AcDbEntity
  8
OBJECT
  0
POLYLINE
  5
714
100
AcDbEntity
  8
OBJECT
100
AcDb2dPolyline
 66
               1
 10
0.0
 20
0.0
 30
0.0
 70
               1
 75
               5
  0
VERTEX
  5
715
100
AcDbEntity
  8
OBJECT
100
AcDbVertex
100
AcDb2dVertex
 10
1266.3920000044973
 20
360.00000000312798
 30
0.0
  0
VERTEX
  5
716
100
AcDbEntity
  8
OBJECT
100
AcDbVertex
100
AcDb2dVertex
 10
1294.3920000044973
 20
360.00000000312798
 30
0.0
  0
VERTEX
  5
717
100
AcDbEntity
  8
OBJECT
100
AcDbVertex
100
AcDb2dVertex
 10
1294.3920000044973
 20
325.00000000312798
 30
0.0
  0
VERTEX
  5
718
100
AcDbEntity
  8
OBJECT
100
AcDbVertex
100
AcDb2dVertex
 10
1266.3920000044973
 20
325.00000000312798
 30
0.0
  0
SEQEND
  5
719
100
AcDbEntity
  8
OBJECT
  0
LINE
  5
71A
100
AcDbEntity
  8
DIMENTION
100
AcDbLine
 10
1775.0
 20
979.0
 30
0.0
 11
1535.0
 21
979.0
 31
0.0
  0
LINE
  5
71B
100
AcDbEntity
  8
DIMENTION
100
AcDbLine
 10
1775.0
 20
979.0
 30
0.0
 11
2083.0
 21
755.00000000312798
 31
0.0
  0
LINE
  5
71C
100
AcDbEntity
  8
DIMENTION
100
AcDbLine
 10
2083.0
 20
755.00000000312798
 30
0.0
 11
2052.5234493360717
 21
767.31332574434884
 31
0.0
  0
LINE
  5
71D
100
AcDbEntity
  8
DIMENTION
100
AcDbLine
 10
2083.0
 20
755.00000000312798
 30
0.0
 11
2062.7631957759249
 21
780.90192823206223
 31
0.0
  0
MTEXT
  5
71E
100
AcDbEntity
  8
DIMENTION
100
AcDbMText
 10
1531.9884
 20
1024.8831
 30
0.0
 40
33.866666666666667
 41
0.0
 71
               1
 72
               1
  1
操作パネル\Pブースター用
  7
________
  0
LINE
  5
71F
100
AcDbEntity
  8
DIMENTION
100
AcDbLine
 10
1775.0
 20
929.0
 30
0.0
 11
1535.0
 21
929.0
 31
0.0
  0
LINE
  5
720
100
AcDbEntity
  8
DIMENTION
100
AcDbLine
 10
1775.0
 20
979.0
 30
0.0
 11
1775.0
 21
929.0
 31
0.0
  0
LINE
  5
721
100
AcDbEntity
  8
DIMENTION
100
AcDbLine
 10
1787.9645932712979
 20
621.10419999999999
 30
0.0
 11
1507.9645932712979
 21
621.10419999999999
 31
0.0
  0
LINE
  5
722
100
AcDbEntity
  8
DIMENTION
100
AcDbLine
 10
1787.9645932712979
 20
621.10419999999999
 30
0.0
 11
2000.392000004497
 21
707.0
 31
0.0
  0
LINE
  5
723
100
AcDbEntity
  8
DIMENTION
100
AcDbLine
 10
2000.392000004497
 20
707.0
 30
0.0
 11
1974.1408358323806
 21
687.21832891818826
 31
0.0
  0
LINE
  5
724
100
AcDbEntity
  8
DIMENTION
100
AcDbLine
 10
2000.392000004497
 20
707.0
 30
0.0
 11
1967.7669894116225
 21
702.99415239990128
 31
0.0
  0
MTEXT
  5
725
100
AcDbEntity
  8
DIMENTION
100
AcDbMText
 10
1511.8749932712979
 20
665.375
 30
0.0
 40
33.866666666666667
 41
0.0
 71
               1
 72
               1
  1
オーバーフロー
  7
________
  0
DIMENSION
  5
726
100
AcDbEntity
  8
DIMENTION
100
AcDbDimension
  2
*D45
 10
1803.4000000044971
 20
190.00000000312798
 30
0.0
 11
1802.4000000082224
 21
520.00000000312798
 31
0.0
 70
             129
  3
CAD
100
AcDbAlignedDimension
 13
2045.392000004497
 23
850.00000000312798
 33
0.0
 14
2045.392000004497
 24
190.00000000312798
 34
0.0
 50
90.0
1001
ACAD
1000
DSTYLE
1002
{
1070
             271
1070
               0
1070
             340
1005
6F
1070
             147
1040
0.9999999962747097
1002
}
  0
DIMENSION
  5
727
100
AcDbEntity
  8
DIMENTION
100
AcDbDimension
  2
*D46
 10
1855.4000000044971
 20
790.00000000312798
 30
0.0
 11
1854.4000000082224
 21
490.00000000312798
 31
0.0
 70
             129
  3
CAD
100
AcDbAlignedDimension
 13
2044.392000004497
 23
190.00000000312798
 33
0.0
 14
2044.392000004497
 24
790.00000000312798
 34
0.0
 50
90.0
1001
ACAD
1000
DSTYLE
1002
{
1070
             271
1070
               0
1070
             340
1005
6F
1070
             147
1040
0.9999999962747097
1002
}
  0
LINE
  5
728
100
AcDbEntity
  8
DIMENTION
100
AcDbLine
 10
1762.9957000044972
 20
432.0
 30
0.0
 11
1522.9957000044972
 21
432.0
 31
0.0
  0
LINE
  5
729
100
AcDbEntity
  8
DIMENTION
100
AcDbLine
 10
1762.9957000044972
 20
432.0
 30
0.0
 11
2232.8522000044973
 21
255.00000000312798
 31
0.0
  0
LINE
  5
72A
100
AcDbEntity
  8
DIMENTION
100
AcDbLine
 10
2232.8522000044973
 20
255.00000000312798
 30
0.0
 11
2200.162246678316
 21
258.43585254834693
 31
0.0
  0
LINE
  5
72B
100
AcDbEntity
  8
DIMENTION
100
AcDbLine
 10
2232.8522000044973
 20
255.00000000312798
 30
0.0
 11
2206.2597962481059
 21
274.32051225403552
 31
0.0
  0
MTEXT
  5
72C
100
AcDbEntity
  8
DIMENTION
100
AcDbMText
 10
1526.2445000044972
 20
477.99860000000001
 30
0.0
 40
33.866666666666667
 41
0.0
 71
               1
 72
               1
  1
給湯口\P15Aめすねじ
  7
________
  0
LINE
  5
72D
100
AcDbEntity
  8
DIMENTION
100
AcDbLine
 10
1763.392000004497
 20
382.0
 30
0.0
 11
1523.392000004497
 21
382.0
 31
0.0
  0
LINE
  5
72E
100
AcDbEntity
  8
DIMENTION
100
AcDbLine
 10
1763.392000004497
 20
432.0
 30
0.0
 11
1763.392000004497
 21
382.0
 31
0.0
  0
DIMENSION
  5
72F
100
AcDbEntity
  8
DIMENTION
100
AcDbDimension
  2
*D47
 10
2014.4000000044971
 20
190.00000000312798
 30
0.0
 11
2013.4000000082224
 21
220.00000000312798
 31
0.0
 70
             129
  3
CAD
100
AcDbAlignedDimension
 13
2245.3920000044973
 23
250.00000000312798
 33
0.0
 14
2245.3920000044973
 24
190.00000000312798
 34
0.0
 50
90.0
1001
ACAD
1000
DSTYLE
1002
{
1070
             271
1070
               0
1070
             340
1005
6F
1070
             147
1040
0.9999999962747097
1002
}
  0
DIMENSION
  5
730
100
AcDbEntity
  8
DIMENTION
100
AcDbDimension
  2
*D48
 10
1905.392000004497
 20
190.00000000312798
 30
0.0
 11
1904.3920000082223
 21
255.45448303535454
 31
0.0
 70
             129
  3
CAD
100
AcDbAlignedDimension
 13
2226.3920000044973
 23
325.00000000312798
 33
0.0
 14
2226.3920000044973
 24
190.00000000312798
 34
0.0
 50
90.0
1001
ACAD
1000
DSTYLE
1002
{
1070
             271
1070
               0
1070
             340
1005
6F
1070
             147
1040
0.9999999962747097
1002
}
  0
DIMENSION
  5
731
100
AcDbEntity
  8
DIMENTION
100
AcDbDimension
  2
*D49
 10
1959.4000000044971
 20
290.00000000312798
 30
0.0
 11
1958.4000000082224
 21
240.00000000312798
 31
0.0
 70
             129
  3
CAD
100
AcDbAlignedDimension
 13
2050.3920000044973
 23
190.00000000312798
 33
0.0
 14
2050.3920000044973
 24
290.00000000312798
 34
0.0
 50
90.0
1001
ACAD
1000
DSTYLE
1002
{
1070
             271
1070
               0
1070
             340
1005
6F
1070
             147
1040
0.9999999962747097
1002
}
  0
DIMENSION
  5
732
100
AcDbEntity
  8
DIMENTION
100
AcDbDimension
  2
*D50
 10
650.0
 20
1590.000000003128
 30
0.0
 11
649.00000000372529
 21
890.00000000312798
 31
0.0
 70
             129
  3
CAD
100
AcDbAlignedDimension
 13
700.39200000449728
 23
190.00000000312798
 33
0.0
 14
700.39200000449728
 24
1590.000000003128
 34
0.0
 50
90.0
1001
ACAD
1000
DSTYLE
1002
{
1070
             271
1070
               0
1070
             340
1005
6F
1070
             147
1040
0.9999999962747097
1002
}
  0
DIMENSION
  5
733
100
AcDbEntity
  8
DIMENTION
100
AcDbDimension
  2
*D51
 10
2048.3920000044973
 20
1780.0000000031278
 30
0.0
 11
2164.3990800826223
 21
1780.9999999994025
 31
0.0
 70
             129
  1
230
  3
CAD
100
AcDbAlignedDimension
 13
2280.3920000044973
 23
1890.000000003128
 33
0.0
 14
2048.3920000044973
 24
2055.0000000031278
 34
0.0
1001
ACAD
1000
DSTYLE
1002
{
1070
             271
1070
               0
1070
             340
1005
6F
1070
             147
1040
0.9999999962747097
1002
}
  0
LINE
  5
734
100
AcDbEntity
  8
DIMENTION
100
AcDbLine
 10
1890.392000004497
 20
1770.000000003128
 30
0.0
 11
1650.392000004497
 21
1770.000000003128
 31
0.0
  0
LINE
  5
735
100
AcDbEntity
  8
DIMENTION
100
AcDbLine
 10
1890.392000004497
 20
1770.000000003128
 30
0.0
 11
2230.8421412641001
 21
1977.0
 31
0.0
  0
LINE
  5
736
100
AcDbEntity
  8
DIMENTION
100
AcDbLine
 10
2230.8421412641001
 20
1977.0
 30
0.0
 11
2208.0087076175369
 21
1953.3552872910582
 31
0.0
  0
LINE
  5
737
100
AcDbEntity
  8
DIMENTION
100
AcDbLine
 10
2230.8421412641001
 20
1977.0
 30
0.0
 11
2199.2454513160792
 21
1967.9397949521533
 31
0.0
  0
MTEXT
  5
738
100
AcDbEntity
  8
DIMENTION
100
AcDbMText
 10
1654.7290000044973
 20
1815.553400003128
 30
0.0
 40
33.866666666666667
 41
0.0
 71
               1
 72
               1
  1
ガス接続口\P15Aめすねじ
  7
________
  0
LINE
  5
739
100
AcDbEntity
  8
DIMENTION
100
AcDbLine
 10
1890.392000004497
 20
1720.000000003128
 30
0.0
 11
1650.392000004497
 21
1720.000000003128
 31
0.0
  0
LINE
  5
73A
100
AcDbEntity
  8
DIMENTION
100
AcDbLine
 10
1890.392000004497
 20
1770.000000003128
 30
0.0
 11
1890.392000004497
 21
1720.000000003128
 31
0.0
  0
DIMENSION
  5
73B
100
AcDbEntity
  8
DIMENTION
100
AcDbDimension
  2
*D52
 10
1998.5468000044971
 20
1780.000000003128
 30
0.0
 11
2023.4694000044972
 21
1780.000000003128
 31
0.0
 70
               1
  3
CAD
100
AcDbAlignedDimension
 13
2048.3920000044973
 23
2055.0000000031278
 33
0.0
 14
1998.5468000044971
 24
2352.9998000031278
 34
0.0
1001
ACAD
1000
DSTYLE
1002
{
1070
             271
1070
               0
1070
             340
1005
6F
1070
             147
1040
0.9999999962747097
1002
}
  0
LINE
  5
73C
100
AcDbEntity
  8
DIMENTION
100
AcDbLine
 10
2103.8920000044973
 20
2652.8438000031279
 30
0.0
 11
1943.892000004497
 21
2652.8438000031279
 31
0.0
  0
LINE
  5
73D
100
AcDbEntity
  8
DIMENTION
100
AcDbLine
 10
2103.8920000044973
 20
2652.8438000031279
 30
0.0
 11
2330.3920000044973
 21
2530.0000000031278
 31
0.0
  0
LINE
  5
73E
100
AcDbEntity
  8
DIMENTION
100
AcDbLine
 10
2330.3920000044973
 20
2530.0000000031278
 30
0.0
 11
2298.4983613100871
 21
2537.9519772422072
 31
0.0
  0
LINE
  5
73F
100
AcDbEntity
  8
DIMENTION
100
AcDbLine
 10
2330.3920000044973
 20
2530.0000000031278
 30
0.0
 11
2306.7472872955555
 21
2552.833433649691
 31
0.0
  0
MTEXT
  5
740
100
AcDbEntity
  8
DIMENTION
100
AcDbMText
 10
1945.0247000044972
 20
2699.1509000031278
 30
0.0
 40
33.866666666666667
 41
0.0
 71
               1
 72
               1
  1
排気筒\P176×70
  7
________
  0
LINE
  5
741
100
AcDbEntity
  8
DIMENTION
100
AcDbLine
 10
2103.8920000044973
 20
2602.8438000031279
 30
0.0
 11
1943.892000004497
 21
2602.8438000031279
 31
0.0
  0
LINE
  5
742
100
AcDbEntity
  8
DIMENTION
100
AcDbLine
 10
2103.8920000044973
 20
2652.8438000031279
 30
0.0
 11
2103.8920000044973
 21
2602.8438000031279
 31
0.0
  0
DIMENSION
  5
743
100
AcDbEntity
  8
DIMENTION
100
AcDbDimension
  2
*D53
 10
2508.3920000044973
 20
2649.0000000031278
 30
0.0
 11
2420.3920000044973
 21
2649.0000000031278
 31
0.0
 70
               1
  3
CAD
100
AcDbAlignedDimension
 13
2332.3920000044973
 23
2565.0000000031278
 33
0.0
 14
2508.3920000044973
 24
2565.0000000031278
 34
0.0
1001
ACAD
1000
DSTYLE
1002
{
1070
             271
1070
               0
1070
             340
1005
6F
1070
             147
1040
0.9999999962747097
1002
}
  0
MTEXT
  5
744
100
AcDbEntity
  8
TEXT
100
AcDbMText
 10
3477.3999000044969
 20
107.77780000312805
 30
0.0
 40
67.733333333333334
 41
0.0
 71
               1
 72
               1
  1
A301-133{\fArial|b0|i0|c0|p0;\lH}
  7
________
  0
DIMENSION
  5
745
100
AcDbEntity
  8
DIMENTION
100
AcDbDimension
  2
*D54
 10
2870.3920000044973
 20
2649.0000000031278
 30
0.0
 11
2689.3920000044973
 21
2649.9999999994025
 31
0.0
 70
             128
  3
CAD
100
AcDbAlignedDimension
 13
2508.3920000044973
 23
2565.0000000031278
 33
0.0
 14
2870.3920000044973
 24
2513.0000000031278
 34
0.0
100
AcDbRotatedDimension
1001
ACAD
1000
DSTYLE
1002
{
1070
             340
1005
6F
1070
             147
1040
0.9999999962747097
1002
}
  0
INSERT
  5
746
100
AcDbEntity
  8
OBJECT
100
AcDbBlockReference
  2
*U55
 10
2025.4000000044971
 20
1409.000000003128
 30
0.0
  0
DIMENSION
  5
747
100
AcDbEntity
  8
DIMENTION
100
AcDbDimension
  2
*D56
 10
3779.4000000044971
 20
1590.000000003128
 30
0.0
 11
3779.4000000044971
 21
1560.000000003128
 31
0.0
  3
CAD
100
AcDbAlignedDimension
 13
3455.3920000044973
 23
1530.000000003128
 33
0.0
 14
2520.3920000044973
 24
1590.000000003128
 34
0.0
 50
90.0
100
AcDbRotatedDimension
1001
ACAD
1000
DSTYLE
1002
{
1070
             340
1005
6F
1070
             147
1040
0.9999999962747097
1002
}
  0
INSERT
  5
748
100
AcDbEntity
  8
CENTER
100
AcDbBlockReference
  2
*U57
 10
2025.4000000044971
 20
1409.000000003128
 30
0.0
  0
DIMENSION
  5
749
100
AcDbEntity
  8
DIMENTION
100
AcDbDimension
  2
*D58
 10
2585.4000000044971
 20
2245.0000000031278
 30
0.0
 11
2585.4000000044971
 21
2205.0000000031278
 31
0.0
  3
CAD
100
AcDbAlignedDimension
 13
2490.3920000044973
 23
2165.0000000031278
 33
0.0
 14
2490.3920000044973
 24
2245.0000000031278
 34
0.0
 50
90.0
100
AcDbRotatedDimension
1001
ACAD
1000
DSTYLE
1002
{
1070
             340
1005
6F
1070
             147
1040
0.9999999962747097
1002
}
  0
DIMENSION
  5
74A
100
AcDbEntity
  8
DIMENTION
100
AcDbDimension
  2
*D59
 10
1923.392000004497
 20
2565.0000000031278
 30
0.0
 11
1923.392000004497
 21
2365.0000000031278
 31
0.0
  3
CAD
100
AcDbAlignedDimension
 13
2048.3920000044973
 23
2165.0000000031278
 33
0.0
 14
2051.3920000044973
 24
2565.0000000031278
 34
0.0
 50
90.0
100
AcDbRotatedDimension
1001
ACAD
1000
DSTYLE
1002
{
1070
             340
1005
6F
1070
             147
1040
0.9999999962747097
1002
}
  0
LINE
  5
74B
100
AcDbEntity
  8
OBJECT
  6
CONTINUOUS
100
AcDbLine
 10
3784.7490000044972
 20
375.00000000312798
 30
0.0
 11
3444.3920000044973
 21
375.00000000312798
 31
0.0
  0
LINE
  5
74C
100
AcDbEntity
  8
OBJECT
  6
CONTINUOUS
100
AcDbLine
 10
3444.3920000044973
 20
384.30230000312804
 30
0.0
 11
3780.4327000044968
 21
384.30230000312804
 31
0.0
  0
INSERT
  5
74D
100
AcDbEntity
  8
OBJECT
100
AcDbBlockReference
  2
*U60
 10
2025.4000000044971
 20
1409.000000003128
 30
0.0
  0
LINE
  5
74E
100
AcDbEntity
  8
OBJECT
  6
CONTINUOUS
100
AcDbLine
 10
2722.1865000044972
 20
375.00000000312798
 30
0.0
 11
3406.3920000044973
 21
375.00000000312798
 31
0.0
  0
LINE
  5
74F
100
AcDbEntity
  8
OBJECT
  6
CONTINUOUS
100
AcDbLine
 10
2722.1865000044972
 20
384.30230000312804
 30
0.0
 11
3406.3920000044973
 21
384.30230000312804
 31
0.0
  0
LINE
  5
750
100
AcDbEntity
  8
OBJECT
  6
CONTINUOUS
100
AcDbLine
 10
3834.7490000044972
 20
575.00000000312809
 30
0.0
 11
3840.5824000044968
 21
592.00000000312809
 31
0.0
  0
LINE
  5
751
100
AcDbEntity
  8
OBJECT
  6
CONTINUOUS
100
AcDbLine
 10
3831.2490000044972
 20
575.00000000312809
 30
0.0
 11
3831.2490000044972
 21
592.00000000312809
 31
0.0
  0
LINE
  5
752
100
AcDbEntity
  8
OBJECT
  6
CONTINUOUS
100
AcDbLine
 10
3827.7490000044972
 20
575.00000000312809
 30
0.0
 11
3827.7490000044972
 21
592.00000000312809
 31
0.0
  0
LINE
  5
753
100
AcDbEntity
  8
OBJECT
  6
CONTINUOUS
100
AcDbLine
 10
3823.0824000044968
 20
575.00000000312809
 30
0.0
 11
3823.0824000044968
 21
592.00000000312809
 31
0.0
  0
MTEXT
  5
754
100
AcDbEntity
  8
TEXT
100
AcDbMText
 10
2709.982900004497
 20
127.00000000312798
 30
0.0
 40
50.799999999999997
 41
0.0
 71
               2
 72
               1
  1
SDL340GSH\P
  7
________
  0
MTEXT
  5
755
100
AcDbEntity
  8
TEXT
100
AcDbMText
 10
2487.732900004497
 20
61.500000003128207
 30
0.0
 40
39.511040000000001
 41
0.0
 71
               1
 72
               1
  1
ラック左から右流れ
  7
________
  0
MTEXT
  5
756
100
AcDbEntity
  8
TEXT
100
AcDbMText
 10
39.25
 20
498.83336666666696
 30
0.0
 40
33.866666666666667
 41
0.0
 71
               1
 72
               1
  1
注）指示なき寸法公差は±5\P　　とする
  7
________
  0
MTEXT
  5
757
100
AcDbEntity
  8
TEXT
100
AcDbMText
 10
39.25
 20
672.75006666666729
 30
0.0
 40
33.866666666666667
 41
0.0
 71
               1
 72
               1
  1
注）アジャスト調整範囲：\P　　基準高さ（800）に対して\P　　-30，+60
  7
________
  0
MTEXT
  5
758
100
AcDbEntity
  8
DIMENTION
100
AcDbMText
 10
3814.5722222222203
 20
772.75
 30
0.0
 40
33.866666666666667
 41
0.0
 71
               1
 72
               1
  1
電源コード\P3m，VCT，\P2.0mm ×４
  7
________
  0
MTEXT
  5
759
100
AcDbEntity
  8
DIMENTION
100
AcDbMText
 10
3930.7083333333335
 20
669.08333333333326
 30
0.0
 40
16.933333333333334
 41
0.0
 71
               1
 72
               1
  1
2
  7
________
  0
INSERT
  5
75A
100
AcDbEntity
  8
OBJECT
100
AcDbBlockReference
  2
*U61
 10
2025.4000000044971
 20
1409.000000003128
 30
0.0
  0
LINE
  5
75B
100
AcDbEntity
  8
OBJECT
100
AcDbLine
 10
3406.3920000044973
 20
230.00000000312798
 30
0.0
 11
3444.3920000044973
 21
230.00000000312798
 31
0.0
  0
POLYLINE
  5
75C
100
AcDbEntity
  8
OBJECT
100
AcDb2dPolyline
 66
               1
 10
0.0
 20
0.0
 30
0.0
 70
             129
  0
VERTEX
  5
75D
100
AcDbEntity
  8
OBJECT
100
AcDbVertex
100
AcDb2dVertex
 10
3408.3920000044973
 20
230.00000000312798
 30
0.0
  0
VERTEX
  5
75E
100
AcDbEntity
  8
OBJECT
100
AcDbVertex
100
AcDb2dVertex
 10
3442.3920000044973
 20
230.00000000312798
 30
0.0
  0
VERTEX
  5
75F
100
AcDbEntity
  8
OBJECT
100
AcDbVertex
100
AcDb2dVertex
 10
3442.3920000044973
 20
195.00000000312798
 30
0.0
 42
-0.414213562373095
 70
               2
  0
VERTEX
  5
760
100
AcDbEntity
  8
OBJECT
100
AcDbVertex
100
AcDb2dVertex
 10
3437.3920000044973
 20
190.00000000312798
 30
0.0
  0
VERTEX
  5
761
100
AcDbEntity
  8
OBJECT
100
AcDbVertex
100
AcDb2dVertex
 10
3413.3920000044973
 20
190.00000000312798
 30
0.0
 42
-0.4142135623730817
 70
               2
 50
1259779767729598.5
  0
VERTEX
  5
762
100
AcDbEntity
  8
OBJECT
100
AcDbVertex
100
AcDb2dVertex
 10
3408.3920000044973
 20
195.00000000312798
 30
0.0
  0
SEQEND
  5
763
100
AcDbEntity
  8
OBJECT
  0
LINE
  5
764
100
AcDbEntity
  8
OBJECT
100
AcDbLine
 10
3433.8920000044973
 20
192.00000000312798
 30
0.0
 11
3433.8920000044973
 21
209.00000000312798
 31
0.0
  0
LINE
  5
765
100
AcDbEntity
  8
OBJECT
100
AcDbLine
 10
3416.3920000044973
 20
192.00000000312798
 30
0.0
 11
3416.3920000044973
 21
209.00000000312798
 31
0.0
  0
SPLINE
  5
766
100
AcDbEntity
  8
OBJECT
100
AcDbSpline
210
0.0
220
0.0
230
1.0
 70
               8
 71
               2
 72
              10
 73
               7
 74
               0
 42
0.000001
 43
0.000001
 40
0.0
 40
0.0
 40
0.0
 40
0.2391095954640664
 40
0.2391095954640664
 40
0.7708424925849841
 40
0.7708424925849841
 40
1.0
 40
1.0
 40
1.0
 10
3408.8920000044973
 20
212.00000000312798
 30
0.0
 10
3410.8920000044973
 20
213.00000000312798
 30
0.0
 10
3416.3920000044973
 20
209.00000000312798
 30
0.0
 10
3425.3920000044973
 20
214.50000000312798
 30
0.0
 10
3433.8920000044973
 20
209.00000000312798
 30
0.0
 10
3437.8920000044973
 20
213.00000000312798
 30
0.0
 10
3440.8920000044973
 20
212.00000000312798
 30
0.0
  0
INSERT
  5
767
100
AcDbEntity
  8
OBJECT
100
AcDbBlockReference
  2
*U62
 10
2025.4000000044971
 20
1409.000000003128
 30
0.0
  0
LINE
  5
768
100
AcDbEntity
  8
OBJECT
100
AcDbLine
 10
2296.3920000044973
 20
230.00000000312798
 30
0.0
 11
2334.3920000044973
 21
230.00000000312798
 31
0.0
  0
POLYLINE
  5
769
100
AcDbEntity
  8
OBJECT
100
AcDb2dPolyline
 66
               1
 10
0.0
 20
0.0
 30
0.0
 70
             129
  0
VERTEX
  5
76A
100
AcDbEntity
  8
OBJECT
100
AcDbVertex
100
AcDb2dVertex
 10
2298.3920000044973
 20
230.00000000312798
 30
0.0
  0
VERTEX
  5
76B
100
AcDbEntity
  8
OBJECT
100
AcDbVertex
100
AcDb2dVertex
 10
2332.3920000044973
 20
230.00000000312798
 30
0.0
  0
VERTEX
  5
76C
100
AcDbEntity
  8
OBJECT
100
AcDbVertex
100
AcDb2dVertex
 10
2332.3920000044973
 20
195.00000000312798
 30
0.0
 42
-0.414213562373095
 70
               2
  0
VERTEX
  5
76D
100
AcDbEntity
  8
OBJECT
100
AcDbVertex
100
AcDb2dVertex
 10
2327.3920000044973
 20
190.00000000312798
 30
0.0
  0
VERTEX
  5
76E
100
AcDbEntity
  8
OBJECT
100
AcDbVertex
100
AcDb2dVertex
 10
2303.3920000044973
 20
190.00000000312798
 30
0.0
 42
-0.4142135623730884
 70
               2
 50
2461546981191205.0
  0
VERTEX
  5
76F
100
AcDbEntity
  8
OBJECT
100
AcDbVertex
100
AcDb2dVertex
 10
2298.3920000044973
 20
195.00000000312798
 30
0.0
  0
SEQEND
  5
770
100
AcDbEntity
  8
OBJECT
  0
LINE
  5
771
100
AcDbEntity
  8
OBJECT
100
AcDbLine
 10
2323.8920000044973
 20
192.00000000312798
 30
0.0
 11
2323.8920000044973
 21
209.00000000312798
 31
0.0
  0
LINE
  5
772
100
AcDbEntity
  8
OBJECT
100
AcDbLine
 10
2306.3920000044973
 20
192.00000000312798
 30
0.0
 11
2306.3920000044973
 21
209.00000000312798
 31
0.0
  0
SPLINE
  5
773
100
AcDbEntity
  8
OBJECT
100
AcDbSpline
210
0.0
220
0.0
230
1.0
 70
               8
 71
               2
 72
              10
 73
               7
 74
               0
 42
0.000001
 43
0.000001
 40
0.0
 40
0.0
 40
0.0
 40
0.2391095954640664
 40
0.2391095954640664
 40
0.7708424925849841
 40
0.7708424925849841
 40
1.0
 40
1.0
 40
1.0
 10
2298.8920000044973
 20
212.00000000312798
 30
0.0
 10
2300.8920000044973
 20
213.00000000312798
 30
0.0
 10
2306.3920000044973
 20
209.00000000312798
 30
0.0
 10
2315.3920000044973
 20
214.50000000312798
 30
0.0
 10
2323.8920000044973
 20
209.00000000312798
 30
0.0
 10
2327.8920000044973
 20
213.00000000312798
 30
0.0
 10
2330.8920000044973
 20
212.00000000312798
 30
0.0
  0
LINE
  5
774
100
AcDbEntity
  8
OBJECT
100
AcDbLine
 10
2334.3920000044973
 20
415.00000000312809
 30
0.0
 11
3406.3920000044973
 21
415.00000000312809
 31
0.0
  0
POINT
  5
775
100
AcDbEntity
  8
OBJECT
  6
CONTINUOUS
100
AcDbPoint
 10
2870.3920000044973
 20
440.00000000312809
 30
0.0
  0
ARC
  5
776
100
AcDbEntity
  8
OBJECT
100
AcDbCircle
 10
2722.1865000044972
 20
429.30230000312804
 30
0.0
 40
44.999999999999986
100
AcDbArc
 50
198.32359278513226
 51
270.0
  0
ARC
  5
777
100
AcDbEntity
  8
OBJECT
100
AcDbCircle
 10
2722.1865000044972
 20
429.30230000312804
 30
0.0
 40
54.302300000000017
100
AcDbArc
 50
195.55337215088866
 51
270.0
  0
INSERT
  5
778
100
AcDbEntity
  8
OBJECT
100
AcDbBlockReference
  2
*U63
 10
2025.4000000044971
 20
1409.000000003128
 30
0.0
  0
LINE
  5
779
100
AcDbEntity
  8
OBJECT
100
AcDbLine
 10
1376.3920000044973
 20
230.00000000312798
 30
0.0
 11
1414.3920000044973
 21
230.00000000312798
 31
0.0
  0
POLYLINE
  5
77A
100
AcDbEntity
  8
OBJECT
100
AcDb2dPolyline
 66
               1
 10
0.0
 20
0.0
 30
0.0
 70
             129
  0
VERTEX
  5
77B
100
AcDbEntity
  8
OBJECT
100
AcDbVertex
100
AcDb2dVertex
 10
1378.3920000044973
 20
230.00000000312798
 30
0.0
  0
VERTEX
  5
77C
100
AcDbEntity
  8
OBJECT
100
AcDbVertex
100
AcDb2dVertex
 10
1412.3920000044973
 20
230.00000000312798
 30
0.0
  0
VERTEX
  5
77D
100
AcDbEntity
  8
OBJECT
100
AcDbVertex
100
AcDb2dVertex
 10
1412.3920000044973
 20
195.00000000312798
 30
0.0
 42
-0.414213562373095
 70
               2
  0
VERTEX
  5
77E
100
AcDbEntity
  8
OBJECT
100
AcDbVertex
100
AcDb2dVertex
 10
1407.3920000044973
 20
190.00000000312798
 30
0.0
  0
VERTEX
  5
77F
100
AcDbEntity
  8
OBJECT
100
AcDbVertex
100
AcDb2dVertex
 10
1383.3920000044973
 20
190.00000000312798
 30
0.0
 42
-0.414213562373095
 70
               2
 50
3.1191399769264294E+17
  0
VERTEX
  5
780
100
AcDbEntity
  8
OBJECT
100
AcDbVertex
100
AcDb2dVertex
 10
1378.3920000044973
 20
195.00000000312798
 30
0.0
  0
SEQEND
  5
781
100
AcDbEntity
  8
OBJECT
  0
LINE
  5
782
100
AcDbEntity
  8
OBJECT
100
AcDbLine
 10
1403.8920000044973
 20
192.00000000312798
 30
0.0
 11
1403.8920000044973
 21
209.00000000312798
 31
0.0
  0
LINE
  5
783
100
AcDbEntity
  8
OBJECT
100
AcDbLine
 10
1386.3920000044973
 20
192.00000000312798
 30
0.0
 11
1386.3920000044973
 21
209.00000000312798
 31
0.0
  0
SPLINE
  5
784
100
AcDbEntity
  8
OBJECT
100
AcDbSpline
210
0.0
220
0.0
230
1.0
 70
               8
 71
               2
 72
              10
 73
               7
 74
               0
 42
0.000001
 43
0.000001
 40
0.0
 40
0.0
 40
0.0
 40
0.2391095954640664
 40
0.2391095954640664
 40
0.7708424925849841
 40
0.7708424925849841
 40
1.0
 40
1.0
 40
1.0
 10
1378.8920000044973
 20
212.00000000312798
 30
0.0
 10
1380.8920000044973
 20
213.00000000312798
 30
0.0
 10
1386.3920000044973
 20
209.00000000312798
 30
0.0
 10
1395.3920000044973
 20
214.50000000312798
 30
0.0
 10
1403.8920000044973
 20
209.00000000312798
 30
0.0
 10
1407.8920000044973
 20
213.00000000312798
 30
0.0
 10
1410.8920000044973
 20
212.00000000312798
 30
0.0
  0
INSERT
  5
785
100
AcDbEntity
  8
OBJECT
100
AcDbBlockReference
  2
*U64
 10
2025.4000000044971
 20
1409.000000003128
 30
0.0
  0
LINE
  5
786
100
AcDbEntity
  8
OBJECT
100
AcDbLine
 10
786.39200000449728
 20
230.00000000312798
 30
0.0
 11
824.39200000449728
 21
230.00000000312798
 31
0.0
  0
POLYLINE
  5
787
100
AcDbEntity
  8
OBJECT
100
AcDb2dPolyline
 66
               1
 10
0.0
 20
0.0
 30
0.0
 70
             129
  0
VERTEX
  5
788
100
AcDbEntity
  8
OBJECT
100
AcDbVertex
100
AcDb2dVertex
 10
788.39200000449728
 20
230.00000000312798
 30
0.0
  0
VERTEX
  5
789
100
AcDbEntity
  8
OBJECT
100
AcDbVertex
100
AcDb2dVertex
 10
822.39200000449728
 20
230.00000000312798
 30
0.0
  0
VERTEX
  5
78A
100
AcDbEntity
  8
OBJECT
100
AcDbVertex
100
AcDb2dVertex
 10
822.39200000449728
 20
195.00000000312798
 30
0.0
 42
-0.414213562373095
 70
               2
  0
VERTEX
  5
78B
100
AcDbEntity
  8
OBJECT
100
AcDbVertex
100
AcDb2dVertex
 10
817.39200000449728
 20
190.00000000312798
 30
0.0
  0
VERTEX
  5
78C
100
AcDbEntity
  8
OBJECT
100
AcDbVertex
100
AcDb2dVertex
 10
793.39200000449728
 20
190.00000000312798
 30
0.0
 42
-0.414213562373095
 70
               2
 50
3.1191399769264294E+17
  0
VERTEX
  5
78D
100
AcDbEntity
  8
OBJECT
100
AcDbVertex
100
AcDb2dVertex
 10
788.39200000449728
 20
195.00000000312798
 30
0.0
  0
SEQEND
  5
78E
100
AcDbEntity
  8
OBJECT
  0
LINE
  5
78F
100
AcDbEntity
  8
OBJECT
100
AcDbLine
 10
813.89200000449728
 20
192.00000000312798
 30
0.0
 11
813.89200000449728
 21
209.00000000312798
 31
0.0
  0
LINE
  5
790
100
AcDbEntity
  8
OBJECT
100
AcDbLine
 10
796.39200000449728
 20
192.00000000312798
 30
0.0
 11
796.39200000449728
 21
209.00000000312798
 31
0.0
  0
SPLINE
  5
791
100
AcDbEntity
  8
OBJECT
100
AcDbSpline
210
0.0
220
0.0
230
1.0
 70
               8
 71
               2
 72
              10
 73
               7
 74
               0
 42
0.000001
 43
0.000001
 40
0.0
 40
0.0
 40
0.0
 40
0.2391095954640664
 40
0.2391095954640664
 40
0.7708424925849841
 40
0.7708424925849841
 40
1.0
 40
1.0
 40
1.0
 10
788.89200000449728
 20
212.00000000312798
 30
0.0
 10
790.89200000449728
 20
213.00000000312798
 30
0.0
 10
796.39200000449728
 20
209.00000000312798
 30
0.0
 10
805.39200000449728
 20
214.50000000312798
 30
0.0
 10
813.89200000449728
 20
209.00000000312798
 30
0.0
 10
817.89200000449728
 20
213.00000000312798
 30
0.0
 10
820.89200000449728
 20
212.00000000312798
 30
0.0
  0
POINT
  5
792
100
AcDbEntity
  8
OBJECT
  6
CONTINUOUS
100
AcDbPoint
 10
1100.3920000044973
 20
990.00000000312798
 30
0.0
  0
INSERT
  5
793
100
AcDbEntity
  8
FRAME
100
AcDbBlockReference
  2
*U70
 10
2025.4000000044971
 20
1409.000000003128
 30
0.0
  0
MTEXT
  5
794
100
AcDbEntity
  8
TEXT
100
AcDbMText
 10
1004.5
 20
42.0
 30
0.0
 40
28.222222222222225
 41
0.0
 71
               1
 72
               1
  1
24.02.06
  7
________
  0
MTEXT
  5
795
100
AcDbEntity
  8
TEXT
100
AcDbMText
 10
1018.3883111100301
 20
86.152999999999793
 30
0.0
 40
28.222222222222225
 41
0.0
 71
               1
 72
               1
  1
下　野
  7
________
  0
MTEXT
  5
796
100
AcDbEntity
  8
TEXT
100
AcDbMText
 10
1018.3883111100301
 20
132.15299999999979
 30
0.0
 40
28.222222222222225
 41
0.0
 71
               1
 72
               1
  1
大　谷
  7
________
  0
INSERT
  5
797
100
AcDbEntity
  8
OBJECT
100
AcDbBlockReference
  2
*U71
 10
2025.4000000044971
 20
1409.000000003128
 30
0.0
  0
INSERT
  5
798
100
AcDbEntity
  8
OBJECT
100
AcDbBlockReference
  2
*U72
 10
2025.4000000044971
 20
1409.000000003128
 30
0.0
  0
INSERT
  5
799
100
AcDbEntity
  8
OUTLINE
100
AcDbBlockReference
  2
*U73
 10
2025.4000000044971
 20
1409.000000003128
 30
0.0
  0
INSERT
  5
79A
100
AcDbEntity
  8
OUTLINE
100
AcDbBlockReference
  2
*U74
 10
2025.4000000044971
 20
1409.000000003128
 30
0.0
  0
LINE
  5
79B
100
AcDbEntity
  8
OBJECT
  6
STYLE_08
100
AcDbLine
 10
2262.3920000044973
 20
990.00000000312798
 30
0.0
 11
1962.392000004497
 21
990.00000000312798
 31
0.0
  0
LINE
  5
79C
100
AcDbEntity
  8
OBJECT
  6
STYLE_08
100
AcDbLine
 10
2046.392000004497
 20
1010.000000003128
 30
0.0
 11
1962.392000004497
 21
1010.000000003128
 31
0.0
  0
MTEXT
  5
79D
100
AcDbEntity
  8
DIMENTION
100
AcDbMText
 10
1811.6527111612615
 20
1525.5555000546581
 30
0.0
 40
33.866666666666667
 41
0.0
 71
               1
 72
               1
  1
防水板\P(付属品)
  7
________
  0
LINE
  5
79E
100
AcDbEntity
  8
DIMENTION
100
AcDbLine
 10
1979.304000047028
 20
1481.6960000515301
 30
0.0
 11
1809.304000047028
 21
1481.6960000515301
 31
0.0
  0
LINE
  5
79F
100
AcDbEntity
  8
DIMENTION
100
AcDbLine
 10
2133.0
 20
1310.0000000985583
 30
0.0
 11
1979.304000047028
 21
1481.6960000515301
 31
0.0
  0
LINE
  5
7A0
100
AcDbEntity
  8
DIMENTION
100
AcDbLine
 10
2133.0
 20
1310.0000000985583
 30
0.0
 11
2105.7495194638832
 21
1328.3806813082176
 31
0.0
  0
LINE
  5
7A1
100
AcDbEntity
  8
DIMENTION
100
AcDbLine
 10
2133.0
 20
1310.0000000985583
 30
0.0
 11
2118.5907321952191
 21
1339.5433772330448
 31
0.0
  0
MTEXT
  5
7A2
100
AcDbEntity
  8
DIMENTION
100
AcDbMText
 10
1884.392000004497
 20
1018.9722222222222
 30
0.0
 40
33.866666666666667
 41
0.0
 71
               1
 72
               1
  1
(テーブルカマチ高さ)
  7
________
 11
0.0
 21
1.0
 31
0.0
  0
DIMENSION
  5
7A3
100
AcDbEntity
  8
DIMENTION
100
AcDbDimension
  2
*D75
 10
2285.3920000044973
 20
1623.000000003128
 30
0.0
 11
2225.3920000044973
 21
1623.000000003128
 31
0.0
  3
CAD
100
AcDbAlignedDimension
 13
2165.3920000044973
 23
1530.000000003128
 33
0.0
 14
2285.3920000044973
 24
1530.000000003128
 34
0.0
100
AcDbRotatedDimension
1001
ACAD
1000
DSTYLE
1002
{
1070
             340
1005
6F
1070
             147
1040
0.9999999962747097
1002
}
  0
DIMENSION
  5
7A4
100
AcDbEntity
  8
DIMENTION
100
AcDbDimension
  2
*D76
 10
3575.3920000044973
 20
1623.000000003128
 30
0.0
 11
3515.3920000044973
 21
1623.000000003128
 31
0.0
  3
CAD
100
AcDbAlignedDimension
 13
3455.3920000044973
 23
1530.000000003128
 33
0.0
 14
3575.3920000044973
 24
1530.000000003128
 34
0.0
100
AcDbRotatedDimension
1001
ACAD
1000
DSTYLE
1002
{
1070
             340
1005
6F
1070
             147
1040
0.9999999962747097
1002
}
  0
DIMENSION
  5
7A5
100
AcDbEntity
  8
DIMENTION
100
AcDbDimension
  2
*D77
 10
3689.3920000044973
 20
1530.000000003128
 30
0.0
 11
3689.3920000044973
 21
1490.000000003128
 31
0.0
  3
CAD
100
AcDbAlignedDimension
 13
3575.3920000044973
 23
1450.000000003128
 33
0.0
 14
3575.3920000044973
 24
1530.000000003128
 34
0.0
 50
90.0
100
AcDbRotatedDimension
1001
ACAD
1000
DSTYLE
1002
{
1070
             340
1005
6F
1070
             147
1040
0.9999999962747097
1002
}
  0
MTEXT
  5
7A6
100
AcDbEntity
  8
DIMENTION
100
AcDbMText
 10
1804.9407111187309
 20
1627.1595000031282
 30
0.0
 40
33.866666666666667
 41
0.0
 71
               1
 72
               1
  1
カーテン取付枠
  7
________
  0
LINE
  5
7A7
100
AcDbEntity
  8
DIMENTION
100
AcDbLine
 10
2165.3920000044973
 20
1490.000000003128
 30
0.0
 11
2088.3920000044973
 21
1582.0
 31
0.0
  0
LINE
  5
7A8
100
AcDbEntity
  8
DIMENTION
100
AcDbLine
 10
2165.3920000044973
 20
1490.000000003128
 30
0.0
 11
2138.7995962481059
 21
1509.3205122540357
 31
0.0
  0
LINE
  5
7A9
100
AcDbEntity
  8
DIMENTION
100
AcDbLine
 10
2165.3920000044973
 20
1490.000000003128
 30
0.0
 11
2152.0225589292236
 21
1520.0282563047381
 31
0.0
  0
LINE
  5
7AA
100
AcDbEntity
  8
DIMENTION
100
AcDbLine
 10
2088.3920000044973
 20
1582.0
 30
0.0
 11
1808.392000004497
 21
1582.0
 31
0.0
  0
DIMENSION
  5
7AB
100
AcDbEntity
  8
DIMENTION
100
AcDbDimension
  2
*D78
 10
1979.392000004497
 20
1010.000000003128
 30
0.0
 11
1979.392000004497
 21
1160.000000050843
 31
0.0
  3
CAD
100
AcDbAlignedDimension
 13
2115.3920000044973
 23
1310.0000000985578
 33
0.0
 14
2035.392000004497
 24
1010.000000003128
 34
0.0
 50
90.0
100
AcDbRotatedDimension
1001
ACAD
1000
DSTYLE
1002
{
1070
             340
1005
6F
1070
             147
1040
0.9999999962747097
1002
}
  0
DIMENSION
  5
7AC
100
AcDbEntity
  8
DIMENTION
100
AcDbDimension
  2
*D79
 10
2035.392000004497
 20
1352.0
 30
0.0
 11
2160.3920000044973
 21
1352.0
 31
0.0
  3
CAD
100
AcDbAlignedDimension
 13
2285.3920000044973
 23
1310.0000000985615
 33
0.0
 14
2035.392000004497
 24
1230.0000000985538
 34
0.0
100
AcDbRotatedDimension
1001
ACAD
1000
DSTYLE
1002
{
1070
             340
1005
6F
1070
             147
1040
0.9999999962747097
1002
}
  0
DIMENSION
  5
7AD
100
AcDbEntity
  8
DIMENTION
100
AcDbDimension
  2
*D80
 10
1872.9999999999998
 20
1010.000000003128
 30
0.0
 11
1872.0000000037251
 21
1015.0
 31
0.0
 70
             128
  3
CAD
100
AcDbAlignedDimension
 13
1962.392000004497
 23
990.00000000312798
 33
0.0
 14
1962.392000004497
 24
1010.000000003128
 34
0.0
 50
90.0
100
AcDbRotatedDimension
1001
ACAD
1000
DSTYLE
1002
{
1070
             340
1005
6F
1070
               3
1000
　　<>～30
1070
             174
1070
               0
1070
             147
1040
0.9999999962747097
1002
}
  0
MTEXT
  5
7AE
100
AcDbEntity
  8
DIMENTION
100
AcDbMText
 10
2972.8777000121208
 20
321.57500000000005
 30
0.0
 40
33.866666666666667
 41
0.0
 71
               1
 72
               1
  1
操作パネル
  7
________
  0
MTEXT
  5
7AF
100
AcDbEntity
  8
DIMENTION
100
AcDbMText
 10
2692.3068000044968
 20
365.81240000625598
 30
0.0
 40
33.866666666666667
 41
0.0
 71
               1
 72
               1
  1
温度計
  7
________
  0
LINE
  5
7B0
100
AcDbEntity
  8
DIMENTION
100
AcDbLine
 10
2677.0018000044965
 20
319.95290000312798
 30
0.0
 11
2817.0018000044965
 21
319.95290000312798
 31
0.0
  0
LINE
  5
7B1
100
AcDbEntity
  8
DIMENTION
100
AcDbLine
 10
2677.0018000044965
 20
319.95290000312798
 30
0.0
 11
2470.5377868263095
 21
547.77061904953234
 31
0.0
  0
LINE
  5
7B2
100
AcDbEntity
  8
DIMENTION
100
AcDbLine
 10
2470.5377868263095
 20
547.77061904953234
 30
0.0
 11
2498.1049041013152
 21
529.86832376857762
 31
0.0
  0
LINE
  5
7B3
100
AcDbEntity
  8
DIMENTION
100
AcDbLine
 10
2470.5377868263095
 20
547.77061904953234
 30
0.0
 11
2485.4604630550916
 21
518.48321791267256
 31
0.0
  0
LINE
  5
7B4
100
AcDbEntity
  8
DIMENTION
100
AcDbLine
 10
2962.0178000044971
 20
278.22810000312802
 30
0.0
 11
3182.0178000044971
 21
278.22810000312802
 31
0.0
  0
LINE
  5
7B5
100
AcDbEntity
  8
DIMENTION
100
AcDbLine
 10
2962.0178000044971
 20
278.22810000312802
 30
0.0
 11
2503.8920000044973
 21
733.50000000312809
 31
0.0
  0
LINE
  5
7B6
100
AcDbEntity
  8
DIMENTION
100
AcDbLine
 10
2503.8920000044973
 20
733.50000000312809
 30
0.0
 11
2532.3582712458328
 21
717.06499063911804
 31
0.0
  0
LINE
  5
7B7
100
AcDbEntity
  8
DIMENTION
100
AcDbLine
 10
2503.8920000044973
 20
733.50000000312809
 30
0.0
 11
2520.3270093685069
 21
705.03372876179242
 31
0.0
  0
POLYLINE
  5
7B8
100
AcDbEntity
  8
TEXT
100
AcDb2dPolyline
 66
               1
 10
0.0
 20
0.0
 30
0.0
 70
               1
 75
               5
  0
VERTEX
  5
7B9
100
AcDbEntity
  8
TEXT
100
AcDbVertex
100
AcDb2dVertex
 10
15.000000004497224
 20
2705.0000000031278
 30
0.0
  0
VERTEX
  5
7BA
100
AcDbEntity
  8
TEXT
100
AcDbVertex
100
AcDb2dVertex
 10
865.00000000449722
 20
2705.0000000031278
 30
0.0
  0
VERTEX
  5
7BB
100
AcDbEntity
  8
TEXT
100
AcDbVertex
100
AcDb2dVertex
 10
865.00000000449722
 20
1913.0000000031275
 30
0.0
  0
VERTEX
  5
7BC
100
AcDbEntity
  8
TEXT
100
AcDbVertex
100
AcDb2dVertex
 10
15.000000004497224
 20
1913.0000000031275
 30
0.0
  0
SEQEND
  5
7BD
100
AcDbEntity
  8
TEXT
  0
LINE
  5
7BE
100
AcDbEntity
  8
TEXT
100
AcDbLine
 10
169.29290000449714
 20
2704.2929000031272
 30
0.0
 11
169.29290000449714
 21
2528.2929000031272
 31
0.0
  0
LINE
  5
7BF
100
AcDbEntity
  8
TEXT
100
AcDbLine
 10
169.29290000449714
 20
2572.2929000031272
 30
0.0
 11
865.00000000449722
 21
2572.0000000031278
 31
0.0
  0
LINE
  5
7C0
100
AcDbEntity
  8
TEXT
100
AcDbLine
 10
14.292900004497142
 20
2528.2929000031272
 30
0.0
 11
865.00000000449722
 21
2528.0000000031278
 31
0.0
  0
LINE
  5
7C1
100
AcDbEntity
  8
TEXT
100
AcDbLine
 10
14.292900004497142
 20
2396.2929000031272
 30
0.0
 11
865.00000000449722
 21
2396.0000000031278
 31
0.0
  0
LINE
  5
7C2
100
AcDbEntity
  8
TEXT
100
AcDbLine
 10
14.292900004497142
 20
2352.2929000031272
 30
0.0
 11
865.00000000449722
 21
2352.0000000031278
 31
0.0
  0
LINE
  5
7C3
100
AcDbEntity
  8
TEXT
100
AcDbLine
 10
14.292900004497142
 20
2308.2929000031272
 30
0.0
 11
864.29290000449714
 21
2308.2929000031272
 31
0.0
  0
LINE
  5
7C4
100
AcDbEntity
  8
TEXT
100
AcDbLine
 10
14.292900004497142
 20
2088.2929000031272
 30
0.0
 11
865.00000000449722
 21
2088.2929000031272
 31
0.0
  0
LINE
  5
7C5
100
AcDbEntity
  8
TEXT
100
AcDbLine
 10
292.29290000449714
 20
2704.2929000031272
 30
0.0
 11
292.29290000449714
 21
1913.0000000031275
 31
0.0
  0
MTEXT
  5
7C6
100
AcDbEntity
  8
TEXT
100
AcDbMText
 10
24.876300004497125
 20
2683.1644000031274
 30
0.0
 40
25.400000000000002
 41
0.0
 71
               1
 72
               1
  1
洗浄方式
  7
________
  0
POLYLINE
  5
7C7
100
AcDbEntity
  8
TEXT
100
AcDb2dPolyline
 66
               1
 10
0.0
 20
0.0
 30
0.0
 70
               1
 75
               5
  0
VERTEX
  5
7C8
100
AcDbEntity
  8
TEXT
100
AcDbVertex
100
AcDb2dVertex
 10
865.00000000449722
 20
2705.0000000031278
 30
0.0
  0
VERTEX
  5
7C9
100
AcDbEntity
  8
TEXT
100
AcDbVertex
100
AcDb2dVertex
 10
1815.0000000044972
 20
2705.0000000031278
 30
0.0
  0
VERTEX
  5
7CA
100
AcDbEntity
  8
TEXT
100
AcDbVertex
100
AcDb2dVertex
 10
1815.0000000044972
 20
1913.0000000031275
 30
0.0
  0
VERTEX
  5
7CB
100
AcDbEntity
  8
TEXT
100
AcDbVertex
100
AcDb2dVertex
 10
865.00000000449722
 20
1913.0000000031275
 30
0.0
  0
SEQEND
  5
7CC
100
AcDbEntity
  8
TEXT
  0
LINE
  5
7CD
100
AcDbEntity
  8
TEXT
100
AcDbLine
 10
864.29290000449714
 20
2308.2929000031272
 30
0.0
 11
1815.0000000044972
 21
2308.2929000031272
 31
0.0
  0
LINE
  5
7CE
100
AcDbEntity
  8
TEXT
100
AcDbLine
 10
1204.2929000044971
 20
2704.2929000031272
 30
0.0
 11
1204.2929000044971
 21
2308.2929000031272
 31
0.0
  0
LINE
  5
7CF
100
AcDbEntity
  8
TEXT
100
AcDbLine
 10
14.292900004497142
 20
2264.2929000031272
 30
0.0
 11
865.00000000449722
 21
2264.2929000031272
 31
0.0
  0
LINE
  5
7D0
100
AcDbEntity
  8
TEXT
100
AcDbLine
 10
1124.2929000044971
 20
2308.2929000031272
 30
0.0
 11
1124.2929000044971
 21
1912.292900003127
 31
0.0
  0
MTEXT
  5
7D1
100
AcDbEntity
  8
TEXT
100
AcDbMText
 10
880.29290000449714
 20
2301.6517000031272
 30
0.0
 40
25.400000000000002
 41
0.0
 71
               1
 72
               1
  1
ガスブースター
  7
________
  0
MTEXT
  5
7D2
100
AcDbEntity
  8
TEXT
100
AcDbMText
 10
1138.9040000044972
 20
2301.3762000031275
 30
0.0
 40
25.400000000000002
 41
0.0
 71
               1
 72
               1
  3
ガス消費量\P都市ガス　：20kW\P　（13A）     （17,000 kcal／ h，1.5 m ／h）\PＬＰガス　：18.5kW\P　　　　　   （16,000 kcal／ h，1.33 kg／ h）\P温度制御　：サーミスター方式\P　　　　　　    65 ℃, 75 ℃, 85 ℃の\P　　　　　　    3段階設定電子式\P点火方式
  1
　：電子式ダイレクト点火\P炎検出方式：フレームロッド検出\P
  7
________
  0
MTEXT
  5
7D3
100
AcDbEntity
  8
TEXT
100
AcDbMText
 10
53.181800004497291
 20
1887.6818000031269
 30
0.0
 40
33.866666666666667
 41
0.0
 71
               1
 72
               1
  1
※洗剤，リンス剤及び供給装置については、洗剤メーカーにご相談ください。
  7
________
  0
LINE
  5
7D4
100
AcDbEntity
  8
TEXT
100
AcDbLine
 10
865.03983888273046
 20
2660.0000000031278
 30
0.0
 11
1815.7469388827305
 21
2660.0000000031278
 31
0.0
  0
LINE
  5
7D5
100
AcDbEntity
  8
TEXT
100
AcDbLine
 10
865.03983888273046
 20
2572.0000000031278
 30
0.0
 11
1815.7469388827305
 21
2572.0000000031278
 31
0.0
  0
LINE
  5
7D6
100
AcDbEntity
  8
TEXT
100
AcDbLine
 10
865.03983888273046
 20
2528.0000000031278
 30
0.0
 11
1815.7469388827305
 21
2528.0000000031278
 31
0.0
  0
LINE
  5
7D7
100
AcDbEntity
  8
TEXT
100
AcDbLine
 10
865.03983888273046
 20
2440.0000000031278
 30
0.0
 11
1815.7469388827305
 21
2440.0000000031278
 31
0.0
  0
LINE
  5
7D8
100
AcDbEntity
  8
TEXT
100
AcDbLine
 10
865.03983888273046
 20
2396.0000000031278
 30
0.0
 11
1815.7469388827305
 21
2396.0000000031278
 31
0.0
  0
LINE
  5
7D9
100
AcDbEntity
  8
TEXT
100
AcDbLine
 10
865.03983888273046
 20
2484.0000000031278
 30
0.0
 11
1815.7469388827305
 21
2484.0000000031278
 31
0.0
  0
LINE
  5
7DA
100
AcDbEntity
  8
TEXT
100
AcDbLine
 10
865.03983888273046
 20
2616.0000000031278
 30
0.0
 11
1815.7469388827305
 21
2616.0000000031278
 31
0.0
  0
LINE
  5
7DB
100
AcDbEntity
  8
TEXT
100
AcDbLine
 10
865.03983888273046
 20
2352.0000000031278
 30
0.0
 11
1815.7469388827305
 21
2352.0000000031278
 31
0.0
  0
LINE
  5
7DC
100
AcDbEntity
  8
TEXT
100
AcDbLine
 10
14.292900004497142
 20
1956.292900003127
 30
0.0
 11
865.00000000449722
 21
1956.292900003127
 31
0.0
  0
MTEXT
  5
7DD
100
AcDbEntity
  8
TEXT
100
AcDbMText
 10
1595.8833709556056
 20
2222.0555555555547
 30
0.0
 40
11.28888888888889
 41
10.233258088788563
 71
               1
 72
               1
  1
3
  7
________
  0
MTEXT
  5
7DE
100
AcDbEntity
  8
TEXT
100
AcDbMText
 10
645.47222222222217
 20
2134.5555555555557
 30
0.0
 40
11.28888888888889
 41
0.0
 71
               1
 72
               1
  1
2
  7
________
  0
CIRCLE
  5
7DF
100
AcDbEntity
  8
OBJECT
100
AcDbCircle
 10
3040.3920000044973
 20
790.00000000312798
 30
0.0
 40
50.0
  0
LINE
  5
7E0
100
AcDbEntity
  8
CENTER
100
AcDbLine
 10
3110.3920000044973
 20
790.00000000312798
 30
0.0
 11
2970.3920000044973
 21
790.00000000312798
 31
0.0
  0
LINE
  5
7E1
100
AcDbEntity
  8
CENTER
100
AcDbLine
 10
3040.3920000044973
 20
720.00000000312809
 30
0.0
 11
3040.3920000044973
 21
860.00000000312798
 31
0.0
  0
CIRCLE
  5
7E2
100
AcDbEntity
  8
OBJECT
100
AcDbCircle
 10
3040.3920000044973
 20
790.00000000312798
 30
0.0
 40
60.0
  0
CIRCLE
  5
7E3
100
AcDbEntity
  8
OBJECT
100
AcDbCircle
 10
3040.3920000044973
 20
775.00000000312798
 30
0.0
 40
15.0
  0
MTEXT
  5
7E4
100
AcDbEntity
  8
DIMENTION
100
AcDbMText
 10
3167.5205000044971
 20
712.53400000312809
 30
0.0
 40
33.866666666666667
 41
0.0
 71
               1
 72
               1
  1
ラック送り\Pセレクトスイッチ
  7
________
  0
LINE
  5
7E5
100
AcDbEntity
  8
DIMENTION
100
AcDbLine
 10
3154.3920000044973
 20
667.918400003128
 30
0.0
 11
3444.3920000044973
 21
667.918400003128
 31
0.0
  0
LINE
  5
7E6
100
AcDbEntity
  8
DIMENTION
100
AcDbLine
 10
3154.3920000044973
 20
667.918400003128
 30
0.0
 11
3047.3920000044973
 21
765.50160000312803
 31
0.0
  0
LINE
  5
7E7
100
AcDbEntity
  8
DIMENTION
100
AcDbLine
 10
3047.3920000044973
 20
765.50160000312803
 30
0.0
 11
3076.4145039176301
 21
750.07006094208293
 31
0.0
  0
LINE
  5
7E8
100
AcDbEntity
  8
DIMENTION
100
AcDbLine
 10
3047.3920000044973
 20
765.50160000312803
 30
0.0
 11
3064.8104561441814
 21
737.6262432002045
 31
0.0
  0
LINE
  5
7E9
100
AcDbEntity
  8
DIMENTION
100
AcDbLine
 10
3154.0
 20
618.0
 30
0.0
 11
3444.0
 21
618.0
 31
0.0
  0
LINE
  5
7EA
100
AcDbEntity
  8
DIMENTION
100
AcDbLine
 10
3154.3920000044973
 20
667.918400003128
 30
0.0
 11
3154.3920000044973
 21
617.918400003128
 31
0.0
  0
POINT
  5
7EB
100
AcDbEntity
  8
TEXT
  6
CONTINUOUS
100
AcDbPoint
 10
2870.3920000044973
 20
990.00000000312798
 30
0.0
  0
LINE
  5
7EC
100
AcDbEntity
  8
OBJECT
100
AcDbLine
 10
1417.3920000044973
 20
1450.000000003128
 30
0.0
 11
772.39200000449728
 21
1450.000000003128
 31
0.0
  0
LINE
  5
7ED
100
AcDbEntity
  8
OBJECT
100
AcDbLine
 10
772.39200000449728
 20
1360.000000003128
 30
0.0
 11
799.39200000449728
 21
1360.000000003128
 31
0.0
  0
LINE
  5
7EE
100
AcDbEntity
  8
OBJECT
100
AcDbLine
 10
799.39200000449728
 20
1360.000000003128
 30
0.0
 11
799.39200000449728
 21
1450.000000003128
 31
0.0
  0
LINE
  5
7EF
100
AcDbEntity
  8
OBJECT
100
AcDbLine
 10
1417.3920000044973
 20
1360.000000003128
 30
0.0
 11
1390.3920000044973
 21
1360.000000003128
 31
0.0
  0
LINE
  5
7F0
100
AcDbEntity
  8
OBJECT
100
AcDbLine
 10
1390.3920000044973
 20
1360.000000003128
 30
0.0
 11
1390.3920000044973
 21
1450.000000003128
 31
0.0
  0
POINT
  5
7F1
100
AcDbEntity
  8
DIMENTION
  6
CONTINUOUS
100
AcDbPoint
 10
1100.3920000044973
 20
1530.000000003128
 30
0.0
  0
MTEXT
  5
7F2
100
AcDbEntity
  8
TEXT
100
AcDbMText
 10
3137.0
 20
73.0
 30
0.0
 40
39.511200000000002
 41
0.0
 71
               1
 72
               1
  1
1：10
  7
________
  0
MTEXT
  5
7F3
100
AcDbEntity
  8
TEXT
100
AcDbMText
 10
82.0
 20
1779.8194444444443
 30
0.0
 40
33.866666666666667
 41
0.0
 71
               1
 72
               1
  1
日ガス検　形式認証番号\P　　　　　     T22E001011-A01\P防火評定　申請番号\P　　　　　     T22P201010-A01\P給水装置　形式認証番号\P　　　　　     TW4003
  7
________
  0
MTEXT
  5
7F4
100
AcDbEntity
  8
TEXT
100
AcDbMText
 10
69.0
 20
1443.0
 30
0.0
 40
33.866666666666667
 41
0.0
 71
               1
 72
               1
  1
可燃物からの離隔距離（cm）
  7
________
  0
LINE
  5
7F5
100
AcDbEntity
  8
TEXT
100
AcDbLine
 10
36.0
 20
1389.0
 30
0.0
 11
596.0
 21
1389.0
 31
0.0
  0
LINE
  5
7F6
100
AcDbEntity
  8
TEXT
100
AcDbLine
 10
36.0
 20
1459.0
 30
0.0
 11
596.0
 21
1459.0
 31
0.0
  0
LINE
  5
7F7
100
AcDbEntity
  8
TEXT
100
AcDbLine
 10
36.0
 20
1319.0
 30
0.0
 11
596.0
 21
1319.0
 31
0.0
  0
LINE
  5
7F8
100
AcDbEntity
  8
TEXT
100
AcDbLine
 10
36.0
 20
1249.0
 30
0.0
 11
596.0
 21
1249.0
 31
0.0
  0
LINE
  5
7F9
100
AcDbEntity
  8
TEXT
100
AcDbLine
 10
36.0
 20
1249.0
 30
0.0
 11
36.0
 21
1459.0
 31
0.0
  0
LINE
  5
7FA
100
AcDbEntity
  8
TEXT
100
AcDbLine
 10
596.0
 20
1249.0
 30
0.0
 11
596.0
 21
1459.0
 31
0.0
  0
LINE
  5
7FB
100
AcDbEntity
  8
TEXT
100
AcDbLine
 10
176.0
 20
1249.0
 30
0.0
 11
176.0
 21
1389.0
 31
0.0
  0
LINE
  5
7FC
100
AcDbEntity
  8
TEXT
100
AcDbLine
 10
316.0
 20
1249.0
 30
0.0
 11
316.0
 21
1389.0
 31
0.0
  0
LINE
  5
7FD
100
AcDbEntity
  8
TEXT
100
AcDbLine
 10
456.0
 20
1249.0
 30
0.0
 11
456.0
 21
1389.0
 31
0.0
  0
MTEXT
  5
7FE
100
AcDbEntity
  8
TEXT
100
AcDbMText
 10
58.0
 20
1376.0
 30
0.0
 40
33.866666666666667
 41
0.0
 71
               1
 72
               1
  1
上方
  7
________
  0
MTEXT
  5
7FF
100
AcDbEntity
  8
TEXT
100
AcDbMText
 10
54.0
 20
1306.0
 30
0.0
 40
33.866666666666667
 41
0.0
 71
               1
 72
               1
  1
フード
  7
________
  0
MTEXT
  5
800
100
AcDbEntity
  8
TEXT
100
AcDbMText
 10
203.0
 20
1376.0
 30
0.0
 40
33.866666666666667
 41
0.0
 71
               1
 72
               1
  1
側方
  7
________
  0
MTEXT
  5
801
100
AcDbEntity
  8
TEXT
100
AcDbMText
 10
189.0
 20
1308.0
 30
0.0
 40
33.866666666666667
 41
0.0
 71
               1
 72
               1
  1
０以上
  7
________
  0
MTEXT
  5
802
100
AcDbEntity
  8
TEXT
100
AcDbMText
 10
343.0
 20
1376.0
 30
0.0
 40
33.866666666666667
 41
0.0
 71
               1
 72
               1
  1
前方
  7
________
  0
MTEXT
  5
803
100
AcDbEntity
  8
TEXT
100
AcDbMText
 10
483.0
 20
1376.0
 30
0.0
 40
33.866666666666667
 41
0.0
 71
               1
 72
               1
  1
後方
  7
________
  0
MTEXT
  5
804
100
AcDbEntity
  8
TEXT
100
AcDbMText
 10
469.0
 20
1308.0
 30
0.0
 40
33.866666666666667
 41
0.0
 71
               1
 72
               1
  1
０以上
  7
________
  0
LINE
  5
805
100
AcDbEntity
  8
TEXT
100
AcDbLine
 10
316.0
 20
1249.0
 30
0.0
 11
456.0
 21
1319.0
 31
0.0
  0
LINE
  5
806
100
AcDbEntity
  8
DIMENTION
100
AcDbLine
 10
1979.304000047028
 20
1431.6960000515301
 30
0.0
 11
1809.304000047028
 21
1431.6960000515301
 31
0.0
  0
LINE
  5
807
100
AcDbEntity
  8
DIMENTION
100
AcDbLine
 10
1979.304000047028
 20
1481.6960000515301
 30
0.0
 11
1979.304000047028
 21
1431.6960000515301
 31
0.0
  0
MTEXT
  5
808
100
AcDbEntity
  8
DIMENTION
100
AcDbMText
 10
184.99999999999977
 20
2685.0
 30
0.0
 40
24.299446495492369
 41
0.0
 71
               1
 72
               1
  1
洗　浄
  7
________
  0
MTEXT
  5
809
100
AcDbEntity
  8
DIMENTION
100
AcDbMText
 10
184.67222481303725
 20
2563.8743081224929
 30
0.0
 40
24.299446495492369
 41
0.0
 71
               1
 72
               1
  1
すすぎ
  7
________
  0
MTEXT
  5
80A
100
AcDbEntity
  8
DIMENTION
100
AcDbMText
 10
28.999999999999773
 20
2514.8113919957691
 30
0.0
 40
25.44911359661527
 41
0.0
 71
               1
 72
               1
  1
ラ ッ ク 処 理 数
  7
________
  0
MTEXT
  5
80B
100
AcDbEntity
  8
DIMENTION
100
AcDbMText
 10
27.134310775332779
 20
2389.9056959978843
 30
0.0
 40
25.44911359661527
 41
0.0
 71
               1
 72
               1
  1
ラ ッ ク 送 り 速 度
  7
________
  0
MTEXT
  5
80C
100
AcDbEntity
  8
DIMENTION
100
AcDbMText
 10
26.499999999999773
 20
2344.9056959978843
 30
0.0
 40
25.44911359661527
 41
0.0
 71
               1
 72
               1
  1
すすぎ湯消費量
  7
________
  0
MTEXT
  5
80D
100
AcDbEntity
  8
DIMENTION
100
AcDbMText
 10
26.499999999999773
 20
2299.9056959978843
 30
0.0
 40
25.44911359661527
 41
0.0
 71
               1
 72
               1
  1
す す ぎ 湯 温 度\P
  7
________
  0
MTEXT
  5
80E
100
AcDbEntity
  8
DIMENTION
100
AcDbMText
 10
26.499999999999773
 20
2254.9056959978843
 30
0.0
 40
25.44911359661527
 41
0.0
 71
               1
 72
               1
  1
必 要 給 湯 能 力
  7
________
  0
MTEXT
  5
80F
100
AcDbEntity
  8
DIMENTION
100
AcDbMText
 10
26.499999999999773
 20
2078.9056959978843
 30
0.0
 40
25.44911359661527
 41
0.0
 71
               1
 72
               1
  1
洗　浄　槽
  7
________
  0
MTEXT
  5
810
100
AcDbEntity
  8
DIMENTION
100
AcDbMText
 10
26.499999999999773
 20
1948.9056959978845
 30
0.0
 40
25.44911359661527
 41
0.0
 71
               1
 72
               1
  1
洗 浄 ポ ン プ
  7
________
  0
MTEXT
  5
811
100
AcDbEntity
  8
DIMENTION
100
AcDbMText
 10
884.49999999999977
 20
2698.9056959978843
 30
0.0
 40
25.44911359661527
 41
0.0
 71
               1
 72
               1
  1
す す ぎ ポ ン プ
  7
________
  0
MTEXT
  5
812
100
AcDbEntity
  8
TEXT
100
AcDbMText
 10
306.79565779368068
 20
2689.8128459403169
 30
0.0
 40
25.400000000000002
 41
0.0
 71
               1
 72
               1
  1
上部 ４エンドアーム回転ノズル\P　　　　　　　　+カーテンジェットノズル\P下部 カーテンジェットノズル
  7
________
  0
MTEXT
  5
813
100
AcDbEntity
  8
TEXT
100
AcDbMText
 10
306.79565779368068
 20
2564.8128459403169
 30
0.0
 40
25.400000000000002
 41
0.0
 71
               1
 72
               1
  1
上, 下スイングノズルスプレー
  7
________
  0
MTEXT
  5
814
100
AcDbEntity
  8
TEXT
100
AcDbMText
 10
306.79565779368068
 20
2516.8128459403169
 30
0.0
 40
25.400000000000002
 41
0.0
 71
               1
 72
               1
  1
低速180，中速210，高速240 ラック／{\ftxt|b0|i0|c0|p0;\lh\P} 　(500 mm角型 ラック)\P3段階速度セレクト機能
  7
________
  0
MTEXT
  5
815
100
AcDbEntity
  8
TEXT
100
AcDbMText
 10
306.79565779368068
 20
2389.8128459403169
 30
0.0
 40
25.400000000000002
 41
0.0
 71
               1
 72
               1
  1
低速1.5，中速1.8，高速2.0 m／ min
  7
________
  0
MTEXT
  5
816
100
AcDbEntity
  8
TEXT
100
AcDbMText
 10
306.79565779368068
 20
2344.8128459403169
 30
0.0
 40
25.400000000000002
 41
0.0
 71
               1
 72
               1
  1
8.0L／min
  7
________
  0
MTEXT
  5
817
100
AcDbEntity
  8
TEXT
100
AcDbMText
 10
306.79565779368068
 20
2299.8128459403169
 30
0.0
 40
25.400000000000002
 41
0.0
 71
               1
 72
               1
  1
65℃，{\H0.8812x;\l75℃， 85℃の電子式　3設定}
  7
________
  0
MTEXT
  5
818
100
AcDbEntity
  8
TEXT
100
AcDbMText
 10
306.79565779368068
 20
2252.8128459403169
 30
0.0
 40
25.400000000000002
 41
0.0
 71
               1
 72
               1
  1
給湯温度：70℃以上\P給湯量：8.0L{\H0.9665x;\l／ min以上\P給湯圧：49.1kPa～491kPa\P　　　　　　(0.5～5.0kgf}{\H0.938x;\l／cm )}
  7
________
  0
MTEXT
  5
819
100
AcDbEntity
  8
TEXT
100
AcDbMText
 10
306.79565779368068
 20
2076.8128459403169
 30
0.0
 40
25.400000000000002
 41
0.0
 71
               1
 72
               1
  1
容　量：90L\P加熱方式：ヒートパイプ式\P{\H0.9665x;\l温度制御：サーミスター方式}{\H0.938x;\l（65}{\H0.8918x;\l℃}{\H0.938x;\l）}
  7
________
  0
MTEXT
  5
81A
100
AcDbEntity
  8
TEXT
100
AcDbMText
 10
306.79565779368068
 20
1948.8128459403172
 30
0.0
 40
25.400000000000002
 41
0.0
 71
               1
 72
               1
  1
電動機定格出力　750W×2
  7
________
  0
MTEXT
  5
81B
100
AcDbEntity
  8
TEXT
100
AcDbMText
 10
1230.7956577936807
 20
2696.8128459403169
 30
0.0
 40
25.400000000000002
 41
0.0
 71
               1
 72
               1
  1
電動機定格出力　50W
  7
________
  0
MTEXT
  5
81C
100
AcDbEntity
  8
TEXT
100
AcDbMText
 10
883.79565779368068
 20
2608.6878459403169
 30
0.0
 40
25.400000000000002
 41
0.0
 71
               1
 72
               1
  1
ラック送りモーター
  7
________
  0
MTEXT
  5
81D
100
AcDbEntity
  8
TEXT
100
AcDbMText
 10
1229.2400577936805
 20
2611.2156459403168
 30
0.0
 40
25.400000000000002
 41
0.0
 71
               1
 72
               1
  1
電動機定格出力　100 W
  7
________
  0
MTEXT
  5
81E
100
AcDbEntity
  8
TEXT
100
AcDbMText
 10
883.79565779368068
 20
2565.6878459403169
 30
0.0
 40
25.400000000000002
 41
0.0
 71
               1
 72
               1
  1
ポンプ制御方式
  7
________
  0
MTEXT
  5
81F
100
AcDbEntity
  8
TEXT
100
AcDbMText
 10
883.79565779368068
 20
2522.6878459403169
 30
0.0
 40
25.400000000000002
 41
0.0
 71
               1
 72
               1
  1
排出側ラックセンサー
  7
________
  0
MTEXT
  5
820
100
AcDbEntity
  8
TEXT
100
AcDbMText
 10
883.79565779368068
 20
2477.6878459403169
 30
0.0
 40
25.400000000000002
 41
0.0
 71
               1
 72
               1
  1
電　　　　　　源
  7
________
  0
MTEXT
  5
821
100
AcDbEntity
  8
TEXT
100
AcDbMText
 10
883.79565779368068
 20
2434.6878459403169
 30
0.0
 40
25.400000000000002
 41
0.0
 71
               1
 72
               1
  1
消　費　電　力
  7
________
  0
MTEXT
  5
822
100
AcDbEntity
  8
TEXT
100
AcDbMText
 10
883.79565779368068
 20
2389.6878459403169
 30
0.0
 40
25.400000000000002
 41
0.0
 71
               1
 72
               1
  1
最　大　電　流　値
  7
________
  0
MTEXT
  5
823
100
AcDbEntity
  8
TEXT
100
AcDbMText
 10
883.79565779368068
 20
2345.6878459403169
 30
0.0
 40
25.400000000000002
 41
0.0
 71
               1
 72
               1
  1
質　　　　　　量
  7
________
  0
MTEXT
  5
824
100
AcDbEntity
  8
TEXT
100
AcDbMText
 10
1229.2400577936805
 20
2567.2156459403168
 30
0.0
 40
25.400000000000002
 41
0.0
 71
               1
 72
               1
  1
ラック検知時作動
  7
________
  0
MTEXT
  5
825
100
AcDbEntity
  8
TEXT
100
AcDbMText
 10
1229.2400577936805
 20
2523.2156459403168
 30
0.0
 40
25.400000000000002
 41
0.0
 71
               1
 72
               1
  1
自動ラック停止装置付属
  7
________
  0
MTEXT
  5
826
100
AcDbEntity
  8
TEXT
100
AcDbMText
 10
1229.2400577936805
 20
2479.2156459403168
 30
0.0
 40
25.400000000000002
 41
0.0
 71
               1
 72
               1
  1
三相 200{\ftxt|b0|i0|c0|p0;\lV}　{\ftxt|b0|i0|c0|p0;\l50}・60{\ftxt|b0|i0|c0|p0;\lHz}
  7
________
  0
MTEXT
  5
827
100
AcDbEntity
  8
TEXT
100
AcDbMText
 10
1229.2400577936805
 20
2435.2156459403168
 30
0.0
 40
25.400000000000002
 41
0.0
 71
               1
 72
               1
  1
1.8 kW
  7
_HGS_____E
  0
MTEXT
  5
828
100
AcDbEntity
  8
TEXT
100
AcDbMText
 10
1229.2400577936805
 20
2391.2156459403168
 30
0.0
 40
25.400000000000002
 41
0.0
 71
               1
 72
               1
  1
6.5 A
  7
_HGS_____E
  0
MTEXT
  5
829
100
AcDbEntity
  8
TEXT
100
AcDbMText
 10
1229.2400577936805
 20
2347.2156459403168
 30
0.0
 40
22.225000000000001
 41
0.0
 71
               1
 72
               1
  1
{\H1.143x;\l175 kg}
  0
MTEXT
  5
82A
100
AcDbEntity
  8
DIMENTION
100
AcDbMText
 10
884.49999999999977
 20
2653.9056959978843
 30
0.0
 40
25.44911359661527
 41
0.0
 71
               1
 72
               1
  1
温 水 循 環 ポ ン プ
  7
________
  0
MTEXT
  5
82B
100
AcDbEntity
  8
TEXT
100
AcDbMText
 10
1230.7956577936807
 20
2651.8128459403169
 30
0.0
 40
25.400000000000002
 41
0.0
 71
               1
 72
               1
  1
電動機定格出力　50W
  7
________
  0
DIMENSION
  5
82C
100
AcDbEntity
  8
DIMENTION
100
AcDbDimension
  2
*D81
 10
2991.0
 20
2575.0000000031278
 30
0.0
 11
2991.9999999962747
 21
2609.5
 31
0.0
 70
             128
  1
0以上
  3
CAD
100
AcDbAlignedDimension
 13
2465.3920000044973
 23
2595.0000000031278
 33
0.0
 14
2465.3920000044973
 24
2575.0000000031278
 34
0.0
 50
90.0
100
AcDbRotatedDimension
1001
ACAD
1000
DSTYLE
1002
{
1070
             340
1005
6F
1070
             174
1070
               0
1070
             147
1040
0.9999999962747097
1002
}
  0
ENDSEC
  0
SECTION
  2
OBJECTS
  0
DICTIONARY
  5
19
100
AcDbDictionary
  3
ACAD_GROUP
350
1A
  3
ACAD_MLINESTYLE
350
1B
  0
DICTIONARY
  5
1A
102
{ACAD_REACTORS
330
19
102
}
100
AcDbDictionary
  0
DICTIONARY
  5
1B
102
{ACAD_REACTORS
330
19
102
}
100
AcDbDictionary
  3
STANDARD
350
1C
  0
MLINESTYLE
  5
1C
102
{ACAD_REACTORS
330
1B
102
}
100
AcDbMlineStyle
  2
STANDARD
 70
               0
  3

 62
               0
 51
90.0
 52
90.0
 71
               2
 49
0.5
 62
             256
  6
BYLAYER
 49
-0.5
 62
             256
  6
BYLAYER
  0
ENDSEC
  0
EOF
