  0
SECTION
  2
HEADER
  9
$ACADVER
  1
AC1012
  9
$DWGCODEPAGE
  3
dos932
  9
$INSBASE
 10
0.0
 20
0.0
 30
0.0
  9
$EXTMIN
 10
0.0000000044972239
 20
0.000000003128207
 30
0.0
  9
$EXTMAX
 10
4053.5419200931547
 20
2720.0000000031278
 30
0.0
  9
$LIMMIN
 10
0.0
 20
0.0
  9
$LIMMAX
 10
0.0
 20
0.0
  9
$ORTHOMODE
 70
               0
  9
$REGENMODE
 70
               1
  9
$FILLMODE
 70
               1
  9
$QTEXTMODE
 70
               0
  9
$MIRRTEXT
 70
               1
  9
$DRAGMODE
 70
               2
  9
$LTSCALE
 40
127.0
  9
$OSMODE
 70
               0
  9
$ATTMODE
 70
               1
  9
$TEXTSIZE
 40
0.2
  9
$TRACEWID
 40
1.0
  9
$TEXTSTYLE
  7
STANDARD
  9
$CLAYER
  8
0
  9
$CELTYPE
  6
CONTINUOUS
  9
$CECOLOR
 62
             256
  9
$CELTSCALE
 40
1.0
  9
$DELOBJ
 70
               1
  9
$DISPSILH
 70
               0
  9
$DIMSCALE
 40
1.0
  9
$DIMASZ
 40
21.7506103515625
  9
$DIMEXO
 40
9.9999999999999982
  9
$DIMDLI
 40
7.9999999999999991
  9
$DIMRND
 40
0.0
  9
$DIMDLE
 40
0.0
  9
$DIMEXE
 40
19.999999999999996
  9
$DIMTP
 40
0.0
  9
$DIMTM
 40
0.0
  9
$DIMTXT
 40
33.866666666666667
  9
$DIMCEN
 40
0.0
  9
$DIMTSZ
 40
0.0
  9
$DIMTOL
 70
               0
  9
$DIMLIM
 70
               0
  9
$DIMTIH
 70
               0
  9
$DIMTOH
 70
               0
  9
$DIMSE1
 70
               0
  9
$DIMSE2
 70
               0
  9
$DIMTAD
 70
               1
  9
$DIMZIN
 70
              11
  9
$DIMBLK
  1
VW_OPENARROW
  9
$DIMASO
 70
               1
  9
$DIMSHO
 70
               1
  9
$DIMPOST
  1
<>
  9
$DIMAPOST
  1
[]
  9
$DIMALT
 70
               0
  9
$DIMALTD
 70
               1
  9
$DIMALTF
 40
1.0
  9
$DIMLFAC
 40
1.0
  9
$DIMTOFL
 70
               1
  9
$DIMTVP
 40
0.0
  9
$DIMTIX
 70
               1
  9
$DIMSOXD
 70
               0
  9
$DIMSAH
 70
               0
  9
$DIMBLK1
  1

  9
$DIMBLK2
  1

  9
$DIMSTYLE
  2
CAD
  9
$DIMCLRD
 70
               0
  9
$DIMCLRE
 70
               0
  9
$DIMCLRT
 70
               0
  9
$DIMTFAC
 40
0.7
  9
$DIMGAP
 40
0.099999999627471
  9
$DIMJUST
 70
               0
  9
$DIMSD1
 70
               0
  9
$DIMSD2
 70
               0
  9
$DIMTOLJ
 70
               1
  9
$DIMTZIN
 70
              11
  9
$DIMALTZ
 70
              11
  9
$DIMALTTZ
 70
              11
  9
$DIMFIT
 70
               0
  9
$DIMUPT
 70
               0
  9
$DIMUNIT
 70
               2
  9
$DIMDEC
 70
               4
  9
$DIMTDEC
 70
               4
  9
$DIMALTU
 70
               2
  9
$DIMALTTD
 70
               2
  9
$DIMTXSTY
  7
________
  9
$DIMAUNIT
 70
               0
  9
$LUNITS
 70
               2
  9
$LUPREC
 70
               4
  9
$SKETCHINC
 40
0.1
  9
$FILLETRAD
 40
0.0
  9
$AUNITS
 70
               0
  9
$AUPREC
 70
               0
  9
$MENU
  1
acad
  9
$ELEVATION
 40
0.0
  9
$PELEVATION
 40
0.0
  9
$THICKNESS
 40
0.0
  9
$LIMCHECK
 70
               0
  9
$BLIPMODE
 70
               0
  9
$CHAMFERA
 40
0.0
  9
$CHAMFERB
 40
0.0
  9
$CHAMFERC
 40
0.0
  9
$CHAMFERD
 40
0.0
  9
$SKPOLY
 70
               0
  9
$TDCREATE
 40
2460349.709907407
  9
$TDUPDATE
 40
2460349.709907407
  9
$TDINDWG
 40
0.0000000000
  9
$TDUSRTIMER
 40
0.0000000000
  9
$USRTIMER
 70
               1
  9
$ANGBASE
 50
0.0
  9
$ANGDIR
 70
               0
  9
$PDMODE
 70
               1
  9
$PDSIZE
 40
-2.0
  9
$PLINEWID
 40
0.0
  9
$COORDS
 70
               0
  9
$SPLFRAME
 70
               0
  9
$SPLINETYPE
 70
               6
  9
$SPLINESEGS
 70
               8
  9
$ATTDIA
 70
               0
  9
$ATTREQ
 70
               1
  9
$HANDLING
 70
               1
  9
$HANDSEED
  5
814
  9
$SURFTAB1
 70
               6
  9
$SURFTAB2
 70
               6
  9
$SURFTYPE
 70
               6
  9
$SURFU
 70
               6
  9
$SURFV
 70
               6
  9
$UCSNAME
  2

  9
$UCSORG
 10
0.0
 20
0.0
 30
0.0
  9
$UCSXDIR
 10
1.0
 20
0.0
 30
0.0
  9
$UCSYDIR
 10
0.0
 20
1.0
 30
0.0
  9
$PUCSNAME
  2

  9
$PUCSORG
 10
0.0
 20
0.0
 30
0.0
  9
$PUCSXDIR
 10
1.0
 20
0.0
 30
0.0
  9
$PUCSYDIR
 10
0.0
 20
1.0
 30
0.0
  9
$USERI1
 70
               0
  9
$USERI2
 70
               0
  9
$USERI3
 70
               0
  9
$USERI4
 70
               0
  9
$USERI5
 70
               0
  9
$USERR1
 40
0.0
  9
$USERR2
 40
0.0
  9
$USERR3
 40
0.0
  9
$USERR4
 40
0.0
  9
$USERR5
 40
0.0
  9
$WORLDVIEW
 70
               1
  9
$SHADEDGE
 70
               3
  9
$SHADEDIF
 70
              70
  9
$TILEMODE
 70
               1
  9
$MAXACTVP
 70
              16
  9
$PINSBASE
 10
0.0
 20
0.0
 30
0.0
  9
$PLIMCHECK
 70
               0
  9
$PEXTMIN
 10
1.0000000000000000E+20
 20
1.0000000000000000E+20
 30
1.0000000000000000E+20
  9
$PEXTMAX
 10
-1.0000000000000000E+20
 20
-1.0000000000000000E+20
 30
-1.0000000000000000E+20
  9
$PLIMMIN
 10
0.0
 20
0.0
  9
$PLIMMAX
 10
12.0
 20
9.0
  9
$UNITMODE
 70
               0
  9
$VISRETAIN
 70
               0
  9
$PLINEGEN
 70
               1
  9
$PSLTSCALE
 70
               0
  9
$TREEDEPTH
 70
            3020
  9
$PICKSTYLE
 70
               1
  9
$CMLSTYLE
  2
STANDARD
  9
$CMLJUST
 70
               0
  9
$CMLSCALE
 40
1.0
  9
$SAVEIMAGES
 70
               0
  0
ENDSEC
  0
SECTION
  2
CLASSES
  0
CLASS
  1
LWPOLYLINE
  2
AcDbPolyline
  3
"AutoCAD"
 90
        0
280
               0
281
               1
  0
CLASS
  1
IMAGE
  2
AcDbRasterImage
  3
ISM
 90
      127
280
               0
281
               1
  0
CLASS
  1
OLE2FRAME
  2
AcDbOle2Frame
  3
""
 90
        0
280
               0
281
               1
  0
CLASS
  1
HATCH
  2
AcDbHatch
  3
"ACAD_SEDONA"
 90
        0
280
               0
281
               1
  0
CLASS
  1
DICTIONARYVAR
  2
AcDbDictionaryVar
  3
"AutoCAD"
 90
        0
280
               0
281
               0
  0
CLASS
  1
RASTERVARIABLES
  2
AcDbRasterVariables
  3
ISM
 90
        0
280
               0
281
               0
  0
CLASS
  1
IMAGEDEF
  2
AcDbRasterImageDef
  3
ISM
 90
        0
280
               0
281
               0
  0
CLASS
  1
IMAGEDEF_REACTOR
  2
AcDbRasterImageDefReactor
  3
ISM
 90
        1
280
               0
281
               0
  0
CLASS
  1
IDBUFFER
  2
AcDbIdBuffer
  3
"Acad"
 90
        0
280
               0
281
               0
  0
CLASS
  1
SPATIAL_FILTER
  2
AcDbSpatialFilter
  3
"Acad"
 90
        0
280
               0
281
               0
  0
CLASS
  1
XRECORD
  2
AcDbXrecord
  3
"<Built In>"
 90
        0
280
               0
281
               0
  0
CLASS
  1
SORTENTSTABLE
  2
AcDbSortentsTable
  3
"AutoCAD"
 90
        0
280
               0
281
               0
  0
CLASS
  1
LAYER_INDEX
  2
AcDbLayerIndex
  3
"Acad"
 90
        0
280
               0
281
               0
  0
CLASS
  1
SPATIAL_INDEX
  2
AcDbSpatialIndex
  3
"Acad"
 90
        0
280
               0
281
               0
  0
CLASS
  1
OBJECT_PTR
  2
CAseDLPNTableRecord
  3
"ASE-LPNTableRecord"
 90
        1
280
               0
281
               0
  0
CLASS
  1
LAYOUT
  2
AcDbLayout
  3
"AutoCAD 2000"
 90
        1
280
               0
281
               0
  0
CLASS
  1
PLOTSETTINGS
  2
AcDbPlotSettings
  3
"AutoCAD 2000"
 90
        1
280
               0
281
               0
  0
CLASS
  1
ACDBDICTIONARYWDFLT
  2
AcDbDictionaryWithDefault
  3
"AutoCAD 2000"
 90
        1
280
               0
281
               0
  0
CLASS
  1
ACDBPLACEHOLDER
  2
AcDbPlaceHolder
  3
"AutoCAD 2000"
 90
        1
280
               0
281
               0
  0
ENDSEC
  0
SECTION
  2
TABLES
  0
TABLE
  2
VPORT
  5
7
100
AcDbSymbolTable
 70
               1
  0
VPORT
  5
15
100
AcDbSymbolTableRecord
100
AcDbViewportTableRecord
  2
*ACTIVE
 70
               0
 10
0.0
 20
0.0
 11
1.0
 21
1.0
 12
2026.7709600488258
 22
1360.000000003128
 13
0.0
 23
0.0
 14
1.0
 24
1.0
 15
0.0
 25
0.0
 16
0.0
 26
0.0
 36
1.0
 17
0.0
 27
0.0
 37
0.0
 40
2719.9999999999995
 41
0.688564
 42
50.0
 43
0.0
 44
0.0
 50
0.0
 51
0.0
 71
               0
 72
             100
 73
               1
 74
               1
 75
               0
 76
               0
 77
               0
 78
               0
  0
ENDTAB
  0
TABLE
  2
LTYPE
  5
4
100
AcDbSymbolTable
 70
              14
  0
LTYPE
  5
11
100
AcDbSymbolTableRecord
100
AcDbLinetypeTableRecord
  2
BYBLOCK
 70
              64
  3

 72
              65
 73
               0
 40
0.0
  0
LTYPE
  5
12
100
AcDbSymbolTableRecord
100
AcDbLinetypeTableRecord
  2
BYLAYER
 70
              64
  3

 72
              65
 73
               0
 40
0.0
  0
LTYPE
  5
13
100
AcDbSymbolTableRecord
100
AcDbLinetypeTableRecord
  2
CONTINUOUS
 70
              64
  3
Solid line
 72
              65
 73
               0
 40
0.0
  0
LTYPE
  5
6B
100
AcDbSymbolTableRecord
100
AcDbLinetypeTableRecord
  2
STYLE_01
 70
               0
  3

 72
              65
 73
               2
 40
0.166656494140625
 49
0.08331298828125
 74
               0
 49
-0.083343505859375
 74
               0
  0
LTYPE
  5
6C
100
AcDbSymbolTableRecord
100
AcDbLinetypeTableRecord
  2
STYLE_02
 70
               0
  3

 72
              65
 73
               2
 40
0.27777099609375
 49
0.194427490234375
 74
               0
 49
-0.083343505859375
 74
               0
  0
LTYPE
  5
6D
100
AcDbSymbolTableRecord
100
AcDbLinetypeTableRecord
  2
STYLE_03
 70
               0
  3

 72
              65
 73
               2
 40
0.5
 49
0.416656494140625
 74
               0
 49
-0.083343505859375
 74
               0
  0
LTYPE
  5
6E
100
AcDbSymbolTableRecord
100
AcDbLinetypeTableRecord
  2
STYLE_04
 70
               0
  3

 72
              65
 73
               2
 40
0.611083984375
 49
0.52777099609375
 74
               0
 49
-0.08331298828125
 74
               0
  0
LTYPE
  5
6F
100
AcDbSymbolTableRecord
100
AcDbLinetypeTableRecord
  2
STYLE_05
 70
               0
  3

 72
              65
 73
               2
 40
0.08331298828125
 49
0.02777099609375
 74
               0
 49
-0.0555419921875
 74
               0
  0
LTYPE
  5
70
100
AcDbSymbolTableRecord
100
AcDbLinetypeTableRecord
  2
STYLE_06
 70
               0
  3

 72
              65
 73
               4
 40
1.3055419921875
 49
0.111114501953125
 74
               0
 49
-0.111114501953125
 74
               0
 49
0.97222900390625
 74
               0
 49
-0.111083984375
 74
               0
  0
LTYPE
  5
71
100
AcDbSymbolTableRecord
100
AcDbLinetypeTableRecord
  2
STYLE_07
 70
               0
  3

 72
              65
 73
               6
 40
0.75
 49
0.25
 74
               0
 49
-0.08331298828125
 74
               0
 49
0.25
 74
               0
 49
-0.083343505859375
 74
               0
 49
0.02777099609375
 74
               0
 49
-0.055572509765625
 74
               0
  0
LTYPE
  5
72
100
AcDbSymbolTableRecord
100
AcDbLinetypeTableRecord
  2
STYLE_08
 70
               0
  3

 72
              65
 73
               6
 40
0.5
 49
0.25
 74
               0
 49
-0.08331298828125
 74
               0
 49
0.02777099609375
 74
               0
 49
-0.055572509765625
 74
               0
 49
0.02777099609375
 74
               0
 49
-0.055572509765625
 74
               0
  0
LTYPE
  5
73
100
AcDbSymbolTableRecord
100
AcDbLinetypeTableRecord
  2
STYLE_09
 70
               0
  3

 72
              65
 73
               4
 40
2.0
 49
1.5
 74
               0
 49
-0.111114501953125
 74
               0
 49
0.27777099609375
 74
               0
 49
-0.111114501953125
 74
               0
  0
LTYPE
  5
74
100
AcDbSymbolTableRecord
100
AcDbLinetypeTableRecord
  2
STYLE_10
 70
               0
  3

 72
              65
 73
               6
 40
2.375
 49
1.5
 74
               0
 49
-0.111114501953125
 74
               0
 49
0.27777099609375
 74
               0
 49
-0.111114501953125
 74
               0
 49
0.25
 74
               0
 49
-0.125
 74
               0
  0
LTYPE
  5
75
100
AcDbSymbolTableRecord
100
AcDbLinetypeTableRecord
  2
STYLE_11
 70
               0
  3

 72
              65
 73
               4
 40
3.0
 49
0.166656494140625
 74
               0
 49
-0.111114501953125
 74
               0
 49
2.611114501953125
 74
               0
 49
-0.111114501953125
 74
               0
  0
ENDTAB
  0
TABLE
  2
LAYER
  5
2
100
AcDbSymbolTable
 70
               9
  0
LAYER
  5
14
100
AcDbSymbolTableRecord
100
AcDbLayerTableRecord
  2
0
 70
               0
 62
               7
  6
CONTINUOUS
  0
LAYER
  5
7D
100
AcDbSymbolTableRecord
100
AcDbLayerTableRecord
  2
DEFPOINTS
 70
               0
 62
               7
  6
CONTINUOUS
  0
LAYER
  5
7E
100
AcDbSymbolTableRecord
100
AcDbLayerTableRecord
  2
OBJECT
 70
               0
 62
               7
  6
CONTINUOUS
  0
LAYER
  5
7F
100
AcDbSymbolTableRecord
100
AcDbLayerTableRecord
  2
DIMENTION
 70
               0
 62
               7
  6
CONTINUOUS
  0
LAYER
  5
80
100
AcDbSymbolTableRecord
100
AcDbLayerTableRecord
  2
CENTER
 70
               0
 62
               7
  6
STYLE_09
  0
LAYER
  5
81
100
AcDbSymbolTableRecord
100
AcDbLayerTableRecord
  2
HIDDEN
 70
               0
 62
               7
  6
STYLE_02
  0
LAYER
  5
82
100
AcDbSymbolTableRecord
100
AcDbLayerTableRecord
  2
FRAME
 70
               0
 62
               7
  6
CONTINUOUS
  0
LAYER
  5
83
100
AcDbSymbolTableRecord
100
AcDbLayerTableRecord
  2
OUTLINE
 70
               0
 62
               7
  6
CONTINUOUS
  0
LAYER
  5
84
100
AcDbSymbolTableRecord
100
AcDbLayerTableRecord
  2
TEXT
 70
               0
 62
               7
  6
CONTINUOUS
  0
ENDTAB
  0
TABLE
  2
STYLE
  5
3
100
AcDbSymbolTable
 70
               2
  0
STYLE
  5
17
100
AcDbSymbolTableRecord
100
AcDbTextStyleTableRecord
  2
STANDARD
 70
               0
 40
0.0
 41
1.0
 50
0.0
 71
               0
 42
0.0
  3
txt
  4
BIGFONT.SHX
  0
STYLE
  5
6A
100
AcDbSymbolTableRecord
100
AcDbTextStyleTableRecord
  2
________
 70
               0
 40
0.0
 41
1.0
 50
0.0
 71
               0
 42
0.0
  3
ＭＳ Ｐゴシック
  4

1001
ACAD
1000
ＭＳ Ｐゴシック
1071
        0
  0
ENDTAB
  0
TABLE
  2
VIEW
  5
5
100
AcDbSymbolTable
 70
               0
  0
ENDTAB
  0
TABLE
  2
UCS
  5
6
100
AcDbSymbolTable
 70
               0
  0
ENDTAB
  0
TABLE
  2
APPID
  5
8
100
AcDbSymbolTable
 70
               1
  0
APPID
  5
16
100
AcDbSymbolTableRecord
100
AcDbRegAppTableRecord
  2
ACAD
 70
               0
  0
ENDTAB
  0
TABLE
  2
DIMSTYLE
  5
9
100
AcDbSymbolTable
 70
               2
  0
DIMSTYLE
105
18
100
AcDbSymbolTableRecord
100
AcDbDimStyleTableRecord
  2
STANDARD
 70
               0
  3

  4

  5

  6

  7

 40
1.0
 41
0.18
 42
0.0625
 43
0.38
 44
0.18
 45
0.0
 46
0.0
 47
0.0
 48
0.0
 71
               0
 72
               0
 73
               1
 74
               1
 75
               0
 76
               0
 77
               0
 78
               0
140
0.18
141
0.09
142
0.0
143
25.399999999999999
144
1.0
145
0.0
146
1.0
147
0.09
170
               0
171
               2
172
               0
173
               0
174
               0
175
               0
176
               0
177
               0
178
               0
270
               2
271
               4
272
               4
273
               2
274
               2
275
               0
280
               0
281
               0
282
               0
283
               1
284
               0
285
               0
286
               0
287
               0
288
               0
340
17
  0
DIMSTYLE
105
7C
100
AcDbSymbolTableRecord
100
AcDbDimStyleTableRecord
  2
CAD
 70
               0
  3
<>
  4
[]
  5
VW_OPENARROW
  6

  7

 40
1.0
 41
21.7506103515625
 42
9.9999999999999982
 43
7.9999999999999991
 44
19.999999999999996
 45
0.0
 46
0.0
 47
0.0
 48
0.0
 71
               0
 72
               0
 73
               0
 74
               0
 75
               0
 76
               0
 77
               1
 78
              11
140
33.866666666666667
141
0.0
142
0.0
143
1.0
144
1.0
145
0.0
146
0.7
147
0.099999999627471
170
               0
171
               1
172
               1
173
               0
174
               1
175
               0
176
               0
177
               0
178
               0
270
               2
271
               4
272
               4
273
               2
274
               2
275
               0
280
               0
281
               0
282
               0
283
               1
284
              11
285
              11
286
              11
287
               0
288
               0
340
6A
  0
ENDTAB
  0
TABLE
  2
BLOCK_RECORD
  5
1
100
AcDbSymbolTable
 70
              78
  0
BLOCK_RECORD
  5
A
100
AcDbSymbolTableRecord
100
AcDbBlockTableRecord
  2
*MODEL_SPACE
  0
BLOCK_RECORD
  5
B
100
AcDbSymbolTableRecord
100
AcDbBlockTableRecord
  2
*PAPER_SPACE
  0
BLOCK_RECORD
  5
76
100
AcDbSymbolTableRecord
100
AcDbBlockTableRecord
  2
VW_OPENARROW
  0
BLOCK_RECORD
  5
1D
100
AcDbSymbolTableRecord
100
AcDbBlockTableRecord
  2
*U1
  0
BLOCK_RECORD
  5
1E
100
AcDbSymbolTableRecord
100
AcDbBlockTableRecord
  2
*U2
  0
BLOCK_RECORD
  5
1F
100
AcDbSymbolTableRecord
100
AcDbBlockTableRecord
  2
*U3
  0
BLOCK_RECORD
  5
20
100
AcDbSymbolTableRecord
100
AcDbBlockTableRecord
  2
*D4
  0
BLOCK_RECORD
  5
21
100
AcDbSymbolTableRecord
100
AcDbBlockTableRecord
  2
*D5
  0
BLOCK_RECORD
  5
22
100
AcDbSymbolTableRecord
100
AcDbBlockTableRecord
  2
*D6
  0
BLOCK_RECORD
  5
23
100
AcDbSymbolTableRecord
100
AcDbBlockTableRecord
  2
*D7
  0
BLOCK_RECORD
  5
24
100
AcDbSymbolTableRecord
100
AcDbBlockTableRecord
  2
*D8
  0
BLOCK_RECORD
  5
25
100
AcDbSymbolTableRecord
100
AcDbBlockTableRecord
  2
*D9
  0
BLOCK_RECORD
  5
26
100
AcDbSymbolTableRecord
100
AcDbBlockTableRecord
  2
*D10
  0
BLOCK_RECORD
  5
27
100
AcDbSymbolTableRecord
100
AcDbBlockTableRecord
  2
*D11
  0
BLOCK_RECORD
  5
28
100
AcDbSymbolTableRecord
100
AcDbBlockTableRecord
  2
*D12
  0
BLOCK_RECORD
  5
29
100
AcDbSymbolTableRecord
100
AcDbBlockTableRecord
  2
*D13
  0
BLOCK_RECORD
  5
2A
100
AcDbSymbolTableRecord
100
AcDbBlockTableRecord
  2
*D14
  0
BLOCK_RECORD
  5
2B
100
AcDbSymbolTableRecord
100
AcDbBlockTableRecord
  2
*D15
  0
BLOCK_RECORD
  5
2C
100
AcDbSymbolTableRecord
100
AcDbBlockTableRecord
  2
*D16
  0
BLOCK_RECORD
  5
2D
100
AcDbSymbolTableRecord
100
AcDbBlockTableRecord
  2
*D17
  0
BLOCK_RECORD
  5
2E
100
AcDbSymbolTableRecord
100
AcDbBlockTableRecord
  2
*D18
  0
BLOCK_RECORD
  5
2F
100
AcDbSymbolTableRecord
100
AcDbBlockTableRecord
  2
*D19
  0
BLOCK_RECORD
  5
30
100
AcDbSymbolTableRecord
100
AcDbBlockTableRecord
  2
*D20
  0
BLOCK_RECORD
  5
31
100
AcDbSymbolTableRecord
100
AcDbBlockTableRecord
  2
*D21
  0
BLOCK_RECORD
  5
32
100
AcDbSymbolTableRecord
100
AcDbBlockTableRecord
  2
*D22
  0
BLOCK_RECORD
  5
33
100
AcDbSymbolTableRecord
100
AcDbBlockTableRecord
  2
*D23
  0
BLOCK_RECORD
  5
34
100
AcDbSymbolTableRecord
100
AcDbBlockTableRecord
  2
*D24
  0
BLOCK_RECORD
  5
35
100
AcDbSymbolTableRecord
100
AcDbBlockTableRecord
  2
*D25
  0
BLOCK_RECORD
  5
36
100
AcDbSymbolTableRecord
100
AcDbBlockTableRecord
  2
*D26
  0
BLOCK_RECORD
  5
37
100
AcDbSymbolTableRecord
100
AcDbBlockTableRecord
  2
*U27
  0
BLOCK_RECORD
  5
38
100
AcDbSymbolTableRecord
100
AcDbBlockTableRecord
  2
*U28
  0
BLOCK_RECORD
  5
39
100
AcDbSymbolTableRecord
100
AcDbBlockTableRecord
  2
*U29
  0
BLOCK_RECORD
  5
3A
100
AcDbSymbolTableRecord
100
AcDbBlockTableRecord
  2
*U30
  0
BLOCK_RECORD
  5
3B
100
AcDbSymbolTableRecord
100
AcDbBlockTableRecord
  2
*U31
  0
BLOCK_RECORD
  5
3C
100
AcDbSymbolTableRecord
100
AcDbBlockTableRecord
  2
*U32
  0
BLOCK_RECORD
  5
3D
100
AcDbSymbolTableRecord
100
AcDbBlockTableRecord
  2
*U33
  0
BLOCK_RECORD
  5
3E
100
AcDbSymbolTableRecord
100
AcDbBlockTableRecord
  2
*U34
  0
BLOCK_RECORD
  5
3F
100
AcDbSymbolTableRecord
100
AcDbBlockTableRecord
  2
*U35
  0
BLOCK_RECORD
  5
40
100
AcDbSymbolTableRecord
100
AcDbBlockTableRecord
  2
*U36
  0
BLOCK_RECORD
  5
41
100
AcDbSymbolTableRecord
100
AcDbBlockTableRecord
  2
*U37
  0
BLOCK_RECORD
  5
42
100
AcDbSymbolTableRecord
100
AcDbBlockTableRecord
  2
*D38
  0
BLOCK_RECORD
  5
43
100
AcDbSymbolTableRecord
100
AcDbBlockTableRecord
  2
*D39
  0
BLOCK_RECORD
  5
44
100
AcDbSymbolTableRecord
100
AcDbBlockTableRecord
  2
*D40
  0
BLOCK_RECORD
  5
45
100
AcDbSymbolTableRecord
100
AcDbBlockTableRecord
  2
*D41
  0
BLOCK_RECORD
  5
46
100
AcDbSymbolTableRecord
100
AcDbBlockTableRecord
  2
*D42
  0
BLOCK_RECORD
  5
47
100
AcDbSymbolTableRecord
100
AcDbBlockTableRecord
  2
*D43
  0
BLOCK_RECORD
  5
48
100
AcDbSymbolTableRecord
100
AcDbBlockTableRecord
  2
*D44
  0
BLOCK_RECORD
  5
49
100
AcDbSymbolTableRecord
100
AcDbBlockTableRecord
  2
*D45
  0
BLOCK_RECORD
  5
4A
100
AcDbSymbolTableRecord
100
AcDbBlockTableRecord
  2
*D46
  0
BLOCK_RECORD
  5
4B
100
AcDbSymbolTableRecord
100
AcDbBlockTableRecord
  2
*D47
  0
BLOCK_RECORD
  5
4C
100
AcDbSymbolTableRecord
100
AcDbBlockTableRecord
  2
*D48
  0
BLOCK_RECORD
  5
4D
100
AcDbSymbolTableRecord
100
AcDbBlockTableRecord
  2
*D49
  0
BLOCK_RECORD
  5
4E
100
AcDbSymbolTableRecord
100
AcDbBlockTableRecord
  2
*D50
  0
BLOCK_RECORD
  5
4F
100
AcDbSymbolTableRecord
100
AcDbBlockTableRecord
  2
*D51
  0
BLOCK_RECORD
  5
50
100
AcDbSymbolTableRecord
100
AcDbBlockTableRecord
  2
*U52
  0
BLOCK_RECORD
  5
51
100
AcDbSymbolTableRecord
100
AcDbBlockTableRecord
  2
*U53
  0
BLOCK_RECORD
  5
52
100
AcDbSymbolTableRecord
100
AcDbBlockTableRecord
  2
*D54
  0
BLOCK_RECORD
  5
53
100
AcDbSymbolTableRecord
100
AcDbBlockTableRecord
  2
*D55
  0
BLOCK_RECORD
  5
54
100
AcDbSymbolTableRecord
100
AcDbBlockTableRecord
  2
*U56
  0
BLOCK_RECORD
  5
55
100
AcDbSymbolTableRecord
100
AcDbBlockTableRecord
  2
*U57
  0
BLOCK_RECORD
  5
56
100
AcDbSymbolTableRecord
100
AcDbBlockTableRecord
  2
*U58
  0
BLOCK_RECORD
  5
57
100
AcDbSymbolTableRecord
100
AcDbBlockTableRecord
  2
*U59
  0
BLOCK_RECORD
  5
58
100
AcDbSymbolTableRecord
100
AcDbBlockTableRecord
  2
*U60
  0
BLOCK_RECORD
  5
59
100
AcDbSymbolTableRecord
100
AcDbBlockTableRecord
  2
*U61
  0
BLOCK_RECORD
  5
5A
100
AcDbSymbolTableRecord
100
AcDbBlockTableRecord
  2
*U62
  0
BLOCK_RECORD
  5
5B
100
AcDbSymbolTableRecord
100
AcDbBlockTableRecord
  2
*U63
  0
BLOCK_RECORD
  5
5C
100
AcDbSymbolTableRecord
100
AcDbBlockTableRecord
  2
*U64
  0
BLOCK_RECORD
  5
5D
100
AcDbSymbolTableRecord
100
AcDbBlockTableRecord
  2
*U65
  0
BLOCK_RECORD
  5
5E
100
AcDbSymbolTableRecord
100
AcDbBlockTableRecord
  2
*U66
  0
BLOCK_RECORD
  5
5F
100
AcDbSymbolTableRecord
100
AcDbBlockTableRecord
  2
*U67
  0
BLOCK_RECORD
  5
60
100
AcDbSymbolTableRecord
100
AcDbBlockTableRecord
  2
*U68
  0
BLOCK_RECORD
  5
61
100
AcDbSymbolTableRecord
100
AcDbBlockTableRecord
  2
*U69
  0
BLOCK_RECORD
  5
62
100
AcDbSymbolTableRecord
100
AcDbBlockTableRecord
  2
*U70
  0
BLOCK_RECORD
  5
63
100
AcDbSymbolTableRecord
100
AcDbBlockTableRecord
  2
*D71
  0
BLOCK_RECORD
  5
64
100
AcDbSymbolTableRecord
100
AcDbBlockTableRecord
  2
*D72
  0
BLOCK_RECORD
  5
65
100
AcDbSymbolTableRecord
100
AcDbBlockTableRecord
  2
*D73
  0
BLOCK_RECORD
  5
66
100
AcDbSymbolTableRecord
100
AcDbBlockTableRecord
  2
*D74
  0
BLOCK_RECORD
  5
67
100
AcDbSymbolTableRecord
100
AcDbBlockTableRecord
  2
*D75
  0
BLOCK_RECORD
  5
68
100
AcDbSymbolTableRecord
100
AcDbBlockTableRecord
  2
*D76
  0
BLOCK_RECORD
  5
69
100
AcDbSymbolTableRecord
100
AcDbBlockTableRecord
  2
*D77
  0
ENDTAB
  0
ENDSEC
  0
SECTION
  2
BLOCKS
  0
BLOCK
  5
D
100
AcDbEntity
  8
0
100
AcDbBlockBegin
  2
*MODEL_SPACE
 70
               0
 10
0.0
 20
0.0
 30
0.0
  3
*MODEL_SPACE
  1

  0
ENDBLK
  5
E
100
AcDbEntity
  8
0
100
AcDbBlockEnd
  0
BLOCK
  5
F
100
AcDbEntity
 67
               1
  8
0
100
AcDbBlockBegin
  2
*PAPER_SPACE
 70
               0
 10
0.0
 20
0.0
 30
0.0
  3
*PAPER_SPACE
  1

  0
ENDBLK
  5
10
100
AcDbEntity
 67
               1
  8
0
100
AcDbBlockEnd
  0
BLOCK
  5
77
100
AcDbEntity
  8
0
  6
BYBLOCK
 62
               0
100
AcDbBlockBegin
  2
VW_OPENARROW
 70
               0
 10
0.0
 20
0.0
 30
0.0
  3
VW_OPENARROW
  1

  0
LINE
  5
78
100
AcDbEntity
  8
0
  6
BYBLOCK
 62
               0
100
AcDbLine
 10
0.0
 20
0.0
 30
0.0
 11
-1.0
 21
0.0
 31
0.0
  0
LINE
  5
79
100
AcDbEntity
  8
0
  6
BYBLOCK
 62
               0
100
AcDbLine
 10
0.0
 20
0.0
 30
0.0
 11
-0.9921874999999999
 21
-0.2658558393652545
 31
0.0
  0
LINE
  5
7A
100
AcDbEntity
  8
0
  6
BYBLOCK
 62
               0
100
AcDbLine
 10
0.0
 20
0.0
 30
0.0
 11
-0.9921874999999999
 21
0.2658558393652548
 31
0.0
  0
ENDBLK
  5
7B
100
AcDbEntity
  8
0
100
AcDbBlockEnd
  0
BLOCK
  5
85
100
AcDbEntity
  8
OBJECT
100
AcDbBlockBegin
  2
*U1
 70
               1
 10
0.0
 20
0.0
 30
0.0
  3
*U1
  1

  0
POLYLINE
  5
86
100
AcDbEntity
  8
OBJECT
 62
               0
100
AcDb2dPolyline
 66
               1
 10
0.0
 20
0.0
 30
0.0
 70
               1
 75
               5
  0
VERTEX
  5
87
100
AcDbEntity
  8
OBJECT
 62
               0
100
AcDbVertex
100
AcDb2dVertex
 10
-497.50799999999998
 20
-632.5
 30
0.0
  0
VERTEX
  5
88
100
AcDbEntity
  8
OBJECT
 62
               0
100
AcDbVertex
100
AcDb2dVertex
 10
-362.50799999999998
 20
-632.5
 30
0.0
  0
VERTEX
  5
89
100
AcDbEntity
  8
OBJECT
 62
               0
100
AcDbVertex
100
AcDb2dVertex
 10
-362.50799999999998
 20
-662.5
 30
0.0
  0
VERTEX
  5
8A
100
AcDbEntity
  8
OBJECT
 62
               0
100
AcDbVertex
100
AcDb2dVertex
 10
-497.50799999999998
 20
-662.5
 30
0.0
  0
SEQEND
  5
8B
100
AcDbEntity
  8
OBJECT
 62
               0
  0
POLYLINE
  5
8C
100
AcDbEntity
  8
OBJECT
 62
               0
100
AcDb2dPolyline
 66
               1
 10
0.0
 20
0.0
 30
0.0
 70
             129
  0
VERTEX
  5
8D
100
AcDbEntity
  8
OBJECT
 62
               0
100
AcDbVertex
100
AcDb2dVertex
 10
-435.00799999999998
 20
-642.5
 30
0.0
 42
-0.414213562373095
 70
               2
  0
VERTEX
  5
8E
100
AcDbEntity
  8
OBJECT
 62
               0
100
AcDbVertex
100
AcDb2dVertex
 10
-430.00799999999998
 20
-637.5
 30
0.0
 42
-0.414213562373095
 70
               2
 50
1.8714839861558573E+17
  0
VERTEX
  5
8F
100
AcDbEntity
  8
OBJECT
 62
               0
100
AcDbVertex
100
AcDb2dVertex
 10
-425.00799999999998
 20
-642.5
 30
0.0
 42
-0.414213562373095
 70
               2
  0
VERTEX
  5
90
100
AcDbEntity
  8
OBJECT
 62
               0
100
AcDbVertex
100
AcDb2dVertex
 10
-430.00799999999998
 20
-647.5
 30
0.0
 42
-0.414213562373095
 70
               2
 50
3.1191399769264294E+17
  0
VERTEX
  5
91
100
AcDbEntity
  8
OBJECT
 62
               0
100
AcDbVertex
100
AcDb2dVertex
 10
-435.00799999999998
 20
-642.5
 30
0.0
  0
SEQEND
  5
92
100
AcDbEntity
  8
OBJECT
 62
               0
  0
POLYLINE
  5
93
100
AcDbEntity
  8
OBJECT
 62
               0
100
AcDb2dPolyline
 66
               1
 10
0.0
 20
0.0
 30
0.0
 70
             129
  0
VERTEX
  5
94
100
AcDbEntity
  8
OBJECT
 62
               0
100
AcDbVertex
100
AcDb2dVertex
 10
-484.00799999999998
 20
-642.5
 30
0.0
 42
-0.414213562373095
 70
               2
  0
VERTEX
  5
95
100
AcDbEntity
  8
OBJECT
 62
               0
100
AcDbVertex
100
AcDb2dVertex
 10
-480.00799999999998
 20
-638.5
 30
0.0
 42
-0.414213562373095
 70
               2
 50
1.8714839861558573E+17
  0
VERTEX
  5
96
100
AcDbEntity
  8
OBJECT
 62
               0
100
AcDbVertex
100
AcDb2dVertex
 10
-476.00799999999998
 20
-642.5
 30
0.0
 42
-0.414213562373095
 70
               2
  0
VERTEX
  5
97
100
AcDbEntity
  8
OBJECT
 62
               0
100
AcDbVertex
100
AcDb2dVertex
 10
-480.00799999999998
 20
-646.5
 30
0.0
 42
-0.414213562373095
 70
               2
 50
3.1191399769264294E+17
  0
VERTEX
  5
98
100
AcDbEntity
  8
OBJECT
 62
               0
100
AcDbVertex
100
AcDb2dVertex
 10
-484.00799999999998
 20
-642.5
 30
0.0
  0
SEQEND
  5
99
100
AcDbEntity
  8
OBJECT
 62
               0
  0
POLYLINE
  5
9A
100
AcDbEntity
  8
OBJECT
 62
               0
100
AcDb2dPolyline
 66
               1
 10
0.0
 20
0.0
 30
0.0
 70
             129
  0
VERTEX
  5
9B
100
AcDbEntity
  8
OBJECT
 62
               0
100
AcDbVertex
100
AcDb2dVertex
 10
-408.00799999999998
 20
-628.5
 30
0.0
 42
-0.414213562373095
 70
               2
  0
VERTEX
  5
9C
100
AcDbEntity
  8
OBJECT
 62
               0
100
AcDbVertex
100
AcDb2dVertex
 10
-405.00799999999998
 20
-625.5
 30
0.0
 42
-0.414213562373095
 70
               2
 50
1.8714839861558573E+17
  0
VERTEX
  5
9D
100
AcDbEntity
  8
OBJECT
 62
               0
100
AcDbVertex
100
AcDb2dVertex
 10
-402.00799999999998
 20
-628.5
 30
0.0
 42
-0.414213562373095
 70
               2
  0
VERTEX
  5
9E
100
AcDbEntity
  8
OBJECT
 62
               0
100
AcDbVertex
100
AcDb2dVertex
 10
-405.00799999999998
 20
-631.5
 30
0.0
 42
-0.414213562373095
 70
               2
 50
3.1191399769264294E+17
  0
VERTEX
  5
9F
100
AcDbEntity
  8
OBJECT
 62
               0
100
AcDbVertex
100
AcDb2dVertex
 10
-408.00799999999998
 20
-628.5
 30
0.0
  0
SEQEND
  5
A0
100
AcDbEntity
  8
OBJECT
 62
               0
  0
POLYLINE
  5
A1
100
AcDbEntity
  8
OBJECT
 62
               0
100
AcDb2dPolyline
 66
               1
 10
0.0
 20
0.0
 30
0.0
 70
             129
  0
VERTEX
  5
A2
100
AcDbEntity
  8
OBJECT
 62
               0
100
AcDbVertex
100
AcDb2dVertex
 10
-458.00799999999998
 20
-628.68209999999999
 30
0.0
 42
-0.414213562373095
 70
               2
  0
VERTEX
  5
A3
100
AcDbEntity
  8
OBJECT
 62
               0
100
AcDbVertex
100
AcDb2dVertex
 10
-455.00799999999998
 20
-625.68209999999999
 30
0.0
 42
-0.414213562373095
 70
               2
 50
1.8714839861558573E+17
  0
VERTEX
  5
A4
100
AcDbEntity
  8
OBJECT
 62
               0
100
AcDbVertex
100
AcDb2dVertex
 10
-452.00799999999998
 20
-628.68209999999999
 30
0.0
 42
-0.414213562373095
 70
               2
  0
VERTEX
  5
A5
100
AcDbEntity
  8
OBJECT
 62
               0
100
AcDbVertex
100
AcDb2dVertex
 10
-455.00799999999998
 20
-631.68209999999999
 30
0.0
 42
-0.414213562373095
 70
               2
 50
3.1191399769264294E+17
  0
VERTEX
  5
A6
100
AcDbEntity
  8
OBJECT
 62
               0
100
AcDbVertex
100
AcDb2dVertex
 10
-458.00799999999998
 20
-628.68209999999999
 30
0.0
  0
SEQEND
  5
A7
100
AcDbEntity
  8
OBJECT
 62
               0
  0
POLYLINE
  5
A8
100
AcDbEntity
  8
OBJECT
 62
               0
100
AcDb2dPolyline
 66
               1
 10
0.0
 20
0.0
 30
0.0
 70
             129
  0
VERTEX
  5
A9
100
AcDbEntity
  8
OBJECT
 62
               0
100
AcDbVertex
100
AcDb2dVertex
 10
-412.33649999999994
 20
-637.25
 30
0.0
 42
-0.414213562373095
 70
               2
  0
VERTEX
  5
AA
100
AcDbEntity
  8
OBJECT
 62
               0
100
AcDbVertex
100
AcDb2dVertex
 10
-410.33649999999994
 20
-635.25
 30
0.0
  0
VERTEX
  5
AB
100
AcDbEntity
  8
OBJECT
 62
               0
100
AcDbVertex
100
AcDb2dVertex
 10
-399.83649999999994
 20
-635.25
 30
0.0
 42
-0.414213562373095
 70
               2
 50
1.8714839861558573E+17
  0
VERTEX
  5
AC
100
AcDbEntity
  8
OBJECT
 62
               0
100
AcDbVertex
100
AcDb2dVertex
 10
-397.83649999999994
 20
-637.25
 30
0.0
  0
VERTEX
  5
AD
100
AcDbEntity
  8
OBJECT
 62
               0
100
AcDbVertex
100
AcDb2dVertex
 10
-397.83649999999994
 20
-647.75
 30
0.0
 42
-0.414213562373095
 70
               2
  0
VERTEX
  5
AE
100
AcDbEntity
  8
OBJECT
 62
               0
100
AcDbVertex
100
AcDb2dVertex
 10
-399.83649999999994
 20
-649.75
 30
0.0
  0
VERTEX
  5
AF
100
AcDbEntity
  8
OBJECT
 62
               0
100
AcDbVertex
100
AcDb2dVertex
 10
-410.33649999999994
 20
-649.75
 30
0.0
 42
-0.414213562373095
 70
               2
 50
3.1191399769264294E+17
  0
VERTEX
  5
B0
100
AcDbEntity
  8
OBJECT
 62
               0
100
AcDbVertex
100
AcDb2dVertex
 10
-412.33649999999994
 20
-647.75
 30
0.0
  0
SEQEND
  5
B1
100
AcDbEntity
  8
OBJECT
 62
               0
  0
POLYLINE
  5
B2
100
AcDbEntity
  8
OBJECT
 62
               0
100
AcDb2dPolyline
 66
               1
 10
0.0
 20
0.0
 30
0.0
 70
             129
  0
VERTEX
  5
B3
100
AcDbEntity
  8
OBJECT
 62
               0
100
AcDbVertex
100
AcDb2dVertex
 10
-462.33649999999994
 20
-637.25
 30
0.0
 42
-0.414213562373095
 70
               2
  0
VERTEX
  5
B4
100
AcDbEntity
  8
OBJECT
 62
               0
100
AcDbVertex
100
AcDb2dVertex
 10
-460.33649999999994
 20
-635.25
 30
0.0
  0
VERTEX
  5
B5
100
AcDbEntity
  8
OBJECT
 62
               0
100
AcDbVertex
100
AcDb2dVertex
 10
-449.83649999999994
 20
-635.25
 30
0.0
 42
-0.414213562373095
 70
               2
 50
1.8714839861558573E+17
  0
VERTEX
  5
B6
100
AcDbEntity
  8
OBJECT
 62
               0
100
AcDbVertex
100
AcDb2dVertex
 10
-447.83649999999994
 20
-637.25
 30
0.0
  0
VERTEX
  5
B7
100
AcDbEntity
  8
OBJECT
 62
               0
100
AcDbVertex
100
AcDb2dVertex
 10
-447.83649999999994
 20
-647.75
 30
0.0
 42
-0.414213562373095
 70
               2
  0
VERTEX
  5
B8
100
AcDbEntity
  8
OBJECT
 62
               0
100
AcDbVertex
100
AcDb2dVertex
 10
-449.83649999999994
 20
-649.75
 30
0.0
  0
VERTEX
  5
B9
100
AcDbEntity
  8
OBJECT
 62
               0
100
AcDbVertex
100
AcDb2dVertex
 10
-460.33649999999994
 20
-649.75
 30
0.0
 42
-0.414213562373095
 70
               2
 50
3.1191399769264294E+17
  0
VERTEX
  5
BA
100
AcDbEntity
  8
OBJECT
 62
               0
100
AcDbVertex
100
AcDb2dVertex
 10
-462.33649999999994
 20
-647.75
 30
0.0
  0
SEQEND
  5
BB
100
AcDbEntity
  8
OBJECT
 62
               0
  0
POLYLINE
  5
BC
100
AcDbEntity
  8
OBJECT
 62
               0
100
AcDb2dPolyline
 66
               1
 10
0.0
 20
0.0
 30
0.0
 70
             129
  0
VERTEX
  5
BD
100
AcDbEntity
  8
OBJECT
 62
               0
100
AcDbVertex
100
AcDb2dVertex
 10
-387.33649999999994
 20
-637.25
 30
0.0
 42
-0.414213562373095
 70
               2
  0
VERTEX
  5
BE
100
AcDbEntity
  8
OBJECT
 62
               0
100
AcDbVertex
100
AcDb2dVertex
 10
-385.33649999999994
 20
-635.25
 30
0.0
  0
VERTEX
  5
BF
100
AcDbEntity
  8
OBJECT
 62
               0
100
AcDbVertex
100
AcDb2dVertex
 10
-374.83649999999994
 20
-635.25
 30
0.0
 42
-0.414213562373095
 70
               2
 50
1.8714839861558573E+17
  0
VERTEX
  5
C0
100
AcDbEntity
  8
OBJECT
 62
               0
100
AcDbVertex
100
AcDb2dVertex
 10
-372.83649999999994
 20
-637.25
 30
0.0
  0
VERTEX
  5
C1
100
AcDbEntity
  8
OBJECT
 62
               0
100
AcDbVertex
100
AcDb2dVertex
 10
-372.83649999999994
 20
-647.75
 30
0.0
 42
-0.414213562373095
 70
               2
  0
VERTEX
  5
C2
100
AcDbEntity
  8
OBJECT
 62
               0
100
AcDbVertex
100
AcDb2dVertex
 10
-374.83649999999994
 20
-649.75
 30
0.0
  0
VERTEX
  5
C3
100
AcDbEntity
  8
OBJECT
 62
               0
100
AcDbVertex
100
AcDb2dVertex
 10
-385.33649999999994
 20
-649.75
 30
0.0
 42
-0.414213562373095
 70
               2
 50
3.1191399769264294E+17
  0
VERTEX
  5
C4
100
AcDbEntity
  8
OBJECT
 62
               0
100
AcDbVertex
100
AcDb2dVertex
 10
-387.33649999999994
 20
-647.75
 30
0.0
  0
SEQEND
  5
C5
100
AcDbEntity
  8
OBJECT
 62
               0
  0
POLYLINE
  5
C6
100
AcDbEntity
  8
OBJECT
 62
               0
100
AcDb2dPolyline
 66
               1
 10
0.0
 20
0.0
 30
0.0
 70
               1
 75
               5
  0
VERTEX
  5
C7
100
AcDbEntity
  8
OBJECT
 62
               0
100
AcDbVertex
100
AcDb2dVertex
 10
-498.50799999999998
 20
-625.5
 30
0.0
  0
VERTEX
  5
C8
100
AcDbEntity
  8
OBJECT
 62
               0
100
AcDbVertex
100
AcDb2dVertex
 10
-361.50799999999998
 20
-625.5
 30
0.0
  0
VERTEX
  5
C9
100
AcDbEntity
  8
OBJECT
 62
               0
100
AcDbVertex
100
AcDb2dVertex
 10
-361.50799999999998
 20
-662.5
 30
0.0
  0
VERTEX
  5
CA
100
AcDbEntity
  8
OBJECT
 62
               0
100
AcDbVertex
100
AcDb2dVertex
 10
-498.50799999999998
 20
-662.5
 30
0.0
  0
SEQEND
  5
CB
100
AcDbEntity
  8
OBJECT
 62
               0
  0
ENDBLK
  5
CC
100
AcDbEntity
  8
OBJECT
100
AcDbBlockEnd
  0
BLOCK
  5
CD
100
AcDbEntity
  8
OBJECT
100
AcDbBlockBegin
  2
*U2
 70
               1
 10
0.0
 20
0.0
 30
0.0
  3
*U2
  1

  0
POLYLINE
  5
CE
100
AcDbEntity
  8
OBJECT
 62
               0
100
AcDb2dPolyline
 66
               1
 10
0.0
 20
0.0
 30
0.0
 70
             129
  0
VERTEX
  5
CF
100
AcDbEntity
  8
OBJECT
 62
               0
100
AcDbVertex
100
AcDb2dVertex
 10
-1430.0079999999998
 20
1007.0
 30
0.0
 42
-0.414213562373095
 70
               2
  0
VERTEX
  5
D0
100
AcDbEntity
  8
OBJECT
 62
               0
100
AcDbVertex
100
AcDb2dVertex
 10
-1428.0079999999998
 20
1009.0
 30
0.0
  0
VERTEX
  5
D1
100
AcDbEntity
  8
OBJECT
 62
               0
100
AcDbVertex
100
AcDb2dVertex
 10
-272.00799999999998
 20
1009.0
 30
0.0
 42
-0.4142135623730867
 70
               2
 50
1994432494485688.2
  0
VERTEX
  5
D2
100
AcDbEntity
  8
OBJECT
 62
               0
100
AcDbVertex
100
AcDb2dVertex
 10
-270.00799999999998
 20
1007.0
 30
0.0
  0
VERTEX
  5
D3
100
AcDbEntity
  8
OBJECT
 62
               0
100
AcDbVertex
100
AcDb2dVertex
 10
-270.00799999999998
 20
988.99999999999989
 30
0.0
 42
-0.4142135623730784
 70
               2
  0
VERTEX
  5
D4
100
AcDbEntity
  8
OBJECT
 62
               0
100
AcDbVertex
100
AcDb2dVertex
 10
-272.00799999999998
 20
986.99999999999989
 30
0.0
  0
VERTEX
  5
D5
100
AcDbEntity
  8
OBJECT
 62
               0
100
AcDbVertex
100
AcDb2dVertex
 10
-1428.0079999999998
 20
986.99999999999989
 30
0.0
 42
-0.414213562373095
 70
               2
 50
3.1191399769264294E+17
  0
VERTEX
  5
D6
100
AcDbEntity
  8
OBJECT
 62
               0
100
AcDbVertex
100
AcDb2dVertex
 10
-1430.0079999999998
 20
988.99999999999989
 30
0.0
  0
SEQEND
  5
D7
100
AcDbEntity
  8
OBJECT
 62
               0
  0
POLYLINE
  5
D8
100
AcDbEntity
  8
OBJECT
 62
               0
100
AcDb2dPolyline
 66
               1
 10
0.0
 20
0.0
 30
0.0
 70
               1
 75
               5
  0
VERTEX
  5
D9
100
AcDbEntity
  8
OBJECT
 62
               0
100
AcDbVertex
100
AcDb2dVertex
 10
-1430.0079999999998
 20
1023.0
 30
0.0
  0
VERTEX
  5
DA
100
AcDbEntity
  8
OBJECT
 62
               0
100
AcDbVertex
100
AcDb2dVertex
 10
-1405.0079999999998
 20
1015.0
 30
0.0
  0
VERTEX
  5
DB
100
AcDbEntity
  8
OBJECT
 62
               0
100
AcDbVertex
100
AcDb2dVertex
 10
-295.00799999999998
 20
1015.0
 30
0.0
  0
VERTEX
  5
DC
100
AcDbEntity
  8
OBJECT
 62
               0
100
AcDbVertex
100
AcDb2dVertex
 10
-270.00799999999998
 20
1023.0
 30
0.0
  0
VERTEX
  5
DD
100
AcDbEntity
  8
OBJECT
 62
               0
100
AcDbVertex
100
AcDb2dVertex
 10
-270.00799999999998
 20
1017.0
 30
0.0
  0
VERTEX
  5
DE
100
AcDbEntity
  8
OBJECT
 62
               0
100
AcDbVertex
100
AcDb2dVertex
 10
-295.00799999999998
 20
1009.0
 30
0.0
  0
VERTEX
  5
DF
100
AcDbEntity
  8
OBJECT
 62
               0
100
AcDbVertex
100
AcDb2dVertex
 10
-1405.0079999999998
 20
1009.0
 30
0.0
  0
VERTEX
  5
E0
100
AcDbEntity
  8
OBJECT
 62
               0
100
AcDbVertex
100
AcDb2dVertex
 10
-1430.0079999999998
 20
1017.0
 30
0.0
  0
SEQEND
  5
E1
100
AcDbEntity
  8
OBJECT
 62
               0
  0
LINE
  5
E2
100
AcDbEntity
  8
OBJECT
 62
               0
100
AcDbLine
 10
-295.00799999999998
 20
1008.0
 30
0.0
 11
-295.00799999999998
 21
987.99999999999989
 31
0.0
  0
LINE
  5
E3
100
AcDbEntity
  8
OBJECT
 62
               0
100
AcDbLine
 10
-1405.0079999999998
 20
1008.0
 30
0.0
 11
-1405.0079999999998
 21
987.99999999999989
 31
0.0
  0
ENDBLK
  5
E4
100
AcDbEntity
  8
OBJECT
100
AcDbBlockEnd
  0
BLOCK
  5
E5
100
AcDbEntity
  8
OBJECT
100
AcDbBlockBegin
  2
*U3
 70
               1
 10
0.0
 20
0.0
 30
0.0
  3
*U3
  1

  0
POLYLINE
  5
E6
100
AcDbEntity
  8
OBJECT
 62
               0
100
AcDb2dPolyline
 66
               1
 10
0.0
 20
0.0
 30
0.0
 70
             129
  0
VERTEX
  5
E7
100
AcDbEntity
  8
OBJECT
 62
               0
100
AcDbVertex
100
AcDb2dVertex
 10
-1430.0079999999998
 20
505.0
 30
0.0
 42
0.414213562373095
 70
               2
  0
VERTEX
  5
E8
100
AcDbEntity
  8
OBJECT
 62
               0
100
AcDbVertex
100
AcDb2dVertex
 10
-1428.0079999999998
 20
503.0
 30
0.0
  0
VERTEX
  5
E9
100
AcDbEntity
  8
OBJECT
 62
               0
100
AcDbVertex
100
AcDb2dVertex
 10
-272.00799999999998
 20
503.0
 30
0.0
 42
0.414213562373095
 70
               2
 50
3.1191399769264294E+17
  0
VERTEX
  5
EA
100
AcDbEntity
  8
OBJECT
 62
               0
100
AcDbVertex
100
AcDb2dVertex
 10
-270.00799999999998
 20
505.0
 30
0.0
  0
VERTEX
  5
EB
100
AcDbEntity
  8
OBJECT
 62
               0
100
AcDbVertex
100
AcDb2dVertex
 10
-270.00799999999998
 20
523.0
 30
0.0
 42
0.4142135623730867
 70
               2
  0
VERTEX
  5
EC
100
AcDbEntity
  8
OBJECT
 62
               0
100
AcDbVertex
100
AcDb2dVertex
 10
-272.00799999999998
 20
525.0
 30
0.0
  0
VERTEX
  5
ED
100
AcDbEntity
  8
OBJECT
 62
               0
100
AcDbVertex
100
AcDb2dVertex
 10
-1428.0079999999998
 20
525.0
 30
0.0
 42
0.414213562373095
 70
               2
 50
9.3574199307792870E+17
  0
VERTEX
  5
EE
100
AcDbEntity
  8
OBJECT
 62
               0
100
AcDbVertex
100
AcDb2dVertex
 10
-1430.0079999999998
 20
523.0
 30
0.0
  0
SEQEND
  5
EF
100
AcDbEntity
  8
OBJECT
 62
               0
  0
POLYLINE
  5
F0
100
AcDbEntity
  8
OBJECT
 62
               0
100
AcDb2dPolyline
 66
               1
 10
0.0
 20
0.0
 30
0.0
 70
               1
 75
               5
  0
VERTEX
  5
F1
100
AcDbEntity
  8
OBJECT
 62
               0
100
AcDbVertex
100
AcDb2dVertex
 10
-1430.0079999999998
 20
488.99999999999994
 30
0.0
  0
VERTEX
  5
F2
100
AcDbEntity
  8
OBJECT
 62
               0
100
AcDbVertex
100
AcDb2dVertex
 10
-1405.0079999999998
 20
497.0
 30
0.0
  0
VERTEX
  5
F3
100
AcDbEntity
  8
OBJECT
 62
               0
100
AcDbVertex
100
AcDb2dVertex
 10
-295.00799999999998
 20
497.0
 30
0.0
  0
VERTEX
  5
F4
100
AcDbEntity
  8
OBJECT
 62
               0
100
AcDbVertex
100
AcDb2dVertex
 10
-270.00799999999998
 20
488.99999999999994
 30
0.0
  0
VERTEX
  5
F5
100
AcDbEntity
  8
OBJECT
 62
               0
100
AcDbVertex
100
AcDb2dVertex
 10
-270.00799999999998
 20
495.0
 30
0.0
  0
VERTEX
  5
F6
100
AcDbEntity
  8
OBJECT
 62
               0
100
AcDbVertex
100
AcDb2dVertex
 10
-295.00799999999998
 20
503.0
 30
0.0
  0
VERTEX
  5
F7
100
AcDbEntity
  8
OBJECT
 62
               0
100
AcDbVertex
100
AcDb2dVertex
 10
-1405.0079999999998
 20
503.0
 30
0.0
  0
VERTEX
  5
F8
100
AcDbEntity
  8
OBJECT
 62
               0
100
AcDbVertex
100
AcDb2dVertex
 10
-1430.0079999999998
 20
495.0
 30
0.0
  0
SEQEND
  5
F9
100
AcDbEntity
  8
OBJECT
 62
               0
  0
LINE
  5
FA
100
AcDbEntity
  8
OBJECT
 62
               0
100
AcDbLine
 10
-295.00799999999998
 20
504.0
 30
0.0
 11
-295.00799999999998
 21
524.0
 31
0.0
  0
LINE
  5
FB
100
AcDbEntity
  8
OBJECT
 62
               0
100
AcDbLine
 10
-1405.0079999999998
 20
504.0
 30
0.0
 11
-1405.0079999999998
 21
524.0
 31
0.0
  0
ENDBLK
  5
FC
100
AcDbEntity
  8
OBJECT
100
AcDbBlockEnd
  0
BLOCK
  5
FD
100
AcDbEntity
  8
DIMENTION
100
AcDbBlockBegin
  2
*D4
 70
               1
 10
0.0
 20
0.0
 30
0.0
  3
*D4
  1

  0
LINE
  5
FE
100
AcDbEntity
  8
DIMENTION
 62
               0
100
AcDbLine
 10
557.39200000449728
 20
990.00000000312798
 30
0.0
 11
317.39200000449728
 21
990.00000000312798
 31
0.0
  0
LINE
  5
FF
100
AcDbEntity
  8
DIMENTION
 62
               0
100
AcDbLine
 10
615.39200000449728
 20
190.00000000312798
 30
0.0
 11
317.39200000449728
 21
190.00000000312798
 31
0.0
  0
LINE
  5
100
100
AcDbEntity
  8
DIMENTION
 62
               0
100
AcDbLine
 10
337.39200000449728
 20
990.00000000312798
 30
0.0
 11
337.39200000449728
 21
190.00000000312798
 31
0.0
  0
LINE
  5
101
100
AcDbEntity
  8
DIMENTION
 62
               0
100
AcDbLine
 10
337.39200000449728
 20
990.00000000312798
 30
0.0
 11
343.22005848308254
 21
968.24938965156548
 31
0.0
  0
LINE
  5
102
100
AcDbEntity
  8
DIMENTION
 62
               0
100
AcDbLine
 10
337.39200000449728
 20
990.00000000312798
 30
0.0
 11
331.56394152591201
 21
968.24938965156548
 31
0.0
  0
LINE
  5
103
100
AcDbEntity
  8
DIMENTION
 62
               0
100
AcDbLine
 10
337.39200000449728
 20
190.00000000312798
 30
0.0
 11
331.56394152591201
 21
211.75061035469048
 31
0.0
  0
LINE
  5
104
100
AcDbEntity
  8
DIMENTION
 62
               0
100
AcDbLine
 10
337.39200000449728
 20
190.00000000312798
 30
0.0
 11
343.22005848308254
 21
211.75061035469048
 31
0.0
  0
MTEXT
  5
105
100
AcDbEntity
  8
DIMENTION
 62
               0
100
AcDbMText
 10
294.05866667488908
 20
558.25000000312798
 30
0.0
 40
33.866666666666667
 41
0.0
 71
               1
 72
               1
  1
800
  7
________
 11
0.0
 21
1.0
 31
0.0
  0
POINT
  5
106
100
AcDbEntity
  8
DEFPOINTS
 62
               0
100
AcDbPoint
 10
625.39200000449728
 20
190.00000000312798
 30
0.0
  0
POINT
  5
107
100
AcDbEntity
  8
DEFPOINTS
 62
               0
100
AcDbPoint
 10
567.39200000449728
 20
990.00000000312798
 30
0.0
  0
POINT
  5
108
100
AcDbEntity
  8
DEFPOINTS
 62
               0
100
AcDbPoint
 10
337.39200000449728
 20
990.00000000312798
 30
0.0
  0
ENDBLK
  5
109
100
AcDbEntity
  8
DIMENTION
100
AcDbBlockEnd
  0
BLOCK
  5
10A
100
AcDbEntity
  8
DIMENTION
100
AcDbBlockBegin
  2
*D5
 70
               1
 10
0.0
 20
0.0
 30
0.0
  3
*D5
  1

  0
LINE
  5
10B
100
AcDbEntity
  8
DIMENTION
 62
               0
100
AcDbLine
 10
590.39200000449728
 20
1540.000000003128
 30
0.0
 11
590.39200000449728
 21
1644.000000003128
 31
0.0
  0
LINE
  5
10C
100
AcDbEntity
  8
DIMENTION
 62
               0
100
AcDbLine
 10
1760.392000004497
 20
1540.000000003128
 30
0.0
 11
1760.392000004497
 21
1644.000000003128
 31
0.0
  0
LINE
  5
10D
100
AcDbEntity
  8
DIMENTION
 62
               0
100
AcDbLine
 10
590.39200000449728
 20
1624.000000003128
 30
0.0
 11
1760.392000004497
 21
1624.000000003128
 31
0.0
  0
LINE
  5
10E
100
AcDbEntity
  8
DIMENTION
 62
               0
100
AcDbLine
 10
590.39200000449728
 20
1624.000000003128
 30
0.0
 11
612.14261035605978
 21
1629.8280584817132
 31
0.0
  0
LINE
  5
10F
100
AcDbEntity
  8
DIMENTION
 62
               0
100
AcDbLine
 10
590.39200000449728
 20
1624.000000003128
 30
0.0
 11
612.14261035605978
 21
1618.1719415245427
 31
0.0
  0
LINE
  5
110
100
AcDbEntity
  8
DIMENTION
 62
               0
100
AcDbLine
 10
1760.392000004497
 20
1624.000000003128
 30
0.0
 11
1738.6413896529345
 21
1618.1719415245427
 31
0.0
  0
LINE
  5
111
100
AcDbEntity
  8
DIMENTION
 62
               0
100
AcDbLine
 10
1760.392000004497
 20
1624.000000003128
 30
0.0
 11
1738.6413896529345
 21
1629.8280584817132
 31
0.0
  0
MTEXT
  5
112
100
AcDbEntity
  8
DIMENTION
 62
               0
100
AcDbMText
 10
1133.0586666711638
 20
1667.3333333327359
 30
0.0
 40
33.866666666666667
 41
0.0
 71
               1
 72
               1
  1
1170
  7
________
  0
POINT
  5
113
100
AcDbEntity
  8
DEFPOINTS
 62
               0
100
AcDbPoint
 10
1760.392000004497
 20
1530.000000003128
 30
0.0
  0
POINT
  5
114
100
AcDbEntity
  8
DEFPOINTS
 62
               0
100
AcDbPoint
 10
590.39200000449728
 20
1530.000000003128
 30
0.0
  0
POINT
  5
115
100
AcDbEntity
  8
DEFPOINTS
 62
               0
100
AcDbPoint
 10
590.39200000449728
 20
1624.000000003128
 30
0.0
  0
ENDBLK
  5
116
100
AcDbEntity
  8
DIMENTION
100
AcDbBlockEnd
  0
BLOCK
  5
117
100
AcDbEntity
  8
DIMENTION
100
AcDbBlockBegin
  2
*D6
 70
               1
 10
0.0
 20
0.0
 30
0.0
  3
*D6
  1

  0
LINE
  5
118
100
AcDbEntity
  8
DIMENTION
 62
               0
100
AcDbLine
 10
580.39200000449728
 20
1530.000000003128
 30
0.0
 11
259.39200000449728
 21
1530.000000003128
 31
0.0
  0
LINE
  5
119
100
AcDbEntity
  8
DIMENTION
 62
               0
100
AcDbLine
 10
615.39200000449728
 20
190.00000000312798
 30
0.0
 11
259.39200000449728
 21
190.00000000312798
 31
0.0
  0
LINE
  5
11A
100
AcDbEntity
  8
DIMENTION
 62
               0
100
AcDbLine
 10
279.39200000449728
 20
1530.000000003128
 30
0.0
 11
279.39200000449728
 21
190.00000000312798
 31
0.0
  0
LINE
  5
11B
100
AcDbEntity
  8
DIMENTION
 62
               0
100
AcDbLine
 10
279.39200000449728
 20
1530.000000003128
 30
0.0
 11
285.22005848308254
 21
1508.2493896515655
 31
0.0
  0
LINE
  5
11C
100
AcDbEntity
  8
DIMENTION
 62
               0
100
AcDbLine
 10
279.39200000449728
 20
1530.000000003128
 30
0.0
 11
273.56394152591201
 21
1508.2493896515655
 31
0.0
  0
LINE
  5
11D
100
AcDbEntity
  8
DIMENTION
 62
               0
100
AcDbLine
 10
279.39200000449728
 20
190.00000000312798
 30
0.0
 11
273.56394152591201
 21
211.75061035469048
 31
0.0
  0
LINE
  5
11E
100
AcDbEntity
  8
DIMENTION
 62
               0
100
AcDbLine
 10
279.39200000449728
 20
190.00000000312798
 30
0.0
 11
285.22005848308254
 21
211.75061035469048
 31
0.0
  0
MTEXT
  5
11F
100
AcDbEntity
  8
DIMENTION
 62
               0
100
AcDbMText
 10
236.05866667488931
 20
817.66666666979472
 30
0.0
 40
33.866666666666667
 41
0.0
 71
               1
 72
               1
  1
1340
  7
________
 11
0.0
 21
1.0
 31
0.0
  0
POINT
  5
120
100
AcDbEntity
  8
DEFPOINTS
 62
               0
100
AcDbPoint
 10
625.39200000449728
 20
190.00000000312798
 30
0.0
  0
POINT
  5
121
100
AcDbEntity
  8
DEFPOINTS
 62
               0
100
AcDbPoint
 10
590.39200000449728
 20
1530.000000003128
 30
0.0
  0
POINT
  5
122
100
AcDbEntity
  8
DEFPOINTS
 62
               0
100
AcDbPoint
 10
279.39200000449728
 20
1530.000000003128
 30
0.0
  0
ENDBLK
  5
123
100
AcDbEntity
  8
DIMENTION
100
AcDbBlockEnd
  0
BLOCK
  5
124
100
AcDbEntity
  8
DIMENTION
100
AcDbBlockBegin
  2
*D7
 70
               1
 10
0.0
 20
0.0
 30
0.0
  3
*D7
  1

  0
LINE
  5
125
100
AcDbEntity
  8
DIMENTION
 62
               0
100
AcDbLine
 10
1595.392000004497
 20
360.00000000312798
 30
0.0
 11
1682.344000004497
 21
360.00000000312798
 31
0.0
  0
LINE
  5
126
100
AcDbEntity
  8
DIMENTION
 62
               0
100
AcDbLine
 10
1595.392000004497
 20
190.00000000312798
 30
0.0
 11
1682.344000004497
 21
190.00000000312798
 31
0.0
  0
LINE
  5
127
100
AcDbEntity
  8
DIMENTION
 62
               0
100
AcDbLine
 10
1662.344000004497
 20
360.00000000312798
 30
0.0
 11
1662.344000004497
 21
190.00000000312798
 31
0.0
  0
LINE
  5
128
100
AcDbEntity
  8
DIMENTION
 62
               0
100
AcDbLine
 10
1662.344000004497
 20
360.00000000312798
 30
0.0
 11
1668.1720584830823
 21
338.24938965156548
 31
0.0
  0
LINE
  5
129
100
AcDbEntity
  8
DIMENTION
 62
               0
100
AcDbLine
 10
1662.344000004497
 20
360.00000000312798
 30
0.0
 11
1656.5159415259118
 21
338.24938965156548
 31
0.0
  0
LINE
  5
12A
100
AcDbEntity
  8
DIMENTION
 62
               0
100
AcDbLine
 10
1662.344000004497
 20
190.00000000312798
 30
0.0
 11
1656.5159415259118
 21
211.75061035469048
 31
0.0
  0
LINE
  5
12B
100
AcDbEntity
  8
DIMENTION
 62
               0
100
AcDbLine
 10
1662.344000004497
 20
190.00000000312798
 30
0.0
 11
1668.1720584830823
 21
211.75061035469048
 31
0.0
  0
MTEXT
  5
12C
100
AcDbEntity
  8
DIMENTION
 62
               0
100
AcDbMText
 10
1619.0106666748891
 20
243.25000000312798
 30
0.0
 40
33.866666666666667
 41
0.0
 71
               1
 72
               1
  1
170
  7
________
 11
0.0
 21
1.0
 31
0.0
  0
POINT
  5
12D
100
AcDbEntity
  8
DEFPOINTS
 62
               0
100
AcDbPoint
 10
1585.392000004497
 20
190.00000000312798
 30
0.0
  0
POINT
  5
12E
100
AcDbEntity
  8
DEFPOINTS
 62
               0
100
AcDbPoint
 10
1585.392000004497
 20
360.00000000312798
 30
0.0
  0
POINT
  5
12F
100
AcDbEntity
  8
DEFPOINTS
 62
               0
100
AcDbPoint
 10
1662.344000004497
 20
360.00000000312798
 30
0.0
  0
ENDBLK
  5
130
100
AcDbEntity
  8
DIMENTION
100
AcDbBlockEnd
  0
BLOCK
  5
131
100
AcDbEntity
  8
DIMENTION
100
AcDbBlockBegin
  2
*D8
 70
               1
 10
0.0
 20
0.0
 30
0.0
  3
*D8
  1

  0
LINE
  5
132
100
AcDbEntity
  8
DIMENTION
 62
               0
100
AcDbLine
 10
415.39200000449728
 20
440.00000000312809
 30
0.0
 11
371.39200000449728
 21
440.00000000312809
 31
0.0
  0
LINE
  5
133
100
AcDbEntity
  8
DIMENTION
 62
               0
100
AcDbLine
 10
605.39200000449728
 20
190.00000000312798
 30
0.0
 11
371.39200000449728
 21
190.00000000312798
 31
0.0
  0
LINE
  5
134
100
AcDbEntity
  8
DIMENTION
 62
               0
100
AcDbLine
 10
391.39200000449728
 20
440.00000000312809
 30
0.0
 11
391.39200000449728
 21
190.00000000312798
 31
0.0
  0
LINE
  5
135
100
AcDbEntity
  8
DIMENTION
 62
               0
100
AcDbLine
 10
391.39200000449728
 20
440.00000000312809
 30
0.0
 11
397.22005848308254
 21
418.24938965156559
 31
0.0
  0
LINE
  5
136
100
AcDbEntity
  8
DIMENTION
 62
               0
100
AcDbLine
 10
391.39200000449728
 20
440.00000000312809
 30
0.0
 11
385.56394152591201
 21
418.24938965156559
 31
0.0
  0
LINE
  5
137
100
AcDbEntity
  8
DIMENTION
 62
               0
100
AcDbLine
 10
391.39200000449728
 20
190.00000000312798
 30
0.0
 11
385.56394152591201
 21
211.75061035469048
 31
0.0
  0
LINE
  5
138
100
AcDbEntity
  8
DIMENTION
 62
               0
100
AcDbLine
 10
391.39200000449728
 20
190.00000000312798
 30
0.0
 11
397.22005848308254
 21
211.75061035469048
 31
0.0
  0
MTEXT
  5
139
100
AcDbEntity
  8
DIMENTION
 62
               0
100
AcDbMText
 10
348.05866667488908
 20
283.25000000312798
 30
0.0
 40
33.866666666666667
 41
0.0
 71
               1
 72
               1
  1
250
  7
________
 11
0.0
 21
1.0
 31
0.0
  0
POINT
  5
13A
100
AcDbEntity
  8
DEFPOINTS
 62
               0
100
AcDbPoint
 10
615.39200000449728
 20
190.00000000312798
 30
0.0
  0
POINT
  5
13B
100
AcDbEntity
  8
DEFPOINTS
 62
               0
100
AcDbPoint
 10
425.39200000449728
 20
440.00000000312809
 30
0.0
  0
POINT
  5
13C
100
AcDbEntity
  8
DEFPOINTS
 62
               0
100
AcDbPoint
 10
391.39200000449728
 20
440.00000000312809
 30
0.0
  0
ENDBLK
  5
13D
100
AcDbEntity
  8
DIMENTION
100
AcDbBlockEnd
  0
BLOCK
  5
13E
100
AcDbEntity
  8
DIMENTION
100
AcDbBlockBegin
  2
*D9
 70
               1
 10
0.0
 20
0.0
 30
0.0
  3
*D9
  1

  0
LINE
  5
13F
100
AcDbEntity
  8
DIMENTION
 62
               0
100
AcDbLine
 10
2633.3920000044973
 20
1540.000000003128
 30
0.0
 11
2633.3920000044973
 21
1730.000000003128
 31
0.0
  0
LINE
  5
140
100
AcDbEntity
  8
DIMENTION
 62
               0
100
AcDbLine
 10
3278.3920000044973
 20
1540.000000003128
 30
0.0
 11
3278.3920000044973
 21
1730.000000003128
 31
0.0
  0
LINE
  5
141
100
AcDbEntity
  8
DIMENTION
 62
               0
100
AcDbLine
 10
2633.3920000044973
 20
1710.000000003128
 30
0.0
 11
3278.3920000044973
 21
1710.000000003128
 31
0.0
  0
LINE
  5
142
100
AcDbEntity
  8
DIMENTION
 62
               0
100
AcDbLine
 10
2633.3920000044973
 20
1710.000000003128
 30
0.0
 11
2655.1426103560598
 21
1715.8280584817132
 31
0.0
  0
LINE
  5
143
100
AcDbEntity
  8
DIMENTION
 62
               0
100
AcDbLine
 10
2633.3920000044973
 20
1710.000000003128
 30
0.0
 11
2655.1426103560598
 21
1704.1719415245427
 31
0.0
  0
LINE
  5
144
100
AcDbEntity
  8
DIMENTION
 62
               0
100
AcDbLine
 10
3278.3920000044973
 20
1710.000000003128
 30
0.0
 11
3256.6413896529348
 21
1704.1719415245427
 31
0.0
  0
LINE
  5
145
100
AcDbEntity
  8
DIMENTION
 62
               0
100
AcDbLine
 10
3278.3920000044973
 20
1710.000000003128
 30
0.0
 11
3256.6413896529348
 21
1715.8280584817132
 31
0.0
  0
MTEXT
  5
146
100
AcDbEntity
  8
DIMENTION
 62
               0
100
AcDbMText
 10
2924.1420000044973
 20
1753.3333333327359
 30
0.0
 40
33.866666666666667
 41
0.0
 71
               1
 72
               1
  1
645
  7
________
  0
POINT
  5
147
100
AcDbEntity
  8
DEFPOINTS
 62
               0
100
AcDbPoint
 10
3278.3920000044973
 20
1530.000000003128
 30
0.0
  0
POINT
  5
148
100
AcDbEntity
  8
DEFPOINTS
 62
               0
100
AcDbPoint
 10
2633.3920000044973
 20
1530.000000003128
 30
0.0
  0
POINT
  5
149
100
AcDbEntity
  8
DEFPOINTS
 62
               0
100
AcDbPoint
 10
2633.3920000044973
 20
1710.000000003128
 30
0.0
  0
ENDBLK
  5
14A
100
AcDbEntity
  8
DIMENTION
100
AcDbBlockEnd
  0
BLOCK
  5
14B
100
AcDbEntity
  8
DIMENTION
100
AcDbBlockBegin
  2
*D10
 70
               1
 10
0.0
 20
0.0
 30
0.0
  3
*D10
  1

  0
LINE
  5
14C
100
AcDbEntity
  8
DIMENTION
 62
               0
100
AcDbLine
 10
2666.8920000044973
 20
1390.000000003128
 30
0.0
 11
2827.3920000044973
 21
1390.000000003128
 31
0.0
  0
LINE
  5
14D
100
AcDbEntity
  8
DIMENTION
 62
               0
100
AcDbLine
 10
2666.8920000044973
 20
990.00000000312798
 30
0.0
 11
2827.3920000044973
 21
990.00000000312798
 31
0.0
  0
LINE
  5
14E
100
AcDbEntity
  8
DIMENTION
 62
               0
100
AcDbLine
 10
2807.3920000044973
 20
1390.000000003128
 30
0.0
 11
2807.3920000044973
 21
990.00000000312798
 31
0.0
  0
LINE
  5
14F
100
AcDbEntity
  8
DIMENTION
 62
               0
100
AcDbLine
 10
2807.3920000044973
 20
1390.000000003128
 30
0.0
 11
2813.2200584830821
 21
1368.2493896515655
 31
0.0
  0
LINE
  5
150
100
AcDbEntity
  8
DIMENTION
 62
               0
100
AcDbLine
 10
2807.3920000044973
 20
1390.000000003128
 30
0.0
 11
2801.563941525912
 21
1368.2493896515655
 31
0.0
  0
LINE
  5
151
100
AcDbEntity
  8
DIMENTION
 62
               0
100
AcDbLine
 10
2807.3920000044973
 20
990.00000000312798
 30
0.0
 11
2801.563941525912
 21
1011.7506103546905
 31
0.0
  0
LINE
  5
152
100
AcDbEntity
  8
DIMENTION
 62
               0
100
AcDbLine
 10
2807.3920000044973
 20
990.00000000312798
 30
0.0
 11
2813.2200584830821
 21
1011.7506103546905
 31
0.0
  0
MTEXT
  5
153
100
AcDbEntity
  8
DIMENTION
 62
               0
100
AcDbMText
 10
2764.0586666748891
 20
1158.250000003128
 30
0.0
 40
33.866666666666667
 41
0.0
 71
               1
 72
               1
  1
400
  7
________
 11
0.0
 21
1.0
 31
0.0
  0
POINT
  5
154
100
AcDbEntity
  8
DEFPOINTS
 62
               0
100
AcDbPoint
 10
2656.8920000044973
 20
990.00000000312798
 30
0.0
  0
POINT
  5
155
100
AcDbEntity
  8
DEFPOINTS
 62
               0
100
AcDbPoint
 10
2656.8920000044973
 20
1390.000000003128
 30
0.0
  0
POINT
  5
156
100
AcDbEntity
  8
DEFPOINTS
 62
               0
100
AcDbPoint
 10
2807.3920000044973
 20
1390.000000003128
 30
0.0
  0
ENDBLK
  5
157
100
AcDbEntity
  8
DIMENTION
100
AcDbBlockEnd
  0
BLOCK
  5
158
100
AcDbEntity
  8
DIMENTION
100
AcDbBlockBegin
  2
*D11
 70
               1
 10
0.0
 20
0.0
 30
0.0
  3
*D11
  1

  0
LINE
  5
159
100
AcDbEntity
  8
DIMENTION
 62
               0
100
AcDbLine
 10
1555.392000004497
 20
2255.0000000031278
 30
0.0
 11
1555.392000004497
 21
2332.0000000031278
 31
0.0
  0
LINE
  5
15A
100
AcDbEntity
  8
DIMENTION
 62
               0
100
AcDbLine
 10
1175.3920000044973
 20
2175.0000000031278
 30
0.0
 11
1175.3920000044973
 21
2332.0000000031278
 31
0.0
  0
LINE
  5
15B
100
AcDbEntity
  8
DIMENTION
 62
               0
100
AcDbLine
 10
1555.392000004497
 20
2312.0000000031278
 30
0.0
 11
1175.3920000044973
 21
2312.0000000031278
 31
0.0
  0
LINE
  5
15C
100
AcDbEntity
  8
DIMENTION
 62
               0
100
AcDbLine
 10
1555.392000004497
 20
2312.0000000031278
 30
0.0
 11
1533.6413896529345
 21
2306.1719415245425
 31
0.0
  0
LINE
  5
15D
100
AcDbEntity
  8
DIMENTION
 62
               0
100
AcDbLine
 10
1555.392000004497
 20
2312.0000000031278
 30
0.0
 11
1533.6413896529345
 21
2317.828058481713
 31
0.0
  0
LINE
  5
15E
100
AcDbEntity
  8
DIMENTION
 62
               0
100
AcDbLine
 10
1175.3920000044973
 20
2312.0000000031278
 30
0.0
 11
1197.1426103560598
 21
2317.828058481713
 31
0.0
  0
LINE
  5
15F
100
AcDbEntity
  8
DIMENTION
 62
               0
100
AcDbLine
 10
1175.3920000044973
 20
2312.0000000031278
 30
0.0
 11
1197.1426103560598
 21
2306.1719415245425
 31
0.0
  0
MTEXT
  5
160
100
AcDbEntity
  8
DIMENTION
 62
               0
100
AcDbMText
 10
1341.6437089888723
 20
2355.3333333327359
 30
0.0
 40
33.866666666666667
 41
0.0
 71
               1
 72
               1
  1
380
  7
________
  0
POINT
  5
161
100
AcDbEntity
  8
DEFPOINTS
 62
               0
100
AcDbPoint
 10
1175.3920000044973
 20
2165.0000000031278
 30
0.0
  0
POINT
  5
162
100
AcDbEntity
  8
DEFPOINTS
 62
               0
100
AcDbPoint
 10
1555.392000004497
 20
2245.0000000031278
 30
0.0
  0
POINT
  5
163
100
AcDbEntity
  8
DEFPOINTS
 62
               0
100
AcDbPoint
 10
1555.392000004497
 20
2312.0000000031278
 30
0.0
  0
ENDBLK
  5
164
100
AcDbEntity
  8
DIMENTION
100
AcDbBlockEnd
  0
BLOCK
  5
165
100
AcDbEntity
  8
DIMENTION
100
AcDbBlockBegin
  2
*D12
 70
               1
 10
0.0
 20
0.0
 30
0.0
  3
*D12
  1

  0
LINE
  5
166
100
AcDbEntity
  8
DIMENTION
 62
               0
100
AcDbLine
 10
557.39200000449728
 20
2495.0000000031278
 30
0.0
 11
280.39200000449728
 21
2495.0000000031278
 31
0.0
  0
LINE
  5
167
100
AcDbEntity
  8
DIMENTION
 62
               0
100
AcDbLine
 10
575.39200000449728
 20
1835.000000003128
 30
0.0
 11
280.39200000449728
 21
1835.000000003128
 31
0.0
  0
LINE
  5
168
100
AcDbEntity
  8
DIMENTION
 62
               0
100
AcDbLine
 10
300.39200000449728
 20
2495.0000000031278
 30
0.0
 11
300.39200000449728
 21
1835.000000003128
 31
0.0
  0
LINE
  5
169
100
AcDbEntity
  8
DIMENTION
 62
               0
100
AcDbLine
 10
300.39200000449728
 20
2495.0000000031278
 30
0.0
 11
306.22005848308254
 21
2473.2493896515653
 31
0.0
  0
LINE
  5
16A
100
AcDbEntity
  8
DIMENTION
 62
               0
100
AcDbLine
 10
300.39200000449728
 20
2495.0000000031278
 30
0.0
 11
294.56394152591201
 21
2473.2493896515653
 31
0.0
  0
LINE
  5
16B
100
AcDbEntity
  8
DIMENTION
 62
               0
100
AcDbLine
 10
300.39200000449728
 20
1835.000000003128
 30
0.0
 11
294.56394152591201
 21
1856.7506103546905
 31
0.0
  0
LINE
  5
16C
100
AcDbEntity
  8
DIMENTION
 62
               0
100
AcDbLine
 10
300.39200000449728
 20
1835.000000003128
 30
0.0
 11
306.22005848308254
 21
1856.7506103546905
 31
0.0
  0
MTEXT
  5
16D
100
AcDbEntity
  8
DIMENTION
 62
               0
100
AcDbMText
 10
257.05866667488908
 20
2133.2500000031278
 30
0.0
 40
33.866666666666667
 41
0.0
 71
               1
 72
               1
  1
660
  7
________
 11
0.0
 21
1.0
 31
0.0
  0
POINT
  5
16E
100
AcDbEntity
  8
DEFPOINTS
 62
               0
100
AcDbPoint
 10
585.39200000449728
 20
1835.000000003128
 30
0.0
  0
POINT
  5
16F
100
AcDbEntity
  8
DEFPOINTS
 62
               0
100
AcDbPoint
 10
567.39200000449728
 20
2495.0000000031278
 30
0.0
  0
POINT
  5
170
100
AcDbEntity
  8
DEFPOINTS
 62
               0
100
AcDbPoint
 10
300.39200000449728
 20
2495.0000000031278
 30
0.0
  0
ENDBLK
  5
171
100
AcDbEntity
  8
DIMENTION
100
AcDbBlockEnd
  0
BLOCK
  5
172
100
AcDbEntity
  8
DIMENTION
100
AcDbBlockBegin
  2
*D13
 70
               1
 10
0.0
 20
0.0
 30
0.0
  3
*D13
  1

  0
LINE
  5
173
100
AcDbEntity
  8
DIMENTION
 62
               0
100
AcDbLine
 10
557.39200000449728
 20
1806.500000003128
 30
0.0
 11
280.39200000449728
 21
1806.500000003128
 31
0.0
  0
LINE
  5
174
100
AcDbEntity
  8
DIMENTION
 62
               0
100
AcDbLine
 10
575.39200000449728
 20
1835.000000003128
 30
0.0
 11
280.39200000449728
 21
1835.000000003128
 31
0.0
  0
LINE
  5
175
100
AcDbEntity
  8
DIMENTION
 62
               0
100
AcDbLine
 10
300.39200000449728
 20
1835.000000003128
 30
0.0
 11
300.39200000449728
 21
1806.500000003128
 31
0.0
  0
LINE
  5
176
100
AcDbEntity
  8
DIMENTION
 62
               0
100
AcDbLine
 10
300.39200000449728
 20
1806.500000003128
 30
0.0
 11
300.39200000449728
 21
1707.1666666697947
 31
0.0
  0
LINE
  5
177
100
AcDbEntity
  8
DIMENTION
 62
               0
100
AcDbLine
 10
300.39200000449728
 20
1806.500000003128
 30
0.0
 11
306.22005848308254
 21
1784.7493896515655
 31
0.0
  0
LINE
  5
178
100
AcDbEntity
  8
DIMENTION
 62
               0
100
AcDbLine
 10
300.39200000449728
 20
1806.500000003128
 30
0.0
 11
294.56394152591201
 21
1784.7493896515655
 31
0.0
  0
LINE
  5
179
100
AcDbEntity
  8
DIMENTION
 62
               0
100
AcDbLine
 10
300.39200000449728
 20
1835.000000003128
 30
0.0
 11
300.39200000449728
 21
1875.000000003128
 31
0.0
  0
LINE
  5
17A
100
AcDbEntity
  8
DIMENTION
 62
               0
100
AcDbLine
 10
300.39200000449728
 20
1835.000000003128
 30
0.0
 11
294.56394152591201
 21
1856.7506103546905
 31
0.0
  0
LINE
  5
17B
100
AcDbEntity
  8
DIMENTION
 62
               0
100
AcDbLine
 10
300.39200000449728
 20
1835.000000003128
 30
0.0
 11
306.22005848308254
 21
1856.7506103546905
 31
0.0
  0
MTEXT
  5
17C
100
AcDbEntity
  8
DIMENTION
 62
               0
100
AcDbMText
 10
257.05866667488908
 20
1707.1666666697945
 30
0.0
 40
33.866666666666667
 41
0.0
 71
               1
 72
               1
  1
29
  7
________
 11
0.0
 21
1.0
 31
0.0
  0
POINT
  5
17D
100
AcDbEntity
  8
DEFPOINTS
 62
               0
100
AcDbPoint
 10
585.39200000449728
 20
1835.000000003128
 30
0.0
  0
POINT
  5
17E
100
AcDbEntity
  8
DEFPOINTS
 62
               0
100
AcDbPoint
 10
567.39200000449728
 20
1806.500000003128
 30
0.0
  0
POINT
  5
17F
100
AcDbEntity
  8
DEFPOINTS
 62
               0
100
AcDbPoint
 10
300.39200000449728
 20
1806.500000003128
 30
0.0
  0
ENDBLK
  5
180
100
AcDbEntity
  8
DIMENTION
100
AcDbBlockEnd
  0
BLOCK
  5
181
100
AcDbEntity
  8
DIMENTION
100
AcDbBlockBegin
  2
*D14
 70
               1
 10
0.0
 20
0.0
 30
0.0
  3
*D14
  1

  0
LINE
  5
182
100
AcDbEntity
  8
DIMENTION
 62
               0
100
AcDbLine
 10
575.39200000449728
 20
2513.0000000031278
 30
0.0
 11
280.39200000449728
 21
2513.0000000031278
 31
0.0
  0
LINE
  5
183
100
AcDbEntity
  8
DIMENTION
 62
               0
100
AcDbLine
 10
557.39200000449728
 20
2495.0000000031278
 30
0.0
 11
280.39200000449728
 21
2495.0000000031278
 31
0.0
  0
LINE
  5
184
100
AcDbEntity
  8
DIMENTION
 62
               0
100
AcDbLine
 10
300.39200000449728
 20
2495.0000000031278
 30
0.0
 11
300.39200000449728
 21
2513.0000000031278
 31
0.0
  0
LINE
  5
185
100
AcDbEntity
  8
DIMENTION
 62
               0
100
AcDbLine
 10
300.39200000449728
 20
2513.0000000031278
 30
0.0
 11
300.39200000449728
 21
2576.3333333364612
 31
0.0
  0
LINE
  5
186
100
AcDbEntity
  8
DIMENTION
 62
               0
100
AcDbLine
 10
300.39200000449728
 20
2513.0000000031278
 30
0.0
 11
294.56394152591201
 21
2534.7506103546903
 31
0.0
  0
LINE
  5
187
100
AcDbEntity
  8
DIMENTION
 62
               0
100
AcDbLine
 10
300.39200000449728
 20
2513.0000000031278
 30
0.0
 11
306.22005848308254
 21
2534.7506103546903
 31
0.0
  0
LINE
  5
188
100
AcDbEntity
  8
DIMENTION
 62
               0
100
AcDbLine
 10
300.39200000449728
 20
2495.0000000031278
 30
0.0
 11
300.39200000449728
 21
2455.0000000031278
 31
0.0
  0
LINE
  5
189
100
AcDbEntity
  8
DIMENTION
 62
               0
100
AcDbLine
 10
300.39200000449728
 20
2495.0000000031278
 30
0.0
 11
306.22005848308254
 21
2473.2493896515653
 31
0.0
  0
LINE
  5
18A
100
AcDbEntity
  8
DIMENTION
 62
               0
100
AcDbLine
 10
300.39200000449728
 20
2495.0000000031278
 30
0.0
 11
294.56394152591201
 21
2473.2493896515653
 31
0.0
  0
MTEXT
  5
18B
100
AcDbEntity
  8
DIMENTION
 62
               0
100
AcDbMText
 10
257.05866667488908
 20
2534.0000000031278
 30
0.0
 40
33.866666666666667
 41
0.0
 71
               1
 72
               1
  1
18
  7
________
 11
0.0
 21
1.0
 31
0.0
  0
POINT
  5
18C
100
AcDbEntity
  8
DEFPOINTS
 62
               0
100
AcDbPoint
 10
567.39200000449728
 20
2495.0000000031278
 30
0.0
  0
POINT
  5
18D
100
AcDbEntity
  8
DEFPOINTS
 62
               0
100
AcDbPoint
 10
585.39200000449728
 20
2513.0000000031278
 30
0.0
  0
POINT
  5
18E
100
AcDbEntity
  8
DEFPOINTS
 62
               0
100
AcDbPoint
 10
300.39200000449728
 20
2513.0000000031278
 30
0.0
  0
ENDBLK
  5
18F
100
AcDbEntity
  8
DIMENTION
100
AcDbBlockEnd
  0
BLOCK
  5
190
100
AcDbEntity
  8
DIMENTION
100
AcDbBlockBegin
  2
*D15
 70
               1
 10
0.0
 20
0.0
 30
0.0
  3
*D15
  1

  0
LINE
  5
191
100
AcDbEntity
  8
DIMENTION
 62
               0
100
AcDbLine
 10
575.39200000449728
 20
2513.0000000031278
 30
0.0
 11
195.39200000449728
 21
2513.0000000031278
 31
0.0
  0
LINE
  5
192
100
AcDbEntity
  8
DIMENTION
 62
               0
100
AcDbLine
 10
557.39200000449728
 20
1806.500000003128
 30
0.0
 11
195.39200000449728
 21
1806.500000003128
 31
0.0
  0
LINE
  5
193
100
AcDbEntity
  8
DIMENTION
 62
               0
100
AcDbLine
 10
215.39200000449728
 20
2513.0000000031278
 30
0.0
 11
215.39200000449728
 21
1806.500000003128
 31
0.0
  0
LINE
  5
194
100
AcDbEntity
  8
DIMENTION
 62
               0
100
AcDbLine
 10
215.39200000449728
 20
2513.0000000031278
 30
0.0
 11
221.22005848308254
 21
2491.2493896515653
 31
0.0
  0
LINE
  5
195
100
AcDbEntity
  8
DIMENTION
 62
               0
100
AcDbLine
 10
215.39200000449728
 20
2513.0000000031278
 30
0.0
 11
209.56394152591201
 21
2491.2493896515653
 31
0.0
  0
LINE
  5
196
100
AcDbEntity
  8
DIMENTION
 62
               0
100
AcDbLine
 10
215.39200000449728
 20
1806.500000003128
 30
0.0
 11
209.56394152591201
 21
1828.2506103546905
 31
0.0
  0
LINE
  5
197
100
AcDbEntity
  8
DIMENTION
 62
               0
100
AcDbLine
 10
215.39200000449728
 20
1806.500000003128
 30
0.0
 11
221.22005848308254
 21
1828.2506103546905
 31
0.0
  0
MTEXT
  5
198
100
AcDbEntity
  8
DIMENTION
 62
               0
100
AcDbMText
 10
172.05866667488908
 20
2128.0000000031278
 30
0.0
 40
33.866666666666667
 41
0.0
 71
               1
 72
               1
  1
707
  7
________
 11
0.0
 21
1.0
 31
0.0
  0
POINT
  5
199
100
AcDbEntity
  8
DEFPOINTS
 62
               0
100
AcDbPoint
 10
567.39200000449728
 20
1806.500000003128
 30
0.0
  0
POINT
  5
19A
100
AcDbEntity
  8
DEFPOINTS
 62
               0
100
AcDbPoint
 10
585.39200000449728
 20
2513.0000000031278
 30
0.0
  0
POINT
  5
19B
100
AcDbEntity
  8
DEFPOINTS
 62
               0
100
AcDbPoint
 10
215.39200000449728
 20
2513.0000000031278
 30
0.0
  0
ENDBLK
  5
19C
100
AcDbEntity
  8
DIMENTION
100
AcDbBlockEnd
  0
BLOCK
  5
19D
100
AcDbEntity
  8
DIMENTION
100
AcDbBlockBegin
  2
*D16
 70
               1
 10
0.0
 20
0.0
 30
0.0
  3
*D16
  1

  0
LINE
  5
19E
100
AcDbEntity
  8
DIMENTION
 62
               0
100
AcDbLine
 10
1765.392000004497
 20
1814.500000003128
 30
0.0
 11
1765.392000004497
 21
1721.000000003128
 31
0.0
  0
LINE
  5
19F
100
AcDbEntity
  8
DIMENTION
 62
               0
100
AcDbLine
 10
585.39200000449728
 20
1814.500000003128
 30
0.0
 11
585.39200000449728
 21
1721.000000003128
 31
0.0
  0
LINE
  5
1A0
100
AcDbEntity
  8
DIMENTION
 62
               0
100
AcDbLine
 10
1765.392000004497
 20
1741.000000003128
 30
0.0
 11
585.39200000449728
 21
1741.000000003128
 31
0.0
  0
LINE
  5
1A1
100
AcDbEntity
  8
DIMENTION
 62
               0
100
AcDbLine
 10
1765.392000004497
 20
1741.000000003128
 30
0.0
 11
1743.6413896529345
 21
1735.1719415245427
 31
0.0
  0
LINE
  5
1A2
100
AcDbEntity
  8
DIMENTION
 62
               0
100
AcDbLine
 10
1765.392000004497
 20
1741.000000003128
 30
0.0
 11
1743.6413896529345
 21
1746.828058481713
 31
0.0
  0
LINE
  5
1A3
100
AcDbEntity
  8
DIMENTION
 62
               0
100
AcDbLine
 10
585.39200000449728
 20
1741.000000003128
 30
0.0
 11
607.14261035605978
 21
1746.828058481713
 31
0.0
  0
LINE
  5
1A4
100
AcDbEntity
  8
DIMENTION
 62
               0
100
AcDbLine
 10
585.39200000449728
 20
1741.000000003128
 30
0.0
 11
607.14261035605978
 21
1735.1719415245427
 31
0.0
  0
MTEXT
  5
1A5
100
AcDbEntity
  8
DIMENTION
 62
               0
100
AcDbMText
 10
1133.0586666711638
 20
1784.3333333327359
 30
0.0
 40
33.866666666666667
 41
0.0
 71
               1
 72
               1
  1
1180
  7
________
  0
POINT
  5
1A6
100
AcDbEntity
  8
DEFPOINTS
 62
               0
100
AcDbPoint
 10
585.39200000449728
 20
1824.500000003128
 30
0.0
  0
POINT
  5
1A7
100
AcDbEntity
  8
DEFPOINTS
 62
               0
100
AcDbPoint
 10
1765.392000004497
 20
1824.500000003128
 30
0.0
  0
POINT
  5
1A8
100
AcDbEntity
  8
DEFPOINTS
 62
               0
100
AcDbPoint
 10
1765.392000004497
 20
1741.000000003128
 30
0.0
  0
ENDBLK
  5
1A9
100
AcDbEntity
  8
DIMENTION
100
AcDbBlockEnd
  0
BLOCK
  5
1AA
100
AcDbEntity
  8
DIMENTION
100
AcDbBlockBegin
  2
*D17
 70
               1
 10
0.0
 20
0.0
 30
0.0
  3
*D17
  1

  0
LINE
  5
1AB
100
AcDbEntity
  8
DIMENTION
 62
               0
100
AcDbLine
 10
567.39200000449728
 20
1796.500000003128
 30
0.0
 11
567.39200000449728
 21
1721.000000003128
 31
0.0
  0
LINE
  5
1AC
100
AcDbEntity
  8
DIMENTION
 62
               0
100
AcDbLine
 10
585.39200000449728
 20
1814.500000003128
 30
0.0
 11
585.39200000449728
 21
1721.000000003128
 31
0.0
  0
LINE
  5
1AD
100
AcDbEntity
  8
DIMENTION
 62
               0
100
AcDbLine
 10
585.39200000449728
 20
1741.000000003128
 30
0.0
 11
567.39200000449728
 21
1741.000000003128
 31
0.0
  0
LINE
  5
1AE
100
AcDbEntity
  8
DIMENTION
 62
               0
100
AcDbLine
 10
567.39200000449728
 20
1741.000000003128
 30
0.0
 11
490.05866667116402
 21
1741.000000003128
 31
0.0
  0
LINE
  5
1AF
100
AcDbEntity
  8
DIMENTION
 62
               0
100
AcDbLine
 10
567.39200000449728
 20
1741.000000003128
 30
0.0
 11
545.64138965293478
 21
1735.1719415245427
 31
0.0
  0
LINE
  5
1B0
100
AcDbEntity
  8
DIMENTION
 62
               0
100
AcDbLine
 10
567.39200000449728
 20
1741.000000003128
 30
0.0
 11
545.64138965293478
 21
1746.828058481713
 31
0.0
  0
LINE
  5
1B1
100
AcDbEntity
  8
DIMENTION
 62
               0
100
AcDbLine
 10
585.39200000449728
 20
1741.000000003128
 30
0.0
 11
625.39200000449728
 21
1741.000000003128
 31
0.0
  0
LINE
  5
1B2
100
AcDbEntity
  8
DIMENTION
 62
               0
100
AcDbLine
 10
585.39200000449728
 20
1741.000000003128
 30
0.0
 11
607.14261035605978
 21
1746.828058481713
 31
0.0
  0
LINE
  5
1B3
100
AcDbEntity
  8
DIMENTION
 62
               0
100
AcDbLine
 10
585.39200000449728
 20
1741.000000003128
 30
0.0
 11
607.14261035605978
 21
1735.1719415245427
 31
0.0
  0
MTEXT
  5
1B4
100
AcDbEntity
  8
DIMENTION
 62
               0
100
AcDbMText
 10
490.05866667116379
 20
1784.3333333327359
 30
0.0
 40
33.866666666666667
 41
0.0
 71
               1
 72
               1
  1
18
  7
________
  0
POINT
  5
1B5
100
AcDbEntity
  8
DEFPOINTS
 62
               0
100
AcDbPoint
 10
585.39200000449728
 20
1824.500000003128
 30
0.0
  0
POINT
  5
1B6
100
AcDbEntity
  8
DEFPOINTS
 62
               0
100
AcDbPoint
 10
567.39200000449728
 20
1806.500000003128
 30
0.0
  0
POINT
  5
1B7
100
AcDbEntity
  8
DEFPOINTS
 62
               0
100
AcDbPoint
 10
567.39200000449728
 20
1741.000000003128
 30
0.0
  0
ENDBLK
  5
1B8
100
AcDbEntity
  8
DIMENTION
100
AcDbBlockEnd
  0
BLOCK
  5
1B9
100
AcDbEntity
  8
DIMENTION
100
AcDbBlockBegin
  2
*D18
 70
               1
 10
0.0
 20
0.0
 30
0.0
  3
*D18
  1

  0
LINE
  5
1BA
100
AcDbEntity
  8
DIMENTION
 62
               0
100
AcDbLine
 10
1783.392000004497
 20
1796.500000003128
 30
0.0
 11
1783.392000004497
 21
1721.000000003128
 31
0.0
  0
LINE
  5
1BB
100
AcDbEntity
  8
DIMENTION
 62
               0
100
AcDbLine
 10
1765.392000004497
 20
1814.500000003128
 30
0.0
 11
1765.392000004497
 21
1721.000000003128
 31
0.0
  0
LINE
  5
1BC
100
AcDbEntity
  8
DIMENTION
 62
               0
100
AcDbLine
 10
1765.392000004497
 20
1741.000000003128
 30
0.0
 11
1783.392000004497
 21
1741.000000003128
 31
0.0
  0
LINE
  5
1BD
100
AcDbEntity
  8
DIMENTION
 62
               0
100
AcDbLine
 10
1783.392000004497
 20
1741.000000003128
 30
0.0
 11
1864.6879333378304
 21
1741.000000003128
 31
0.0
  0
LINE
  5
1BE
100
AcDbEntity
  8
DIMENTION
 62
               0
100
AcDbLine
 10
1783.392000004497
 20
1741.000000003128
 30
0.0
 11
1805.1426103560595
 21
1746.828058481713
 31
0.0
  0
LINE
  5
1BF
100
AcDbEntity
  8
DIMENTION
 62
               0
100
AcDbLine
 10
1783.392000004497
 20
1741.000000003128
 30
0.0
 11
1805.1426103560595
 21
1735.1719415245427
 31
0.0
  0
LINE
  5
1C0
100
AcDbEntity
  8
DIMENTION
 62
               0
100
AcDbLine
 10
1765.392000004497
 20
1741.000000003128
 30
0.0
 11
1725.392000004497
 21
1741.000000003128
 31
0.0
  0
LINE
  5
1C1
100
AcDbEntity
  8
DIMENTION
 62
               0
100
AcDbLine
 10
1765.392000004497
 20
1741.000000003128
 30
0.0
 11
1743.6413896529345
 21
1735.1719415245427
 31
0.0
  0
LINE
  5
1C2
100
AcDbEntity
  8
DIMENTION
 62
               0
100
AcDbLine
 10
1765.392000004497
 20
1741.000000003128
 30
0.0
 11
1743.6413896529345
 21
1746.828058481713
 31
0.0
  0
MTEXT
  5
1C3
100
AcDbEntity
  8
DIMENTION
 62
               0
100
AcDbMText
 10
1822.3546000044971
 20
1784.3333333327359
 30
0.0
 40
33.866666666666667
 41
0.0
 71
               1
 72
               1
  1
18
  7
________
  0
POINT
  5
1C4
100
AcDbEntity
  8
DEFPOINTS
 62
               0
100
AcDbPoint
 10
1765.392000004497
 20
1824.500000003128
 30
0.0
  0
POINT
  5
1C5
100
AcDbEntity
  8
DEFPOINTS
 62
               0
100
AcDbPoint
 10
1783.392000004497
 20
1806.500000003128
 30
0.0
  0
POINT
  5
1C6
100
AcDbEntity
  8
DEFPOINTS
 62
               0
100
AcDbPoint
 10
1783.392000004497
 20
1741.000000003128
 30
0.0
  0
ENDBLK
  5
1C7
100
AcDbEntity
  8
DIMENTION
100
AcDbBlockEnd
  0
BLOCK
  5
1C8
100
AcDbEntity
  8
DIMENTION
100
AcDbBlockBegin
  2
*D19
 70
               1
 10
0.0
 20
0.0
 30
0.0
  3
*D19
  1

  0
LINE
  5
1C9
100
AcDbEntity
  8
DIMENTION
 62
               0
100
AcDbLine
 10
567.39200000449728
 20
1796.500000003128
 30
0.0
 11
567.39200000449728
 21
1672.000000003128
 31
0.0
  0
LINE
  5
1CA
100
AcDbEntity
  8
DIMENTION
 62
               0
100
AcDbLine
 10
1783.392000004497
 20
1796.500000003128
 30
0.0
 11
1783.392000004497
 21
1672.000000003128
 31
0.0
  0
LINE
  5
1CB
100
AcDbEntity
  8
DIMENTION
 62
               0
100
AcDbLine
 10
567.39200000449728
 20
1692.000000003128
 30
0.0
 11
1783.392000004497
 21
1692.000000003128
 31
0.0
  0
LINE
  5
1CC
100
AcDbEntity
  8
DIMENTION
 62
               0
100
AcDbLine
 10
567.39200000449728
 20
1692.000000003128
 30
0.0
 11
589.14261035605978
 21
1697.828058481713
 31
0.0
  0
LINE
  5
1CD
100
AcDbEntity
  8
DIMENTION
 62
               0
100
AcDbLine
 10
567.39200000449728
 20
1692.000000003128
 30
0.0
 11
589.14261035605978
 21
1686.1719415245427
 31
0.0
  0
LINE
  5
1CE
100
AcDbEntity
  8
DIMENTION
 62
               0
100
AcDbLine
 10
1783.392000004497
 20
1692.000000003128
 30
0.0
 11
1761.6413896529345
 21
1686.1719415245427
 31
0.0
  0
LINE
  5
1CF
100
AcDbEntity
  8
DIMENTION
 62
               0
100
AcDbLine
 10
1783.392000004497
 20
1692.000000003128
 30
0.0
 11
1761.6413896529345
 21
1697.828058481713
 31
0.0
  0
MTEXT
  5
1D0
100
AcDbEntity
  8
DIMENTION
 62
               0
100
AcDbMText
 10
1136.0645260461638
 20
1735.3333333327359
 30
0.0
 40
33.866666666666667
 41
0.0
 71
               1
 72
               1
  1
1216
  7
________
  0
POINT
  5
1D1
100
AcDbEntity
  8
DEFPOINTS
 62
               0
100
AcDbPoint
 10
1783.392000004497
 20
1806.500000003128
 30
0.0
  0
POINT
  5
1D2
100
AcDbEntity
  8
DEFPOINTS
 62
               0
100
AcDbPoint
 10
567.39200000449728
 20
1806.500000003128
 30
0.0
  0
POINT
  5
1D3
100
AcDbEntity
  8
DEFPOINTS
 62
               0
100
AcDbPoint
 10
567.39200000449728
 20
1692.000000003128
 30
0.0
  0
ENDBLK
  5
1D4
100
AcDbEntity
  8
DIMENTION
100
AcDbBlockEnd
  0
BLOCK
  5
1D5
100
AcDbEntity
  8
DIMENTION
100
AcDbBlockBegin
  2
*D20
 70
               1
 10
0.0
 20
0.0
 30
0.0
  3
*D20
  1

  0
LINE
  5
1D6
100
AcDbEntity
  8
DIMENTION
 62
               0
100
AcDbLine
 10
425.39200000449728
 20
2215.0000000031278
 30
0.0
 11
425.39200000449728
 21
2290.0000000031278
 31
0.0
  0
LINE
  5
1D7
100
AcDbEntity
  8
DIMENTION
 62
               0
100
AcDbLine
 10
585.39200000449728
 20
2215.0000000031278
 30
0.0
 11
585.39200000449728
 21
2290.0000000031278
 31
0.0
  0
LINE
  5
1D8
100
AcDbEntity
  8
DIMENTION
 62
               0
100
AcDbLine
 10
425.39200000449728
 20
2270.0000000031278
 30
0.0
 11
585.39200000449728
 21
2270.0000000031278
 31
0.0
  0
LINE
  5
1D9
100
AcDbEntity
  8
DIMENTION
 62
               0
100
AcDbLine
 10
425.39200000449728
 20
2270.0000000031278
 30
0.0
 11
447.14261035605978
 21
2275.828058481713
 31
0.0
  0
LINE
  5
1DA
100
AcDbEntity
  8
DIMENTION
 62
               0
100
AcDbLine
 10
425.39200000449728
 20
2270.0000000031278
 30
0.0
 11
447.14261035605978
 21
2264.1719415245425
 31
0.0
  0
LINE
  5
1DB
100
AcDbEntity
  8
DIMENTION
 62
               0
100
AcDbLine
 10
585.39200000449728
 20
2270.0000000031278
 30
0.0
 11
563.64138965293478
 21
2264.1719415245425
 31
0.0
  0
LINE
  5
1DC
100
AcDbEntity
  8
DIMENTION
 62
               0
100
AcDbLine
 10
585.39200000449728
 20
2270.0000000031278
 30
0.0
 11
563.64138965293478
 21
2275.828058481713
 31
0.0
  0
MTEXT
  5
1DD
100
AcDbEntity
  8
DIMENTION
 62
               0
100
AcDbMText
 10
473.64200000449728
 20
2313.3333333327359
 30
0.0
 40
33.866666666666667
 41
0.0
 71
               1
 72
               1
  1
160
  7
________
  0
POINT
  5
1DE
100
AcDbEntity
  8
DEFPOINTS
 62
               0
100
AcDbPoint
 10
585.39200000449728
 20
2205.0000000031278
 30
0.0
  0
POINT
  5
1DF
100
AcDbEntity
  8
DEFPOINTS
 62
               0
100
AcDbPoint
 10
425.39200000449728
 20
2205.0000000031278
 30
0.0
  0
POINT
  5
1E0
100
AcDbEntity
  8
DEFPOINTS
 62
               0
100
AcDbPoint
 10
425.39200000449728
 20
2270.0000000031278
 30
0.0
  0
ENDBLK
  5
1E1
100
AcDbEntity
  8
DIMENTION
100
AcDbBlockEnd
  0
BLOCK
  5
1E2
100
AcDbEntity
  8
DIMENTION
100
AcDbBlockBegin
  2
*D21
 70
               1
 10
0.0
 20
0.0
 30
0.0
  3
*D21
  1

  0
LINE
  5
1E3
100
AcDbEntity
  8
DIMENTION
 62
               0
100
AcDbLine
 10
415.39200000449728
 20
2125.0000000031278
 30
0.0
 11
355.39200000449728
 21
2125.0000000031278
 31
0.0
  0
LINE
  5
1E4
100
AcDbEntity
  8
DIMENTION
 62
               0
100
AcDbLine
 10
415.39200000449728
 20
2205.0000000031278
 30
0.0
 11
355.39200000449728
 21
2205.0000000031278
 31
0.0
  0
LINE
  5
1E5
100
AcDbEntity
  8
DIMENTION
 62
               0
100
AcDbLine
 10
375.39200000449728
 20
2125.0000000031278
 30
0.0
 11
375.39200000449728
 21
2205.0000000031278
 31
0.0
  0
LINE
  5
1E6
100
AcDbEntity
  8
DIMENTION
 62
               0
100
AcDbLine
 10
375.39200000449728
 20
2125.0000000031278
 30
0.0
 11
369.56394152591201
 21
2146.7506103546903
 31
0.0
  0
LINE
  5
1E7
100
AcDbEntity
  8
DIMENTION
 62
               0
100
AcDbLine
 10
375.39200000449728
 20
2125.0000000031278
 30
0.0
 11
381.22005848308254
 21
2146.7506103546903
 31
0.0
  0
LINE
  5
1E8
100
AcDbEntity
  8
DIMENTION
 62
               0
100
AcDbLine
 10
375.39200000449728
 20
2205.0000000031278
 30
0.0
 11
381.22005848308254
 21
2183.2493896515653
 31
0.0
  0
LINE
  5
1E9
100
AcDbEntity
  8
DIMENTION
 62
               0
100
AcDbLine
 10
375.39200000449728
 20
2205.0000000031278
 30
0.0
 11
369.56394152591201
 21
2183.2493896515653
 31
0.0
  0
MTEXT
  5
1EA
100
AcDbEntity
  8
DIMENTION
 62
               0
100
AcDbMText
 10
332.05866667488908
 20
2143.8333333364612
 30
0.0
 40
33.866666666666667
 41
0.0
 71
               1
 72
               1
  1
80
  7
________
 11
0.0
 21
1.0
 31
0.0
  0
POINT
  5
1EB
100
AcDbEntity
  8
DEFPOINTS
 62
               0
100
AcDbPoint
 10
425.39200000449728
 20
2205.0000000031278
 30
0.0
  0
POINT
  5
1EC
100
AcDbEntity
  8
DEFPOINTS
 62
               0
100
AcDbPoint
 10
425.39200000449728
 20
2125.0000000031278
 30
0.0
  0
POINT
  5
1ED
100
AcDbEntity
  8
DEFPOINTS
 62
               0
100
AcDbPoint
 10
375.39200000449728
 20
2125.0000000031278
 30
0.0
  0
ENDBLK
  5
1EE
100
AcDbEntity
  8
DIMENTION
100
AcDbBlockEnd
  0
BLOCK
  5
1EF
100
AcDbEntity
  8
DIMENTION
100
AcDbBlockBegin
  2
*D22
 70
               1
 10
0.0
 20
0.0
 30
0.0
  3
*D22
  1

  0
LINE
  5
1F0
100
AcDbEntity
  8
DIMENTION
 62
               0
100
AcDbLine
 10
2633.3920000044973
 20
1540.000000003128
 30
0.0
 11
2633.3920000044973
 21
1650.000000003128
 31
0.0
  0
LINE
  5
1F1
100
AcDbEntity
  8
DIMENTION
 62
               0
100
AcDbLine
 10
2950.3920000044973
 20
1540.000000003128
 30
0.0
 11
2950.3920000044973
 21
1650.000000003128
 31
0.0
  0
LINE
  5
1F2
100
AcDbEntity
  8
DIMENTION
 62
               0
100
AcDbLine
 10
2633.3920000044973
 20
1630.000000003128
 30
0.0
 11
2950.3920000044973
 21
1630.000000003128
 31
0.0
  0
LINE
  5
1F3
100
AcDbEntity
  8
DIMENTION
 62
               0
100
AcDbLine
 10
2633.3920000044973
 20
1630.000000003128
 30
0.0
 11
2655.1426103560598
 21
1635.8280584817132
 31
0.0
  0
LINE
  5
1F4
100
AcDbEntity
  8
DIMENTION
 62
               0
100
AcDbLine
 10
2633.3920000044973
 20
1630.000000003128
 30
0.0
 11
2655.1426103560598
 21
1624.1719415245427
 31
0.0
  0
LINE
  5
1F5
100
AcDbEntity
  8
DIMENTION
 62
               0
100
AcDbLine
 10
2950.3920000044973
 20
1630.000000003128
 30
0.0
 11
2928.6413896529348
 21
1624.1719415245427
 31
0.0
  0
LINE
  5
1F6
100
AcDbEntity
  8
DIMENTION
 62
               0
100
AcDbLine
 10
2950.3920000044973
 20
1630.000000003128
 30
0.0
 11
2928.6413896529348
 21
1635.8280584817132
 31
0.0
  0
MTEXT
  5
1F7
100
AcDbEntity
  8
DIMENTION
 62
               0
100
AcDbMText
 10
2760.1420000044973
 20
1673.3333333327359
 30
0.0
 40
33.866666666666667
 41
0.0
 71
               1
 72
               1
  1
317
  7
________
  0
POINT
  5
1F8
100
AcDbEntity
  8
DEFPOINTS
 62
               0
100
AcDbPoint
 10
2950.3920000044973
 20
1530.000000003128
 30
0.0
  0
POINT
  5
1F9
100
AcDbEntity
  8
DEFPOINTS
 62
               0
100
AcDbPoint
 10
2633.3920000044973
 20
1530.000000003128
 30
0.0
  0
POINT
  5
1FA
100
AcDbEntity
  8
DEFPOINTS
 62
               0
100
AcDbPoint
 10
2633.3920000044973
 20
1630.000000003128
 30
0.0
  0
ENDBLK
  5
1FB
100
AcDbEntity
  8
DIMENTION
100
AcDbBlockEnd
  0
BLOCK
  5
1FC
100
AcDbEntity
  8
DIMENTION
100
AcDbBlockBegin
  2
*D23
 70
               1
 10
0.0
 20
0.0
 30
0.0
  3
*D23
  1

  0
LINE
  5
1FD
100
AcDbEntity
  8
DIMENTION
 62
               0
100
AcDbLine
 10
3278.3920000044973
 20
1540.000000003128
 30
0.0
 11
3278.3920000044973
 21
1650.000000003128
 31
0.0
  0
LINE
  5
1FE
100
AcDbEntity
  8
DIMENTION
 62
               0
100
AcDbLine
 10
2950.3920000044973
 20
1540.000000003128
 30
0.0
 11
2950.3920000044973
 21
1650.000000003128
 31
0.0
  0
LINE
  5
1FF
100
AcDbEntity
  8
DIMENTION
 62
               0
100
AcDbLine
 10
3278.3920000044973
 20
1630.000000003128
 30
0.0
 11
2950.3920000044973
 21
1630.000000003128
 31
0.0
  0
LINE
  5
200
100
AcDbEntity
  8
DIMENTION
 62
               0
100
AcDbLine
 10
3278.3920000044973
 20
1630.000000003128
 30
0.0
 11
3256.6413896529348
 21
1624.1719415245427
 31
0.0
  0
LINE
  5
201
100
AcDbEntity
  8
DIMENTION
 62
               0
100
AcDbLine
 10
3278.3920000044973
 20
1630.000000003128
 30
0.0
 11
3256.6413896529348
 21
1635.8280584817132
 31
0.0
  0
LINE
  5
202
100
AcDbEntity
  8
DIMENTION
 62
               0
100
AcDbLine
 10
2950.3920000044973
 20
1630.000000003128
 30
0.0
 11
2972.1426103560598
 21
1635.8280584817132
 31
0.0
  0
LINE
  5
203
100
AcDbEntity
  8
DIMENTION
 62
               0
100
AcDbLine
 10
2950.3920000044973
 20
1630.000000003128
 30
0.0
 11
2972.1426103560598
 21
1624.1719415245427
 31
0.0
  0
MTEXT
  5
204
100
AcDbEntity
  8
DIMENTION
 62
               0
100
AcDbMText
 10
3082.6420000044973
 20
1673.3333333327359
 30
0.0
 40
33.866666666666667
 41
0.0
 71
               1
 72
               1
  1
328
  7
________
  0
POINT
  5
205
100
AcDbEntity
  8
DEFPOINTS
 62
               0
100
AcDbPoint
 10
2950.3920000044973
 20
1530.000000003128
 30
0.0
  0
POINT
  5
206
100
AcDbEntity
  8
DEFPOINTS
 62
               0
100
AcDbPoint
 10
3278.3920000044973
 20
1530.000000003128
 30
0.0
  0
POINT
  5
207
100
AcDbEntity
  8
DEFPOINTS
 62
               0
100
AcDbPoint
 10
3278.3920000044973
 20
1630.000000003128
 30
0.0
  0
ENDBLK
  5
208
100
AcDbEntity
  8
DIMENTION
100
AcDbBlockEnd
  0
BLOCK
  5
209
100
AcDbEntity
  8
DIMENTION
100
AcDbBlockBegin
  2
*D24
 70
               1
 10
0.0
 20
0.0
 30
0.0
  3
*D24
  1

  0
LINE
  5
20A
100
AcDbEntity
  8
DIMENTION
 62
               0
100
AcDbLine
 10
1615.392000004497
 20
1912.000000003128
 30
0.0
 11
1690.392000004497
 21
1912.000000003128
 31
0.0
  0
LINE
  5
20B
100
AcDbEntity
  8
DIMENTION
 62
               0
100
AcDbLine
 10
1615.392000004497
 20
2418.0000000031278
 30
0.0
 11
1690.392000004497
 21
2418.0000000031278
 31
0.0
  0
LINE
  5
20C
100
AcDbEntity
  8
DIMENTION
 62
               0
100
AcDbLine
 10
1670.392000004497
 20
1912.000000003128
 30
0.0
 11
1670.392000004497
 21
2418.0000000031278
 31
0.0
  0
LINE
  5
20D
100
AcDbEntity
  8
DIMENTION
 62
               0
100
AcDbLine
 10
1670.392000004497
 20
1912.000000003128
 30
0.0
 11
1664.563941525912
 21
1933.7506103546905
 31
0.0
  0
LINE
  5
20E
100
AcDbEntity
  8
DIMENTION
 62
               0
100
AcDbLine
 10
1670.392000004497
 20
1912.000000003128
 30
0.0
 11
1676.2200584830823
 21
1933.7506103546905
 31
0.0
  0
LINE
  5
20F
100
AcDbEntity
  8
DIMENTION
 62
               0
100
AcDbLine
 10
1670.392000004497
 20
2418.0000000031278
 30
0.0
 11
1676.2200584830823
 21
2396.2493896515653
 31
0.0
  0
LINE
  5
210
100
AcDbEntity
  8
DIMENTION
 62
               0
100
AcDbLine
 10
1670.392000004497
 20
2418.0000000031278
 30
0.0
 11
1664.563941525912
 21
2396.2493896515653
 31
0.0
  0
MTEXT
  5
211
100
AcDbEntity
  8
DIMENTION
 62
               0
100
AcDbMText
 10
1627.0586666748891
 20
2095.2474975617215
 30
0.0
 40
33.866666666666667
 41
0.0
 71
               1
 72
               1
  1
506
  7
________
 11
0.0
 21
1.0
 31
0.0
  0
POINT
  5
212
100
AcDbEntity
  8
DEFPOINTS
 62
               0
100
AcDbPoint
 10
1605.392000004497
 20
2418.0000000031278
 30
0.0
  0
POINT
  5
213
100
AcDbEntity
  8
DEFPOINTS
 62
               0
100
AcDbPoint
 10
1605.392000004497
 20
1912.000000003128
 30
0.0
  0
POINT
  5
214
100
AcDbEntity
  8
DEFPOINTS
 62
               0
100
AcDbPoint
 10
1670.392000004497
 20
1912.000000003128
 30
0.0
  0
ENDBLK
  5
215
100
AcDbEntity
  8
DIMENTION
100
AcDbBlockEnd
  0
BLOCK
  5
216
100
AcDbEntity
  8
DIMENTION
100
AcDbBlockBegin
  2
*D25
 70
               1
 10
0.0
 20
0.0
 30
0.0
  3
*D25
  1

  0
LINE
  5
217
100
AcDbEntity
  8
DIMENTION
 62
               0
100
AcDbLine
 10
1527.392000004497
 20
2495.0000000031278
 30
0.0
 11
1339.3920000044973
 21
2495.0000000031278
 31
0.0
  0
LINE
  5
218
100
AcDbEntity
  8
DIMENTION
 62
               0
100
AcDbLine
 10
1527.392000004497
 20
2565.0000000031278
 30
0.0
 11
1339.3920000044973
 21
2565.0000000031278
 31
0.0
  0
LINE
  5
219
100
AcDbEntity
  8
DIMENTION
 62
               0
100
AcDbLine
 10
1359.3920000044973
 20
2495.0000000031278
 30
0.0
 11
1359.3920000044973
 21
2565.0000000031278
 31
0.0
  0
LINE
  5
21A
100
AcDbEntity
  8
DIMENTION
 62
               0
100
AcDbLine
 10
1359.3920000044973
 20
2495.0000000031278
 30
0.0
 11
1353.563941525912
 21
2516.7506103546903
 31
0.0
  0
LINE
  5
21B
100
AcDbEntity
  8
DIMENTION
 62
               0
100
AcDbLine
 10
1359.3920000044973
 20
2495.0000000031278
 30
0.0
 11
1365.2200584830823
 21
2516.7506103546903
 31
0.0
  0
LINE
  5
21C
100
AcDbEntity
  8
DIMENTION
 62
               0
100
AcDbLine
 10
1359.3920000044973
 20
2565.0000000031278
 30
0.0
 11
1365.2200584830823
 21
2543.2493896515653
 31
0.0
  0
LINE
  5
21D
100
AcDbEntity
  8
DIMENTION
 62
               0
100
AcDbLine
 10
1359.3920000044973
 20
2565.0000000031278
 30
0.0
 11
1353.563941525912
 21
2543.2493896515653
 31
0.0
  0
MTEXT
  5
21E
100
AcDbEntity
  8
DIMENTION
 62
               0
100
AcDbMText
 10
1316.0586666748891
 20
2508.8333333364612
 30
0.0
 40
33.866666666666667
 41
0.0
 71
               1
 72
               1
  1
70
  7
________
 11
0.0
 21
1.0
 31
0.0
  0
POINT
  5
21F
100
AcDbEntity
  8
DEFPOINTS
 62
               0
100
AcDbPoint
 10
1537.392000004497
 20
2565.0000000031278
 30
0.0
  0
POINT
  5
220
100
AcDbEntity
  8
DEFPOINTS
 62
               0
100
AcDbPoint
 10
1537.392000004497
 20
2495.0000000031278
 30
0.0
  0
POINT
  5
221
100
AcDbEntity
  8
DEFPOINTS
 62
               0
100
AcDbPoint
 10
1359.3920000044973
 20
2495.0000000031278
 30
0.0
  0
ENDBLK
  5
222
100
AcDbEntity
  8
DIMENTION
100
AcDbBlockEnd
  0
BLOCK
  5
223
100
AcDbEntity
  8
DIMENTION
100
AcDbBlockBegin
  2
*D26
 70
               1
 10
0.0
 20
0.0
 30
0.0
  3
*D26
  1

  0
LINE
  5
224
100
AcDbEntity
  8
DIMENTION
 62
               0
100
AcDbLine
 10
1527.392000004497
 20
2565.0000000031278
 30
0.0
 11
1339.3920000044973
 21
2565.0000000031278
 31
0.0
  0
LINE
  5
225
100
AcDbEntity
  8
DIMENTION
 62
               0
100
AcDbLine
 10
1565.392000004497
 20
2575.0000000031278
 30
0.0
 11
1339.3920000044973
 21
2575.0000000031278
 31
0.0
  0
LINE
  5
226
100
AcDbEntity
  8
DIMENTION
 62
               0
100
AcDbLine
 10
1359.3920000044973
 20
2575.0000000031278
 30
0.0
 11
1359.3920000044973
 21
2565.0000000031278
 31
0.0
  0
LINE
  5
227
100
AcDbEntity
  8
DIMENTION
 62
               0
100
AcDbLine
 10
1359.3920000044973
 20
2565.0000000031278
 30
0.0
 11
1359.3920000044973
 21
2525.0000000031278
 31
0.0
  0
LINE
  5
228
100
AcDbEntity
  8
DIMENTION
 62
               0
100
AcDbLine
 10
1359.3920000044973
 20
2565.0000000031278
 30
0.0
 11
1365.2200584830823
 21
2543.2493896515653
 31
0.0
  0
LINE
  5
229
100
AcDbEntity
  8
DIMENTION
 62
               0
100
AcDbLine
 10
1359.3920000044973
 20
2565.0000000031278
 30
0.0
 11
1353.563941525912
 21
2543.2493896515653
 31
0.0
  0
LINE
  5
22A
100
AcDbEntity
  8
DIMENTION
 62
               0
100
AcDbLine
 10
1359.3920000044973
 20
2575.0000000031278
 30
0.0
 11
1359.3920000044973
 21
2640.2733333364613
 31
0.0
  0
LINE
  5
22B
100
AcDbEntity
  8
DIMENTION
 62
               0
100
AcDbLine
 10
1359.3920000044973
 20
2575.0000000031278
 30
0.0
 11
1353.563941525912
 21
2596.7506103546903
 31
0.0
  0
LINE
  5
22C
100
AcDbEntity
  8
DIMENTION
 62
               0
100
AcDbLine
 10
1359.3920000044973
 20
2575.0000000031278
 30
0.0
 11
1365.2200584830823
 21
2596.7506103546903
 31
0.0
  0
MTEXT
  5
22D
100
AcDbEntity
  8
DIMENTION
 62
               0
100
AcDbMText
 10
1316.0586666748891
 20
2597.9400000031278
 30
0.0
 40
33.866666666666667
 41
0.0
 71
               1
 72
               1
  1
10
  7
________
 11
0.0
 21
1.0
 31
0.0
  0
POINT
  5
22E
100
AcDbEntity
  8
DEFPOINTS
 62
               0
100
AcDbPoint
 10
1575.392000004497
 20
2575.0000000031278
 30
0.0
  0
POINT
  5
22F
100
AcDbEntity
  8
DEFPOINTS
 62
               0
100
AcDbPoint
 10
1537.392000004497
 20
2565.0000000031278
 30
0.0
  0
POINT
  5
230
100
AcDbEntity
  8
DEFPOINTS
 62
               0
100
AcDbPoint
 10
1359.3920000044973
 20
2565.0000000031278
 30
0.0
  0
ENDBLK
  5
231
100
AcDbEntity
  8
DIMENTION
100
AcDbBlockEnd
  0
BLOCK
  5
232
100
AcDbEntity
  8
OBJECT
100
AcDbBlockBegin
  2
*U27
 70
               1
 10
0.0
 20
0.0
 30
0.0
  3
*U27
  1

  0
LINE
  5
233
100
AcDbEntity
  8
OBJECT
 62
               0
100
AcDbLine
 10
-260.00799999999998
 20
-534.0
 30
0.0
 11
-260.00799999999998
 21
-564.0
 31
0.0
  0
LINE
  5
234
100
AcDbEntity
  8
OBJECT
 62
               0
100
AcDbLine
 10
-260.00799999999998
 20
-534.0
 30
0.0
 11
-255.00799999999998
 21
-534.0
 31
0.0
  0
LINE
  5
235
100
AcDbEntity
  8
OBJECT
 62
               0
100
AcDbLine
 10
-255.00799999999998
 20
-534.0
 30
0.0
 11
-255.00799999999998
 21
-559.0
 31
0.0
  0
LINE
  5
236
100
AcDbEntity
  8
OBJECT
 62
               0
100
AcDbLine
 10
-260.00799999999998
 20
-564.0
 30
0.0
 11
-255.00799999999998
 21
-564.0
 31
0.0
  0
LINE
  5
237
100
AcDbEntity
  8
OBJECT
 62
               0
100
AcDbLine
 10
-255.00799999999998
 20
-559.0
 30
0.0
 11
-250.00799999999998
 21
-559.0
 31
0.0
  0
LINE
  5
238
100
AcDbEntity
  8
OBJECT
 62
               0
100
AcDbLine
 10
-250.00799999999998
 20
-559.0
 30
0.0
 11
-250.00799999999998
 21
-579.0
 31
0.0
  0
LINE
  5
239
100
AcDbEntity
  8
OBJECT
 62
               0
100
AcDbLine
 10
-250.00799999999998
 20
-579.0
 30
0.0
 11
-255.00799999999998
 21
-579.0
 31
0.0
  0
LINE
  5
23A
100
AcDbEntity
  8
OBJECT
 62
               0
100
AcDbLine
 10
-255.00799999999998
 20
-579.0
 30
0.0
 11
-255.00799999999998
 21
-564.0
 31
0.0
  0
ENDBLK
  5
23B
100
AcDbEntity
  8
OBJECT
100
AcDbBlockEnd
  0
BLOCK
  5
23C
100
AcDbEntity
  8
OBJECT
100
AcDbBlockBegin
  2
*U28
 70
               1
 10
0.0
 20
0.0
 30
0.0
  3
*U28
  1

  0
INSERT
  5
23D
100
AcDbEntity
  8
OBJECT
 62
               0
100
AcDbBlockReference
  2
*U27
 10
0.0
 20
0.0
 30
0.0
  0
ENDBLK
  5
23E
100
AcDbEntity
  8
OBJECT
100
AcDbBlockEnd
  0
BLOCK
  5
23F
100
AcDbEntity
  8
OBJECT
100
AcDbBlockBegin
  2
*U29
 70
               1
 10
0.0
 20
0.0
 30
0.0
  3
*U29
  1

  0
LINE
  5
240
100
AcDbEntity
  8
OBJECT
 62
               0
100
AcDbLine
 10
1127.9920999999999
 20
-644.0
 30
0.0
 11
1127.9920999999999
 21
-728.99999999999989
 31
0.0
  0
LINE
  5
241
100
AcDbEntity
  8
OBJECT
 62
               0
100
AcDbLine
 10
1101.9919
 20
-644.0
 30
0.0
 11
1101.9919
 21
-728.99999999999989
 31
0.0
  0
ENDBLK
  5
242
100
AcDbEntity
  8
OBJECT
100
AcDbBlockEnd
  0
BLOCK
  5
243
100
AcDbEntity
  8
OBJECT
100
AcDbBlockBegin
  2
*U30
 70
               1
 10
0.0
 20
0.0
 30
0.0
  3
*U30
  1

  0
INSERT
  5
244
100
AcDbEntity
  8
OBJECT
 62
               0
100
AcDbBlockReference
  2
*U29
 10
0.0
 20
0.0
 30
0.0
  0
LINE
  5
245
100
AcDbEntity
  8
OBJECT
 62
               0
100
AcDbLine
 10
1101.9919
 20
-728.99999999999989
 30
0.0
 11
1127.9920999999999
 21
-728.99999999999989
 31
0.0
  0
ARC
  5
246
100
AcDbEntity
  8
OBJECT
 62
               0
100
AcDbCircle
 10
1114.992
 20
-644.0
 30
0.0
 40
13.000099999999975
100
AcDbArc
 50
0.0
 51
180.0
  0
ARC
  5
247
100
AcDbEntity
  8
OBJECT
 62
               0
100
AcDbCircle
 10
1114.992
 20
-644.0
 30
0.0
 40
20.000001049249914
100
AcDbArc
 50
310.54197628204292
 51
229.45802371795708
  0
ENDBLK
  5
248
100
AcDbEntity
  8
OBJECT
100
AcDbBlockEnd
  0
BLOCK
  5
249
100
AcDbEntity
  8
OBJECT
100
AcDbBlockBegin
  2
*U31
 70
               1
 10
0.0
 20
0.0
 30
0.0
  3
*U31
  1

  0
LINE
  5
24A
100
AcDbEntity
  8
OBJECT
 62
               0
100
AcDbLine
 10
-47.507999999999996
 20
-1119.0
 30
0.0
 11
-47.507999999999996
 21
-1129.0
 31
0.0
  0
LINE
  5
24B
100
AcDbEntity
  8
OBJECT
 62
               0
100
AcDbLine
 10
-62.507999999999996
 20
-1119.0
 30
0.0
 11
-62.507999999999996
 21
-1129.0
 31
0.0
  0
ENDBLK
  5
24C
100
AcDbEntity
  8
OBJECT
100
AcDbBlockEnd
  0
BLOCK
  5
24D
100
AcDbEntity
  8
OBJECT
100
AcDbBlockBegin
  2
*U32
 70
               1
 10
0.0
 20
0.0
 30
0.0
  3
*U32
  1

  0
LINE
  5
24E
100
AcDbEntity
  8
OBJECT
 62
               0
100
AcDbLine
 10
842.49199999999996
 20
-1119.0
 30
0.0
 11
842.49199999999996
 21
-1129.0
 31
0.0
  0
LINE
  5
24F
100
AcDbEntity
  8
OBJECT
 62
               0
100
AcDbLine
 10
827.49199999999996
 20
-1119.0
 30
0.0
 11
827.49199999999996
 21
-1129.0
 31
0.0
  0
ENDBLK
  5
250
100
AcDbEntity
  8
OBJECT
100
AcDbBlockEnd
  0
BLOCK
  5
251
100
AcDbEntity
  8
CENTER
100
AcDbBlockBegin
  2
*U33
 70
               1
 10
0.0
 20
0.0
 30
0.0
  3
*U33
  1

  0
LINE
  5
252
100
AcDbEntity
  8
CENTER
 62
               0
100
AcDbLine
 10
-83.007999999999996
 20
665.99999999999989
 30
0.0
 11
-33.007999999999996
 21
665.99999999999989
 31
0.0
  0
LINE
  5
253
100
AcDbEntity
  8
CENTER
 62
               0
100
AcDbLine
 10
-58.007999999999996
 20
640.99999999999989
 30
0.0
 11
-58.007999999999996
 21
690.99999999999989
 31
0.0
  0
ENDBLK
  5
254
100
AcDbEntity
  8
CENTER
100
AcDbBlockEnd
  0
BLOCK
  5
255
100
AcDbEntity
  8
CENTER
100
AcDbBlockBegin
  2
*U34
 70
               1
 10
0.0
 20
0.0
 30
0.0
  3
*U34
  1

  0
LINE
  5
256
100
AcDbEntity
  8
CENTER
 62
               0
100
AcDbLine
 10
-83.007999999999996
 20
576.0
 30
0.0
 11
-33.007999999999996
 21
576.0
 31
0.0
  0
LINE
  5
257
100
AcDbEntity
  8
CENTER
 62
               0
100
AcDbLine
 10
-58.007999999999996
 20
551.0
 30
0.0
 11
-58.007999999999996
 21
601.0
 31
0.0
  0
ENDBLK
  5
258
100
AcDbEntity
  8
CENTER
100
AcDbBlockEnd
  0
BLOCK
  5
259
100
AcDbEntity
  8
OBJECT
100
AcDbBlockBegin
  2
*U35
 70
               1
 10
0.0
 20
0.0
 30
0.0
  3
*U35
  1

  0
POLYLINE
  5
25A
100
AcDbEntity
  8
OBJECT
 62
               0
100
AcDb2dPolyline
 66
               1
 10
0.0
 20
0.0
 30
0.0
 70
               1
 75
               5
  0
VERTEX
  5
25B
100
AcDbEntity
  8
OBJECT
 62
               0
100
AcDbVertex
100
AcDb2dVertex
 10
-488.39999999999998
 20
1156.0
 30
0.0
  0
VERTEX
  5
25C
100
AcDbEntity
  8
OBJECT
 62
               0
100
AcDbVertex
100
AcDb2dVertex
 10
-312.39999999999998
 20
1156.0
 30
0.0
  0
VERTEX
  5
25D
100
AcDbEntity
  8
OBJECT
 62
               0
100
AcDbVertex
100
AcDb2dVertex
 10
-312.39999999999998
 20
1086.0
 30
0.0
  0
VERTEX
  5
25E
100
AcDbEntity
  8
OBJECT
 62
               0
100
AcDbVertex
100
AcDb2dVertex
 10
-488.39999999999998
 20
1086.0
 30
0.0
  0
SEQEND
  5
25F
100
AcDbEntity
  8
OBJECT
 62
               0
  0
LINE
  5
260
100
AcDbEntity
  8
OBJECT
 62
               0
100
AcDbLine
 10
-488.39999999999998
 20
1156.0
 30
0.0
 11
-312.39999999999998
 21
1086.0
 31
0.0
  0
LINE
  5
261
100
AcDbEntity
  8
OBJECT
 62
               0
100
AcDbLine
 10
-312.39999999999998
 20
1156.0
 30
0.0
 11
-488.39999999999998
 21
1086.0
 31
0.0
  0
ENDBLK
  5
262
100
AcDbEntity
  8
OBJECT
100
AcDbBlockEnd
  0
BLOCK
  5
263
100
AcDbEntity
  8
OBJECT
100
AcDbBlockBegin
  2
*U36
 70
               1
 10
0.0
 20
0.0
 30
0.0
  3
*U36
  1

  0
ARC
  5
264
100
AcDbEntity
  8
OBJECT
 62
               0
100
AcDbCircle
 10
-24.007999999999999
 20
-669.99999999999989
 30
0.0
 40
44.0
100
AcDbArc
 50
0.0
 51
90.0
  0
LINE
  5
265
100
AcDbEntity
  8
OBJECT
 62
               0
100
AcDbLine
 10
19.991999999999997
 20
-669.99999999999989
 30
0.0
 11
19.991999999999997
 21
-725.99999999999989
 31
0.0
  0
ARC
  5
266
100
AcDbEntity
  8
OBJECT
 62
               0
100
AcDbCircle
 10
-24.007999999999999
 20
-669.99999999999989
 30
0.0
 40
18.0
100
AcDbArc
 50
0.0
 51
90.0
  0
LINE
  5
267
100
AcDbEntity
  8
OBJECT
 62
               0
100
AcDbLine
 10
-6.0079999999999991
 20
-669.99999999999989
 30
0.0
 11
-6.0079999999999991
 21
-725.99999999999989
 31
0.0
  0
LINE
  5
268
100
AcDbEntity
  8
OBJECT
 62
               0
100
AcDbLine
 10
19.991999999999997
 20
-725.99999999999989
 30
0.0
 11
-6.0079999999999991
 21
-725.99999999999989
 31
0.0
  0
ENDBLK
  5
269
100
AcDbEntity
  8
OBJECT
100
AcDbBlockEnd
  0
BLOCK
  5
26A
100
AcDbEntity
  8
OBJECT
100
AcDbBlockBegin
  2
*U37
 70
               1
 10
0.0
 20
0.0
 30
0.0
  3
*U37
  1

  0
LINE
  5
26B
100
AcDbEntity
  8
OBJECT
 62
               0
100
AcDbLine
 10
1324.992
 20
-458.99999999999994
 30
0.0
 11
1324.992
 21
-478.99999999999994
 31
0.0
  0
LINE
  5
26C
100
AcDbEntity
  8
OBJECT
 62
               0
100
AcDbLine
 10
1324.992
 20
-458.99999999999994
 30
0.0
 11
1329.992
 21
-458.99999999999994
 31
0.0
  0
LINE
  5
26D
100
AcDbEntity
  8
OBJECT
 62
               0
100
AcDbLine
 10
1324.992
 20
-478.99999999999994
 30
0.0
 11
1334.992
 21
-478.99999999999994
 31
0.0
  0
LINE
  5
26E
100
AcDbEntity
  8
OBJECT
 62
               0
100
AcDbLine
 10
1329.992
 20
-458.99999999999994
 30
0.0
 11
1329.992
 21
-473.99999999999994
 31
0.0
  0
LINE
  5
26F
100
AcDbEntity
  8
OBJECT
 62
               0
100
AcDbLine
 10
1334.992
 20
-478.99999999999994
 30
0.0
 11
1334.992
 21
-473.99999999999994
 31
0.0
  0
LINE
  5
270
100
AcDbEntity
  8
OBJECT
 62
               0
100
AcDbLine
 10
1334.992
 20
-473.99999999999994
 30
0.0
 11
1329.992
 21
-473.99999999999994
 31
0.0
  0
ENDBLK
  5
271
100
AcDbEntity
  8
OBJECT
100
AcDbBlockEnd
  0
BLOCK
  5
272
100
AcDbEntity
  8
DIMENTION
100
AcDbBlockBegin
  2
*D38
 70
               1
 10
0.0
 20
0.0
 30
0.0
  3
*D38
  1

  0
LINE
  5
273
100
AcDbEntity
  8
DIMENTION
 62
               0
100
AcDbLine
 10
2186.3920000044973
 20
190.00000000312798
 30
0.0
 11
2296.0
 21
190.00000000312798
 31
0.0
  0
LINE
  5
274
100
AcDbEntity
  8
DIMENTION
 62
               0
100
AcDbLine
 10
2010.392000004497
 20
850.00000000312798
 30
0.0
 11
2296.0
 21
850.00000000312798
 31
0.0
  0
LINE
  5
275
100
AcDbEntity
  8
DIMENTION
 62
               0
100
AcDbLine
 10
2276.0
 20
190.00000000312798
 30
0.0
 11
2276.0
 21
850.00000000312798
 31
0.0
  0
LINE
  5
276
100
AcDbEntity
  8
DIMENTION
 62
               0
100
AcDbLine
 10
2276.0
 20
190.00000000312798
 30
0.0
 11
2270.1719415214147
 21
211.75061035469048
 31
0.0
  0
LINE
  5
277
100
AcDbEntity
  8
DIMENTION
 62
               0
100
AcDbLine
 10
2276.0
 20
190.00000000312798
 30
0.0
 11
2281.8280584785853
 21
211.75061035469048
 31
0.0
  0
LINE
  5
278
100
AcDbEntity
  8
DIMENTION
 62
               0
100
AcDbLine
 10
2276.0
 20
850.00000000312798
 30
0.0
 11
2281.8280584785853
 21
828.24938965156548
 31
0.0
  0
LINE
  5
279
100
AcDbEntity
  8
DIMENTION
 62
               0
100
AcDbLine
 10
2276.0
 20
850.00000000312798
 30
0.0
 11
2270.1719415214147
 21
828.24938965156548
 31
0.0
  0
MTEXT
  5
27A
100
AcDbEntity
  8
DIMENTION
 62
               0
100
AcDbMText
 10
2232.6666666703918
 20
488.25000000312798
 30
0.0
 40
33.866666666666667
 41
0.0
 71
               1
 72
               1
  1
660
  7
________
 11
0.0
 21
1.0
 31
0.0
  0
POINT
  5
27B
100
AcDbEntity
  8
DEFPOINTS
 62
               0
100
AcDbPoint
 10
2000.392000004497
 20
850.00000000312798
 30
0.0
  0
POINT
  5
27C
100
AcDbEntity
  8
DEFPOINTS
 62
               0
100
AcDbPoint
 10
2176.3920000044973
 20
190.00000000312798
 30
0.0
  0
POINT
  5
27D
100
AcDbEntity
  8
DEFPOINTS
 62
               0
100
AcDbPoint
 10
2276.0
 20
190.00000000312798
 30
0.0
  0
ENDBLK
  5
27E
100
AcDbEntity
  8
DIMENTION
100
AcDbBlockEnd
  0
BLOCK
  5
27F
100
AcDbEntity
  8
DIMENTION
100
AcDbBlockBegin
  2
*D39
 70
               1
 10
0.0
 20
0.0
 30
0.0
  3
*D39
  1

  0
LINE
  5
280
100
AcDbEntity
  8
DIMENTION
 62
               0
100
AcDbLine
 10
2011.392000004497
 20
790.00000000312798
 30
0.0
 11
2244.0
 21
790.00000000312798
 31
0.0
  0
LINE
  5
281
100
AcDbEntity
  8
DIMENTION
 62
               0
100
AcDbLine
 10
2196.3920000044973
 20
190.00000000312798
 30
0.0
 11
2244.0
 21
190.00000000312798
 31
0.0
  0
LINE
  5
282
100
AcDbEntity
  8
DIMENTION
 62
               0
100
AcDbLine
 10
2224.0
 20
790.00000000312798
 30
0.0
 11
2224.0
 21
190.00000000312798
 31
0.0
  0
LINE
  5
283
100
AcDbEntity
  8
DIMENTION
 62
               0
100
AcDbLine
 10
2224.0
 20
790.00000000312798
 30
0.0
 11
2229.8280584785853
 21
768.24938965156548
 31
0.0
  0
LINE
  5
284
100
AcDbEntity
  8
DIMENTION
 62
               0
100
AcDbLine
 10
2224.0
 20
790.00000000312798
 30
0.0
 11
2218.1719415214147
 21
768.24938965156548
 31
0.0
  0
LINE
  5
285
100
AcDbEntity
  8
DIMENTION
 62
               0
100
AcDbLine
 10
2224.0
 20
190.00000000312798
 30
0.0
 11
2218.1719415214147
 21
211.75061035469048
 31
0.0
  0
LINE
  5
286
100
AcDbEntity
  8
DIMENTION
 62
               0
100
AcDbLine
 10
2224.0
 20
190.00000000312798
 30
0.0
 11
2229.8280584785853
 21
211.75061035469048
 31
0.0
  0
MTEXT
  5
287
100
AcDbEntity
  8
DIMENTION
 62
               0
100
AcDbMText
 10
2180.6666666703918
 20
458.25000000312798
 30
0.0
 40
33.866666666666667
 41
0.0
 71
               1
 72
               1
  1
600
  7
________
 11
0.0
 21
1.0
 31
0.0
  0
POINT
  5
288
100
AcDbEntity
  8
DEFPOINTS
 62
               0
100
AcDbPoint
 10
2186.3920000044973
 20
190.00000000312798
 30
0.0
  0
POINT
  5
289
100
AcDbEntity
  8
DEFPOINTS
 62
               0
100
AcDbPoint
 10
2001.392000004497
 20
790.00000000312798
 30
0.0
  0
POINT
  5
28A
100
AcDbEntity
  8
DEFPOINTS
 62
               0
100
AcDbPoint
 10
2224.0
 20
790.00000000312798
 30
0.0
  0
ENDBLK
  5
28B
100
AcDbEntity
  8
DIMENTION
100
AcDbBlockEnd
  0
BLOCK
  5
28C
100
AcDbEntity
  8
DIMENTION
100
AcDbBlockBegin
  2
*D40
 70
               1
 10
0.0
 20
0.0
 30
0.0
  3
*D40
  1

  0
LINE
  5
28D
100
AcDbEntity
  8
DIMENTION
 62
               0
100
AcDbLine
 10
1995.392000004497
 20
190.00000000312798
 30
0.0
 11
2065.3920000044973
 21
190.00000000312798
 31
0.0
  0
LINE
  5
28E
100
AcDbEntity
  8
DIMENTION
 62
               0
100
AcDbLine
 10
1980.392000004497
 20
250.00000000312798
 30
0.0
 11
2065.3920000044973
 21
250.00000000312798
 31
0.0
  0
LINE
  5
28F
100
AcDbEntity
  8
DIMENTION
 62
               0
100
AcDbLine
 10
2045.392000004497
 20
250.00000000312798
 30
0.0
 11
2045.392000004497
 21
190.00000000312798
 31
0.0
  0
LINE
  5
290
100
AcDbEntity
  8
DIMENTION
 62
               0
100
AcDbLine
 10
2045.392000004497
 20
190.00000000312798
 30
0.0
 11
2045.392000004497
 21
150.00000000312798
 31
0.0
  0
LINE
  5
291
100
AcDbEntity
  8
DIMENTION
 62
               0
100
AcDbLine
 10
2045.392000004497
 20
190.00000000312798
 30
0.0
 11
2051.2200584830821
 21
168.24938965156548
 31
0.0
  0
LINE
  5
292
100
AcDbEntity
  8
DIMENTION
 62
               0
100
AcDbLine
 10
2045.392000004497
 20
190.00000000312798
 30
0.0
 11
2039.5639415259118
 21
168.24938965156548
 31
0.0
  0
LINE
  5
293
100
AcDbEntity
  8
DIMENTION
 62
               0
100
AcDbLine
 10
2045.392000004497
 20
250.00000000312798
 30
0.0
 11
2045.392000004497
 21
290.00000000312798
 31
0.0
  0
LINE
  5
294
100
AcDbEntity
  8
DIMENTION
 62
               0
100
AcDbLine
 10
2045.392000004497
 20
250.00000000312798
 30
0.0
 11
2039.563941525912
 21
271.75061035469048
 31
0.0
  0
LINE
  5
295
100
AcDbEntity
  8
DIMENTION
 62
               0
100
AcDbLine
 10
2045.392000004497
 20
250.00000000312798
 30
0.0
 11
2051.2200584830821
 21
271.75061035469048
 31
0.0
  0
MTEXT
  5
296
100
AcDbEntity
  8
DIMENTION
 62
               0
100
AcDbMText
 10
2002.0586666748891
 20
198.83333333646124
 30
0.0
 40
33.866666666666667
 41
0.0
 71
               1
 72
               1
  1
60
  7
________
 11
0.0
 21
1.0
 31
0.0
  0
POINT
  5
297
100
AcDbEntity
  8
DEFPOINTS
 62
               0
100
AcDbPoint
 10
1970.392000004497
 20
250.00000000312798
 30
0.0
  0
POINT
  5
298
100
AcDbEntity
  8
DEFPOINTS
 62
               0
100
AcDbPoint
 10
1985.392000004497
 20
190.00000000312798
 30
0.0
  0
POINT
  5
299
100
AcDbEntity
  8
DEFPOINTS
 62
               0
100
AcDbPoint
 10
2045.392000004497
 20
190.00000000312798
 30
0.0
  0
ENDBLK
  5
29A
100
AcDbEntity
  8
DIMENTION
100
AcDbBlockEnd
  0
BLOCK
  5
29B
100
AcDbEntity
  8
DIMENTION
100
AcDbBlockBegin
  2
*D41
 70
               1
 10
0.0
 20
0.0
 30
0.0
  3
*D41
  1

  0
LINE
  5
29C
100
AcDbEntity
  8
DIMENTION
 62
               0
100
AcDbLine
 10
1994.392000004497
 20
190.00000000312798
 30
0.0
 11
2194.3920000044973
 21
190.00000000312798
 31
0.0
  0
LINE
  5
29D
100
AcDbEntity
  8
DIMENTION
 62
               0
100
AcDbLine
 10
1991.392000004497
 20
325.00000000312798
 30
0.0
 11
2194.3920000044973
 21
325.00000000312798
 31
0.0
  0
LINE
  5
29E
100
AcDbEntity
  8
DIMENTION
 62
               0
100
AcDbLine
 10
2174.3920000044973
 20
190.00000000312798
 30
0.0
 11
2174.3920000044973
 21
325.00000000312798
 31
0.0
  0
LINE
  5
29F
100
AcDbEntity
  8
DIMENTION
 62
               0
100
AcDbLine
 10
2174.3920000044973
 20
190.00000000312798
 30
0.0
 11
2168.563941525912
 21
211.75061035469048
 31
0.0
  0
LINE
  5
2A0
100
AcDbEntity
  8
DIMENTION
 62
               0
100
AcDbLine
 10
2174.3920000044973
 20
190.00000000312798
 30
0.0
 11
2180.2200584830821
 21
211.75061035469048
 31
0.0
  0
LINE
  5
2A1
100
AcDbEntity
  8
DIMENTION
 62
               0
100
AcDbLine
 10
2174.3920000044973
 20
325.00000000312798
 30
0.0
 11
2180.2200584830821
 21
303.24938965156548
 31
0.0
  0
LINE
  5
2A2
100
AcDbEntity
  8
DIMENTION
 62
               0
100
AcDbLine
 10
2174.3920000044973
 20
325.00000000312798
 30
0.0
 11
2168.563941525912
 21
303.24938965156548
 31
0.0
  0
MTEXT
  5
2A3
100
AcDbEntity
  8
DIMENTION
 62
               0
100
AcDbMText
 10
2131.0586666748891
 20
225.75000000312798
 30
0.0
 40
33.866666666666667
 41
0.0
 71
               1
 72
               1
  1
135
  7
________
 11
0.0
 21
1.0
 31
0.0
  0
POINT
  5
2A4
100
AcDbEntity
  8
DEFPOINTS
 62
               0
100
AcDbPoint
 10
1981.392000004497
 20
325.00000000312798
 30
0.0
  0
POINT
  5
2A5
100
AcDbEntity
  8
DEFPOINTS
 62
               0
100
AcDbPoint
 10
1984.392000004497
 20
190.00000000312798
 30
0.0
  0
POINT
  5
2A6
100
AcDbEntity
  8
DEFPOINTS
 62
               0
100
AcDbPoint
 10
2174.3920000044973
 20
190.00000000312798
 30
0.0
  0
ENDBLK
  5
2A7
100
AcDbEntity
  8
DIMENTION
100
AcDbBlockEnd
  0
BLOCK
  5
2A8
100
AcDbEntity
  8
DIMENTION
100
AcDbBlockBegin
  2
*D42
 70
               1
 10
0.0
 20
0.0
 30
0.0
  3
*D42
  1

  0
LINE
  5
2A9
100
AcDbEntity
  8
DIMENTION
 62
               0
100
AcDbLine
 10
2005.392000004497
 20
290.00000000312798
 30
0.0
 11
2132.3920000044973
 21
290.00000000312798
 31
0.0
  0
LINE
  5
2AA
100
AcDbEntity
  8
DIMENTION
 62
               0
100
AcDbLine
 10
2005.392000004497
 20
190.00000000312798
 30
0.0
 11
2132.3920000044973
 21
190.00000000312798
 31
0.0
  0
LINE
  5
2AB
100
AcDbEntity
  8
DIMENTION
 62
               0
100
AcDbLine
 10
2112.3920000044973
 20
290.00000000312798
 30
0.0
 11
2112.3920000044973
 21
190.00000000312798
 31
0.0
  0
LINE
  5
2AC
100
AcDbEntity
  8
DIMENTION
 62
               0
100
AcDbLine
 10
2112.3920000044973
 20
290.00000000312798
 30
0.0
 11
2118.2200584830821
 21
268.24938965156548
 31
0.0
  0
LINE
  5
2AD
100
AcDbEntity
  8
DIMENTION
 62
               0
100
AcDbLine
 10
2112.3920000044973
 20
290.00000000312798
 30
0.0
 11
2106.563941525912
 21
268.24938965156548
 31
0.0
  0
LINE
  5
2AE
100
AcDbEntity
  8
DIMENTION
 62
               0
100
AcDbLine
 10
2112.3920000044973
 20
190.00000000312798
 30
0.0
 11
2106.563941525912
 21
211.75061035469048
 31
0.0
  0
LINE
  5
2AF
100
AcDbEntity
  8
DIMENTION
 62
               0
100
AcDbLine
 10
2112.3920000044973
 20
190.00000000312798
 30
0.0
 11
2118.2200584830821
 21
211.75061035469048
 31
0.0
  0
MTEXT
  5
2B0
100
AcDbEntity
  8
DIMENTION
 62
               0
100
AcDbMText
 10
2069.0586666748891
 20
208.25000000312798
 30
0.0
 40
33.866666666666667
 41
0.0
 71
               1
 72
               1
  1
100
  7
________
 11
0.0
 21
1.0
 31
0.0
  0
POINT
  5
2B1
100
AcDbEntity
  8
DEFPOINTS
 62
               0
100
AcDbPoint
 10
1995.392000004497
 20
190.00000000312798
 30
0.0
  0
POINT
  5
2B2
100
AcDbEntity
  8
DEFPOINTS
 62
               0
100
AcDbPoint
 10
1995.392000004497
 20
290.00000000312798
 30
0.0
  0
POINT
  5
2B3
100
AcDbEntity
  8
DEFPOINTS
 62
               0
100
AcDbPoint
 10
2112.3920000044973
 20
290.00000000312798
 30
0.0
  0
ENDBLK
  5
2B4
100
AcDbEntity
  8
DIMENTION
100
AcDbBlockEnd
  0
BLOCK
  5
2B5
100
AcDbEntity
  8
DIMENTION
100
AcDbBlockBegin
  2
*D43
 70
               1
 10
0.0
 20
0.0
 30
0.0
  3
*D43
  1

  0
LINE
  5
2B6
100
AcDbEntity
  8
DIMENTION
 62
               0
100
AcDbLine
 10
3360.3920000044973
 20
1610.000000003128
 30
0.0
 11
3443.0
 21
1610.000000003128
 31
0.0
  0
LINE
  5
2B7
100
AcDbEntity
  8
DIMENTION
 62
               0
100
AcDbLine
 10
3370.3920000044973
 20
210.00000000312798
 30
0.0
 11
3443.0
 21
210.00000000312798
 31
0.0
  0
LINE
  5
2B8
100
AcDbEntity
  8
DIMENTION
 62
               0
100
AcDbLine
 10
3423.0
 20
1610.000000003128
 30
0.0
 11
3423.0
 21
210.00000000312798
 31
0.0
  0
LINE
  5
2B9
100
AcDbEntity
  8
DIMENTION
 62
               0
100
AcDbLine
 10
3423.0
 20
1610.000000003128
 30
0.0
 11
3428.8280584785853
 21
1588.2493896515655
 31
0.0
  0
LINE
  5
2BA
100
AcDbEntity
  8
DIMENTION
 62
               0
100
AcDbLine
 10
3423.0
 20
1610.000000003128
 30
0.0
 11
3417.1719415214147
 21
1588.2493896515655
 31
0.0
  0
LINE
  5
2BB
100
AcDbEntity
  8
DIMENTION
 62
               0
100
AcDbLine
 10
3423.0
 20
210.00000000312798
 30
0.0
 11
3417.1719415214147
 21
231.75061035469048
 31
0.0
  0
LINE
  5
2BC
100
AcDbEntity
  8
DIMENTION
 62
               0
100
AcDbLine
 10
3423.0
 20
210.00000000312798
 30
0.0
 11
3428.8280584785853
 21
231.75061035469048
 31
0.0
  0
MTEXT
  5
2BD
100
AcDbEntity
  8
DIMENTION
 62
               0
100
AcDbMText
 10
3379.6666666703923
 20
867.66666666979472
 30
0.0
 40
33.866666666666667
 41
0.0
 71
               1
 72
               1
  1
1400
  7
________
 11
0.0
 21
1.0
 31
0.0
  0
POINT
  5
2BE
100
AcDbEntity
  8
DEFPOINTS
 62
               0
100
AcDbPoint
 10
3360.3920000044973
 20
210.00000000312798
 30
0.0
  0
POINT
  5
2BF
100
AcDbEntity
  8
DEFPOINTS
 62
               0
100
AcDbPoint
 10
3350.3920000044973
 20
1610.000000003128
 30
0.0
  0
POINT
  5
2C0
100
AcDbEntity
  8
DEFPOINTS
 62
               0
100
AcDbPoint
 10
3423.0
 20
1610.000000003128
 30
0.0
  0
ENDBLK
  5
2C1
100
AcDbEntity
  8
DIMENTION
100
AcDbBlockEnd
  0
BLOCK
  5
2C2
100
AcDbEntity
  8
DIMENTION
100
AcDbBlockBegin
  2
*D44
 70
               1
 10
0.0
 20
0.0
 30
0.0
  3
*D44
  1

  0
LINE
  5
2C3
100
AcDbEntity
  8
DIMENTION
 62
               0
100
AcDbLine
 10
1997.392000004497
 20
2045.0000000031278
 30
0.0
 11
1997.392000004497
 21
1761.0000000031278
 31
0.0
  0
LINE
  5
2C4
100
AcDbEntity
  8
DIMENTION
 62
               0
100
AcDbLine
 10
1765.392000004497
 20
1880.000000003128
 30
0.0
 11
1765.392000004497
 21
1761.0000000031278
 31
0.0
  0
LINE
  5
2C5
100
AcDbEntity
  8
DIMENTION
 62
               0
100
AcDbLine
 10
1997.392000004497
 20
1781.0000000031278
 30
0.0
 11
1765.392000004497
 21
1781.0000000031278
 31
0.0
  0
LINE
  5
2C6
100
AcDbEntity
  8
DIMENTION
 62
               0
100
AcDbLine
 10
1997.392000004497
 20
1781.0000000031278
 30
0.0
 11
1975.6413896529345
 21
1775.1719415245427
 31
0.0
  0
LINE
  5
2C7
100
AcDbEntity
  8
DIMENTION
 62
               0
100
AcDbLine
 10
1997.392000004497
 20
1781.0000000031278
 30
0.0
 11
1975.6413896529345
 21
1786.828058481713
 31
0.0
  0
LINE
  5
2C8
100
AcDbEntity
  8
DIMENTION
 62
               0
100
AcDbLine
 10
1765.392000004497
 20
1781.0000000031278
 30
0.0
 11
1787.1426103560595
 21
1786.828058481713
 31
0.0
  0
LINE
  5
2C9
100
AcDbEntity
  8
DIMENTION
 62
               0
100
AcDbLine
 10
1765.392000004497
 20
1781.0000000031278
 30
0.0
 11
1787.1426103560595
 21
1775.1719415245427
 31
0.0
  0
MTEXT
  5
2CA
100
AcDbEntity
  8
DIMENTION
 62
               0
100
AcDbMText
 10
1849.642000004497
 20
1824.3333333327359
 30
0.0
 40
33.866666666666667
 41
0.0
 71
               1
 72
               1
  1
230
  7
________
  0
POINT
  5
2CB
100
AcDbEntity
  8
DEFPOINTS
 62
               0
100
AcDbPoint
 10
1765.392000004497
 20
1890.000000003128
 30
0.0
  0
POINT
  5
2CC
100
AcDbEntity
  8
DEFPOINTS
 62
               0
100
AcDbPoint
 10
1997.392000004497
 20
2055.0000000031278
 30
0.0
  0
POINT
  5
2CD
100
AcDbEntity
  8
DEFPOINTS
 62
               0
100
AcDbPoint
 10
1997.392000004497
 20
1781.0000000031278
 30
0.0
  0
ENDBLK
  5
2CE
100
AcDbEntity
  8
DIMENTION
100
AcDbBlockEnd
  0
BLOCK
  5
2CF
100
AcDbEntity
  8
DIMENTION
100
AcDbBlockBegin
  2
*D45
 70
               1
 10
0.0
 20
0.0
 30
0.0
  3
*D45
  1

  0
LINE
  5
2D0
100
AcDbEntity
  8
DIMENTION
 62
               0
100
AcDbLine
 10
1967.392000004497
 20
2065.0000000031278
 30
0.0
 11
1967.392000004497
 21
1805.5000000031278
 31
0.0
  0
LINE
  5
2D1
100
AcDbEntity
  8
DIMENTION
 62
               0
100
AcDbLine
 10
1765.392000004497
 20
1880.000000003128
 30
0.0
 11
1765.392000004497
 21
1805.5000000031278
 31
0.0
  0
LINE
  5
2D2
100
AcDbEntity
  8
DIMENTION
 62
               0
100
AcDbLine
 10
1967.392000004497
 20
1825.5000000031278
 30
0.0
 11
1765.392000004497
 21
1825.5000000031278
 31
0.0
  0
LINE
  5
2D3
100
AcDbEntity
  8
DIMENTION
 62
               0
100
AcDbLine
 10
1967.392000004497
 20
1825.5000000031278
 30
0.0
 11
1945.6413896529345
 21
1819.6719415245427
 31
0.0
  0
LINE
  5
2D4
100
AcDbEntity
  8
DIMENTION
 62
               0
100
AcDbLine
 10
1967.392000004497
 20
1825.5000000031278
 30
0.0
 11
1945.6413896529345
 21
1831.328058481713
 31
0.0
  0
LINE
  5
2D5
100
AcDbEntity
  8
DIMENTION
 62
               0
100
AcDbLine
 10
1765.392000004497
 20
1825.5000000031278
 30
0.0
 11
1787.1426103560595
 21
1831.328058481713
 31
0.0
  0
LINE
  5
2D6
100
AcDbEntity
  8
DIMENTION
 62
               0
100
AcDbLine
 10
1765.392000004497
 20
1825.5000000031278
 30
0.0
 11
1787.1426103560595
 21
1819.6719415245427
 31
0.0
  0
MTEXT
  5
2D7
100
AcDbEntity
  8
DIMENTION
 62
               0
100
AcDbMText
 10
1842.3692644087939
 20
1868.8333333327359
 30
0.0
 40
33.866666666666667
 41
0.0
 71
               1
 72
               1
  1
200
  7
________
  0
POINT
  5
2D8
100
AcDbEntity
  8
DEFPOINTS
 62
               0
100
AcDbPoint
 10
1765.392000004497
 20
1890.000000003128
 30
0.0
  0
POINT
  5
2D9
100
AcDbEntity
  8
DEFPOINTS
 62
               0
100
AcDbPoint
 10
1967.392000004497
 20
2075.0000000031278
 30
0.0
  0
POINT
  5
2DA
100
AcDbEntity
  8
DEFPOINTS
 62
               0
100
AcDbPoint
 10
1967.392000004497
 20
1825.5000000031278
 30
0.0
  0
ENDBLK
  5
2DB
100
AcDbEntity
  8
DIMENTION
100
AcDbBlockEnd
  0
BLOCK
  5
2DC
100
AcDbEntity
  8
DIMENTION
100
AcDbBlockBegin
  2
*D46
 70
               1
 10
0.0
 20
0.0
 30
0.0
  3
*D46
  1

  0
LINE
  5
2DD
100
AcDbEntity
  8
DIMENTION
 62
               0
100
AcDbLine
 10
2047.237200004497
 20
2342.9998000031278
 30
0.0
 11
2047.237200004497
 21
1761.000000003128
 31
0.0
  0
LINE
  5
2DE
100
AcDbEntity
  8
DIMENTION
 62
               0
100
AcDbLine
 10
1997.392000004497
 20
2045.0000000031278
 30
0.0
 11
1997.392000004497
 21
1761.000000003128
 31
0.0
  0
LINE
  5
2DF
100
AcDbEntity
  8
DIMENTION
 62
               0
100
AcDbLine
 10
1997.392000004497
 20
1781.000000003128
 30
0.0
 11
2047.237200004497
 21
1781.000000003128
 31
0.0
  0
LINE
  5
2E0
100
AcDbEntity
  8
DIMENTION
 62
               0
100
AcDbLine
 10
2047.237200004497
 20
1781.000000003128
 30
0.0
 11
2087.237200004497
 21
1781.000000003128
 31
0.0
  0
LINE
  5
2E1
100
AcDbEntity
  8
DIMENTION
 62
               0
100
AcDbLine
 10
2047.237200004497
 20
1781.000000003128
 30
0.0
 11
2068.9878103560595
 21
1786.8280584817132
 31
0.0
  0
LINE
  5
2E2
100
AcDbEntity
  8
DIMENTION
 62
               0
100
AcDbLine
 10
2047.237200004497
 20
1781.000000003128
 30
0.0
 11
2068.9878103560595
 21
1775.1719415245427
 31
0.0
  0
LINE
  5
2E3
100
AcDbEntity
  8
DIMENTION
 62
               0
100
AcDbLine
 10
1997.392000004497
 20
1781.000000003128
 30
0.0
 11
1957.392000004497
 21
1781.000000003128
 31
0.0
  0
LINE
  5
2E4
100
AcDbEntity
  8
DIMENTION
 62
               0
100
AcDbLine
 10
1997.392000004497
 20
1781.000000003128
 30
0.0
 11
1975.6413896529345
 21
1775.1719415245427
 31
0.0
  0
LINE
  5
2E5
100
AcDbEntity
  8
DIMENTION
 62
               0
100
AcDbLine
 10
1997.392000004497
 20
1781.000000003128
 30
0.0
 11
1975.6413896529345
 21
1786.8280584817132
 31
0.0
  0
MTEXT
  5
2E6
100
AcDbEntity
  8
DIMENTION
 62
               0
100
AcDbMText
 10
2001.1479333378304
 20
1824.3333333327359
 30
0.0
 40
33.866666666666667
 41
0.0
 71
               1
 72
               1
  1
50
  7
________
  0
POINT
  5
2E7
100
AcDbEntity
  8
DEFPOINTS
 62
               0
100
AcDbPoint
 10
1997.392000004497
 20
2055.0000000031278
 30
0.0
  0
POINT
  5
2E8
100
AcDbEntity
  8
DEFPOINTS
 62
               0
100
AcDbPoint
 10
2047.237200004497
 20
2352.9998000031278
 30
0.0
  0
POINT
  5
2E9
100
AcDbEntity
  8
DEFPOINTS
 62
               0
100
AcDbPoint
 10
2047.237200004497
 20
1781.000000003128
 30
0.0
  0
ENDBLK
  5
2EA
100
AcDbEntity
  8
DIMENTION
100
AcDbBlockEnd
  0
BLOCK
  5
2EB
100
AcDbEntity
  8
DIMENTION
100
AcDbBlockBegin
  2
*D47
 70
               1
 10
0.0
 20
0.0
 30
0.0
  3
*D47
  1

  0
LINE
  5
2EC
100
AcDbEntity
  8
DIMENTION
 62
               0
100
AcDbLine
 10
1980.392000004497
 20
2075.0000000031278
 30
0.0
 11
2113.3920000044973
 21
2075.0000000031278
 31
0.0
  0
LINE
  5
2ED
100
AcDbEntity
  8
DIMENTION
 62
               0
100
AcDbLine
 10
1775.392000004497
 20
2165.0000000031278
 30
0.0
 11
2113.3920000044973
 21
2165.0000000031278
 31
0.0
  0
LINE
  5
2EE
100
AcDbEntity
  8
DIMENTION
 62
               0
100
AcDbLine
 10
2093.3920000044973
 20
2075.0000000031278
 30
0.0
 11
2093.3920000044973
 21
2165.0000000031278
 31
0.0
  0
LINE
  5
2EF
100
AcDbEntity
  8
DIMENTION
 62
               0
100
AcDbLine
 10
2093.3920000044973
 20
2075.0000000031278
 30
0.0
 11
2087.563941525912
 21
2096.7506103546903
 31
0.0
  0
LINE
  5
2F0
100
AcDbEntity
  8
DIMENTION
 62
               0
100
AcDbLine
 10
2093.3920000044973
 20
2075.0000000031278
 30
0.0
 11
2099.2200584830821
 21
2096.7506103546903
 31
0.0
  0
LINE
  5
2F1
100
AcDbEntity
  8
DIMENTION
 62
               0
100
AcDbLine
 10
2093.3920000044973
 20
2165.0000000031278
 30
0.0
 11
2099.2200584830821
 21
2143.2493896515653
 31
0.0
  0
LINE
  5
2F2
100
AcDbEntity
  8
DIMENTION
 62
               0
100
AcDbLine
 10
2093.3920000044973
 20
2165.0000000031278
 30
0.0
 11
2087.563941525912
 21
2143.2493896515653
 31
0.0
  0
MTEXT
  5
2F3
100
AcDbEntity
  8
DIMENTION
 62
               0
100
AcDbMText
 10
2050.0586666748891
 20
2098.8333333364612
 30
0.0
 40
33.866666666666667
 41
0.0
 71
               1
 72
               1
  1
90
  7
________
 11
0.0
 21
1.0
 31
0.0
  0
POINT
  5
2F4
100
AcDbEntity
  8
DEFPOINTS
 62
               0
100
AcDbPoint
 10
1765.392000004497
 20
2165.0000000031278
 30
0.0
  0
POINT
  5
2F5
100
AcDbEntity
  8
DEFPOINTS
 62
               0
100
AcDbPoint
 10
1970.392000004497
 20
2075.0000000031278
 30
0.0
  0
POINT
  5
2F6
100
AcDbEntity
  8
DEFPOINTS
 62
               0
100
AcDbPoint
 10
2093.3920000044973
 20
2075.0000000031278
 30
0.0
  0
ENDBLK
  5
2F7
100
AcDbEntity
  8
DIMENTION
100
AcDbBlockEnd
  0
BLOCK
  5
2F8
100
AcDbEntity
  8
DIMENTION
100
AcDbBlockBegin
  2
*D48
 70
               1
 10
0.0
 20
0.0
 30
0.0
  3
*D48
  1

  0
LINE
  5
2F9
100
AcDbEntity
  8
DIMENTION
 62
               0
100
AcDbLine
 10
1775.392000004497
 20
2165.0000000031278
 30
0.0
 11
2183.3920000044973
 21
2165.0000000031278
 31
0.0
  0
LINE
  5
2FA
100
AcDbEntity
  8
DIMENTION
 62
               0
100
AcDbLine
 10
1977.392000004497
 20
1985.000000003128
 30
0.0
 11
2183.3920000044973
 21
1985.000000003128
 31
0.0
  0
LINE
  5
2FB
100
AcDbEntity
  8
DIMENTION
 62
               0
100
AcDbLine
 10
2163.3920000044973
 20
2165.0000000031278
 30
0.0
 11
2163.3920000044973
 21
1985.000000003128
 31
0.0
  0
LINE
  5
2FC
100
AcDbEntity
  8
DIMENTION
 62
               0
100
AcDbLine
 10
2163.3920000044973
 20
2165.0000000031278
 30
0.0
 11
2169.2200584830821
 21
2143.2493896515653
 31
0.0
  0
LINE
  5
2FD
100
AcDbEntity
  8
DIMENTION
 62
               0
100
AcDbLine
 10
2163.3920000044973
 20
2165.0000000031278
 30
0.0
 11
2157.563941525912
 21
2143.2493896515653
 31
0.0
  0
LINE
  5
2FE
100
AcDbEntity
  8
DIMENTION
 62
               0
100
AcDbLine
 10
2163.3920000044973
 20
1985.000000003128
 30
0.0
 11
2157.563941525912
 21
2006.7506103546905
 31
0.0
  0
LINE
  5
2FF
100
AcDbEntity
  8
DIMENTION
 62
               0
100
AcDbLine
 10
2163.3920000044973
 20
1985.000000003128
 30
0.0
 11
2169.2200584830821
 21
2006.7506103546905
 31
0.0
  0
MTEXT
  5
300
100
AcDbEntity
  8
DIMENTION
 62
               0
100
AcDbMText
 10
2120.0586666748891
 20
2043.250000003128
 30
0.0
 40
33.866666666666667
 41
0.0
 71
               1
 72
               1
  1
180
  7
________
 11
0.0
 21
1.0
 31
0.0
  0
POINT
  5
301
100
AcDbEntity
  8
DEFPOINTS
 62
               0
100
AcDbPoint
 10
1967.392000004497
 20
1985.000000003128
 30
0.0
  0
POINT
  5
302
100
AcDbEntity
  8
DEFPOINTS
 62
               0
100
AcDbPoint
 10
1765.392000004497
 20
2165.0000000031278
 30
0.0
  0
POINT
  5
303
100
AcDbEntity
  8
DEFPOINTS
 62
               0
100
AcDbPoint
 10
2163.3920000044973
 20
2165.0000000031278
 30
0.0
  0
ENDBLK
  5
304
100
AcDbEntity
  8
DIMENTION
100
AcDbBlockEnd
  0
BLOCK
  5
305
100
AcDbEntity
  8
DIMENTION
100
AcDbBlockBegin
  2
*D49
 70
               1
 10
0.0
 20
0.0
 30
0.0
  3
*D49
  1

  0
LINE
  5
306
100
AcDbEntity
  8
DIMENTION
 62
               0
100
AcDbLine
 10
1537.392000004497
 20
2575.0000000031278
 30
0.0
 11
1537.392000004497
 21
2661.0000000031278
 31
0.0
  0
LINE
  5
307
100
AcDbEntity
  8
DIMENTION
 62
               0
100
AcDbLine
 10
1713.392000004497
 20
2575.0000000031278
 30
0.0
 11
1713.392000004497
 21
2661.0000000031278
 31
0.0
  0
LINE
  5
308
100
AcDbEntity
  8
DIMENTION
 62
               0
100
AcDbLine
 10
1537.392000004497
 20
2641.0000000031278
 30
0.0
 11
1713.392000004497
 21
2641.0000000031278
 31
0.0
  0
LINE
  5
309
100
AcDbEntity
  8
DIMENTION
 62
               0
100
AcDbLine
 10
1537.392000004497
 20
2641.0000000031278
 30
0.0
 11
1559.1426103560595
 21
2646.828058481713
 31
0.0
  0
LINE
  5
30A
100
AcDbEntity
  8
DIMENTION
 62
               0
100
AcDbLine
 10
1537.392000004497
 20
2641.0000000031278
 30
0.0
 11
1559.1426103560595
 21
2635.1719415245425
 31
0.0
  0
LINE
  5
30B
100
AcDbEntity
  8
DIMENTION
 62
               0
100
AcDbLine
 10
1713.392000004497
 20
2641.0000000031278
 30
0.0
 11
1691.6413896529345
 21
2635.1719415245425
 31
0.0
  0
LINE
  5
30C
100
AcDbEntity
  8
DIMENTION
 62
               0
100
AcDbLine
 10
1713.392000004497
 20
2641.0000000031278
 30
0.0
 11
1691.6413896529345
 21
2646.828058481713
 31
0.0
  0
MTEXT
  5
30D
100
AcDbEntity
  8
DIMENTION
 62
               0
100
AcDbMText
 10
1593.642000004497
 20
2684.3333333327359
 30
0.0
 40
33.866666666666667
 41
0.0
 71
               1
 72
               1
  1
176
  7
________
  0
POINT
  5
30E
100
AcDbEntity
  8
DEFPOINTS
 62
               0
100
AcDbPoint
 10
1713.392000004497
 20
2565.0000000031278
 30
0.0
  0
POINT
  5
30F
100
AcDbEntity
  8
DEFPOINTS
 62
               0
100
AcDbPoint
 10
1537.392000004497
 20
2565.0000000031278
 30
0.0
  0
POINT
  5
310
100
AcDbEntity
  8
DEFPOINTS
 62
               0
100
AcDbPoint
 10
1537.392000004497
 20
2641.0000000031278
 30
0.0
  0
ENDBLK
  5
311
100
AcDbEntity
  8
DIMENTION
100
AcDbBlockEnd
  0
BLOCK
  5
312
100
AcDbEntity
  8
DIMENTION
100
AcDbBlockBegin
  2
*D50
 70
               1
 10
0.0
 20
0.0
 30
0.0
  3
*D50
  1

  0
LINE
  5
313
100
AcDbEntity
  8
DIMENTION
 62
               0
100
AcDbLine
 10
1515.000000004497
 20
1590.000000003128
 30
0.0
 11
259.39200000449728
 21
1590.000000003128
 31
0.0
  0
LINE
  5
314
100
AcDbEntity
  8
DIMENTION
 62
               0
100
AcDbLine
 10
580.39200000449728
 20
1530.000000003128
 30
0.0
 11
259.39200000449728
 21
1530.000000003128
 31
0.0
  0
LINE
  5
315
100
AcDbEntity
  8
DIMENTION
 62
               0
100
AcDbLine
 10
279.39200000449728
 20
1530.000000003128
 30
0.0
 11
279.39200000449728
 21
1590.000000003128
 31
0.0
  0
LINE
  5
316
100
AcDbEntity
  8
DIMENTION
 62
               0
100
AcDbLine
 10
279.39200000449728
 20
1590.000000003128
 30
0.0
 11
279.39200000449728
 21
1630.000000003128
 31
0.0
  0
LINE
  5
317
100
AcDbEntity
  8
DIMENTION
 62
               0
100
AcDbLine
 10
279.39200000449728
 20
1590.000000003128
 30
0.0
 11
273.56394152591201
 21
1611.7506103546905
 31
0.0
  0
LINE
  5
318
100
AcDbEntity
  8
DIMENTION
 62
               0
100
AcDbLine
 10
279.39200000449728
 20
1590.000000003128
 30
0.0
 11
285.22005848308254
 21
1611.7506103546905
 31
0.0
  0
LINE
  5
319
100
AcDbEntity
  8
DIMENTION
 62
               0
100
AcDbLine
 10
279.39200000449728
 20
1530.000000003128
 30
0.0
 11
279.39200000449728
 21
1490.000000003128
 31
0.0
  0
LINE
  5
31A
100
AcDbEntity
  8
DIMENTION
 62
               0
100
AcDbLine
 10
279.39200000449728
 20
1530.000000003128
 30
0.0
 11
285.22005848308254
 21
1508.2493896515655
 31
0.0
  0
LINE
  5
31B
100
AcDbEntity
  8
DIMENTION
 62
               0
100
AcDbLine
 10
279.39200000449728
 20
1530.000000003128
 30
0.0
 11
273.56394152591201
 21
1508.2493896515655
 31
0.0
  0
MTEXT
  5
31C
100
AcDbEntity
  8
DIMENTION
 62
               0
100
AcDbMText
 10
236.05866667488908
 20
1538.8333333364612
 30
0.0
 40
33.866666666666667
 41
0.0
 71
               1
 72
               1
  1
60
  7
________
 11
0.0
 21
1.0
 31
0.0
  0
POINT
  5
31D
100
AcDbEntity
  8
DEFPOINTS
 62
               0
100
AcDbPoint
 10
590.39200000449728
 20
1530.000000003128
 30
0.0
  0
POINT
  5
31E
100
AcDbEntity
  8
DEFPOINTS
 62
               0
100
AcDbPoint
 10
1525.000000004497
 20
1590.000000003128
 30
0.0
  0
POINT
  5
31F
100
AcDbEntity
  8
DEFPOINTS
 62
               0
100
AcDbPoint
 10
279.39200000449728
 20
1590.000000003128
 30
0.0
  0
ENDBLK
  5
320
100
AcDbEntity
  8
DIMENTION
100
AcDbBlockEnd
  0
BLOCK
  5
321
100
AcDbEntity
  8
DIMENTION
100
AcDbBlockBegin
  2
*D51
 70
               1
 10
0.0
 20
0.0
 30
0.0
  3
*D51
  1

  0
LINE
  5
322
100
AcDbEntity
  8
DIMENTION
 62
               0
100
AcDbLine
 10
1175.3920000044973
 20
2523.0000000031278
 30
0.0
 11
1175.3920000044973
 21
2661.0000000031278
 31
0.0
  0
LINE
  5
323
100
AcDbEntity
  8
DIMENTION
 62
               0
100
AcDbLine
 10
1537.392000004497
 20
2575.0000000031278
 30
0.0
 11
1537.392000004497
 21
2661.0000000031278
 31
0.0
  0
LINE
  5
324
100
AcDbEntity
  8
DIMENTION
 62
               0
100
AcDbLine
 10
1175.3920000044973
 20
2641.0000000031278
 30
0.0
 11
1537.392000004497
 21
2641.0000000031278
 31
0.0
  0
LINE
  5
325
100
AcDbEntity
  8
DIMENTION
 62
               0
100
AcDbLine
 10
1175.3920000044973
 20
2641.0000000031278
 30
0.0
 11
1197.1426103560598
 21
2646.828058481713
 31
0.0
  0
LINE
  5
326
100
AcDbEntity
  8
DIMENTION
 62
               0
100
AcDbLine
 10
1175.3920000044973
 20
2641.0000000031278
 30
0.0
 11
1197.1426103560598
 21
2635.1719415245425
 31
0.0
  0
LINE
  5
327
100
AcDbEntity
  8
DIMENTION
 62
               0
100
AcDbLine
 10
1537.392000004497
 20
2641.0000000031278
 30
0.0
 11
1515.6413896529345
 21
2635.1719415245425
 31
0.0
  0
LINE
  5
328
100
AcDbEntity
  8
DIMENTION
 62
               0
100
AcDbLine
 10
1537.392000004497
 20
2641.0000000031278
 30
0.0
 11
1515.6413896529345
 21
2646.828058481713
 31
0.0
  0
MTEXT
  5
329
100
AcDbEntity
  8
DIMENTION
 62
               0
100
AcDbMText
 10
1324.6420000044973
 20
2684.3333333327359
 30
0.0
 40
33.866666666666667
 41
0.0
 71
               1
 72
               1
  1
362
  7
________
  0
POINT
  5
32A
100
AcDbEntity
  8
DEFPOINTS
 62
               0
100
AcDbPoint
 10
1537.392000004497
 20
2565.0000000031278
 30
0.0
  0
POINT
  5
32B
100
AcDbEntity
  8
DEFPOINTS
 62
               0
100
AcDbPoint
 10
1175.3920000044973
 20
2513.0000000031278
 30
0.0
  0
POINT
  5
32C
100
AcDbEntity
  8
DEFPOINTS
 62
               0
100
AcDbPoint
 10
1175.3920000044973
 20
2641.0000000031278
 30
0.0
  0
ENDBLK
  5
32D
100
AcDbEntity
  8
DIMENTION
100
AcDbBlockEnd
  0
BLOCK
  5
32E
100
AcDbEntity
  8
OBJECT
100
AcDbBlockBegin
  2
*U52
 70
               1
 10
0.0
 20
0.0
 30
0.0
  3
*U52
  1

  0
LINE
  5
32F
100
AcDbEntity
  8
OBJECT
 62
               0
100
AcDbLine
 10
-500.00799999999998
 20
121.0
 30
0.0
 11
-500.00799999999998
 21
180.99999999999997
 31
0.0
  0
LINE
  5
330
100
AcDbEntity
  8
OBJECT
 62
               0
100
AcDbLine
 10
-300.00799999999998
 20
180.99999999999997
 30
0.0
 11
-300.00799999999998
 21
121.0
 31
0.0
  0
LINE
  5
331
100
AcDbEntity
  8
OBJECT
 62
               0
100
AcDbLine
 10
-500.00799999999998
 20
180.99999999999997
 30
0.0
 11
-300.00799999999998
 21
180.99999999999997
 31
0.0
  0
ENDBLK
  5
332
100
AcDbEntity
  8
OBJECT
100
AcDbBlockEnd
  0
BLOCK
  5
333
100
AcDbEntity
  8
CENTER
100
AcDbBlockBegin
  2
*U53
 70
               1
 10
0.0
 20
0.0
 30
0.0
  3
*U53
  1

  0
LINE
  5
334
100
AcDbEntity
  8
CENTER
 62
               0
100
AcDbLine
 10
-475.00799999999998
 20
835.99999999999989
 30
0.0
 11
-465.00799999999998
 21
835.99999999999989
 31
0.0
  0
LINE
  5
335
100
AcDbEntity
  8
CENTER
 62
               0
100
AcDbLine
 10
-470.00799999999998
 20
830.99999999999989
 30
0.0
 11
-470.00799999999998
 21
840.99999999999989
 31
0.0
  0
LINE
  5
336
100
AcDbEntity
  8
CENTER
 62
               0
100
AcDbLine
 10
-545.00799999999992
 20
835.99999999999989
 30
0.0
 11
-485.00799999999998
 21
835.99999999999989
 31
0.0
  0
LINE
  5
337
100
AcDbEntity
  8
CENTER
 62
               0
100
AcDbLine
 10
-455.00799999999998
 20
835.99999999999989
 30
0.0
 11
-395.00799999999998
 21
835.99999999999989
 31
0.0
  0
LINE
  5
338
100
AcDbEntity
  8
CENTER
 62
               0
100
AcDbLine
 10
-470.00799999999998
 20
910.99999999999989
 30
0.0
 11
-470.00799999999998
 21
850.99999999999989
 31
0.0
  0
LINE
  5
339
100
AcDbEntity
  8
CENTER
 62
               0
100
AcDbLine
 10
-470.00799999999998
 20
820.99999999999989
 30
0.0
 11
-470.00799999999998
 21
760.99999999999989
 31
0.0
  0
ENDBLK
  5
33A
100
AcDbEntity
  8
CENTER
100
AcDbBlockEnd
  0
BLOCK
  5
33B
100
AcDbEntity
  8
DIMENTION
100
AcDbBlockBegin
  2
*D54
 70
               1
 10
0.0
 20
0.0
 30
0.0
  3
*D54
  1

  0
LINE
  5
33C
100
AcDbEntity
  8
DIMENTION
 62
               0
100
AcDbLine
 10
1520.392000004497
 20
2245.0000000031278
 30
0.0
 11
1436.392000004497
 21
2245.0000000031278
 31
0.0
  0
LINE
  5
33D
100
AcDbEntity
  8
DIMENTION
 62
               0
100
AcDbLine
 10
1520.392000004497
 20
2165.0000000031278
 30
0.0
 11
1436.392000004497
 21
2165.0000000031278
 31
0.0
  0
LINE
  5
33E
100
AcDbEntity
  8
DIMENTION
 62
               0
100
AcDbLine
 10
1456.392000004497
 20
2245.0000000031278
 30
0.0
 11
1456.392000004497
 21
2165.0000000031278
 31
0.0
  0
LINE
  5
33F
100
AcDbEntity
  8
DIMENTION
 62
               0
100
AcDbLine
 10
1456.392000004497
 20
2245.0000000031278
 30
0.0
 11
1462.2200584830821
 21
2223.2493896515653
 31
0.0
  0
LINE
  5
340
100
AcDbEntity
  8
DIMENTION
 62
               0
100
AcDbLine
 10
1456.392000004497
 20
2245.0000000031278
 30
0.0
 11
1450.563941525912
 21
2223.2493896515653
 31
0.0
  0
LINE
  5
341
100
AcDbEntity
  8
DIMENTION
 62
               0
100
AcDbLine
 10
1456.392000004497
 20
2165.0000000031278
 30
0.0
 11
1450.563941525912
 21
2186.7506103546903
 31
0.0
  0
LINE
  5
342
100
AcDbEntity
  8
DIMENTION
 62
               0
100
AcDbLine
 10
1456.392000004497
 20
2165.0000000031278
 30
0.0
 11
1462.2200584830821
 21
2186.7506103546903
 31
0.0
  0
MTEXT
  5
343
100
AcDbEntity
  8
DIMENTION
 62
               0
100
AcDbMText
 10
1413.0586666748891
 20
2183.8333333364612
 30
0.0
 40
33.866666666666667
 41
0.0
 71
               1
 72
               1
  1
80
  7
________
 11
0.0
 21
1.0
 31
0.0
  0
POINT
  5
344
100
AcDbEntity
  8
DEFPOINTS
 62
               0
100
AcDbPoint
 10
1530.392000004497
 20
2165.0000000031278
 30
0.0
  0
POINT
  5
345
100
AcDbEntity
  8
DEFPOINTS
 62
               0
100
AcDbPoint
 10
1530.392000004497
 20
2245.0000000031278
 30
0.0
  0
POINT
  5
346
100
AcDbEntity
  8
DEFPOINTS
 62
               0
100
AcDbPoint
 10
1456.392000004497
 20
2245.0000000031278
 30
0.0
  0
ENDBLK
  5
347
100
AcDbEntity
  8
DIMENTION
100
AcDbBlockEnd
  0
BLOCK
  5
348
100
AcDbEntity
  8
DIMENTION
100
AcDbBlockBegin
  2
*D55
 70
               1
 10
0.0
 20
0.0
 30
0.0
  3
*D55
  1

  0
LINE
  5
349
100
AcDbEntity
  8
DIMENTION
 62
               0
100
AcDbLine
 10
2007.392000004497
 20
2165.0000000031278
 30
0.0
 11
2182.3920000044973
 21
2165.0000000031278
 31
0.0
  0
LINE
  5
34A
100
AcDbEntity
  8
DIMENTION
 62
               0
100
AcDbLine
 10
2004.392000004497
 20
2565.0000000031278
 30
0.0
 11
2182.3920000044973
 21
2565.0000000031278
 31
0.0
  0
LINE
  5
34B
100
AcDbEntity
  8
DIMENTION
 62
               0
100
AcDbLine
 10
2162.3920000044973
 20
2165.0000000031278
 30
0.0
 11
2162.3920000044973
 21
2565.0000000031278
 31
0.0
  0
LINE
  5
34C
100
AcDbEntity
  8
DIMENTION
 62
               0
100
AcDbLine
 10
2162.3920000044973
 20
2165.0000000031278
 30
0.0
 11
2156.563941525912
 21
2186.7506103546903
 31
0.0
  0
LINE
  5
34D
100
AcDbEntity
  8
DIMENTION
 62
               0
100
AcDbLine
 10
2162.3920000044973
 20
2165.0000000031278
 30
0.0
 11
2168.2200584830821
 21
2186.7506103546903
 31
0.0
  0
LINE
  5
34E
100
AcDbEntity
  8
DIMENTION
 62
               0
100
AcDbLine
 10
2162.3920000044973
 20
2565.0000000031278
 30
0.0
 11
2168.2200584830821
 21
2543.2493896515653
 31
0.0
  0
LINE
  5
34F
100
AcDbEntity
  8
DIMENTION
 62
               0
100
AcDbLine
 10
2162.3920000044973
 20
2565.0000000031278
 30
0.0
 11
2156.563941525912
 21
2543.2493896515653
 31
0.0
  0
MTEXT
  5
350
100
AcDbEntity
  8
DIMENTION
 62
               0
100
AcDbMText
 10
2119.0586666748891
 20
2333.2500000031278
 30
0.0
 40
33.866666666666667
 41
0.0
 71
               1
 72
               1
  1
400
  7
________
 11
0.0
 21
1.0
 31
0.0
  0
POINT
  5
351
100
AcDbEntity
  8
DEFPOINTS
 62
               0
100
AcDbPoint
 10
1994.392000004497
 20
2565.0000000031278
 30
0.0
  0
POINT
  5
352
100
AcDbEntity
  8
DEFPOINTS
 62
               0
100
AcDbPoint
 10
1997.392000004497
 20
2165.0000000031278
 30
0.0
  0
POINT
  5
353
100
AcDbEntity
  8
DEFPOINTS
 62
               0
100
AcDbPoint
 10
2162.3920000044973
 20
2165.0000000031278
 30
0.0
  0
ENDBLK
  5
354
100
AcDbEntity
  8
DIMENTION
100
AcDbBlockEnd
  0
BLOCK
  5
355
100
AcDbEntity
  8
OBJECT
100
AcDbBlockBegin
  2
*U56
 70
               1
 10
0.0
 20
0.0
 30
0.0
  3
*U56
  1

  0
LINE
  5
356
100
AcDbEntity
  8
OBJECT
 62
               0
100
AcDbLine
 10
-1766.8183999999999
 20
-1033.9397999999999
 30
0.0
 11
-1764.3649999999998
 21
-1034.0
 31
0.0
  0
LINE
  5
357
100
AcDbEntity
  8
OBJECT
 62
               0
100
AcDbLine
 10
-1769.2665999999999
 20
-1033.7592
 30
0.0
 11
-1766.8183999999999
 21
-1033.9397999999999
 31
0.0
  0
LINE
  5
358
100
AcDbEntity
  8
OBJECT
 62
               0
100
AcDbLine
 10
-1771.7022999999999
 20
-1033.4586999999999
 30
0.0
 11
-1769.2665999999999
 21
-1033.7592
 31
0.0
  0
LINE
  5
359
100
AcDbEntity
  8
OBJECT
 62
               0
100
AcDbLine
 10
-1774.1209999999999
 20
-1033.0389999999998
 30
0.0
 11
-1771.7022999999999
 21
-1033.4586999999999
 31
0.0
  0
LINE
  5
35A
100
AcDbEntity
  8
OBJECT
 62
               0
100
AcDbLine
 10
-1776.5154999999997
 20
-1032.5011999999999
 30
0.0
 11
-1774.1209999999999
 21
-1033.0389999999998
 31
0.0
  0
LINE
  5
35B
100
AcDbEntity
  8
OBJECT
 62
               0
100
AcDbLine
 10
-1778.8814999999997
 20
-1031.8462999999999
 30
0.0
 11
-1776.5154999999997
 21
-1032.5011999999999
 31
0.0
  0
LINE
  5
35C
100
AcDbEntity
  8
OBJECT
 62
               0
100
AcDbLine
 10
-1781.2116999999998
 20
-1031.0763999999999
 30
0.0
 11
-1778.8814999999997
 21
-1031.8462999999999
 31
0.0
  0
LINE
  5
35D
100
AcDbEntity
  8
OBJECT
 62
               0
100
AcDbLine
 10
-1783.5020999999999
 20
-1030.1927999999998
 30
0.0
 11
-1781.2116999999998
 21
-1031.0763999999999
 31
0.0
  0
LINE
  5
35E
100
AcDbEntity
  8
OBJECT
 62
               0
100
AcDbLine
 10
-1785.7455999999997
 20
-1029.1981000000001
 30
0.0
 11
-1783.5020999999999
 21
-1030.1927999999998
 31
0.0
  0
LINE
  5
35F
100
AcDbEntity
  8
OBJECT
 62
               0
100
AcDbLine
 10
-1787.9382999999998
 20
-1028.0942
 30
0.0
 11
-1785.7455999999997
 21
-1029.1981000000001
 31
0.0
  0
LINE
  5
360
100
AcDbEntity
  8
OBJECT
 62
               0
100
AcDbLine
 10
-1790.0734999999997
 20
-1026.8843999999999
 30
0.0
 11
-1787.9382999999998
 21
-1028.0942
 31
0.0
  0
LINE
  5
361
100
AcDbEntity
  8
OBJECT
 62
               0
100
AcDbLine
 10
-1792.1473999999998
 20
-1025.5708999999999
 30
0.0
 11
-1790.0734999999997
 21
-1026.8843999999999
 31
0.0
  0
LINE
  5
362
100
AcDbEntity
  8
OBJECT
 62
               0
100
AcDbLine
 10
-1794.1536999999998
 20
-1024.1576
 30
0.0
 11
-1792.1473999999998
 21
-1025.5708999999999
 31
0.0
  0
LINE
  5
363
100
AcDbEntity
  8
OBJECT
 62
               0
100
AcDbLine
 10
-1796.0887999999998
 20
-1022.6470999999999
 30
0.0
 11
-1794.1536999999998
 21
-1024.1576
 31
0.0
  0
LINE
  5
364
100
AcDbEntity
  8
OBJECT
 62
               0
100
AcDbLine
 10
-1797.9469999999999
 20
-1021.0438999999999
 30
0.0
 11
-1796.0887999999998
 21
-1022.6470999999999
 31
0.0
  0
LINE
  5
365
100
AcDbEntity
  8
OBJECT
 62
               0
100
AcDbLine
 10
-1799.7245999999998
 20
-1019.3510999999999
 30
0.0
 11
-1797.9469999999999
 21
-1021.0438999999999
 31
0.0
  0
LINE
  5
366
100
AcDbEntity
  8
OBJECT
 62
               0
100
AcDbLine
 10
-1801.4165999999998
 20
-1017.5735
 30
0.0
 11
-1799.7245999999998
 21
-1019.3510999999999
 31
0.0
  0
LINE
  5
367
100
AcDbEntity
  8
OBJECT
 62
               0
100
AcDbLine
 10
-1803.0197999999998
 20
-1015.7144
 30
0.0
 11
-1801.4165999999998
 21
-1017.5735
 31
0.0
  0
LINE
  5
368
100
AcDbEntity
  8
OBJECT
 62
               0
100
AcDbLine
 10
-1804.5293999999999
 20
-1013.7794999999999
 30
0.0
 11
-1803.0197999999998
 21
-1015.7144
 31
0.0
  0
LINE
  5
369
100
AcDbEntity
  8
OBJECT
 62
               0
100
AcDbLine
 10
-1805.9426999999998
 20
-1011.7721999999999
 30
0.0
 11
-1804.5293999999999
 21
-1013.7794999999999
 31
0.0
  0
LINE
  5
36A
100
AcDbEntity
  8
OBJECT
 62
               0
100
AcDbLine
 10
-1807.2552999999998
 20
-1009.6986999999999
 30
0.0
 11
-1805.9426999999998
 21
-1011.7721999999999
 31
0.0
  0
LINE
  5
36B
100
AcDbEntity
  8
OBJECT
 62
               0
100
AcDbLine
 10
-1808.4649999999999
 20
-1007.5624999999999
 30
0.0
 11
-1807.2552999999998
 21
-1009.6986999999999
 31
0.0
  0
LINE
  5
36C
100
AcDbEntity
  8
OBJECT
 62
               0
100
AcDbLine
 10
-1809.5679999999998
 20
-1005.3702
 30
0.0
 11
-1808.4649999999999
 21
-1007.5624999999999
 31
0.0
  0
LINE
  5
36D
100
AcDbEntity
  8
OBJECT
 62
               0
100
AcDbLine
 10
-1810.5624999999998
 20
-1003.1257999999999
 30
0.0
 11
-1809.5679999999998
 21
-1005.3702
 31
0.0
  0
LINE
  5
36E
100
AcDbEntity
  8
OBJECT
 62
               0
100
AcDbLine
 10
-1811.4452999999999
 20
-1000.8358999999999
 30
0.0
 11
-1810.5624999999998
 21
-1003.1257999999999
 31
0.0
  0
LINE
  5
36F
100
AcDbEntity
  8
OBJECT
 62
               0
100
AcDbLine
 10
-1812.2148999999999
 20
-998.50479999999993
 30
0.0
 11
-1811.4452999999999
 21
-1000.8358999999999
 31
0.0
  0
LINE
  5
370
100
AcDbEntity
  8
OBJECT
 62
               0
100
AcDbLine
 10
-1812.8689999999999
 20
-996.13939999999991
 30
0.0
 11
-1812.2148999999999
 21
-998.50479999999993
 31
0.0
  0
LINE
  5
371
100
AcDbEntity
  8
OBJECT
 62
               0
100
AcDbLine
 10
-1813.4061999999999
 20
-993.74479999999994
 30
0.0
 11
-1812.8689999999999
 21
-996.13939999999991
 31
0.0
  0
LINE
  5
372
100
AcDbEntity
  8
OBJECT
 62
               0
100
AcDbLine
 10
-1813.8253999999999
 20
-991.32599999999991
 30
0.0
 11
-1813.4061999999999
 21
-993.74479999999994
 31
0.0
  0
LINE
  5
373
100
AcDbEntity
  8
OBJECT
 62
               0
100
AcDbLine
 10
-1814.1252999999999
 20
-988.89019999999994
 30
0.0
 11
-1813.8253999999999
 21
-991.32599999999991
 31
0.0
  0
LINE
  5
374
100
AcDbEntity
  8
OBJECT
 62
               0
100
AcDbLine
 10
-1814.3052999999998
 20
-986.44189999999992
 30
0.0
 11
-1814.1252999999999
 21
-988.89019999999994
 31
0.0
  0
LINE
  5
375
100
AcDbEntity
  8
OBJECT
 62
               0
100
AcDbLine
 10
-1814.3649999999998
 20
-983.99999999999989
 30
0.0
 11
-1814.3052999999998
 21
-986.44189999999992
 31
0.0
  0
LINE
  5
376
100
AcDbEntity
  8
OBJECT
 62
               0
100
AcDbLine
 10
-1814.3649999999998
 20
-833.99999999999989
 30
0.0
 11
-1814.3649999999998
 21
-983.99999999999989
 31
0.0
  0
LINE
  5
377
100
AcDbEntity
  8
OBJECT
 62
               0
100
AcDbLine
 10
-1802.6983999999998
 20
-833.99999999999989
 30
0.0
 11
-1814.3649999999998
 21
-833.99999999999989
 31
0.0
  0
LINE
  5
378
100
AcDbEntity
  8
OBJECT
 62
               0
100
AcDbLine
 10
-1802.6983999999998
 20
-984.69769999999994
 30
0.0
 11
-1802.6983999999998
 21
-833.99999999999989
 31
0.0
  0
LINE
  5
379
100
AcDbEntity
  8
OBJECT
 62
               0
100
AcDbLine
 10
-1802.6506999999999
 20
-986.65129999999988
 30
0.0
 11
-1802.6983999999998
 21
-984.69769999999994
 31
0.0
  0
LINE
  5
37A
100
AcDbEntity
  8
OBJECT
 62
               0
100
AcDbLine
 10
-1802.5065999999999
 20
-988.60989999999993
 30
0.0
 11
-1802.6506999999999
 21
-986.65129999999988
 31
0.0
  0
LINE
  5
37B
100
AcDbEntity
  8
OBJECT
 62
               0
100
AcDbLine
 10
-1802.2666999999999
 20
-990.55849999999987
 30
0.0
 11
-1802.5065999999999
 21
-988.60989999999993
 31
0.0
  0
LINE
  5
37C
100
AcDbEntity
  8
OBJECT
 62
               0
100
AcDbLine
 10
-1801.9313999999999
 20
-992.49349999999993
 30
0.0
 11
-1802.2666999999999
 21
-990.55849999999987
 31
0.0
  0
LINE
  5
37D
100
AcDbEntity
  8
OBJECT
 62
               0
100
AcDbLine
 10
-1801.5015999999998
 20
-994.40919999999994
 30
0.0
 11
-1801.9313999999999
 21
-992.49349999999993
 31
0.0
  0
LINE
  5
37E
100
AcDbEntity
  8
OBJECT
 62
               0
100
AcDbLine
 10
-1800.9782999999998
 20
-996.30149999999992
 30
0.0
 11
-1801.5015999999998
 21
-994.40919999999994
 31
0.0
  0
LINE
  5
37F
100
AcDbEntity
  8
OBJECT
 62
               0
100
AcDbLine
 10
-1800.3625999999999
 20
-998.16639999999995
 30
0.0
 11
-1800.9782999999998
 21
-996.30149999999992
 31
0.0
  0
LINE
  5
380
100
AcDbEntity
  8
OBJECT
 62
               0
100
AcDbLine
 10
-1799.6563999999998
 20
-999.99829999999986
 30
0.0
 11
-1800.3625999999999
 21
-998.16639999999995
 31
0.0
  0
LINE
  5
381
100
AcDbEntity
  8
OBJECT
 62
               0
100
AcDbLine
 10
-1798.8607999999999
 20
-1001.7938999999999
 30
0.0
 11
-1799.6563999999998
 21
-999.99829999999986
 31
0.0
  0
LINE
  5
382
100
AcDbEntity
  8
OBJECT
 62
               0
100
AcDbLine
 10
-1797.9783999999997
 20
-1003.5477
 30
0.0
 11
-1798.8607999999999
 21
-1001.7938999999999
 31
0.0
  0
LINE
  5
383
100
AcDbEntity
  8
OBJECT
 62
               0
100
AcDbLine
 10
-1797.0105999999998
 20
-1005.2565999999999
 30
0.0
 11
-1797.9783999999997
 21
-1003.5477
 31
0.0
  0
LINE
  5
384
100
AcDbEntity
  8
OBJECT
 62
               0
100
AcDbLine
 10
-1795.9604999999999
 20
-1006.9155
 30
0.0
 11
-1797.0105999999998
 21
-1005.2565999999999
 31
0.0
  0
LINE
  5
385
100
AcDbEntity
  8
OBJECT
 62
               0
100
AcDbLine
 10
-1794.8299
 20
-1008.5212999999999
 30
0.0
 11
-1795.9604999999999
 21
-1006.9155
 31
0.0
  0
LINE
  5
386
100
AcDbEntity
  8
OBJECT
 62
               0
100
AcDbLine
 10
-1793.6222999999998
 20
-1010.0691999999999
 30
0.0
 11
-1794.8299
 21
-1008.5212999999999
 31
0.0
  0
LINE
  5
387
100
AcDbEntity
  8
OBJECT
 62
               0
100
AcDbLine
 10
-1792.3396999999998
 20
-1011.5564999999999
 30
0.0
 11
-1793.6222999999998
 21
-1010.0691999999999
 31
0.0
  0
LINE
  5
388
100
AcDbEntity
  8
OBJECT
 62
               0
100
AcDbLine
 10
-1790.9860999999999
 20
-1012.9785999999999
 30
0.0
 11
-1792.3396999999998
 21
-1011.5564999999999
 31
0.0
  0
LINE
  5
389
100
AcDbEntity
  8
OBJECT
 62
               0
100
AcDbLine
 10
-1789.5639999999999
 20
-1014.3327999999999
 30
0.0
 11
-1790.9860999999999
 21
-1012.9785999999999
 31
0.0
  0
LINE
  5
38A
100
AcDbEntity
  8
OBJECT
 62
               0
100
AcDbLine
 10
-1788.0774999999999
 20
-1015.6153999999999
 30
0.0
 11
-1789.5639999999999
 21
-1014.3327999999999
 31
0.0
  0
LINE
  5
38B
100
AcDbEntity
  8
OBJECT
 62
               0
100
AcDbLine
 10
-1786.5293999999999
 20
-1016.8237999999999
 30
0.0
 11
-1788.0774999999999
 21
-1015.6153999999999
 31
0.0
  0
LINE
  5
38C
100
AcDbEntity
  8
OBJECT
 62
               0
100
AcDbLine
 10
-1784.9242999999999
 20
-1017.9544
 30
0.0
 11
-1786.5293999999999
 21
-1016.8237999999999
 31
0.0
  0
LINE
  5
38D
100
AcDbEntity
  8
OBJECT
 62
               0
100
AcDbLine
 10
-1783.2651999999998
 20
-1019.0051999999999
 30
0.0
 11
-1784.9242999999999
 21
-1017.9544
 31
0.0
  0
LINE
  5
38E
100
AcDbEntity
  8
OBJECT
 62
               0
100
AcDbLine
 10
-1781.5569999999998
 20
-1019.9730999999999
 30
0.0
 11
-1783.2651999999998
 21
-1019.0051999999999
 31
0.0
  0
LINE
  5
38F
100
AcDbEntity
  8
OBJECT
 62
               0
100
AcDbLine
 10
-1779.8028999999999
 20
-1020.8561999999999
 30
0.0
 11
-1781.5569999999998
 21
-1019.9730999999999
 31
0.0
  0
LINE
  5
390
100
AcDbEntity
  8
OBJECT
 62
               0
100
AcDbLine
 10
-1778.0079999999998
 20
-1021.6519
 30
0.0
 11
-1779.8028999999999
 21
-1020.8561999999999
 31
0.0
  0
LINE
  5
391
100
AcDbEntity
  8
OBJECT
 62
               0
100
AcDbLine
 10
-1776.1757999999998
 20
-1022.3587999999999
 30
0.0
 11
-1778.0079999999998
 21
-1021.6519
 31
0.0
  0
LINE
  5
392
100
AcDbEntity
  8
OBJECT
 62
               0
100
AcDbLine
 10
-1774.3115999999998
 20
-1022.9748
 30
0.0
 11
-1776.1757999999998
 21
-1022.3587999999999
 31
0.0
  0
LINE
  5
393
100
AcDbEntity
  8
OBJECT
 62
               0
100
AcDbLine
 10
-1772.4187999999999
 20
-1023.4985999999999
 30
0.0
 11
-1774.3115999999998
 21
-1022.9748
 31
0.0
  0
LINE
  5
394
100
AcDbEntity
  8
OBJECT
 62
               0
100
AcDbLine
 10
-1770.5031999999999
 20
-1023.9288999999999
 30
0.0
 11
-1772.4187999999999
 21
-1023.4985999999999
 31
0.0
  0
LINE
  5
395
100
AcDbEntity
  8
OBJECT
 62
               0
100
AcDbLine
 10
-1768.5681999999999
 20
-1024.2646999999999
 30
0.0
 11
-1770.5031999999999
 21
-1023.9288999999999
 31
0.0
  0
LINE
  5
396
100
AcDbEntity
  8
OBJECT
 62
               0
100
AcDbLine
 10
-1766.6196999999997
 20
-1024.5049999999999
 30
0.0
 11
-1768.5681999999999
 21
-1024.2646999999999
 31
0.0
  0
LINE
  5
397
100
AcDbEntity
  8
OBJECT
 62
               0
100
AcDbLine
 10
-1764.6610999999998
 20
-1024.6495
 30
0.0
 11
-1766.6196999999997
 21
-1024.5049999999999
 31
0.0
  0
LINE
  5
398
100
AcDbEntity
  8
OBJECT
 62
               0
100
AcDbLine
 10
-1762.6983999999998
 20
-1024.6976999999999
 30
0.0
 11
-1764.6610999999998
 21
-1024.6495
 31
0.0
  0
ENDBLK
  5
399
100
AcDbEntity
  8
OBJECT
100
AcDbBlockEnd
  0
BLOCK
  5
39A
100
AcDbEntity
  8
OBJECT
100
AcDbBlockBegin
  2
*U57
 70
               1
 10
0.0
 20
0.0
 30
0.0
  3
*U57
  1

  0
LINE
  5
39B
100
AcDbEntity
  8
OBJECT
 62
               0
100
AcDbLine
 10
-314.00799999999992
 20
-968.99999999999989
 30
0.0
 11
-314.00799999999992
 21
-1179.0
 31
0.0
  0
LINE
  5
39C
100
AcDbEntity
  8
OBJECT
 62
               0
100
AcDbLine
 10
-276.00799999999992
 20
-968.99999999999989
 30
0.0
 11
-276.00799999999992
 21
-1179.0
 31
0.0
  0
ENDBLK
  5
39D
100
AcDbEntity
  8
OBJECT
100
AcDbBlockEnd
  0
BLOCK
  5
39E
100
AcDbEntity
  8
OBJECT
100
AcDbBlockBegin
  2
*U58
 70
               1
 10
0.0
 20
0.0
 30
0.0
  3
*U58
  1

  0
LINE
  5
39F
100
AcDbEntity
  8
OBJECT
 62
               0
100
AcDbLine
 10
-1424.0079999999998
 20
-968.99999999999989
 30
0.0
 11
-1424.0079999999998
 21
-1179.0
 31
0.0
  0
LINE
  5
3A0
100
AcDbEntity
  8
OBJECT
 62
               0
100
AcDbLine
 10
-1386.0079999999998
 20
-968.99999999999989
 30
0.0
 11
-1386.0079999999998
 21
-1179.0
 31
0.0
  0
ENDBLK
  5
3A1
100
AcDbEntity
  8
OBJECT
100
AcDbBlockEnd
  0
BLOCK
  5
3A2
100
AcDbEntity
  8
OBJECT
100
AcDbBlockBegin
  2
*U59
 70
               1
 10
0.0
 20
0.0
 30
0.0
  3
*U59
  1

  0
LINE
  5
3A3
100
AcDbEntity
  8
OBJECT
 62
               0
100
AcDbLine
 10
648.99199999999996
 20
-968.99999999999989
 30
0.0
 11
648.99199999999996
 21
-1179.0
 31
0.0
  0
LINE
  5
3A4
100
AcDbEntity
  8
OBJECT
 62
               0
100
AcDbLine
 10
610.99199999999996
 20
-968.99999999999989
 30
0.0
 11
610.99199999999996
 21
-1179.0
 31
0.0
  0
ENDBLK
  5
3A5
100
AcDbEntity
  8
OBJECT
100
AcDbBlockEnd
  0
BLOCK
  5
3A6
100
AcDbEntity
  8
OBJECT
100
AcDbBlockBegin
  2
*U60
 70
               1
 10
0.0
 20
0.0
 30
0.0
  3
*U60
  1

  0
LINE
  5
3A7
100
AcDbEntity
  8
OBJECT
 62
               0
100
AcDbLine
 10
1238.992
 20
-1119.0
 30
0.0
 11
1238.992
 21
-1179.0
 31
0.0
  0
LINE
  5
3A8
100
AcDbEntity
  8
OBJECT
 62
               0
100
AcDbLine
 10
1200.992
 20
-1119.0
 30
0.0
 11
1200.992
 21
-1179.0
 31
0.0
  0
ENDBLK
  5
3A9
100
AcDbEntity
  8
OBJECT
100
AcDbBlockEnd
  0
BLOCK
  5
3AA
100
AcDbEntity
  8
FRAME
100
AcDbBlockBegin
  2
*U61
 70
               1
 10
0.0
 20
0.0
 30
0.0
  3
*U61
  1

  0
ENDBLK
  5
3AB
100
AcDbEntity
  8
FRAME
100
AcDbBlockEnd
  0
BLOCK
  5
3AC
100
AcDbEntity
  8
FRAME
100
AcDbBlockBegin
  2
*U62
 70
               1
 10
0.0
 20
0.0
 30
0.0
  3
*U62
  1

  0
ENDBLK
  5
3AD
100
AcDbEntity
  8
FRAME
100
AcDbBlockEnd
  0
BLOCK
  5
3AE
100
AcDbEntity
  8
FRAME
100
AcDbBlockBegin
  2
*U63
 70
               1
 10
0.0
 20
0.0
 30
0.0
  3
*U63
  1

  0
ENDBLK
  5
3AF
100
AcDbEntity
  8
FRAME
100
AcDbBlockEnd
  0
BLOCK
  5
3B0
100
AcDbEntity
  8
FRAME
100
AcDbBlockBegin
  2
*U64
 70
               1
 10
0.0
 20
0.0
 30
0.0
  3
*U64
  1

  0
ENDBLK
  5
3B1
100
AcDbEntity
  8
FRAME
100
AcDbBlockEnd
  0
BLOCK
  5
3B2
100
AcDbEntity
  8
FRAME
100
AcDbBlockBegin
  2
*U65
 70
               1
 10
0.0
 20
0.0
 30
0.0
  3
*U65
  1

  0
ENDBLK
  5
3B3
100
AcDbEntity
  8
FRAME
100
AcDbBlockEnd
  0
BLOCK
  5
3B4
100
AcDbEntity
  8
FRAME
100
AcDbBlockBegin
  2
*U66
 70
               1
 10
0.0
 20
0.0
 30
0.0
  3
*U66
  1

  0
INSERT
  5
3B5
100
AcDbEntity
  8
FRAME
 62
               0
100
AcDbBlockReference
  2
*U61
 10
0.0
 20
0.0
 30
0.0
  0
INSERT
  5
3B6
100
AcDbEntity
  8
FRAME
 62
               0
100
AcDbBlockReference
  2
*U62
 10
0.0
 20
0.0
 30
0.0
  0
INSERT
  5
3B7
100
AcDbEntity
  8
FRAME
 62
               0
100
AcDbBlockReference
  2
*U63
 10
0.0
 20
0.0
 30
0.0
  0
INSERT
  5
3B8
100
AcDbEntity
  8
FRAME
 62
               0
100
AcDbBlockReference
  2
*U64
 10
0.0
 20
0.0
 30
0.0
  0
INSERT
  5
3B9
100
AcDbEntity
  8
FRAME
 62
               0
100
AcDbBlockReference
  2
*U65
 10
0.0
 20
0.0
 30
0.0
  0
POLYLINE
  5
3BA
100
AcDbEntity
  8
FRAME
 62
               0
100
AcDb2dPolyline
 66
               1
 10
0.0
 20
0.0
 30
0.0
 70
             129
  0
VERTEX
  5
3BB
100
AcDbEntity
  8
FRAME
 62
               0
100
AcDbVertex
100
AcDb2dVertex
 10
-1802.0774244513987
 20
-1321.307208978104
 30
0.0
  0
VERTEX
  5
3BC
100
AcDbEntity
  8
FRAME
 62
               0
100
AcDbVertex
100
AcDb2dVertex
 10
-1815.0380303353863
 20
-1321.307208978104
 30
0.0
  0
VERTEX
  5
3BD
100
AcDbEntity
  8
FRAME
 62
               0
100
AcDbVertex
100
AcDb2dVertex
 10
-1848.2527724214538
 20
-1321.307208978104
 30
0.0
  0
VERTEX
  5
3BE
100
AcDbEntity
  8
FRAME
 62
               0
100
AcDbVertex
100
AcDb2dVertex
 10
-1861.0383384047427
 20
-1321.307208978104
 30
0.0
  0
VERTEX
  5
3BF
100
AcDbEntity
  8
FRAME
 62
               0
100
AcDbVertex
100
AcDb2dVertex
 10
-1862.5918598649823
 20
-1321.307208978104
 30
0.0
  0
VERTEX
  5
3C0
100
AcDbEntity
  8
FRAME
 62
               0
100
AcDbVertex
100
AcDb2dVertex
 10
-1862.5918598649823
 20
-1378.9188146886893
 30
0.0
  0
VERTEX
  5
3C1
100
AcDbEntity
  8
FRAME
 62
               0
100
AcDbVertex
100
AcDb2dVertex
 10
-1848.2527724214538
 20
-1378.9188146886893
 30
0.0
  0
VERTEX
  5
3C2
100
AcDbEntity
  8
FRAME
 62
               0
100
AcDbVertex
100
AcDb2dVertex
 10
-1848.2527724214538
 20
-1376.0232783148861
 30
0.0
  0
VERTEX
  5
3C3
100
AcDbEntity
  8
FRAME
 62
               0
100
AcDbVertex
100
AcDb2dVertex
 10
-1815.0380303353863
 20
-1376.0232783148861
 30
0.0
  0
VERTEX
  5
3C4
100
AcDbEntity
  8
FRAME
 62
               0
100
AcDbVertex
100
AcDb2dVertex
 10
-1815.0380303353863
 20
-1378.9188146886893
 30
0.0
  0
VERTEX
  5
3C5
100
AcDbEntity
  8
FRAME
 62
               0
100
AcDbVertex
100
AcDb2dVertex
 10
-1800.7025948491469
 20
-1378.9188146886893
 30
0.0
  0
VERTEX
  5
3C6
100
AcDbEntity
  8
FRAME
 62
               0
100
AcDbVertex
100
AcDb2dVertex
 10
-1800.7025948491469
 20
-1321.307208978104
 30
0.0
  0
SEQEND
  5
3C7
100
AcDbEntity
  8
FRAME
 62
               0
  0
ENDBLK
  5
3C8
100
AcDbEntity
  8
FRAME
100
AcDbBlockEnd
  0
BLOCK
  5
3C9
100
AcDbEntity
  8
OBJECT
100
AcDbBlockBegin
  2
*U67
 70
               1
 10
0.0
 20
0.0
 30
0.0
  3
*U67
  1

  0
LINE
  5
3CA
100
AcDbEntity
  8
OBJECT
 62
               0
100
AcDbLine
 10
-265.00799999999992
 20
120.99999999999983
 30
0.0
 11
-145.00799999999992
 21
120.99999999999983
 31
0.0
  0
LINE
  5
3CB
100
AcDbEntity
  8
OBJECT
 62
               0
100
AcDbLine
 10
-145.00799999999992
 20
120.99999999999983
 30
0.0
 11
-145.00799999999992
 21
40.999999999999829
 31
0.0
  0
LINE
  5
3CC
100
AcDbEntity
  8
OBJECT
 62
               0
100
AcDbLine
 10
-265.00799999999992
 20
120.99999999999983
 30
0.0
 11
-265.00799999999992
 21
-49.000000000000171
 31
0.0
  0
LINE
  5
3CD
100
AcDbEntity
  8
OBJECT
 62
               0
100
AcDbLine
 10
-145.00799999999992
 20
40.999999999999829
 30
0.0
 11
-265.00799999999992
 21
-49.000000000000171
 31
0.0
  0
ENDBLK
  5
3CE
100
AcDbEntity
  8
OBJECT
100
AcDbBlockEnd
  0
BLOCK
  5
3CF
100
AcDbEntity
  8
OBJECT
100
AcDbBlockBegin
  2
*U68
 70
               1
 10
0.0
 20
0.0
 30
0.0
  3
*U68
  1

  0
LINE
  5
3D0
100
AcDbEntity
  8
OBJECT
 62
               0
100
AcDbLine
 10
-1435.008
 20
120.99999999999983
 30
0.0
 11
-1555.008
 21
120.99999999999983
 31
0.0
  0
LINE
  5
3D1
100
AcDbEntity
  8
OBJECT
 62
               0
100
AcDbLine
 10
-1555.008
 20
120.99999999999983
 30
0.0
 11
-1555.008
 21
40.999999999999829
 31
0.0
  0
LINE
  5
3D2
100
AcDbEntity
  8
OBJECT
 62
               0
100
AcDbLine
 10
-1435.008
 20
120.99999999999983
 30
0.0
 11
-1435.008
 21
-49.000000000000171
 31
0.0
  0
LINE
  5
3D3
100
AcDbEntity
  8
OBJECT
 62
               0
100
AcDbLine
 10
-1555.008
 20
40.999999999999829
 30
0.0
 11
-1435.008
 21
-49.000000000000171
 31
0.0
  0
ENDBLK
  5
3D4
100
AcDbEntity
  8
OBJECT
100
AcDbBlockEnd
  0
BLOCK
  5
3D5
100
AcDbEntity
  8
OUTLINE
100
AcDbBlockBegin
  2
*U69
 70
               1
 10
0.0
 20
0.0
 30
0.0
  3
*U69
  1

  0
LINE
  5
3D6
100
AcDbEntity
  8
OUTLINE
  6
STYLE_08
 62
               0
100
AcDbLine
 10
-1605.008
 20
-98.999999904570302
 30
0.0
 11
-1435.008
 21
-98.999999904566664
 31
0.0
  0
LINE
  5
3D7
100
AcDbEntity
  8
OUTLINE
  6
STYLE_08
 62
               0
100
AcDbLine
 10
-1685.008
 20
-178.99999990457076
 30
0.0
 11
-1605.008
 21
-98.999999904570302
 31
0.0
  0
LINE
  5
3D8
100
AcDbEntity
  8
OUTLINE
  6
STYLE_08
 62
               0
100
AcDbLine
 10
-1685.008
 20
-398.99999999999994
 30
0.0
 11
-1685.008
 21
-178.99999990457076
 31
0.0
  0
LINE
  5
3D9
100
AcDbEntity
  8
OUTLINE
  6
STYLE_08
 62
               0
100
AcDbLine
 10
-1435.008
 20
-398.99999999999994
 30
0.0
 11
-1435.008
 21
-98.999999904566664
 31
0.0
  0
LINE
  5
3DA
100
AcDbEntity
  8
OUTLINE
  6
STYLE_08
 62
               0
100
AcDbLine
 10
-1605.008
 20
-98.999999904574395
 30
0.0
 11
-1685.008
 21
-178.99999990457439
 31
0.0
  0
LINE
  5
3DB
100
AcDbEntity
  8
OUTLINE
  6
STYLE_08
 62
               0
100
AcDbLine
 10
-1435.008
 20
-398.99999999999994
 30
0.0
 11
-1685.008
 21
-398.99999999999994
 31
0.0
  0
ENDBLK
  5
3DC
100
AcDbEntity
  8
OUTLINE
100
AcDbBlockEnd
  0
BLOCK
  5
3DD
100
AcDbEntity
  8
OUTLINE
100
AcDbBlockBegin
  2
*U70
 70
               1
 10
0.0
 20
0.0
 30
0.0
  3
*U70
  1

  0
LINE
  5
3DE
100
AcDbEntity
  8
OUTLINE
  6
STYLE_08
 62
               0
100
AcDbLine
 10
-95.007999999999925
 20
-98.999999904570302
 30
0.0
 11
-265.00799999999992
 21
-98.999999904566664
 31
0.0
  0
LINE
  5
3DF
100
AcDbEntity
  8
OUTLINE
  6
STYLE_08
 62
               0
100
AcDbLine
 10
-15.007999999999925
 20
-178.99999990457076
 30
0.0
 11
-95.007999999999925
 21
-98.999999904570302
 31
0.0
  0
LINE
  5
3E0
100
AcDbEntity
  8
OUTLINE
  6
STYLE_08
 62
               0
100
AcDbLine
 10
-15.007999999999925
 20
-398.99999999999994
 30
0.0
 11
-15.007999999999925
 21
-178.99999990457076
 31
0.0
  0
LINE
  5
3E1
100
AcDbEntity
  8
OUTLINE
  6
STYLE_08
 62
               0
100
AcDbLine
 10
-265.00799999999992
 20
-398.99999999999994
 30
0.0
 11
-265.00799999999992
 21
-98.999999904566664
 31
0.0
  0
LINE
  5
3E2
100
AcDbEntity
  8
OUTLINE
  6
STYLE_08
 62
               0
100
AcDbLine
 10
-95.007999999999925
 20
-98.999999904574395
 30
0.0
 11
-15.007999999999925
 21
-178.99999990457439
 31
0.0
  0
LINE
  5
3E3
100
AcDbEntity
  8
OUTLINE
  6
STYLE_08
 62
               0
100
AcDbLine
 10
-265.00799999999992
 20
-398.99999999999994
 30
0.0
 11
-15.007999999999925
 21
-398.99999999999994
 31
0.0
  0
ENDBLK
  5
3E4
100
AcDbEntity
  8
OUTLINE
100
AcDbBlockEnd
  0
BLOCK
  5
3E5
100
AcDbEntity
  8
DIMENTION
100
AcDbBlockBegin
  2
*D71
 70
               1
 10
0.0
 20
0.0
 30
0.0
  3
*D71
  1

  0
LINE
  5
3E6
100
AcDbEntity
  8
DIMENTION
 62
               0
100
AcDbLine
 10
1760.3920000044973
 20
1540.0000000031278
 30
0.0
 11
1760.3920000044973
 21
1643.0000000031278
 31
0.0
  0
LINE
  5
3E7
100
AcDbEntity
  8
DIMENTION
 62
               0
100
AcDbLine
 10
1880.3920000044973
 20
1540.0000000031278
 30
0.0
 11
1880.3920000044973
 21
1643.0000000031278
 31
0.0
  0
LINE
  5
3E8
100
AcDbEntity
  8
DIMENTION
 62
               0
100
AcDbLine
 10
1760.3920000044973
 20
1623.0000000031278
 30
0.0
 11
1880.3920000044973
 21
1623.0000000031278
 31
0.0
  0
LINE
  5
3E9
100
AcDbEntity
  8
DIMENTION
 62
               0
100
AcDbLine
 10
1760.3920000044973
 20
1623.0000000031278
 30
0.0
 11
1782.1426103560598
 21
1628.828058481713
 31
0.0
  0
LINE
  5
3EA
100
AcDbEntity
  8
DIMENTION
 62
               0
100
AcDbLine
 10
1760.3920000044973
 20
1623.0000000031278
 30
0.0
 11
1782.1426103560598
 21
1617.1719415245427
 31
0.0
  0
LINE
  5
3EB
100
AcDbEntity
  8
DIMENTION
 62
               0
100
AcDbLine
 10
1880.3920000044973
 20
1623.0000000031278
 30
0.0
 11
1858.6413896529348
 21
1617.1719415245427
 31
0.0
  0
LINE
  5
3EC
100
AcDbEntity
  8
DIMENTION
 62
               0
100
AcDbLine
 10
1880.3920000044973
 20
1623.0000000031278
 30
0.0
 11
1858.6413896529348
 21
1628.828058481713
 31
0.0
  0
MTEXT
  5
3ED
100
AcDbEntity
  8
DIMENTION
 62
               0
100
AcDbMText
 10
1788.6420000044973
 20
1666.3333333327359
 30
0.0
 40
33.866666666666667
 41
0.0
 71
               1
 72
               1
  1
120
  7
________
  0
POINT
  5
3EE
100
AcDbEntity
  8
DEFPOINTS
 62
               0
100
AcDbPoint
 10
1880.3920000044973
 20
1530.0000000031278
 30
0.0
  0
POINT
  5
3EF
100
AcDbEntity
  8
DEFPOINTS
 62
               0
100
AcDbPoint
 10
1760.3920000044973
 20
1530.0000000031278
 30
0.0
  0
POINT
  5
3F0
100
AcDbEntity
  8
DEFPOINTS
 62
               0
100
AcDbPoint
 10
1760.3920000044973
 20
1623.0000000031278
 30
0.0
  0
ENDBLK
  5
3F1
100
AcDbEntity
  8
DIMENTION
100
AcDbBlockEnd
  0
BLOCK
  5
3F2
100
AcDbEntity
  8
DIMENTION
100
AcDbBlockBegin
  2
*D72
 70
               1
 10
0.0
 20
0.0
 30
0.0
  3
*D72
  1

  0
LINE
  5
3F3
100
AcDbEntity
  8
DIMENTION
 62
               0
100
AcDbLine
 10
470.39200000449705
 20
1540.0000000031278
 30
0.0
 11
470.39200000449705
 21
1643.0000000031278
 31
0.0
  0
LINE
  5
3F4
100
AcDbEntity
  8
DIMENTION
 62
               0
100
AcDbLine
 10
590.39200000449705
 20
1540.0000000031278
 30
0.0
 11
590.39200000449705
 21
1643.0000000031278
 31
0.0
  0
LINE
  5
3F5
100
AcDbEntity
  8
DIMENTION
 62
               0
100
AcDbLine
 10
470.39200000449705
 20
1623.0000000031278
 30
0.0
 11
590.39200000449705
 21
1623.0000000031278
 31
0.0
  0
LINE
  5
3F6
100
AcDbEntity
  8
DIMENTION
 62
               0
100
AcDbLine
 10
470.39200000449705
 20
1623.0000000031278
 30
0.0
 11
492.14261035605955
 21
1628.828058481713
 31
0.0
  0
LINE
  5
3F7
100
AcDbEntity
  8
DIMENTION
 62
               0
100
AcDbLine
 10
470.39200000449705
 20
1623.0000000031278
 30
0.0
 11
492.14261035605955
 21
1617.1719415245427
 31
0.0
  0
LINE
  5
3F8
100
AcDbEntity
  8
DIMENTION
 62
               0
100
AcDbLine
 10
590.39200000449705
 20
1623.0000000031278
 30
0.0
 11
568.64138965293455
 21
1617.1719415245427
 31
0.0
  0
LINE
  5
3F9
100
AcDbEntity
  8
DIMENTION
 62
               0
100
AcDbLine
 10
590.39200000449705
 20
1623.0000000031278
 30
0.0
 11
568.64138965293455
 21
1628.828058481713
 31
0.0
  0
MTEXT
  5
3FA
100
AcDbEntity
  8
DIMENTION
 62
               0
100
AcDbMText
 10
498.64200000449705
 20
1666.3333333327359
 30
0.0
 40
33.866666666666667
 41
0.0
 71
               1
 72
               1
  1
120
  7
________
  0
POINT
  5
3FB
100
AcDbEntity
  8
DEFPOINTS
 62
               0
100
AcDbPoint
 10
590.39200000449705
 20
1530.0000000031278
 30
0.0
  0
POINT
  5
3FC
100
AcDbEntity
  8
DEFPOINTS
 62
               0
100
AcDbPoint
 10
470.39200000449705
 20
1530.0000000031278
 30
0.0
  0
POINT
  5
3FD
100
AcDbEntity
  8
DEFPOINTS
 62
               0
100
AcDbPoint
 10
470.39200000449705
 20
1623.0000000031278
 30
0.0
  0
ENDBLK
  5
3FE
100
AcDbEntity
  8
DIMENTION
100
AcDbBlockEnd
  0
BLOCK
  5
3FF
100
AcDbEntity
  8
DIMENTION
100
AcDbBlockBegin
  2
*D73
 70
               1
 10
0.0
 20
0.0
 30
0.0
  3
*D73
  1

  0
LINE
  5
400
100
AcDbEntity
  8
DIMENTION
 62
               0
100
AcDbLine
 10
460.39200000449705
 20
1530.0000000031278
 30
0.0
 11
336.39200000449705
 21
1530.0000000031278
 31
0.0
  0
LINE
  5
401
100
AcDbEntity
  8
DIMENTION
 62
               0
100
AcDbLine
 10
460.39200000449705
 20
1450.0000000031278
 30
0.0
 11
336.39200000449705
 21
1450.0000000031278
 31
0.0
  0
LINE
  5
402
100
AcDbEntity
  8
DIMENTION
 62
               0
100
AcDbLine
 10
356.39200000449705
 20
1530.0000000031278
 30
0.0
 11
356.39200000449705
 21
1450.0000000031278
 31
0.0
  0
LINE
  5
403
100
AcDbEntity
  8
DIMENTION
 62
               0
100
AcDbLine
 10
356.39200000449705
 20
1530.0000000031278
 30
0.0
 11
362.22005848308231
 21
1508.2493896515653
 31
0.0
  0
LINE
  5
404
100
AcDbEntity
  8
DIMENTION
 62
               0
100
AcDbLine
 10
356.39200000449705
 20
1530.0000000031278
 30
0.0
 11
350.56394152591179
 21
1508.2493896515653
 31
0.0
  0
LINE
  5
405
100
AcDbEntity
  8
DIMENTION
 62
               0
100
AcDbLine
 10
356.39200000449705
 20
1450.0000000031278
 30
0.0
 11
350.56394152591179
 21
1471.7506103546903
 31
0.0
  0
LINE
  5
406
100
AcDbEntity
  8
DIMENTION
 62
               0
100
AcDbLine
 10
356.39200000449705
 20
1450.0000000031278
 30
0.0
 11
362.22005848308231
 21
1471.7506103546903
 31
0.0
  0
MTEXT
  5
407
100
AcDbEntity
  8
DIMENTION
 62
               0
100
AcDbMText
 10
313.05866667488885
 20
1468.8333333364612
 30
0.0
 40
33.866666666666667
 41
0.0
 71
               1
 72
               1
  1
80
  7
________
 11
0.0
 21
1.0
 31
0.0
  0
POINT
  5
408
100
AcDbEntity
  8
DEFPOINTS
 62
               0
100
AcDbPoint
 10
470.39200000449705
 20
1450.0000000031278
 30
0.0
  0
POINT
  5
409
100
AcDbEntity
  8
DEFPOINTS
 62
               0
100
AcDbPoint
 10
470.39200000449705
 20
1530.0000000031278
 30
0.0
  0
POINT
  5
40A
100
AcDbEntity
  8
DEFPOINTS
 62
               0
100
AcDbPoint
 10
356.39200000449705
 20
1530.0000000031278
 30
0.0
  0
ENDBLK
  5
40B
100
AcDbEntity
  8
DIMENTION
100
AcDbBlockEnd
  0
BLOCK
  5
40C
100
AcDbEntity
  8
DIMENTION
100
AcDbBlockBegin
  2
*D74
 70
               1
 10
0.0
 20
0.0
 30
0.0
  3
*D74
  1

  0
LINE
  5
40D
100
AcDbEntity
  8
DIMENTION
 62
               0
100
AcDbLine
 10
2020.3920000044973
 20
1010.000000003128
 30
0.0
 11
2086.3920000044973
 21
1010.000000003128
 31
0.0
  0
LINE
  5
40E
100
AcDbEntity
  8
DIMENTION
 62
               0
100
AcDbLine
 10
1940.3920000044973
 20
1310.0000000985576
 30
0.0
 11
2086.3920000044973
 21
1310.0000000985576
 31
0.0
  0
LINE
  5
40F
100
AcDbEntity
  8
DIMENTION
 62
               0
100
AcDbLine
 10
2066.3920000044973
 20
1010.000000003128
 30
0.0
 11
2066.3920000044973
 21
1310.0000000985576
 31
0.0
  0
LINE
  5
410
100
AcDbEntity
  8
DIMENTION
 62
               0
100
AcDbLine
 10
2066.3920000044973
 20
1010.000000003128
 30
0.0
 11
2060.563941525912
 21
1031.7506103546905
 31
0.0
  0
LINE
  5
411
100
AcDbEntity
  8
DIMENTION
 62
               0
100
AcDbLine
 10
2066.3920000044973
 20
1010.000000003128
 30
0.0
 11
2072.2200584830825
 21
1031.7506103546905
 31
0.0
  0
LINE
  5
412
100
AcDbEntity
  8
DIMENTION
 62
               0
100
AcDbLine
 10
2066.3920000044973
 20
1310.0000000985576
 30
0.0
 11
2072.2200584830825
 21
1288.2493897469951
 31
0.0
  0
LINE
  5
413
100
AcDbEntity
  8
DIMENTION
 62
               0
100
AcDbLine
 10
2066.3920000044973
 20
1310.0000000985576
 30
0.0
 11
2060.563941525912
 21
1288.2493897469951
 31
0.0
  0
MTEXT
  5
414
100
AcDbEntity
  8
DIMENTION
 62
               0
100
AcDbMText
 10
2023.0586666748891
 20
1128.2500000508428
 30
0.0
 40
33.866666666666667
 41
0.0
 71
               1
 72
               1
  1
300
  7
________
 11
0.0
 21
1.0
 31
0.0
  0
POINT
  5
415
100
AcDbEntity
  8
DEFPOINTS
 62
               0
100
AcDbPoint
 10
1930.3920000044973
 20
1310.0000000985576
 30
0.0
  0
POINT
  5
416
100
AcDbEntity
  8
DEFPOINTS
 62
               0
100
AcDbPoint
 10
2010.3920000044973
 20
1010.000000003128
 30
0.0
  0
POINT
  5
417
100
AcDbEntity
  8
DEFPOINTS
 62
               0
100
AcDbPoint
 10
2066.3920000044973
 20
1010.000000003128
 30
0.0
  0
ENDBLK
  5
418
100
AcDbEntity
  8
DIMENTION
100
AcDbBlockEnd
  0
BLOCK
  5
419
100
AcDbEntity
  8
DIMENTION
100
AcDbBlockBegin
  2
*D75
 70
               1
 10
0.0
 20
0.0
 30
0.0
  3
*D75
  1

  0
LINE
  5
41A
100
AcDbEntity
  8
DIMENTION
 62
               0
100
AcDbLine
 10
2010.3920000044973
 20
1240.0000000985535
 30
0.0
 11
2010.3920000044973
 21
1372.0
 31
0.0
  0
LINE
  5
41B
100
AcDbEntity
  8
DIMENTION
 62
               0
100
AcDbLine
 10
1760.3920000044973
 20
1320.0000000985613
 30
0.0
 11
1760.3920000044973
 21
1372.0
 31
0.0
  0
LINE
  5
41C
100
AcDbEntity
  8
DIMENTION
 62
               0
100
AcDbLine
 10
2010.3920000044973
 20
1352.0
 30
0.0
 11
1760.3920000044973
 21
1352.0
 31
0.0
  0
LINE
  5
41D
100
AcDbEntity
  8
DIMENTION
 62
               0
100
AcDbLine
 10
2010.3920000044973
 20
1352.0
 30
0.0
 11
1988.6413896529348
 21
1346.171941521415
 31
0.0
  0
LINE
  5
41E
100
AcDbEntity
  8
DIMENTION
 62
               0
100
AcDbLine
 10
2010.3920000044973
 20
1352.0
 30
0.0
 11
1988.6413896529348
 21
1357.8280584785853
 31
0.0
  0
LINE
  5
41F
100
AcDbEntity
  8
DIMENTION
 62
               0
100
AcDbLine
 10
1760.3920000044973
 20
1352.0
 30
0.0
 11
1782.1426103560598
 21
1357.8280584785853
 31
0.0
  0
LINE
  5
420
100
AcDbEntity
  8
DIMENTION
 62
               0
100
AcDbLine
 10
1760.3920000044973
 20
1352.0
 30
0.0
 11
1782.1426103560598
 21
1346.171941521415
 31
0.0
  0
MTEXT
  5
421
100
AcDbEntity
  8
DIMENTION
 62
               0
100
AcDbMText
 10
1853.6420000044973
 20
1395.3333333296082
 30
0.0
 40
33.866666666666667
 41
0.0
 71
               1
 72
               1
  1
250
  7
________
  0
POINT
  5
422
100
AcDbEntity
  8
DEFPOINTS
 62
               0
100
AcDbPoint
 10
1760.3920000044973
 20
1310.0000000985613
 30
0.0
  0
POINT
  5
423
100
AcDbEntity
  8
DEFPOINTS
 62
               0
100
AcDbPoint
 10
2010.3920000044973
 20
1230.0000000985535
 30
0.0
  0
POINT
  5
424
100
AcDbEntity
  8
DEFPOINTS
 62
               0
100
AcDbPoint
 10
2010.3920000044973
 20
1352.0
 30
0.0
  0
ENDBLK
  5
425
100
AcDbEntity
  8
DIMENTION
100
AcDbBlockEnd
  0
BLOCK
  5
426
100
AcDbEntity
  8
DIMENTION
100
AcDbBlockBegin
  2
*D76
 70
               1
 10
0.0
 20
0.0
 30
0.0
  3
*D76
  1

  0
LINE
  5
427
100
AcDbEntity
  8
DIMENTION
 62
               0
100
AcDbLine
 10
2093.3920000044973
 20
1010.000000003128
 30
0.0
 11
2192.7840000089946
 21
1010.000000003128
 31
0.0
  0
LINE
  5
428
100
AcDbEntity
  8
DIMENTION
 62
               0
100
AcDbLine
 10
2093.3920000044973
 20
990.00000000312798
 30
0.0
 11
2192.7840000089946
 21
990.00000000312798
 31
0.0
  0
LINE
  5
429
100
AcDbEntity
  8
DIMENTION
 62
               0
100
AcDbLine
 10
2172.7840000089946
 20
990.00000000312798
 30
0.0
 11
2172.7840000089946
 21
1010.000000003128
 31
0.0
  0
LINE
  5
42A
100
AcDbEntity
  8
DIMENTION
 62
               0
100
AcDbLine
 10
2172.7840000089946
 20
1010.000000003128
 30
0.0
 11
2172.7840000089946
 21
1197.8800005382961
 31
0.0
  0
LINE
  5
42B
100
AcDbEntity
  8
DIMENTION
 62
               0
100
AcDbLine
 10
2172.7840000089946
 20
1010.000000003128
 30
0.0
 11
2166.9559415304093
 21
1031.7506103546905
 31
0.0
  0
LINE
  5
42C
100
AcDbEntity
  8
DIMENTION
 62
               0
100
AcDbLine
 10
2172.7840000089946
 20
1010.000000003128
 30
0.0
 11
2178.6120584875798
 21
1031.7506103546905
 31
0.0
  0
LINE
  5
42D
100
AcDbEntity
  8
DIMENTION
 62
               0
100
AcDbLine
 10
2172.7840000089946
 20
990.00000000312798
 30
0.0
 11
2172.7840000089946
 21
950.00000000312798
 31
0.0
  0
LINE
  5
42E
100
AcDbEntity
  8
DIMENTION
 62
               0
100
AcDbLine
 10
2172.7840000089946
 20
990.00000000312798
 30
0.0
 11
2178.6120584875798
 21
968.24938965156548
 31
0.0
  0
LINE
  5
42F
100
AcDbEntity
  8
DIMENTION
 62
               0
100
AcDbLine
 10
2172.7840000089946
 20
990.00000000312798
 30
0.0
 11
2166.9559415304093
 21
968.24938965156548
 31
0.0
  0
MTEXT
  5
430
100
AcDbEntity
  8
DIMENTION
 62
               0
100
AcDbMText
 10
2129.4506666793864
 20
1015.0
 30
0.0
 40
33.866666666666667
 41
0.0
 71
               1
 72
               1
  1
　　20～30
  7
________
 11
0.0
 21
1.0
 31
0.0
  0
POINT
  5
431
100
AcDbEntity
  8
DEFPOINTS
 62
               0
100
AcDbPoint
 10
2083.3920000044973
 20
990.00000000312798
 30
0.0
  0
POINT
  5
432
100
AcDbEntity
  8
DEFPOINTS
 62
               0
100
AcDbPoint
 10
2083.3920000044973
 20
1010.000000003128
 30
0.0
  0
POINT
  5
433
100
AcDbEntity
  8
DEFPOINTS
 62
               0
100
AcDbPoint
 10
2172.7840000089946
 20
1010.000000003128
 30
0.0
  0
ENDBLK
  5
434
100
AcDbEntity
  8
DIMENTION
100
AcDbBlockEnd
  0
BLOCK
  5
435
100
AcDbEntity
  8
DIMENTION
100
AcDbBlockBegin
  2
*D77
 70
               1
 10
0.0
 20
0.0
 30
0.0
  3
*D77
  1

  0
LINE
  5
436
100
AcDbEntity
  8
DIMENTION
  6
CONTINUOUS
 62
               0
100
AcDbLine
 10
1570.392000004497
 20
2575.0000000031278
 30
0.0
 11
1061.0000000037253
 21
2575.0000000031278
 31
0.0
  0
LINE
  5
437
100
AcDbEntity
  8
DIMENTION
  6
CONTINUOUS
 62
               0
100
AcDbLine
 10
1570.392000004497
 20
2595.0000000031278
 30
0.0
 11
1061.0000000037253
 21
2595.0000000031278
 31
0.0
  0
LINE
  5
438
100
AcDbEntity
  8
DIMENTION
  6
CONTINUOUS
 62
               0
100
AcDbLine
 10
1081.0000000037253
 20
2595.0000000031278
 30
0.0
 11
1081.0000000037253
 21
2575.0000000031278
 31
0.0
  0
LINE
  5
439
100
AcDbEntity
  8
DIMENTION
  6
CONTINUOUS
 62
               0
100
AcDbLine
 10
1081.0000000037253
 20
2575.0000000031278
 30
0.0
 11
1081.0000000037253
 21
2535.0000000031278
 31
0.0
  0
LINE
  5
43A
100
AcDbEntity
  8
DIMENTION
  6
CONTINUOUS
 62
               0
100
AcDbLine
 10
1081.0000000037253
 20
2575.0000000031278
 30
0.0
 11
1086.8280584823106
 21
2553.2493896515653
 31
0.0
  0
LINE
  5
43B
100
AcDbEntity
  8
DIMENTION
  6
CONTINUOUS
 62
               0
100
AcDbLine
 10
1081.0000000037253
 20
2575.0000000031278
 30
0.0
 11
1075.1719415251403
 21
2553.2493896515653
 31
0.0
  0
LINE
  5
43C
100
AcDbEntity
  8
DIMENTION
  6
CONTINUOUS
 62
               0
100
AcDbLine
 10
1081.0000000037253
 20
2595.0000000031278
 30
0.0
 11
1081.0000000037253
 21
2712.0000000031278
 31
0.0
  0
LINE
  5
43D
100
AcDbEntity
  8
DIMENTION
  6
CONTINUOUS
 62
               0
100
AcDbLine
 10
1081.0000000037253
 20
2595.0000000031278
 30
0.0
 11
1075.1719415251403
 21
2616.7506103546903
 31
0.0
  0
LINE
  5
43E
100
AcDbEntity
  8
DIMENTION
  6
CONTINUOUS
 62
               0
100
AcDbLine
 10
1081.0000000037253
 20
2595.0000000031278
 30
0.0
 11
1086.8280584823106
 21
2616.7506103546903
 31
0.0
  0
MTEXT
  5
43F
100
AcDbEntity
  8
DIMENTION
 62
               0
100
AcDbMText
 10
1037.6666666741176
 20
2606.1666666697947
 30
0.0
 40
33.866666666666667
 41
0.0
 71
               1
 72
               1
  1
0以上
  7
________
 11
0.0
 21
1.0
 31
0.0
  0
POINT
  5
440
100
AcDbEntity
  8
DEFPOINTS
 62
               0
100
AcDbPoint
 10
1580.392000004497
 20
2595.0000000031278
 30
0.0
  0
POINT
  5
441
100
AcDbEntity
  8
DEFPOINTS
 62
               0
100
AcDbPoint
 10
1580.392000004497
 20
2575.0000000031278
 30
0.0
  0
POINT
  5
442
100
AcDbEntity
  8
DEFPOINTS
 62
               0
100
AcDbPoint
 10
1081.0000000037253
 20
2575.0000000031278
 30
0.0
  0
ENDBLK
  5
443
100
AcDbEntity
  8
DIMENTION
100
AcDbBlockEnd
  0
ENDSEC
  0
SECTION
  2
ENTITIES
  0
MTEXT
  5
444
100
AcDbEntity
  8
TEXT
100
AcDbMText
 10
3452.124800004497
 20
105.04500000312805
 30
0.0
 40
67.733333333333334
 41
0.0
 71
               1
 72
               1
  1
A301-130H
  7
________
  0
LINE
  5
445
100
AcDbEntity
  8
OBJECT
100
AcDbLine
 10
261.03500000449731
 20
375.00000000312798
 30
0.0
 11
601.39200000449728
 21
375.00000000312798
 31
0.0
  0
LINE
  5
446
100
AcDbEntity
  8
OBJECT
100
AcDbLine
 10
601.39200000449728
 20
384.30230000312804
 30
0.0
 11
265.35130000449726
 21
384.30230000312804
 31
0.0
  0
LINE
  5
447
100
AcDbEntity
  8
FRAME
  6
CONTINUOUS
100
AcDbLine
 10
0.0000000044972239
 20
0.000000003128207
 30
0.0
 11
0.0000000044972239
 21
2720.0000000031278
 31
0.0
  0
LINE
  5
448
100
AcDbEntity
  8
FRAME
  6
CONTINUOUS
100
AcDbLine
 10
4050.000000004497
 20
0.000000003128207
 30
0.0
 11
0.0000000044972239
 21
0.000000003128207
 31
0.0
  0
LINE
  5
449
100
AcDbEntity
  8
FRAME
  6
CONTINUOUS
100
AcDbLine
 10
4050.000000004497
 20
2720.0000000031278
 30
0.0
 11
4050.000000004497
 21
0.000000003128207
 31
0.0
  0
LINE
  5
44A
100
AcDbEntity
  8
FRAME
  6
CONTINUOUS
100
AcDbLine
 10
0.0000000044972239
 20
2720.0000000031278
 30
0.0
 11
4050.000000004497
 21
2720.0000000031278
 31
0.0
  0
LINE
  5
44B
100
AcDbEntity
  8
FRAME
  6
CONTINUOUS
100
AcDbLine
 10
3300.000000004497
 20
0.000000003128207
 30
0.0
 11
3300.000000004497
 21
140.00000000312798
 31
0.0
  0
LINE
  5
44C
100
AcDbEntity
  8
FRAME
  6
CONTINUOUS
100
AcDbLine
 10
3080.000000004497
 20
0.000000003128207
 30
0.0
 11
3080.000000004497
 21
140.00000000312798
 31
0.0
  0
LINE
  5
44D
100
AcDbEntity
  8
FRAME
  6
CONTINUOUS
100
AcDbLine
 10
2280.000000004497
 20
0.000000003128207
 30
0.0
 11
2280.000000004497
 21
140.00000000312798
 31
0.0
  0
LINE
  5
44E
100
AcDbEntity
  8
FRAME
  6
CONTINUOUS
100
AcDbLine
 10
1240.000000004497
 20
0.000000003128207
 30
0.0
 11
1240.000000004497
 21
140.00000000312798
 31
0.0
  0
MTEXT
  5
44F
100
AcDbEntity
  8
TEXT
100
AcDbMText
 10
1264.7600000044972
 20
134.8700000031281
 30
0.0
 40
28.2224
 41
109.36099999999999
 71
               1
 72
               1
  1
品　名
  7
________
  0
MTEXT
  5
450
100
AcDbEntity
  8
TEXT
100
AcDbMText
 10
2299.7600000044972
 20
129.8700000031281
 30
0.0
 40
28.2224
 41
0.0
 71
               1
 72
               1
  1
形　式
  7
________
  0
MTEXT
  5
451
100
AcDbEntity
  8
TEXT
100
AcDbMText
 10
3104.7600000044968
 20
129.8700000031281
 30
0.0
 40
28.2224
 41
0.0
 71
               1
 72
               1
  1
尺　度
  7
________
  0
MTEXT
  5
452
100
AcDbEntity
  8
TEXT
100
AcDbMText
 10
3324.7600000044968
 20
129.8700000031281
 30
0.0
 40
28.2224
 41
0.0
 71
               1
 72
               1
  1
図　番
  7
________
  0
LINE
  5
453
100
AcDbEntity
  8
FRAME
  6
CONTINUOUS
100
AcDbLine
 10
820.00000000449722
 20
0.000000003128207
 30
0.0
 11
820.00000000449722
 21
140.00000000312798
 31
0.0
  0
LINE
  5
454
100
AcDbEntity
  8
FRAME
  6
CONTINUOUS
100
AcDbLine
 10
0.0000000044972239
 20
140.00000000312798
 30
0.0
 11
4050.000000004497
 21
140.00000000312798
 31
0.0
  0
MTEXT
  5
455
100
AcDbEntity
  8
TEXT
100
AcDbMText
 10
829.76000000449721
 20
131.89120000312801
 30
0.0
 40
28.2224
 41
0.0
 71
               1
 72
               1
  1
検  図
  7
________
  0
MTEXT
  5
456
100
AcDbEntity
  8
TEXT
100
AcDbMText
 10
829.76000000449721
 20
86.810000003128152
 30
0.0
 40
28.2224
 41
0.0
 71
               1
 72
               1
  1
担  当
  7
________
  0
MTEXT
  5
457
100
AcDbEntity
  8
TEXT
100
AcDbMText
 10
829.76000000449721
 20
41.940000003128034
 30
0.0
 40
28.2224
 41
0.0
 71
               1
 72
               1
  1
年月日
  7
________
  0
MTEXT
  5
458
100
AcDbEntity
  8
TEXT
100
AcDbMText
 10
1797.211000004497
 20
96.082000003128087
 30
0.0
 40
50.799999999999997
 41
0.0
 71
               1
 72
               1
  1
自動食器洗浄機
  7
________
  0
LINE
  5
459
100
AcDbEntity
  8
FRAME
  6
CONTINUOUS
100
AcDbLine
 10
820.00000000449722
 20
91.060000003128152
 30
0.0
 11
1240.000000004497
 21
91.060000003128152
 31
0.0
  0
LINE
  5
45A
100
AcDbEntity
  8
FRAME
  6
CONTINUOUS
100
AcDbLine
 10
820.00000000449722
 20
46.670000003128052
 30
0.0
 11
1240.000000004497
 21
46.670000003128052
 31
0.0
  0
MTEXT
  5
45B
100
AcDbEntity
  8
DIMENTION
100
AcDbMText
 10
235.59820000449736
 20
918.10620000312804
 30
0.0
 40
33.866666666666667
 41
0.0
 71
               1
 72
               1
  1
（ドア開放時1720）
  7
________
 11
0.0
 21
1.0
 31
0.0
  0
POLYLINE
  5
45C
100
AcDbEntity
  8
OBJECT
100
AcDb2dPolyline
 66
               1
 10
0.0
 20
0.0
 30
0.0
 70
               1
 75
               5
  0
VERTEX
  5
45D
100
AcDbEntity
  8
OBJECT
100
AcDbVertex
100
AcDb2dVertex
 10
590.39200000449728
 20
1530.000000003128
 30
0.0
  0
VERTEX
  5
45E
100
AcDbEntity
  8
OBJECT
100
AcDbVertex
100
AcDb2dVertex
 10
1760.392000004497
 20
1530.000000003128
 30
0.0
  0
VERTEX
  5
45F
100
AcDbEntity
  8
OBJECT
100
AcDbVertex
100
AcDb2dVertex
 10
1760.392000004497
 20
990.00000000312798
 30
0.0
  0
VERTEX
  5
460
100
AcDbEntity
  8
OBJECT
100
AcDbVertex
100
AcDb2dVertex
 10
590.39200000449728
 20
990.00000000312798
 30
0.0
  0
SEQEND
  5
461
100
AcDbEntity
  8
OBJECT
  0
POLYLINE
  5
462
100
AcDbEntity
  8
OBJECT
100
AcDb2dPolyline
 66
               1
 10
0.0
 20
0.0
 30
0.0
 70
             129
  0
VERTEX
  5
463
100
AcDbEntity
  8
OBJECT
100
AcDbVertex
100
AcDb2dVertex
 10
567.39200000449728
 20
990.00000000312798
 30
0.0
  0
VERTEX
  5
464
100
AcDbEntity
  8
OBJECT
100
AcDbVertex
100
AcDb2dVertex
 10
1783.392000004497
 20
990.00000000312798
 30
0.0
  0
VERTEX
  5
465
100
AcDbEntity
  8
OBJECT
100
AcDbVertex
100
AcDb2dVertex
 10
1783.392000004497
 20
980.00000000312798
 30
0.0
 42
-0.414213562373095
 70
               2
  0
VERTEX
  5
466
100
AcDbEntity
  8
OBJECT
100
AcDbVertex
100
AcDb2dVertex
 10
1778.392000004497
 20
975.00000000312798
 30
0.0
  0
VERTEX
  5
467
100
AcDbEntity
  8
OBJECT
100
AcDbVertex
100
AcDb2dVertex
 10
572.39200000449728
 20
975.00000000312798
 30
0.0
 42
-0.414213562373095
 70
               2
 50
3.1191399769264294E+17
  0
VERTEX
  5
468
100
AcDbEntity
  8
OBJECT
100
AcDbVertex
100
AcDb2dVertex
 10
567.39200000449728
 20
980.00000000312798
 30
0.0
  0
SEQEND
  5
469
100
AcDbEntity
  8
OBJECT
  0
POLYLINE
  5
46A
100
AcDbEntity
  8
OBJECT
100
AcDb2dPolyline
 66
               1
 10
0.0
 20
0.0
 30
0.0
 70
               1
 75
               5
  0
VERTEX
  5
46B
100
AcDbEntity
  8
OBJECT
100
AcDbVertex
100
AcDb2dVertex
 10
585.39200000449728
 20
975.00000000312798
 30
0.0
  0
VERTEX
  5
46C
100
AcDbEntity
  8
OBJECT
100
AcDbVertex
100
AcDb2dVertex
 10
1765.392000004497
 20
975.00000000312798
 30
0.0
  0
VERTEX
  5
46D
100
AcDbEntity
  8
OBJECT
100
AcDbVertex
100
AcDb2dVertex
 10
1765.392000004497
 20
440.00000000312809
 30
0.0
  0
VERTEX
  5
46E
100
AcDbEntity
  8
OBJECT
100
AcDbVertex
100
AcDb2dVertex
 10
585.39200000449728
 20
440.00000000312809
 30
0.0
  0
SEQEND
  5
46F
100
AcDbEntity
  8
OBJECT
  0
POLYLINE
  5
470
100
AcDbEntity
  8
OBJECT
100
AcDb2dPolyline
 66
               1
 10
0.0
 20
0.0
 30
0.0
 70
               1
 75
               5
  0
VERTEX
  5
471
100
AcDbEntity
  8
OBJECT
100
AcDbVertex
100
AcDb2dVertex
 10
820.39200000449728
 20
1010.000000003128
 30
0.0
  0
VERTEX
  5
472
100
AcDbEntity
  8
OBJECT
100
AcDbVertex
100
AcDb2dVertex
 10
1530.392000004497
 20
1010.000000003128
 30
0.0
  0
VERTEX
  5
473
100
AcDbEntity
  8
OBJECT
100
AcDbVertex
100
AcDb2dVertex
 10
1530.392000004497
 20
990.00000000312798
 30
0.0
  0
VERTEX
  5
474
100
AcDbEntity
  8
OBJECT
100
AcDbVertex
100
AcDb2dVertex
 10
820.39200000449728
 20
990.00000000312798
 30
0.0
  0
SEQEND
  5
475
100
AcDbEntity
  8
OBJECT
  0
POLYLINE
  5
476
100
AcDbEntity
  8
OBJECT
100
AcDb2dPolyline
 66
               1
 10
0.0
 20
0.0
 30
0.0
 70
               1
 75
               5
  0
VERTEX
  5
477
100
AcDbEntity
  8
OBJECT
100
AcDbVertex
100
AcDb2dVertex
 10
893.39200000449728
 20
1530.000000003128
 30
0.0
  0
VERTEX
  5
478
100
AcDbEntity
  8
OBJECT
100
AcDbVertex
100
AcDb2dVertex
 10
1457.3920000044973
 20
1530.000000003128
 30
0.0
  0
VERTEX
  5
479
100
AcDbEntity
  8
OBJECT
100
AcDbVertex
100
AcDb2dVertex
 10
1457.3920000044973
 20
1010.000000003128
 30
0.0
  0
VERTEX
  5
47A
100
AcDbEntity
  8
OBJECT
100
AcDbVertex
100
AcDb2dVertex
 10
893.39200000449728
 20
1010.000000003128
 30
0.0
  0
SEQEND
  5
47B
100
AcDbEntity
  8
OBJECT
  0
POLYLINE
  5
47C
100
AcDbEntity
  8
OBJECT
100
AcDb2dPolyline
 66
               1
 10
0.0
 20
0.0
 30
0.0
 70
               1
 75
               5
  0
VERTEX
  5
47D
100
AcDbEntity
  8
OBJECT
100
AcDbVertex
100
AcDb2dVertex
 10
1457.3920000044973
 20
1530.000000003128
 30
0.0
  0
VERTEX
  5
47E
100
AcDbEntity
  8
OBJECT
100
AcDbVertex
100
AcDb2dVertex
 10
1494.3920000044973
 20
1530.000000003128
 30
0.0
  0
VERTEX
  5
47F
100
AcDbEntity
  8
OBJECT
100
AcDbVertex
100
AcDb2dVertex
 10
1494.3920000044973
 20
1010.000000003128
 30
0.0
  0
VERTEX
  5
480
100
AcDbEntity
  8
OBJECT
100
AcDbVertex
100
AcDb2dVertex
 10
1457.3920000044973
 20
1010.000000003128
 30
0.0
  0
SEQEND
  5
481
100
AcDbEntity
  8
OBJECT
  0
POLYLINE
  5
482
100
AcDbEntity
  8
OBJECT
100
AcDb2dPolyline
 66
               1
 10
0.0
 20
0.0
 30
0.0
 70
               1
 75
               5
  0
VERTEX
  5
483
100
AcDbEntity
  8
OBJECT
100
AcDbVertex
100
AcDb2dVertex
 10
856.39200000449728
 20
1530.000000003128
 30
0.0
  0
VERTEX
  5
484
100
AcDbEntity
  8
OBJECT
100
AcDbVertex
100
AcDb2dVertex
 10
893.39200000449728
 20
1530.000000003128
 30
0.0
  0
VERTEX
  5
485
100
AcDbEntity
  8
OBJECT
100
AcDbVertex
100
AcDb2dVertex
 10
893.39200000449728
 20
1010.000000003128
 30
0.0
  0
VERTEX
  5
486
100
AcDbEntity
  8
OBJECT
100
AcDbVertex
100
AcDb2dVertex
 10
856.39200000449728
 20
1010.000000003128
 30
0.0
  0
SEQEND
  5
487
100
AcDbEntity
  8
OBJECT
  0
POLYLINE
  5
488
100
AcDbEntity
  8
OBJECT
100
AcDb2dPolyline
 66
               1
 10
0.0
 20
0.0
 30
0.0
 70
             129
  0
VERTEX
  5
489
100
AcDbEntity
  8
OBJECT
100
AcDbVertex
100
AcDb2dVertex
 10
1075.3920000044973
 20
1040.000000003128
 30
0.0
 42
-0.4142135623730992
 70
               2
  0
VERTEX
  5
48A
100
AcDbEntity
  8
OBJECT
100
AcDbVertex
100
AcDb2dVertex
 10
1079.3920000044973
 20
1044.000000003128
 30
0.0
  0
VERTEX
  5
48B
100
AcDbEntity
  8
OBJECT
100
AcDbVertex
100
AcDb2dVertex
 10
1271.3920000044973
 20
1044.000000003128
 30
0.0
 42
-0.414213562373095
 70
               2
 50
1.8714839861558573E+17
  0
VERTEX
  5
48C
100
AcDbEntity
  8
OBJECT
100
AcDbVertex
100
AcDb2dVertex
 10
1275.3920000044973
 20
1040.000000003128
 30
0.0
 42
-0.4142135623730909
 70
               2
  0
VERTEX
  5
48D
100
AcDbEntity
  8
OBJECT
100
AcDbVertex
100
AcDb2dVertex
 10
1271.3920000044973
 20
1036.000000003128
 30
0.0
  0
VERTEX
  5
48E
100
AcDbEntity
  8
OBJECT
100
AcDbVertex
100
AcDb2dVertex
 10
1079.3920000044973
 20
1036.000000003128
 30
0.0
 42
-0.4142135623731034
 70
               2
 50
-2029029747929342.2
  0
VERTEX
  5
48F
100
AcDbEntity
  8
OBJECT
100
AcDbVertex
100
AcDb2dVertex
 10
1075.3920000044973
 20
1040.000000003128
 30
0.0
  0
SEQEND
  5
490
100
AcDbEntity
  8
OBJECT
  0
LINE
  5
491
100
AcDbEntity
  8
CENTER
100
AcDbLine
 10
1175.3920000044973
 20
1550.000000003128
 30
0.0
 11
1175.3920000044973
 21
420.00000000312809
 31
0.0
  0
LINE
  5
492
100
AcDbEntity
  8
OBJECT
100
AcDbLine
 10
180.39200000449728
 20
190.00000000312798
 30
0.0
 11
2370.3920000044973
 21
190.00000000312798
 31
0.0
  0
LINE
  5
493
100
AcDbEntity
  8
OBJECT
100
AcDbLine
 10
1600.392000004497
 20
378.00000000312798
 30
0.0
 11
1600.392000004497
 21
375.00000000312798
 31
0.0
  0
LINE
  5
494
100
AcDbEntity
  8
OBJECT
100
AcDbLine
 10
1588.392000004497
 20
378.00000000312798
 30
0.0
 11
1600.392000004497
 21
378.00000000312798
 31
0.0
  0
LINE
  5
495
100
AcDbEntity
  8
OBJECT
100
AcDbLine
 10
1588.392000004497
 20
408.75740000312805
 30
0.0
 11
1588.392000004497
 21
378.00000000312798
 31
0.0
  0
LINE
  5
496
100
AcDbEntity
  8
OBJECT
100
AcDbLine
 10
1594.6346000044971
 20
415.00000000312809
 30
0.0
 11
1588.392000004497
 21
408.75740000312805
 31
0.0
  0
LINE
  5
497
100
AcDbEntity
  8
OBJECT
100
AcDbLine
 10
1585.392000004497
 20
410.00000000312809
 30
0.0
 11
1590.392000004497
 21
415.00000000312809
 31
0.0
  0
LINE
  5
498
100
AcDbEntity
  8
OBJECT
100
AcDbLine
 10
1585.392000004497
 20
375.00000000312798
 30
0.0
 11
1585.392000004497
 21
410.00000000312809
 31
0.0
  0
LINE
  5
499
100
AcDbEntity
  8
OBJECT
100
AcDbLine
 10
1600.392000004497
 20
375.00000000312798
 30
0.0
 11
1585.392000004497
 21
375.00000000312798
 31
0.0
  0
POLYLINE
  5
49A
100
AcDbEntity
  8
OBJECT
100
AcDb2dPolyline
 66
               1
 10
0.0
 20
0.0
 30
0.0
 70
             129
  0
VERTEX
  5
49B
100
AcDbEntity
  8
OBJECT
100
AcDbVertex
100
AcDb2dVertex
 10
1517.392000004497
 20
390.00000000312809
 30
0.0
 42
-0.4142135623731034
 70
               2
  0
VERTEX
  5
49C
100
AcDbEntity
  8
OBJECT
100
AcDbVertex
100
AcDb2dVertex
 10
1521.392000004497
 20
394.00000000312809
 30
0.0
  0
VERTEX
  5
49D
100
AcDbEntity
  8
OBJECT
100
AcDbVertex
100
AcDb2dVertex
 10
1585.392000004497
 20
394.00000000312809
 30
0.0
  0
VERTEX
  5
49E
100
AcDbEntity
  8
OBJECT
100
AcDbVertex
100
AcDb2dVertex
 10
1585.392000004497
 20
386.00000000312809
 30
0.0
  0
VERTEX
  5
49F
100
AcDbEntity
  8
OBJECT
100
AcDbVertex
100
AcDb2dVertex
 10
1521.392000004497
 20
386.00000000312809
 30
0.0
 42
-0.4142135623730909
 70
               2
 50
3980381238385209.0
  0
VERTEX
  5
4A0
100
AcDbEntity
  8
OBJECT
100
AcDbVertex
100
AcDb2dVertex
 10
1517.392000004497
 20
390.00000000312809
 30
0.0
  0
SEQEND
  5
4A1
100
AcDbEntity
  8
OBJECT
  0
POLYLINE
  5
4A2
100
AcDbEntity
  8
OBJECT
100
AcDb2dPolyline
 66
               1
 10
0.0
 20
0.0
 30
0.0
 70
               1
 75
               5
  0
VERTEX
  5
4A3
100
AcDbEntity
  8
OBJECT
100
AcDbVertex
100
AcDb2dVertex
 10
1588.392000004497
 20
398.50000000312809
 30
0.0
  0
VERTEX
  5
4A4
100
AcDbEntity
  8
OBJECT
100
AcDbVertex
100
AcDb2dVertex
 10
1595.392000004497
 20
398.50000000312809
 30
0.0
  0
VERTEX
  5
4A5
100
AcDbEntity
  8
OBJECT
100
AcDbVertex
100
AcDb2dVertex
 10
1595.392000004497
 20
381.50000000312798
 30
0.0
  0
VERTEX
  5
4A6
100
AcDbEntity
  8
OBJECT
100
AcDbVertex
100
AcDb2dVertex
 10
1588.392000004497
 20
381.50000000312798
 30
0.0
  0
SEQEND
  5
4A7
100
AcDbEntity
  8
OBJECT
  0
LINE
  5
4A8
100
AcDbEntity
  8
OBJECT
100
AcDbLine
 10
1595.392000004497
 20
394.50000000312809
 30
0.0
 11
1588.392000004497
 21
394.50000000312809
 31
0.0
  0
LINE
  5
4A9
100
AcDbEntity
  8
OBJECT
100
AcDbLine
 10
1595.392000004497
 20
385.50000000312809
 30
0.0
 11
1588.392000004497
 21
385.50000000312809
 31
0.0
  0
POLYLINE
  5
4AA
100
AcDbEntity
  8
OBJECT
100
AcDb2dPolyline
 66
               1
 10
0.0
 20
0.0
 30
0.0
 70
               1
 75
               5
  0
VERTEX
  5
4AB
100
AcDbEntity
  8
OBJECT
100
AcDbVertex
100
AcDb2dVertex
 10
1595.392000004497
 20
394.00000000312809
 30
0.0
  0
VERTEX
  5
4AC
100
AcDbEntity
  8
OBJECT
100
AcDbVertex
100
AcDb2dVertex
 10
1601.392000004497
 20
394.00000000312809
 30
0.0
  0
VERTEX
  5
4AD
100
AcDbEntity
  8
OBJECT
100
AcDbVertex
100
AcDb2dVertex
 10
1602.392000004497
 20
393.00000000312809
 30
0.0
  0
VERTEX
  5
4AE
100
AcDbEntity
  8
OBJECT
100
AcDbVertex
100
AcDb2dVertex
 10
1602.392000004497
 20
387.00000000312809
 30
0.0
  0
VERTEX
  5
4AF
100
AcDbEntity
  8
OBJECT
100
AcDbVertex
100
AcDb2dVertex
 10
1601.392000004497
 20
386.00000000312809
 30
0.0
  0
VERTEX
  5
4B0
100
AcDbEntity
  8
OBJECT
100
AcDbVertex
100
AcDb2dVertex
 10
1595.392000004497
 20
386.00000000312809
 30
0.0
  0
SEQEND
  5
4B1
100
AcDbEntity
  8
OBJECT
  0
POLYLINE
  5
4B2
100
AcDbEntity
  8
OBJECT
100
AcDb2dPolyline
 66
               1
 10
0.0
 20
0.0
 30
0.0
 75
               5
  0
VERTEX
  5
4B3
100
AcDbEntity
  8
OBJECT
100
AcDbVertex
100
AcDb2dVertex
 10
1525.392000004497
 20
394.00000000312809
 30
0.0
  0
VERTEX
  5
4B4
100
AcDbEntity
  8
OBJECT
100
AcDbVertex
100
AcDb2dVertex
 10
1525.392000004497
 20
415.00000000312809
 30
0.0
  0
VERTEX
  5
4B5
100
AcDbEntity
  8
OBJECT
100
AcDbVertex
100
AcDb2dVertex
 10
1585.392000004497
 20
415.00000000312809
 30
0.0
  0
VERTEX
  5
4B6
100
AcDbEntity
  8
OBJECT
100
AcDbVertex
100
AcDb2dVertex
 10
1585.392000004497
 20
360.00000000312798
 30
0.0
  0
VERTEX
  5
4B7
100
AcDbEntity
  8
OBJECT
100
AcDbVertex
100
AcDb2dVertex
 10
1525.392000004497
 20
360.00000000312798
 30
0.0
  0
VERTEX
  5
4B8
100
AcDbEntity
  8
OBJECT
100
AcDbVertex
100
AcDb2dVertex
 10
1525.392000004497
 20
386.00000000312809
 30
0.0
  0
SEQEND
  5
4B9
100
AcDbEntity
  8
OBJECT
  0
LINE
  5
4BA
100
AcDbEntity
  8
OBJECT
100
AcDbLine
 10
1595.392000004497
 20
393.00000000312809
 30
0.0
 11
1602.392000004497
 21
393.00000000312809
 31
0.0
  0
LINE
  5
4BB
100
AcDbEntity
  8
OBJECT
100
AcDbLine
 10
1595.392000004497
 20
387.00000000312809
 30
0.0
 11
1602.392000004497
 21
387.00000000312809
 31
0.0
  0
LINE
  5
4BC
100
AcDbEntity
  8
OBJECT
100
AcDbLine
 10
1601.392000004497
 20
394.00000000312809
 30
0.0
 11
1601.392000004497
 21
386.00000000312809
 31
0.0
  0
POLYLINE
  5
4BD
100
AcDbEntity
  8
OBJECT
100
AcDb2dPolyline
 66
               1
 10
0.0
 20
0.0
 30
0.0
 70
               1
 75
               5
  0
VERTEX
  5
4BE
100
AcDbEntity
  8
OBJECT
100
AcDbVertex
100
AcDb2dVertex
 10
425.39200000449728
 20
960.00000000312798
 30
0.0
  0
VERTEX
  5
4BF
100
AcDbEntity
  8
OBJECT
100
AcDbVertex
100
AcDb2dVertex
 10
585.39200000449728
 20
960.00000000312798
 30
0.0
  0
VERTEX
  5
4C0
100
AcDbEntity
  8
OBJECT
100
AcDbVertex
100
AcDb2dVertex
 10
585.39200000449728
 20
440.00000000312809
 30
0.0
  0
VERTEX
  5
4C1
100
AcDbEntity
  8
OBJECT
100
AcDbVertex
100
AcDb2dVertex
 10
425.39200000449728
 20
440.00000000312809
 30
0.0
  0
SEQEND
  5
4C2
100
AcDbEntity
  8
OBJECT
  0
LINE
  5
4C3
100
AcDbEntity
  8
CENTER
100
AcDbLine
 10
1555.392000004497
 20
325.00000000312798
 30
0.0
 11
1555.392000004497
 21
475.00000000312809
 31
0.0
  0
POLYLINE
  5
4C4
100
AcDbEntity
  8
OBJECT
100
AcDb2dPolyline
 66
               1
 10
0.0
 20
0.0
 30
0.0
 70
               1
 75
               5
  0
VERTEX
  5
4C5
100
AcDbEntity
  8
OBJECT
100
AcDbVertex
100
AcDb2dVertex
 10
585.39200000449728
 20
2495.0000000031278
 30
0.0
  0
VERTEX
  5
4C6
100
AcDbEntity
  8
OBJECT
100
AcDbVertex
100
AcDb2dVertex
 10
1765.392000004497
 20
2495.0000000031278
 30
0.0
  0
VERTEX
  5
4C7
100
AcDbEntity
  8
OBJECT
100
AcDbVertex
100
AcDb2dVertex
 10
1765.392000004497
 20
1835.000000003128
 30
0.0
  0
VERTEX
  5
4C8
100
AcDbEntity
  8
OBJECT
100
AcDbVertex
100
AcDb2dVertex
 10
585.39200000449728
 20
1835.000000003128
 30
0.0
  0
SEQEND
  5
4C9
100
AcDbEntity
  8
OBJECT
  0
POLYLINE
  5
4CA
100
AcDbEntity
  8
OBJECT
100
AcDb2dPolyline
 66
               1
 10
0.0
 20
0.0
 30
0.0
 70
               1
 75
               5
  0
VERTEX
  5
4CB
100
AcDbEntity
  8
OBJECT
100
AcDbVertex
100
AcDb2dVertex
 10
567.39200000449728
 20
2495.0000000031278
 30
0.0
  0
VERTEX
  5
4CC
100
AcDbEntity
  8
OBJECT
100
AcDbVertex
100
AcDb2dVertex
 10
1783.392000004497
 20
2495.0000000031278
 30
0.0
  0
VERTEX
  5
4CD
100
AcDbEntity
  8
OBJECT
100
AcDbVertex
100
AcDb2dVertex
 10
1783.392000004497
 20
1806.500000003128
 30
0.0
  0
VERTEX
  5
4CE
100
AcDbEntity
  8
OBJECT
100
AcDbVertex
100
AcDb2dVertex
 10
567.39200000449728
 20
1806.500000003128
 30
0.0
  0
SEQEND
  5
4CF
100
AcDbEntity
  8
OBJECT
  0
LINE
  5
4D0
100
AcDbEntity
  8
CENTER
100
AcDbLine
 10
1175.3920000044973
 20
2533.0000000031278
 30
0.0
 11
1175.3920000044973
 21
1797.000000003128
 31
0.0
  0
LINE
  5
4D1
100
AcDbEntity
  8
CENTER
100
AcDbLine
 10
405.39200000449728
 20
2165.0000000031278
 30
0.0
 11
1803.392000004497
 21
2165.0000000031278
 31
0.0
  0
CIRCLE
  5
4D2
100
AcDbEntity
  8
OBJECT
100
AcDbCircle
 10
1555.392000004497
 20
2245.0000000031278
 30
0.0
 40
25.0
  0
LINE
  5
4D3
100
AcDbEntity
  8
CENTER
100
AcDbLine
 10
1555.392000004497
 20
2290.0000000031278
 30
0.0
 11
1555.392000004497
 21
2200.0000000031278
 31
0.0
  0
POLYLINE
  5
4D4
100
AcDbEntity
  8
OBJECT
100
AcDb2dPolyline
 66
               1
 10
0.0
 20
0.0
 30
0.0
 70
               1
 75
               5
  0
VERTEX
  5
4D5
100
AcDbEntity
  8
OBJECT
100
AcDbVertex
100
AcDb2dVertex
 10
2591.8920000044973
 20
990.00000000312798
 30
0.0
  0
VERTEX
  5
4D6
100
AcDbEntity
  8
OBJECT
100
AcDbVertex
100
AcDb2dVertex
 10
3280.3920000044973
 20
990.00000000312798
 30
0.0
  0
VERTEX
  5
4D7
100
AcDbEntity
  8
OBJECT
100
AcDbVertex
100
AcDb2dVertex
 10
3280.3920000044973
 20
985.00000000312798
 30
0.0
  0
VERTEX
  5
4D8
100
AcDbEntity
  8
OBJECT
100
AcDbVertex
100
AcDb2dVertex
 10
2596.8920000044973
 20
985.00000000312798
 30
0.0
  0
VERTEX
  5
4D9
100
AcDbEntity
  8
OBJECT
100
AcDbVertex
100
AcDb2dVertex
 10
2596.8920000044973
 20
975.00000000312798
 30
0.0
  0
VERTEX
  5
4DA
100
AcDbEntity
  8
OBJECT
100
AcDbVertex
100
AcDb2dVertex
 10
2591.8920000044973
 20
975.00000000312798
 30
0.0
  0
SEQEND
  5
4DB
100
AcDbEntity
  8
OBJECT
  0
POLYLINE
  5
4DC
100
AcDbEntity
  8
OBJECT
100
AcDb2dPolyline
 66
               1
 10
0.0
 20
0.0
 30
0.0
 70
               1
 75
               5
  0
VERTEX
  5
4DD
100
AcDbEntity
  8
OBJECT
100
AcDbVertex
100
AcDb2dVertex
 10
3280.3920000044973
 20
990.00000000312798
 30
0.0
  0
VERTEX
  5
4DE
100
AcDbEntity
  8
OBJECT
100
AcDbVertex
100
AcDb2dVertex
 10
3298.3920000044973
 20
990.00000000312798
 30
0.0
  0
VERTEX
  5
4DF
100
AcDbEntity
  8
OBJECT
100
AcDbVertex
100
AcDb2dVertex
 10
3298.3920000044973
 20
985.00000000312798
 30
0.0
  0
VERTEX
  5
4E0
100
AcDbEntity
  8
OBJECT
100
AcDbVertex
100
AcDb2dVertex
 10
3280.3920000044973
 20
985.00000000312798
 30
0.0
  0
SEQEND
  5
4E1
100
AcDbEntity
  8
OBJECT
  0
LINE
  5
4E2
100
AcDbEntity
  8
OBJECT
100
AcDbLine
 10
2620.3920000044973
 20
440.00000000312809
 30
0.0
 11
2620.3920000044973
 21
935.00000000312798
 31
0.0
  0
LINE
  5
4E3
100
AcDbEntity
  8
OBJECT
100
AcDbLine
 10
2695.3920000044973
 20
440.00000000312809
 30
0.0
 11
2620.3920000044973
 21
440.00000000312809
 31
0.0
  0
LINE
  5
4E4
100
AcDbEntity
  8
OBJECT
100
AcDbLine
 10
2550.3920000044973
 20
190.00000000312798
 30
0.0
 11
3501.0
 21
190.00000000312798
 31
0.0
  0
POLYLINE
  5
4E5
100
AcDbEntity
  8
OBJECT
100
AcDb2dPolyline
 66
               1
 10
0.0
 20
0.0
 30
0.0
 70
             128
  0
VERTEX
  5
4E6
100
AcDbEntity
  8
OBJECT
100
AcDbVertex
100
AcDb2dVertex
 10
2596.8920000044973
 20
985.00000000312798
 30
0.0
  0
VERTEX
  5
4E7
100
AcDbEntity
  8
OBJECT
100
AcDbVertex
100
AcDb2dVertex
 10
2596.8920000044973
 20
451.00000000312809
 30
0.0
  0
VERTEX
  5
4E8
100
AcDbEntity
  8
OBJECT
100
AcDbVertex
100
AcDb2dVertex
 10
2613.8920000044973
 20
451.00000000312809
 30
0.0
  0
VERTEX
  5
4E9
100
AcDbEntity
  8
OBJECT
100
AcDbVertex
100
AcDb2dVertex
 10
2613.8920000044973
 20
440.00000000312809
 30
0.0
  0
VERTEX
  5
4EA
100
AcDbEntity
  8
OBJECT
100
AcDbVertex
100
AcDb2dVertex
 10
2620.3920000044973
 20
440.00000000312809
 30
0.0
  0
VERTEX
  5
4EB
100
AcDbEntity
  8
OBJECT
100
AcDbVertex
100
AcDb2dVertex
 10
2620.3920000044973
 20
985.00000000312798
 30
0.0
  0
SEQEND
  5
4EC
100
AcDbEntity
  8
OBJECT
  0
LINE
  5
4ED
100
AcDbEntity
  8
CENTER
100
AcDbLine
 10
2950.3920000044973
 20
269.00000000312798
 30
0.0
 11
2950.3920000044973
 21
1550.000000003128
 31
0.0
  0
POLYLINE
  5
4EE
100
AcDbEntity
  8
OBJECT
100
AcDb2dPolyline
 66
               1
 10
0.0
 20
0.0
 30
0.0
 70
               1
 75
               5
  0
VERTEX
  5
4EF
100
AcDbEntity
  8
OBJECT
100
AcDbVertex
100
AcDb2dVertex
 10
2633.3920000044973
 20
1530.000000003128
 30
0.0
  0
VERTEX
  5
4F0
100
AcDbEntity
  8
OBJECT
100
AcDbVertex
100
AcDb2dVertex
 10
3278.3920000044973
 20
1530.000000003128
 30
0.0
  0
VERTEX
  5
4F1
100
AcDbEntity
  8
OBJECT
100
AcDbVertex
100
AcDb2dVertex
 10
3278.3920000044973
 20
990.00000000312798
 30
0.0
  0
VERTEX
  5
4F2
100
AcDbEntity
  8
OBJECT
100
AcDbVertex
100
AcDb2dVertex
 10
2633.3920000044973
 20
990.00000000312798
 30
0.0
  0
SEQEND
  5
4F3
100
AcDbEntity
  8
OBJECT
  0
POLYLINE
  5
4F4
100
AcDbEntity
  8
OBJECT
100
AcDb2dPolyline
 66
               1
 10
0.0
 20
0.0
 30
0.0
 70
               1
 75
               5
  0
VERTEX
  5
4F5
100
AcDbEntity
  8
OBJECT
100
AcDbVertex
100
AcDb2dVertex
 10
2660.3920000044973
 20
1390.000000003128
 30
0.0
  0
VERTEX
  5
4F6
100
AcDbEntity
  8
OBJECT
100
AcDbVertex
100
AcDb2dVertex
 10
3251.3920000044973
 20
1390.000000003128
 30
0.0
  0
VERTEX
  5
4F7
100
AcDbEntity
  8
OBJECT
100
AcDbVertex
100
AcDb2dVertex
 10
3251.3920000044973
 20
990.00000000312798
 30
0.0
  0
VERTEX
  5
4F8
100
AcDbEntity
  8
OBJECT
100
AcDbVertex
100
AcDb2dVertex
 10
2660.3920000044973
 20
990.00000000312798
 30
0.0
  0
SEQEND
  5
4F9
100
AcDbEntity
  8
OBJECT
  0
INSERT
  5
4FA
100
AcDbEntity
  8
OBJECT
100
AcDbBlockReference
  2
*U1
 10
2025.4000000044971
 20
1409.000000003128
 30
0.0
  0
POLYLINE
  5
4FB
100
AcDbEntity
  8
OBJECT
100
AcDb2dPolyline
 66
               1
 10
0.0
 20
0.0
 30
0.0
 70
             129
  0
VERTEX
  5
4FC
100
AcDbEntity
  8
OBJECT
100
AcDbVertex
100
AcDb2dVertex
 10
1518.892000004497
 20
788.50000000312798
 30
0.0
 42
-0.414213562373095
 70
               2
  0
VERTEX
  5
4FD
100
AcDbEntity
  8
OBJECT
100
AcDbVertex
100
AcDb2dVertex
 10
1521.892000004497
 20
791.50000000312798
 30
0.0
  0
VERTEX
  5
4FE
100
AcDbEntity
  8
OBJECT
100
AcDbVertex
100
AcDb2dVertex
 10
1668.892000004497
 20
791.50000000312798
 30
0.0
 42
-0.414213562373095
 70
               2
 50
1.8714839861558573E+17
  0
VERTEX
  5
4FF
100
AcDbEntity
  8
OBJECT
100
AcDbVertex
100
AcDb2dVertex
 10
1671.892000004497
 20
788.50000000312798
 30
0.0
  0
VERTEX
  5
500
100
AcDbEntity
  8
OBJECT
100
AcDbVertex
100
AcDb2dVertex
 10
1671.892000004497
 20
736.50000000312809
 30
0.0
 42
-0.414213562373084
 70
               2
  0
VERTEX
  5
501
100
AcDbEntity
  8
OBJECT
100
AcDbVertex
100
AcDb2dVertex
 10
1668.892000004497
 20
733.50000000312809
 30
0.0
  0
VERTEX
  5
502
100
AcDbEntity
  8
OBJECT
100
AcDbVertex
100
AcDb2dVertex
 10
1521.892000004497
 20
733.50000000312809
 30
0.0
 42
-0.414213562373095
 70
               2
 50
3.1191399769264294E+17
  0
VERTEX
  5
503
100
AcDbEntity
  8
OBJECT
100
AcDbVertex
100
AcDb2dVertex
 10
1518.892000004497
 20
736.50000000312809
 30
0.0
  0
SEQEND
  5
504
100
AcDbEntity
  8
OBJECT
  0
POLYLINE
  5
505
100
AcDbEntity
  8
OBJECT
100
AcDb2dPolyline
 66
               1
 10
0.0
 20
0.0
 30
0.0
 70
               1
 75
               5
  0
VERTEX
  5
506
100
AcDbEntity
  8
OBJECT
100
AcDbVertex
100
AcDb2dVertex
 10
1523.892000004497
 20
786.50000000312798
 30
0.0
  0
VERTEX
  5
507
100
AcDbEntity
  8
OBJECT
100
AcDbVertex
100
AcDb2dVertex
 10
1666.892000004497
 20
786.50000000312798
 30
0.0
  0
VERTEX
  5
508
100
AcDbEntity
  8
OBJECT
100
AcDbVertex
100
AcDb2dVertex
 10
1666.892000004497
 20
743.50000000312798
 30
0.0
  0
VERTEX
  5
509
100
AcDbEntity
  8
OBJECT
100
AcDbVertex
100
AcDb2dVertex
 10
1523.892000004497
 20
743.50000000312798
 30
0.0
  0
SEQEND
  5
50A
100
AcDbEntity
  8
OBJECT
  0
LINE
  5
50B
100
AcDbEntity
  8
CENTER
100
AcDbLine
 10
1595.392000004497
 20
800.00000000312798
 30
0.0
 11
1595.392000004497
 21
725.00000000312809
 31
0.0
  0
LINE
  5
50C
100
AcDbEntity
  8
CENTER
100
AcDbLine
 10
1510.3920000044973
 20
762.50000000312798
 30
0.0
 11
1680.392000004497
 21
762.50000000312798
 31
0.0
  0
ARC
  5
50D
100
AcDbEntity
  8
OBJECT
100
AcDbCircle
 10
1079.3920000044973
 20
1040.000000003128
 30
0.0
 40
7.5000458831929731
100
AcDbArc
 50
33.690279404550743
 51
327.34184126707578
  0
ARC
  5
50E
100
AcDbEntity
  8
OBJECT
100
AcDbCircle
 10
1271.3920000044973
 20
1040.000000003128
 30
0.0
 40
7.500045883193005
100
AcDbArc
 50
213.69027940455115
 51
146.30972059544928
  0
INSERT
  5
50F
100
AcDbEntity
  8
OBJECT
100
AcDbBlockReference
  2
*U2
 10
2025.4000000044971
 20
1409.000000003128
 30
0.0
  0
INSERT
  5
510
100
AcDbEntity
  8
OBJECT
100
AcDbBlockReference
  2
*U3
 10
2025.4000000044971
 20
1409.000000003128
 30
0.0
  0
POLYLINE
  5
511
100
AcDbEntity
  8
OBJECT
100
AcDb2dPolyline
 66
               1
 10
0.0
 20
0.0
 30
0.0
 70
             129
  0
VERTEX
  5
512
100
AcDbEntity
  8
OBJECT
100
AcDbVertex
100
AcDb2dVertex
 10
2591.8920000044973
 20
1010.000000003128
 30
0.0
  0
VERTEX
  5
513
100
AcDbEntity
  8
OBJECT
100
AcDbVertex
100
AcDb2dVertex
 10
2624.3920000044973
 20
1010.000000003128
 30
0.0
 42
-0.414213562373095
 70
               2
 50
1.8714839861558573E+17
  0
VERTEX
  5
514
100
AcDbEntity
  8
OBJECT
100
AcDbVertex
100
AcDb2dVertex
 10
2629.3920000044973
 20
1005.000000003128
 30
0.0
  0
VERTEX
  5
515
100
AcDbEntity
  8
OBJECT
100
AcDbVertex
100
AcDb2dVertex
 10
2629.3920000044973
 20
993.00000000312798
 30
0.0
 42
-0.414213562373095
 70
               2
  0
VERTEX
  5
516
100
AcDbEntity
  8
OBJECT
100
AcDbVertex
100
AcDb2dVertex
 10
2626.3920000044973
 20
990.00000000312798
 30
0.0
  0
VERTEX
  5
517
100
AcDbEntity
  8
OBJECT
100
AcDbVertex
100
AcDb2dVertex
 10
2591.8920000044973
 20
990.00000000312798
 30
0.0
  0
SEQEND
  5
518
100
AcDbEntity
  8
OBJECT
  0
POLYLINE
  5
519
100
AcDbEntity
  8
OBJECT
100
AcDb2dPolyline
 66
               1
 10
0.0
 20
0.0
 30
0.0
 70
             128
  0
VERTEX
  5
51A
100
AcDbEntity
  8
OBJECT
100
AcDbVertex
100
AcDb2dVertex
 10
2622.3920000044973
 20
1036.000000003128
 30
0.0
  0
VERTEX
  5
51B
100
AcDbEntity
  8
OBJECT
100
AcDbVertex
100
AcDb2dVertex
 10
2587.3920000044973
 20
1036.000000003128
 30
0.0
  0
VERTEX
  5
51C
100
AcDbEntity
  8
OBJECT
100
AcDbVertex
100
AcDb2dVertex
 10
2587.3920000044973
 20
1036.000000003128
 30
0.0
  0
VERTEX
  5
51D
100
AcDbEntity
  8
OBJECT
100
AcDbVertex
100
AcDb2dVertex
 10
2587.3920000044973
 20
1036.000000003128
 30
0.0
 42
-0.414213562373095
 70
               2
 50
3.1191399769264294E+17
  0
VERTEX
  5
51E
100
AcDbEntity
  8
OBJECT
100
AcDbVertex
100
AcDb2dVertex
 10
2583.3920000044973
 20
1040.000000003128
 30
0.0
  0
VERTEX
  5
51F
100
AcDbEntity
  8
OBJECT
100
AcDbVertex
100
AcDb2dVertex
 10
2583.3920000044973
 20
1040.000000003128
 30
0.0
  0
VERTEX
  5
520
100
AcDbEntity
  8
OBJECT
100
AcDbVertex
100
AcDb2dVertex
 10
2583.3920000044973
 20
1040.000000003128
 30
0.0
 42
-0.414213562373095
 70
               2
  0
VERTEX
  5
521
100
AcDbEntity
  8
OBJECT
100
AcDbVertex
100
AcDb2dVertex
 10
2587.3920000044973
 20
1044.000000003128
 30
0.0
  0
VERTEX
  5
522
100
AcDbEntity
  8
OBJECT
100
AcDbVertex
100
AcDb2dVertex
 10
2622.3920000044973
 20
1044.000000003128
 30
0.0
  0
SEQEND
  5
523
100
AcDbEntity
  8
OBJECT
  0
POLYLINE
  5
524
100
AcDbEntity
  8
OBJECT
100
AcDb2dPolyline
 66
               1
 10
0.0
 20
0.0
 30
0.0
 75
               5
  0
VERTEX
  5
525
100
AcDbEntity
  8
OBJECT
100
AcDbVertex
100
AcDb2dVertex
 10
2622.3920000044973
 20
1010.000000003128
 30
0.0
  0
VERTEX
  5
526
100
AcDbEntity
  8
OBJECT
100
AcDbVertex
100
AcDb2dVertex
 10
2622.3920000044973
 20
1530.000000003128
 30
0.0
  0
VERTEX
  5
527
100
AcDbEntity
  8
OBJECT
100
AcDbVertex
100
AcDb2dVertex
 10
2633.3920000044973
 20
1530.000000003128
 30
0.0
  0
VERTEX
  5
528
100
AcDbEntity
  8
OBJECT
100
AcDbVertex
100
AcDb2dVertex
 10
2633.3920000044973
 20
990.00000000312798
 30
0.0
  0
VERTEX
  5
529
100
AcDbEntity
  8
OBJECT
100
AcDbVertex
100
AcDb2dVertex
 10
2622.3920000044973
 20
990.00000000312798
 30
0.0
  0
VERTEX
  5
52A
100
AcDbEntity
  8
OBJECT
100
AcDbVertex
100
AcDb2dVertex
 10
2622.3920000044973
 20
990.00000000312798
 30
0.0
  0
SEQEND
  5
52B
100
AcDbEntity
  8
OBJECT
  0
POLYLINE
  5
52C
100
AcDbEntity
  8
OBJECT
100
AcDb2dPolyline
 66
               1
 10
0.0
 20
0.0
 30
0.0
 70
               1
 75
               5
  0
VERTEX
  5
52D
100
AcDbEntity
  8
OBJECT
100
AcDbVertex
100
AcDb2dVertex
 10
585.39200000449728
 20
975.00000000312798
 30
0.0
  0
VERTEX
  5
52E
100
AcDbEntity
  8
OBJECT
100
AcDbVertex
100
AcDb2dVertex
 10
1425.3920000044973
 20
975.00000000312798
 30
0.0
  0
VERTEX
  5
52F
100
AcDbEntity
  8
OBJECT
100
AcDbVertex
100
AcDb2dVertex
 10
1425.3920000044973
 20
440.00000000312809
 30
0.0
  0
VERTEX
  5
530
100
AcDbEntity
  8
OBJECT
100
AcDbVertex
100
AcDb2dVertex
 10
585.39200000449728
 20
440.00000000312809
 30
0.0
  0
SEQEND
  5
531
100
AcDbEntity
  8
OBJECT
  0
LINE
  5
532
100
AcDbEntity
  8
OBJECT
100
AcDbLine
 10
585.39200000449728
 20
451.00000000312809
 30
0.0
 11
1445.3920000044973
 21
451.00000000312809
 31
0.0
  0
POLYLINE
  5
533
100
AcDbEntity
  8
OBJECT
100
AcDb2dPolyline
 66
               1
 10
0.0
 20
0.0
 30
0.0
 70
             129
  0
VERTEX
  5
534
100
AcDbEntity
  8
OBJECT
100
AcDbVertex
100
AcDb2dVertex
 10
1009.8920000044972
 20
445.50000000312809
 30
0.0
 42
-0.414213562373095
 70
               2
  0
VERTEX
  5
535
100
AcDbEntity
  8
OBJECT
100
AcDbVertex
100
AcDb2dVertex
 10
1015.3920000044972
 20
451.00000000312809
 30
0.0
 42
-0.414213562373095
 70
               2
 50
1.8714839861558573E+17
  0
VERTEX
  5
536
100
AcDbEntity
  8
OBJECT
100
AcDbVertex
100
AcDb2dVertex
 10
1020.8920000044972
 20
445.50000000312809
 30
0.0
 42
-0.414213562373095
 70
               2
  0
VERTEX
  5
537
100
AcDbEntity
  8
OBJECT
100
AcDbVertex
100
AcDb2dVertex
 10
1015.3920000044972
 20
440.00000000312809
 30
0.0
 42
-0.414213562373095
 70
               2
 50
3.1191399769264294E+17
  0
VERTEX
  5
538
100
AcDbEntity
  8
OBJECT
100
AcDbVertex
100
AcDb2dVertex
 10
1009.8920000044972
 20
445.50000000312809
 30
0.0
  0
SEQEND
  5
539
100
AcDbEntity
  8
OBJECT
  0
POLYLINE
  5
53A
100
AcDbEntity
  8
OBJECT
100
AcDb2dPolyline
 66
               1
 10
0.0
 20
0.0
 30
0.0
 70
             129
  0
VERTEX
  5
53B
100
AcDbEntity
  8
OBJECT
100
AcDbVertex
100
AcDb2dVertex
 10
1384.8920000044973
 20
445.50000000312809
 30
0.0
 42
-0.414213562373095
 70
               2
  0
VERTEX
  5
53C
100
AcDbEntity
  8
OBJECT
100
AcDbVertex
100
AcDb2dVertex
 10
1390.3920000044973
 20
451.00000000312809
 30
0.0
 42
-0.414213562373095
 70
               2
 50
1.8714839861558573E+17
  0
VERTEX
  5
53D
100
AcDbEntity
  8
OBJECT
100
AcDbVertex
100
AcDb2dVertex
 10
1395.8920000044973
 20
445.50000000312809
 30
0.0
 42
-0.414213562373095
 70
               2
  0
VERTEX
  5
53E
100
AcDbEntity
  8
OBJECT
100
AcDbVertex
100
AcDb2dVertex
 10
1390.3920000044973
 20
440.00000000312809
 30
0.0
 42
-0.414213562373095
 70
               2
 50
3.1191399769264294E+17
  0
VERTEX
  5
53F
100
AcDbEntity
  8
OBJECT
100
AcDbVertex
100
AcDb2dVertex
 10
1384.8920000044973
 20
445.50000000312809
 30
0.0
  0
SEQEND
  5
540
100
AcDbEntity
  8
OBJECT
  0
POLYLINE
  5
541
100
AcDbEntity
  8
OBJECT
100
AcDb2dPolyline
 66
               1
 10
0.0
 20
0.0
 30
0.0
 70
             129
  0
VERTEX
  5
542
100
AcDbEntity
  8
OBJECT
100
AcDbVertex
100
AcDb2dVertex
 10
629.89200000449728
 20
445.50000000312809
 30
0.0
 42
-0.414213562373089
 70
               2
  0
VERTEX
  5
543
100
AcDbEntity
  8
OBJECT
100
AcDbVertex
100
AcDb2dVertex
 10
635.39200000449728
 20
451.00000000312809
 30
0.0
 42
-0.414213562373095
 70
               2
 50
1.8714839861558573E+17
  0
VERTEX
  5
544
100
AcDbEntity
  8
OBJECT
100
AcDbVertex
100
AcDb2dVertex
 10
640.89200000449728
 20
445.50000000312809
 30
0.0
 42
-0.4142135623731011
 70
               2
  0
VERTEX
  5
545
100
AcDbEntity
  8
OBJECT
100
AcDbVertex
100
AcDb2dVertex
 10
635.39200000449728
 20
440.00000000312809
 30
0.0
 42
-0.414213562373095
 70
               2
 50
3.1191399769264294E+17
  0
VERTEX
  5
546
100
AcDbEntity
  8
OBJECT
100
AcDbVertex
100
AcDb2dVertex
 10
629.89200000449728
 20
445.50000000312809
 30
0.0
  0
SEQEND
  5
547
100
AcDbEntity
  8
OBJECT
  0
POLYLINE
  5
548
100
AcDbEntity
  8
OBJECT
100
AcDb2dPolyline
 66
               1
 10
0.0
 20
0.0
 30
0.0
 70
               1
 75
               5
  0
VERTEX
  5
549
100
AcDbEntity
  8
OBJECT
100
AcDbVertex
100
AcDb2dVertex
 10
1425.3920000044973
 20
975.00000000312798
 30
0.0
  0
VERTEX
  5
54A
100
AcDbEntity
  8
OBJECT
100
AcDbVertex
100
AcDb2dVertex
 10
1765.392000004497
 20
975.00000000312798
 30
0.0
  0
VERTEX
  5
54B
100
AcDbEntity
  8
OBJECT
100
AcDbVertex
100
AcDb2dVertex
 10
1765.392000004497
 20
440.00000000312809
 30
0.0
  0
VERTEX
  5
54C
100
AcDbEntity
  8
OBJECT
100
AcDbVertex
100
AcDb2dVertex
 10
1425.3920000044973
 20
440.00000000312809
 30
0.0
  0
SEQEND
  5
54D
100
AcDbEntity
  8
OBJECT
  0
LINE
  5
54E
100
AcDbEntity
  8
OBJECT
100
AcDbLine
 10
1765.392000004497
 20
451.00000000312809
 30
0.0
 11
1445.3920000044973
 21
451.00000000312809
 31
0.0
  0
POLYLINE
  5
54F
100
AcDbEntity
  8
OBJECT
100
AcDb2dPolyline
 66
               1
 10
0.0
 20
0.0
 30
0.0
 70
             129
  0
VERTEX
  5
550
100
AcDbEntity
  8
OBJECT
100
AcDbVertex
100
AcDb2dVertex
 10
1739.892000004497
 20
445.50000000312809
 30
0.0
 42
-0.4142135623731011
 70
               2
  0
VERTEX
  5
551
100
AcDbEntity
  8
OBJECT
100
AcDbVertex
100
AcDb2dVertex
 10
1745.392000004497
 20
451.00000000312809
 30
0.0
 42
-0.4142135623730981
 70
               2
 50
-5534760231469442.0
  0
VERTEX
  5
552
100
AcDbEntity
  8
OBJECT
100
AcDbVertex
100
AcDb2dVertex
 10
1750.892000004497
 20
445.50000000312809
 30
0.0
 42
-0.414213562373089
 70
               2
  0
VERTEX
  5
553
100
AcDbEntity
  8
OBJECT
100
AcDbVertex
100
AcDb2dVertex
 10
1745.392000004497
 20
440.00000000312809
 30
0.0
 42
-0.414213562373092
 70
               2
 50
5284695388076894.0
  0
VERTEX
  5
554
100
AcDbEntity
  8
OBJECT
100
AcDbVertex
100
AcDb2dVertex
 10
1739.892000004497
 20
445.50000000312809
 30
0.0
  0
SEQEND
  5
555
100
AcDbEntity
  8
OBJECT
  0
POLYLINE
  5
556
100
AcDbEntity
  8
OBJECT
100
AcDb2dPolyline
 66
               1
 10
0.0
 20
0.0
 30
0.0
 70
             129
  0
VERTEX
  5
557
100
AcDbEntity
  8
OBJECT
100
AcDbVertex
100
AcDb2dVertex
 10
1454.8920000044973
 20
445.50000000312809
 30
0.0
 42
-0.414213562373095
 70
               2
  0
VERTEX
  5
558
100
AcDbEntity
  8
OBJECT
100
AcDbVertex
100
AcDb2dVertex
 10
1460.3920000044973
 20
451.00000000312809
 30
0.0
 42
-0.414213562373095
 70
               2
 50
1.8714839861558573E+17
  0
VERTEX
  5
559
100
AcDbEntity
  8
OBJECT
100
AcDbVertex
100
AcDb2dVertex
 10
1465.8920000044973
 20
445.50000000312809
 30
0.0
 42
-0.414213562373095
 70
               2
  0
VERTEX
  5
55A
100
AcDbEntity
  8
OBJECT
100
AcDbVertex
100
AcDb2dVertex
 10
1460.3920000044973
 20
440.00000000312809
 30
0.0
 42
-0.414213562373095
 70
               2
 50
3.1191399769264294E+17
  0
VERTEX
  5
55B
100
AcDbEntity
  8
OBJECT
100
AcDbVertex
100
AcDb2dVertex
 10
1454.8920000044973
 20
445.50000000312809
 30
0.0
  0
SEQEND
  5
55C
100
AcDbEntity
  8
OBJECT
  0
CIRCLE
  5
55D
100
AcDbEntity
  8
OBJECT
100
AcDbCircle
 10
1595.392000004497
 20
570.00000000312809
 30
0.0
 40
29.99996840415006
  0
LINE
  5
55E
100
AcDbEntity
  8
CENTER
100
AcDbLine
 10
1635.392000004497
 20
570.00000000312809
 30
0.0
 11
1555.392000004497
 21
570.00000000312809
 31
0.0
  0
LINE
  5
55F
100
AcDbEntity
  8
CENTER
100
AcDbLine
 10
1595.392000004497
 20
530.00000000312809
 30
0.0
 11
1595.392000004497
 21
610.00000000312809
 31
0.0
  0
LINE
  5
560
100
AcDbEntity
  8
OBJECT
100
AcDbLine
 10
2620.3920000044973
 20
840.00000000312798
 30
0.0
 11
2835.3920000044973
 21
840.00000000312798
 31
0.0
  0
POLYLINE
  5
561
100
AcDbEntity
  8
OBJECT
100
AcDb2dPolyline
 66
               1
 10
0.0
 20
0.0
 30
0.0
 70
             129
  0
VERTEX
  5
562
100
AcDbEntity
  8
OBJECT
100
AcDbVertex
100
AcDb2dVertex
 10
567.39200000449728
 20
2125.0000000031278
 30
0.0
  0
VERTEX
  5
563
100
AcDbEntity
  8
OBJECT
100
AcDbVertex
100
AcDb2dVertex
 10
435.39200000449728
 20
2125.0000000031278
 30
0.0
 42
-0.414213562373095
 70
               2
 50
3.1191399769264294E+17
  0
VERTEX
  5
564
100
AcDbEntity
  8
OBJECT
100
AcDbVertex
100
AcDb2dVertex
 10
425.39200000449728
 20
2135.0000000031278
 30
0.0
  0
VERTEX
  5
565
100
AcDbEntity
  8
OBJECT
100
AcDbVertex
100
AcDb2dVertex
 10
425.39200000449728
 20
2195.0000000031278
 30
0.0
 42
-0.414213562373095
 70
               2
  0
VERTEX
  5
566
100
AcDbEntity
  8
OBJECT
100
AcDbVertex
100
AcDb2dVertex
 10
435.39200000449728
 20
2205.0000000031278
 30
0.0
  0
VERTEX
  5
567
100
AcDbEntity
  8
OBJECT
100
AcDbVertex
100
AcDb2dVertex
 10
485.39200000449728
 20
2205.0000000031278
 30
0.0
  0
VERTEX
  5
568
100
AcDbEntity
  8
OBJECT
100
AcDbVertex
100
AcDb2dVertex
 10
485.39200000449728
 20
2200.0000000031278
 30
0.0
  0
VERTEX
  5
569
100
AcDbEntity
  8
OBJECT
100
AcDbVertex
100
AcDb2dVertex
 10
435.39200000449728
 20
2200.0000000031278
 30
0.0
 42
0.414213562373095
 70
               2
 50
9.3574199307792870E+17
  0
VERTEX
  5
56A
100
AcDbEntity
  8
OBJECT
100
AcDbVertex
100
AcDb2dVertex
 10
430.39200000449728
 20
2195.0000000031278
 30
0.0
  0
VERTEX
  5
56B
100
AcDbEntity
  8
OBJECT
100
AcDbVertex
100
AcDb2dVertex
 10
430.39200000449728
 20
2135.0000000031278
 30
0.0
 42
0.414213562373095
 70
               2
  0
VERTEX
  5
56C
100
AcDbEntity
  8
OBJECT
100
AcDbVertex
100
AcDb2dVertex
 10
435.39200000449728
 20
2130.0000000031278
 30
0.0
  0
VERTEX
  5
56D
100
AcDbEntity
  8
OBJECT
100
AcDbVertex
100
AcDb2dVertex
 10
567.39200000449728
 20
2130.0000000031278
 30
0.0
  0
SEQEND
  5
56E
100
AcDbEntity
  8
OBJECT
  0
DIMENSION
  5
56F
100
AcDbEntity
  8
DIMENTION
100
AcDbDimension
  2
*D4
 10
337.39200000449728
 20
990.00000000312798
 30
0.0
 11
337.39200000449728
 21
590.00000000312798
 31
0.0
  3
CAD
100
AcDbAlignedDimension
 13
625.39200000449728
 23
190.00000000312798
 33
0.0
 14
567.39200000449728
 24
990.00000000312798
 34
0.0
 50
90.0
100
AcDbRotatedDimension
1001
ACAD
1000
DSTYLE
1002
{
1070
             271
1070
               0
1070
             340
1005
6A
1070
             147
1040
0.9999999962747097
1002
}
  0
DIMENSION
  5
570
100
AcDbEntity
  8
DIMENTION
100
AcDbDimension
  2
*D5
 10
590.39200000449728
 20
1624.000000003128
 30
0.0
 11
1175.3920000044973
 21
1624.9999999994027
 31
0.0
 70
             128
  3
CAD
100
AcDbAlignedDimension
 13
1760.392000004497
 23
1530.000000003128
 33
0.0
 14
590.39200000449728
 24
1530.000000003128
 34
0.0
100
AcDbRotatedDimension
1001
ACAD
1000
DSTYLE
1002
{
1070
             271
1070
               0
1070
             340
1005
6A
1070
             147
1040
0.9999999962747097
1002
}
  0
DIMENSION
  5
571
100
AcDbEntity
  8
DIMENTION
100
AcDbDimension
  2
*D6
 10
279.39200000449728
 20
1530.000000003128
 30
0.0
 11
279.39200000449728
 21
860.00000000312798
 31
0.0
  3
CAD
100
AcDbAlignedDimension
 13
625.39200000449728
 23
190.00000000312798
 33
0.0
 14
590.39200000449728
 24
1530.000000003128
 34
0.0
 50
90.0
100
AcDbRotatedDimension
1001
ACAD
1000
DSTYLE
1002
{
1070
             271
1070
               0
1070
             340
1005
6A
1070
             147
1040
0.9999999962747097
1002
}
  0
DIMENSION
  5
572
100
AcDbEntity
  8
DIMENTION
100
AcDbDimension
  2
*D7
 10
1662.344000004497
 20
360.00000000312798
 30
0.0
 11
1663.3440000007718
 21
275.00000000312798
 31
0.0
 70
             128
  3
CAD
100
AcDbAlignedDimension
 13
1585.392000004497
 23
190.00000000312798
 33
0.0
 14
1585.392000004497
 24
360.00000000312798
 34
0.0
 50
90.0
100
AcDbRotatedDimension
1001
ACAD
1000
DSTYLE
1002
{
1070
             271
1070
               0
1070
             340
1005
6A
1070
             147
1040
0.9999999962747097
1002
}
  0
DIMENSION
  5
573
100
AcDbEntity
  8
DIMENTION
100
AcDbDimension
  2
*D8
 10
391.39200000449728
 20
440.00000000312809
 30
0.0
 11
391.39200000449728
 21
315.00000000312798
 31
0.0
  3
CAD
100
AcDbAlignedDimension
 13
615.39200000449728
 23
190.00000000312798
 33
0.0
 14
425.39200000449728
 24
440.00000000312809
 34
0.0
 50
90.0
100
AcDbRotatedDimension
1001
ACAD
1000
DSTYLE
1002
{
1070
             271
1070
               0
1070
             340
1005
6A
1070
             147
1040
0.9999999962747097
1002
}
  0
DIMENSION
  5
574
100
AcDbEntity
  8
DIMENTION
100
AcDbDimension
  2
*D9
 10
2633.3920000044973
 20
1710.000000003128
 30
0.0
 11
2955.8920000044973
 21
1710.000000003128
 31
0.0
  3
CAD
100
AcDbAlignedDimension
 13
3278.3920000044973
 23
1530.000000003128
 33
0.0
 14
2633.3920000044973
 24
1530.000000003128
 34
0.0
100
AcDbRotatedDimension
1001
ACAD
1000
DSTYLE
1002
{
1070
             271
1070
               0
1070
             340
1005
6A
1070
             147
1040
0.9999999962747097
1002
}
  0
DIMENSION
  5
575
100
AcDbEntity
  8
DIMENTION
100
AcDbDimension
  2
*D10
 10
2807.3920000044973
 20
1390.000000003128
 30
0.0
 11
2807.3920000044973
 21
1190.000000003128
 31
0.0
  3
CAD
100
AcDbAlignedDimension
 13
2656.8920000044973
 23
990.00000000312798
 33
0.0
 14
2656.8920000044973
 24
1390.000000003128
 34
0.0
 50
90.0
100
AcDbRotatedDimension
1001
ACAD
1000
DSTYLE
1002
{
1070
             271
1070
               0
1070
             340
1005
6A
1070
             147
1040
0.9999999962747097
1002
}
  0
DIMENSION
  5
576
100
AcDbEntity
  8
DIMENTION
100
AcDbDimension
  2
*D11
 10
1555.392000004497
 20
2312.0000000031278
 30
0.0
 11
1373.3937089888723
 21
2312.9999999994025
 31
0.0
 70
             128
  3
CAD
100
AcDbAlignedDimension
 13
1175.3920000044973
 23
2165.0000000031278
 33
0.0
 14
1555.392000004497
 24
2245.0000000031278
 34
0.0
100
AcDbRotatedDimension
1001
ACAD
1000
DSTYLE
1002
{
1070
             271
1070
               0
1070
             340
1005
6A
1070
             147
1040
0.9999999962747097
1002
}
  0
DIMENSION
  5
577
100
AcDbEntity
  8
DIMENTION
100
AcDbDimension
  2
*D12
 10
300.39200000449728
 20
2495.0000000031278
 30
0.0
 11
299.39200000822257
 21
2165.0000000031278
 31
0.0
 70
             128
  3
CAD
100
AcDbAlignedDimension
 13
585.39200000449728
 23
1835.000000003128
 33
0.0
 14
567.39200000449728
 24
2495.0000000031278
 34
0.0
 50
90.0
100
AcDbRotatedDimension
1001
ACAD
1000
DSTYLE
1002
{
1070
             271
1070
               0
1070
             340
1005
6A
1070
             147
1040
0.9999999962747097
1002
}
  0
DIMENSION
  5
578
100
AcDbEntity
  8
DIMENTION
100
AcDbDimension
  2
*D13
 10
300.39200000449728
 20
1806.500000003128
 30
0.0
 11
299.39200000822257
 21
1749.500000003128
 31
0.0
 70
             128
  3
CAD
100
AcDbAlignedDimension
 13
585.39200000449728
 23
1835.000000003128
 33
0.0
 14
567.39200000449728
 24
1806.500000003128
 34
0.0
 50
90.0
100
AcDbRotatedDimension
1001
ACAD
1000
DSTYLE
1002
{
1070
             271
1070
               0
1070
             340
1005
6A
1070
             174
1070
               0
1070
             147
1040
0.9999999962747097
1002
}
  0
DIMENSION
  5
579
100
AcDbEntity
  8
DIMENTION
100
AcDbDimension
  2
*D14
 10
300.39200000449728
 20
2513.0000000031278
 30
0.0
 11
299.39200000822257
 21
2534.0000000031278
 31
0.0
 70
             128
  3
CAD
100
AcDbAlignedDimension
 13
567.39200000449728
 23
2495.0000000031278
 33
0.0
 14
585.39200000449728
 24
2513.0000000031278
 34
0.0
 50
90.0
100
AcDbRotatedDimension
1001
ACAD
1000
DSTYLE
1002
{
1070
             271
1070
               0
1070
             340
1005
6A
1070
             174
1070
               0
1070
             147
1040
0.9999999962747097
1002
}
  0
DIMENSION
  5
57A
100
AcDbEntity
  8
DIMENTION
100
AcDbDimension
  2
*D15
 10
215.39200000449728
 20
2513.0000000031278
 30
0.0
 11
215.39200000449728
 21
2159.7500000031278
 31
0.0
  3
CAD
100
AcDbAlignedDimension
 13
567.39200000449728
 23
1806.500000003128
 33
0.0
 14
585.39200000449728
 24
2513.0000000031278
 34
0.0
 50
90.0
100
AcDbRotatedDimension
1001
ACAD
1000
DSTYLE
1002
{
1070
             271
1070
               0
1070
             340
1005
6A
1070
             147
1040
0.9999999962747097
1002
}
  0
DIMENSION
  5
57B
100
AcDbEntity
  8
DIMENTION
100
AcDbDimension
  2
*D16
 10
1765.392000004497
 20
1741.000000003128
 30
0.0
 11
1175.3920000044973
 21
1741.000000003128
 31
0.0
  3
CAD
100
AcDbAlignedDimension
 13
585.39200000449728
 23
1824.500000003128
 33
0.0
 14
1765.392000004497
 24
1824.500000003128
 34
0.0
100
AcDbRotatedDimension
1001
ACAD
1000
DSTYLE
1002
{
1070
             271
1070
               0
1070
             340
1005
6A
1070
             147
1040
0.9999999962747097
1002
}
  0
DIMENSION
  5
57C
100
AcDbEntity
  8
DIMENTION
100
AcDbDimension
  2
*D17
 10
567.39200000449728
 20
1741.000000003128
 30
0.0
 11
532.39200000449728
 21
1741.9999999994027
 31
0.0
 70
             128
  3
CAD
100
AcDbAlignedDimension
 13
585.39200000449728
 23
1824.500000003128
 33
0.0
 14
567.39200000449728
 24
1806.500000003128
 34
0.0
100
AcDbRotatedDimension
1001
ACAD
1000
DSTYLE
1002
{
1070
             271
1070
               0
1070
             340
1005
6A
1070
             174
1070
               0
1070
             147
1040
0.9999999962747097
1002
}
  0
DIMENSION
  5
57D
100
AcDbEntity
  8
DIMENTION
100
AcDbDimension
  2
*D18
 10
1783.392000004497
 20
1741.000000003128
 30
0.0
 11
1822.3546000044971
 21
1741.9999999994027
 31
0.0
 70
             128
  3
CAD
100
AcDbAlignedDimension
 13
1765.392000004497
 23
1824.500000003128
 33
0.0
 14
1783.392000004497
 24
1806.500000003128
 34
0.0
100
AcDbRotatedDimension
1001
ACAD
1000
DSTYLE
1002
{
1070
             271
1070
               0
1070
             340
1005
6A
1070
             174
1070
               0
1070
             147
1040
0.9999999962747097
1002
}
  0
DIMENSION
  5
57E
100
AcDbEntity
  8
DIMENTION
100
AcDbDimension
  2
*D19
 10
567.39200000449728
 20
1692.000000003128
 30
0.0
 11
1178.3978593794973
 21
1692.9999999994027
 31
0.0
 70
             128
  3
CAD
100
AcDbAlignedDimension
 13
1783.392000004497
 23
1806.500000003128
 33
0.0
 14
567.39200000449728
 24
1806.500000003128
 34
0.0
100
AcDbRotatedDimension
1001
ACAD
1000
DSTYLE
1002
{
1070
             271
1070
               0
1070
             340
1005
6A
1070
             147
1040
0.9999999962747097
1002
}
  0
DIMENSION
  5
57F
100
AcDbEntity
  8
DIMENTION
100
AcDbDimension
  2
*D20
 10
425.39200000449728
 20
2270.0000000031278
 30
0.0
 11
505.39200000449728
 21
2270.0000000031278
 31
0.0
  3
CAD
100
AcDbAlignedDimension
 13
585.39200000449728
 23
2205.0000000031278
 33
0.0
 14
425.39200000449728
 24
2205.0000000031278
 34
0.0
100
AcDbRotatedDimension
1001
ACAD
1000
DSTYLE
1002
{
1070
             271
1070
               0
1070
             340
1005
6A
1070
             147
1040
0.9999999962747097
1002
}
  0
DIMENSION
  5
580
100
AcDbEntity
  8
DIMENTION
100
AcDbDimension
  2
*D21
 10
375.39200000449728
 20
2125.0000000031278
 30
0.0
 11
375.39200000449728
 21
2165.0000000031278
 31
0.0
  3
CAD
100
AcDbAlignedDimension
 13
425.39200000449728
 23
2205.0000000031278
 33
0.0
 14
425.39200000449728
 24
2125.0000000031278
 34
0.0
 50
90.0
100
AcDbRotatedDimension
1001
ACAD
1000
DSTYLE
1002
{
1070
             271
1070
               0
1070
             340
1005
6A
1070
             147
1040
0.9999999962747097
1002
}
  0
DIMENSION
  5
581
100
AcDbEntity
  8
DIMENTION
100
AcDbDimension
  2
*D22
 10
2633.3920000044973
 20
1630.000000003128
 30
0.0
 11
2791.8920000044973
 21
1630.000000003128
 31
0.0
  3
CAD
100
AcDbAlignedDimension
 13
2950.3920000044973
 23
1530.000000003128
 33
0.0
 14
2633.3920000044973
 24
1530.000000003128
 34
0.0
100
AcDbRotatedDimension
1001
ACAD
1000
DSTYLE
1002
{
1070
             271
1070
               0
1070
             340
1005
6A
1070
             147
1040
0.9999999962747097
1002
}
  0
DIMENSION
  5
582
100
AcDbEntity
  8
DIMENTION
100
AcDbDimension
  2
*D23
 10
3278.3920000044973
 20
1630.000000003128
 30
0.0
 11
3114.3920000044973
 21
1630.000000003128
 31
0.0
  3
CAD
100
AcDbAlignedDimension
 13
2950.3920000044973
 23
1530.000000003128
 33
0.0
 14
3278.3920000044973
 24
1530.000000003128
 34
0.0
100
AcDbRotatedDimension
1001
ACAD
1000
DSTYLE
1002
{
1070
             271
1070
               0
1070
             340
1005
6A
1070
             147
1040
0.9999999962747097
1002
}
  0
DIMENSION
  5
583
100
AcDbEntity
  8
DIMENTION
100
AcDbDimension
  2
*D24
 10
1670.392000004497
 20
1912.000000003128
 30
0.0
 11
1671.3920000007718
 21
2126.9974975617215
 31
0.0
 70
             128
  3
CAD
100
AcDbAlignedDimension
 13
1605.392000004497
 23
2418.0000000031278
 33
0.0
 14
1605.392000004497
 24
1912.000000003128
 34
0.0
 50
90.0
100
AcDbRotatedDimension
1001
ACAD
1000
DSTYLE
1002
{
1070
             271
1070
               0
1070
             340
1005
6A
1070
             147
1040
0.9999999962747097
1002
}
  0
MTEXT
  5
584
100
AcDbEntity
  8
DIMENTION
100
AcDbMText
 10
1155.9635000044973
 20
296.03240000312803
 30
0.0
 40
33.866666666666667
 41
0.0
 71
               1
 72
               1
  1
排水口　\P40Aめすねじ
  7
________
  0
LINE
  5
585
100
AcDbEntity
  8
DIMENTION
100
AcDbLine
 10
1391.0319000044972
 20
252.41680000312817
 30
0.0
 11
1151.0319000044974
 21
252.41680000312817
 31
0.0
  0
LINE
  5
586
100
AcDbEntity
  8
DIMENTION
100
AcDbLine
 10
1391.0319000044972
 20
252.41680000312817
 30
0.0
 11
1555.392000004497
 21
360.00000000312798
 31
0.0
  0
LINE
  5
587
100
AcDbEntity
  8
DIMENTION
100
AcDbLine
 10
1555.392000004497
 20
360.00000000312798
 30
0.0
 11
1533.3976644419899
 21
335.57281567205473
 31
0.0
  0
LINE
  5
588
100
AcDbEntity
  8
DIMENTION
100
AcDbLine
 10
1555.392000004497
 20
360.00000000312798
 30
0.0
 11
1524.1307545024697
 21
349.84260561074689
 31
0.0
  0
LINE
  5
589
100
AcDbEntity
  8
DIMENTION
100
AcDbLine
 10
1391.0319000044972
 20
202.41680000312817
 30
0.0
 11
1151.0319000044969
 21
202.41680000312817
 31
0.0
  0
LINE
  5
58A
100
AcDbEntity
  8
DIMENTION
100
AcDbLine
 10
1391.0319000044972
 20
252.41680000312817
 30
0.0
 11
1391.0319000044972
 21
202.41680000312817
 31
0.0
  0
POLYLINE
  5
58B
100
AcDbEntity
  8
OBJECT
100
AcDb2dPolyline
 66
               1
 10
0.0
 20
0.0
 30
0.0
 70
             128
  0
VERTEX
  5
58C
100
AcDbEntity
  8
OBJECT
100
AcDbVertex
100
AcDb2dVertex
 10
2695.3920000044973
 20
800.00000000312798
 30
0.0
  0
VERTEX
  5
58D
100
AcDbEntity
  8
OBJECT
100
AcDbVertex
100
AcDb2dVertex
 10
2690.3920000044973
 20
800.00000000312798
 30
0.0
  0
VERTEX
  5
58E
100
AcDbEntity
  8
OBJECT
100
AcDbVertex
100
AcDb2dVertex
 10
2690.3920000044973
 20
800.00000000312798
 30
0.0
  0
VERTEX
  5
58F
100
AcDbEntity
  8
OBJECT
100
AcDbVertex
100
AcDb2dVertex
 10
2690.3920000044973
 20
800.00000000312798
 30
0.0
 42
-0.414213562373095
 70
               2
 50
3.1191399769264294E+17
  0
VERTEX
  5
590
100
AcDbEntity
  8
OBJECT
100
AcDbVertex
100
AcDb2dVertex
 10
2680.3920000044973
 20
810.00000000312798
 30
0.0
  0
VERTEX
  5
591
100
AcDbEntity
  8
OBJECT
100
AcDbVertex
100
AcDb2dVertex
 10
2695.3920000044973
 20
810.00000000312798
 30
0.0
  0
SEQEND
  5
592
100
AcDbEntity
  8
OBJECT
  0
POLYLINE
  5
593
100
AcDbEntity
  8
OBJECT
100
AcDb2dPolyline
 66
               1
 10
0.0
 20
0.0
 30
0.0
 70
             128
  0
VERTEX
  5
594
100
AcDbEntity
  8
OBJECT
100
AcDbVertex
100
AcDb2dVertex
 10
2695.3920000044973
 20
785.00000000312798
 30
0.0
  0
VERTEX
  5
595
100
AcDbEntity
  8
OBJECT
100
AcDbVertex
100
AcDb2dVertex
 10
2690.3920000044973
 20
785.00000000312798
 30
0.0
  0
VERTEX
  5
596
100
AcDbEntity
  8
OBJECT
100
AcDbVertex
100
AcDb2dVertex
 10
2690.3920000044973
 20
785.00000000312798
 30
0.0
  0
VERTEX
  5
597
100
AcDbEntity
  8
OBJECT
100
AcDbVertex
100
AcDb2dVertex
 10
2690.3920000044973
 20
785.00000000312798
 30
0.0
 42
-0.414213562373095
 70
               2
 50
3.1191399769264294E+17
  0
VERTEX
  5
598
100
AcDbEntity
  8
OBJECT
100
AcDbVertex
100
AcDb2dVertex
 10
2680.3920000044973
 20
795.00000000312798
 30
0.0
  0
VERTEX
  5
599
100
AcDbEntity
  8
OBJECT
100
AcDbVertex
100
AcDb2dVertex
 10
2695.3920000044973
 20
795.00000000312798
 30
0.0
  0
SEQEND
  5
59A
100
AcDbEntity
  8
OBJECT
  0
POLYLINE
  5
59B
100
AcDbEntity
  8
OBJECT
100
AcDb2dPolyline
 66
               1
 10
0.0
 20
0.0
 30
0.0
 70
             128
  0
VERTEX
  5
59C
100
AcDbEntity
  8
OBJECT
100
AcDbVertex
100
AcDb2dVertex
 10
2695.3920000044973
 20
770.00000000312798
 30
0.0
  0
VERTEX
  5
59D
100
AcDbEntity
  8
OBJECT
100
AcDbVertex
100
AcDb2dVertex
 10
2690.3920000044973
 20
770.00000000312798
 30
0.0
  0
VERTEX
  5
59E
100
AcDbEntity
  8
OBJECT
100
AcDbVertex
100
AcDb2dVertex
 10
2690.3920000044973
 20
770.00000000312798
 30
0.0
  0
VERTEX
  5
59F
100
AcDbEntity
  8
OBJECT
100
AcDbVertex
100
AcDb2dVertex
 10
2690.3920000044973
 20
770.00000000312798
 30
0.0
 42
-0.414213562373095
 70
               2
 50
3.1191399769264294E+17
  0
VERTEX
  5
5A0
100
AcDbEntity
  8
OBJECT
100
AcDbVertex
100
AcDb2dVertex
 10
2680.3920000044973
 20
780.00000000312798
 30
0.0
  0
VERTEX
  5
5A1
100
AcDbEntity
  8
OBJECT
100
AcDbVertex
100
AcDb2dVertex
 10
2695.3920000044973
 20
780.00000000312798
 30
0.0
  0
SEQEND
  5
5A2
100
AcDbEntity
  8
OBJECT
  0
POLYLINE
  5
5A3
100
AcDbEntity
  8
OBJECT
100
AcDb2dPolyline
 66
               1
 10
0.0
 20
0.0
 30
0.0
 70
             128
  0
VERTEX
  5
5A4
100
AcDbEntity
  8
OBJECT
100
AcDbVertex
100
AcDb2dVertex
 10
2695.3920000044973
 20
755.00000000312798
 30
0.0
  0
VERTEX
  5
5A5
100
AcDbEntity
  8
OBJECT
100
AcDbVertex
100
AcDb2dVertex
 10
2690.3920000044973
 20
755.00000000312798
 30
0.0
  0
VERTEX
  5
5A6
100
AcDbEntity
  8
OBJECT
100
AcDbVertex
100
AcDb2dVertex
 10
2690.3920000044973
 20
755.00000000312798
 30
0.0
  0
VERTEX
  5
5A7
100
AcDbEntity
  8
OBJECT
100
AcDbVertex
100
AcDb2dVertex
 10
2690.3920000044973
 20
755.00000000312798
 30
0.0
 42
-0.414213562373095
 70
               2
 50
3.1191399769264294E+17
  0
VERTEX
  5
5A8
100
AcDbEntity
  8
OBJECT
100
AcDbVertex
100
AcDb2dVertex
 10
2680.3920000044973
 20
765.00000000312798
 30
0.0
  0
VERTEX
  5
5A9
100
AcDbEntity
  8
OBJECT
100
AcDbVertex
100
AcDb2dVertex
 10
2695.3920000044973
 20
765.00000000312798
 30
0.0
  0
SEQEND
  5
5AA
100
AcDbEntity
  8
OBJECT
  0
POLYLINE
  5
5AB
100
AcDbEntity
  8
OBJECT
100
AcDb2dPolyline
 66
               1
 10
0.0
 20
0.0
 30
0.0
 70
             128
  0
VERTEX
  5
5AC
100
AcDbEntity
  8
OBJECT
100
AcDbVertex
100
AcDb2dVertex
 10
2695.3920000044973
 20
740.00000000312809
 30
0.0
  0
VERTEX
  5
5AD
100
AcDbEntity
  8
OBJECT
100
AcDbVertex
100
AcDb2dVertex
 10
2690.3920000044973
 20
740.00000000312809
 30
0.0
  0
VERTEX
  5
5AE
100
AcDbEntity
  8
OBJECT
100
AcDbVertex
100
AcDb2dVertex
 10
2690.3920000044973
 20
740.00000000312809
 30
0.0
  0
VERTEX
  5
5AF
100
AcDbEntity
  8
OBJECT
100
AcDbVertex
100
AcDb2dVertex
 10
2690.3920000044973
 20
740.00000000312809
 30
0.0
 42
-0.414213562373095
 70
               2
 50
3.1191399769264294E+17
  0
VERTEX
  5
5B0
100
AcDbEntity
  8
OBJECT
100
AcDbVertex
100
AcDb2dVertex
 10
2680.3920000044973
 20
750.00000000312798
 30
0.0
  0
VERTEX
  5
5B1
100
AcDbEntity
  8
OBJECT
100
AcDbVertex
100
AcDb2dVertex
 10
2695.3920000044973
 20
750.00000000312798
 30
0.0
  0
SEQEND
  5
5B2
100
AcDbEntity
  8
OBJECT
  0
POLYLINE
  5
5B3
100
AcDbEntity
  8
OBJECT
100
AcDb2dPolyline
 66
               1
 10
0.0
 20
0.0
 30
0.0
 70
             128
  0
VERTEX
  5
5B4
100
AcDbEntity
  8
OBJECT
100
AcDbVertex
100
AcDb2dVertex
 10
2695.3920000044973
 20
725.00000000312809
 30
0.0
  0
VERTEX
  5
5B5
100
AcDbEntity
  8
OBJECT
100
AcDbVertex
100
AcDb2dVertex
 10
2690.3920000044973
 20
725.00000000312809
 30
0.0
  0
VERTEX
  5
5B6
100
AcDbEntity
  8
OBJECT
100
AcDbVertex
100
AcDb2dVertex
 10
2690.3920000044973
 20
725.00000000312809
 30
0.0
  0
VERTEX
  5
5B7
100
AcDbEntity
  8
OBJECT
100
AcDbVertex
100
AcDb2dVertex
 10
2690.3920000044973
 20
725.00000000312809
 30
0.0
 42
-0.4142135623730984
 70
               2
 50
-5042475823073186.0
  0
VERTEX
  5
5B8
100
AcDbEntity
  8
OBJECT
100
AcDbVertex
100
AcDb2dVertex
 10
2680.3920000044973
 20
735.00000000312809
 30
0.0
  0
VERTEX
  5
5B9
100
AcDbEntity
  8
OBJECT
100
AcDbVertex
100
AcDb2dVertex
 10
2695.3920000044973
 20
735.00000000312809
 30
0.0
  0
SEQEND
  5
5BA
100
AcDbEntity
  8
OBJECT
  0
POLYLINE
  5
5BB
100
AcDbEntity
  8
OBJECT
100
AcDb2dPolyline
 66
               1
 10
0.0
 20
0.0
 30
0.0
 70
             128
  0
VERTEX
  5
5BC
100
AcDbEntity
  8
OBJECT
100
AcDbVertex
100
AcDb2dVertex
 10
2695.3920000044973
 20
710.00000000312809
 30
0.0
  0
VERTEX
  5
5BD
100
AcDbEntity
  8
OBJECT
100
AcDbVertex
100
AcDb2dVertex
 10
2690.3920000044973
 20
710.00000000312809
 30
0.0
  0
VERTEX
  5
5BE
100
AcDbEntity
  8
OBJECT
100
AcDbVertex
100
AcDb2dVertex
 10
2690.3920000044973
 20
710.00000000312809
 30
0.0
  0
VERTEX
  5
5BF
100
AcDbEntity
  8
OBJECT
100
AcDbVertex
100
AcDb2dVertex
 10
2690.3920000044973
 20
710.00000000312809
 30
0.0
 42
-0.4142135623730984
 70
               2
 50
-5042475823073186.0
  0
VERTEX
  5
5C0
100
AcDbEntity
  8
OBJECT
100
AcDbVertex
100
AcDb2dVertex
 10
2680.3920000044973
 20
720.00000000312809
 30
0.0
  0
VERTEX
  5
5C1
100
AcDbEntity
  8
OBJECT
100
AcDbVertex
100
AcDb2dVertex
 10
2695.3920000044973
 20
720.00000000312809
 30
0.0
  0
SEQEND
  5
5C2
100
AcDbEntity
  8
OBJECT
  0
POLYLINE
  5
5C3
100
AcDbEntity
  8
OBJECT
100
AcDb2dPolyline
 66
               1
 10
0.0
 20
0.0
 30
0.0
 70
             128
  0
VERTEX
  5
5C4
100
AcDbEntity
  8
OBJECT
100
AcDbVertex
100
AcDb2dVertex
 10
2695.3920000044973
 20
695.00000000312809
 30
0.0
  0
VERTEX
  5
5C5
100
AcDbEntity
  8
OBJECT
100
AcDbVertex
100
AcDb2dVertex
 10
2690.3920000044973
 20
695.00000000312809
 30
0.0
  0
VERTEX
  5
5C6
100
AcDbEntity
  8
OBJECT
100
AcDbVertex
100
AcDb2dVertex
 10
2690.3920000044973
 20
695.00000000312809
 30
0.0
  0
VERTEX
  5
5C7
100
AcDbEntity
  8
OBJECT
100
AcDbVertex
100
AcDb2dVertex
 10
2690.3920000044973
 20
695.00000000312809
 30
0.0
 42
-0.4142135623730984
 70
               2
 50
-5042475823073186.0
  0
VERTEX
  5
5C8
100
AcDbEntity
  8
OBJECT
100
AcDbVertex
100
AcDb2dVertex
 10
2680.3920000044973
 20
705.00000000312809
 30
0.0
  0
VERTEX
  5
5C9
100
AcDbEntity
  8
OBJECT
100
AcDbVertex
100
AcDb2dVertex
 10
2695.3920000044973
 20
705.00000000312809
 30
0.0
  0
SEQEND
  5
5CA
100
AcDbEntity
  8
OBJECT
  0
POLYLINE
  5
5CB
100
AcDbEntity
  8
OBJECT
100
AcDb2dPolyline
 66
               1
 10
0.0
 20
0.0
 30
0.0
 70
             128
  0
VERTEX
  5
5CC
100
AcDbEntity
  8
OBJECT
100
AcDbVertex
100
AcDb2dVertex
 10
2695.3920000044973
 20
680.00000000312809
 30
0.0
  0
VERTEX
  5
5CD
100
AcDbEntity
  8
OBJECT
100
AcDbVertex
100
AcDb2dVertex
 10
2690.3920000044973
 20
680.00000000312809
 30
0.0
  0
VERTEX
  5
5CE
100
AcDbEntity
  8
OBJECT
100
AcDbVertex
100
AcDb2dVertex
 10
2690.3920000044973
 20
680.00000000312809
 30
0.0
  0
VERTEX
  5
5CF
100
AcDbEntity
  8
OBJECT
100
AcDbVertex
100
AcDb2dVertex
 10
2690.3920000044973
 20
680.00000000312809
 30
0.0
 42
-0.4142135623730984
 70
               2
 50
-5042475823073186.0
  0
VERTEX
  5
5D0
100
AcDbEntity
  8
OBJECT
100
AcDbVertex
100
AcDb2dVertex
 10
2680.3920000044973
 20
690.00000000312809
 30
0.0
  0
VERTEX
  5
5D1
100
AcDbEntity
  8
OBJECT
100
AcDbVertex
100
AcDb2dVertex
 10
2695.3920000044973
 20
690.00000000312809
 30
0.0
  0
SEQEND
  5
5D2
100
AcDbEntity
  8
OBJECT
  0
POLYLINE
  5
5D3
100
AcDbEntity
  8
OBJECT
100
AcDb2dPolyline
 66
               1
 10
0.0
 20
0.0
 30
0.0
 70
             128
  0
VERTEX
  5
5D4
100
AcDbEntity
  8
OBJECT
100
AcDbVertex
100
AcDb2dVertex
 10
2695.3920000044973
 20
665.00000000312809
 30
0.0
  0
VERTEX
  5
5D5
100
AcDbEntity
  8
OBJECT
100
AcDbVertex
100
AcDb2dVertex
 10
2690.3920000044973
 20
665.00000000312809
 30
0.0
  0
VERTEX
  5
5D6
100
AcDbEntity
  8
OBJECT
100
AcDbVertex
100
AcDb2dVertex
 10
2690.3920000044973
 20
665.00000000312809
 30
0.0
  0
VERTEX
  5
5D7
100
AcDbEntity
  8
OBJECT
100
AcDbVertex
100
AcDb2dVertex
 10
2690.3920000044973
 20
665.00000000312809
 30
0.0
 42
-0.4142135623730984
 70
               2
 50
-5042475823073186.0
  0
VERTEX
  5
5D8
100
AcDbEntity
  8
OBJECT
100
AcDbVertex
100
AcDb2dVertex
 10
2680.3920000044973
 20
675.00000000312809
 30
0.0
  0
VERTEX
  5
5D9
100
AcDbEntity
  8
OBJECT
100
AcDbVertex
100
AcDb2dVertex
 10
2695.3920000044973
 20
675.00000000312809
 30
0.0
  0
SEQEND
  5
5DA
100
AcDbEntity
  8
OBJECT
  0
POLYLINE
  5
5DB
100
AcDbEntity
  8
OBJECT
100
AcDb2dPolyline
 66
               1
 10
0.0
 20
0.0
 30
0.0
 70
               1
 75
               5
  0
VERTEX
  5
5DC
100
AcDbEntity
  8
OBJECT
100
AcDbVertex
100
AcDb2dVertex
 10
492.39200000449728
 20
2195.0000000031278
 30
0.0
  0
VERTEX
  5
5DD
100
AcDbEntity
  8
OBJECT
100
AcDbVertex
100
AcDb2dVertex
 10
492.39200000449728
 20
2135.0000000031278
 30
0.0
  0
VERTEX
  5
5DE
100
AcDbEntity
  8
OBJECT
100
AcDbVertex
100
AcDb2dVertex
 10
532.39200000449728
 20
2135.0000000031278
 30
0.0
  0
VERTEX
  5
5DF
100
AcDbEntity
  8
OBJECT
100
AcDbVertex
100
AcDb2dVertex
 10
532.39200000449728
 20
2140.0000000031278
 30
0.0
  0
VERTEX
  5
5E0
100
AcDbEntity
  8
OBJECT
100
AcDbVertex
100
AcDb2dVertex
 10
497.39200000449728
 20
2140.0000000031278
 30
0.0
  0
VERTEX
  5
5E1
100
AcDbEntity
  8
OBJECT
100
AcDbVertex
100
AcDb2dVertex
 10
497.39200000449728
 20
2190.0000000031278
 30
0.0
  0
VERTEX
  5
5E2
100
AcDbEntity
  8
OBJECT
100
AcDbVertex
100
AcDb2dVertex
 10
532.39200000449728
 20
2190.0000000031278
 30
0.0
  0
VERTEX
  5
5E3
100
AcDbEntity
  8
OBJECT
100
AcDbVertex
100
AcDb2dVertex
 10
532.39200000449728
 20
2195.0000000031278
 30
0.0
  0
SEQEND
  5
5E4
100
AcDbEntity
  8
OBJECT
  0
POLYLINE
  5
5E5
100
AcDbEntity
  8
OBJECT
100
AcDb2dPolyline
 66
               1
 10
0.0
 20
0.0
 30
0.0
 70
               1
 75
               5
  0
VERTEX
  5
5E6
100
AcDbEntity
  8
OBJECT
100
AcDbVertex
100
AcDb2dVertex
 10
497.39200000449728
 20
2170.0000000031278
 30
0.0
  0
VERTEX
  5
5E7
100
AcDbEntity
  8
OBJECT
100
AcDbVertex
100
AcDb2dVertex
 10
567.39200000449728
 20
2170.0000000031278
 30
0.0
  0
VERTEX
  5
5E8
100
AcDbEntity
  8
OBJECT
100
AcDbVertex
100
AcDb2dVertex
 10
567.39200000449728
 20
2160.0000000031278
 30
0.0
  0
VERTEX
  5
5E9
100
AcDbEntity
  8
OBJECT
100
AcDbVertex
100
AcDb2dVertex
 10
497.39200000449728
 20
2160.0000000031278
 30
0.0
  0
SEQEND
  5
5EA
100
AcDbEntity
  8
OBJECT
  0
POLYLINE
  5
5EB
100
AcDbEntity
  8
OBJECT
100
AcDb2dPolyline
 66
               1
 10
0.0
 20
0.0
 30
0.0
 75
               5
  0
VERTEX
  5
5EC
100
AcDbEntity
  8
OBJECT
100
AcDbVertex
100
AcDb2dVertex
 10
1783.392000004497
 20
2040.0000000031278
 30
0.0
  0
VERTEX
  5
5ED
100
AcDbEntity
  8
OBJECT
100
AcDbVertex
100
AcDb2dVertex
 10
1992.892000004497
 20
2040.0000000031278
 30
0.0
  0
VERTEX
  5
5EE
100
AcDbEntity
  8
OBJECT
100
AcDbVertex
100
AcDb2dVertex
 10
1992.892000004497
 20
1910.000000003128
 30
0.0
  0
VERTEX
  5
5EF
100
AcDbEntity
  8
OBJECT
100
AcDbVertex
100
AcDb2dVertex
 10
1783.392000004497
 20
1910.000000003128
 30
0.0
  0
SEQEND
  5
5F0
100
AcDbEntity
  8
OBJECT
  0
POLYLINE
  5
5F1
100
AcDbEntity
  8
OBJECT
100
AcDb2dPolyline
 66
               1
 10
0.0
 20
0.0
 30
0.0
 75
               5
  0
VERTEX
  5
5F2
100
AcDbEntity
  8
OBJECT
100
AcDbVertex
100
AcDb2dVertex
 10
1777.392000004497
 20
2495.0000000031278
 30
0.0
  0
VERTEX
  5
5F3
100
AcDbEntity
  8
OBJECT
100
AcDbVertex
100
AcDb2dVertex
 10
1777.392000004497
 20
2495.0000000031278
 30
0.0
  0
VERTEX
  5
5F4
100
AcDbEntity
  8
OBJECT
100
AcDbVertex
100
AcDb2dVertex
 10
1997.392000004497
 20
2495.0000000031278
 30
0.0
  0
VERTEX
  5
5F5
100
AcDbEntity
  8
OBJECT
100
AcDbVertex
100
AcDb2dVertex
 10
1997.392000004497
 20
2055.0000000031278
 30
0.0
  0
VERTEX
  5
5F6
100
AcDbEntity
  8
OBJECT
100
AcDbVertex
100
AcDb2dVertex
 10
1783.392000004497
 20
2055.0000000031278
 30
0.0
  0
SEQEND
  5
5F7
100
AcDbEntity
  8
OBJECT
  0
POLYLINE
  5
5F8
100
AcDbEntity
  8
OBJECT
100
AcDb2dPolyline
 66
               1
 10
0.0
 20
0.0
 30
0.0
 75
               5
  0
VERTEX
  5
5F9
100
AcDbEntity
  8
OBJECT
100
AcDbVertex
100
AcDb2dVertex
 10
1713.392000004497
 20
2513.0000000031278
 30
0.0
  0
VERTEX
  5
5FA
100
AcDbEntity
  8
OBJECT
100
AcDbVertex
100
AcDb2dVertex
 10
1765.392000004497
 20
2513.0000000031278
 30
0.0
  0
VERTEX
  5
5FB
100
AcDbEntity
  8
OBJECT
100
AcDbVertex
100
AcDb2dVertex
 10
1765.392000004497
 20
2495.0000000031278
 30
0.0
  0
VERTEX
  5
5FC
100
AcDbEntity
  8
OBJECT
100
AcDbVertex
100
AcDb2dVertex
 10
585.39200000449728
 20
2495.0000000031278
 30
0.0
  0
VERTEX
  5
5FD
100
AcDbEntity
  8
OBJECT
100
AcDbVertex
100
AcDb2dVertex
 10
585.39200000449728
 20
2513.0000000031278
 30
0.0
  0
VERTEX
  5
5FE
100
AcDbEntity
  8
OBJECT
100
AcDbVertex
100
AcDb2dVertex
 10
1537.392000004497
 20
2513.0000000031278
 30
0.0
  0
SEQEND
  5
5FF
100
AcDbEntity
  8
OBJECT
  0
LINE
  5
600
100
AcDbEntity
  8
OBJECT
100
AcDbLine
 10
180.39200000449728
 20
2595.0000000031278
 30
0.0
 11
2200.3920000044973
 21
2595.0000000031278
 31
0.0
  0
DIMENSION
  5
601
100
AcDbEntity
  8
DIMENTION
100
AcDbDimension
  2
*D25
 10
1359.3920000044973
 20
2495.0000000031278
 30
0.0
 11
1359.3920000044973
 21
2530.0000000031278
 31
0.0
  3
CAD
100
AcDbAlignedDimension
 13
1537.392000004497
 23
2565.0000000031278
 33
0.0
 14
1537.392000004497
 24
2495.0000000031278
 34
0.0
 50
90.0
100
AcDbRotatedDimension
1001
ACAD
1000
DSTYLE
1002
{
1070
             271
1070
               0
1070
             340
1005
6A
1070
             147
1040
0.9999999962747097
1002
}
  0
DIMENSION
  5
602
100
AcDbEntity
  8
DIMENTION
100
AcDbDimension
  2
*D26
 10
1359.3920000044973
 20
2565.0000000031278
 30
0.0
 11
1358.3920000082226
 21
2597.9400000031283
 31
0.0
 70
             128
  3
CAD
100
AcDbAlignedDimension
 13
1575.392000004497
 23
2575.0000000031278
 33
0.0
 14
1537.392000004497
 24
2565.0000000031278
 34
0.0
 50
90.0
100
AcDbRotatedDimension
1001
ACAD
1000
DSTYLE
1002
{
1070
             271
1070
               0
1070
             340
1005
6A
1070
             174
1070
               0
1070
             147
1040
0.9999999962747097
1002
}
  0
MTEXT
  5
603
100
AcDbEntity
  8
TEXT
100
AcDbMText
 10
2346.8889000044969
 20
1943.194600003128
 30
0.0
 40
33.866666666666667
 41
0.0
 71
               1
 72
               1
  1
※洗剤，リンス剤及び供給装置については、洗剤メーカーにご相談ください。
  7
________
  0
LINE
  5
604
100
AcDbEntity
  8
CENTER
100
AcDbLine
 10
1885.392000004497
 20
870.00000000312798
 30
0.0
 11
1885.392000004497
 21
270.00000000312798
 31
0.0
  0
POLYLINE
  5
605
100
AcDbEntity
  8
OBJECT
100
AcDb2dPolyline
 66
               1
 10
0.0
 20
0.0
 30
0.0
 70
             129
  0
VERTEX
  5
606
100
AcDbEntity
  8
OBJECT
100
AcDbVertex
100
AcDb2dVertex
 10
1790.392000004497
 20
751.00000000312798
 30
0.0
 42
-0.414213562373095
 70
               2
  0
VERTEX
  5
607
100
AcDbEntity
  8
OBJECT
100
AcDbVertex
100
AcDb2dVertex
 10
1794.392000004497
 20
755.00000000312798
 30
0.0
  0
VERTEX
  5
608
100
AcDbEntity
  8
OBJECT
100
AcDbVertex
100
AcDb2dVertex
 10
1856.392000004497
 20
755.00000000312798
 30
0.0
 42
-0.414213562373095
 70
               2
 50
1.8714839861558573E+17
  0
VERTEX
  5
609
100
AcDbEntity
  8
OBJECT
100
AcDbVertex
100
AcDb2dVertex
 10
1860.392000004497
 20
751.00000000312798
 30
0.0
  0
VERTEX
  5
60A
100
AcDbEntity
  8
OBJECT
100
AcDbVertex
100
AcDb2dVertex
 10
1860.392000004497
 20
634.00000000312809
 30
0.0
 42
-0.4142135623730867
 70
               2
  0
VERTEX
  5
60B
100
AcDbEntity
  8
OBJECT
100
AcDbVertex
100
AcDb2dVertex
 10
1856.392000004497
 20
630.00000000312809
 30
0.0
  0
VERTEX
  5
60C
100
AcDbEntity
  8
OBJECT
100
AcDbVertex
100
AcDb2dVertex
 10
1794.392000004497
 20
630.00000000312809
 30
0.0
 42
-0.4142135623730909
 70
               2
 50
3980381238385209.0
  0
VERTEX
  5
60D
100
AcDbEntity
  8
OBJECT
100
AcDbVertex
100
AcDb2dVertex
 10
1790.392000004497
 20
634.00000000312809
 30
0.0
  0
SEQEND
  5
60E
100
AcDbEntity
  8
OBJECT
  0
POLYLINE
  5
60F
100
AcDbEntity
  8
OBJECT
100
AcDb2dPolyline
 66
               1
 10
0.0
 20
0.0
 30
0.0
 70
             129
  0
VERTEX
  5
610
100
AcDbEntity
  8
OBJECT
100
AcDbVertex
100
AcDb2dVertex
 10
1792.392000004497
 20
751.00000000312798
 30
0.0
 42
-0.414213562373095
 70
               2
  0
VERTEX
  5
611
100
AcDbEntity
  8
OBJECT
100
AcDbVertex
100
AcDb2dVertex
 10
1794.392000004497
 20
753.00000000312798
 30
0.0
  0
VERTEX
  5
612
100
AcDbEntity
  8
OBJECT
100
AcDbVertex
100
AcDb2dVertex
 10
1856.392000004497
 20
753.00000000312798
 30
0.0
  0
VERTEX
  5
613
100
AcDbEntity
  8
OBJECT
100
AcDbVertex
100
AcDb2dVertex
 10
1856.7345000044972
 20
753.00000000312798
 30
0.0
 42
-0.414213562373085
 70
               2
 50
1682352958038328.5
  0
VERTEX
  5
614
100
AcDbEntity
  8
OBJECT
100
AcDbVertex
100
AcDb2dVertex
 10
1858.392000004497
 20
751.34250000312807
 30
0.0
  0
VERTEX
  5
615
100
AcDbEntity
  8
OBJECT
100
AcDbVertex
100
AcDb2dVertex
 10
1858.392000004497
 20
633.65750000312801
 30
0.0
  0
VERTEX
  5
616
100
AcDbEntity
  8
OBJECT
100
AcDbVertex
100
AcDb2dVertex
 10
1858.392000004497
 20
633.65750000312801
 30
0.0
 42
-0.414213562373095
 70
               2
  0
VERTEX
  5
617
100
AcDbEntity
  8
OBJECT
100
AcDbVertex
100
AcDb2dVertex
 10
1856.7345000044972
 20
632.00000000312809
 30
0.0
  0
VERTEX
  5
618
100
AcDbEntity
  8
OBJECT
100
AcDbVertex
100
AcDb2dVertex
 10
1856.392000004497
 20
632.00000000312809
 30
0.0
  0
VERTEX
  5
619
100
AcDbEntity
  8
OBJECT
100
AcDbVertex
100
AcDb2dVertex
 10
1794.392000004497
 20
632.00000000312809
 30
0.0
  0
VERTEX
  5
61A
100
AcDbEntity
  8
OBJECT
100
AcDbVertex
100
AcDb2dVertex
 10
1794.0495000044971
 20
632.00000000312809
 30
0.0
 42
-0.4142135623731051
 70
               2
 50
-1662903347189050.5
  0
VERTEX
  5
61B
100
AcDbEntity
  8
OBJECT
100
AcDbVertex
100
AcDb2dVertex
 10
1792.392000004497
 20
633.65750000312801
 30
0.0
  0
SEQEND
  5
61C
100
AcDbEntity
  8
OBJECT
  0
CIRCLE
  5
61D
100
AcDbEntity
  8
OBJECT
100
AcDbCircle
 10
1837.892000004497
 20
729.00000000312809
 30
0.0
 40
2.5
  0
CIRCLE
  5
61E
100
AcDbEntity
  8
OBJECT
100
AcDbCircle
 10
1826.392000004497
 20
712.00000000312809
 30
0.0
 40
2.5
  0
CIRCLE
  5
61F
100
AcDbEntity
  8
OBJECT
100
AcDbCircle
 10
1837.892000004497
 20
712.00000000312809
 30
0.0
 40
2.5
  0
CIRCLE
  5
620
100
AcDbEntity
  8
OBJECT
100
AcDbCircle
 10
1814.892000004497
 20
712.00000000312809
 30
0.0
 40
2.5
  0
CIRCLE
  5
621
100
AcDbEntity
  8
OBJECT
100
AcDbCircle
 10
1826.392000004497
 20
684.00000000312809
 30
0.0
 40
2.5
  0
CIRCLE
  5
622
100
AcDbEntity
  8
OBJECT
100
AcDbCircle
 10
1837.892000004497
 20
684.00000000312809
 30
0.0
 40
2.5
  0
CIRCLE
  5
623
100
AcDbEntity
  8
OBJECT
100
AcDbCircle
 10
1814.892000004497
 20
684.00000000312809
 30
0.0
 40
2.5
  0
POLYLINE
  5
624
100
AcDbEntity
  8
OBJECT
100
AcDb2dPolyline
 66
               1
 10
0.0
 20
0.0
 30
0.0
 70
               1
 75
               5
  0
VERTEX
  5
625
100
AcDbEntity
  8
OBJECT
100
AcDbVertex
100
AcDb2dVertex
 10
1815.892000004497
 20
658.50000000312809
 30
0.0
  0
VERTEX
  5
626
100
AcDbEntity
  8
OBJECT
100
AcDbVertex
100
AcDb2dVertex
 10
1831.892000004497
 20
658.50000000312809
 30
0.0
  0
VERTEX
  5
627
100
AcDbEntity
  8
OBJECT
100
AcDbVertex
100
AcDb2dVertex
 10
1831.892000004497
 20
647.50000000312809
 30
0.0
  0
VERTEX
  5
628
100
AcDbEntity
  8
OBJECT
100
AcDbVertex
100
AcDb2dVertex
 10
1815.892000004497
 20
647.50000000312809
 30
0.0
  0
SEQEND
  5
629
100
AcDbEntity
  8
OBJECT
  0
POLYLINE
  5
62A
100
AcDbEntity
  8
OBJECT
100
AcDb2dPolyline
 66
               1
 10
0.0
 20
0.0
 30
0.0
 70
               1
 75
               5
  0
VERTEX
  5
62B
100
AcDbEntity
  8
OBJECT
100
AcDbVertex
100
AcDb2dVertex
 10
1775.392000004497
 20
835.00000000312798
 30
0.0
  0
VERTEX
  5
62C
100
AcDbEntity
  8
OBJECT
100
AcDbVertex
100
AcDb2dVertex
 10
1995.392000004497
 20
835.00000000312798
 30
0.0
  0
VERTEX
  5
62D
100
AcDbEntity
  8
OBJECT
100
AcDbVertex
100
AcDb2dVertex
 10
1995.392000004497
 20
290.00000000312798
 30
0.0
  0
VERTEX
  5
62E
100
AcDbEntity
  8
OBJECT
100
AcDbVertex
100
AcDb2dVertex
 10
1775.392000004497
 20
290.00000000312798
 30
0.0
  0
SEQEND
  5
62F
100
AcDbEntity
  8
OBJECT
  0
INSERT
  5
630
100
AcDbEntity
  8
OBJECT
100
AcDbBlockReference
  2
*U28
 10
2025.4000000044971
 20
1409.000000003128
 30
0.0
  0
LINE
  5
631
100
AcDbEntity
  8
OBJECT
100
AcDbLine
 10
1770.392000004497
 20
435.00000000312809
 30
0.0
 11
1770.392000004497
 21
360.00000000312798
 31
0.0
  0
LINE
  5
632
100
AcDbEntity
  8
OBJECT
100
AcDbLine
 10
1770.392000004497
 20
360.00000000312798
 30
0.0
 11
1775.392000004497
 21
360.00000000312798
 31
0.0
  0
LINE
  5
633
100
AcDbEntity
  8
OBJECT
100
AcDbLine
 10
1775.392000004497
 20
440.00000000312809
 30
0.0
 11
1764.892000004497
 21
440.00000000312809
 31
0.0
  0
LINE
  5
634
100
AcDbEntity
  8
OBJECT
100
AcDbLine
 10
1770.392000004497
 20
435.00000000312809
 30
0.0
 11
1750.392000004497
 21
435.00000000312809
 31
0.0
  0
POLYLINE
  5
635
100
AcDbEntity
  8
OBJECT
100
AcDb2dPolyline
 66
               1
 10
0.0
 20
0.0
 30
0.0
 70
               1
 75
               5
  0
VERTEX
  5
636
100
AcDbEntity
  8
OBJECT
100
AcDbVertex
100
AcDb2dVertex
 10
1780.392000004497
 20
820.00000000312798
 30
0.0
  0
VERTEX
  5
637
100
AcDbEntity
  8
OBJECT
100
AcDbVertex
100
AcDb2dVertex
 10
1990.392000004497
 20
820.00000000312798
 30
0.0
  0
VERTEX
  5
638
100
AcDbEntity
  8
OBJECT
100
AcDbVertex
100
AcDb2dVertex
 10
1990.392000004497
 20
390.00000000312809
 30
0.0
  0
VERTEX
  5
639
100
AcDbEntity
  8
OBJECT
100
AcDbVertex
100
AcDb2dVertex
 10
1780.392000004497
 20
390.00000000312809
 30
0.0
  0
SEQEND
  5
63A
100
AcDbEntity
  8
OBJECT
  0
POLYLINE
  5
63B
100
AcDbEntity
  8
OBJECT
100
AcDb2dPolyline
 66
               1
 10
0.0
 20
0.0
 30
0.0
 70
               1
 75
               5
  0
VERTEX
  5
63C
100
AcDbEntity
  8
OBJECT
100
AcDbVertex
100
AcDb2dVertex
 10
1770.392000004497
 20
850.00000000312798
 30
0.0
  0
VERTEX
  5
63D
100
AcDbEntity
  8
OBJECT
100
AcDbVertex
100
AcDb2dVertex
 10
2000.392000004497
 20
850.00000000312798
 30
0.0
  0
VERTEX
  5
63E
100
AcDbEntity
  8
OBJECT
100
AcDbVertex
100
AcDb2dVertex
 10
2000.392000004497
 20
835.00000000312798
 30
0.0
  0
VERTEX
  5
63F
100
AcDbEntity
  8
OBJECT
100
AcDbVertex
100
AcDb2dVertex
 10
1770.392000004497
 20
835.00000000312798
 30
0.0
  0
SEQEND
  5
640
100
AcDbEntity
  8
OBJECT
  0
LINE
  5
641
100
AcDbEntity
  8
OBJECT
100
AcDbLine
 10
1877.892000004497
 20
325.00000000312798
 30
0.0
 11
1877.892000004497
 21
390.00000000312809
 31
0.0
  0
LINE
  5
642
100
AcDbEntity
  8
OBJECT
100
AcDbLine
 10
1892.892000004497
 20
325.00000000312798
 30
0.0
 11
1892.892000004497
 21
390.00000000312809
 31
0.0
  0
ARC
  5
643
100
AcDbEntity
  8
OBJECT
100
AcDbCircle
 10
1885.392000004497
 20
325.00000000312798
 30
0.0
 40
7.5
100
AcDbArc
 50
180.0
 51
0.0
  0
ARC
  5
644
100
AcDbEntity
  8
OBJECT
100
AcDbCircle
 10
1885.392000004497
 20
325.00000000312798
 30
0.0
 40
22.499902480011045
100
AcDbArc
 50
109.47130843373223
 51
70.528691566267781
  0
POLYLINE
  5
645
100
AcDbEntity
  8
OBJECT
100
AcDb2dPolyline
 66
               1
 10
0.0
 20
0.0
 30
0.0
 70
               1
 75
               5
  0
VERTEX
  5
646
100
AcDbEntity
  8
OBJECT
100
AcDbVertex
100
AcDb2dVertex
 10
1995.392000004497
 20
790.00000000312798
 30
0.0
  0
VERTEX
  5
647
100
AcDbEntity
  8
OBJECT
100
AcDbVertex
100
AcDb2dVertex
 10
2001.392000004497
 20
790.00000000312798
 30
0.0
  0
VERTEX
  5
648
100
AcDbEntity
  8
OBJECT
100
AcDbVertex
100
AcDb2dVertex
 10
2001.392000004497
 20
750.00000000312798
 30
0.0
  0
VERTEX
  5
649
100
AcDbEntity
  8
OBJECT
100
AcDbVertex
100
AcDb2dVertex
 10
1995.392000004497
 20
750.00000000312798
 30
0.0
  0
SEQEND
  5
64A
100
AcDbEntity
  8
OBJECT
  0
POLYLINE
  5
64B
100
AcDbEntity
  8
OBJECT
100
AcDb2dPolyline
 66
               1
 10
0.0
 20
0.0
 30
0.0
 70
               1
 75
               5
  0
VERTEX
  5
64C
100
AcDbEntity
  8
OBJECT
100
AcDbVertex
100
AcDb2dVertex
 10
2840.3920000044973
 20
835.00000000312798
 30
0.0
  0
VERTEX
  5
64D
100
AcDbEntity
  8
OBJECT
100
AcDbVertex
100
AcDb2dVertex
 10
3280.3920000044973
 20
835.00000000312798
 30
0.0
  0
VERTEX
  5
64E
100
AcDbEntity
  8
OBJECT
100
AcDbVertex
100
AcDb2dVertex
 10
3280.3920000044973
 20
430.00000000312809
 30
0.0
  0
VERTEX
  5
64F
100
AcDbEntity
  8
OBJECT
100
AcDbVertex
100
AcDb2dVertex
 10
2840.3920000044973
 20
430.00000000312809
 30
0.0
  0
SEQEND
  5
650
100
AcDbEntity
  8
OBJECT
  0
POLYLINE
  5
651
100
AcDbEntity
  8
OBJECT
100
AcDb2dPolyline
 66
               1
 10
0.0
 20
0.0
 30
0.0
 70
               1
 75
               5
  0
VERTEX
  5
652
100
AcDbEntity
  8
OBJECT
100
AcDbVertex
100
AcDb2dVertex
 10
2835.3920000044973
 20
850.00000000312798
 30
0.0
  0
VERTEX
  5
653
100
AcDbEntity
  8
OBJECT
100
AcDbVertex
100
AcDb2dVertex
 10
3285.3920000044973
 20
850.00000000312798
 30
0.0
  0
VERTEX
  5
654
100
AcDbEntity
  8
OBJECT
100
AcDbVertex
100
AcDb2dVertex
 10
3285.3920000044973
 20
835.00000000312798
 30
0.0
  0
VERTEX
  5
655
100
AcDbEntity
  8
OBJECT
100
AcDbVertex
100
AcDb2dVertex
 10
2835.3920000044973
 20
835.00000000312798
 30
0.0
  0
SEQEND
  5
656
100
AcDbEntity
  8
OBJECT
  0
LINE
  5
657
100
AcDbEntity
  8
OBJECT
100
AcDbLine
 10
2840.3920000044973
 20
800.00000000312798
 30
0.0
 11
2840.3920000044973
 21
430.00000000312809
 31
0.0
  0
INSERT
  5
658
100
AcDbEntity
  8
OBJECT
100
AcDbBlockReference
  2
*U30
 10
2025.4000000044971
 20
1409.000000003128
 30
0.0
  0
LINE
  5
659
100
AcDbEntity
  8
OBJECT
100
AcDbLine
 10
3280.3920000044973
 20
590.00000000312809
 30
0.0
 11
3280.3920000044973
 21
790.00000000312798
 31
0.0
  0
LINE
  5
65A
100
AcDbEntity
  8
OBJECT
100
AcDbLine
 10
3350.3920000044973
 20
580.00000000312809
 30
0.0
 11
3280.3920000044973
 21
580.00000000312809
 31
0.0
  0
LINE
  5
65B
100
AcDbEntity
  8
OBJECT
100
AcDbLine
 10
3350.3920000044973
 20
950.00000000312798
 30
0.0
 11
3350.3920000044973
 21
580.00000000312809
 31
0.0
  0
LINE
  5
65C
100
AcDbEntity
  8
OBJECT
100
AcDbLine
 10
3280.3920000044973
 20
850.00000000312798
 30
0.0
 11
3280.3920000044973
 21
1590.000000003128
 31
0.0
  0
LINE
  5
65D
100
AcDbEntity
  8
OBJECT
100
AcDbLine
 10
3350.3920000044973
 20
880.00000000312798
 30
0.0
 11
3280.3920000044973
 21
880.00000000312798
 31
0.0
  0
LINE
  5
65E
100
AcDbEntity
  8
OBJECT
100
AcDbLine
 10
3350.3920000044973
 20
1590.000000003128
 30
0.0
 11
3350.3920000044973
 21
950.00000000312798
 31
0.0
  0
LINE
  5
65F
100
AcDbEntity
  8
OBJECT
100
AcDbLine
 10
3280.3920000044973
 20
1590.000000003128
 30
0.0
 11
3350.3920000044973
 21
1590.000000003128
 31
0.0
  0
LINE
  5
660
100
AcDbEntity
  8
OBJECT
100
AcDbLine
 10
2759.3920000044973
 20
365.00000000312798
 30
0.0
 11
2760.058700004497
 21
360.00000000312798
 31
0.0
  0
LINE
  5
661
100
AcDbEntity
  8
OBJECT
100
AcDbLine
 10
2781.3920000044973
 20
365.00000000312798
 30
0.0
 11
2780.7253000044971
 21
360.00000000312798
 31
0.0
  0
LINE
  5
662
100
AcDbEntity
  8
OBJECT
100
AcDbLine
 10
2753.8920000044973
 20
367.50000000312798
 30
0.0
 11
2790.3920000044973
 21
367.50000000312798
 31
0.0
  0
POLYLINE
  5
663
100
AcDbEntity
  8
OBJECT
100
AcDb2dPolyline
 66
               1
 10
0.0
 20
0.0
 30
0.0
 70
               1
 75
               5
  0
VERTEX
  5
664
100
AcDbEntity
  8
OBJECT
100
AcDbVertex
100
AcDb2dVertex
 10
1956.392000004497
 20
390.00000000312809
 30
0.0
  0
VERTEX
  5
665
100
AcDbEntity
  8
OBJECT
100
AcDbVertex
100
AcDb2dVertex
 10
1978.392000004497
 20
390.00000000312809
 30
0.0
  0
VERTEX
  5
666
100
AcDbEntity
  8
OBJECT
100
AcDbVertex
100
AcDb2dVertex
 10
1978.392000004497
 20
365.00000000312798
 30
0.0
  0
VERTEX
  5
667
100
AcDbEntity
  8
OBJECT
100
AcDbVertex
100
AcDb2dVertex
 10
1956.392000004497
 20
365.00000000312798
 30
0.0
  0
SEQEND
  5
668
100
AcDbEntity
  8
OBJECT
  0
LINE
  5
669
100
AcDbEntity
  8
OBJECT
100
AcDbLine
 10
1956.392000004497
 20
365.00000000312798
 30
0.0
 11
1957.058700004497
 21
360.00000000312798
 31
0.0
  0
LINE
  5
66A
100
AcDbEntity
  8
OBJECT
100
AcDbLine
 10
1978.392000004497
 20
365.00000000312798
 30
0.0
 11
1977.7253000044971
 21
360.00000000312798
 31
0.0
  0
LINE
  5
66B
100
AcDbEntity
  8
OBJECT
100
AcDbLine
 10
1950.892000004497
 20
367.50000000312798
 30
0.0
 11
1995.392000004497
 21
367.50000000312798
 31
0.0
  0
LINE
  5
66C
100
AcDbEntity
  8
OBJECT
100
AcDbLine
 10
2753.8920000044973
 20
367.50000000312798
 30
0.0
 11
2753.8920000044973
 21
400.00000000312809
 31
0.0
  0
LINE
  5
66D
100
AcDbEntity
  8
CENTER
100
AcDbLine
 10
1970.392000004497
 20
301.50000000312798
 30
0.0
 11
1970.392000004497
 21
236.00000000312798
 31
0.0
  0
INSERT
  5
66E
100
AcDbEntity
  8
OBJECT
100
AcDbBlockReference
  2
*U31
 10
2025.4000000044971
 20
1409.000000003128
 30
0.0
  0
LINE
  5
66F
100
AcDbEntity
  8
OBJECT
100
AcDbLine
 10
1962.892000004497
 20
280.00000000312798
 30
0.0
 11
1977.892000004497
 21
280.00000000312798
 31
0.0
  0
LINE
  5
670
100
AcDbEntity
  8
OBJECT
100
AcDbLine
 10
1962.892000004497
 20
290.00000000312798
 30
0.0
 11
1977.892000004497
 21
290.00000000312798
 31
0.0
  0
INSERT
  5
671
100
AcDbEntity
  8
OBJECT
100
AcDbBlockReference
  2
*U32
 10
2025.4000000044971
 20
1409.000000003128
 30
0.0
  0
LINE
  5
672
100
AcDbEntity
  8
OBJECT
100
AcDbLine
 10
2852.8920000044973
 20
280.00000000312798
 30
0.0
 11
2867.8920000044973
 21
280.00000000312798
 31
0.0
  0
LINE
  5
673
100
AcDbEntity
  8
OBJECT
100
AcDbLine
 10
2852.8920000044973
 20
280.00000000312798
 30
0.0
 11
2853.7920000044969
 21
274.00000000312798
 31
0.0
  0
LINE
  5
674
100
AcDbEntity
  8
OBJECT
100
AcDbLine
 10
2867.8920000044973
 20
280.00000000312798
 30
0.0
 11
2866.9920000044967
 21
274.00000000312798
 31
0.0
  0
LINE
  5
675
100
AcDbEntity
  8
OBJECT
100
AcDbLine
 10
2852.8920000044973
 20
290.00000000312798
 30
0.0
 11
2867.8920000044973
 21
290.00000000312798
 31
0.0
  0
CIRCLE
  5
676
100
AcDbEntity
  8
OBJECT
100
AcDbCircle
 10
1967.392000004497
 20
1985.000000003128
 30
0.0
 40
11.000016684078165
  0
CIRCLE
  5
677
100
AcDbEntity
  8
OBJECT
100
AcDbCircle
 10
1967.392000004497
 20
2075.0000000031278
 30
0.0
 40
11.000025293152786
  0
LINE
  5
678
100
AcDbEntity
  8
CENTER
100
AcDbLine
 10
1887.392000004497
 20
2585.0000000031278
 30
0.0
 11
1887.392000004497
 21
1890.000000003128
 31
0.0
  0
LINE
  5
679
100
AcDbEntity
  8
OBJECT
100
AcDbLine
 10
1994.392000004497
 20
2495.0000000031278
 30
0.0
 11
1535.392000004497
 21
2495.0000000031278
 31
0.0
  0
LINE
  5
67A
100
AcDbEntity
  8
OBJECT
100
AcDbLine
 10
1994.392000004497
 20
2565.0000000031278
 30
0.0
 11
1994.392000004497
 21
2495.0000000031278
 31
0.0
  0
LINE
  5
67B
100
AcDbEntity
  8
OBJECT
100
AcDbLine
 10
1537.392000004497
 20
2565.0000000031278
 30
0.0
 11
1994.392000004497
 21
2565.0000000031278
 31
0.0
  0
INSERT
  5
67C
100
AcDbEntity
  8
CENTER
100
AcDbBlockReference
  2
*U33
 10
2025.4000000044971
 20
1409.000000003128
 30
0.0
  0
INSERT
  5
67D
100
AcDbEntity
  8
CENTER
100
AcDbBlockReference
  2
*U34
 10
2025.4000000044971
 20
1409.000000003128
 30
0.0
  0
CIRCLE
  5
67E
100
AcDbEntity
  8
OBJECT
100
AcDbCircle
 10
1970.392000004497
 20
250.00000000312798
 30
0.0
 40
13.499941245057377
  0
LINE
  5
67F
100
AcDbEntity
  8
OBJECT
100
AcDbLine
 10
1956.892000004497
 20
274.00000000312798
 30
0.0
 11
1983.892000004497
 21
274.00000000312798
 31
0.0
  0
LINE
  5
680
100
AcDbEntity
  8
OBJECT
100
AcDbLine
 10
1956.892000004497
 20
274.00000000312798
 30
0.0
 11
1956.892100004497
 21
250.00000000312798
 31
0.0
  0
LINE
  5
681
100
AcDbEntity
  8
OBJECT
100
AcDbLine
 10
1983.892000004497
 20
274.00000000312798
 30
0.0
 11
1983.8919000044971
 21
250.00000000312798
 31
0.0
  0
LINE
  5
682
100
AcDbEntity
  8
CENTER
100
AcDbLine
 10
1945.392000004497
 20
250.00000000312798
 30
0.0
 11
1995.392000004497
 21
250.00000000312798
 31
0.0
  0
LINE
  5
683
100
AcDbEntity
  8
CENTER
100
AcDbLine
 10
1970.392000004497
 20
225.00000000312798
 30
0.0
 11
1970.392000004497
 21
275.00000000312798
 31
0.0
  0
LINE
  5
684
100
AcDbEntity
  8
OBJECT
100
AcDbLine
 10
1962.892000004497
 20
280.00000000312798
 30
0.0
 11
1962.892000004497
 21
274.00000000312798
 31
0.0
  0
LINE
  5
685
100
AcDbEntity
  8
OBJECT
100
AcDbLine
 10
1977.892000004497
 20
280.00000000312798
 30
0.0
 11
1977.892000004497
 21
274.00000000312798
 31
0.0
  0
LINE
  5
686
100
AcDbEntity
  8
CENTER
100
AcDbLine
 10
1967.392000004497
 20
312.50000000312798
 30
0.0
 11
1967.392000004497
 21
402.50000000312809
 31
0.0
  0
LINE
  5
687
100
AcDbEntity
  8
CENTER
100
AcDbLine
 10
2770.3920000044973
 20
310.00000000312798
 30
0.0
 11
2770.3920000044973
 21
418.00000000312809
 31
0.0
  0
INSERT
  5
688
100
AcDbEntity
  8
OBJECT
100
AcDbBlockReference
  2
*U35
 10
2025.4000000044971
 20
1409.000000003128
 30
0.0
  0
LINE
  5
689
100
AcDbEntity
  8
OBJECT
100
AcDbLine
 10
3350.3920000044973
 20
660.00000000312809
 30
0.0
 11
3280.3920000044973
 21
660.00000000312809
 31
0.0
  0
POLYLINE
  5
68A
100
AcDbEntity
  8
OBJECT
100
AcDb2dPolyline
 66
               1
 10
0.0
 20
0.0
 30
0.0
 70
               1
 75
               5
  0
VERTEX
  5
68B
100
AcDbEntity
  8
OBJECT
100
AcDbVertex
100
AcDb2dVertex
 10
2790.3920000044973
 20
430.00000000312809
 30
0.0
  0
VERTEX
  5
68C
100
AcDbEntity
  8
OBJECT
100
AcDbVertex
100
AcDb2dVertex
 10
3280.3920000044973
 20
430.00000000312809
 30
0.0
  0
VERTEX
  5
68D
100
AcDbEntity
  8
OBJECT
100
AcDbVertex
100
AcDb2dVertex
 10
3280.3920000044973
 20
290.00000000312798
 30
0.0
  0
VERTEX
  5
68E
100
AcDbEntity
  8
OBJECT
100
AcDbVertex
100
AcDb2dVertex
 10
2790.3920000044973
 20
290.00000000312798
 30
0.0
  0
SEQEND
  5
68F
100
AcDbEntity
  8
OBJECT
  0
LINE
  5
690
100
AcDbEntity
  8
OBJECT
100
AcDbLine
 10
2695.3920000044973
 20
400.00000000312809
 30
0.0
 11
2790.3920000044973
 21
400.00000000312809
 31
0.0
  0
LINE
  5
691
100
AcDbEntity
  8
OBJECT
100
AcDbLine
 10
2825.3920000044973
 20
830.00000000312798
 30
0.0
 11
2695.3920000044973
 21
830.00000000312798
 31
0.0
  0
LINE
  5
692
100
AcDbEntity
  8
OBJECT
100
AcDbLine
 10
2695.3920000044973
 20
830.00000000312798
 30
0.0
 11
2695.3920000044973
 21
400.00000000312809
 31
0.0
  0
POLYLINE
  5
693
100
AcDbEntity
  8
OBJECT
100
AcDb2dPolyline
 66
               1
 10
0.0
 20
0.0
 30
0.0
 70
             129
  0
VERTEX
  5
694
100
AcDbEntity
  8
OBJECT
100
AcDbVertex
100
AcDb2dVertex
 10
2723.3920000044973
 20
798.00000000312798
 30
0.0
  0
VERTEX
  5
695
100
AcDbEntity
  8
OBJECT
100
AcDbVertex
100
AcDb2dVertex
 10
2783.3920000044973
 20
798.00000000312798
 30
0.0
  0
VERTEX
  5
696
100
AcDbEntity
  8
OBJECT
100
AcDbVertex
100
AcDb2dVertex
 10
2783.3920000044973
 20
798.00000000312798
 30
0.0
 42
-0.414213562373095
 70
               2
  0
VERTEX
  5
697
100
AcDbEntity
  8
OBJECT
100
AcDbVertex
100
AcDb2dVertex
 10
2773.3920000044973
 20
788.00000000312798
 30
0.0
  0
VERTEX
  5
698
100
AcDbEntity
  8
OBJECT
100
AcDbVertex
100
AcDb2dVertex
 10
2733.3920000044973
 20
788.00000000312798
 30
0.0
 42
-0.414213562373095
 70
               2
 50
3.1191399769264294E+17
  0
VERTEX
  5
699
100
AcDbEntity
  8
OBJECT
100
AcDbVertex
100
AcDb2dVertex
 10
2723.3920000044973
 20
798.00000000312798
 30
0.0
  0
SEQEND
  5
69A
100
AcDbEntity
  8
OBJECT
  0
POLYLINE
  5
69B
100
AcDbEntity
  8
OBJECT
100
AcDb2dPolyline
 66
               1
 10
0.0
 20
0.0
 30
0.0
 70
             129
  0
VERTEX
  5
69C
100
AcDbEntity
  8
OBJECT
100
AcDbVertex
100
AcDb2dVertex
 10
2723.3920000044973
 20
782.00000000312798
 30
0.0
  0
VERTEX
  5
69D
100
AcDbEntity
  8
OBJECT
100
AcDbVertex
100
AcDb2dVertex
 10
2783.3920000044973
 20
782.00000000312798
 30
0.0
  0
VERTEX
  5
69E
100
AcDbEntity
  8
OBJECT
100
AcDbVertex
100
AcDb2dVertex
 10
2783.3920000044973
 20
782.00000000312798
 30
0.0
 42
-0.414213562373095
 70
               2
  0
VERTEX
  5
69F
100
AcDbEntity
  8
OBJECT
100
AcDbVertex
100
AcDb2dVertex
 10
2773.3920000044973
 20
772.00000000312798
 30
0.0
  0
VERTEX
  5
6A0
100
AcDbEntity
  8
OBJECT
100
AcDbVertex
100
AcDb2dVertex
 10
2733.3920000044973
 20
772.00000000312798
 30
0.0
 42
-0.414213562373095
 70
               2
 50
3.1191399769264294E+17
  0
VERTEX
  5
6A1
100
AcDbEntity
  8
OBJECT
100
AcDbVertex
100
AcDb2dVertex
 10
2723.3920000044973
 20
782.00000000312798
 30
0.0
  0
SEQEND
  5
6A2
100
AcDbEntity
  8
OBJECT
  0
POLYLINE
  5
6A3
100
AcDbEntity
  8
OBJECT
100
AcDb2dPolyline
 66
               1
 10
0.0
 20
0.0
 30
0.0
 70
             129
  0
VERTEX
  5
6A4
100
AcDbEntity
  8
OBJECT
100
AcDbVertex
100
AcDb2dVertex
 10
2723.3920000044973
 20
766.00000000312798
 30
0.0
  0
VERTEX
  5
6A5
100
AcDbEntity
  8
OBJECT
100
AcDbVertex
100
AcDb2dVertex
 10
2783.3920000044973
 20
766.00000000312798
 30
0.0
  0
VERTEX
  5
6A6
100
AcDbEntity
  8
OBJECT
100
AcDbVertex
100
AcDb2dVertex
 10
2783.3920000044973
 20
766.00000000312798
 30
0.0
 42
-0.414213562373095
 70
               2
  0
VERTEX
  5
6A7
100
AcDbEntity
  8
OBJECT
100
AcDbVertex
100
AcDb2dVertex
 10
2773.3920000044973
 20
756.00000000312798
 30
0.0
  0
VERTEX
  5
6A8
100
AcDbEntity
  8
OBJECT
100
AcDbVertex
100
AcDb2dVertex
 10
2733.3920000044973
 20
756.00000000312798
 30
0.0
 42
-0.414213562373095
 70
               2
 50
3.1191399769264294E+17
  0
VERTEX
  5
6A9
100
AcDbEntity
  8
OBJECT
100
AcDbVertex
100
AcDb2dVertex
 10
2723.3920000044973
 20
766.00000000312798
 30
0.0
  0
SEQEND
  5
6AA
100
AcDbEntity
  8
OBJECT
  0
POLYLINE
  5
6AB
100
AcDbEntity
  8
OBJECT
100
AcDb2dPolyline
 66
               1
 10
0.0
 20
0.0
 30
0.0
 70
             129
  0
VERTEX
  5
6AC
100
AcDbEntity
  8
OBJECT
100
AcDbVertex
100
AcDb2dVertex
 10
2723.3920000044973
 20
750.00000000312798
 30
0.0
  0
VERTEX
  5
6AD
100
AcDbEntity
  8
OBJECT
100
AcDbVertex
100
AcDb2dVertex
 10
2783.3920000044973
 20
750.00000000312798
 30
0.0
  0
VERTEX
  5
6AE
100
AcDbEntity
  8
OBJECT
100
AcDbVertex
100
AcDb2dVertex
 10
2783.3920000044973
 20
750.00000000312798
 30
0.0
 42
-0.4142135623730984
 70
               2
  0
VERTEX
  5
6AF
100
AcDbEntity
  8
OBJECT
100
AcDbVertex
100
AcDb2dVertex
 10
2773.3920000044973
 20
740.00000000312809
 30
0.0
  0
VERTEX
  5
6B0
100
AcDbEntity
  8
OBJECT
100
AcDbVertex
100
AcDb2dVertex
 10
2733.3920000044968
 20
740.00000000312809
 30
0.0
 42
-0.4142135623730917
 70
               2
 50
4884546348592043.0
  0
VERTEX
  5
6B1
100
AcDbEntity
  8
OBJECT
100
AcDbVertex
100
AcDb2dVertex
 10
2723.3920000044973
 20
750.00000000312798
 30
0.0
  0
SEQEND
  5
6B2
100
AcDbEntity
  8
OBJECT
  0
POLYLINE
  5
6B3
100
AcDbEntity
  8
OBJECT
100
AcDb2dPolyline
 66
               1
 10
0.0
 20
0.0
 30
0.0
 70
               1
 75
               5
  0
VERTEX
  5
6B4
100
AcDbEntity
  8
OBJECT
100
AcDbVertex
100
AcDb2dVertex
 10
2825.3920000044973
 20
820.00000000312798
 30
0.0
  0
VERTEX
  5
6B5
100
AcDbEntity
  8
OBJECT
100
AcDbVertex
100
AcDb2dVertex
 10
2840.3920000044973
 20
820.00000000312798
 30
0.0
  0
VERTEX
  5
6B6
100
AcDbEntity
  8
OBJECT
100
AcDbVertex
100
AcDb2dVertex
 10
2840.3920000044973
 20
580.00000000312809
 30
0.0
  0
VERTEX
  5
6B7
100
AcDbEntity
  8
OBJECT
100
AcDbVertex
100
AcDb2dVertex
 10
2825.3920000044973
 20
580.00000000312809
 30
0.0
  0
SEQEND
  5
6B8
100
AcDbEntity
  8
OBJECT
  0
LINE
  5
6B9
100
AcDbEntity
  8
OBJECT
100
AcDbLine
 10
2825.3920000044973
 20
830.00000000312798
 30
0.0
 11
2825.3920000044973
 21
430.00000000312809
 31
0.0
  0
CIRCLE
  5
6BA
100
AcDbEntity
  8
OBJECT
100
AcDbCircle
 10
1814.892000004497
 20
729.00000000312809
 30
0.0
 40
2.5
  0
POLYLINE
  5
6BB
100
AcDbEntity
  8
OBJECT
100
AcDb2dPolyline
 66
               1
 10
0.0
 20
0.0
 30
0.0
 70
               1
 75
               5
  0
VERTEX
  5
6BC
100
AcDbEntity
  8
OBJECT
100
AcDbVertex
100
AcDb2dVertex
 10
1837.392000004497
 20
2055.0000000031278
 30
0.0
  0
VERTEX
  5
6BD
100
AcDbEntity
  8
OBJECT
100
AcDbVertex
100
AcDb2dVertex
 10
1937.392000004497
 20
2055.0000000031278
 30
0.0
  0
VERTEX
  5
6BE
100
AcDbEntity
  8
OBJECT
100
AcDbVertex
100
AcDb2dVertex
 10
1937.392000004497
 20
2040.0000000031278
 30
0.0
  0
VERTEX
  5
6BF
100
AcDbEntity
  8
OBJECT
100
AcDbVertex
100
AcDb2dVertex
 10
1837.392000004497
 20
2040.0000000031278
 30
0.0
  0
SEQEND
  5
6C0
100
AcDbEntity
  8
OBJECT
  0
LINE
  5
6C1
100
AcDbEntity
  8
CENTER
100
AcDbLine
 10
2860.3920000044973
 20
301.00000000312798
 30
0.0
 11
2860.3920000044973
 21
232.00000000312798
 31
0.0
  0
LINE
  5
6C2
100
AcDbEntity
  8
OBJECT
100
AcDbLine
 10
2836.3920000044973
 20
238.00000000312798
 30
0.0
 11
2884.3920000044973
 21
238.00000000312798
 31
0.0
  0
LINE
  5
6C3
100
AcDbEntity
  8
OBJECT
100
AcDbLine
 10
2884.3920000044973
 20
238.00000000312798
 30
0.0
 11
2884.3920000044973
 21
262.00000000312798
 31
0.0
  0
LINE
  5
6C4
100
AcDbEntity
  8
OBJECT
100
AcDbLine
 10
2836.3920000044973
 20
238.00000000312798
 30
0.0
 11
2836.3920000044973
 21
262.00000000312798
 31
0.0
  0
LINE
  5
6C5
100
AcDbEntity
  8
CENTER
100
AcDbLine
 10
2826.8920000044973
 20
250.00000000312798
 30
0.0
 11
2906.8920000044973
 21
250.00000000312798
 31
0.0
  0
LINE
  5
6C6
100
AcDbEntity
  8
OBJECT
100
AcDbLine
 10
2848.3920000044973
 20
274.00000000312798
 30
0.0
 11
2872.3920000044973
 21
274.00000000312798
 31
0.0
  0
LINE
  5
6C7
100
AcDbEntity
  8
OBJECT
100
AcDbLine
 10
2848.3920000044973
 20
274.00000000312798
 30
0.0
 11
2848.3920000044973
 21
262.00000000312798
 31
0.0
  0
LINE
  5
6C8
100
AcDbEntity
  8
OBJECT
100
AcDbLine
 10
2872.3920000044973
 20
274.00000000312798
 30
0.0
 11
2872.3920000044973
 21
262.00000000312798
 31
0.0
  0
ARC
  5
6C9
100
AcDbEntity
  8
OBJECT
100
AcDbCircle
 10
2860.3920000044973
 20
283.60000000312812
 30
0.0
 40
24.709512338368921
100
AcDbArc
 50
240.94539590092302
 51
299.05460409907698
  0
LINE
  5
6CA
100
AcDbEntity
  8
OBJECT
100
AcDbLine
 10
2872.3920000044973
 20
262.00000000312798
 30
0.0
 11
2884.3920000044973
 21
262.00000000312798
 31
0.0
  0
LINE
  5
6CB
100
AcDbEntity
  8
OBJECT
100
AcDbLine
 10
2836.3920000044973
 20
262.00000000312798
 30
0.0
 11
2848.3920000044973
 21
262.00000000312798
 31
0.0
  0
LINE
  5
6CC
100
AcDbEntity
  8
OBJECT
100
AcDbLine
 10
2889.3920000044973
 20
262.00000000312798
 30
0.0
 11
2889.3920000044973
 21
238.00000000312798
 31
0.0
  0
LINE
  5
6CD
100
AcDbEntity
  8
OBJECT
100
AcDbLine
 10
2889.3920000044973
 20
259.00000000312798
 30
0.0
 11
2884.3920000044973
 21
259.00000000312798
 31
0.0
  0
LINE
  5
6CE
100
AcDbEntity
  8
OBJECT
100
AcDbLine
 10
2889.3920000044973
 20
241.00000000312798
 30
0.0
 11
2884.3920000044973
 21
241.00000000312798
 31
0.0
  0
POLYLINE
  5
6CF
100
AcDbEntity
  8
OBJECT
100
AcDb2dPolyline
 66
               1
 10
0.0
 20
0.0
 30
0.0
 70
               1
 75
               5
  0
VERTEX
  5
6D0
100
AcDbEntity
  8
OBJECT
100
AcDbVertex
100
AcDb2dVertex
 10
2889.3920000044973
 20
255.00000000312798
 30
0.0
  0
VERTEX
  5
6D1
100
AcDbEntity
  8
OBJECT
100
AcDbVertex
100
AcDb2dVertex
 10
2897.3920000044973
 20
255.00000000312798
 30
0.0
  0
VERTEX
  5
6D2
100
AcDbEntity
  8
OBJECT
100
AcDbVertex
100
AcDb2dVertex
 10
2897.3920000044973
 20
245.00000000312798
 30
0.0
  0
VERTEX
  5
6D3
100
AcDbEntity
  8
OBJECT
100
AcDbVertex
100
AcDb2dVertex
 10
2889.3920000044973
 20
245.00000000312798
 30
0.0
  0
SEQEND
  5
6D4
100
AcDbEntity
  8
OBJECT
  0
POLYLINE
  5
6D5
100
AcDbEntity
  8
OBJECT
100
AcDb2dPolyline
 66
               1
 10
0.0
 20
0.0
 30
0.0
 70
               1
 75
               5
  0
VERTEX
  5
6D6
100
AcDbEntity
  8
OBJECT
100
AcDbVertex
100
AcDb2dVertex
 10
1997.392000004497
 20
2375.0000000031278
 30
0.0
  0
VERTEX
  5
6D7
100
AcDbEntity
  8
OBJECT
100
AcDbVertex
100
AcDb2dVertex
 10
2003.392000004497
 20
2375.0000000031278
 30
0.0
  0
VERTEX
  5
6D8
100
AcDbEntity
  8
OBJECT
100
AcDbVertex
100
AcDb2dVertex
 10
2003.392000004497
 20
2335.0000000031278
 30
0.0
  0
VERTEX
  5
6D9
100
AcDbEntity
  8
OBJECT
100
AcDbVertex
100
AcDb2dVertex
 10
1997.392000004497
 20
2335.0000000031278
 30
0.0
  0
SEQEND
  5
6DA
100
AcDbEntity
  8
OBJECT
  0
ARC
  5
6DB
100
AcDbEntity
  8
OBJECT
100
AcDbCircle
 10
2034.392000004497
 20
2355.0000000031278
 30
0.0
 40
13.0
100
AcDbArc
 50
270.0
 51
90.0
  0
LINE
  5
6DC
100
AcDbEntity
  8
OBJECT
100
AcDbLine
 10
2003.392000004497
 20
2368.0000000031278
 30
0.0
 11
2034.392000004497
 21
2368.0000000031278
 31
0.0
  0
LINE
  5
6DD
100
AcDbEntity
  8
OBJECT
100
AcDbLine
 10
2003.392000004497
 20
2342.0000000031278
 30
0.0
 11
2034.392000004497
 21
2342.0000000031278
 31
0.0
  0
INSERT
  5
6DE
100
AcDbEntity
  8
OBJECT
100
AcDbBlockReference
  2
*U36
 10
2025.4000000044971
 20
1409.000000003128
 30
0.0
  0
POLYLINE
  5
6DF
100
AcDbEntity
  8
OBJECT
100
AcDb2dPolyline
 66
               1
 10
0.0
 20
0.0
 30
0.0
 70
             129
  0
VERTEX
  5
6E0
100
AcDbEntity
  8
OBJECT
100
AcDbVertex
100
AcDb2dVertex
 10
1575.392000004497
 20
2570.0000000031278
 30
0.0
 42
-0.414213562373095
 70
               2
  0
VERTEX
  5
6E1
100
AcDbEntity
  8
OBJECT
100
AcDbVertex
100
AcDb2dVertex
 10
1580.392000004497
 20
2575.0000000031278
 30
0.0
  0
VERTEX
  5
6E2
100
AcDbEntity
  8
OBJECT
100
AcDbVertex
100
AcDb2dVertex
 10
1670.392000004497
 20
2575.0000000031278
 30
0.0
 42
-0.4142135623730917
 70
               2
 50
4834078842942471.0
  0
VERTEX
  5
6E3
100
AcDbEntity
  8
OBJECT
100
AcDbVertex
100
AcDb2dVertex
 10
1675.392000004497
 20
2570.0000000031278
 30
0.0
  0
VERTEX
  5
6E4
100
AcDbEntity
  8
OBJECT
100
AcDbVertex
100
AcDb2dVertex
 10
1675.392000004497
 20
2565.0000000031278
 30
0.0
  0
VERTEX
  5
6E5
100
AcDbEntity
  8
OBJECT
100
AcDbVertex
100
AcDb2dVertex
 10
1575.392000004497
 20
2565.0000000031278
 30
0.0
  0
SEQEND
  5
6E6
100
AcDbEntity
  8
OBJECT
  0
INSERT
  5
6E7
100
AcDbEntity
  8
OBJECT
100
AcDbBlockReference
  2
*U37
 10
2025.4000000044971
 20
1409.000000003128
 30
0.0
  0
POLYLINE
  5
6E8
100
AcDbEntity
  8
OBJECT
100
AcDb2dPolyline
 66
               1
 10
0.0
 20
0.0
 30
0.0
 70
               1
 75
               5
  0
VERTEX
  5
6E9
100
AcDbEntity
  8
OBJECT
100
AcDbVertex
100
AcDb2dVertex
 10
1953.392000004497
 20
360.00000000312798
 30
0.0
  0
VERTEX
  5
6EA
100
AcDbEntity
  8
OBJECT
100
AcDbVertex
100
AcDb2dVertex
 10
1981.392000004497
 20
360.00000000312798
 30
0.0
  0
VERTEX
  5
6EB
100
AcDbEntity
  8
OBJECT
100
AcDbVertex
100
AcDb2dVertex
 10
1981.392000004497
 20
325.00000000312798
 30
0.0
  0
VERTEX
  5
6EC
100
AcDbEntity
  8
OBJECT
100
AcDbVertex
100
AcDb2dVertex
 10
1953.392000004497
 20
325.00000000312798
 30
0.0
  0
SEQEND
  5
6ED
100
AcDbEntity
  8
OBJECT
  0
POLYLINE
  5
6EE
100
AcDbEntity
  8
OBJECT
100
AcDb2dPolyline
 66
               1
 10
0.0
 20
0.0
 30
0.0
 70
               1
 75
               5
  0
VERTEX
  5
6EF
100
AcDbEntity
  8
OBJECT
100
AcDbVertex
100
AcDb2dVertex
 10
2756.3920000044973
 20
360.00000000312798
 30
0.0
  0
VERTEX
  5
6F0
100
AcDbEntity
  8
OBJECT
100
AcDbVertex
100
AcDb2dVertex
 10
2784.3920000044973
 20
360.00000000312798
 30
0.0
  0
VERTEX
  5
6F1
100
AcDbEntity
  8
OBJECT
100
AcDbVertex
100
AcDb2dVertex
 10
2784.3920000044973
 20
325.00000000312798
 30
0.0
  0
VERTEX
  5
6F2
100
AcDbEntity
  8
OBJECT
100
AcDbVertex
100
AcDb2dVertex
 10
2756.3920000044973
 20
325.00000000312798
 30
0.0
  0
SEQEND
  5
6F3
100
AcDbEntity
  8
OBJECT
  0
LINE
  5
6F4
100
AcDbEntity
  8
DIMENTION
100
AcDbLine
 10
2219.3920000044973
 20
938.00000000312798
 30
0.0
 11
2469.3920000044973
 21
938.00000000312798
 31
0.0
  0
LINE
  5
6F5
100
AcDbEntity
  8
DIMENTION
100
AcDbLine
 10
2219.3920000044973
 20
938.00000000312798
 30
0.0
 11
1860.392000004497
 21
734.0
 31
0.0
  0
LINE
  5
6F6
100
AcDbEntity
  8
DIMENTION
100
AcDbLine
 10
1860.392000004497
 20
734.0
 30
0.0
 11
1884.0367127134389
 21
756.83343364656321
 31
0.0
  0
LINE
  5
6F7
100
AcDbEntity
  8
DIMENTION
100
AcDbLine
 10
1860.392000004497
 20
734.0
 30
0.0
 11
1892.285638698907
 21
741.95197723907916
 31
0.0
  0
MTEXT
  5
6F8
100
AcDbEntity
  8
DIMENTION
100
AcDbMText
 10
2231.9036000044971
 20
983.98310000312802
 30
0.0
 40
33.866666666666667
 41
0.0
 71
               1
 72
               1
  1
操作パネル\Pブースター用
  7
________
  0
LINE
  5
6F9
100
AcDbEntity
  8
DIMENTION
100
AcDbLine
 10
2219.3920000044973
 20
888.00000000312798
 30
0.0
 11
2469.3920000044973
 21
888.00000000312798
 31
0.0
  0
LINE
  5
6FA
100
AcDbEntity
  8
DIMENTION
100
AcDbLine
 10
2219.3920000044973
 20
938.00000000312798
 30
0.0
 11
2219.3920000044973
 21
888.00000000312798
 31
0.0
  0
LINE
  5
6FB
100
AcDbEntity
  8
DIMENTION
100
AcDbLine
 10
2292.3920000044973
 20
631.00000000312798
 30
0.0
 11
2572.3920000044973
 21
631.00000000312798
 31
0.0
  0
LINE
  5
6FC
100
AcDbEntity
  8
DIMENTION
100
AcDbLine
 10
2292.3920000044973
 20
631.00000000312798
 30
0.0
 11
2045.392000004497
 21
723.0
 31
0.0
  0
LINE
  5
6FD
100
AcDbEntity
  8
DIMENTION
100
AcDbLine
 10
2045.392000004497
 20
723.0
 30
0.0
 11
2078.0819533306785
 21
719.56414745478105
 31
0.0
  0
LINE
  5
6FE
100
AcDbEntity
  8
DIMENTION
100
AcDbLine
 10
2045.392000004497
 20
723.0
 30
0.0
 11
2071.9844037608882
 21
703.67948774909235
 31
0.0
  0
MTEXT
  5
6FF
100
AcDbEntity
  8
DIMENTION
100
AcDbMText
 10
2300.2316000044971
 20
675.77080000312799
 30
0.0
 40
33.866666666666667
 41
0.0
 71
               1
 72
               1
  1
オーバーフロー
  7
________
  0
DIMENSION
  5
700
100
AcDbEntity
  8
DIMENTION
100
AcDbDimension
  2
*D38
 10
2276.0
 20
190.00000000312798
 30
0.0
 11
2276.9999999962747
 21
520.00000000312798
 31
0.0
 70
             128
  3
CAD
100
AcDbAlignedDimension
 13
2000.392000004497
 23
850.00000000312798
 33
0.0
 14
2176.3920000044973
 24
190.00000000312798
 34
0.0
 50
90.0
100
AcDbRotatedDimension
1001
ACAD
1000
DSTYLE
1002
{
1070
             271
1070
               0
1070
             340
1005
6A
1070
             147
1040
0.9999999962747097
1002
}
  0
DIMENSION
  5
701
100
AcDbEntity
  8
DIMENTION
100
AcDbDimension
  2
*D39
 10
2224.0
 20
790.00000000312798
 30
0.0
 11
2224.0
 21
490.00000000312798
 31
0.0
  3
CAD
100
AcDbAlignedDimension
 13
2186.3920000044973
 23
190.00000000312798
 33
0.0
 14
2001.392000004497
 24
790.00000000312798
 34
0.0
 50
90.0
100
AcDbRotatedDimension
1001
ACAD
1000
DSTYLE
1002
{
1070
             271
1070
               0
1070
             340
1005
6A
1070
             147
1040
0.9999999962747097
1002
}
  0
LINE
  5
702
100
AcDbEntity
  8
DIMENTION
100
AcDbLine
 10
2312.7883000044972
 20
456.83640000312801
 30
0.0
 11
2552.7883000044972
 21
456.83640000312801
 31
0.0
  0
LINE
  5
703
100
AcDbEntity
  8
DIMENTION
100
AcDbLine
 10
2312.7883000044972
 20
456.83640000312801
 30
0.0
 11
1979.273400004497
 21
260.16700000312812
 31
0.0
  0
LINE
  5
704
100
AcDbEntity
  8
DIMENTION
100
AcDbLine
 10
1979.273400004497
 20
260.16700000312812
 30
0.0
 11
2002.516013144809
 21
283.40961314344008
 31
0.0
  0
LINE
  5
705
100
AcDbEntity
  8
DIMENTION
100
AcDbLine
 10
1979.273400004497
 20
260.16700000312812
 30
0.0
 11
2011.023400004497
 21
268.67438686281616
 31
0.0
  0
MTEXT
  5
706
100
AcDbEntity
  8
DIMENTION
100
AcDbMText
 10
2322.6595000044972
 20
503.33500000312802
 30
0.0
 40
33.866666666666667
 41
0.0
 71
               1
 72
               1
  1
給湯口\P15Aめすねじ
  7
________
  0
LINE
  5
707
100
AcDbEntity
  8
DIMENTION
100
AcDbLine
 10
2310.8920000044973
 20
408.83640000312801
 30
0.0
 11
2550.8920000044973
 21
408.83640000312801
 31
0.0
  0
LINE
  5
708
100
AcDbEntity
  8
DIMENTION
100
AcDbLine
 10
2312.3920000044973
 20
456.83640000312801
 30
0.0
 11
2312.3920000044973
 21
406.83640000312801
 31
0.0
  0
DIMENSION
  5
709
100
AcDbEntity
  8
DIMENTION
100
AcDbDimension
  2
*D40
 10
2045.392000004497
 20
190.00000000312798
 30
0.0
 11
2046.3920000007718
 21
220.00000000312798
 31
0.0
 70
             128
  3
CAD
100
AcDbAlignedDimension
 13
1970.392000004497
 23
250.00000000312798
 33
0.0
 14
1985.392000004497
 24
190.00000000312798
 34
0.0
 50
90.0
100
AcDbRotatedDimension
1001
ACAD
1000
DSTYLE
1002
{
1070
             271
1070
               0
1070
             340
1005
6A
1070
             147
1040
0.9999999962747097
1002
}
  0
DIMENSION
  5
70A
100
AcDbEntity
  8
DIMENTION
100
AcDbDimension
  2
*D41
 10
2174.3920000044973
 20
190.00000000312798
 30
0.0
 11
2175.392000000772
 21
257.50000000312798
 31
0.0
 70
             128
  3
CAD
100
AcDbAlignedDimension
 13
1981.392000004497
 23
325.00000000312798
 33
0.0
 14
1984.392000004497
 24
190.00000000312798
 34
0.0
 50
90.0
100
AcDbRotatedDimension
1001
ACAD
1000
DSTYLE
1002
{
1070
             271
1070
               0
1070
             340
1005
6A
1070
             147
1040
0.9999999962747097
1002
}
  0
DIMENSION
  5
70B
100
AcDbEntity
  8
DIMENTION
100
AcDbDimension
  2
*D42
 10
2112.3920000044973
 20
290.00000000312798
 30
0.0
 11
2113.392000000772
 21
240.00000000312798
 31
0.0
 70
             128
  3
CAD
100
AcDbAlignedDimension
 13
1995.392000004497
 23
190.00000000312798
 33
0.0
 14
1995.392000004497
 24
290.00000000312798
 34
0.0
 50
90.0
100
AcDbRotatedDimension
1001
ACAD
1000
DSTYLE
1002
{
1070
             271
1070
               0
1070
             340
1005
6A
1070
             147
1040
0.9999999962747097
1002
}
  0
DIMENSION
  5
70C
100
AcDbEntity
  8
DIMENTION
100
AcDbDimension
  2
*D43
 10
3423.0
 20
1610.000000003128
 30
0.0
 11
3423.0
 21
910.00000000312798
 31
0.0
  3
CAD
100
AcDbAlignedDimension
 13
3360.3920000044973
 23
210.00000000312798
 33
0.0
 14
3350.3920000044973
 24
1610.000000003128
 34
0.0
 50
90.0
100
AcDbRotatedDimension
1001
ACAD
1000
DSTYLE
1002
{
1070
             271
1070
               0
1070
             340
1005
6A
1070
             147
1040
0.9999999962747097
1002
}
  0
DIMENSION
  5
70D
100
AcDbEntity
  8
DIMENTION
100
AcDbDimension
  2
*D44
 10
1997.392000004497
 20
1781.0000000031278
 30
0.0
 11
1881.392000004497
 21
1781.9999999994025
 31
0.0
 70
             128
  1
230
  3
CAD
100
AcDbAlignedDimension
 13
1765.392000004497
 23
1890.000000003128
 33
0.0
 14
1997.392000004497
 24
2055.0000000031278
 34
0.0
100
AcDbRotatedDimension
1001
ACAD
1000
DSTYLE
1002
{
1070
             271
1070
               0
1070
             340
1005
6A
1070
             147
1040
0.9999999962747097
1002
}
  0
LINE
  5
70E
100
AcDbEntity
  8
DIMENTION
100
AcDbLine
 10
2077.5075000044972
 20
1856.000000003128
 30
0.0
 11
2317.5075000044972
 21
1856.000000003128
 31
0.0
  0
LINE
  5
70F
100
AcDbEntity
  8
DIMENTION
100
AcDbLine
 10
2077.5075000044972
 20
1856.000000003128
 30
0.0
 11
1975.1552000044971
 21
1977.2068000031279
 31
0.0
  0
LINE
  5
710
100
AcDbEntity
  8
DIMENTION
100
AcDbLine
 10
1975.1552000044971
 20
1977.2068000031279
 30
0.0
 11
2002.0807430413722
 21
1958.3533317983179
 31
0.0
  0
LINE
  5
711
100
AcDbEntity
  8
DIMENTION
100
AcDbLine
 10
1975.1552000044971
 20
1977.2068000031279
 30
0.0
 11
1989.0466701827172
 21
1947.4164460698828
 31
0.0
  0
MTEXT
  5
712
100
AcDbEntity
  8
DIMENTION
100
AcDbMText
 10
2089.2750000044971
 20
1902.8534000031279
 30
0.0
 40
33.866666666666667
 41
0.0
 71
               1
 72
               1
  1
ガス接続口\P15Aめすねじ
  7
________
  0
LINE
  5
713
100
AcDbEntity
  8
DIMENTION
100
AcDbLine
 10
2077.5075000044972
 20
1806.000000003128
 30
0.0
 11
2317.5075000044972
 21
1806.000000003128
 31
0.0
  0
LINE
  5
714
100
AcDbEntity
  8
DIMENTION
100
AcDbLine
 10
2077.5075000044972
 20
1856.000000003128
 30
0.0
 11
2077.5075000044972
 21
1806.000000003128
 31
0.0
  0
DIMENSION
  5
715
100
AcDbEntity
  8
DIMENTION
100
AcDbDimension
  2
*D45
 10
1967.392000004497
 20
1825.5000000031278
 30
0.0
 11
1874.1192644087939
 21
1826.4999999994025
 31
0.0
 70
             128
  1
200
  3
CAD
100
AcDbAlignedDimension
 13
1765.392000004497
 23
1890.000000003128
 33
0.0
 14
1967.392000004497
 24
2075.0000000031278
 34
0.0
100
AcDbRotatedDimension
1001
ACAD
1000
DSTYLE
1002
{
1070
             271
1070
               0
1070
             340
1005
6A
1070
             147
1040
0.9999999962747097
1002
}
  0
DIMENSION
  5
716
100
AcDbEntity
  8
DIMENTION
100
AcDbDimension
  2
*D46
 10
2047.237200004497
 20
1781.000000003128
 30
0.0
 11
2022.3146000044972
 21
1781.9999999994027
 31
0.0
 70
             128
  3
CAD
100
AcDbAlignedDimension
 13
1997.392000004497
 23
2055.0000000031278
 33
0.0
 14
2047.237200004497
 24
2352.9998000031278
 34
0.0
100
AcDbRotatedDimension
1001
ACAD
1000
DSTYLE
1002
{
1070
             271
1070
               0
1070
             340
1005
6A
1070
             147
1040
0.9999999962747097
1002
}
  0
DIMENSION
  5
717
100
AcDbEntity
  8
DIMENTION
100
AcDbDimension
  2
*D47
 10
2093.3920000044973
 20
2075.0000000031278
 30
0.0
 11
2094.392000000772
 21
2120.0000000031278
 31
0.0
 70
             128
  3
CAD
100
AcDbAlignedDimension
 13
1765.392000004497
 23
2165.0000000031278
 33
0.0
 14
1970.392000004497
 24
2075.0000000031278
 34
0.0
 50
90.0
100
AcDbRotatedDimension
1001
ACAD
1000
DSTYLE
1002
{
1070
             271
1070
               0
1070
             340
1005
6A
1070
             147
1040
0.9999999962747097
1002
}
  0
DIMENSION
  5
718
100
AcDbEntity
  8
DIMENTION
100
AcDbDimension
  2
*D48
 10
2163.3920000044973
 20
2165.0000000031278
 30
0.0
 11
2163.3920000044973
 21
2075.0000000031278
 31
0.0
  3
CAD
100
AcDbAlignedDimension
 13
1967.392000004497
 23
1985.000000003128
 33
0.0
 14
1765.392000004497
 24
2165.0000000031278
 34
0.0
 50
90.0
100
AcDbRotatedDimension
1001
ACAD
1000
DSTYLE
1002
{
1070
             271
1070
               0
1070
             340
1005
6A
1070
             147
1040
0.9999999962747097
1002
}
  0
LINE
  5
719
100
AcDbEntity
  8
DIMENTION
100
AcDbLine
 10
1971.392000004497
 20
2654.3438000031279
 30
0.0
 11
2131.3920000044973
 21
2654.3438000031279
 31
0.0
  0
LINE
  5
71A
100
AcDbEntity
  8
DIMENTION
100
AcDbLine
 10
1971.392000004497
 20
2654.3438000031279
 30
0.0
 11
1715.392000004497
 21
2530.0000000031278
 31
0.0
  0
LINE
  5
71B
100
AcDbEntity
  8
DIMENTION
100
AcDbLine
 10
1715.392000004497
 20
2530.0000000031278
 30
0.0
 11
1740.5718951963136
 21
2551.1284407716639
 31
0.0
  0
LINE
  5
71C
100
AcDbEntity
  8
DIMENTION
100
AcDbLine
 10
1715.392000004497
 20
2530.0000000031278
 30
0.0
 11
1747.7626492895079
 21
2535.7078188551268
 31
0.0
  0
MTEXT
  5
71D
100
AcDbEntity
  8
DIMENTION
100
AcDbMText
 10
1984.1969000044971
 20
2701.6509000031278
 30
0.0
 40
33.866666666666667
 41
0.0
 71
               1
 72
               1
  1
排気筒\P176×70
  7
________
  0
LINE
  5
71E
100
AcDbEntity
  8
DIMENTION
100
AcDbLine
 10
1971.392000004497
 20
2604.3438000031279
 30
0.0
 11
2131.3920000044973
 21
2604.3438000031279
 31
0.0
  0
LINE
  5
71F
100
AcDbEntity
  8
DIMENTION
100
AcDbLine
 10
1971.392000004497
 20
2654.3438000031279
 30
0.0
 11
1971.392000004497
 21
2604.3438000031279
 31
0.0
  0
DIMENSION
  5
720
100
AcDbEntity
  8
DIMENTION
100
AcDbDimension
  2
*D49
 10
1537.392000004497
 20
2641.0000000031278
 30
0.0
 11
1625.392000004497
 21
2641.0000000031278
 31
0.0
  3
CAD
100
AcDbAlignedDimension
 13
1713.392000004497
 23
2565.0000000031278
 33
0.0
 14
1537.392000004497
 24
2565.0000000031278
 34
0.0
100
AcDbRotatedDimension
1001
ACAD
1000
DSTYLE
1002
{
1070
             271
1070
               0
1070
             340
1005
6A
1070
             147
1040
0.9999999962747097
1002
}
  0
DIMENSION
  5
721
100
AcDbEntity
  8
DIMENTION
100
AcDbDimension
  2
*D50
 10
279.39200000449728
 20
1590.000000003128
 30
0.0
 11
279.39200000449728
 21
1560.000000003128
 31
0.0
  3
CAD
100
AcDbAlignedDimension
 13
590.39200000449728
 23
1530.000000003128
 33
0.0
 14
1525.000000004497
 24
1590.000000003128
 34
0.0
 50
90.0
100
AcDbRotatedDimension
1001
ACAD
1000
DSTYLE
1002
{
1070
             340
1005
6A
1070
             147
1040
0.9999999962747097
1002
}
  0
DIMENSION
  5
722
100
AcDbEntity
  8
DIMENTION
100
AcDbDimension
  2
*D51
 10
1175.3920000044973
 20
2641.0000000031278
 30
0.0
 11
1356.3920000044973
 21
2641.0000000031278
 31
0.0
  3
CAD
100
AcDbAlignedDimension
 13
1537.392000004497
 23
2565.0000000031278
 33
0.0
 14
1175.3920000044973
 24
2513.0000000031278
 34
0.0
100
AcDbRotatedDimension
1001
ACAD
1000
DSTYLE
1002
{
1070
             340
1005
6A
1070
             147
1040
0.9999999962747097
1002
}
  0
INSERT
  5
723
100
AcDbEntity
  8
OBJECT
100
AcDbBlockReference
  2
*U52
 10
2025.4000000044971
 20
1409.000000003128
 30
0.0
  0
INSERT
  5
724
100
AcDbEntity
  8
CENTER
100
AcDbBlockReference
  2
*U53
 10
2025.4000000044971
 20
1409.000000003128
 30
0.0
  0
DIMENSION
  5
725
100
AcDbEntity
  8
DIMENTION
100
AcDbDimension
  2
*D54
 10
1456.392000004497
 20
2245.0000000031278
 30
0.0
 11
1456.392000004497
 21
2205.0000000031278
 31
0.0
  3
CAD
100
AcDbAlignedDimension
 13
1530.392000004497
 23
2165.0000000031278
 33
0.0
 14
1530.392000004497
 24
2245.0000000031278
 34
0.0
 50
90.0
100
AcDbRotatedDimension
1001
ACAD
1000
DSTYLE
1002
{
1070
             340
1005
6A
1070
             147
1040
0.9999999962747097
1002
}
  0
DIMENSION
  5
726
100
AcDbEntity
  8
DIMENTION
100
AcDbDimension
  2
*D55
 10
2162.3920000044973
 20
2165.0000000031278
 30
0.0
 11
2163.392000000772
 21
2365.0000000031278
 31
0.0
 70
             128
  3
CAD
100
AcDbAlignedDimension
 13
1994.392000004497
 23
2565.0000000031278
 33
0.0
 14
1997.392000004497
 24
2165.0000000031278
 34
0.0
 50
90.0
100
AcDbRotatedDimension
1001
ACAD
1000
DSTYLE
1002
{
1070
             340
1005
6A
1070
             147
1040
0.9999999962747097
1002
}
  0
INSERT
  5
727
100
AcDbEntity
  8
OBJECT
100
AcDbBlockReference
  2
*U56
 10
2025.4000000044971
 20
1409.000000003128
 30
0.0
  0
LINE
  5
728
100
AcDbEntity
  8
OBJECT
100
AcDbLine
 10
1326.2253000044971
 20
375.00000000312798
 30
0.0
 11
639.39200000449728
 21
375.00000000312798
 31
0.0
  0
LINE
  5
729
100
AcDbEntity
  8
OBJECT
100
AcDbLine
 10
1324.558700004497
 20
384.30230000312804
 30
0.0
 11
639.39200000449728
 21
384.30230000312804
 31
0.0
  0
LINE
  5
72A
100
AcDbEntity
  8
OBJECT
100
AcDbLine
 10
211.03500000449731
 20
575.00000000312809
 30
0.0
 11
205.20160000449732
 21
592.00000000312809
 31
0.0
  0
LINE
  5
72B
100
AcDbEntity
  8
OBJECT
100
AcDbLine
 10
214.53500000449731
 20
575.00000000312809
 30
0.0
 11
214.53500000449731
 21
592.00000000312809
 31
0.0
  0
LINE
  5
72C
100
AcDbEntity
  8
OBJECT
100
AcDbLine
 10
218.03500000449731
 20
575.00000000312809
 30
0.0
 11
218.03500000449731
 21
592.00000000312809
 31
0.0
  0
LINE
  5
72D
100
AcDbEntity
  8
OBJECT
100
AcDbLine
 10
222.70160000449732
 20
575.00000000312809
 30
0.0
 11
222.70160000449732
 21
592.00000000312809
 31
0.0
  0
LINE
  5
72E
100
AcDbEntity
  8
OBJECT
100
AcDbLine
 10
639.39200000449728
 20
415.00000000312809
 30
0.0
 11
1711.3920000044973
 21
415.00000000312809
 31
0.0
  0
ARC
  5
72F
100
AcDbEntity
  8
OBJECT
100
AcDbCircle
 10
1324.558700004497
 20
424.30230000312804
 30
0.0
 40
40.0
100
AcDbArc
 50
270.0
 51
345.71959832887052
  0
ARC
  5
730
100
AcDbEntity
  8
OBJECT
100
AcDbCircle
 10
1326.2253000044971
 20
425.00000000312809
 30
0.0
 40
50.000000000000114
100
AcDbArc
 50
270.0
 51
348.38854279090748
  0
POLYLINE
  5
731
100
AcDbEntity
  8
OBJECT
100
AcDb2dPolyline
 66
               1
 10
0.0
 20
0.0
 30
0.0
 70
               1
 75
               5
  0
VERTEX
  5
732
100
AcDbEntity
  8
OBJECT
100
AcDbVertex
100
AcDb2dVertex
 10
1789.892000004497
 20
275.00000000312798
 30
0.0
  0
VERTEX
  5
733
100
AcDbEntity
  8
OBJECT
100
AcDbVertex
100
AcDb2dVertex
 10
1810.892000004497
 20
275.00000000312798
 30
0.0
  0
VERTEX
  5
734
100
AcDbEntity
  8
OBJECT
100
AcDbVertex
100
AcDb2dVertex
 10
1810.892000004497
 20
257.00000000312798
 30
0.0
  0
VERTEX
  5
735
100
AcDbEntity
  8
OBJECT
100
AcDbVertex
100
AcDb2dVertex
 10
1789.892000004497
 20
257.00000000312798
 30
0.0
  0
SEQEND
  5
736
100
AcDbEntity
  8
OBJECT
  0
LINE
  5
737
100
AcDbEntity
  8
OBJECT
100
AcDbLine
 10
1807.892000004497
 20
290.00000000312798
 30
0.0
 11
1807.892000004497
 21
280.00000000312798
 31
0.0
  0
LINE
  5
738
100
AcDbEntity
  8
OBJECT
100
AcDbLine
 10
1792.892000004497
 20
290.00000000312798
 30
0.0
 11
1792.892000004497
 21
280.00000000312798
 31
0.0
  0
LINE
  5
739
100
AcDbEntity
  8
OBJECT
100
AcDbLine
 10
1792.892000004497
 20
280.00000000312798
 30
0.0
 11
1807.892000004497
 21
280.00000000312798
 31
0.0
  0
LINE
  5
73A
100
AcDbEntity
  8
OBJECT
100
AcDbLine
 10
1792.892000004497
 20
280.00000000312798
 30
0.0
 11
1793.642000004497
 21
275.00000000312798
 31
0.0
  0
LINE
  5
73B
100
AcDbEntity
  8
OBJECT
100
AcDbLine
 10
1807.892000004497
 20
280.00000000312798
 30
0.0
 11
1807.142000004497
 21
275.00000000312798
 31
0.0
  0
LINE
  5
73C
100
AcDbEntity
  8
OBJECT
100
AcDbLine
 10
1792.892000004497
 20
290.00000000312798
 30
0.0
 11
1807.892000004497
 21
290.00000000312798
 31
0.0
  0
LINE
  5
73D
100
AcDbEntity
  8
CENTER
100
AcDbLine
 10
1800.392000004497
 20
295.00000000312798
 30
0.0
 11
1800.392000004497
 21
247.40000000312807
 31
0.0
  0
MTEXT
  5
73E
100
AcDbEntity
  8
TEXT
100
AcDbMText
 10
2732.000000004497
 20
126.68750000312798
 30
0.0
 40
50.799999999999997
 41
0.0
 71
               2
 72
               1
  1
SDR310GSH\P
  7
________
  0
MTEXT
  5
73F
100
AcDbEntity
  8
OBJECT
100
AcDbMText
 10
2509.750000004497
 20
61.687500003128207
 30
0.0
 40
39.511040000000001
 41
0.0
 71
               1
 72
               1
  1
ラック右から左流れ
  7
________
  0
POLYLINE
  5
740
100
AcDbEntity
  8
OBJECT
100
AcDb2dPolyline
 66
               1
 10
0.0
 20
0.0
 30
0.0
 70
               1
 75
               5
  0
VERTEX
  5
741
100
AcDbEntity
  8
OBJECT
100
AcDbVertex
100
AcDb2dVertex
 10
1068.3920000044973
 20
2012.4722000031279
 30
0.0
  0
VERTEX
  5
742
100
AcDbEntity
  8
OBJECT
100
AcDbVertex
100
AcDb2dVertex
 10
1568.392000004497
 20
2012.4722000031279
 30
0.0
  0
VERTEX
  5
743
100
AcDbEntity
  8
OBJECT
100
AcDbVertex
100
AcDb2dVertex
 10
1568.392000004497
 20
2087.5277000031278
 30
0.0
  0
VERTEX
  5
744
100
AcDbEntity
  8
OBJECT
100
AcDbVertex
100
AcDb2dVertex
 10
1068.3920000044973
 20
2087.5277000031278
 30
0.0
  0
VERTEX
  5
745
100
AcDbEntity
  8
OBJECT
100
AcDbVertex
100
AcDb2dVertex
 10
1068.3910000044971
 20
2150.0000000031278
 30
0.0
  0
VERTEX
  5
746
100
AcDbEntity
  8
OBJECT
100
AcDbVertex
100
AcDb2dVertex
 10
768.39200000449728
 20
2049.9994000031279
 30
0.0
  0
VERTEX
  5
747
100
AcDbEntity
  8
OBJECT
100
AcDbVertex
100
AcDb2dVertex
 10
1068.393000004497
 20
1950.000000003128
 30
0.0
  0
SEQEND
  5
748
100
AcDbEntity
  8
OBJECT
  0
MTEXT
  5
749
100
AcDbEntity
  8
TEXT
100
AcDbMText
 10
1252.7254000044973
 20
2071.4979000031281
 30
0.0
 40
33.866666666666667
 41
0.0
 71
               1
 72
               1
  1
ラック流れ方向
  7
________
  0
MTEXT
  5
74A
100
AcDbEntity
  8
DIMENTION
100
AcDbMText
 10
63.999999999998181
 20
765.5
 30
0.0
 40
33.866666666666667
 41
0.0
 71
               1
 72
               1
  1
電源コード\P3m，VCT，\P2.0mm ×４
  7
________
  0
MTEXT
  5
74B
100
AcDbEntity
  8
DIMENTION
100
AcDbMText
 10
179.37222222222226
 20
666.85555555555561
 30
0.0
 40
16.933333333333334
 41
0.0
 71
               1
 72
               1
  1
2
  7
________
  0
MTEXT
  5
74C
100
AcDbEntity
  8
TEXT
100
AcDbMText
 10
3468.0
 20
381.0
 30
0.0
 40
33.866666666666667
 41
0.0
 71
               1
 72
               1
  1
注）指示なき寸法公差は±5\P　　とする
  7
________
  0
MTEXT
  5
74D
100
AcDbEntity
  8
TEXT
100
AcDbMText
 10
3468.0
 20
544.91670000000033
 30
0.0
 40
33.866666666666667
 41
0.0
 71
               1
 72
               1
  1
注）アジャスト調整範囲：\P　　基準高さ（800）に対して\P　　-30，+60
  7
________
  0
INSERT
  5
74E
100
AcDbEntity
  8
OBJECT
100
AcDbBlockReference
  2
*U57
 10
2025.4000000044971
 20
1409.000000003128
 30
0.0
  0
LINE
  5
74F
100
AcDbEntity
  8
OBJECT
100
AcDbLine
 10
1711.3920000044973
 20
230.00000000312798
 30
0.0
 11
1749.3920000044973
 21
230.00000000312798
 31
0.0
  0
POLYLINE
  5
750
100
AcDbEntity
  8
OBJECT
100
AcDb2dPolyline
 66
               1
 10
0.0
 20
0.0
 30
0.0
 70
             129
  0
VERTEX
  5
751
100
AcDbEntity
  8
OBJECT
100
AcDbVertex
100
AcDb2dVertex
 10
1713.3920000044973
 20
230.00000000312798
 30
0.0
  0
VERTEX
  5
752
100
AcDbEntity
  8
OBJECT
100
AcDbVertex
100
AcDb2dVertex
 10
1747.3920000044973
 20
230.00000000312798
 30
0.0
  0
VERTEX
  5
753
100
AcDbEntity
  8
OBJECT
100
AcDbVertex
100
AcDb2dVertex
 10
1747.3920000044973
 20
195.00000000312798
 30
0.0
 42
-0.414213562373095
 70
               2
  0
VERTEX
  5
754
100
AcDbEntity
  8
OBJECT
100
AcDbVertex
100
AcDb2dVertex
 10
1742.3920000044973
 20
190.00000000312798
 30
0.0
  0
VERTEX
  5
755
100
AcDbEntity
  8
OBJECT
100
AcDbVertex
100
AcDb2dVertex
 10
1718.3920000044973
 20
190.00000000312798
 30
0.0
 42
-0.414213562373095
 70
               2
 50
3.1191399769264294E+17
  0
VERTEX
  5
756
100
AcDbEntity
  8
OBJECT
100
AcDbVertex
100
AcDb2dVertex
 10
1713.3920000044973
 20
195.00000000312798
 30
0.0
  0
SEQEND
  5
757
100
AcDbEntity
  8
OBJECT
  0
LINE
  5
758
100
AcDbEntity
  8
OBJECT
100
AcDbLine
 10
1738.8920000044973
 20
192.00000000312798
 30
0.0
 11
1738.8920000044973
 21
209.00000000312798
 31
0.0
  0
LINE
  5
759
100
AcDbEntity
  8
OBJECT
100
AcDbLine
 10
1721.3920000044973
 20
192.00000000312798
 30
0.0
 11
1721.3920000044973
 21
209.00000000312798
 31
0.0
  0
SPLINE
  5
75A
100
AcDbEntity
  8
OBJECT
100
AcDbSpline
210
0.0
220
0.0
230
1.0
 70
               8
 71
               2
 72
              10
 73
               7
 74
               0
 42
0.000001
 43
0.000001
 40
0.0
 40
0.0
 40
0.0
 40
0.2391095954640664
 40
0.2391095954640664
 40
0.7708424925849841
 40
0.7708424925849841
 40
1.0
 40
1.0
 40
1.0
 10
1713.8920000044973
 20
212.00000000312798
 30
0.0
 10
1715.8920000044973
 20
213.00000000312798
 30
0.0
 10
1721.3920000044973
 20
209.00000000312798
 30
0.0
 10
1730.3920000044973
 20
214.50000000312798
 30
0.0
 10
1738.8920000044973
 20
209.00000000312798
 30
0.0
 10
1742.8920000044973
 20
213.00000000312798
 30
0.0
 10
1745.8920000044973
 20
212.00000000312798
 30
0.0
  0
INSERT
  5
75B
100
AcDbEntity
  8
OBJECT
100
AcDbBlockReference
  2
*U58
 10
2025.4000000044971
 20
1409.000000003128
 30
0.0
  0
LINE
  5
75C
100
AcDbEntity
  8
OBJECT
100
AcDbLine
 10
601.39200000449728
 20
230.00000000312798
 30
0.0
 11
639.39200000449728
 21
230.00000000312798
 31
0.0
  0
POLYLINE
  5
75D
100
AcDbEntity
  8
OBJECT
100
AcDb2dPolyline
 66
               1
 10
0.0
 20
0.0
 30
0.0
 70
             129
  0
VERTEX
  5
75E
100
AcDbEntity
  8
OBJECT
100
AcDbVertex
100
AcDb2dVertex
 10
603.39200000449728
 20
230.00000000312798
 30
0.0
  0
VERTEX
  5
75F
100
AcDbEntity
  8
OBJECT
100
AcDbVertex
100
AcDb2dVertex
 10
637.39200000449728
 20
230.00000000312798
 30
0.0
  0
VERTEX
  5
760
100
AcDbEntity
  8
OBJECT
100
AcDbVertex
100
AcDb2dVertex
 10
637.39200000449728
 20
195.00000000312798
 30
0.0
 42
-0.414213562373095
 70
               2
  0
VERTEX
  5
761
100
AcDbEntity
  8
OBJECT
100
AcDbVertex
100
AcDb2dVertex
 10
632.39200000449728
 20
190.00000000312798
 30
0.0
  0
VERTEX
  5
762
100
AcDbEntity
  8
OBJECT
100
AcDbVertex
100
AcDb2dVertex
 10
608.39200000449728
 20
190.00000000312798
 30
0.0
 42
-0.414213562373095
 70
               2
 50
3.1191399769264294E+17
  0
VERTEX
  5
763
100
AcDbEntity
  8
OBJECT
100
AcDbVertex
100
AcDb2dVertex
 10
603.39200000449728
 20
195.00000000312798
 30
0.0
  0
SEQEND
  5
764
100
AcDbEntity
  8
OBJECT
  0
LINE
  5
765
100
AcDbEntity
  8
OBJECT
100
AcDbLine
 10
628.89200000449728
 20
192.00000000312798
 30
0.0
 11
628.89200000449728
 21
209.00000000312798
 31
0.0
  0
LINE
  5
766
100
AcDbEntity
  8
OBJECT
100
AcDbLine
 10
611.39200000449728
 20
192.00000000312798
 30
0.0
 11
611.39200000449728
 21
209.00000000312798
 31
0.0
  0
SPLINE
  5
767
100
AcDbEntity
  8
OBJECT
100
AcDbSpline
210
0.0
220
0.0
230
1.0
 70
               8
 71
               2
 72
              10
 73
               7
 74
               0
 42
0.000001
 43
0.000001
 40
0.0
 40
0.0
 40
0.0
 40
0.2391095954640664
 40
0.2391095954640664
 40
0.7708424925849841
 40
0.7708424925849841
 40
1.0
 40
1.0
 40
1.0
 10
603.89200000449728
 20
212.00000000312798
 30
0.0
 10
605.89200000449728
 20
213.00000000312798
 30
0.0
 10
611.39200000449728
 20
209.00000000312798
 30
0.0
 10
620.39200000449728
 20
214.50000000312798
 30
0.0
 10
628.89200000449728
 20
209.00000000312798
 30
0.0
 10
632.89200000449728
 20
213.00000000312798
 30
0.0
 10
635.89200000449728
 20
212.00000000312798
 30
0.0
  0
POINT
  5
768
100
AcDbEntity
  8
OBJECT
  6
CONTINUOUS
100
AcDbPoint
 10
1175.3920000044973
 20
440.00000000312809
 30
0.0
  0
INSERT
  5
769
100
AcDbEntity
  8
OBJECT
100
AcDbBlockReference
  2
*U59
 10
2025.4000000044971
 20
1409.000000003128
 30
0.0
  0
LINE
  5
76A
100
AcDbEntity
  8
OBJECT
100
AcDbLine
 10
2674.3920000044973
 20
230.00000000312798
 30
0.0
 11
2636.3920000044973
 21
230.00000000312798
 31
0.0
  0
POLYLINE
  5
76B
100
AcDbEntity
  8
OBJECT
100
AcDb2dPolyline
 66
               1
 10
0.0
 20
0.0
 30
0.0
 70
             129
  0
VERTEX
  5
76C
100
AcDbEntity
  8
OBJECT
100
AcDbVertex
100
AcDb2dVertex
 10
2672.3920000044973
 20
230.00000000312798
 30
0.0
  0
VERTEX
  5
76D
100
AcDbEntity
  8
OBJECT
100
AcDbVertex
100
AcDb2dVertex
 10
2638.3920000044973
 20
230.00000000312798
 30
0.0
  0
VERTEX
  5
76E
100
AcDbEntity
  8
OBJECT
100
AcDbVertex
100
AcDb2dVertex
 10
2638.3920000044973
 20
195.00000000312798
 30
0.0
 42
0.414213562373095
 70
               2
  0
VERTEX
  5
76F
100
AcDbEntity
  8
OBJECT
100
AcDbVertex
100
AcDb2dVertex
 10
2643.3920000044973
 20
190.00000000312798
 30
0.0
  0
VERTEX
  5
770
100
AcDbEntity
  8
OBJECT
100
AcDbVertex
100
AcDb2dVertex
 10
2667.3920000044973
 20
190.00000000312798
 30
0.0
 42
0.414213562373095
 70
               2
 50
3.1191399769264294E+17
  0
VERTEX
  5
771
100
AcDbEntity
  8
OBJECT
100
AcDbVertex
100
AcDb2dVertex
 10
2672.3920000044973
 20
195.00000000312798
 30
0.0
  0
SEQEND
  5
772
100
AcDbEntity
  8
OBJECT
  0
LINE
  5
773
100
AcDbEntity
  8
OBJECT
100
AcDbLine
 10
2646.8920000044973
 20
192.00000000312798
 30
0.0
 11
2646.8920000044973
 21
209.00000000312798
 31
0.0
  0
LINE
  5
774
100
AcDbEntity
  8
OBJECT
100
AcDbLine
 10
2664.3920000044973
 20
192.00000000312798
 30
0.0
 11
2664.3920000044973
 21
209.00000000312798
 31
0.0
  0
SPLINE
  5
775
100
AcDbEntity
  8
OBJECT
100
AcDbSpline
210
0.0
220
0.0
230
1.0
 70
               8
 71
               2
 72
              10
 73
               7
 74
               0
 42
0.000001
 43
0.000001
 40
0.0
 40
0.0
 40
0.0
 40
0.2391095954640664
 40
0.2391095954640664
 40
0.7708424925849841
 40
0.7708424925849841
 40
1.0
 40
1.0
 40
1.0
 10
2671.8920000044973
 20
212.00000000312798
 30
0.0
 10
2669.8920000044973
 20
213.00000000312798
 30
0.0
 10
2664.3920000044973
 20
209.00000000312798
 30
0.0
 10
2655.3920000044973
 20
214.50000000312798
 30
0.0
 10
2646.8920000044973
 20
209.00000000312798
 30
0.0
 10
2642.8920000044973
 20
213.00000000312798
 30
0.0
 10
2639.8920000044973
 20
212.00000000312798
 30
0.0
  0
INSERT
  5
776
100
AcDbEntity
  8
OBJECT
100
AcDbBlockReference
  2
*U60
 10
2025.4000000044971
 20
1409.000000003128
 30
0.0
  0
LINE
  5
777
100
AcDbEntity
  8
OBJECT
100
AcDbLine
 10
3264.3920000044973
 20
230.00000000312798
 30
0.0
 11
3226.3920000044973
 21
230.00000000312798
 31
0.0
  0
POLYLINE
  5
778
100
AcDbEntity
  8
OBJECT
100
AcDb2dPolyline
 66
               1
 10
0.0
 20
0.0
 30
0.0
 70
             129
  0
VERTEX
  5
779
100
AcDbEntity
  8
OBJECT
100
AcDbVertex
100
AcDb2dVertex
 10
3262.3920000044973
 20
230.00000000312798
 30
0.0
  0
VERTEX
  5
77A
100
AcDbEntity
  8
OBJECT
100
AcDbVertex
100
AcDb2dVertex
 10
3228.3920000044973
 20
230.00000000312798
 30
0.0
  0
VERTEX
  5
77B
100
AcDbEntity
  8
OBJECT
100
AcDbVertex
100
AcDb2dVertex
 10
3228.3920000044973
 20
195.00000000312798
 30
0.0
 42
0.4142135623730817
 70
               2
  0
VERTEX
  5
77C
100
AcDbEntity
  8
OBJECT
100
AcDbVertex
100
AcDb2dVertex
 10
3233.3920000044973
 20
190.00000000312798
 30
0.0
  0
VERTEX
  5
77D
100
AcDbEntity
  8
OBJECT
100
AcDbVertex
100
AcDb2dVertex
 10
3257.3920000044973
 20
190.00000000312798
 30
0.0
 42
0.414213562373095
 70
               2
 50
3.1191399769264294E+17
  0
VERTEX
  5
77E
100
AcDbEntity
  8
OBJECT
100
AcDbVertex
100
AcDb2dVertex
 10
3262.3920000044973
 20
195.00000000312798
 30
0.0
  0
SEQEND
  5
77F
100
AcDbEntity
  8
OBJECT
  0
LINE
  5
780
100
AcDbEntity
  8
OBJECT
100
AcDbLine
 10
3236.8920000044973
 20
192.00000000312798
 30
0.0
 11
3236.8920000044973
 21
209.00000000312798
 31
0.0
  0
LINE
  5
781
100
AcDbEntity
  8
OBJECT
100
AcDbLine
 10
3254.3920000044973
 20
192.00000000312798
 30
0.0
 11
3254.3920000044973
 21
209.00000000312798
 31
0.0
  0
SPLINE
  5
782
100
AcDbEntity
  8
OBJECT
100
AcDbSpline
210
0.0
220
0.0
230
1.0
 70
               8
 71
               2
 72
              10
 73
               7
 74
               0
 42
0.000001
 43
0.000001
 40
0.0
 40
0.0
 40
0.0
 40
0.2391095954640664
 40
0.2391095954640664
 40
0.7708424925849841
 40
0.7708424925849841
 40
1.0
 40
1.0
 40
1.0
 10
3261.8920000044973
 20
212.00000000312798
 30
0.0
 10
3259.8920000044973
 20
213.00000000312798
 30
0.0
 10
3254.3920000044973
 20
209.00000000312798
 30
0.0
 10
3245.3920000044973
 20
214.50000000312798
 30
0.0
 10
3236.8920000044973
 20
209.00000000312798
 30
0.0
 10
3232.8920000044973
 20
213.00000000312798
 30
0.0
 10
3229.8920000044973
 20
212.00000000312798
 30
0.0
  0
POINT
  5
783
100
AcDbEntity
  8
DIMENTION
  6
CONTINUOUS
100
AcDbPoint
 10
2950.3920000044973
 20
990.00000000312798
 30
0.0
  0
INSERT
  5
784
100
AcDbEntity
  8
FRAME
100
AcDbBlockReference
  2
*U66
 10
2025.4000000044971
 20
1409.000000003128
 30
0.0
  0
MTEXT
  5
785
100
AcDbEntity
  8
TEXT
100
AcDbMText
 10
1004.5
 20
42.0
 30
0.0
 40
28.222222222222229
 41
0.0
 71
               1
 72
               1
  1
24.02.06
  7
________
  0
MTEXT
  5
786
100
AcDbEntity
  8
TEXT
100
AcDbMText
 10
1018.3883111100301
 20
86.152999999999793
 30
0.0
 40
28.222222222222229
 41
0.0
 71
               1
 72
               1
  1
下　野
  7
________
  0
MTEXT
  5
787
100
AcDbEntity
  8
TEXT
100
AcDbMText
 10
1018.3883111100301
 20
132.15299999999979
 30
0.0
 40
28.222222222222229
 41
0.0
 71
               1
 72
               1
  1
大　谷
  7
________
  0
MTEXT
  5
788
100
AcDbEntity
  8
DIMENTION
100
AcDbMText
 10
830.64833360248144
 20
344.16666666666674
 30
0.0
 40
33.866666666666667
 41
0.0
 71
               1
 72
               1
  1
操作パネル
  7
________
  0
MTEXT
  5
789
100
AcDbEntity
  8
DIMENTION
100
AcDbMText
 10
1211.5
 20
357.16666666666652
 30
0.0
 40
33.866666666666667
 41
0.0
 71
               1
 72
               1
  1
温度計
  7
________
  0
LINE
  5
78A
100
AcDbEntity
  8
DIMENTION
100
AcDbLine
 10
1345.6383333333333
 20
313.30716666353851
 30
0.0
 11
1205.6383333333333
 21
313.30716666353851
 31
0.0
  0
LINE
  5
78B
100
AcDbEntity
  8
DIMENTION
100
AcDbLine
 10
1345.6383333333333
 20
313.30716666353851
 30
0.0
 11
1575.2462131826846
 21
547.77061904953234
 31
0.0
  0
LINE
  5
78C
100
AcDbEntity
  8
DIMENTION
100
AcDbLine
 10
1575.2462131826846
 20
547.77061904953234
 30
0.0
 11
1558.8112038186746
 21
519.30434780819667
 31
0.0
  0
LINE
  5
78D
100
AcDbEntity
  8
DIMENTION
100
AcDbLine
 10
1575.2462131826846
 20
547.77061904953234
 30
0.0
 11
1546.7799419413489
 21
531.33560968552229
 31
0.0
  0
LINE
  5
78E
100
AcDbEntity
  8
DIMENTION
100
AcDbLine
 10
1047.8971224989941
 20
300.81976666979449
 30
0.0
 11
827.89712249899435
 21
300.81976666979449
 31
0.0
  0
LINE
  5
78F
100
AcDbEntity
  8
DIMENTION
100
AcDbLine
 10
1047.8971224989941
 20
300.81976666979449
 30
0.0
 11
1541.8920000044973
 21
733.50000000312821
 31
0.0
  0
LINE
  5
790
100
AcDbEntity
  8
DIMENTION
100
AcDbLine
 10
1541.8920000044973
 20
733.50000000312821
 30
0.0
 11
1523.5113187948377
 21
706.24951946701162
 31
0.0
  0
LINE
  5
791
100
AcDbEntity
  8
DIMENTION
100
AcDbLine
 10
1541.8920000044973
 20
733.50000000312821
 30
0.0
 11
1512.3486228700106
 21
719.09073219834761
 31
0.0
  0
POINT
  5
792
100
AcDbEntity
  8
OBJECT
  6
CONTINUOUS
100
AcDbPoint
 10
1175.3920000044973
 20
990.00000000312798
 30
0.0
  0
INSERT
  5
793
100
AcDbEntity
  8
OBJECT
100
AcDbBlockReference
  2
*U67
 10
2025.4000000044971
 20
1409.000000003128
 30
0.0
  0
INSERT
  5
794
100
AcDbEntity
  8
OBJECT
100
AcDbBlockReference
  2
*U68
 10
2025.4000000044971
 20
1409.000000003128
 30
0.0
  0
INSERT
  5
795
100
AcDbEntity
  8
OUTLINE
100
AcDbBlockReference
  2
*U69
 10
2025.4000000044971
 20
1409.000000003128
 30
0.0
  0
INSERT
  5
796
100
AcDbEntity
  8
OUTLINE
100
AcDbBlockReference
  2
*U70
 10
2025.4000000044971
 20
1409.000000003128
 30
0.0
  0
LINE
  5
797
100
AcDbEntity
  8
OBJECT
  6
STYLE_08
100
AcDbLine
 10
1783.3920000044973
 20
990.00000000312798
 30
0.0
 11
2083.3920000044973
 21
990.00000000312798
 31
0.0
  0
LINE
  5
798
100
AcDbEntity
  8
OBJECT
  6
STYLE_08
100
AcDbLine
 10
1999.3920000044973
 20
1010.000000003128
 30
0.0
 11
2083.3920000044973
 21
1010.000000003128
 31
0.0
  0
MTEXT
  5
799
100
AcDbEntity
  8
DIMENTION
100
AcDbMText
 10
2064.0201777366215
 20
1526.5555000546578
 30
0.0
 40
33.866666666666667
 41
0.0
 71
               1
 72
               1
  1
防水板\P(付属品)
  7
________
  0
LINE
  5
79A
100
AcDbEntity
  8
DIMENTION
100
AcDbLine
 10
2057.4799999619663
 20
1481.6960000515298
 30
0.0
 11
2217.4799999619663
 21
1481.6960000515298
 31
0.0
  0
LINE
  5
79B
100
AcDbEntity
  8
DIMENTION
100
AcDbLine
 10
1912.7840000089946
 20
1310.0000000985581
 30
0.0
 11
2057.4799999619663
 21
1481.6960000515298
 31
0.0
  0
LINE
  5
79C
100
AcDbEntity
  8
DIMENTION
100
AcDbLine
 10
1912.7840000089946
 20
1310.0000000985581
 30
0.0
 11
1927.193267813775
 21
1339.5433772330448
 31
0.0
  0
LINE
  5
79D
100
AcDbEntity
  8
DIMENTION
100
AcDbLine
 10
1912.7840000089946
 20
1310.0000000985581
 30
0.0
 11
1940.0344805451109
 21
1328.3806813082176
 31
0.0
  0
MTEXT
  5
79E
100
AcDbEntity
  8
DIMENTION
100
AcDbMText
 10
2186.1142222267194
 20
1018.9722222222219
 30
0.0
 40
33.866666666666667
 41
0.0
 71
               1
 72
               1
  1
(テーブルカマチ高さ)
  7
________
 11
0.0
 21
1.0
 31
0.0
  0
DIMENSION
  5
79F
100
AcDbEntity
  8
DIMENTION
100
AcDbDimension
  2
*D71
 10
1760.3920000044973
 20
1623.0000000031278
 30
0.0
 11
1820.3920000044973
 21
1623.0000000031278
 31
0.0
  3
CAD
100
AcDbAlignedDimension
 13
1880.3920000044973
 23
1530.0000000031278
 33
0.0
 14
1760.3920000044973
 24
1530.0000000031278
 34
0.0
100
AcDbRotatedDimension
1001
ACAD
1000
DSTYLE
1002
{
1070
             340
1005
6A
1070
             147
1040
0.9999999962747097
1002
}
  0
DIMENSION
  5
7A0
100
AcDbEntity
  8
DIMENTION
100
AcDbDimension
  2
*D72
 10
470.39200000449705
 20
1623.0000000031278
 30
0.0
 11
530.39200000449705
 21
1623.0000000031278
 31
0.0
  3
CAD
100
AcDbAlignedDimension
 13
590.39200000449705
 23
1530.0000000031278
 33
0.0
 14
470.39200000449705
 24
1530.0000000031278
 34
0.0
100
AcDbRotatedDimension
1001
ACAD
1000
DSTYLE
1002
{
1070
             340
1005
6A
1070
             147
1040
0.9999999962747097
1002
}
  0
DIMENSION
  5
7A1
100
AcDbEntity
  8
DIMENTION
100
AcDbDimension
  2
*D73
 10
356.39200000449705
 20
1530.0000000031278
 30
0.0
 11
356.39200000449705
 21
1490.0000000031278
 31
0.0
  3
CAD
100
AcDbAlignedDimension
 13
470.39200000449705
 23
1450.0000000031278
 33
0.0
 14
470.39200000449705
 24
1530.0000000031278
 34
0.0
 50
90.0
100
AcDbRotatedDimension
1001
ACAD
1000
DSTYLE
1002
{
1070
             340
1005
6A
1070
             147
1040
0.9999999962747097
1002
}
  0
MTEXT
  5
7A2
100
AcDbEntity
  8
DIMENTION
100
AcDbMText
 10
1968.8988444458189
 20
1627.159500003128
 30
0.0
 40
33.866666666666667
 41
0.0
 71
               1
 72
               1
  1
カーテン取付枠
  7
________
  0
LINE
  5
7A3
100
AcDbEntity
  8
DIMENTION
100
AcDbLine
 10
1880.3920000044973
 20
1490.0000000031278
 30
0.0
 11
1957.3920000044973
 21
1581.9999999999998
 31
0.0
  0
LINE
  5
7A4
100
AcDbEntity
  8
DIMENTION
100
AcDbLine
 10
1880.3920000044973
 20
1490.0000000031278
 30
0.0
 11
1894.2834701827173
 21
1519.7903539363729
 31
0.0
  0
LINE
  5
7A5
100
AcDbEntity
  8
DIMENTION
100
AcDbLine
 10
1880.3920000044973
 20
1490.0000000031278
 30
0.0
 11
1907.3175430413723
 21
1508.8534682079378
 31
0.0
  0
LINE
  5
7A6
100
AcDbEntity
  8
DIMENTION
100
AcDbLine
 10
1957.3920000044973
 20
1581.9999999999998
 30
0.0
 11
2247.3920000044973
 21
1581.9999999999998
 31
0.0
  0
DIMENSION
  5
7A7
100
AcDbEntity
  8
DIMENTION
100
AcDbDimension
  2
*D74
 10
2066.3920000044973
 20
1010.000000003128
 30
0.0
 11
2066.3920000044973
 21
1160.0000000508428
 31
0.0
  3
CAD
100
AcDbAlignedDimension
 13
1930.3920000044973
 23
1310.0000000985576
 33
0.0
 14
2010.3920000044973
 24
1010.000000003128
 34
0.0
 50
90.0
100
AcDbRotatedDimension
1001
ACAD
1000
DSTYLE
1002
{
1070
             340
1005
6A
1070
             147
1040
0.9999999962747097
1002
}
  0
DIMENSION
  5
7A8
100
AcDbEntity
  8
DIMENTION
100
AcDbDimension
  2
*D75
 10
2010.3920000044973
 20
1352.0
 30
0.0
 11
1885.3920000044973
 21
1352.0
 31
0.0
  3
CAD
100
AcDbAlignedDimension
 13
1760.3920000044973
 23
1310.0000000985613
 33
0.0
 14
2010.3920000044973
 24
1230.0000000985535
 34
0.0
100
AcDbRotatedDimension
1001
ACAD
1000
DSTYLE
1002
{
1070
             340
1005
6A
1070
             147
1040
0.9999999962747097
1002
}
  0
DIMENSION
  5
7A9
100
AcDbEntity
  8
DIMENTION
100
AcDbDimension
  2
*D76
 10
2172.7840000089946
 20
1010.000000003128
 30
0.0
 11
2173.7840000052693
 21
1015.0
 31
0.0
 70
             128
  3
CAD
100
AcDbAlignedDimension
 13
2083.3920000044973
 23
990.00000000312798
 33
0.0
 14
2083.3920000044973
 24
1010.000000003128
 34
0.0
 50
90.0
100
AcDbRotatedDimension
1001
ACAD
1000
DSTYLE
1002
{
1070
             340
1005
6A
1070
               3
1000
　　<>～30
1070
             174
1070
               0
1070
             147
1040
0.9999999962747097
1002
}
  0
POINT
  5
7AA
100
AcDbEntity
  8
OBJECT
  6
CONTINUOUS
100
AcDbPoint
 10
1175.3920000044973
 20
990.00000000312798
 30
0.0
  0
LINE
  5
7AB
100
AcDbEntity
  8
OBJECT
100
AcDbLine
 10
2633.3920000044973
 20
1450.000000003128
 30
0.0
 11
3278.3920000044973
 21
1450.000000003128
 31
0.0
  0
LINE
  5
7AC
100
AcDbEntity
  8
OBJECT
100
AcDbLine
 10
3278.3920000044973
 20
1360.000000003128
 30
0.0
 11
3251.3920000044973
 21
1360.000000003128
 31
0.0
  0
LINE
  5
7AD
100
AcDbEntity
  8
OBJECT
100
AcDbLine
 10
3251.3920000044973
 20
1360.000000003128
 30
0.0
 11
3251.3920000044973
 21
1450.000000003128
 31
0.0
  0
LINE
  5
7AE
100
AcDbEntity
  8
OBJECT
100
AcDbLine
 10
2633.3920000044973
 20
1360.000000003128
 30
0.0
 11
2660.3920000044973
 21
1360.000000003128
 31
0.0
  0
LINE
  5
7AF
100
AcDbEntity
  8
OBJECT
100
AcDbLine
 10
2660.3920000044973
 20
1360.000000003128
 30
0.0
 11
2660.3920000044973
 21
1450.000000003128
 31
0.0
  0
POINT
  5
7B0
100
AcDbEntity
  8
DIMENTION
  6
CONTINUOUS
100
AcDbPoint
 10
2950.3920000044973
 20
1530.000000003128
 30
0.0
  0
MTEXT
  5
7B1
100
AcDbEntity
  8
TEXT
100
AcDbMText
 10
3136.0
 20
74.986000003128083
 30
0.0
 40
39.511200000000002
 41
0.0
 71
               1
 72
               1
  1
1：10
  7
________
  0
MTEXT
  5
7B2
100
AcDbEntity
  8
TEXT
100
AcDbMText
 10
3501.0
 20
1775.0
 30
0.0
 40
33.866666666666667
 41
0.0
 71
               1
 72
               1
  1
日ガス検　形式認証番号\P　　　　　     T22E001011-A01\P防火評定　申請番号\P　　　　　     T22P201010-A01\P給水装置　形式認証番号\P　　　　　     TW4003
  7
________
  0
MTEXT
  5
7B3
100
AcDbEntity
  8
TEXT
100
AcDbMText
 10
3488.0
 20
1438.1805555555557
 30
0.0
 40
33.866666666666667
 41
0.0
 71
               1
 72
               1
  1
可燃物からの離隔距離（cm）
  7
________
  0
LINE
  5
7B4
100
AcDbEntity
  8
TEXT
100
AcDbLine
 10
3455.0
 20
1384.1805555555557
 30
0.0
 11
4015.0
 21
1384.1805555555557
 31
0.0
  0
LINE
  5
7B5
100
AcDbEntity
  8
TEXT
100
AcDbLine
 10
3455.0
 20
1454.1805555555557
 30
0.0
 11
4015.0
 21
1454.1805555555557
 31
0.0
  0
LINE
  5
7B6
100
AcDbEntity
  8
TEXT
100
AcDbLine
 10
3455.0
 20
1314.1805555555557
 30
0.0
 11
4015.0
 21
1314.1805555555557
 31
0.0
  0
LINE
  5
7B7
100
AcDbEntity
  8
TEXT
100
AcDbLine
 10
3455.0
 20
1244.1805555555557
 30
0.0
 11
4015.0
 21
1244.1805555555557
 31
0.0
  0
LINE
  5
7B8
100
AcDbEntity
  8
TEXT
100
AcDbLine
 10
3455.0
 20
1244.1805555555557
 30
0.0
 11
3455.0
 21
1454.1805555555557
 31
0.0
  0
LINE
  5
7B9
100
AcDbEntity
  8
TEXT
100
AcDbLine
 10
4015.0
 20
1244.1805555555557
 30
0.0
 11
4015.0
 21
1454.1805555555557
 31
0.0
  0
LINE
  5
7BA
100
AcDbEntity
  8
TEXT
100
AcDbLine
 10
3595.0
 20
1244.1805555555557
 30
0.0
 11
3595.0
 21
1384.1805555555557
 31
0.0
  0
LINE
  5
7BB
100
AcDbEntity
  8
TEXT
100
AcDbLine
 10
3735.0
 20
1244.1805555555557
 30
0.0
 11
3735.0
 21
1384.1805555555557
 31
0.0
  0
LINE
  5
7BC
100
AcDbEntity
  8
TEXT
100
AcDbLine
 10
3875.0
 20
1244.1805555555557
 30
0.0
 11
3875.0
 21
1384.1805555555557
 31
0.0
  0
MTEXT
  5
7BD
100
AcDbEntity
  8
TEXT
100
AcDbMText
 10
3477.0
 20
1371.1805555555557
 30
0.0
 40
33.866666666666667
 41
0.0
 71
               1
 72
               1
  1
上方
  7
________
  0
MTEXT
  5
7BE
100
AcDbEntity
  8
TEXT
100
AcDbMText
 10
3473.0
 20
1301.1805555555557
 30
0.0
 40
33.866666666666667
 41
0.0
 71
               1
 72
               1
  1
フード
  7
________
  0
MTEXT
  5
7BF
100
AcDbEntity
  8
TEXT
100
AcDbMText
 10
3622.0
 20
1371.1805555555557
 30
0.0
 40
33.866666666666667
 41
0.0
 71
               1
 72
               1
  1
側方
  7
________
  0
MTEXT
  5
7C0
100
AcDbEntity
  8
TEXT
100
AcDbMText
 10
3608.0
 20
1303.1805555555557
 30
0.0
 40
33.866666666666667
 41
0.0
 71
               1
 72
               1
  1
０以上
  7
________
  0
MTEXT
  5
7C1
100
AcDbEntity
  8
TEXT
100
AcDbMText
 10
3762.0
 20
1371.1805555555557
 30
0.0
 40
33.866666666666667
 41
0.0
 71
               1
 72
               1
  1
前方
  7
________
  0
MTEXT
  5
7C2
100
AcDbEntity
  8
TEXT
100
AcDbMText
 10
3902.0
 20
1371.1805555555557
 30
0.0
 40
33.866666666666667
 41
0.0
 71
               1
 72
               1
  1
後方
  7
________
  0
MTEXT
  5
7C3
100
AcDbEntity
  8
TEXT
100
AcDbMText
 10
3888.0
 20
1303.1805555555557
 30
0.0
 40
33.866666666666667
 41
0.0
 71
               1
 72
               1
  1
０以上
  7
________
  0
LINE
  5
7C4
100
AcDbEntity
  8
TEXT
100
AcDbLine
 10
3735.0
 20
1244.1805555555557
 30
0.0
 11
3875.0
 21
1314.1805555555557
 31
0.0
  0
LINE
  5
7C5
100
AcDbEntity
  8
DIMENTION
100
AcDbLine
 10
2057.4799999619663
 20
1431.6960000515298
 30
0.0
 11
2217.4799999619663
 21
1431.6960000515298
 31
0.0
  0
LINE
  5
7C6
100
AcDbEntity
  8
DIMENTION
  6
CONTINUOUS
100
AcDbLine
 10
2057.4799999619663
 20
1481.6960000515298
 30
0.0
 11
2057.4799999619663
 21
1431.6960000515298
 31
0.0
  0
POLYLINE
  5
7C7
100
AcDbEntity
  8
TEXT
100
AcDb2dPolyline
 66
               1
 10
0.0
 20
0.0
 30
0.0
 70
               1
 75
               5
  0
VERTEX
  5
7C8
100
AcDbEntity
  8
TEXT
100
AcDbVertex
100
AcDb2dVertex
 10
2233.5419200931551
 20
2705.0000000031278
 30
0.0
  0
VERTEX
  5
7C9
100
AcDbEntity
  8
TEXT
100
AcDbVertex
100
AcDb2dVertex
 10
3133.5419200931547
 20
2705.0000000031278
 30
0.0
  0
VERTEX
  5
7CA
100
AcDbEntity
  8
TEXT
100
AcDbVertex
100
AcDb2dVertex
 10
3133.5419200931547
 20
1957.0000000031282
 30
0.0
  0
VERTEX
  5
7CB
100
AcDbEntity
  8
TEXT
100
AcDbVertex
100
AcDb2dVertex
 10
2233.5419200931551
 20
1957.0000000031282
 30
0.0
  0
SEQEND
  5
7CC
100
AcDbEntity
  8
TEXT
  0
LINE
  5
7CD
100
AcDbEntity
  8
TEXT
100
AcDbLine
 10
2388.5499200931549
 20
2705.0000000031278
 30
0.0
 11
2388.5499200931549
 21
2573.0000000031278
 31
0.0
  0
LINE
  5
7CE
100
AcDbEntity
  8
TEXT
100
AcDbLine
 10
2388.5499200931549
 20
2617.0000000031278
 30
0.0
 11
3133.5499200931549
 21
2617.0000000031278
 31
0.0
  0
LINE
  5
7CF
100
AcDbEntity
  8
TEXT
100
AcDbLine
 10
2233.5499200931549
 20
2573.0000000031278
 30
0.0
 11
3133.5499200931549
 21
2573.0000000031278
 31
0.0
  0
LINE
  5
7D0
100
AcDbEntity
  8
TEXT
100
AcDbLine
 10
2233.5499200931549
 20
2485.0000000031278
 30
0.0
 11
3133.5499200931549
 21
2485.0000000031278
 31
0.0
  0
LINE
  5
7D1
100
AcDbEntity
  8
TEXT
100
AcDbLine
 10
2233.5499200931549
 20
2441.0000000031278
 30
0.0
 11
3133.5499200931549
 21
2441.0000000031278
 31
0.0
  0
LINE
  5
7D2
100
AcDbEntity
  8
TEXT
100
AcDbLine
 10
2233.5499200931549
 20
2397.0000000031278
 30
0.0
 11
3133.5499200931549
 21
2397.0000000031278
 31
0.0
  0
LINE
  5
7D3
100
AcDbEntity
  8
TEXT
100
AcDbLine
 10
2233.5499200931549
 20
2177.0000000031282
 30
0.0
 11
3133.5499200931549
 21
2177.0000000031282
 31
0.0
  0
LINE
  5
7D4
100
AcDbEntity
  8
TEXT
100
AcDbLine
 10
2511.5499200931549
 20
2705.0000000031278
 30
0.0
 11
2511.5499200931549
 21
1957.0000000031282
 31
0.0
  0
MTEXT
  5
7D5
100
AcDbEntity
  8
TEXT
100
AcDbMText
 10
2244.1333200931549
 20
2655.8715000031279
 30
0.0
 40
25.400000000000002
 41
0.0
 71
               1
 72
               1
  1
洗浄方式
  7
________
  0
MTEXT
  5
7D6
100
AcDbEntity
  8
TEXT
100
AcDbMText
 10
2401.0489200931552
 20
2691.875
 30
0.0
 40
25.400000000000002
 41
0.0
 71
               1
 72
               1
  1
洗　浄\P
  7
________
  0
MTEXT
  5
7D7
100
AcDbEntity
  8
TEXT
100
AcDbMText
 10
2526.9388200931548
 20
2697.9445000031283
 30
0.0
 40
25.400000000000002
 41
0.0
 71
               1
 72
               1
  1
上部４エンドアーム回転ノズル\P下部カーテンジェットノズル
  7
________
  0
POLYLINE
  5
7D8
100
AcDbEntity
  8
TEXT
100
AcDb2dPolyline
 66
               1
 10
0.0
 20
0.0
 30
0.0
 70
               1
 75
               5
  0
VERTEX
  5
7D9
100
AcDbEntity
  8
TEXT
100
AcDbVertex
100
AcDb2dVertex
 10
3133.5419200931547
 20
2705.0000000031278
 30
0.0
  0
VERTEX
  5
7DA
100
AcDbEntity
  8
TEXT
100
AcDbVertex
100
AcDb2dVertex
 10
4053.5419200931547
 20
2705.0000000031278
 30
0.0
  0
VERTEX
  5
7DB
100
AcDbEntity
  8
TEXT
100
AcDbVertex
100
AcDb2dVertex
 10
4053.5419200931547
 20
1957.0000000031282
 30
0.0
  0
VERTEX
  5
7DC
100
AcDbEntity
  8
TEXT
100
AcDbVertex
100
AcDb2dVertex
 10
3133.5419200931547
 20
1957.0000000031282
 30
0.0
  0
SEQEND
  5
7DD
100
AcDbEntity
  8
TEXT
  0
LINE
  5
7DE
100
AcDbEntity
  8
TEXT
100
AcDbLine
 10
3133.5499200931549
 20
2661.0000000031278
 30
0.0
 11
4053.5419200931547
 21
2661.0000000031278
 31
0.0
  0
LINE
  5
7DF
100
AcDbEntity
  8
TEXT
100
AcDbLine
 10
3133.5499200931549
 20
2573.0000000031278
 30
0.0
 11
4053.5419200931547
 21
2573.0000000031278
 31
0.0
  0
LINE
  5
7E0
100
AcDbEntity
  8
TEXT
100
AcDbLine
 10
3133.5499200931549
 20
2529.0000000031278
 30
0.0
 11
4053.5419200931547
 21
2529.0000000031278
 31
0.0
  0
LINE
  5
7E1
100
AcDbEntity
  8
TEXT
100
AcDbLine
 10
3133.5499200931549
 20
2397.0000000031278
 30
0.0
 11
4053.5419200931547
 21
2397.0000000031278
 31
0.0
  0
LINE
  5
7E2
100
AcDbEntity
  8
TEXT
100
AcDbLine
 10
3133.5499200931549
 20
2353.0000000031282
 30
0.0
 11
4053.5419200931547
 21
2353.0000000031282
 31
0.0
  0
LINE
  5
7E3
100
AcDbEntity
  8
TEXT
100
AcDbLine
 10
3473.5499200931549
 20
2705.0000000031278
 30
0.0
 11
3473.5499200931549
 21
2353.0000000031282
 31
0.0
  0
LINE
  5
7E4
100
AcDbEntity
  8
TEXT
100
AcDbLine
 10
2233.5499200931549
 20
2353.0000000031282
 30
0.0
 11
3133.5499200931549
 21
2353.0000000031282
 31
0.0
  0
LINE
  5
7E5
100
AcDbEntity
  8
TEXT
100
AcDbLine
 10
3133.5499200931549
 20
2485.0000000031278
 30
0.0
 11
4053.5419200931547
 21
2485.0000000031278
 31
0.0
  0
LINE
  5
7E6
100
AcDbEntity
  8
TEXT
100
AcDbLine
 10
3393.5499200931549
 20
2353.0000000031282
 30
0.0
 11
3393.5499200931549
 21
1957.0000000031282
 31
0.0
  0
MTEXT
  5
7E7
100
AcDbEntity
  8
TEXT
100
AcDbMText
 10
3149.5499200931549
 20
2346.3588000031282
 30
0.0
 40
25.400000000000002
 41
0.0
 71
               1
 72
               1
  1
ガスブースター
  7
________
  0
MTEXT
  5
7E8
100
AcDbEntity
  8
TEXT
100
AcDbMText
 10
3408.161020093155
 20
2344.083300003128
 30
0.0
 40
25.400000000000002
 41
0.0
 71
               1
 72
               1
  3
ガス消費量\P都市ガス　：20kW\P　（13A） （17,000 kcal／ h，1.5 m ／h）\PＬＰガス　：18.5kW\P　　　　　 （16,000 kcal／ h，1.33 kg／ h）\P温度制御　：サーミスター方式\P　　　　　　65 ℃, 75 ℃, 85 ℃の\P　　　　　　3段階設定電子式\P点火方式　：電子式ダイ
  1
レクト点火\P炎検出方式：フレームロッド検出\P
  7
________
  0
LINE
  5
7E9
100
AcDbEntity
  8
TEXT
100
AcDbLine
 10
3133.5499200931549
 20
2617.0000000031278
 30
0.0
 11
4053.5419200931547
 21
2617.0000000031278
 31
0.0
  0
LINE
  5
7EA
100
AcDbEntity
  8
TEXT
100
AcDbLine
 10
2233.5499200931549
 20
2045.0000000031282
 30
0.0
 11
3133.5499200931549
 21
2045.0000000031282
 31
0.0
  0
LINE
  5
7EB
100
AcDbEntity
  8
TEXT
100
AcDbLine
 10
2233.5499200931549
 20
2001.0000000031282
 30
0.0
 11
3133.5499200931549
 21
2001.0000000031282
 31
0.0
  0
LINE
  5
7EC
100
AcDbEntity
  8
TEXT
100
AcDbLine
 10
3133.5499200931549
 20
2441.0000000031278
 30
0.0
 11
4053.5419200931547
 21
2441.0000000031278
 31
0.0
  0
MTEXT
  5
7ED
100
AcDbEntity
  8
TEXT
100
AcDbMText
 10
2868.2141423108801
 20
2234.0555555555557
 30
0.0
 40
11.28888888888889
 41
0.0
 71
               1
 72
               1
  1
2
  7
________
  0
MTEXT
  5
7EE
100
AcDbEntity
  8
TEXT
100
AcDbMText
 10
3825.0141423108798
 20
2266.5555555555557
 30
0.0
 40
11.28888888888889
 41
0.0
 71
               1
 72
               1
  1
3
  7
________
  0
MTEXT
  5
7EF
100
AcDbEntity
  8
TEXT
100
AcDbMText
 10
2401.0489200931552
 20
2611.875
 30
0.0
 40
25.400000000000002
 41
0.0
 71
               1
 72
               1
  1
すすぎ\P
  7
________
  0
MTEXT
  5
7F0
100
AcDbEntity
  8
DIMENTION
100
AcDbMText
 10
2527.5419200886581
 20
2612.0
 30
0.0
 40
25.58230711729583
 41
0.0
 71
               1
 72
               1
  1
上, 下固定ノ{\H0.9615x;\lズルスプレー}
  7
________
  0
MTEXT
  5
7F1
100
AcDbEntity
  8
TEXT
100
AcDbMText
 10
2247.5419200886581
 20
2562.0
 30
0.0
 40
25.400000000000002
 41
0.0
 71
               1
 72
               1
  1
ラ ッ ク 処 理 数
  7
________
  0
MTEXT
  5
7F2
100
AcDbEntity
  8
DIMENTION
100
AcDbMText
 10
2527.5419200886581
 20
2564.0
 30
0.0
 40
24.598372228169069
 41
0.0
 71
               1
 72
               1
  1
170ラック／ h\P(500mm 角型 ラック)
  7
________
  0
MTEXT
  5
7F3
100
AcDbEntity
  8
TEXT
100
AcDbMText
 10
2247.5419200886581
 20
2478.0
 30
0.0
 40
25.400000000000002
 41
0.0
 71
               1
 72
               1
  1
ラック送り速度
  7
________
  0
MTEXT
  5
7F4
100
AcDbEntity
  8
DIMENTION
100
AcDbMText
 10
2527.5419200886581
 20
2480.0
 30
0.0
 40
24.598372228169069
 41
0.0
 71
               1
 72
               1
  1
1.4 m／ min
  7
________
  0
MTEXT
  5
7F5
100
AcDbEntity
  8
TEXT
100
AcDbMText
 10
2247.5419200886581
 20
2434.0
 30
0.0
 40
25.400000000000002
 41
0.0
 71
               1
 72
               1
  1
すすぎ湯消費量
  7
________
  0
MTEXT
  5
7F6
100
AcDbEntity
  8
DIMENTION
100
AcDbMText
 10
2527.5419200886581
 20
2436.0
 30
0.0
 40
24.598372228169069
 41
0.0
 71
               1
 72
               1
  1
8.0 L／ min
  7
________
  0
MTEXT
  5
7F7
100
AcDbEntity
  8
TEXT
100
AcDbMText
 10
2247.5419200886581
 20
2390.0
 30
0.0
 40
25.400000000000002
 41
0.0
 71
               1
 72
               1
  1
す す ぎ 湯 温 度
  7
________
  0
MTEXT
  5
7F8
100
AcDbEntity
  8
DIMENTION
100
AcDbMText
 10
2527.5419200886581
 20
2390.0
 30
0.0
 40
23.60559298048836
 41
0.0
 71
               1
 72
               1
  1
65℃，75℃，85℃の電子式　3設定
  7
________
  0
MTEXT
  5
7F9
100
AcDbEntity
  8
TEXT
100
AcDbMText
 10
2247.5419200886581
 20
2346.0000000000005
 30
0.0
 40
25.400000000000002
 41
0.0
 71
               1
 72
               1
  1
必 要 給 湯 能 力
  7
________
  0
MTEXT
  5
7FA
100
AcDbEntity
  8
DIMENTION
100
AcDbMText
 10
2527.5419200886581
 20
2346.0000000000005
 30
0.0
 40
25.400000000000002
 41
0.0
 71
               1
 72
               1
  1
給湯温度：70℃以上\P給湯量　：8.0L／min以上\P給湯圧　：49.1kPa～491kPa\P　　　　　(0.5～5.0 kgf／ cm )
  7
________
  0
MTEXT
  5
7FB
100
AcDbEntity
  8
DIMENTION
100
AcDbMText
 10
2250.8293089432145
 20
2166.9056959978852
 30
0.0
 40
25.44911359661527
 41
0.0
 71
               1
 72
               1
  1
洗　浄　槽
  7
________
  0
MTEXT
  5
7FC
100
AcDbEntity
  8
DIMENTION
100
AcDbMText
 10
2250.8293089432145
 20
2038.905695997885
 30
0.0
 40
25.44911359661527
 41
0.0
 71
               1
 72
               1
  1
洗 浄 ポ ン プ
  7
________
  0
MTEXT
  5
7FD
100
AcDbEntity
  8
DIMENTION
100
AcDbMText
 10
2250.8293089432145
 20
1993.905695997885
 30
0.0
 40
25.44911359661527
 41
0.0
 71
               1
 72
               1
  1
す す ぎ ポ ン プ
  7
________
  0
MTEXT
  5
7FE
100
AcDbEntity
  8
TEXT
100
AcDbMText
 10
2527.7480535602526
 20
2167.041666666667
 30
0.0
 40
25.400000000000002
 41
0.0
 71
               1
 72
               1
  1
容　量：90L\P加熱方式：ヒートパイプ式\P温度制御：サーミスタ ー方式（65℃）
  7
________
  0
MTEXT
  5
7FF
100
AcDbEntity
  8
TEXT
100
AcDbMText
 10
2527.7480535602526
 20
2039.0416666666672
 30
0.0
 40
25.400000000000002
 41
0.0
 71
               1
 72
               1
  1
電動機定格出力　750W×1,　400W×1
  7
________
  0
MTEXT
  5
800
100
AcDbEntity
  8
TEXT
100
AcDbMText
 10
2527.7480535602526
 20
1994.0416666666672
 30
0.0
 40
25.400000000000002
 41
0.0
 71
               1
 72
               1
  1
電動機定格出力　50W
  7
________
  0
MTEXT
  5
801
100
AcDbEntity
  8
TEXT
100
AcDbMText
 10
3150.5419200886581
 20
2654.0
 30
0.0
 40
25.400000000000002
 41
0.0
 71
               1
 72
               1
  1
ラック送りモーター
  7
________
  0
MTEXT
  5
802
100
AcDbEntity
  8
TEXT
100
AcDbMText
 10
3150.5419200886581
 20
2611.0
 30
0.0
 40
25.400000000000002
 41
0.0
 71
               1
 72
               1
  1
ポンプ制御方式
  7
________
  0
MTEXT
  5
803
100
AcDbEntity
  8
TEXT
100
AcDbMText
 10
3150.5419200886581
 20
2568.0
 30
0.0
 40
25.400000000000002
 41
0.0
 71
               1
 72
               1
  1
排出側ラックセンサー
  7
________
  0
MTEXT
  5
804
100
AcDbEntity
  8
TEXT
100
AcDbMText
 10
3150.5419200886581
 20
2521.0
 30
0.0
 40
25.400000000000002
 41
0.0
 71
               1
 72
               1
  1
電　　　　　　源
  7
________
  0
MTEXT
  5
805
100
AcDbEntity
  8
TEXT
100
AcDbMText
 10
3150.5419200886581
 20
2478.0
 30
0.0
 40
25.400000000000002
 41
0.0
 71
               1
 72
               1
  1
消　費　電　力
  7
________
  0
MTEXT
  5
806
100
AcDbEntity
  8
TEXT
100
AcDbMText
 10
3150.5419200886581
 20
2433.0
 30
0.0
 40
25.400000000000002
 41
0.0
 71
               1
 72
               1
  1
最　大　電　流　値
  7
________
  0
MTEXT
  5
807
100
AcDbEntity
  8
TEXT
100
AcDbMText
 10
3150.5419200886581
 20
2389.0
 30
0.0
 40
25.400000000000002
 41
0.0
 71
               1
 72
               1
  1
質　　　　　　量
  7
________
  0
MTEXT
  5
808
100
AcDbEntity
  8
TEXT
100
AcDbMText
 10
3498.019410937623
 20
2654.5278000031276
 30
0.0
 40
25.400000000000002
 41
0.0
 71
               1
 72
               1
  1
電動機定格出力　100 W
  7
________
  0
MTEXT
  5
809
100
AcDbEntity
  8
TEXT
100
AcDbMText
 10
3498.019410937623
 20
2610.5278000031276
 30
0.0
 40
25.400000000000002
 41
0.0
 71
               1
 72
               1
  1
ラック検知時作動
  7
________
  0
MTEXT
  5
80A
100
AcDbEntity
  8
TEXT
100
AcDbMText
 10
3498.019410937623
 20
2566.5278000031276
 30
0.0
 40
25.400000000000002
 41
0.0
 71
               1
 72
               1
  1
自動ラック停止装置付属
  7
________
  0
MTEXT
  5
80B
100
AcDbEntity
  8
TEXT
100
AcDbMText
 10
3498.019410937623
 20
2520.5278000031276
 30
0.0
 40
25.400000000000002
 41
0.0
 71
               1
 72
               1
  1
三相 200V　50・60Hz
  7
________
  0
MTEXT
  5
80C
100
AcDbEntity
  8
TEXT
100
AcDbMText
 10
3498.019410937623
 20
2476.5278000031276
 30
0.0
 40
25.400000000000002
 41
0.0
 71
               1
 72
               1
  1
1.6 kW
  7
________
  0
MTEXT
  5
80D
100
AcDbEntity
  8
TEXT
100
AcDbMText
 10
3498.019410937623
 20
2432.5278000031276
 30
0.0
 40
25.400000000000002
 41
0.0
 71
               1
 72
               1
  1
6.0 A
  7
________
  0
MTEXT
  5
80E
100
AcDbEntity
  8
TEXT
100
AcDbMText
 10
3498.019410937623
 20
2388.5278000031276
 30
0.0
 40
25.400000000000002
 41
0.0
 71
               1
 72
               1
  1
175 kg
  7
________
  0
MTEXT
  5
80F
100
AcDbEntity
  8
TEXT
100
AcDbMText
 10
3150.5419200886581
 20
2698.0
 30
0.0
 40
25.400000000000002
 41
0.0
 71
               1
 72
               1
  1
温水循環ポンプ
  7
________
  0
MTEXT
  5
810
100
AcDbEntity
  8
TEXT
100
AcDbMText
 10
3498.019410937623
 20
2698.5278000031276
 30
0.0
 40
25.400000000000002
 41
0.0
 71
               1
 72
               1
  1
電動機定格出力　50 W
  7
________
  0
DIMENSION
  5
811
100
AcDbEntity
  8
DIMENTION
  6
CONTINUOUS
100
AcDbDimension
  2
*D77
 10
1081.0000000037253
 20
2575.0000000031278
 30
0.0
 11
1080.0000000074506
 21
2606.1666666697947
 31
0.0
 70
             128
  1
0以上
  3
CAD
100
AcDbAlignedDimension
 13
1580.392000004497
 23
2595.0000000031278
 33
0.0
 14
1580.392000004497
 24
2575.0000000031278
 34
0.0
 50
90.0
100
AcDbRotatedDimension
1001
ACAD
1000
DSTYLE
1002
{
1070
             340
1005
6A
1070
             174
1070
               0
1070
             147
1040
0.9999999962747097
1002
}
  0
ENDSEC
  0
SECTION
  2
OBJECTS
  0
DICTIONARY
  5
19
100
AcDbDictionary
  3
ACAD_GROUP
350
1A
  3
ACAD_MLINESTYLE
350
1B
  0
DICTIONARY
  5
1A
102
{ACAD_REACTORS
330
19
102
}
100
AcDbDictionary
  0
DICTIONARY
  5
1B
102
{ACAD_REACTORS
330
19
102
}
100
AcDbDictionary
  3
STANDARD
350
1C
  0
MLINESTYLE
  5
1C
102
{ACAD_REACTORS
330
1B
102
}
100
AcDbMlineStyle
  2
STANDARD
 70
               0
  3

 62
               0
 51
90.0
 52
90.0
 71
               2
 49
0.5
 62
             256
  6
BYLAYER
 49
-0.5
 62
             256
  6
BYLAYER
  0
ENDSEC
  0
EOF
