  0
SECTION
  2
HEADER
  9
$ACADVER
  1
AC1014
  9
$ACADMAINTVER
 70
               0
  9
$DWGCODEPAGE
  3
ANSI_932
  9
$INSBASE
 10
0.0
 20
0.0
 30
0.0
  9
$EXTMIN
 10
-2025.3999999999999
 20
-1388.9999999999998
 30
0.0
  9
$EXTMAX
 10
2024.5999999999999
 20
1330.9999999999998
 30
0.0
  9
$LIMMIN
 10
0.0
 20
0.0
  9
$LIMMAX
 10
0.0
 20
0.0
  9
$ORTHOMODE
 70
               0
  9
$REGENMODE
 70
               1
  9
$FILLMODE
 70
               1
  9
$QTEXTMODE
 70
               0
  9
$MIRRTEXT
 70
               1
  9
$DRAGMODE
 70
               2
  9
$LTSCALE
 40
254.0
  9
$OSMODE
 70
               0
  9
$ATTMODE
 70
               1
  9
$TEXTSIZE
 40
0.2
  9
$TRACEWID
 40
1.0
  9
$TEXTSTYLE
  7
STANDARD
  9
$CLAYER
  8
0
  9
$CELTYPE
  6
CONTINUOUS
  9
$CECOLOR
 62
             256
  9
$CELTSCALE
 40
1.0
  9
$DELOBJ
 70
               1
  9
$DISPSILH
 70
               0
  9
$DIMSCALE
 40
1.0
  9
$DIMASZ
 40
31.75
  9
$DIMEXO
 40
9.9999999999999982
  9
$DIMDLI
 40
7.9999999999999991
  9
$DIMRND
 40
0.0
  9
$DIMDLE
 40
0.0
  9
$DIMEXE
 40
19.999999999999996
  9
$DIMTP
 40
0.0
  9
$DIMTM
 40
0.0
  9
$DIMTXT
 40
33.866666666666667
  9
$DIMCEN
 40
0.0
  9
$DIMTSZ
 40
0.0
  9
$DIMTOL
 70
               0
  9
$DIMLIM
 70
               0
  9
$DIMTIH
 70
               0
  9
$DIMTOH
 70
               0
  9
$DIMSE1
 70
               0
  9
$DIMSE2
 70
               0
  9
$DIMTAD
 70
               1
  9
$DIMZIN
 70
              11
  9
$DIMBLK
  1
VW_OPENARROW
  9
$DIMASO
 70
               1
  9
$DIMSHO
 70
               1
  9
$DIMPOST
  1
<>
  9
$DIMAPOST
  1
[]
  9
$DIMALT
 70
               0
  9
$DIMALTD
 70
               1
  9
$DIMALTF
 40
1.0
  9
$DIMLFAC
 40
1.0
  9
$DIMTOFL
 70
               1
  9
$DIMTVP
 40
0.0
  9
$DIMTIX
 70
               1
  9
$DIMSOXD
 70
               0
  9
$DIMSAH
 70
               0
  9
$DIMBLK1
  1

  9
$DIMBLK2
  1

  9
$DIMSTYLE
  2
CAD
  9
$DIMCLRD
 70
               0
  9
$DIMCLRE
 70
               0
  9
$DIMCLRT
 70
               0
  9
$DIMTFAC
 40
0.7
  9
$DIMGAP
 40
0.099999999627471
  9
$DIMJUST
 70
               0
  9
$DIMSD1
 70
               0
  9
$DIMSD2
 70
               0
  9
$DIMTOLJ
 70
               1
  9
$DIMTZIN
 70
              11
  9
$DIMALTZ
 70
              11
  9
$DIMALTTZ
 70
              11
  9
$DIMFIT
 70
               0
  9
$DIMUPT
 70
               0
  9
$DIMUNIT
 70
               2
  9
$DIMDEC
 70
               4
  9
$DIMTDEC
 70
               4
  9
$DIMALTU
 70
               2
  9
$DIMALTTD
 70
               2
  9
$DIMTXSTY
  7
________
  9
$DIMAUNIT
 70
               0
  9
$LUNITS
 70
               2
  9
$LUPREC
 70
               4
  9
$SKETCHINC
 40
0.1
  9
$FILLETRAD
 40
0.0
  9
$AUNITS
 70
               0
  9
$AUPREC
 70
               0
  9
$MENU
  1
acad
  9
$ELEVATION
 40
0.0
  9
$PELEVATION
 40
0.0
  9
$THICKNESS
 40
0.0
  9
$LIMCHECK
 70
               0
  9
$BLIPMODE
 70
               0
  9
$CHAMFERA
 40
0.0
  9
$CHAMFERB
 40
0.0
  9
$CHAMFERC
 40
0.0
  9
$CHAMFERD
 40
0.0
  9
$SKPOLY
 70
               0
  9
$TDCREATE
 40
2458753.557847222
  9
$TDUPDATE
 40
2458753.557847222
  9
$TDINDWG
 40
0.0000000000
  9
$TDUSRTIMER
 40
0.0000000000
  9
$USRTIMER
 70
               1
  9
$ANGBASE
 50
0.0
  9
$ANGDIR
 70
               0
  9
$PDMODE
 70
               1
  9
$PDSIZE
 40
-2.0
  9
$PLINEWID
 40
0.0
  9
$COORDS
 70
               0
  9
$SPLFRAME
 70
               0
  9
$SPLINETYPE
 70
               6
  9
$SPLINESEGS
 70
               8
  9
$ATTDIA
 70
               0
  9
$ATTREQ
 70
               1
  9
$HANDLING
 70
               1
  9
$HANDSEED
  5
383
  9
$SURFTAB1
 70
               6
  9
$SURFTAB2
 70
               6
  9
$SURFTYPE
 70
               6
  9
$SURFU
 70
               6
  9
$SURFV
 70
               6
  9
$UCSNAME
  2

  9
$UCSORG
 10
0.0
 20
0.0
 30
0.0
  9
$UCSXDIR
 10
1.0
 20
0.0
 30
0.0
  9
$UCSYDIR
 10
0.0
 20
1.0
 30
0.0
  9
$PUCSNAME
  2

  9
$PUCSORG
 10
0.0
 20
0.0
 30
0.0
  9
$PUCSXDIR
 10
1.0
 20
0.0
 30
0.0
  9
$PUCSYDIR
 10
0.0
 20
1.0
 30
0.0
  9
$USERI1
 70
               0
  9
$USERI2
 70
               0
  9
$USERI3
 70
               0
  9
$USERI4
 70
               0
  9
$USERI5
 70
               0
  9
$USERR1
 40
0.0
  9
$USERR2
 40
0.0
  9
$USERR3
 40
0.0
  9
$USERR4
 40
0.0
  9
$USERR5
 40
0.0
  9
$WORLDVIEW
 70
               1
  9
$SHADEDGE
 70
               3
  9
$SHADEDIF
 70
              70
  9
$TILEMODE
 70
               1
  9
$MAXACTVP
 70
              16
  9
$PINSBASE
 10
0.0
 20
0.0
 30
0.0
  9
$PLIMCHECK
 70
               0
  9
$PEXTMIN
 10
1.0000000000000000E+20
 20
1.0000000000000000E+20
 30
1.0000000000000000E+20
  9
$PEXTMAX
 10
-1.0000000000000000E+20
 20
-1.0000000000000000E+20
 30
-1.0000000000000000E+20
  9
$PLIMMIN
 10
0.0
 20
0.0
  9
$PLIMMAX
 10
12.0
 20
9.0
  9
$UNITMODE
 70
               0
  9
$VISRETAIN
 70
               0
  9
$PLINEGEN
 70
               1
  9
$PSLTSCALE
 70
               0
  9
$TREEDEPTH
 70
            3020
  9
$PICKSTYLE
 70
               1
  9
$CMLSTYLE
  2
STANDARD
  9
$CMLJUST
 70
               0
  9
$CMLSCALE
 40
1.0
  9
$PROXYGRAPHICS
 70
               0
  9
$MEASUREMENT
 70
               1
  0
ENDSEC
  0
SECTION
  2
CLASSES
  0
CLASS
  1
LWPOLYLINE
  2
AcDbPolyline
  3
"AutoCAD"
 90
        0
280
               0
281
               1
  0
CLASS
  1
IMAGE
  2
AcDbRasterImage
  3
ISM
 90
      127
280
               0
281
               1
  0
CLASS
  1
OLE2FRAME
  2
AcDbOle2Frame
  3
""
 90
        0
280
               0
281
               1
  0
CLASS
  1
HATCH
  2
AcDbHatch
  3
"ACAD_SEDONA"
 90
        0
280
               0
281
               1
  0
CLASS
  1
DICTIONARYVAR
  2
AcDbDictionaryVar
  3
"AutoCAD"
 90
        0
280
               0
281
               0
  0
CLASS
  1
RASTERVARIABLES
  2
AcDbRasterVariables
  3
ISM
 90
        0
280
               0
281
               0
  0
CLASS
  1
IMAGEDEF
  2
AcDbRasterImageDef
  3
ISM
 90
        0
280
               0
281
               0
  0
CLASS
  1
IMAGEDEF_REACTOR
  2
AcDbRasterImageDefReactor
  3
ISM
 90
        1
280
               0
281
               0
  0
CLASS
  1
IDBUFFER
  2
AcDbIdBuffer
  3
"Acad"
 90
        0
280
               0
281
               0
  0
CLASS
  1
SPATIAL_FILTER
  2
AcDbSpatialFilter
  3
"Acad"
 90
        0
280
               0
281
               0
  0
CLASS
  1
XRECORD
  2
AcDbXrecord
  3
"<Built In>"
 90
        0
280
               0
281
               0
  0
CLASS
  1
SORTENTSTABLE
  2
AcDbSortentsTable
  3
"AutoCAD"
 90
        0
280
               0
281
               0
  0
CLASS
  1
LAYER_INDEX
  2
AcDbLayerIndex
  3
"Acad"
 90
        0
280
               0
281
               0
  0
CLASS
  1
SPATIAL_INDEX
  2
AcDbSpatialIndex
  3
"Acad"
 90
        0
280
               0
281
               0
  0
CLASS
  1
OBJECT_PTR
  2
CAseDLPNTableRecord
  3
"ASE-LPNTableRecord"
 90
        1
280
               0
281
               0
  0
CLASS
  1
LAYOUT
  2
AcDbLayout
  3
"AutoCAD 2000"
 90
        1
280
               0
281
               0
  0
CLASS
  1
PLOTSETTINGS
  2
AcDbPlotSettings
  3
"AutoCAD 2000"
 90
        1
280
               0
281
               0
  0
CLASS
  1
ACDBDICTIONARYWDFLT
  2
AcDbDictionaryWithDefault
  3
"AutoCAD 2000"
 90
        1
280
               0
281
               0
  0
CLASS
  1
ACDBPLACEHOLDER
  2
AcDbPlaceHolder
  3
"AutoCAD 2000"
 90
        1
280
               0
281
               0
  0
ENDSEC
  0
SECTION
  2
TABLES
  0
TABLE
  2
VPORT
  5
7
100
AcDbSymbolTable
 70
               1
  0
VPORT
  5
15
100
AcDbSymbolTableRecord
100
AcDbViewportTableRecord
  2
*ACTIVE
 70
               0
 10
0.0
 20
0.0
 11
1.0
 21
1.0
 12
-0.3999999999998636
 22
-29.0
 13
0.0
 23
0.0
 14
1.0
 24
1.0
 15
0.0
 25
0.0
 16
0.0
 26
0.0
 36
1.0
 17
0.0
 27
0.0
 37
0.0
 40
2719.9999999999995
 41
0.688564
 42
50.0
 43
0.0
 44
0.0
 50
0.0
 51
0.0
 71
               0
 72
             100
 73
               1
 74
               1
 75
               0
 76
               0
 77
               0
 78
               0
  0
ENDTAB
  0
TABLE
  2
LTYPE
  5
4
100
AcDbSymbolTable
 70
              21
  0
LTYPE
  5
11
100
AcDbSymbolTableRecord
100
AcDbLinetypeTableRecord
  2
BYBLOCK
 70
              64
  3

 72
              65
 73
               0
 40
0.0
  0
LTYPE
  5
12
100
AcDbSymbolTableRecord
100
AcDbLinetypeTableRecord
  2
BYLAYER
 70
              64
  3

 72
              65
 73
               0
 40
0.0
  0
LTYPE
  5
13
100
AcDbSymbolTableRecord
100
AcDbLinetypeTableRecord
  2
CONTINUOUS
 70
              64
  3
Solid line
 72
              65
 73
               0
 40
0.0
  0
LTYPE
  5
2E
100
AcDbSymbolTableRecord
100
AcDbLinetypeTableRecord
  2
STYLE_01
 70
               0
  3

 72
              65
 73
               2
 40
0.0375109361329834
 49
0.0236220472440945
 74
               0
 49
-0.0138888888888889
 74
               0
  0
LTYPE
  5
2F
100
AcDbSymbolTableRecord
100
AcDbLinetypeTableRecord
  2
STYLE_02
 70
               0
  3

 72
              65
 73
               6
 40
0.6527777777777778
 49
0.4027777777777778
 74
               0
 49
-0.0555555555555555
 74
               0
 49
0.0416666666666667
 74
               0
 49
-0.0555555555555556
 74
               0
 49
0.0416666666666666
 74
               0
 49
-0.0555555555555556
 74
               0
  0
LTYPE
  5
30
100
AcDbSymbolTableRecord
100
AcDbLinetypeTableRecord
  2
STYLE_03
 70
               0
  3

 72
              65
 73
               4
 40
0.5277777777777778
 49
0.4027777777777778
 74
               0
 49
-0.0416666666666666
 74
               0
 49
0.0416666666666667
 74
               0
 49
-0.0416666666666667
 74
               0
  0
LTYPE
  5
31
100
AcDbSymbolTableRecord
100
AcDbLinetypeTableRecord
  2
STYLE_04
 70
               0
  3

 72
              65
 73
               2
 40
0.1388888888888889
 49
0.0694444444444444
 74
               0
 49
-0.0694444444444444
 74
               0
  0
LTYPE
  5
32
100
AcDbSymbolTableRecord
100
AcDbLinetypeTableRecord
  2
STYLE_05
 70
               0
  3

 72
              65
 73
               2
 40
0.047244094488189
 49
0.0236220472440945
 74
               0
 49
-0.0236220472440945
 74
               0
  0
LTYPE
  5
33
100
AcDbSymbolTableRecord
100
AcDbLinetypeTableRecord
  2
STYLE_06
 70
               0
  3

 72
              65
 73
               2
 40
0.047244094488189
 49
0.0236220472440945
 74
               0
 49
-0.0236220472440945
 74
               0
  0
LTYPE
  5
34
100
AcDbSymbolTableRecord
100
AcDbLinetypeTableRecord
  2
STYLE_07
 70
               0
  3

 72
              65
 73
               2
 40
0.047244094488189
 49
0.0236220472440945
 74
               0
 49
-0.0236220472440945
 74
               0
  0
LTYPE
  5
35
100
AcDbSymbolTableRecord
100
AcDbLinetypeTableRecord
  2
STYLE_08
 70
               0
  3

 72
              65
 73
               2
 40
0.047244094488189
 49
0.0236220472440945
 74
               0
 49
-0.0236220472440945
 74
               0
  0
LTYPE
  5
36
100
AcDbSymbolTableRecord
100
AcDbLinetypeTableRecord
  2
STYLE_09
 70
               0
  3

 72
              65
 73
               6
 40
1.5157480314960627
 49
1.1811023622047243
 74
               0
 49
-0.0590551181102361
 74
               0
 49
0.078740157480315
 74
               0
 49
-0.0590551181102361
 74
               0
 49
0.078740157480315
 74
               0
 49
-0.0590551181102361
 74
               0
  0
LTYPE
  5
37
100
AcDbSymbolTableRecord
100
AcDbLinetypeTableRecord
  2
STYLE_10
 70
               0
  3

 72
              65
 73
               6
 40
1.1875
 49
0.75
 74
               0
 49
-0.0555572509765625
 74
               0
 49
0.138885498046875
 74
               0
 49
-0.0555572509765625
 74
               0
 49
0.125
 74
               0
 49
-0.0625
 74
               0
  0
LTYPE
  5
38
100
AcDbSymbolTableRecord
100
AcDbLinetypeTableRecord
  2
STYLE_11
 70
               0
  3

 72
              65
 73
               4
 40
1.5
 49
0.0833282470703125
 74
               0
 49
-0.0555572509765625
 74
               0
 49
1.3055572509765625
 74
               0
 49
-0.0555572509765625
 74
               0
  0
LTYPE
  5
39
100
AcDbSymbolTableRecord
100
AcDbLinetypeTableRecord
  2
STYLE_12
 70
               0
  3

 72
              65
 73
               4
 40
1.111114501953125
 49
0.7916717529296875
 74
               0
 49
-0.0833282470703125
 74
               0
 49
0.125
 74
               0
 49
-0.111114501953125
 74
               0
  0
LTYPE
  5
3A
100
AcDbSymbolTableRecord
100
AcDbLinetypeTableRecord
  2
STYLE_13
 70
               0
  3

 72
              65
 73
               4
 40
2.1944427490234375
 49
1.875
 74
               0
 49
-0.0833282470703125
 74
               0
 49
0.125
 74
               0
 49
-0.111114501953125
 74
               0
  0
LTYPE
  5
3B
100
AcDbSymbolTableRecord
100
AcDbLinetypeTableRecord
  2
STYLE_14
 70
               0
  3

 72
              65
 73
               2
 40
0.138885498046875
 49
0.0972137451171875
 74
               0
 49
-0.0416717529296875
 74
               0
  0
LTYPE
  5
3C
100
AcDbSymbolTableRecord
100
AcDbLinetypeTableRecord
  2
STYLE_15
 70
               0
  3

 72
              65
 73
               2
 40
0.25
 49
0.2083282470703125
 74
               0
 49
-0.0416717529296875
 74
               0
  0
LTYPE
  5
3D
100
AcDbSymbolTableRecord
100
AcDbLinetypeTableRecord
  2
STYLE_16
 70
               0
  3

 72
              65
 73
               2
 40
0.078740157480315
 49
0.0393700787401575
 74
               0
 49
-0.0393700787401575
 74
               0
  0
LTYPE
  5
3E
100
AcDbSymbolTableRecord
100
AcDbLinetypeTableRecord
  2
STYLE_17
 70
               0
  3

 72
              65
 73
               4
 40
0.5118110236220472
 49
0.3937007874015748
 74
               0
 49
-0.0393700787401575
 74
               0
 49
0.0393700787401575
 74
               0
 49
-0.0393700787401575
 74
               0
  0
LTYPE
  5
3F
100
AcDbSymbolTableRecord
100
AcDbLinetypeTableRecord
  2
STYLE_18
 70
               0
  3

 72
              65
 73
               6
 40
0.5905511811023623
 49
0.3937007874015748
 74
               0
 49
-0.0393700787401575
 74
               0
 49
0.0393700787401575
 74
               0
 49
-0.0393700787401575
 74
               0
 49
0.0393700787401575
 74
               0
 49
-0.0393700787401575
 74
               0
  0
ENDTAB
  0
TABLE
  2
LAYER
  5
2
100
AcDbSymbolTable
 70
               9
  0
LAYER
  5
14
100
AcDbSymbolTableRecord
100
AcDbLayerTableRecord
  2
0
 70
               0
 62
               7
  6
CONTINUOUS
  0
LAYER
  5
47
100
AcDbSymbolTableRecord
100
AcDbLayerTableRecord
  2
DEFPOINTS
 70
               0
 62
               7
  6
CONTINUOUS
  0
LAYER
  5
48
100
AcDbSymbolTableRecord
100
AcDbLayerTableRecord
  2
OBJECT
 70
               0
 62
               7
  6
CONTINUOUS
  0
LAYER
  5
49
100
AcDbSymbolTableRecord
100
AcDbLayerTableRecord
  2
DIMENTION
 70
               0
 62
               7
  6
CONTINUOUS
  0
LAYER
  5
4A
100
AcDbSymbolTableRecord
100
AcDbLayerTableRecord
  2
CENTER
 70
               0
 62
               7
  6
STYLE_17
  0
LAYER
  5
4B
100
AcDbSymbolTableRecord
100
AcDbLayerTableRecord
  2
HIDDEN
 70
               0
 62
               7
  6
STYLE_16
  0
LAYER
  5
4C
100
AcDbSymbolTableRecord
100
AcDbLayerTableRecord
  2
FRAME
 70
               0
 62
               7
  6
CONTINUOUS
  0
LAYER
  5
4D
100
AcDbSymbolTableRecord
100
AcDbLayerTableRecord
  2
OUTLINE
 70
               0
 62
               7
  6
STYLE_18
  0
LAYER
  5
4E
100
AcDbSymbolTableRecord
100
AcDbLayerTableRecord
  2
TEXT
 70
               0
 62
               7
  6
CONTINUOUS
  0
ENDTAB
  0
TABLE
  2
STYLE
  5
3
100
AcDbSymbolTable
 70
               3
  0
STYLE
  5
17
100
AcDbSymbolTableRecord
100
AcDbTextStyleTableRecord
  2
STANDARD
 70
               0
 40
0.0
 41
1.0
 50
0.0
 71
               0
 42
0.0
  3
txt
  4
BIGFONT.SHX
  0
STYLE
  5
2C
100
AcDbSymbolTableRecord
100
AcDbTextStyleTableRecord
  2
ARIAL
 70
               0
 40
0.0
 41
1.0
 50
0.0
 71
               0
 42
0.0
  3
Arial
  4

1001
ACAD
1000
Arial
1071
        0
  0
STYLE
  5
2D
100
AcDbSymbolTableRecord
100
AcDbTextStyleTableRecord
  2
________
 70
               0
 40
0.0
 41
1.0
 50
0.0
 71
               0
 42
0.0
  3
ＭＳ Ｐゴシック
  4

1001
ACAD
1000
ＭＳ Ｐゴシック
1071
        0
  0
ENDTAB
  0
TABLE
  2
VIEW
  5
5
100
AcDbSymbolTable
 70
               0
  0
ENDTAB
  0
TABLE
  2
UCS
  5
6
100
AcDbSymbolTable
 70
               0
  0
ENDTAB
  0
TABLE
  2
APPID
  5
8
100
AcDbSymbolTable
 70
               1
  0
APPID
  5
16
100
AcDbSymbolTableRecord
100
AcDbRegAppTableRecord
  2
ACAD
 70
               0
  0
ENDTAB
  0
TABLE
  2
DIMSTYLE
  5
9
100
AcDbSymbolTable
 70
               2
  0
DIMSTYLE
105
18
100
AcDbSymbolTableRecord
100
AcDbDimStyleTableRecord
  2
STANDARD
 70
               0
  3

  4

  5

  6

  7

 40
1.0
 41
0.18
 42
0.0625
 43
0.38
 44
0.18
 45
0.0
 46
0.0
 47
0.0
 48
0.0
 71
               0
 72
               0
 73
               1
 74
               1
 75
               0
 76
               0
 77
               0
 78
               0
140
0.18
141
0.09
142
0.0
143
25.399999999999999
144
1.0
145
0.0
146
1.0
147
0.09
170
               0
171
               2
172
               0
173
               0
174
               0
175
               0
176
               0
177
               0
178
               0
270
               2
271
               4
272
               4
273
               2
274
               2
275
               0
280
               0
281
               0
282
               0
283
               1
284
               0
285
               0
286
               0
287
               0
288
               0
340
17
  0
DIMSTYLE
105
46
100
AcDbSymbolTableRecord
100
AcDbDimStyleTableRecord
  2
CAD
 70
               0
  3
<>
  4
[]
  5
VW_OPENARROW
  6

  7

 40
1.0
 41
31.75
 42
9.9999999999999982
 43
7.9999999999999991
 44
19.999999999999996
 45
0.0
 46
0.0
 47
0.0
 48
0.0
 71
               0
 72
               0
 73
               0
 74
               0
 75
               0
 76
               0
 77
               1
 78
              11
140
33.866666666666667
141
0.0
142
0.0
143
1.0
144
1.0
145
0.0
146
0.7
147
0.099999999627471
170
               0
171
               1
172
               1
173
               0
174
               1
175
               0
176
               0
177
               0
178
               0
270
               2
271
               4
272
               4
273
               2
274
               2
275
               0
280
               0
281
               0
282
               0
283
               1
284
              11
285
              11
286
              11
287
               0
288
               0
340
2D
  0
ENDTAB
  0
TABLE
  2
BLOCK_RECORD
  5
1
100
AcDbSymbolTable
 70
              16
  0
BLOCK_RECORD
  5
A
100
AcDbSymbolTableRecord
100
AcDbBlockTableRecord
  2
*MODEL_SPACE
  0
BLOCK_RECORD
  5
B
100
AcDbSymbolTableRecord
100
AcDbBlockTableRecord
  2
*PAPER_SPACE
  0
BLOCK_RECORD
  5
40
100
AcDbSymbolTableRecord
100
AcDbBlockTableRecord
  2
VW_OPENARROW
  0
BLOCK_RECORD
  5
1D
100
AcDbSymbolTableRecord
100
AcDbBlockTableRecord
  2
*U1
  0
BLOCK_RECORD
  5
1E
100
AcDbSymbolTableRecord
100
AcDbBlockTableRecord
  2
*U2
  0
BLOCK_RECORD
  5
1F
100
AcDbSymbolTableRecord
100
AcDbBlockTableRecord
  2
*U3
  0
BLOCK_RECORD
  5
20
100
AcDbSymbolTableRecord
100
AcDbBlockTableRecord
  2
*U4
  0
BLOCK_RECORD
  5
21
100
AcDbSymbolTableRecord
100
AcDbBlockTableRecord
  2
*U5
  0
BLOCK_RECORD
  5
22
100
AcDbSymbolTableRecord
100
AcDbBlockTableRecord
  2
*U6
  0
BLOCK_RECORD
  5
23
100
AcDbSymbolTableRecord
100
AcDbBlockTableRecord
  2
*D7
  0
BLOCK_RECORD
  5
24
100
AcDbSymbolTableRecord
100
AcDbBlockTableRecord
  2
*D8
  0
BLOCK_RECORD
  5
25
100
AcDbSymbolTableRecord
100
AcDbBlockTableRecord
  2
*D9
  0
BLOCK_RECORD
  5
26
100
AcDbSymbolTableRecord
100
AcDbBlockTableRecord
  2
*D10
  0
BLOCK_RECORD
  5
27
100
AcDbSymbolTableRecord
100
AcDbBlockTableRecord
  2
*D11
  0
BLOCK_RECORD
  5
28
100
AcDbSymbolTableRecord
100
AcDbBlockTableRecord
  2
*D12
  0
BLOCK_RECORD
  5
29
100
AcDbSymbolTableRecord
100
AcDbBlockTableRecord
  2
*D13
  0
BLOCK_RECORD
  5
2A
100
AcDbSymbolTableRecord
100
AcDbBlockTableRecord
  2
*D14
  0
BLOCK_RECORD
  5
2B
100
AcDbSymbolTableRecord
100
AcDbBlockTableRecord
  2
*D15
  0
ENDTAB
  0
ENDSEC
  0
SECTION
  2
BLOCKS
  0
BLOCK
  5
D
100
AcDbEntity
  8
0
100
AcDbBlockBegin
  2
*MODEL_SPACE
 70
               0
 10
0.0
 20
0.0
 30
0.0
  3
*MODEL_SPACE
  1

  0
ENDBLK
  5
E
100
AcDbEntity
  8
0
100
AcDbBlockEnd
  0
BLOCK
  5
F
100
AcDbEntity
 67
               1
  8
0
100
AcDbBlockBegin
  2
*PAPER_SPACE
 70
               0
 10
0.0
 20
0.0
 30
0.0
  3
*PAPER_SPACE
  1

  0
ENDBLK
  5
10
100
AcDbEntity
 67
               1
  8
0
100
AcDbBlockEnd
  0
BLOCK
  5
41
100
AcDbEntity
  8
0
  6
BYBLOCK
 62
               0
100
AcDbBlockBegin
  2
VW_OPENARROW
 70
               0
 10
0.0
 20
0.0
 30
0.0
  3
VW_OPENARROW
  1

  0
LINE
  5
42
100
AcDbEntity
  8
0
  6
BYBLOCK
 62
               0
100
AcDbLine
 10
0.0
 20
0.0
 30
0.0
 11
-1.0
 21
0.0
 31
0.0
  0
LINE
  5
43
100
AcDbEntity
  8
0
  6
BYBLOCK
 62
               0
100
AcDbLine
 10
0.0
 20
0.0
 30
0.0
 11
-0.9921874999999999
 21
-0.2658558393652545
 31
0.0
  0
LINE
  5
44
100
AcDbEntity
  8
0
  6
BYBLOCK
 62
               0
100
AcDbLine
 10
0.0
 20
0.0
 30
0.0
 11
-0.9921874999999999
 21
0.2658558393652548
 31
0.0
  0
ENDBLK
  5
45
100
AcDbEntity
  8
0
100
AcDbBlockEnd
  0
BLOCK
  5
4F
100
AcDbEntity
  8
FRAME
100
AcDbBlockBegin
  2
*U1
 70
               1
 10
0.0
 20
0.0
 30
0.0
  3
*U1
  1

  0
ENDBLK
  5
50
100
AcDbEntity
  8
FRAME
100
AcDbBlockEnd
  0
BLOCK
  5
51
100
AcDbEntity
  8
FRAME
100
AcDbBlockBegin
  2
*U2
 70
               1
 10
0.0
 20
0.0
 30
0.0
  3
*U2
  1

  0
ENDBLK
  5
52
100
AcDbEntity
  8
FRAME
100
AcDbBlockEnd
  0
BLOCK
  5
53
100
AcDbEntity
  8
FRAME
100
AcDbBlockBegin
  2
*U3
 70
               1
 10
0.0
 20
0.0
 30
0.0
  3
*U3
  1

  0
ENDBLK
  5
54
100
AcDbEntity
  8
FRAME
100
AcDbBlockEnd
  0
BLOCK
  5
55
100
AcDbEntity
  8
FRAME
100
AcDbBlockBegin
  2
*U4
 70
               1
 10
0.0
 20
0.0
 30
0.0
  3
*U4
  1

  0
ENDBLK
  5
56
100
AcDbEntity
  8
FRAME
100
AcDbBlockEnd
  0
BLOCK
  5
57
100
AcDbEntity
  8
FRAME
100
AcDbBlockBegin
  2
*U5
 70
               1
 10
0.0
 20
0.0
 30
0.0
  3
*U5
  1

  0
ENDBLK
  5
58
100
AcDbEntity
  8
FRAME
100
AcDbBlockEnd
  0
BLOCK
  5
59
100
AcDbEntity
  8
FRAME
100
AcDbBlockBegin
  2
*U6
 70
               1
 10
0.0
 20
0.0
 30
0.0
  3
*U6
  1

  0
INSERT
  5
5A
100
AcDbEntity
  8
FRAME
 62
               0
100
AcDbBlockReference
  2
*U1
 10
0.0
 20
0.0
 30
0.0
  0
INSERT
  5
5B
100
AcDbEntity
  8
FRAME
 62
               0
100
AcDbBlockReference
  2
*U2
 10
0.0
 20
0.0
 30
0.0
  0
INSERT
  5
5C
100
AcDbEntity
  8
FRAME
 62
               0
100
AcDbBlockReference
  2
*U3
 10
0.0
 20
0.0
 30
0.0
  0
INSERT
  5
5D
100
AcDbEntity
  8
FRAME
 62
               0
100
AcDbBlockReference
  2
*U4
 10
0.0
 20
0.0
 30
0.0
  0
INSERT
  5
5E
100
AcDbEntity
  8
FRAME
 62
               0
100
AcDbBlockReference
  2
*U5
 10
0.0
 20
0.0
 30
0.0
  0
ENDBLK
  5
5F
100
AcDbEntity
  8
FRAME
100
AcDbBlockEnd
  0
BLOCK
  5
60
100
AcDbEntity
  8
DIMENTION
100
AcDbBlockBegin
  2
*D7
 70
               1
 10
0.0
 20
0.0
 30
0.0
  3
*D7
  1

  0
LINE
  5
61
100
AcDbEntity
  8
DIMENTION
  6
CONTINUOUS
 62
               0
100
AcDbLine
 10
326.0
 20
-149.5
 30
0.0
 11
-20.0
 21
-149.5
 31
0.0
  0
LINE
  5
62
100
AcDbEntity
  8
DIMENTION
  6
CONTINUOUS
 62
               0
100
AcDbLine
 10
93.0
 20
-69.5
 30
0.0
 11
-20.0
 21
-69.5
 31
0.0
  0
LINE
  5
63
100
AcDbEntity
  8
DIMENTION
  6
CONTINUOUS
 62
               0
100
AcDbLine
 10
0.0
 20
-149.5
 30
0.0
 11
0.0
 21
-69.5
 31
0.0
  0
LINE
  5
64
100
AcDbEntity
  8
DIMENTION
  6
CONTINUOUS
 62
               0
100
AcDbLine
 10
0.0
 20
-149.5
 30
0.0
 11
-8.5073868596881486
 21
-117.75
 31
0.0
  0
LINE
  5
65
100
AcDbEntity
  8
DIMENTION
  6
CONTINUOUS
 62
               0
100
AcDbLine
 10
0.0
 20
-149.5
 30
0.0
 11
8.507386859688145
 21
-117.75
 31
0.0
  0
LINE
  5
66
100
AcDbEntity
  8
DIMENTION
  6
CONTINUOUS
 62
               0
100
AcDbLine
 10
0.0
 20
-69.5
 30
0.0
 11
8.507386859688129
 21
-101.25
 31
0.0
  0
LINE
  5
67
100
AcDbEntity
  8
DIMENTION
  6
CONTINUOUS
 62
               0
100
AcDbLine
 10
0.0
 20
-69.5
 30
0.0
 11
-8.5073868596881415
 21
-101.25
 31
0.0
  0
MTEXT
  5
68
100
AcDbEntity
  8
DIMENTION
 62
               0
100
AcDbMText
 10
-43.333333333333336
 20
-130.66666666666666
 30
0.0
 40
33.866666666666667
 41
0.0
 71
               1
 72
               1
  1
80
  7
________
 11
0.0
 21
1.0
 31
0.0
  0
POINT
  5
69
100
AcDbEntity
  8
DEFPOINTS
 62
               0
100
AcDbPoint
 10
103.0
 20
-69.5
 30
0.0
  0
POINT
  5
6A
100
AcDbEntity
  8
DEFPOINTS
 62
               0
100
AcDbPoint
 10
336.0
 20
-149.5
 30
0.0
  0
POINT
  5
6B
100
AcDbEntity
  8
DEFPOINTS
 62
               0
100
AcDbPoint
 10
0.0
 20
-149.5
 30
0.0
  0
ENDBLK
  5
6C
100
AcDbEntity
  8
DIMENTION
100
AcDbBlockEnd
  0
BLOCK
  5
6D
100
AcDbEntity
  8
DIMENTION
100
AcDbBlockBegin
  2
*D8
 70
               1
 10
0.0
 20
0.0
 30
0.0
  3
*D8
  1

  0
LINE
  5
6E
100
AcDbEntity
  8
DIMENTION
  6
CONTINUOUS
 62
               0
100
AcDbLine
 10
326.0
 20
-149.5
 30
0.0
 11
-20.0
 21
-149.5
 31
0.0
  0
LINE
  5
6F
100
AcDbEntity
  8
DIMENTION
  6
CONTINUOUS
 62
               0
100
AcDbLine
 10
154.0
 20
-659.5
 30
0.0
 11
-20.0
 21
-659.5
 31
0.0
  0
LINE
  5
70
100
AcDbEntity
  8
DIMENTION
  6
CONTINUOUS
 62
               0
100
AcDbLine
 10
0.0
 20
-149.5
 30
0.0
 11
0.0
 21
-659.5
 31
0.0
  0
LINE
  5
71
100
AcDbEntity
  8
DIMENTION
  6
CONTINUOUS
 62
               0
100
AcDbLine
 10
0.0
 20
-149.5
 30
0.0
 11
8.507386859688129
 21
-181.25
 31
0.0
  0
LINE
  5
72
100
AcDbEntity
  8
DIMENTION
  6
CONTINUOUS
 62
               0
100
AcDbLine
 10
0.0
 20
-149.5
 30
0.0
 11
-8.5073868596881415
 21
-181.25
 31
0.0
  0
LINE
  5
73
100
AcDbEntity
  8
DIMENTION
  6
CONTINUOUS
 62
               0
100
AcDbLine
 10
0.0
 20
-659.5
 30
0.0
 11
-8.5073868596881486
 21
-627.75
 31
0.0
  0
LINE
  5
74
100
AcDbEntity
  8
DIMENTION
  6
CONTINUOUS
 62
               0
100
AcDbLine
 10
0.0
 20
-659.5
 30
0.0
 11
8.507386859688145
 21
-627.75
 31
0.0
  0
MTEXT
  5
75
100
AcDbEntity
  8
DIMENTION
 62
               0
100
AcDbMText
 10
-43.333333333333343
 20
-542.08333333333337
 30
0.0
 40
33.866666666666667
 41
0.0
 71
               1
 72
               1
  1
510（可動範囲）
  7
________
 11
0.0
 21
1.0
 31
0.0
  0
POINT
  5
76
100
AcDbEntity
  8
DEFPOINTS
 62
               0
100
AcDbPoint
 10
164.0
 20
-659.5
 30
0.0
  0
POINT
  5
77
100
AcDbEntity
  8
DEFPOINTS
 62
               0
100
AcDbPoint
 10
336.0
 20
-149.5
 30
0.0
  0
POINT
  5
78
100
AcDbEntity
  8
DEFPOINTS
 62
               0
100
AcDbPoint
 10
0.0
 20
-149.5
 30
0.0
  0
ENDBLK
  5
79
100
AcDbEntity
  8
DIMENTION
100
AcDbBlockEnd
  0
BLOCK
  5
7A
100
AcDbEntity
  8
DIMENTION
100
AcDbBlockBegin
  2
*D9
 70
               1
 10
0.0
 20
0.0
 30
0.0
  3
*D9
  1

  0
LINE
  5
7B
100
AcDbEntity
  8
DIMENTION
  6
CONTINUOUS
 62
               0
100
AcDbLine
 10
1126.0
 20
-89.5
 30
0.0
 11
780.0
 21
-89.5
 31
0.0
  0
LINE
  5
7C
100
AcDbEntity
  8
DIMENTION
  6
CONTINUOUS
 62
               0
100
AcDbLine
 10
893.0
 20
-69.5
 30
0.0
 11
780.0
 21
-69.5
 31
0.0
  0
LINE
  5
7D
100
AcDbEntity
  8
DIMENTION
  6
CONTINUOUS
 62
               0
100
AcDbLine
 10
800.0
 20
-69.5
 30
0.0
 11
800.0
 21
-89.5
 31
0.0
  0
LINE
  5
7E
100
AcDbEntity
  8
DIMENTION
  6
CONTINUOUS
 62
               0
100
AcDbLine
 10
800.0
 20
-89.5
 30
0.0
 11
800.0
 21
-149.5
 31
0.0
  0
LINE
  5
7F
100
AcDbEntity
  8
DIMENTION
  6
CONTINUOUS
 62
               0
100
AcDbLine
 10
800.0
 20
-89.5
 30
0.0
 11
808.50738685968815
 21
-121.25
 31
0.0
  0
LINE
  5
80
100
AcDbEntity
  8
DIMENTION
  6
CONTINUOUS
 62
               0
100
AcDbLine
 10
800.0
 20
-89.5
 30
0.0
 11
791.49261314031185
 21
-121.25
 31
0.0
  0
LINE
  5
81
100
AcDbEntity
  8
DIMENTION
  6
CONTINUOUS
 62
               0
100
AcDbLine
 10
800.0
 20
-69.5
 30
0.0
 11
800.0
 21
12.333333333333325
 31
0.0
  0
LINE
  5
82
100
AcDbEntity
  8
DIMENTION
  6
CONTINUOUS
 62
               0
100
AcDbLine
 10
800.0
 20
-69.5
 30
0.0
 11
791.49261314031185
 21
-37.75
 31
0.0
  0
LINE
  5
83
100
AcDbEntity
  8
DIMENTION
  6
CONTINUOUS
 62
               0
100
AcDbLine
 10
800.0
 20
-69.5
 30
0.0
 11
808.50738685968815
 21
-37.75
 31
0.0
  0
MTEXT
  5
84
100
AcDbEntity
  8
DIMENTION
 62
               0
100
AcDbMText
 10
756.66666666666674
 20
-30.000000000000004
 30
0.0
 40
33.866666666666667
 41
0.0
 71
               1
 72
               1
  1
20
  7
________
 11
0.0
 21
1.0
 31
0.0
  0
POINT
  5
85
100
AcDbEntity
  8
DEFPOINTS
 62
               0
100
AcDbPoint
 10
903.0
 20
-69.5
 30
0.0
  0
POINT
  5
86
100
AcDbEntity
  8
DEFPOINTS
 62
               0
100
AcDbPoint
 10
1136.0
 20
-89.5
 30
0.0
  0
POINT
  5
87
100
AcDbEntity
  8
DEFPOINTS
 62
               0
100
AcDbPoint
 10
800.0
 20
-89.5
 30
0.0
  0
ENDBLK
  5
88
100
AcDbEntity
  8
DIMENTION
100
AcDbBlockEnd
  0
BLOCK
  5
89
100
AcDbEntity
  8
DIMENTION
100
AcDbBlockBegin
  2
*D10
 70
               1
 10
0.0
 20
0.0
 30
0.0
  3
*D10
  1

  0
LINE
  5
8A
100
AcDbEntity
  8
DIMENTION
  6
CONTINUOUS
 62
               0
100
AcDbLine
 10
1126.0
 20
-89.5
 30
0.0
 11
780.0
 21
-89.5
 31
0.0
  0
LINE
  5
8B
100
AcDbEntity
  8
DIMENTION
  6
CONTINUOUS
 62
               0
100
AcDbLine
 10
904.0
 20
-599.5
 30
0.0
 11
780.0
 21
-599.5
 31
0.0
  0
LINE
  5
8C
100
AcDbEntity
  8
DIMENTION
  6
CONTINUOUS
 62
               0
100
AcDbLine
 10
800.0
 20
-89.5
 30
0.0
 11
800.0
 21
-599.5
 31
0.0
  0
LINE
  5
8D
100
AcDbEntity
  8
DIMENTION
  6
CONTINUOUS
 62
               0
100
AcDbLine
 10
800.0
 20
-89.5
 30
0.0
 11
808.50738685968815
 21
-121.25
 31
0.0
  0
LINE
  5
8E
100
AcDbEntity
  8
DIMENTION
  6
CONTINUOUS
 62
               0
100
AcDbLine
 10
800.0
 20
-89.5
 30
0.0
 11
791.49261314031185
 21
-121.25
 31
0.0
  0
LINE
  5
8F
100
AcDbEntity
  8
DIMENTION
  6
CONTINUOUS
 62
               0
100
AcDbLine
 10
800.0
 20
-599.5
 30
0.0
 11
791.49261314031185
 21
-567.75
 31
0.0
  0
LINE
  5
90
100
AcDbEntity
  8
DIMENTION
  6
CONTINUOUS
 62
               0
100
AcDbLine
 10
800.0
 20
-599.5
 30
0.0
 11
808.50738685968815
 21
-567.75
 31
0.0
  0
MTEXT
  5
91
100
AcDbEntity
  8
DIMENTION
 62
               0
100
AcDbMText
 10
756.66666666666663
 20
-482.08333333333331
 30
0.0
 40
33.866666666666667
 41
0.0
 71
               1
 72
               1
  1
510（可動範囲）
  7
________
 11
0.0
 21
1.0
 31
0.0
  0
POINT
  5
92
100
AcDbEntity
  8
DEFPOINTS
 62
               0
100
AcDbPoint
 10
914.0
 20
-599.5
 30
0.0
  0
POINT
  5
93
100
AcDbEntity
  8
DEFPOINTS
 62
               0
100
AcDbPoint
 10
1136.0
 20
-89.5
 30
0.0
  0
POINT
  5
94
100
AcDbEntity
  8
DEFPOINTS
 62
               0
100
AcDbPoint
 10
800.0
 20
-89.5
 30
0.0
  0
ENDBLK
  5
95
100
AcDbEntity
  8
DIMENTION
100
AcDbBlockEnd
  0
BLOCK
  5
96
100
AcDbEntity
  8
DIMENTION
100
AcDbBlockBegin
  2
*D11
 70
               1
 10
0.0
 20
0.0
 30
0.0
  3
*D11
  1

  0
LINE
  5
97
100
AcDbEntity
  8
DIMENTION
  6
CONTINUOUS
 62
               0
100
AcDbLine
 10
-1155.0
 20
-69.5
 30
0.0
 11
-1320.0
 21
-69.5
 31
0.0
  0
LINE
  5
98
100
AcDbEntity
  8
DIMENTION
  6
CONTINUOUS
 62
               0
100
AcDbLine
 10
-1260.0
 20
-900.0
 30
0.0
 11
-1320.0
 21
-900.0
 31
0.0
  0
LINE
  5
99
100
AcDbEntity
  8
DIMENTION
  6
CONTINUOUS
 62
               0
100
AcDbLine
 10
-1300.0
 20
-69.5
 30
0.0
 11
-1300.0
 21
-900.0
 31
0.0
  0
LINE
  5
9A
100
AcDbEntity
  8
DIMENTION
  6
CONTINUOUS
 62
               0
100
AcDbLine
 10
-1300.0
 20
-69.5
 30
0.0
 11
-1291.492613140312
 21
-101.25
 31
0.0
  0
LINE
  5
9B
100
AcDbEntity
  8
DIMENTION
  6
CONTINUOUS
 62
               0
100
AcDbLine
 10
-1300.0
 20
-69.5
 30
0.0
 11
-1308.507386859688
 21
-101.25
 31
0.0
  0
LINE
  5
9C
100
AcDbEntity
  8
DIMENTION
  6
CONTINUOUS
 62
               0
100
AcDbLine
 10
-1300.0
 20
-900.0
 30
0.0
 11
-1308.507386859688
 21
-868.25
 31
0.0
  0
LINE
  5
9D
100
AcDbEntity
  8
DIMENTION
  6
CONTINUOUS
 62
               0
100
AcDbLine
 10
-1300.0
 20
-900.0
 30
0.0
 11
-1291.492613140312
 21
-868.25
 31
0.0
  0
MTEXT
  5
9E
100
AcDbEntity
  8
DIMENTION
 62
               0
100
AcDbMText
 10
-1343.3333333333335
 20
-516.5
 30
0.0
 40
33.866666666666667
 41
0.0
 71
               1
 72
               1
  1
830
  7
________
 11
0.0
 21
1.0
 31
0.0
  0
POINT
  5
9F
100
AcDbEntity
  8
DEFPOINTS
 62
               0
100
AcDbPoint
 10
-1250.0
 20
-900.0
 30
0.0
  0
POINT
  5
A0
100
AcDbEntity
  8
DEFPOINTS
 62
               0
100
AcDbPoint
 10
-1145.0
 20
-69.5
 30
0.0
  0
POINT
  5
A1
100
AcDbEntity
  8
DEFPOINTS
 62
               0
100
AcDbPoint
 10
-1300.0
 20
-69.5
 30
0.0
  0
ENDBLK
  5
A2
100
AcDbEntity
  8
DIMENTION
100
AcDbBlockEnd
  0
BLOCK
  5
A3
100
AcDbEntity
  8
DIMENTION
100
AcDbBlockBegin
  2
*D12
 70
               1
 10
0.0
 20
0.0
 30
0.0
  3
*D12
  1

  0
LINE
  5
A4
100
AcDbEntity
  8
DIMENTION
  6
CONTINUOUS
 62
               0
100
AcDbLine
 10
-1144.0
 20
772.0
 30
0.0
 11
-1144.0
 21
920.0
 31
0.0
  0
LINE
  5
A5
100
AcDbEntity
  8
DIMENTION
  6
CONTINUOUS
 62
               0
100
AcDbLine
 10
-656.0
 20
772.0
 30
0.0
 11
-656.0
 21
920.0
 31
0.0
  0
LINE
  5
A6
100
AcDbEntity
  8
DIMENTION
  6
CONTINUOUS
 62
               0
100
AcDbLine
 10
-1144.0
 20
900.0
 30
0.0
 11
-656.0
 21
900.0
 31
0.0
  0
LINE
  5
A7
100
AcDbEntity
  8
DIMENTION
  6
CONTINUOUS
 62
               0
100
AcDbLine
 10
-1144.0
 20
900.0
 30
0.0
 11
-1112.25
 21
908.50738685968815
 31
0.0
  0
LINE
  5
A8
100
AcDbEntity
  8
DIMENTION
  6
CONTINUOUS
 62
               0
100
AcDbLine
 10
-1144.0
 20
900.0
 30
0.0
 11
-1112.25
 21
891.49261314031185
 31
0.0
  0
LINE
  5
A9
100
AcDbEntity
  8
DIMENTION
  6
CONTINUOUS
 62
               0
100
AcDbLine
 10
-656.0
 20
900.0
 30
0.0
 11
-687.75
 21
891.49261314031185
 31
0.0
  0
LINE
  5
AA
100
AcDbEntity
  8
DIMENTION
  6
CONTINUOUS
 62
               0
100
AcDbLine
 10
-656.0
 20
900.0
 30
0.0
 11
-687.75
 21
908.50738685968815
 31
0.0
  0
MTEXT
  5
AB
100
AcDbEntity
  8
DIMENTION
 62
               0
100
AcDbMText
 10
-931.75
 20
943.33333333333337
 30
0.0
 40
33.866666666666667
 41
0.0
 71
               1
 72
               1
  1
490
  7
________
  0
POINT
  5
AC
100
AcDbEntity
  8
DEFPOINTS
 62
               0
100
AcDbPoint
 10
-656.0
 20
762.0
 30
0.0
  0
POINT
  5
AD
100
AcDbEntity
  8
DEFPOINTS
 62
               0
100
AcDbPoint
 10
-1144.0
 20
762.0
 30
0.0
  0
POINT
  5
AE
100
AcDbEntity
  8
DEFPOINTS
 62
               0
100
AcDbPoint
 10
-1144.0
 20
900.0
 30
0.0
  0
ENDBLK
  5
AF
100
AcDbEntity
  8
DIMENTION
100
AcDbBlockEnd
  0
BLOCK
  5
B0
100
AcDbEntity
  8
DIMENTION
100
AcDbBlockBegin
  2
*D13
 70
               1
 10
0.0
 20
0.0
 30
0.0
  3
*D13
  1

  0
LINE
  5
B1
100
AcDbEntity
  8
DIMENTION
  6
CONTINUOUS
 62
               0
100
AcDbLine
 10
-647.0
 20
797.0
 30
0.0
 11
-480.0
 21
797.0
 31
0.0
  0
LINE
  5
B2
100
AcDbEntity
  8
DIMENTION
  6
CONTINUOUS
 62
               0
100
AcDbLine
 10
-647.0
 20
403.0
 30
0.0
 11
-480.0
 21
403.0
 31
0.0
  0
LINE
  5
B3
100
AcDbEntity
  8
DIMENTION
  6
CONTINUOUS
 62
               0
100
AcDbLine
 10
-500.0
 20
797.0
 30
0.0
 11
-500.0
 21
403.0
 31
0.0
  0
LINE
  5
B4
100
AcDbEntity
  8
DIMENTION
  6
CONTINUOUS
 62
               0
100
AcDbLine
 10
-500.0
 20
797.0
 30
0.0
 11
-491.49261314031185
 21
765.25
 31
0.0
  0
LINE
  5
B5
100
AcDbEntity
  8
DIMENTION
  6
CONTINUOUS
 62
               0
100
AcDbLine
 10
-500.0
 20
797.0
 30
0.0
 11
-508.50738685968815
 21
765.25
 31
0.0
  0
LINE
  5
B6
100
AcDbEntity
  8
DIMENTION
  6
CONTINUOUS
 62
               0
100
AcDbLine
 10
-500.0
 20
403.0
 30
0.0
 11
-508.50738685968815
 21
434.75
 31
0.0
  0
LINE
  5
B7
100
AcDbEntity
  8
DIMENTION
  6
CONTINUOUS
 62
               0
100
AcDbLine
 10
-500.0
 20
403.0
 30
0.0
 11
-491.49261314031185
 21
434.75
 31
0.0
  0
MTEXT
  5
B8
100
AcDbEntity
  8
DIMENTION
 62
               0
100
AcDbMText
 10
-543.33333333333326
 20
568.25
 30
0.0
 40
33.866666666666667
 41
0.0
 71
               1
 72
               1
  1
400
  7
________
 11
0.0
 21
1.0
 31
0.0
  0
POINT
  5
B9
100
AcDbEntity
  8
DEFPOINTS
 62
               0
100
AcDbPoint
 10
-657.0
 20
403.0
 30
0.0
  0
POINT
  5
BA
100
AcDbEntity
  8
DEFPOINTS
 62
               0
100
AcDbPoint
 10
-657.0
 20
797.0
 30
0.0
  0
POINT
  5
BB
100
AcDbEntity
  8
DEFPOINTS
 62
               0
100
AcDbPoint
 10
-500.0
 20
797.0
 30
0.0
  0
ENDBLK
  5
BC
100
AcDbEntity
  8
DIMENTION
100
AcDbBlockEnd
  0
BLOCK
  5
BD
100
AcDbEntity
  8
DIMENTION
100
AcDbBlockBegin
  2
*D14
 70
               1
 10
0.0
 20
0.0
 30
0.0
  3
*D14
  1

  0
LINE
  5
BE
100
AcDbEntity
  8
DIMENTION
  6
CONTINUOUS
 62
               0
100
AcDbLine
 10
-1142.0
 20
428.0
 30
0.0
 11
-1142.0
 21
279.99999999999994
 31
0.0
  0
LINE
  5
BF
100
AcDbEntity
  8
DIMENTION
  6
CONTINUOUS
 62
               0
100
AcDbLine
 10
-982.0
 20
479.0
 30
0.0
 11
-982.0
 21
279.99999999999994
 31
0.0
  0
LINE
  5
C0
100
AcDbEntity
  8
DIMENTION
  6
CONTINUOUS
 62
               0
100
AcDbLine
 10
-1142.0
 20
299.99999999999994
 30
0.0
 11
-982.0
 21
299.99999999999994
 31
0.0
  0
LINE
  5
C1
100
AcDbEntity
  8
DIMENTION
  6
CONTINUOUS
 62
               0
100
AcDbLine
 10
-1142.0
 20
299.99999999999994
 30
0.0
 11
-1110.25
 21
308.5073868596881
 31
0.0
  0
LINE
  5
C2
100
AcDbEntity
  8
DIMENTION
  6
CONTINUOUS
 62
               0
100
AcDbLine
 10
-1142.0
 20
299.99999999999994
 30
0.0
 11
-1110.25
 21
291.49261314031179
 31
0.0
  0
LINE
  5
C3
100
AcDbEntity
  8
DIMENTION
  6
CONTINUOUS
 62
               0
100
AcDbLine
 10
-982.0
 20
299.99999999999994
 30
0.0
 11
-1013.75
 21
291.49261314031179
 31
0.0
  0
LINE
  5
C4
100
AcDbEntity
  8
DIMENTION
  6
CONTINUOUS
 62
               0
100
AcDbLine
 10
-982.0
 20
299.99999999999994
 30
0.0
 11
-1013.75
 21
308.5073868596881
 31
0.0
  0
MTEXT
  5
C5
100
AcDbEntity
  8
DIMENTION
 62
               0
100
AcDbMText
 10
-1093.75
 20
343.33333333333326
 30
0.0
 40
33.866666666666667
 41
0.0
 71
               1
 72
               1
  1
159
  7
________
  0
POINT
  5
C6
100
AcDbEntity
  8
DEFPOINTS
 62
               0
100
AcDbPoint
 10
-982.0
 20
489.0
 30
0.0
  0
POINT
  5
C7
100
AcDbEntity
  8
DEFPOINTS
 62
               0
100
AcDbPoint
 10
-1142.0
 20
438.0
 30
0.0
  0
POINT
  5
C8
100
AcDbEntity
  8
DEFPOINTS
 62
               0
100
AcDbPoint
 10
-1142.0
 20
299.99999999999994
 30
0.0
  0
ENDBLK
  5
C9
100
AcDbEntity
  8
DIMENTION
100
AcDbBlockEnd
  0
BLOCK
  5
CA
100
AcDbEntity
  8
DIMENTION
100
AcDbBlockBegin
  2
*D15
 70
               1
 10
0.0
 20
0.0
 30
0.0
  3
*D15
  1

  0
LINE
  5
CB
100
AcDbEntity
  8
DIMENTION
  6
CONTINUOUS
 62
               0
100
AcDbLine
 10
-1152.0
 20
599.0
 30
0.0
 11
-1320.0
 21
599.0
 31
0.0
  0
LINE
  5
CC
100
AcDbEntity
  8
DIMENTION
  6
CONTINUOUS
 62
               0
100
AcDbLine
 10
-1152.0
 20
438.0
 30
0.0
 11
-1320.0
 21
438.0
 31
0.0
  0
LINE
  5
CD
100
AcDbEntity
  8
DIMENTION
  6
CONTINUOUS
 62
               0
100
AcDbLine
 10
-1300.0
 20
599.0
 30
0.0
 11
-1300.0
 21
438.0
 31
0.0
  0
LINE
  5
CE
100
AcDbEntity
  8
DIMENTION
  6
CONTINUOUS
 62
               0
100
AcDbLine
 10
-1300.0
 20
599.0
 30
0.0
 11
-1291.492613140312
 21
567.25
 31
0.0
  0
LINE
  5
CF
100
AcDbEntity
  8
DIMENTION
  6
CONTINUOUS
 62
               0
100
AcDbLine
 10
-1300.0
 20
599.0
 30
0.0
 11
-1308.507386859688
 21
567.25
 31
0.0
  0
LINE
  5
D0
100
AcDbEntity
  8
DIMENTION
  6
CONTINUOUS
 62
               0
100
AcDbLine
 10
-1300.0
 20
438.0
 30
0.0
 11
-1308.507386859688
 21
469.75
 31
0.0
  0
LINE
  5
D1
100
AcDbEntity
  8
DIMENTION
  6
CONTINUOUS
 62
               0
100
AcDbLine
 10
-1300.0
 20
438.0
 30
0.0
 11
-1291.492613140312
 21
469.75
 31
0.0
  0
MTEXT
  5
D2
100
AcDbEntity
  8
DIMENTION
 62
               0
100
AcDbMText
 10
-1343.3333333333335
 20
486.75
 30
0.0
 40
33.866666666666667
 41
0.0
 71
               1
 72
               1
  1
159
  7
________
 11
0.0
 21
1.0
 31
0.0
  0
POINT
  5
D3
100
AcDbEntity
  8
DEFPOINTS
 62
               0
100
AcDbPoint
 10
-1142.0
 20
438.0
 30
0.0
  0
POINT
  5
D4
100
AcDbEntity
  8
DEFPOINTS
 62
               0
100
AcDbPoint
 10
-1142.0
 20
599.0
 30
0.0
  0
POINT
  5
D5
100
AcDbEntity
  8
DEFPOINTS
 62
               0
100
AcDbPoint
 10
-1300.0
 20
599.0
 30
0.0
  0
ENDBLK
  5
D6
100
AcDbEntity
  8
DIMENTION
100
AcDbBlockEnd
  0
ENDSEC
  0
SECTION
  2
ENTITIES
  0
LINE
  5
D7
100
AcDbEntity
  8
FRAME
  6
CONTINUOUS
100
AcDbLine
 10
-2025.3999999999999
 20
-1388.9999999999998
 30
0.0
 11
-2025.3999999999999
 21
1330.9999999999998
 31
0.0
  0
LINE
  5
D8
100
AcDbEntity
  8
FRAME
  6
CONTINUOUS
100
AcDbLine
 10
2024.5999999999999
 20
-1388.9999999999998
 30
0.0
 11
-2025.3999999999999
 21
-1388.9999999999998
 31
0.0
  0
LINE
  5
D9
100
AcDbEntity
  8
FRAME
  6
CONTINUOUS
100
AcDbLine
 10
2024.5999999999999
 20
1330.9999999999998
 30
0.0
 11
2024.5999999999999
 21
-1388.9999999999998
 31
0.0
  0
LINE
  5
DA
100
AcDbEntity
  8
FRAME
  6
CONTINUOUS
100
AcDbLine
 10
-2025.3999999999999
 20
1330.9999999999998
 30
0.0
 11
2024.5999999999999
 21
1330.9999999999998
 31
0.0
  0
LINE
  5
DB
100
AcDbEntity
  8
OBJECT
  6
CONTINUOUS
100
AcDbLine
 10
1264.3599999999999
 20
-1388.9999999999998
 30
0.0
 11
1264.3599999999999
 21
-1249.0
 31
0.0
  0
LINE
  5
DC
100
AcDbEntity
  8
OBJECT
  6
CONTINUOUS
100
AcDbLine
 10
1044.3599999999999
 20
-1388.9999999999998
 30
0.0
 11
1044.3599999999999
 21
-1249.0
 31
0.0
  0
LINE
  5
DD
100
AcDbEntity
  8
OBJECT
  6
CONTINUOUS
100
AcDbLine
 10
444.35999999999996
 20
-1388.9999999999998
 30
0.0
 11
444.35999999999996
 21
-1249.0
 31
0.0
  0
LINE
  5
DE
100
AcDbEntity
  8
OBJECT
  6
CONTINUOUS
100
AcDbLine
 10
-675.39999999999998
 20
-1388.9999999999998
 30
0.0
 11
-675.39999999999998
 21
-1249.0
 31
0.0
  0
MTEXT
  5
DF
100
AcDbEntity
  8
DIMENTION
100
AcDbMText
 10
-650.63999999999999
 20
-1254.1299999999999
 30
0.0
 40
28.2224
 41
109.36099999999999
 71
               1
 72
               1
  1
品　名
  7
________
  0
MTEXT
  5
E0
100
AcDbEntity
  8
DIMENTION
100
AcDbMText
 10
464.35999999999996
 20
-1259.1299999999999
 30
0.0
 40
28.2224
 41
0.0
 71
               1
 72
               1
  1
形　式
  7
________
  0
MTEXT
  5
E1
100
AcDbEntity
  8
DIMENTION
100
AcDbMText
 10
1069.3599999999999
 20
-1259.1299999999999
 30
0.0
 40
28.2224
 41
0.0
 71
               1
 72
               1
  1
尺　度
  7
________
  0
MTEXT
  5
E2
100
AcDbEntity
  8
DIMENTION
100
AcDbMText
 10
1289.3599999999999
 20
-1259.1299999999999
 30
0.0
 40
28.2224
 41
0.0
 71
               1
 72
               1
  1
図　番
  7
________
  0
LINE
  5
E3
100
AcDbEntity
  8
OBJECT
  6
CONTINUOUS
100
AcDbLine
 10
-1095.3999999999999
 20
-1388.9999999999998
 30
0.0
 11
-1095.3999999999999
 21
-1249.0
 31
0.0
  0
MTEXT
  5
E4
100
AcDbEntity
  8
TEXT
100
AcDbMText
 10
1115.3119999999999
 20
-1314.0139999999999
 30
0.0
 40
39.511200000000002
 41
0.0
 71
               1
 72
               1
  1
1/10
  7
________
  0
LINE
  5
E5
100
AcDbEntity
  8
FRAME
  6
CONTINUOUS
100
AcDbLine
 10
-2025.3999999999999
 20
-1249.0
 30
0.0
 11
2024.5999999999999
 21
-1249.0
 31
0.0
  0
MTEXT
  5
E6
100
AcDbEntity
  8
DIMENTION
100
AcDbMText
 10
-1085.6399999999999
 20
-1257.1088
 30
0.0
 40
28.2224
 41
0.0
 71
               1
 72
               1
  1
検  図
  7
________
  0
MTEXT
  5
E7
100
AcDbEntity
  8
DIMENTION
100
AcDbMText
 10
-1085.6399999999999
 20
-1302.1899999999998
 30
0.0
 40
28.2224
 41
0.0
 71
               1
 72
               1
  1
担  当
  7
________
  0
MTEXT
  5
E8
100
AcDbEntity
  8
DIMENTION
100
AcDbMText
 10
-1085.6399999999999
 20
-1347.0599999999999
 30
0.0
 40
28.2224
 41
0.0
 71
               1
 72
               1
  1
年月日
  7
________
  0
LINE
  5
E9
100
AcDbEntity
  8
OBJECT
  6
CONTINUOUS
100
AcDbLine
 10
-1095.3999999999999
 20
-1297.9399999999998
 30
0.0
 11
-675.39999999999998
 21
-1297.9399999999998
 31
0.0
  0
LINE
  5
EA
100
AcDbEntity
  8
OBJECT
  6
CONTINUOUS
100
AcDbLine
 10
-1095.3999999999999
 20
-1342.3299999999999
 30
0.0
 11
-675.39999999999998
 21
-1342.3299999999999
 31
0.0
  0
MTEXT
  5
EB
100
AcDbEntity
  8
TEXT
100
AcDbMText
 10
-44.165000000000077
 20
-1315.0347999999999
 30
0.0
 40
39.511200000000002
 41
0.0
 71
               1
 72
               1
  1
食器ディスペンサー
  7
________
  0
MTEXT
  5
EC
100
AcDbEntity
  8
TEXT
100
AcDbMText
 10
-930.0
 20
-1350.0
 30
0.0
 40
28.222222222222225
 41
0.0
 71
               1
 72
               1
  1
2019.09.04
  7
________
  0
MTEXT
  5
ED
100
AcDbEntity
  8
TEXT
100
AcDbMText
 10
-930.0
 20
-1302.0
 30
0.0
 40
28.222222222222225
 41
0.0
 71
               1
 72
               1
  1
月川
  7
________
  0
MTEXT
  5
EE
100
AcDbEntity
  8
TEXT
100
AcDbMText
 10
-930.0
 20
-1258.0
 30
0.0
 40
28.222222222222225
 41
0.0
 71
               1
 72
               1
  1
大谷
  7
________
  0
MTEXT
  5
EF
100
AcDbEntity
  8
TEXT
100
AcDbMText
 10
744.36000000000013
 20
-1339.7293
 30
0.0
 40
50.800000000000004
 41
0.0
 71
               5
 72
               1
  1
CL 16W6
  7
________
  0
MTEXT
  5
F0
100
AcDbEntity
  8
TEXT
100
AcDbMText
 10
1429.9999999999995
 20
-1270.0
 30
0.0
 40
79.02222222222224
 41
0.0
 71
               1
 72
               1
  1
A330-103B
  7
ARIAL
  0
INSERT
  5
F1
100
AcDbEntity
  8
FRAME
100
AcDbBlockReference
  2
*U6
 10
0.0
 20
19.999999999999996
 30
0.0
  0
POLYLINE
  5
F2
100
AcDbEntity
  8
OBJECT
  6
CONTINUOUS
100
AcDb2dPolyline
 66
               1
 10
0.0
 20
0.0
 30
0.0
 70
               1
 75
               5
  0
VERTEX
  5
F3
100
AcDbEntity
  8
OBJECT
  6
CONTINUOUS
100
AcDbVertex
100
AcDb2dVertex
 10
700.0
 20
1200.0
 30
0.0
  0
VERTEX
  5
F4
100
AcDbEntity
  8
OBJECT
  6
CONTINUOUS
100
AcDbVertex
100
AcDb2dVertex
 10
1800.0
 20
1200.0
 30
0.0
  0
VERTEX
  5
F5
100
AcDbEntity
  8
OBJECT
  6
CONTINUOUS
100
AcDbVertex
100
AcDb2dVertex
 10
1800.0
 20
840.0
 30
0.0
  0
VERTEX
  5
F6
100
AcDbEntity
  8
OBJECT
  6
CONTINUOUS
100
AcDbVertex
100
AcDb2dVertex
 10
700.0
 20
840.0
 30
0.0
  0
SEQEND
  5
F7
100
AcDbEntity
  8
OBJECT
  6
CONTINUOUS
  0
LINE
  5
F8
100
AcDbEntity
  8
OBJECT
  6
CONTINUOUS
100
AcDbLine
 10
1099.9999999999995
 20
1200.0
 30
0.0
 11
1099.9999999999995
 21
840.0
 31
0.0
  0
MTEXT
  5
F9
100
AcDbEntity
  8
TEXT
100
AcDbMText
 10
700.0
 20
1170.0
 30
0.0
 40
33.866666666666667
 41
399.99999999999955
 71
               4
 72
               1
  1
　形　　　　　　　　式
  7
________
  0
LINE
  5
FA
100
AcDbEntity
  8
OBJECT
100
AcDbLine
 10
1800.0
 20
1140.0
 30
0.0
 11
700.0
 21
1140.0
 31
0.0
  0
MTEXT
  5
FB
100
AcDbEntity
  8
TEXT
100
AcDbMText
 10
1099.9999999999995
 20
1170.0
 30
0.0
 40
33.866666666666667
 41
700.00000000000045
 71
               4
 72
               1
  1
　CL 16W6
  7
________
  0
LINE
  5
FC
100
AcDbEntity
  8
OBJECT
100
AcDbLine
 10
1800.0
 20
960.0
 30
0.0
 11
700.0
 21
960.0
 31
0.0
  0
MTEXT
  5
FD
100
AcDbEntity
  8
TEXT
100
AcDbMText
 10
700.0
 20
1050.0
 30
0.0
 40
33.866666666666667
 41
399.99999999999955
 71
               4
 72
               1
  1
　{\H0.976x;\l適　用　食　器\P\P　ストック数量の目安}
  7
________
  0
MTEXT
  5
FE
100
AcDbEntity
  8
TEXT
100
AcDbMText
 10
1099.9999999999995
 20
1050.0
 30
0.0
 40
33.866666666666667
 41
700.0
 71
               4
 72
               1
  1
　{\H0.976x;\lどんぶり155φ×30個×3列×2\P　皿155φ×70枚×3列×2\P　どんぶり：180個, 皿：420枚}
  7
________
  0
LINE
  5
FF
100
AcDbEntity
  8
OBJECT
100
AcDbLine
 10
1800.0
 20
900.0
 30
0.0
 11
700.0
 21
900.0
 31
0.0
  0
MTEXT
  5
100
100
AcDbEntity
  8
TEXT
100
AcDbMText
 10
700.0
 20
930.0
 30
0.0
 40
33.866666666666667
 41
399.99999999999955
 71
               4
 72
               1
  1
　ば ね 調 整 範 囲
  7
________
  0
MTEXT
  5
101
100
AcDbEntity
  8
TEXT
100
AcDbMText
 10
1099.9999999999995
 20
930.0
 30
0.0
 40
33.866666666666667
 41
700.00000000000045
 71
               4
 72
               1
  1
　5～15kg×6
  7
________
  0
MTEXT
  5
102
100
AcDbEntity
  8
TEXT
100
AcDbMText
 10
700.0
 20
870.0
 30
0.0
 40
33.866666666666667
 41
399.99999999999955
 71
               4
 72
               1
  1
　質　　　　　　　　量
  7
________
  0
MTEXT
  5
103
100
AcDbEntity
  8
TEXT
100
AcDbMText
 10
1099.9999999999995
 20
870.0
 30
0.0
 40
33.866666666666667
 41
700.00000000000045
 71
               4
 72
               1
  1
　35.5kg
  7
________
  0
MTEXT
  5
104
100
AcDbEntity
  8
DIMENTION
100
AcDbMText
 10
655.0
 20
700.0
 30
0.0
 40
33.866666666666667
 41
1305.0
 71
               1
 72
               1
  1
使用する食器は外径寸法155φ(mm)を超えないようにしてください。\P超えてしまうと食器が収納できないまたは引っ掛かりが生じ、出し\P入れできない場合があります。
  7
________
  0
MTEXT
  5
105
100
AcDbEntity
  8
DIMENTION
100
AcDbMText
 10
600.0
 20
700.0
 30
0.0
 40
33.866666666666667
 41
50.0
 71
               1
 72
               1
  1
※
  7
________
  0
LINE
  5
106
100
AcDbEntity
  8
CENTER
  6
STYLE_03
100
AcDbLine
 10
300.0
 20
-0.0000000000000036
 30
0.0
 11
300.0
 21
-950.0
 31
0.0
  0
POLYLINE
  5
107
100
AcDbEntity
  8
OBJECT
  6
CONTINUOUS
100
AcDb2dPolyline
 66
               1
 10
0.0
 20
0.0
 30
0.0
 70
               1
 75
               5
  0
VERTEX
  5
108
100
AcDbEntity
  8
OBJECT
  6
CONTINUOUS
100
AcDbVertex
100
AcDb2dVertex
 10
103.0
 20
-69.5
 30
0.0
  0
VERTEX
  5
109
100
AcDbEntity
  8
OBJECT
  6
CONTINUOUS
100
AcDbVertex
100
AcDb2dVertex
 10
138.0
 20
-69.5
 30
0.0
  0
VERTEX
  5
10A
100
AcDbEntity
  8
OBJECT
  6
CONTINUOUS
100
AcDbVertex
100
AcDb2dVertex
 10
138.0
 20
-779.5
 30
0.0
  0
VERTEX
  5
10B
100
AcDbEntity
  8
OBJECT
  6
CONTINUOUS
100
AcDbVertex
100
AcDb2dVertex
 10
103.0
 20
-779.5
 30
0.0
  0
SEQEND
  5
10C
100
AcDbEntity
  8
OBJECT
  6
CONTINUOUS
  0
POLYLINE
  5
10D
100
AcDbEntity
  8
OBJECT
  6
CONTINUOUS
100
AcDb2dPolyline
 66
               1
 10
0.0
 20
0.0
 30
0.0
 70
               1
 75
               5
  0
VERTEX
  5
10E
100
AcDbEntity
  8
OBJECT
  6
CONTINUOUS
100
AcDbVertex
100
AcDb2dVertex
 10
104.0
 20
-779.5
 30
0.0
  0
VERTEX
  5
10F
100
AcDbEntity
  8
OBJECT
  6
CONTINUOUS
100
AcDbVertex
100
AcDb2dVertex
 10
496.0
 20
-779.5
 30
0.0
  0
VERTEX
  5
110
100
AcDbEntity
  8
OBJECT
  6
CONTINUOUS
100
AcDbVertex
100
AcDb2dVertex
 10
496.0
 20
-781.0
 30
0.0
  0
VERTEX
  5
111
100
AcDbEntity
  8
OBJECT
  6
CONTINUOUS
100
AcDbVertex
100
AcDb2dVertex
 10
104.0
 20
-781.0
 30
0.0
  0
SEQEND
  5
112
100
AcDbEntity
  8
OBJECT
  6
CONTINUOUS
  0
POLYLINE
  5
113
100
AcDbEntity
  8
OBJECT
  6
CONTINUOUS
100
AcDb2dPolyline
 66
               1
 10
0.0
 20
0.0
 30
0.0
 70
               1
 75
               5
  0
VERTEX
  5
114
100
AcDbEntity
  8
OBJECT
  6
CONTINUOUS
100
AcDbVertex
100
AcDb2dVertex
 10
462.0
 20
-69.5
 30
0.0
  0
VERTEX
  5
115
100
AcDbEntity
  8
OBJECT
  6
CONTINUOUS
100
AcDbVertex
100
AcDb2dVertex
 10
497.0
 20
-69.5
 30
0.0
  0
VERTEX
  5
116
100
AcDbEntity
  8
OBJECT
  6
CONTINUOUS
100
AcDbVertex
100
AcDb2dVertex
 10
497.0
 20
-779.5
 30
0.0
  0
VERTEX
  5
117
100
AcDbEntity
  8
OBJECT
  6
CONTINUOUS
100
AcDbVertex
100
AcDb2dVertex
 10
462.0
 20
-779.5
 30
0.0
  0
SEQEND
  5
118
100
AcDbEntity
  8
OBJECT
  6
CONTINUOUS
  0
POLYLINE
  5
119
100
AcDbEntity
  8
OBJECT
  6
CONTINUOUS
100
AcDb2dPolyline
 66
               1
 10
0.0
 20
0.0
 30
0.0
 70
               1
 75
               5
  0
VERTEX
  5
11A
100
AcDbEntity
  8
OBJECT
  6
CONTINUOUS
100
AcDbVertex
100
AcDb2dVertex
 10
138.0
 20
-69.5
 30
0.0
  0
VERTEX
  5
11B
100
AcDbEntity
  8
OBJECT
  6
CONTINUOUS
100
AcDbVertex
100
AcDb2dVertex
 10
462.0
 20
-69.5
 30
0.0
  0
VERTEX
  5
11C
100
AcDbEntity
  8
OBJECT
  6
CONTINUOUS
100
AcDbVertex
100
AcDb2dVertex
 10
462.0
 20
-99.5
 30
0.0
  0
VERTEX
  5
11D
100
AcDbEntity
  8
OBJECT
  6
CONTINUOUS
100
AcDbVertex
100
AcDb2dVertex
 10
138.0
 20
-99.5
 30
0.0
  0
SEQEND
  5
11E
100
AcDbEntity
  8
OBJECT
  6
CONTINUOUS
  0
LWPOLYLINE
  5
11F
100
AcDbEntity
  8
OBJECT
  6
CONTINUOUS
100
AcDbPolyline
 90
       10
 70
             129
 10
163.5
 20
-845.5
 42
0.414213562373095
 10
161.5
 20
-847.5
 10
161.5
 20
-860.5
 42
0.414213562373095
 10
163.5
 20
-862.5
 10
164.5
 20
-862.5
 10
164.5
 20
-855.5
 10
179.5
 20
-855.5
 42
0.414213562373095
 10
181.5
 20
-853.5
 10
181.5
 20
-847.5
 42
0.414213562373095
 10
179.5
 20
-845.5
  0
POLYLINE
  5
120
100
AcDbEntity
  8
OBJECT
  6
CONTINUOUS
100
AcDb2dPolyline
 66
               1
 10
0.0
 20
0.0
 30
0.0
 70
               1
 75
               5
  0
VERTEX
  5
121
100
AcDbEntity
  8
OBJECT
  6
CONTINUOUS
100
AcDbVertex
100
AcDb2dVertex
 10
176.0
 20
-781.0
 30
0.0
  0
VERTEX
  5
122
100
AcDbEntity
  8
OBJECT
  6
CONTINUOUS
100
AcDbVertex
100
AcDb2dVertex
 10
106.0
 20
-781.0
 30
0.0
  0
VERTEX
  5
123
100
AcDbEntity
  8
OBJECT
  6
CONTINUOUS
100
AcDbVertex
100
AcDb2dVertex
 10
106.0
 20
-784.0
 30
0.0
  0
VERTEX
  5
124
100
AcDbEntity
  8
OBJECT
  6
CONTINUOUS
100
AcDbVertex
100
AcDb2dVertex
 10
176.0
 20
-784.0
 30
0.0
  0
SEQEND
  5
125
100
AcDbEntity
  8
OBJECT
  6
CONTINUOUS
  0
POLYLINE
  5
126
100
AcDbEntity
  8
OBJECT
  6
CONTINUOUS
100
AcDb2dPolyline
 66
               1
 10
0.0
 20
0.0
 30
0.0
 70
               1
 75
               5
  0
VERTEX
  5
127
100
AcDbEntity
  8
OBJECT
  6
CONTINUOUS
100
AcDbVertex
100
AcDb2dVertex
 10
167.5
 20
-784.0
 30
0.0
  0
VERTEX
  5
128
100
AcDbEntity
  8
OBJECT
  6
CONTINUOUS
100
AcDbVertex
100
AcDb2dVertex
 10
114.5
 20
-784.0
 30
0.0
  0
VERTEX
  5
129
100
AcDbEntity
  8
OBJECT
  6
CONTINUOUS
100
AcDbVertex
100
AcDb2dVertex
 10
118.5
 20
-787.5
 30
0.0
  0
VERTEX
  5
12A
100
AcDbEntity
  8
OBJECT
  6
CONTINUOUS
100
AcDbVertex
100
AcDb2dVertex
 10
118.5
 20
-791.0
 30
0.0
  0
VERTEX
  5
12B
100
AcDbEntity
  8
OBJECT
  6
CONTINUOUS
100
AcDbVertex
100
AcDb2dVertex
 10
163.5
 20
-791.0
 30
0.0
  0
VERTEX
  5
12C
100
AcDbEntity
  8
OBJECT
  6
CONTINUOUS
100
AcDbVertex
100
AcDb2dVertex
 10
163.5
 20
-787.5
 30
0.0
  0
SEQEND
  5
12D
100
AcDbEntity
  8
OBJECT
  6
CONTINUOUS
  0
LINE
  5
12E
100
AcDbEntity
  8
OBJECT
  6
CONTINUOUS
100
AcDbLine
 10
163.5
 20
-787.5
 30
0.0
 11
118.5
 21
-787.5
 31
0.0
  0
SPLINE
  5
12F
100
AcDbEntity
  8
OBJECT
  6
CONTINUOUS
100
AcDbSpline
210
0.0
220
0.0
230
1.0
 70
               9
 71
               2
 72
              28
 73
              25
 74
               0
 42
0.000001
 43
0.000001
 40
0.0
 40
0.0
 40
0.0
 40
0.1364451216774349
 40
0.1364451216774349
 40
0.206088985866959
 40
0.206088985866959
 40
0.2868044973790079
 40
0.2868044973790079
 40
0.3351288113064328
 40
0.3351288113064328
 40
0.3436566314112725
 40
0.3436566314112725
 40
0.525583460314519
 40
0.525583460314519
 40
0.6108616613629158
 40
0.6108616613629158
 40
0.7927884902661623
 40
0.7927884902661623
 40
0.8013163103710019
 40
0.8013163103710019
 40
0.8496406242984268
 40
0.8496406242984268
 40
0.9303561358104757
 40
0.9303561358104757
 40
1.0
 40
1.0
 40
1.0
 10
117.0
 20
-791.0
 30
0.0
 10
141.0
 20
-791.0
 30
0.0
 10
165.0
 20
-791.0
 30
0.0
 10
165.0
 20
-803.25
 30
0.0
 10
165.0
 20
-815.5
 30
0.0
 10
165.0
 20
-830.5
 30
0.0
 10
159.0
 20
-843.0
 30
0.0
 10
159.0
 20
-851.5
 30
0.0
 10
159.0
 20
-860.0
 30
0.0
 10
157.5
 20
-860.0
 30
0.0
 10
156.0
 20
-860.0
 30
0.0
 10
156.0
 20
-828.0
 30
0.0
 10
156.0
 20
-796.0
 30
0.0
 10
141.0
 20
-796.0
 30
0.0
 10
126.0
 20
-796.0
 30
0.0
 10
126.0
 20
-828.0
 30
0.0
 10
126.0
 20
-860.0
 30
0.0
 10
124.5
 20
-860.0
 30
0.0
 10
123.0
 20
-860.0
 30
0.0
 10
123.0
 20
-851.5
 30
0.0
 10
123.0
 20
-843.0
 30
0.0
 10
117.0
 20
-830.5
 30
0.0
 10
117.0
 20
-815.5
 30
0.0
 10
117.0
 20
-803.25
 30
0.0
 10
117.0
 20
-791.0
 30
0.0
  0
POLYLINE
  5
130
100
AcDbEntity
  8
OBJECT
  6
CONTINUOUS
100
AcDb2dPolyline
 66
               1
 10
0.0
 20
0.0
 30
0.0
 70
               1
 75
               5
  0
VERTEX
  5
131
100
AcDbEntity
  8
OBJECT
  6
CONTINUOUS
100
AcDbVertex
100
AcDb2dVertex
 10
123.0
 20
-793.0
 30
0.0
  0
VERTEX
  5
132
100
AcDbEntity
  8
OBJECT
  6
CONTINUOUS
100
AcDbVertex
100
AcDb2dVertex
 10
159.0
 20
-793.0
 30
0.0
  0
VERTEX
  5
133
100
AcDbEntity
  8
OBJECT
  6
CONTINUOUS
100
AcDbVertex
100
AcDb2dVertex
 10
159.0
 20
-860.0
 30
0.0
  0
VERTEX
  5
134
100
AcDbEntity
  8
OBJECT
  6
CONTINUOUS
100
AcDbVertex
100
AcDb2dVertex
 10
156.0
 20
-860.0
 30
0.0
  0
VERTEX
  5
135
100
AcDbEntity
  8
OBJECT
  6
CONTINUOUS
100
AcDbVertex
100
AcDb2dVertex
 10
156.0
 20
-796.0
 30
0.0
  0
VERTEX
  5
136
100
AcDbEntity
  8
OBJECT
  6
CONTINUOUS
100
AcDbVertex
100
AcDb2dVertex
 10
126.0
 20
-796.0
 30
0.0
  0
VERTEX
  5
137
100
AcDbEntity
  8
OBJECT
  6
CONTINUOUS
100
AcDbVertex
100
AcDb2dVertex
 10
126.0
 20
-860.0
 30
0.0
  0
VERTEX
  5
138
100
AcDbEntity
  8
OBJECT
  6
CONTINUOUS
100
AcDbVertex
100
AcDb2dVertex
 10
123.0
 20
-860.0
 30
0.0
  0
SEQEND
  5
139
100
AcDbEntity
  8
OBJECT
  6
CONTINUOUS
  0
SPLINE
  5
13A
100
AcDbEntity
  8
OBJECT
  6
CONTINUOUS
100
AcDbSpline
210
0.0
220
0.0
230
1.0
 70
              13
 71
               2
 72
              28
 73
              25
 74
               0
 42
0.000001
 43
0.000001
 40
0.0
 40
0.0
 40
0.0
 40
0.0116664369471643
 40
0.0116664369471643
 40
0.0307673121208422
 40
0.0307673121208422
 40
0.0826383042797582
 40
0.0826383042797582
 40
0.1017391794534361
 40
0.1017391794534361
 40
0.1134056164006006
 40
0.1134056164006006
 40
0.4999999999999996
 40
0.4999999999999996
 40
0.5116664369471647
 40
0.5116664369471647
 40
0.5307673121208426
 40
0.5307673121208426
 40
0.5826383042797587
 40
0.5826383042797587
 40
0.6017391794534366
 40
0.6017391794534366
 40
0.613405616400601
 40
0.613405616400601
 40
1.0
 40
1.0
 40
1.0
 10
128.5
 20
-803.20543822418756
 30
0.0
 41
1.0
 10
128.50000000000009
 20
-801.5
 30
0.0
 41
0.7609173743274311
 10
130.18401899778667
 20
-801.23055696035419
 30
0.0
 41
1.0
 10
132.46700949889333
 20
-800.86527848017704
 30
0.0
 41
1.0
 10
134.75
 20
-800.5
 30
0.0
 41
1.0
 10
141.0
 20
-799.5
 30
0.0
 41
1.0
 10
147.25
 20
-800.5
 30
0.0
 41
1.0
 10
149.53299050110667
 20
-800.86527848017704
 30
0.0
 41
1.0
 10
151.81598100221333
 20
-801.23055696035419
 30
0.0
 41
1.0
 10
153.5
 20
-801.5
 30
0.0
 41
0.760917374327411
 10
153.5
 20
-803.20543822418756
 30
0.0
 41
1.0
 10
153.5
 20
-850.0
 30
0.0
 41
1.0
 10
153.5
 20
-896.79456177581244
 30
0.0
 41
1.0
 10
153.5
 20
-898.5
 30
0.0
 41
0.7609173743274067
 10
151.81598100221333
 20
-898.76944303964581
 30
0.0
 41
1.0
 10
149.53299050110667
 20
-899.13472151982296
 30
0.0
 41
1.0
 10
147.25
 20
-899.5
 30
0.0
 41
1.0
 10
141.0
 20
-900.5
 30
0.0
 41
1.0
 10
134.75
 20
-899.5
 30
0.0
 41
1.0
 10
132.46700949889333
 20
-899.13472151982296
 30
0.0
 41
1.0
 10
130.18401899778667
 20
-898.76944303964581
 30
0.0
 41
1.0
 10
128.5
 20
-898.49999999999989
 30
0.0
 41
0.7609173743274248
 10
128.5
 20
-896.79456177581244
 30
0.0
 41
1.0
 10
128.5
 20
-850.0
 30
0.0
 41
1.0
 10
128.5
 20
-803.20543822418756
 30
0.0
 41
1.0
  0
POLYLINE
  5
13B
100
AcDbEntity
  8
OBJECT
  6
CONTINUOUS
100
AcDb2dPolyline
 66
               1
 10
0.0
 20
0.0
 30
0.0
 70
               1
 75
               5
  0
VERTEX
  5
13C
100
AcDbEntity
  8
OBJECT
  6
CONTINUOUS
100
AcDbVertex
100
AcDb2dVertex
 10
153.5
 20
-841.75
 30
0.0
  0
VERTEX
  5
13D
100
AcDbEntity
  8
OBJECT
  6
CONTINUOUS
100
AcDbVertex
100
AcDb2dVertex
 10
156.0
 20
-841.75
 30
0.0
  0
VERTEX
  5
13E
100
AcDbEntity
  8
OBJECT
  6
CONTINUOUS
100
AcDbVertex
100
AcDb2dVertex
 10
156.0
 20
-858.25
 30
0.0
  0
VERTEX
  5
13F
100
AcDbEntity
  8
OBJECT
  6
CONTINUOUS
100
AcDbVertex
100
AcDb2dVertex
 10
153.5
 20
-858.25
 30
0.0
  0
SEQEND
  5
140
100
AcDbEntity
  8
OBJECT
  6
CONTINUOUS
  0
POLYLINE
  5
141
100
AcDbEntity
  8
OBJECT
  6
CONTINUOUS
100
AcDb2dPolyline
 66
               1
 10
0.0
 20
0.0
 30
0.0
 70
               1
 75
               5
  0
VERTEX
  5
142
100
AcDbEntity
  8
OBJECT
  6
CONTINUOUS
100
AcDbVertex
100
AcDb2dVertex
 10
126.0
 20
-841.75
 30
0.0
  0
VERTEX
  5
143
100
AcDbEntity
  8
OBJECT
  6
CONTINUOUS
100
AcDbVertex
100
AcDb2dVertex
 10
128.5
 20
-841.75
 30
0.0
  0
VERTEX
  5
144
100
AcDbEntity
  8
OBJECT
  6
CONTINUOUS
100
AcDbVertex
100
AcDb2dVertex
 10
128.5
 20
-858.25
 30
0.0
  0
VERTEX
  5
145
100
AcDbEntity
  8
OBJECT
  6
CONTINUOUS
100
AcDbVertex
100
AcDb2dVertex
 10
126.0
 20
-858.25
 30
0.0
  0
SEQEND
  5
146
100
AcDbEntity
  8
OBJECT
  6
CONTINUOUS
  0
POLYLINE
  5
147
100
AcDbEntity
  8
OBJECT
  6
CONTINUOUS
100
AcDb2dPolyline
 66
               1
 10
0.0
 20
0.0
 30
0.0
 70
               1
 75
               5
  0
VERTEX
  5
148
100
AcDbEntity
  8
OBJECT
  6
CONTINUOUS
100
AcDbVertex
100
AcDb2dVertex
 10
120.5
 20
-844.5
 30
0.0
  0
VERTEX
  5
149
100
AcDbEntity
  8
OBJECT
  6
CONTINUOUS
100
AcDbVertex
100
AcDb2dVertex
 10
123.0
 20
-844.5
 30
0.0
  0
VERTEX
  5
14A
100
AcDbEntity
  8
OBJECT
  6
CONTINUOUS
100
AcDbVertex
100
AcDb2dVertex
 10
123.0
 20
-855.5
 30
0.0
  0
VERTEX
  5
14B
100
AcDbEntity
  8
OBJECT
  6
CONTINUOUS
100
AcDbVertex
100
AcDb2dVertex
 10
120.5
 20
-855.5
 30
0.0
  0
SEQEND
  5
14C
100
AcDbEntity
  8
OBJECT
  6
CONTINUOUS
  0
POLYLINE
  5
14D
100
AcDbEntity
  8
OBJECT
  6
CONTINUOUS
100
AcDb2dPolyline
 66
               1
 10
0.0
 20
0.0
 30
0.0
 70
               1
 75
               5
  0
VERTEX
  5
14E
100
AcDbEntity
  8
OBJECT
  6
CONTINUOUS
100
AcDbVertex
100
AcDb2dVertex
 10
159.0
 20
-844.5
 30
0.0
  0
VERTEX
  5
14F
100
AcDbEntity
  8
OBJECT
  6
CONTINUOUS
100
AcDbVertex
100
AcDb2dVertex
 10
161.5
 20
-844.5
 30
0.0
  0
VERTEX
  5
150
100
AcDbEntity
  8
OBJECT
  6
CONTINUOUS
100
AcDbVertex
100
AcDb2dVertex
 10
161.5
 20
-855.5
 30
0.0
  0
VERTEX
  5
151
100
AcDbEntity
  8
OBJECT
  6
CONTINUOUS
100
AcDbVertex
100
AcDb2dVertex
 10
159.0
 20
-855.5
 30
0.0
  0
SEQEND
  5
152
100
AcDbEntity
  8
OBJECT
  6
CONTINUOUS
  0
POLYLINE
  5
153
100
AcDbEntity
  8
OBJECT
  6
CONTINUOUS
100
AcDb2dPolyline
 66
               1
 10
0.0
 20
0.0
 30
0.0
 70
               1
 75
               5
  0
VERTEX
  5
154
100
AcDbEntity
  8
OBJECT
  6
CONTINUOUS
100
AcDbVertex
100
AcDb2dVertex
 10
161.5
 20
-837.5
 30
0.0
  0
VERTEX
  5
155
100
AcDbEntity
  8
OBJECT
  6
CONTINUOUS
100
AcDbVertex
100
AcDb2dVertex
 10
161.5
 20
-862.5
 30
0.0
  0
VERTEX
  5
156
100
AcDbEntity
  8
OBJECT
  6
CONTINUOUS
100
AcDbVertex
100
AcDb2dVertex
 10
164.5
 20
-862.5
 30
0.0
  0
VERTEX
  5
157
100
AcDbEntity
  8
OBJECT
  6
CONTINUOUS
100
AcDbVertex
100
AcDb2dVertex
 10
164.5
 20
-840.5
 30
0.0
  0
VERTEX
  5
158
100
AcDbEntity
  8
OBJECT
  6
CONTINUOUS
100
AcDbVertex
100
AcDb2dVertex
 10
181.5
 20
-840.5
 30
0.0
  0
VERTEX
  5
159
100
AcDbEntity
  8
OBJECT
  6
CONTINUOUS
100
AcDbVertex
100
AcDb2dVertex
 10
181.5
 20
-837.5
 30
0.0
  0
SEQEND
  5
15A
100
AcDbEntity
  8
OBJECT
  6
CONTINUOUS
  0
LINE
  5
15B
100
AcDbEntity
  8
OBJECT
  6
CONTINUOUS
100
AcDbLine
 10
179.5
 20
-848.5
 30
0.0
 11
164.5
 21
-848.5
 31
0.0
  0
ARC
  5
15C
100
AcDbEntity
  8
OBJECT
  6
CONTINUOUS
100
AcDbCircle
 10
179.5
 20
-850.5
 30
0.0
 40
2.0
100
AcDbArc
 50
0.0
 51
90.0
  0
LWPOLYLINE
  5
15D
100
AcDbEntity
  8
OBJECT
  6
CONTINUOUS
100
AcDbPolyline
 90
       10
 70
             129
 10
481.5
 20
-845.5
 42
0.414213562373095
 10
479.5
 20
-847.5
 10
479.5
 20
-860.5
 42
0.414213562373095
 10
481.5
 20
-862.5
 10
482.5
 20
-862.5
 10
482.5
 20
-855.5
 10
497.5
 20
-855.5
 42
0.414213562373095
 10
499.5
 20
-853.5
 10
499.5
 20
-847.5
 42
0.414213562373095
 10
497.5
 20
-845.5
  0
POLYLINE
  5
15E
100
AcDbEntity
  8
OBJECT
  6
CONTINUOUS
100
AcDb2dPolyline
 66
               1
 10
0.0
 20
0.0
 30
0.0
 70
               1
 75
               5
  0
VERTEX
  5
15F
100
AcDbEntity
  8
OBJECT
  6
CONTINUOUS
100
AcDbVertex
100
AcDb2dVertex
 10
494.0
 20
-781.0
 30
0.0
  0
VERTEX
  5
160
100
AcDbEntity
  8
OBJECT
  6
CONTINUOUS
100
AcDbVertex
100
AcDb2dVertex
 10
424.0
 20
-781.0
 30
0.0
  0
VERTEX
  5
161
100
AcDbEntity
  8
OBJECT
  6
CONTINUOUS
100
AcDbVertex
100
AcDb2dVertex
 10
424.0
 20
-784.0
 30
0.0
  0
VERTEX
  5
162
100
AcDbEntity
  8
OBJECT
  6
CONTINUOUS
100
AcDbVertex
100
AcDb2dVertex
 10
494.0
 20
-784.0
 30
0.0
  0
SEQEND
  5
163
100
AcDbEntity
  8
OBJECT
  6
CONTINUOUS
  0
POLYLINE
  5
164
100
AcDbEntity
  8
OBJECT
  6
CONTINUOUS
100
AcDb2dPolyline
 66
               1
 10
0.0
 20
0.0
 30
0.0
 70
               1
 75
               5
  0
VERTEX
  5
165
100
AcDbEntity
  8
OBJECT
  6
CONTINUOUS
100
AcDbVertex
100
AcDb2dVertex
 10
485.5
 20
-784.0
 30
0.0
  0
VERTEX
  5
166
100
AcDbEntity
  8
OBJECT
  6
CONTINUOUS
100
AcDbVertex
100
AcDb2dVertex
 10
432.5
 20
-784.0
 30
0.0
  0
VERTEX
  5
167
100
AcDbEntity
  8
OBJECT
  6
CONTINUOUS
100
AcDbVertex
100
AcDb2dVertex
 10
436.5
 20
-787.5
 30
0.0
  0
VERTEX
  5
168
100
AcDbEntity
  8
OBJECT
  6
CONTINUOUS
100
AcDbVertex
100
AcDb2dVertex
 10
436.5
 20
-791.0
 30
0.0
  0
VERTEX
  5
169
100
AcDbEntity
  8
OBJECT
  6
CONTINUOUS
100
AcDbVertex
100
AcDb2dVertex
 10
481.5
 20
-791.0
 30
0.0
  0
VERTEX
  5
16A
100
AcDbEntity
  8
OBJECT
  6
CONTINUOUS
100
AcDbVertex
100
AcDb2dVertex
 10
481.5
 20
-787.5
 30
0.0
  0
SEQEND
  5
16B
100
AcDbEntity
  8
OBJECT
  6
CONTINUOUS
  0
LINE
  5
16C
100
AcDbEntity
  8
OBJECT
  6
CONTINUOUS
100
AcDbLine
 10
481.5
 20
-787.5
 30
0.0
 11
436.5
 21
-787.5
 31
0.0
  0
SPLINE
  5
16D
100
AcDbEntity
  8
OBJECT
  6
CONTINUOUS
100
AcDbSpline
210
0.0
220
0.0
230
1.0
 70
               9
 71
               2
 72
              28
 73
              25
 74
               0
 42
0.000001
 43
0.000001
 40
0.0
 40
0.0
 40
0.0
 40
0.1364451216774349
 40
0.1364451216774349
 40
0.206088985866959
 40
0.206088985866959
 40
0.2868044973790079
 40
0.2868044973790079
 40
0.3351288113064328
 40
0.3351288113064328
 40
0.3436566314112725
 40
0.3436566314112725
 40
0.525583460314519
 40
0.525583460314519
 40
0.6108616613629158
 40
0.6108616613629158
 40
0.7927884902661623
 40
0.7927884902661623
 40
0.8013163103710019
 40
0.8013163103710019
 40
0.8496406242984268
 40
0.8496406242984268
 40
0.9303561358104757
 40
0.9303561358104757
 40
1.0
 40
1.0
 40
1.0
 10
435.0
 20
-791.0
 30
0.0
 10
459.0
 20
-791.0
 30
0.0
 10
483.0
 20
-791.0
 30
0.0
 10
483.0
 20
-803.25
 30
0.0
 10
483.0
 20
-815.5
 30
0.0
 10
483.0
 20
-830.5
 30
0.0
 10
477.0
 20
-843.0
 30
0.0
 10
477.0
 20
-851.5
 30
0.0
 10
477.0
 20
-860.0
 30
0.0
 10
475.5
 20
-860.0
 30
0.0
 10
474.0
 20
-860.0
 30
0.0
 10
474.0
 20
-828.0
 30
0.0
 10
474.0
 20
-796.0
 30
0.0
 10
459.0
 20
-796.0
 30
0.0
 10
444.0
 20
-796.0
 30
0.0
 10
444.0
 20
-828.0
 30
0.0
 10
444.0
 20
-860.0
 30
0.0
 10
442.5
 20
-860.0
 30
0.0
 10
441.0
 20
-860.0
 30
0.0
 10
441.0
 20
-851.5
 30
0.0
 10
441.0
 20
-843.0
 30
0.0
 10
435.0
 20
-830.5
 30
0.0
 10
435.0
 20
-815.5
 30
0.0
 10
435.0
 20
-803.25
 30
0.0
 10
435.0
 20
-791.0
 30
0.0
  0
POLYLINE
  5
16E
100
AcDbEntity
  8
OBJECT
  6
CONTINUOUS
100
AcDb2dPolyline
 66
               1
 10
0.0
 20
0.0
 30
0.0
 70
               1
 75
               5
  0
VERTEX
  5
16F
100
AcDbEntity
  8
OBJECT
  6
CONTINUOUS
100
AcDbVertex
100
AcDb2dVertex
 10
441.0
 20
-793.0
 30
0.0
  0
VERTEX
  5
170
100
AcDbEntity
  8
OBJECT
  6
CONTINUOUS
100
AcDbVertex
100
AcDb2dVertex
 10
477.0
 20
-793.0
 30
0.0
  0
VERTEX
  5
171
100
AcDbEntity
  8
OBJECT
  6
CONTINUOUS
100
AcDbVertex
100
AcDb2dVertex
 10
477.0
 20
-860.0
 30
0.0
  0
VERTEX
  5
172
100
AcDbEntity
  8
OBJECT
  6
CONTINUOUS
100
AcDbVertex
100
AcDb2dVertex
 10
474.0
 20
-860.0
 30
0.0
  0
VERTEX
  5
173
100
AcDbEntity
  8
OBJECT
  6
CONTINUOUS
100
AcDbVertex
100
AcDb2dVertex
 10
474.0
 20
-796.0
 30
0.0
  0
VERTEX
  5
174
100
AcDbEntity
  8
OBJECT
  6
CONTINUOUS
100
AcDbVertex
100
AcDb2dVertex
 10
444.0
 20
-796.0
 30
0.0
  0
VERTEX
  5
175
100
AcDbEntity
  8
OBJECT
  6
CONTINUOUS
100
AcDbVertex
100
AcDb2dVertex
 10
444.0
 20
-860.0
 30
0.0
  0
VERTEX
  5
176
100
AcDbEntity
  8
OBJECT
  6
CONTINUOUS
100
AcDbVertex
100
AcDb2dVertex
 10
441.0
 20
-860.0
 30
0.0
  0
SEQEND
  5
177
100
AcDbEntity
  8
OBJECT
  6
CONTINUOUS
  0
SPLINE
  5
178
100
AcDbEntity
  8
OBJECT
  6
CONTINUOUS
100
AcDbSpline
210
0.0
220
0.0
230
1.0
 70
              13
 71
               2
 72
              28
 73
              25
 74
               0
 42
0.000001
 43
0.000001
 40
0.0
 40
0.0
 40
0.0
 40
0.0116664369471645
 40
0.0116664369471645
 40
0.0307673121208423
 40
0.0307673121208423
 40
0.0826383042797584
 40
0.0826383042797584
 40
0.1017391794534363
 40
0.1017391794534363
 40
0.1134056164006008
 40
0.1134056164006008
 40
0.4999999999999997
 40
0.4999999999999997
 40
0.511666436947165
 40
0.511666436947165
 40
0.5307673121208428
 40
0.5307673121208428
 40
0.5826383042797588
 40
0.5826383042797588
 40
0.6017391794534367
 40
0.6017391794534367
 40
0.6134056164006012
 40
0.6134056164006012
 40
1.0
 40
1.0
 40
1.0
 10
446.5
 20
-803.20543822418756
 30
0.0
 41
1.0
 10
446.50000000000011
 20
-801.5
 30
0.0
 41
0.7609173743274358
 10
448.18401899778667
 20
-801.23055696035419
 30
0.0
 41
1.0
 10
450.46700949889333
 20
-800.86527848017704
 30
0.0
 41
1.0
 10
452.75
 20
-800.5
 30
0.0
 41
1.0
 10
459.0
 20
-799.5
 30
0.0
 41
1.0
 10
465.25
 20
-800.5
 30
0.0
 41
1.0
 10
467.53299050110667
 20
-800.86527848017704
 30
0.0
 41
1.0
 10
469.81598100221333
 20
-801.23055696035419
 30
0.0
 41
1.0
 10
471.5
 20
-801.50000000000023
 30
0.0
 41
0.7609173743274291
 10
471.5
 20
-803.20543822418756
 30
0.0
 41
1.0
 10
471.5
 20
-850.0
 30
0.0
 41
1.0
 10
471.5
 20
-896.79456177581244
 30
0.0
 41
1.0
 10
471.50000000000006
 20
-898.5
 30
0.0
 41
0.7609173743273957
 10
469.81598100221333
 20
-898.76944303964581
 30
0.0
 41
1.0
 10
467.53299050110667
 20
-899.13472151982296
 30
0.0
 41
1.0
 10
465.25
 20
-899.5
 30
0.0
 41
1.0
 10
459.0
 20
-900.5
 30
0.0
 41
1.0
 10
452.75
 20
-899.5
 30
0.0
 41
1.0
 10
450.46700949889333
 20
-899.13472151982296
 30
0.0
 41
1.0
 10
448.18401899778667
 20
-898.76944303964581
 30
0.0
 41
1.0
 10
446.50000000000006
 20
-898.50000000000011
 30
0.0
 41
0.7609173743273839
 10
446.5
 20
-896.79456177581244
 30
0.0
 41
1.0
 10
446.5
 20
-850.0
 30
0.0
 41
1.0
 10
446.5
 20
-803.20543822418756
 30
0.0
 41
1.0
  0
POLYLINE
  5
179
100
AcDbEntity
  8
OBJECT
  6
CONTINUOUS
100
AcDb2dPolyline
 66
               1
 10
0.0
 20
0.0
 30
0.0
 70
               1
 75
               5
  0
VERTEX
  5
17A
100
AcDbEntity
  8
OBJECT
  6
CONTINUOUS
100
AcDbVertex
100
AcDb2dVertex
 10
471.5
 20
-841.75
 30
0.0
  0
VERTEX
  5
17B
100
AcDbEntity
  8
OBJECT
  6
CONTINUOUS
100
AcDbVertex
100
AcDb2dVertex
 10
474.0
 20
-841.75
 30
0.0
  0
VERTEX
  5
17C
100
AcDbEntity
  8
OBJECT
  6
CONTINUOUS
100
AcDbVertex
100
AcDb2dVertex
 10
474.0
 20
-858.25
 30
0.0
  0
VERTEX
  5
17D
100
AcDbEntity
  8
OBJECT
  6
CONTINUOUS
100
AcDbVertex
100
AcDb2dVertex
 10
471.5
 20
-858.25
 30
0.0
  0
SEQEND
  5
17E
100
AcDbEntity
  8
OBJECT
  6
CONTINUOUS
  0
POLYLINE
  5
17F
100
AcDbEntity
  8
OBJECT
  6
CONTINUOUS
100
AcDb2dPolyline
 66
               1
 10
0.0
 20
0.0
 30
0.0
 70
               1
 75
               5
  0
VERTEX
  5
180
100
AcDbEntity
  8
OBJECT
  6
CONTINUOUS
100
AcDbVertex
100
AcDb2dVertex
 10
444.0
 20
-841.75
 30
0.0
  0
VERTEX
  5
181
100
AcDbEntity
  8
OBJECT
  6
CONTINUOUS
100
AcDbVertex
100
AcDb2dVertex
 10
446.5
 20
-841.75
 30
0.0
  0
VERTEX
  5
182
100
AcDbEntity
  8
OBJECT
  6
CONTINUOUS
100
AcDbVertex
100
AcDb2dVertex
 10
446.5
 20
-858.25
 30
0.0
  0
VERTEX
  5
183
100
AcDbEntity
  8
OBJECT
  6
CONTINUOUS
100
AcDbVertex
100
AcDb2dVertex
 10
444.0
 20
-858.25
 30
0.0
  0
SEQEND
  5
184
100
AcDbEntity
  8
OBJECT
  6
CONTINUOUS
  0
POLYLINE
  5
185
100
AcDbEntity
  8
OBJECT
  6
CONTINUOUS
100
AcDb2dPolyline
 66
               1
 10
0.0
 20
0.0
 30
0.0
 70
               1
 75
               5
  0
VERTEX
  5
186
100
AcDbEntity
  8
OBJECT
  6
CONTINUOUS
100
AcDbVertex
100
AcDb2dVertex
 10
438.5
 20
-844.5
 30
0.0
  0
VERTEX
  5
187
100
AcDbEntity
  8
OBJECT
  6
CONTINUOUS
100
AcDbVertex
100
AcDb2dVertex
 10
441.0
 20
-844.5
 30
0.0
  0
VERTEX
  5
188
100
AcDbEntity
  8
OBJECT
  6
CONTINUOUS
100
AcDbVertex
100
AcDb2dVertex
 10
441.0
 20
-855.5
 30
0.0
  0
VERTEX
  5
189
100
AcDbEntity
  8
OBJECT
  6
CONTINUOUS
100
AcDbVertex
100
AcDb2dVertex
 10
438.5
 20
-855.5
 30
0.0
  0
SEQEND
  5
18A
100
AcDbEntity
  8
OBJECT
  6
CONTINUOUS
  0
POLYLINE
  5
18B
100
AcDbEntity
  8
OBJECT
  6
CONTINUOUS
100
AcDb2dPolyline
 66
               1
 10
0.0
 20
0.0
 30
0.0
 70
               1
 75
               5
  0
VERTEX
  5
18C
100
AcDbEntity
  8
OBJECT
  6
CONTINUOUS
100
AcDbVertex
100
AcDb2dVertex
 10
477.0
 20
-844.5
 30
0.0
  0
VERTEX
  5
18D
100
AcDbEntity
  8
OBJECT
  6
CONTINUOUS
100
AcDbVertex
100
AcDb2dVertex
 10
479.5
 20
-844.5
 30
0.0
  0
VERTEX
  5
18E
100
AcDbEntity
  8
OBJECT
  6
CONTINUOUS
100
AcDbVertex
100
AcDb2dVertex
 10
479.5
 20
-855.5
 30
0.0
  0
VERTEX
  5
18F
100
AcDbEntity
  8
OBJECT
  6
CONTINUOUS
100
AcDbVertex
100
AcDb2dVertex
 10
477.0
 20
-855.5
 30
0.0
  0
SEQEND
  5
190
100
AcDbEntity
  8
OBJECT
  6
CONTINUOUS
  0
POLYLINE
  5
191
100
AcDbEntity
  8
OBJECT
  6
CONTINUOUS
100
AcDb2dPolyline
 66
               1
 10
0.0
 20
0.0
 30
0.0
 70
               1
 75
               5
  0
VERTEX
  5
192
100
AcDbEntity
  8
OBJECT
  6
CONTINUOUS
100
AcDbVertex
100
AcDb2dVertex
 10
479.5
 20
-837.5
 30
0.0
  0
VERTEX
  5
193
100
AcDbEntity
  8
OBJECT
  6
CONTINUOUS
100
AcDbVertex
100
AcDb2dVertex
 10
479.5
 20
-862.5
 30
0.0
  0
VERTEX
  5
194
100
AcDbEntity
  8
OBJECT
  6
CONTINUOUS
100
AcDbVertex
100
AcDb2dVertex
 10
482.5
 20
-862.5
 30
0.0
  0
VERTEX
  5
195
100
AcDbEntity
  8
OBJECT
  6
CONTINUOUS
100
AcDbVertex
100
AcDb2dVertex
 10
482.5
 20
-840.5
 30
0.0
  0
VERTEX
  5
196
100
AcDbEntity
  8
OBJECT
  6
CONTINUOUS
100
AcDbVertex
100
AcDb2dVertex
 10
499.5
 20
-840.5
 30
0.0
  0
VERTEX
  5
197
100
AcDbEntity
  8
OBJECT
  6
CONTINUOUS
100
AcDbVertex
100
AcDb2dVertex
 10
499.5
 20
-837.5
 30
0.0
  0
SEQEND
  5
198
100
AcDbEntity
  8
OBJECT
  6
CONTINUOUS
  0
LINE
  5
199
100
AcDbEntity
  8
OBJECT
  6
CONTINUOUS
100
AcDbLine
 10
497.5
 20
-848.5
 30
0.0
 11
482.5
 21
-848.5
 31
0.0
  0
ARC
  5
19A
100
AcDbEntity
  8
OBJECT
  6
CONTINUOUS
100
AcDbCircle
 10
497.5
 20
-850.5
 30
0.0
 40
2.0
100
AcDbArc
 50
0.0
 51
90.0
  0
LWPOLYLINE
  5
19B
100
AcDbEntity
  8
HIDDEN
  6
STYLE_16
100
AcDbPolyline
 90
        5
 70
             129
 10
462.0
 20
-104.5
 42
-0.414213562373095
 10
473.0
 20
-93.5
 42
-0.414213562373095
 10
484.0
 20
-104.5
 42
-0.414213562373095
 10
473.0
 20
-115.5
 42
-0.414213562373095
 10
462.0
 20
-104.5
 42
-0.414213562373095
  0
LINE
  5
19C
100
AcDbEntity
  8
HIDDEN
  6
STYLE_16
100
AcDbLine
 10
466.0
 20
-89.5
 30
0.0
 11
486.0
 21
-89.5
 31
0.0
  0
LINE
  5
19D
100
AcDbEntity
  8
HIDDEN
  6
STYLE_16
100
AcDbLine
 10
486.0
 20
-89.5
 30
0.0
 11
486.0
 21
-269.5
 31
0.0
  0
LINE
  5
19E
100
AcDbEntity
  8
HIDDEN
  6
STYLE_16
100
AcDbLine
 10
486.0
 20
-269.5
 30
0.0
 11
336.0
 21
-269.5
 31
0.0
  0
LINE
  5
19F
100
AcDbEntity
  8
HIDDEN
  6
STYLE_16
100
AcDbLine
 10
336.0
 20
-269.5
 30
0.0
 11
326.0
 21
-259.5
 31
0.0
  0
LINE
  5
1A0
100
AcDbEntity
  8
HIDDEN
  6
STYLE_16
100
AcDbLine
 10
326.0
 20
-259.5
 30
0.0
 11
326.0
 21
-159.5
 31
0.0
  0
LINE
  5
1A1
100
AcDbEntity
  8
HIDDEN
  6
STYLE_16
100
AcDbLine
 10
336.0
 20
-149.5
 30
0.0
 11
326.0
 21
-159.5
 31
0.0
  0
LINE
  5
1A2
100
AcDbEntity
  8
HIDDEN
  6
STYLE_16
100
AcDbLine
 10
466.0
 20
-89.5
 30
0.0
 11
436.5637999999999
 21
-149.5
 31
0.0
  0
LWPOLYLINE
  5
1A3
100
AcDbEntity
  8
HIDDEN
  6
STYLE_16
100
AcDbPolyline
 90
        5
 70
             129
 10
439.0
 20
-257.5
 42
-0.414213562373095
 10
450.0
 20
-246.5
 42
-0.414213562373095
 10
461.0
 20
-257.5
 42
-0.414213562373095
 10
450.0
 20
-268.5
 42
-0.414213562373095
 10
439.0
 20
-257.5
 42
-0.414213562373095
  0
LWPOLYLINE
  5
1A4
100
AcDbEntity
  8
HIDDEN
  6
STYLE_16
100
AcDbPolyline
 90
        5
 70
             129
 10
116.0
 20
-614.5
 42
-0.414213562373095
 10
127.0
 20
-603.5
 42
-0.414213562373095
 10
138.0
 20
-614.5
 42
-0.414213562373095
 10
127.0
 20
-625.5
 42
-0.414213562373095
 10
116.0
 20
-614.5
 42
-0.414213562373095
  0
LINE
  5
1A5
100
AcDbEntity
  8
HIDDEN
  6
STYLE_16
100
AcDbLine
 10
134.0
 20
-599.5
 30
0.0
 11
114.0
 21
-599.5
 31
0.0
  0
LINE
  5
1A6
100
AcDbEntity
  8
HIDDEN
  6
STYLE_16
100
AcDbLine
 10
114.0
 20
-599.5
 30
0.0
 11
114.0
 21
-779.5
 31
0.0
  0
LINE
  5
1A7
100
AcDbEntity
  8
HIDDEN
  6
STYLE_16
100
AcDbLine
 10
114.0
 20
-779.5
 30
0.0
 11
264.0
 21
-779.5
 31
0.0
  0
LINE
  5
1A8
100
AcDbEntity
  8
HIDDEN
  6
STYLE_16
100
AcDbLine
 10
264.0
 20
-779.5
 30
0.0
 11
274.0
 21
-769.5
 31
0.0
  0
LINE
  5
1A9
100
AcDbEntity
  8
HIDDEN
  6
STYLE_16
100
AcDbLine
 10
274.0
 20
-769.5
 30
0.0
 11
274.0
 21
-669.5
 31
0.0
  0
LINE
  5
1AA
100
AcDbEntity
  8
HIDDEN
  6
STYLE_16
100
AcDbLine
 10
264.0
 20
-659.5
 30
0.0
 11
274.0
 21
-669.5
 31
0.0
  0
LINE
  5
1AB
100
AcDbEntity
  8
HIDDEN
  6
STYLE_16
100
AcDbLine
 10
134.0
 20
-599.5
 30
0.0
 11
164.0
 21
-659.5
 31
0.0
  0
LWPOLYLINE
  5
1AC
100
AcDbEntity
  8
HIDDEN
  6
STYLE_16
100
AcDbPolyline
 90
        5
 70
             129
 10
139.0
 20
-767.5
 42
-0.414213562373095
 10
150.0
 20
-756.5
 42
-0.414213562373095
 10
161.0
 20
-767.5
 42
-0.414213562373095
 10
150.0
 20
-778.5
 42
-0.414213562373095
 10
139.0
 20
-767.5
 42
-0.414213562373095
  0
LINE
  5
1AD
100
AcDbEntity
  8
HIDDEN
  6
STYLE_16
100
AcDbLine
 10
264.0
 20
-659.5
 30
0.0
 11
164.0
 21
-659.5
 31
0.0
  0
POLYLINE
  5
1AE
100
AcDbEntity
  8
HIDDEN
  6
STYLE_16
100
AcDb2dPolyline
 66
               1
 10
0.0
 20
0.0
 30
0.0
 70
               1
 75
               5
  0
VERTEX
  5
1AF
100
AcDbEntity
  8
HIDDEN
  6
STYLE_16
100
AcDbVertex
100
AcDb2dVertex
 10
299.0
 20
-74.5
 30
0.0
  0
VERTEX
  5
1B0
100
AcDbEntity
  8
HIDDEN
  6
STYLE_16
100
AcDbVertex
100
AcDb2dVertex
 10
301.0
 20
-74.5
 30
0.0
  0
VERTEX
  5
1B1
100
AcDbEntity
  8
HIDDEN
  6
STYLE_16
100
AcDbVertex
100
AcDb2dVertex
 10
301.0
 20
-584.5
 30
0.0
  0
VERTEX
  5
1B2
100
AcDbEntity
  8
HIDDEN
  6
STYLE_16
100
AcDbVertex
100
AcDb2dVertex
 10
299.0
 20
-584.5
 30
0.0
  0
SEQEND
  5
1B3
100
AcDbEntity
  8
HIDDEN
  6
STYLE_16
  0
LINE
  5
1B4
100
AcDbEntity
  8
FRAME
  6
CONTINUOUS
100
AcDbLine
 10
0.0
 20
-900.0
 30
0.0
 11
600.0
 21
-900.0
 31
0.0
  0
POLYLINE
  5
1B5
100
AcDbEntity
  8
OBJECT
  6
CONTINUOUS
100
AcDb2dPolyline
 66
               1
 10
0.0
 20
0.0
 30
0.0
 70
               1
 75
               5
  0
VERTEX
  5
1B6
100
AcDbEntity
  8
OBJECT
  6
CONTINUOUS
100
AcDbVertex
100
AcDb2dVertex
 10
903.0
 20
-69.5
 30
0.0
  0
VERTEX
  5
1B7
100
AcDbEntity
  8
OBJECT
  6
CONTINUOUS
100
AcDbVertex
100
AcDb2dVertex
 10
938.0
 20
-69.5
 30
0.0
  0
VERTEX
  5
1B8
100
AcDbEntity
  8
OBJECT
  6
CONTINUOUS
100
AcDbVertex
100
AcDb2dVertex
 10
938.0
 20
-779.5
 30
0.0
  0
VERTEX
  5
1B9
100
AcDbEntity
  8
OBJECT
  6
CONTINUOUS
100
AcDbVertex
100
AcDb2dVertex
 10
903.0
 20
-779.5
 30
0.0
  0
SEQEND
  5
1BA
100
AcDbEntity
  8
OBJECT
  6
CONTINUOUS
  0
POLYLINE
  5
1BB
100
AcDbEntity
  8
OBJECT
  6
CONTINUOUS
100
AcDb2dPolyline
 66
               1
 10
0.0
 20
0.0
 30
0.0
 70
               1
 75
               5
  0
VERTEX
  5
1BC
100
AcDbEntity
  8
OBJECT
  6
CONTINUOUS
100
AcDbVertex
100
AcDb2dVertex
 10
904.0
 20
-779.5
 30
0.0
  0
VERTEX
  5
1BD
100
AcDbEntity
  8
OBJECT
  6
CONTINUOUS
100
AcDbVertex
100
AcDb2dVertex
 10
1296.0
 20
-779.5
 30
0.0
  0
VERTEX
  5
1BE
100
AcDbEntity
  8
OBJECT
  6
CONTINUOUS
100
AcDbVertex
100
AcDb2dVertex
 10
1296.0
 20
-781.0
 30
0.0
  0
VERTEX
  5
1BF
100
AcDbEntity
  8
OBJECT
  6
CONTINUOUS
100
AcDbVertex
100
AcDb2dVertex
 10
904.0
 20
-781.0
 30
0.0
  0
SEQEND
  5
1C0
100
AcDbEntity
  8
OBJECT
  6
CONTINUOUS
  0
POLYLINE
  5
1C1
100
AcDbEntity
  8
OBJECT
  6
CONTINUOUS
100
AcDb2dPolyline
 66
               1
 10
0.0
 20
0.0
 30
0.0
 70
               1
 75
               5
  0
VERTEX
  5
1C2
100
AcDbEntity
  8
OBJECT
  6
CONTINUOUS
100
AcDbVertex
100
AcDb2dVertex
 10
1262.0
 20
-69.5
 30
0.0
  0
VERTEX
  5
1C3
100
AcDbEntity
  8
OBJECT
  6
CONTINUOUS
100
AcDbVertex
100
AcDb2dVertex
 10
1297.0
 20
-69.5
 30
0.0
  0
VERTEX
  5
1C4
100
AcDbEntity
  8
OBJECT
  6
CONTINUOUS
100
AcDbVertex
100
AcDb2dVertex
 10
1297.0
 20
-779.5
 30
0.0
  0
VERTEX
  5
1C5
100
AcDbEntity
  8
OBJECT
  6
CONTINUOUS
100
AcDbVertex
100
AcDb2dVertex
 10
1262.0
 20
-779.5
 30
0.0
  0
SEQEND
  5
1C6
100
AcDbEntity
  8
OBJECT
  6
CONTINUOUS
  0
POLYLINE
  5
1C7
100
AcDbEntity
  8
OBJECT
  6
CONTINUOUS
100
AcDb2dPolyline
 66
               1
 10
0.0
 20
0.0
 30
0.0
 70
               1
 75
               5
  0
VERTEX
  5
1C8
100
AcDbEntity
  8
OBJECT
  6
CONTINUOUS
100
AcDbVertex
100
AcDb2dVertex
 10
938.0
 20
-69.5
 30
0.0
  0
VERTEX
  5
1C9
100
AcDbEntity
  8
OBJECT
  6
CONTINUOUS
100
AcDbVertex
100
AcDb2dVertex
 10
1262.0
 20
-69.5
 30
0.0
  0
VERTEX
  5
1CA
100
AcDbEntity
  8
OBJECT
  6
CONTINUOUS
100
AcDbVertex
100
AcDb2dVertex
 10
1262.0
 20
-99.5
 30
0.0
  0
VERTEX
  5
1CB
100
AcDbEntity
  8
OBJECT
  6
CONTINUOUS
100
AcDbVertex
100
AcDb2dVertex
 10
938.0
 20
-99.5
 30
0.0
  0
SEQEND
  5
1CC
100
AcDbEntity
  8
OBJECT
  6
CONTINUOUS
  0
LWPOLYLINE
  5
1CD
100
AcDbEntity
  8
OBJECT
  6
CONTINUOUS
100
AcDbPolyline
 90
       10
 70
             129
 10
963.5
 20
-845.5
 42
0.414213562373095
 10
961.5
 20
-847.5
 10
961.5
 20
-860.5
 42
0.414213562373095
 10
963.5
 20
-862.5
 10
964.5
 20
-862.5
 10
964.5
 20
-855.5
 10
979.5
 20
-855.5
 42
0.414213562373095
 10
981.5
 20
-853.5
 10
981.5
 20
-847.5
 42
0.414213562373095
 10
979.5
 20
-845.5
  0
POLYLINE
  5
1CE
100
AcDbEntity
  8
OBJECT
  6
CONTINUOUS
100
AcDb2dPolyline
 66
               1
 10
0.0
 20
0.0
 30
0.0
 70
               1
 75
               5
  0
VERTEX
  5
1CF
100
AcDbEntity
  8
OBJECT
  6
CONTINUOUS
100
AcDbVertex
100
AcDb2dVertex
 10
976.0
 20
-781.0
 30
0.0
  0
VERTEX
  5
1D0
100
AcDbEntity
  8
OBJECT
  6
CONTINUOUS
100
AcDbVertex
100
AcDb2dVertex
 10
906.0
 20
-781.0
 30
0.0
  0
VERTEX
  5
1D1
100
AcDbEntity
  8
OBJECT
  6
CONTINUOUS
100
AcDbVertex
100
AcDb2dVertex
 10
906.0
 20
-784.0
 30
0.0
  0
VERTEX
  5
1D2
100
AcDbEntity
  8
OBJECT
  6
CONTINUOUS
100
AcDbVertex
100
AcDb2dVertex
 10
976.0
 20
-784.0
 30
0.0
  0
SEQEND
  5
1D3
100
AcDbEntity
  8
OBJECT
  6
CONTINUOUS
  0
POLYLINE
  5
1D4
100
AcDbEntity
  8
OBJECT
  6
CONTINUOUS
100
AcDb2dPolyline
 66
               1
 10
0.0
 20
0.0
 30
0.0
 70
               1
 75
               5
  0
VERTEX
  5
1D5
100
AcDbEntity
  8
OBJECT
  6
CONTINUOUS
100
AcDbVertex
100
AcDb2dVertex
 10
967.5
 20
-784.0
 30
0.0
  0
VERTEX
  5
1D6
100
AcDbEntity
  8
OBJECT
  6
CONTINUOUS
100
AcDbVertex
100
AcDb2dVertex
 10
914.5
 20
-784.0
 30
0.0
  0
VERTEX
  5
1D7
100
AcDbEntity
  8
OBJECT
  6
CONTINUOUS
100
AcDbVertex
100
AcDb2dVertex
 10
918.5
 20
-787.5
 30
0.0
  0
VERTEX
  5
1D8
100
AcDbEntity
  8
OBJECT
  6
CONTINUOUS
100
AcDbVertex
100
AcDb2dVertex
 10
918.5
 20
-791.0
 30
0.0
  0
VERTEX
  5
1D9
100
AcDbEntity
  8
OBJECT
  6
CONTINUOUS
100
AcDbVertex
100
AcDb2dVertex
 10
963.5
 20
-791.0
 30
0.0
  0
VERTEX
  5
1DA
100
AcDbEntity
  8
OBJECT
  6
CONTINUOUS
100
AcDbVertex
100
AcDb2dVertex
 10
963.5
 20
-787.5
 30
0.0
  0
SEQEND
  5
1DB
100
AcDbEntity
  8
OBJECT
  6
CONTINUOUS
  0
LINE
  5
1DC
100
AcDbEntity
  8
OBJECT
  6
CONTINUOUS
100
AcDbLine
 10
963.5
 20
-787.5
 30
0.0
 11
918.5
 21
-787.5
 31
0.0
  0
SPLINE
  5
1DD
100
AcDbEntity
  8
OBJECT
  6
CONTINUOUS
100
AcDbSpline
210
0.0
220
0.0
230
1.0
 70
               9
 71
               2
 72
              28
 73
              25
 74
               0
 42
0.000001
 43
0.000001
 40
0.0
 40
0.0
 40
0.0
 40
0.1364451216774349
 40
0.1364451216774349
 40
0.206088985866959
 40
0.206088985866959
 40
0.2868044973790079
 40
0.2868044973790079
 40
0.3351288113064328
 40
0.3351288113064328
 40
0.3436566314112725
 40
0.3436566314112725
 40
0.525583460314519
 40
0.525583460314519
 40
0.6108616613629158
 40
0.6108616613629158
 40
0.7927884902661623
 40
0.7927884902661623
 40
0.8013163103710019
 40
0.8013163103710019
 40
0.8496406242984268
 40
0.8496406242984268
 40
0.9303561358104757
 40
0.9303561358104757
 40
1.0
 40
1.0
 40
1.0
 10
917.0
 20
-791.0
 30
0.0
 10
941.0
 20
-791.0
 30
0.0
 10
965.0
 20
-791.0
 30
0.0
 10
965.0
 20
-803.25
 30
0.0
 10
965.0
 20
-815.5
 30
0.0
 10
965.0
 20
-830.5
 30
0.0
 10
959.0
 20
-843.0
 30
0.0
 10
959.0
 20
-851.5
 30
0.0
 10
959.0
 20
-860.0
 30
0.0
 10
957.5
 20
-860.0
 30
0.0
 10
956.0
 20
-860.0
 30
0.0
 10
956.0
 20
-828.0
 30
0.0
 10
956.0
 20
-796.0
 30
0.0
 10
941.0
 20
-796.0
 30
0.0
 10
926.0
 20
-796.0
 30
0.0
 10
926.0
 20
-828.0
 30
0.0
 10
926.0
 20
-860.0
 30
0.0
 10
924.5
 20
-860.0
 30
0.0
 10
923.0
 20
-860.0
 30
0.0
 10
923.0
 20
-851.5
 30
0.0
 10
923.0
 20
-843.0
 30
0.0
 10
917.0
 20
-830.5
 30
0.0
 10
917.0
 20
-815.5
 30
0.0
 10
917.0
 20
-803.25
 30
0.0
 10
917.0
 20
-791.0
 30
0.0
  0
POLYLINE
  5
1DE
100
AcDbEntity
  8
OBJECT
  6
CONTINUOUS
100
AcDb2dPolyline
 66
               1
 10
0.0
 20
0.0
 30
0.0
 70
               1
 75
               5
  0
VERTEX
  5
1DF
100
AcDbEntity
  8
OBJECT
  6
CONTINUOUS
100
AcDbVertex
100
AcDb2dVertex
 10
923.0
 20
-793.0
 30
0.0
  0
VERTEX
  5
1E0
100
AcDbEntity
  8
OBJECT
  6
CONTINUOUS
100
AcDbVertex
100
AcDb2dVertex
 10
959.0
 20
-793.0
 30
0.0
  0
VERTEX
  5
1E1
100
AcDbEntity
  8
OBJECT
  6
CONTINUOUS
100
AcDbVertex
100
AcDb2dVertex
 10
959.0
 20
-860.0
 30
0.0
  0
VERTEX
  5
1E2
100
AcDbEntity
  8
OBJECT
  6
CONTINUOUS
100
AcDbVertex
100
AcDb2dVertex
 10
956.0
 20
-860.0
 30
0.0
  0
VERTEX
  5
1E3
100
AcDbEntity
  8
OBJECT
  6
CONTINUOUS
100
AcDbVertex
100
AcDb2dVertex
 10
956.0
 20
-796.0
 30
0.0
  0
VERTEX
  5
1E4
100
AcDbEntity
  8
OBJECT
  6
CONTINUOUS
100
AcDbVertex
100
AcDb2dVertex
 10
926.0
 20
-796.0
 30
0.0
  0
VERTEX
  5
1E5
100
AcDbEntity
  8
OBJECT
  6
CONTINUOUS
100
AcDbVertex
100
AcDb2dVertex
 10
926.0
 20
-860.0
 30
0.0
  0
VERTEX
  5
1E6
100
AcDbEntity
  8
OBJECT
  6
CONTINUOUS
100
AcDbVertex
100
AcDb2dVertex
 10
923.0
 20
-860.0
 30
0.0
  0
SEQEND
  5
1E7
100
AcDbEntity
  8
OBJECT
  6
CONTINUOUS
  0
SPLINE
  5
1E8
100
AcDbEntity
  8
OBJECT
  6
CONTINUOUS
100
AcDbSpline
210
0.0
220
0.0
230
1.0
 70
              13
 71
               2
 72
              28
 73
              25
 74
               0
 42
0.000001
 43
0.000001
 40
0.0
 40
0.0
 40
0.0
 40
0.0116664369471646
 40
0.0116664369471646
 40
0.0307673121208425
 40
0.0307673121208425
 40
0.0826383042797585
 40
0.0826383042797585
 40
0.1017391794534363
 40
0.1017391794534363
 40
0.1134056164006012
 40
0.1134056164006012
 40
0.5000000000000009
 40
0.5000000000000009
 40
0.5116664369471654
 40
0.5116664369471654
 40
0.5307673121208432
 40
0.5307673121208432
 40
0.5826383042797592
 40
0.5826383042797592
 40
0.601739179453437
 40
0.601739179453437
 40
0.6134056164006012
 40
0.6134056164006012
 40
1.0
 40
1.0
 40
1.0
 10
928.5
 20
-803.20543822418756
 30
0.0
 41
1.0
 10
928.5
 20
-801.50000000000011
 30
0.0
 41
0.7609173743274202
 10
930.18401899778667
 20
-801.23055696035419
 30
0.0
 41
1.0
 10
932.46700949889328
 20
-800.86527848017704
 30
0.0
 41
1.0
 10
934.75
 20
-800.5
 30
0.0
 41
1.0
 10
941.0
 20
-799.5
 30
0.0
 41
1.0
 10
947.25
 20
-800.5
 30
0.0
 41
1.0
 10
949.53299050110672
 20
-800.86527848017704
 30
0.0
 41
1.0
 10
951.81598100221333
 20
-801.23055696035408
 30
0.0
 41
1.0
 10
953.5
 20
-801.49999999999989
 30
0.0
 41
0.7609173743274202
 10
953.5
 20
-803.20543822418745
 30
0.0
 41
1.0
 10
953.5
 20
-850.0
 30
0.0
 41
1.0
 10
953.5
 20
-896.79456177581255
 30
0.0
 41
1.0
 10
953.49999999999977
 20
-898.50000000000011
 30
0.0
 41
0.7609173743274694
 10
951.81598100221333
 20
-898.76944303964592
 30
0.0
 41
1.0
 10
949.53299050110672
 20
-899.13472151982296
 30
0.0
 41
1.0
 10
947.25
 20
-899.5
 30
0.0
 41
1.0
 10
941.0
 20
-900.5
 30
0.0
 41
1.0
 10
934.75
 20
-899.5
 30
0.0
 41
1.0
 10
932.46700949889328
 20
-899.13472151982296
 30
0.0
 41
1.0
 10
930.18401899778667
 20
-898.76944303964581
 30
0.0
 41
1.0
 10
928.5
 20
-898.5
 30
0.0
 41
0.7609173743274202
 10
928.5
 20
-896.79456177581244
 30
0.0
 41
1.0
 10
928.5
 20
-850.0
 30
0.0
 41
1.0
 10
928.5
 20
-803.20543822418756
 30
0.0
 41
1.0
  0
POLYLINE
  5
1E9
100
AcDbEntity
  8
OBJECT
  6
CONTINUOUS
100
AcDb2dPolyline
 66
               1
 10
0.0
 20
0.0
 30
0.0
 70
               1
 75
               5
  0
VERTEX
  5
1EA
100
AcDbEntity
  8
OBJECT
  6
CONTINUOUS
100
AcDbVertex
100
AcDb2dVertex
 10
953.5
 20
-841.75
 30
0.0
  0
VERTEX
  5
1EB
100
AcDbEntity
  8
OBJECT
  6
CONTINUOUS
100
AcDbVertex
100
AcDb2dVertex
 10
956.0
 20
-841.75
 30
0.0
  0
VERTEX
  5
1EC
100
AcDbEntity
  8
OBJECT
  6
CONTINUOUS
100
AcDbVertex
100
AcDb2dVertex
 10
956.0
 20
-858.25
 30
0.0
  0
VERTEX
  5
1ED
100
AcDbEntity
  8
OBJECT
  6
CONTINUOUS
100
AcDbVertex
100
AcDb2dVertex
 10
953.5
 20
-858.25
 30
0.0
  0
SEQEND
  5
1EE
100
AcDbEntity
  8
OBJECT
  6
CONTINUOUS
  0
POLYLINE
  5
1EF
100
AcDbEntity
  8
OBJECT
  6
CONTINUOUS
100
AcDb2dPolyline
 66
               1
 10
0.0
 20
0.0
 30
0.0
 70
               1
 75
               5
  0
VERTEX
  5
1F0
100
AcDbEntity
  8
OBJECT
  6
CONTINUOUS
100
AcDbVertex
100
AcDb2dVertex
 10
926.0
 20
-841.75
 30
0.0
  0
VERTEX
  5
1F1
100
AcDbEntity
  8
OBJECT
  6
CONTINUOUS
100
AcDbVertex
100
AcDb2dVertex
 10
928.5
 20
-841.75
 30
0.0
  0
VERTEX
  5
1F2
100
AcDbEntity
  8
OBJECT
  6
CONTINUOUS
100
AcDbVertex
100
AcDb2dVertex
 10
928.5
 20
-858.25
 30
0.0
  0
VERTEX
  5
1F3
100
AcDbEntity
  8
OBJECT
  6
CONTINUOUS
100
AcDbVertex
100
AcDb2dVertex
 10
926.0
 20
-858.25
 30
0.0
  0
SEQEND
  5
1F4
100
AcDbEntity
  8
OBJECT
  6
CONTINUOUS
  0
POLYLINE
  5
1F5
100
AcDbEntity
  8
OBJECT
  6
CONTINUOUS
100
AcDb2dPolyline
 66
               1
 10
0.0
 20
0.0
 30
0.0
 70
               1
 75
               5
  0
VERTEX
  5
1F6
100
AcDbEntity
  8
OBJECT
  6
CONTINUOUS
100
AcDbVertex
100
AcDb2dVertex
 10
920.5
 20
-844.5
 30
0.0
  0
VERTEX
  5
1F7
100
AcDbEntity
  8
OBJECT
  6
CONTINUOUS
100
AcDbVertex
100
AcDb2dVertex
 10
923.0
 20
-844.5
 30
0.0
  0
VERTEX
  5
1F8
100
AcDbEntity
  8
OBJECT
  6
CONTINUOUS
100
AcDbVertex
100
AcDb2dVertex
 10
923.0
 20
-855.5
 30
0.0
  0
VERTEX
  5
1F9
100
AcDbEntity
  8
OBJECT
  6
CONTINUOUS
100
AcDbVertex
100
AcDb2dVertex
 10
920.5
 20
-855.5
 30
0.0
  0
SEQEND
  5
1FA
100
AcDbEntity
  8
OBJECT
  6
CONTINUOUS
  0
POLYLINE
  5
1FB
100
AcDbEntity
  8
OBJECT
  6
CONTINUOUS
100
AcDb2dPolyline
 66
               1
 10
0.0
 20
0.0
 30
0.0
 70
               1
 75
               5
  0
VERTEX
  5
1FC
100
AcDbEntity
  8
OBJECT
  6
CONTINUOUS
100
AcDbVertex
100
AcDb2dVertex
 10
959.0
 20
-844.5
 30
0.0
  0
VERTEX
  5
1FD
100
AcDbEntity
  8
OBJECT
  6
CONTINUOUS
100
AcDbVertex
100
AcDb2dVertex
 10
961.5
 20
-844.5
 30
0.0
  0
VERTEX
  5
1FE
100
AcDbEntity
  8
OBJECT
  6
CONTINUOUS
100
AcDbVertex
100
AcDb2dVertex
 10
961.5
 20
-855.5
 30
0.0
  0
VERTEX
  5
1FF
100
AcDbEntity
  8
OBJECT
  6
CONTINUOUS
100
AcDbVertex
100
AcDb2dVertex
 10
959.0
 20
-855.5
 30
0.0
  0
SEQEND
  5
200
100
AcDbEntity
  8
OBJECT
  6
CONTINUOUS
  0
POLYLINE
  5
201
100
AcDbEntity
  8
OBJECT
  6
CONTINUOUS
100
AcDb2dPolyline
 66
               1
 10
0.0
 20
0.0
 30
0.0
 70
               1
 75
               5
  0
VERTEX
  5
202
100
AcDbEntity
  8
OBJECT
  6
CONTINUOUS
100
AcDbVertex
100
AcDb2dVertex
 10
961.5
 20
-837.5
 30
0.0
  0
VERTEX
  5
203
100
AcDbEntity
  8
OBJECT
  6
CONTINUOUS
100
AcDbVertex
100
AcDb2dVertex
 10
961.5
 20
-862.5
 30
0.0
  0
VERTEX
  5
204
100
AcDbEntity
  8
OBJECT
  6
CONTINUOUS
100
AcDbVertex
100
AcDb2dVertex
 10
964.5
 20
-862.5
 30
0.0
  0
VERTEX
  5
205
100
AcDbEntity
  8
OBJECT
  6
CONTINUOUS
100
AcDbVertex
100
AcDb2dVertex
 10
964.5
 20
-840.5
 30
0.0
  0
VERTEX
  5
206
100
AcDbEntity
  8
OBJECT
  6
CONTINUOUS
100
AcDbVertex
100
AcDb2dVertex
 10
981.5
 20
-840.5
 30
0.0
  0
VERTEX
  5
207
100
AcDbEntity
  8
OBJECT
  6
CONTINUOUS
100
AcDbVertex
100
AcDb2dVertex
 10
981.5
 20
-837.5
 30
0.0
  0
SEQEND
  5
208
100
AcDbEntity
  8
OBJECT
  6
CONTINUOUS
  0
LINE
  5
209
100
AcDbEntity
  8
OBJECT
  6
CONTINUOUS
100
AcDbLine
 10
979.5
 20
-848.5
 30
0.0
 11
964.5
 21
-848.5
 31
0.0
  0
ARC
  5
20A
100
AcDbEntity
  8
OBJECT
  6
CONTINUOUS
100
AcDbCircle
 10
979.5
 20
-850.5
 30
0.0
 40
2.0
100
AcDbArc
 50
0.0
 51
90.0
  0
LWPOLYLINE
  5
20B
100
AcDbEntity
  8
OBJECT
  6
CONTINUOUS
100
AcDbPolyline
 90
       10
 70
             129
 10
1281.5
 20
-845.5
 42
0.414213562373095
 10
1279.5
 20
-847.5
 10
1279.5
 20
-860.5
 42
0.414213562373095
 10
1281.5
 20
-862.5
 10
1282.5
 20
-862.5
 10
1282.5
 20
-855.5
 10
1297.5
 20
-855.5
 42
0.414213562373095
 10
1299.5
 20
-853.5
 10
1299.5
 20
-847.5
 42
0.414213562373095
 10
1297.5
 20
-845.5
  0
POLYLINE
  5
20C
100
AcDbEntity
  8
OBJECT
  6
CONTINUOUS
100
AcDb2dPolyline
 66
               1
 10
0.0
 20
0.0
 30
0.0
 70
               1
 75
               5
  0
VERTEX
  5
20D
100
AcDbEntity
  8
OBJECT
  6
CONTINUOUS
100
AcDbVertex
100
AcDb2dVertex
 10
1294.0
 20
-781.0
 30
0.0
  0
VERTEX
  5
20E
100
AcDbEntity
  8
OBJECT
  6
CONTINUOUS
100
AcDbVertex
100
AcDb2dVertex
 10
1224.0
 20
-781.0
 30
0.0
  0
VERTEX
  5
20F
100
AcDbEntity
  8
OBJECT
  6
CONTINUOUS
100
AcDbVertex
100
AcDb2dVertex
 10
1224.0
 20
-784.0
 30
0.0
  0
VERTEX
  5
210
100
AcDbEntity
  8
OBJECT
  6
CONTINUOUS
100
AcDbVertex
100
AcDb2dVertex
 10
1294.0
 20
-784.0
 30
0.0
  0
SEQEND
  5
211
100
AcDbEntity
  8
OBJECT
  6
CONTINUOUS
  0
POLYLINE
  5
212
100
AcDbEntity
  8
OBJECT
  6
CONTINUOUS
100
AcDb2dPolyline
 66
               1
 10
0.0
 20
0.0
 30
0.0
 70
               1
 75
               5
  0
VERTEX
  5
213
100
AcDbEntity
  8
OBJECT
  6
CONTINUOUS
100
AcDbVertex
100
AcDb2dVertex
 10
1285.5
 20
-784.0
 30
0.0
  0
VERTEX
  5
214
100
AcDbEntity
  8
OBJECT
  6
CONTINUOUS
100
AcDbVertex
100
AcDb2dVertex
 10
1232.5
 20
-784.0
 30
0.0
  0
VERTEX
  5
215
100
AcDbEntity
  8
OBJECT
  6
CONTINUOUS
100
AcDbVertex
100
AcDb2dVertex
 10
1236.5
 20
-787.5
 30
0.0
  0
VERTEX
  5
216
100
AcDbEntity
  8
OBJECT
  6
CONTINUOUS
100
AcDbVertex
100
AcDb2dVertex
 10
1236.5
 20
-791.0
 30
0.0
  0
VERTEX
  5
217
100
AcDbEntity
  8
OBJECT
  6
CONTINUOUS
100
AcDbVertex
100
AcDb2dVertex
 10
1281.5
 20
-791.0
 30
0.0
  0
VERTEX
  5
218
100
AcDbEntity
  8
OBJECT
  6
CONTINUOUS
100
AcDbVertex
100
AcDb2dVertex
 10
1281.5
 20
-787.5
 30
0.0
  0
SEQEND
  5
219
100
AcDbEntity
  8
OBJECT
  6
CONTINUOUS
  0
LINE
  5
21A
100
AcDbEntity
  8
OBJECT
  6
CONTINUOUS
100
AcDbLine
 10
1281.5
 20
-787.5
 30
0.0
 11
1236.5
 21
-787.5
 31
0.0
  0
SPLINE
  5
21B
100
AcDbEntity
  8
OBJECT
  6
CONTINUOUS
100
AcDbSpline
210
0.0
220
0.0
230
1.0
 70
               9
 71
               2
 72
              28
 73
              25
 74
               0
 42
0.000001
 43
0.000001
 40
0.0
 40
0.0
 40
0.0
 40
0.1364451216774349
 40
0.1364451216774349
 40
0.206088985866959
 40
0.206088985866959
 40
0.2868044973790079
 40
0.2868044973790079
 40
0.3351288113064328
 40
0.3351288113064328
 40
0.3436566314112725
 40
0.3436566314112725
 40
0.525583460314519
 40
0.525583460314519
 40
0.6108616613629158
 40
0.6108616613629158
 40
0.7927884902661623
 40
0.7927884902661623
 40
0.8013163103710019
 40
0.8013163103710019
 40
0.8496406242984268
 40
0.8496406242984268
 40
0.9303561358104757
 40
0.9303561358104757
 40
1.0
 40
1.0
 40
1.0
 10
1235.0
 20
-791.0
 30
0.0
 10
1259.0
 20
-791.0
 30
0.0
 10
1283.0
 20
-791.0
 30
0.0
 10
1283.0
 20
-803.25
 30
0.0
 10
1283.0
 20
-815.5
 30
0.0
 10
1283.0
 20
-830.5
 30
0.0
 10
1277.0
 20
-843.0
 30
0.0
 10
1277.0
 20
-851.5
 30
0.0
 10
1277.0
 20
-860.0
 30
0.0
 10
1275.5
 20
-860.0
 30
0.0
 10
1274.0
 20
-860.0
 30
0.0
 10
1274.0
 20
-828.0
 30
0.0
 10
1274.0
 20
-796.0
 30
0.0
 10
1259.0
 20
-796.0
 30
0.0
 10
1244.0
 20
-796.0
 30
0.0
 10
1244.0
 20
-828.0
 30
0.0
 10
1244.0
 20
-860.0
 30
0.0
 10
1242.5
 20
-860.0
 30
0.0
 10
1241.0
 20
-860.0
 30
0.0
 10
1241.0
 20
-851.5
 30
0.0
 10
1241.0
 20
-843.0
 30
0.0
 10
1235.0
 20
-830.5
 30
0.0
 10
1235.0
 20
-815.5
 30
0.0
 10
1235.0
 20
-803.25
 30
0.0
 10
1235.0
 20
-791.0
 30
0.0
  0
POLYLINE
  5
21C
100
AcDbEntity
  8
OBJECT
  6
CONTINUOUS
100
AcDb2dPolyline
 66
               1
 10
0.0
 20
0.0
 30
0.0
 70
               1
 75
               5
  0
VERTEX
  5
21D
100
AcDbEntity
  8
OBJECT
  6
CONTINUOUS
100
AcDbVertex
100
AcDb2dVertex
 10
1241.0
 20
-793.0
 30
0.0
  0
VERTEX
  5
21E
100
AcDbEntity
  8
OBJECT
  6
CONTINUOUS
100
AcDbVertex
100
AcDb2dVertex
 10
1277.0
 20
-793.0
 30
0.0
  0
VERTEX
  5
21F
100
AcDbEntity
  8
OBJECT
  6
CONTINUOUS
100
AcDbVertex
100
AcDb2dVertex
 10
1277.0
 20
-860.0
 30
0.0
  0
VERTEX
  5
220
100
AcDbEntity
  8
OBJECT
  6
CONTINUOUS
100
AcDbVertex
100
AcDb2dVertex
 10
1274.0
 20
-860.0
 30
0.0
  0
VERTEX
  5
221
100
AcDbEntity
  8
OBJECT
  6
CONTINUOUS
100
AcDbVertex
100
AcDb2dVertex
 10
1274.0
 20
-796.0
 30
0.0
  0
VERTEX
  5
222
100
AcDbEntity
  8
OBJECT
  6
CONTINUOUS
100
AcDbVertex
100
AcDb2dVertex
 10
1244.0
 20
-796.0
 30
0.0
  0
VERTEX
  5
223
100
AcDbEntity
  8
OBJECT
  6
CONTINUOUS
100
AcDbVertex
100
AcDb2dVertex
 10
1244.0
 20
-860.0
 30
0.0
  0
VERTEX
  5
224
100
AcDbEntity
  8
OBJECT
  6
CONTINUOUS
100
AcDbVertex
100
AcDb2dVertex
 10
1241.0
 20
-860.0
 30
0.0
  0
SEQEND
  5
225
100
AcDbEntity
  8
OBJECT
  6
CONTINUOUS
  0
SPLINE
  5
226
100
AcDbEntity
  8
OBJECT
  6
CONTINUOUS
100
AcDbSpline
210
0.0
220
0.0
230
1.0
 70
              13
 71
               2
 72
              28
 73
              25
 74
               0
 42
0.000001
 43
0.000001
 40
0.0
 40
0.0
 40
0.0
 40
0.0116664369471642
 40
0.0116664369471642
 40
0.0307673121208425
 40
0.0307673121208425
 40
0.0826383042797586
 40
0.0826383042797586
 40
0.101739179453437
 40
0.101739179453437
 40
0.1134056164006
 40
0.1134056164006
 40
0.4999999999999992
 40
0.4999999999999992
 40
0.5116664369471632
 40
0.5116664369471632
 40
0.5307673121208415
 40
0.5307673121208415
 40
0.5826383042797576
 40
0.5826383042797576
 40
0.6017391794534359
 40
0.6017391794534359
 40
0.6134056164006008
 40
0.6134056164006008
 40
1.0
 40
1.0
 40
1.0
 10
1246.5
 20
-803.20543822418756
 30
0.0
 41
1.0
 10
1246.5
 20
-801.5
 30
0.0
 41
0.7609173743274539
 10
1248.1840189977866
 20
-801.23055696035419
 30
0.0
 41
1.0
 10
1250.4670094988933
 20
-800.86527848017704
 30
0.0
 41
1.0
 10
1252.75
 20
-800.5
 30
0.0
 41
1.0
 10
1259.0
 20
-799.5
 30
0.0
 41
1.0
 10
1265.25
 20
-800.5
 30
0.0
 41
1.0
 10
1267.5329905011067
 20
-800.86527848017704
 30
0.0
 41
1.0
 10
1269.8159810022134
 20
-801.23055696035419
 30
0.0
 41
1.0
 10
1271.5
 20
-801.50000000000034
 30
0.0
 41
0.7609173743274748
 10
1271.5
 20
-803.20543822418756
 30
0.0
 41
1.0
 10
1271.5
 20
-850.0
 30
0.0
 41
1.0
 10
1271.5
 20
-896.79456177581244
 30
0.0
 41
1.0
 10
1271.5
 20
-898.49999999999989
 30
0.0
 41
0.7609173743274229
 10
1269.8159810022134
 20
-898.76944303964581
 30
0.0
 41
1.0
 10
1267.5329905011067
 20
-899.13472151982296
 30
0.0
 41
1.0
 10
1265.25
 20
-899.5
 30
0.0
 41
1.0
 10
1259.0
 20
-900.5
 30
0.0
 41
1.0
 10
1252.75
 20
-899.5
 30
0.0
 41
1.0
 10
1250.4670094988933
 20
-899.13472151982296
 30
0.0
 41
1.0
 10
1248.1840189977866
 20
-898.76944303964581
 30
0.0
 41
1.0
 10
1246.5
 20
-898.49999999999989
 30
0.0
 41
0.7609173743274383
 10
1246.5
 20
-896.79456177581244
 30
0.0
 41
1.0
 10
1246.5
 20
-850.0
 30
0.0
 41
1.0
 10
1246.5
 20
-803.20543822418756
 30
0.0
 41
1.0
  0
POLYLINE
  5
227
100
AcDbEntity
  8
OBJECT
  6
CONTINUOUS
100
AcDb2dPolyline
 66
               1
 10
0.0
 20
0.0
 30
0.0
 70
               1
 75
               5
  0
VERTEX
  5
228
100
AcDbEntity
  8
OBJECT
  6
CONTINUOUS
100
AcDbVertex
100
AcDb2dVertex
 10
1271.5
 20
-841.75
 30
0.0
  0
VERTEX
  5
229
100
AcDbEntity
  8
OBJECT
  6
CONTINUOUS
100
AcDbVertex
100
AcDb2dVertex
 10
1274.0
 20
-841.75
 30
0.0
  0
VERTEX
  5
22A
100
AcDbEntity
  8
OBJECT
  6
CONTINUOUS
100
AcDbVertex
100
AcDb2dVertex
 10
1274.0
 20
-858.25
 30
0.0
  0
VERTEX
  5
22B
100
AcDbEntity
  8
OBJECT
  6
CONTINUOUS
100
AcDbVertex
100
AcDb2dVertex
 10
1271.5
 20
-858.25
 30
0.0
  0
SEQEND
  5
22C
100
AcDbEntity
  8
OBJECT
  6
CONTINUOUS
  0
POLYLINE
  5
22D
100
AcDbEntity
  8
OBJECT
  6
CONTINUOUS
100
AcDb2dPolyline
 66
               1
 10
0.0
 20
0.0
 30
0.0
 70
               1
 75
               5
  0
VERTEX
  5
22E
100
AcDbEntity
  8
OBJECT
  6
CONTINUOUS
100
AcDbVertex
100
AcDb2dVertex
 10
1244.0
 20
-841.75
 30
0.0
  0
VERTEX
  5
22F
100
AcDbEntity
  8
OBJECT
  6
CONTINUOUS
100
AcDbVertex
100
AcDb2dVertex
 10
1246.5
 20
-841.75
 30
0.0
  0
VERTEX
  5
230
100
AcDbEntity
  8
OBJECT
  6
CONTINUOUS
100
AcDbVertex
100
AcDb2dVertex
 10
1246.5
 20
-858.25
 30
0.0
  0
VERTEX
  5
231
100
AcDbEntity
  8
OBJECT
  6
CONTINUOUS
100
AcDbVertex
100
AcDb2dVertex
 10
1244.0
 20
-858.25
 30
0.0
  0
SEQEND
  5
232
100
AcDbEntity
  8
OBJECT
  6
CONTINUOUS
  0
POLYLINE
  5
233
100
AcDbEntity
  8
OBJECT
  6
CONTINUOUS
100
AcDb2dPolyline
 66
               1
 10
0.0
 20
0.0
 30
0.0
 70
               1
 75
               5
  0
VERTEX
  5
234
100
AcDbEntity
  8
OBJECT
  6
CONTINUOUS
100
AcDbVertex
100
AcDb2dVertex
 10
1238.5
 20
-844.5
 30
0.0
  0
VERTEX
  5
235
100
AcDbEntity
  8
OBJECT
  6
CONTINUOUS
100
AcDbVertex
100
AcDb2dVertex
 10
1241.0
 20
-844.5
 30
0.0
  0
VERTEX
  5
236
100
AcDbEntity
  8
OBJECT
  6
CONTINUOUS
100
AcDbVertex
100
AcDb2dVertex
 10
1241.0
 20
-855.5
 30
0.0
  0
VERTEX
  5
237
100
AcDbEntity
  8
OBJECT
  6
CONTINUOUS
100
AcDbVertex
100
AcDb2dVertex
 10
1238.5
 20
-855.5
 30
0.0
  0
SEQEND
  5
238
100
AcDbEntity
  8
OBJECT
  6
CONTINUOUS
  0
POLYLINE
  5
239
100
AcDbEntity
  8
OBJECT
  6
CONTINUOUS
100
AcDb2dPolyline
 66
               1
 10
0.0
 20
0.0
 30
0.0
 70
               1
 75
               5
  0
VERTEX
  5
23A
100
AcDbEntity
  8
OBJECT
  6
CONTINUOUS
100
AcDbVertex
100
AcDb2dVertex
 10
1277.0
 20
-844.5
 30
0.0
  0
VERTEX
  5
23B
100
AcDbEntity
  8
OBJECT
  6
CONTINUOUS
100
AcDbVertex
100
AcDb2dVertex
 10
1279.5
 20
-844.5
 30
0.0
  0
VERTEX
  5
23C
100
AcDbEntity
  8
OBJECT
  6
CONTINUOUS
100
AcDbVertex
100
AcDb2dVertex
 10
1279.5
 20
-855.5
 30
0.0
  0
VERTEX
  5
23D
100
AcDbEntity
  8
OBJECT
  6
CONTINUOUS
100
AcDbVertex
100
AcDb2dVertex
 10
1277.0
 20
-855.5
 30
0.0
  0
SEQEND
  5
23E
100
AcDbEntity
  8
OBJECT
  6
CONTINUOUS
  0
POLYLINE
  5
23F
100
AcDbEntity
  8
OBJECT
  6
CONTINUOUS
100
AcDb2dPolyline
 66
               1
 10
0.0
 20
0.0
 30
0.0
 70
               1
 75
               5
  0
VERTEX
  5
240
100
AcDbEntity
  8
OBJECT
  6
CONTINUOUS
100
AcDbVertex
100
AcDb2dVertex
 10
1279.5
 20
-837.5
 30
0.0
  0
VERTEX
  5
241
100
AcDbEntity
  8
OBJECT
  6
CONTINUOUS
100
AcDbVertex
100
AcDb2dVertex
 10
1279.5
 20
-862.5
 30
0.0
  0
VERTEX
  5
242
100
AcDbEntity
  8
OBJECT
  6
CONTINUOUS
100
AcDbVertex
100
AcDb2dVertex
 10
1282.5
 20
-862.5
 30
0.0
  0
VERTEX
  5
243
100
AcDbEntity
  8
OBJECT
  6
CONTINUOUS
100
AcDbVertex
100
AcDb2dVertex
 10
1282.5
 20
-840.5
 30
0.0
  0
VERTEX
  5
244
100
AcDbEntity
  8
OBJECT
  6
CONTINUOUS
100
AcDbVertex
100
AcDb2dVertex
 10
1299.5
 20
-840.5
 30
0.0
  0
VERTEX
  5
245
100
AcDbEntity
  8
OBJECT
  6
CONTINUOUS
100
AcDbVertex
100
AcDb2dVertex
 10
1299.5
 20
-837.5
 30
0.0
  0
SEQEND
  5
246
100
AcDbEntity
  8
OBJECT
  6
CONTINUOUS
  0
LINE
  5
247
100
AcDbEntity
  8
OBJECT
  6
CONTINUOUS
100
AcDbLine
 10
1297.5
 20
-848.5
 30
0.0
 11
1282.5
 21
-848.5
 31
0.0
  0
ARC
  5
248
100
AcDbEntity
  8
OBJECT
  6
CONTINUOUS
100
AcDbCircle
 10
1297.5
 20
-850.5
 30
0.0
 40
2.0
100
AcDbArc
 50
0.0
 51
90.0
  0
LWPOLYLINE
  5
249
100
AcDbEntity
  8
HIDDEN
  6
STYLE_16
100
AcDbPolyline
 90
        5
 70
             129
 10
1262.0
 20
-104.5
 42
-0.414213562373095
 10
1273.0
 20
-93.5
 42
-0.414213562373095
 10
1284.0
 20
-104.5
 42
-0.414213562373095
 10
1273.0
 20
-115.5
 42
-0.414213562373095
 10
1262.0
 20
-104.5
 42
-0.414213562373095
  0
LINE
  5
24A
100
AcDbEntity
  8
HIDDEN
  6
STYLE_16
100
AcDbLine
 10
1136.0
 20
-89.5
 30
0.0
 11
1286.0
 21
-89.5
 31
0.0
  0
LINE
  5
24B
100
AcDbEntity
  8
HIDDEN
  6
STYLE_16
100
AcDbLine
 10
1286.0
 20
-89.5
 30
0.0
 11
1286.0
 21
-269.5
 31
0.0
  0
LINE
  5
24C
100
AcDbEntity
  8
HIDDEN
  6
STYLE_16
100
AcDbLine
 10
1286.0
 20
-269.5
 30
0.0
 11
1136.0
 21
-269.5
 31
0.0
  0
LINE
  5
24D
100
AcDbEntity
  8
HIDDEN
  6
STYLE_16
100
AcDbLine
 10
1136.0
 20
-269.5
 30
0.0
 11
1126.0
 21
-259.5
 31
0.0
  0
LINE
  5
24E
100
AcDbEntity
  8
HIDDEN
  6
STYLE_16
100
AcDbLine
 10
1126.0
 20
-259.5
 30
0.0
 11
1126.0
 21
-99.5
 31
0.0
  0
LINE
  5
24F
100
AcDbEntity
  8
HIDDEN
  6
STYLE_16
100
AcDbLine
 10
1136.0
 20
-89.5
 30
0.0
 11
1126.0
 21
-99.5
 31
0.0
  0
LWPOLYLINE
  5
250
100
AcDbEntity
  8
HIDDEN
  6
STYLE_16
100
AcDbPolyline
 90
        5
 70
             129
 10
1239.0
 20
-257.5
 42
-0.414213562373095
 10
1250.0
 20
-246.5
 42
-0.414213562373095
 10
1261.0
 20
-257.5
 42
-0.414213562373095
 10
1250.0
 20
-268.5
 42
-0.414213562373095
 10
1239.0
 20
-257.5
 42
-0.414213562373095
  0
LWPOLYLINE
  5
251
100
AcDbEntity
  8
HIDDEN
  6
STYLE_16
100
AcDbPolyline
 90
        5
 70
             129
 10
916.0
 20
-614.5
 42
-0.414213562373095
 10
927.0
 20
-603.5
 42
-0.414213562373095
 10
938.0
 20
-614.5
 42
-0.414213562373095
 10
927.0
 20
-625.5
 42
-0.414213562373095
 10
916.0
 20
-614.5
 42
-0.414213562373095
  0
LINE
  5
252
100
AcDbEntity
  8
HIDDEN
  6
STYLE_16
100
AcDbLine
 10
1064.0
 20
-599.5
 30
0.0
 11
914.0
 21
-599.5
 31
0.0
  0
LINE
  5
253
100
AcDbEntity
  8
HIDDEN
  6
STYLE_16
100
AcDbLine
 10
914.0
 20
-599.5
 30
0.0
 11
914.0
 21
-779.5
 31
0.0
  0
LINE
  5
254
100
AcDbEntity
  8
HIDDEN
  6
STYLE_16
100
AcDbLine
 10
914.0
 20
-779.5
 30
0.0
 11
1064.0
 21
-779.5
 31
0.0
  0
LINE
  5
255
100
AcDbEntity
  8
HIDDEN
  6
STYLE_16
100
AcDbLine
 10
1064.0
 20
-779.5
 30
0.0
 11
1074.0
 21
-769.5
 31
0.0
  0
LINE
  5
256
100
AcDbEntity
  8
HIDDEN
  6
STYLE_16
100
AcDbLine
 10
1074.0
 20
-769.5
 30
0.0
 11
1074.0
 21
-609.5
 31
0.0
  0
LINE
  5
257
100
AcDbEntity
  8
HIDDEN
  6
STYLE_16
100
AcDbLine
 10
1064.0
 20
-599.5
 30
0.0
 11
1074.0
 21
-609.5
 31
0.0
  0
LWPOLYLINE
  5
258
100
AcDbEntity
  8
HIDDEN
  6
STYLE_16
100
AcDbPolyline
 90
        5
 70
             129
 10
939.0
 20
-767.5
 42
-0.414213562373095
 10
950.0
 20
-756.5
 42
-0.414213562373095
 10
961.0
 20
-767.5
 42
-0.414213562373095
 10
950.0
 20
-778.5
 42
-0.414213562373095
 10
939.0
 20
-767.5
 42
-0.414213562373095
  0
POLYLINE
  5
259
100
AcDbEntity
  8
HIDDEN
  6
STYLE_16
100
AcDb2dPolyline
 66
               1
 10
0.0
 20
0.0
 30
0.0
 70
               1
 75
               5
  0
VERTEX
  5
25A
100
AcDbEntity
  8
HIDDEN
  6
STYLE_16
100
AcDbVertex
100
AcDb2dVertex
 10
1099.0
 20
-74.5
 30
0.0
  0
VERTEX
  5
25B
100
AcDbEntity
  8
HIDDEN
  6
STYLE_16
100
AcDbVertex
100
AcDb2dVertex
 10
1101.0
 20
-74.5
 30
0.0
  0
VERTEX
  5
25C
100
AcDbEntity
  8
HIDDEN
  6
STYLE_16
100
AcDbVertex
100
AcDb2dVertex
 10
1101.0
 20
-584.5
 30
0.0
  0
VERTEX
  5
25D
100
AcDbEntity
  8
HIDDEN
  6
STYLE_16
100
AcDbVertex
100
AcDb2dVertex
 10
1099.0
 20
-584.5
 30
0.0
  0
SEQEND
  5
25E
100
AcDbEntity
  8
HIDDEN
  6
STYLE_16
  0
LINE
  5
25F
100
AcDbEntity
  8
CENTER
  6
STYLE_03
100
AcDbLine
 10
1100.0
 20
-0.0000000000000036
 30
0.0
 11
1100.0
 21
-950.0
 31
0.0
  0
LINE
  5
260
100
AcDbEntity
  8
FRAME
  6
CONTINUOUS
100
AcDbLine
 10
800.0
 20
-900.0
 30
0.0
 11
1400.0
 21
-900.0
 31
0.0
  0
LINE
  5
261
100
AcDbEntity
  8
HIDDEN
  6
STYLE_16
100
AcDbLine
 10
336.0
 20
-149.5
 30
0.0
 11
436.5637999999999
 21
-149.5
 31
0.0
  0
DIMENSION
  5
262
100
AcDbEntity
  8
DIMENTION
  6
CONTINUOUS
100
AcDbDimension
  2
*D7
 10
0.0
 20
-149.5
 30
0.0
 11
0.0
 21
-109.5
 31
0.0
  3
CAD
100
AcDbAlignedDimension
 13
103.0
 23
-69.5
 33
0.0
 14
336.0
 24
-149.5
 34
0.0
 50
90.0
100
AcDbRotatedDimension
1001
ACAD
1000
DSTYLE
1002
{
1070
             271
1070
               0
1070
             340
1005
2D
1070
             147
1040
0.9999999999999999
1002
}
  0
DIMENSION
  5
263
100
AcDbEntity
  8
DIMENTION
  6
CONTINUOUS
100
AcDbDimension
  2
*D8
 10
0.0
 20
-149.5
 30
0.0
 11
0.0
 21
-404.5
 31
0.0
  3
CAD
100
AcDbAlignedDimension
 13
164.0
 23
-659.5
 33
0.0
 14
336.0
 24
-149.5
 34
0.0
 50
90.0
100
AcDbRotatedDimension
1001
ACAD
1000
DSTYLE
1002
{
1070
             271
1070
               0
1070
             340
1005
2D
1070
               3
1000
<>（可動範囲
1070
             147
1040
0.9999999999999999
1002
}
  0
DIMENSION
  5
264
100
AcDbEntity
  8
DIMENTION
  6
CONTINUOUS
100
AcDbDimension
  2
*D9
 10
800.0
 20
-89.5
 30
0.0
 11
799.0
 21
-30.000000000000004
 31
0.0
 70
             128
  3
CAD
100
AcDbAlignedDimension
 13
903.0
 23
-69.5
 33
0.0
 14
1136.0
 24
-89.5
 34
0.0
 50
90.0
100
AcDbRotatedDimension
1001
ACAD
1000
DSTYLE
1002
{
1070
             271
1070
               0
1070
             340
1005
2D
1070
             174
1070
               0
1070
             147
1040
0.9999999999999999
1002
}
  0
DIMENSION
  5
265
100
AcDbEntity
  8
DIMENTION
  6
CONTINUOUS
100
AcDbDimension
  2
*D10
 10
800.0
 20
-89.5
 30
0.0
 11
800.0
 21
-344.5
 31
0.0
  3
CAD
100
AcDbAlignedDimension
 13
914.0
 23
-599.5
 33
0.0
 14
1136.0
 24
-89.5
 34
0.0
 50
90.0
100
AcDbRotatedDimension
1001
ACAD
1000
DSTYLE
1002
{
1070
             271
1070
               0
1070
             340
1005
2D
1070
               3
1000
<>（可動範囲
1070
             147
1040
0.9999999999999999
1002
}
  0
MTEXT
  5
266
100
AcDbEntity
  8
TEXT
100
AcDbMText
 10
300.0
 20
150.0
 30
0.0
 40
33.866666666666667
 41
0.0
 71
               2
 72
               1
  1
どんぶり仕様
  7
________
  0
LINE
  5
267
100
AcDbEntity
  8
OBJECT
  6
CONTINUOUS
100
AcDbLine
 10
170.0
 20
100.0
 30
0.0
 11
430.0
 21
100.0
 31
0.0
  0
MTEXT
  5
268
100
AcDbEntity
  8
TEXT
100
AcDbMText
 10
1100.0
 20
150.0
 30
0.0
 40
33.866666666666667
 41
0.0
 71
               2
 72
               1
  1
皿仕様
  7
________
  0
LINE
  5
269
100
AcDbEntity
  8
OBJECT
  6
CONTINUOUS
100
AcDbLine
 10
1025.0
 20
100.0
 30
0.0
 11
1175.0
 21
100.0
 31
0.0
  0
MTEXT
  5
26A
100
AcDbEntity
  8
DIMENTION
100
AcDbMText
 10
-1290.0
 20
520.0
 30
0.0
 40
33.866666666666667
 41
0.0
 71
               2
 72
               1
  1
(内寸)
  7
________
 11
0.0
 21
1.0
 31
0.0
  0
MTEXT
  5
26B
100
AcDbEntity
  8
DIMENTION
100
AcDbMText
 10
-1060.0
 20
290.0
 30
0.0
 40
33.866666666666667
 41
0.0
 71
               2
 72
               1
  1
(内寸)
  7
________
  0
LINE
  5
26C
100
AcDbEntity
  8
CENTER
  6
STYLE_03
100
AcDbLine
 10
-900.0
 20
-950.0
 30
0.0
 11
-900.0
 21
-0.0000000000000036
 31
0.0
  0
LINE
  5
26D
100
AcDbEntity
  8
FRAME
  6
CONTINUOUS
100
AcDbLine
 10
-1250.0
 20
-900.0
 30
0.0
 11
-550.0
 21
-900.0
 31
0.0
  0
DIMENSION
  5
26E
100
AcDbEntity
  8
DIMENTION
  6
CONTINUOUS
100
AcDbDimension
  2
*D11
 10
-1300.0
 20
-69.5
 30
0.0
 11
-1300.0
 21
-484.75
 31
0.0
  1
830
  3
CAD
100
AcDbAlignedDimension
 13
-1250.0
 23
-900.0
 33
0.0
 14
-1145.0
 24
-69.5
 34
0.0
 50
90.0
100
AcDbRotatedDimension
1001
ACAD
1000
DSTYLE
1002
{
1070
             271
1070
               0
1070
             340
1005
2D
1070
             147
1040
0.9999999999999999
1002
}
  0
POLYLINE
  5
26F
100
AcDbEntity
  8
OBJECT
  6
CONTINUOUS
100
AcDb2dPolyline
 66
               1
 10
0.0
 20
0.0
 30
0.0
 70
               1
 75
               5
  0
VERTEX
  5
270
100
AcDbEntity
  8
OBJECT
  6
CONTINUOUS
100
AcDbVertex
100
AcDb2dVertex
 10
-1142.0
 20
-779.5
 30
0.0
  0
VERTEX
  5
271
100
AcDbEntity
  8
OBJECT
  6
CONTINUOUS
100
AcDbVertex
100
AcDb2dVertex
 10
-658.0
 20
-779.5
 30
0.0
  0
VERTEX
  5
272
100
AcDbEntity
  8
OBJECT
  6
CONTINUOUS
100
AcDbVertex
100
AcDb2dVertex
 10
-658.0
 20
-781.0
 30
0.0
  0
VERTEX
  5
273
100
AcDbEntity
  8
OBJECT
  6
CONTINUOUS
100
AcDbVertex
100
AcDb2dVertex
 10
-1142.0
 20
-781.0
 30
0.0
  0
SEQEND
  5
274
100
AcDbEntity
  8
OBJECT
  6
CONTINUOUS
  0
POLYLINE
  5
275
100
AcDbEntity
  8
OBJECT
  6
CONTINUOUS
100
AcDb2dPolyline
 66
               1
 10
0.0
 20
0.0
 30
0.0
 70
               1
 75
               5
  0
VERTEX
  5
276
100
AcDbEntity
  8
OBJECT
  6
CONTINUOUS
100
AcDbVertex
100
AcDb2dVertex
 10
-1080.0
 20
-781.0
 30
0.0
  0
VERTEX
  5
277
100
AcDbEntity
  8
OBJECT
  6
CONTINUOUS
100
AcDbVertex
100
AcDb2dVertex
 10
-1140.0
 20
-781.0
 30
0.0
  0
VERTEX
  5
278
100
AcDbEntity
  8
OBJECT
  6
CONTINUOUS
100
AcDbVertex
100
AcDb2dVertex
 10
-1140.0
 20
-784.0
 30
0.0
  0
VERTEX
  5
279
100
AcDbEntity
  8
OBJECT
  6
CONTINUOUS
100
AcDbVertex
100
AcDb2dVertex
 10
-1080.0
 20
-784.0
 30
0.0
  0
SEQEND
  5
27A
100
AcDbEntity
  8
OBJECT
  6
CONTINUOUS
  0
LWPOLYLINE
  5
27B
100
AcDbEntity
  8
OBJECT
  6
CONTINUOUS
100
AcDbPolyline
 90
        5
 70
             129
 10
-1087.0
 20
-850.0
 42
-0.414213562373095
 10
-1077.0
 20
-840.0
 42
-0.414213562373095
 10
-1067.0
 20
-850.0
 42
-0.414213562373095
 10
-1077.0
 20
-860.0
 42
-0.414213562373095
 10
-1087.0
 20
-850.0
 42
-0.414213562373095
  0
LWPOLYLINE
  5
27C
100
AcDbEntity
  8
OBJECT
  6
CONTINUOUS
100
AcDbPolyline
 90
        5
 70
             128
 10
-1086.5
 20
-792.0
 42
0.414213562373095
 10
-1085.5
 20
-793.0
 10
-1077.5
 20
-793.0
 10
-1067.3999999999996
 20
-846.4377000000004
 10
-1067.1999999999998
 20
-848.25840000000017
  0
LWPOLYLINE
  5
27D
100
AcDbEntity
  8
OBJECT
  6
CONTINUOUS
100
AcDbPolyline
 90
       10
 70
             128
 10
-1085.1275999999998
 20
-855.77719999999999
 10
-1085.7710999999999
 20
-854.80280000000039
 10
-1123.5
 20
-801.0
 10
-1133.5
 20
-801.0
 10
-1133.5
 20
-794.0
 10
-1133.5
 20
-794.0
 42
-0.414213562373095
 10
-1130.5
 20
-791.0
 10
-1087.5
 20
-791.0
 10
-1087.5
 20
-791.0
 42
-0.414213562373095
 10
-1086.5
 20
-792.0
 42
-0.414213562373095
  0
POLYLINE
  5
27E
100
AcDbEntity
  8
OBJECT
  6
CONTINUOUS
100
AcDb2dPolyline
 66
               1
 10
0.0
 20
0.0
 30
0.0
 70
               1
 75
               5
  0
VERTEX
  5
27F
100
AcDbEntity
  8
OBJECT
  6
CONTINUOUS
100
AcDbVertex
100
AcDb2dVertex
 10
-1083.5
 20
-784.0
 30
0.0
  0
VERTEX
  5
280
100
AcDbEntity
  8
OBJECT
  6
CONTINUOUS
100
AcDbVertex
100
AcDb2dVertex
 10
-1136.5
 20
-784.0
 30
0.0
  0
VERTEX
  5
281
100
AcDbEntity
  8
OBJECT
  6
CONTINUOUS
100
AcDbVertex
100
AcDb2dVertex
 10
-1132.5
 20
-787.5
 30
0.0
  0
VERTEX
  5
282
100
AcDbEntity
  8
OBJECT
  6
CONTINUOUS
100
AcDbVertex
100
AcDb2dVertex
 10
-1132.5
 20
-791.0
 30
0.0
  0
VERTEX
  5
283
100
AcDbEntity
  8
OBJECT
  6
CONTINUOUS
100
AcDbVertex
100
AcDb2dVertex
 10
-1087.5
 20
-791.0
 30
0.0
  0
VERTEX
  5
284
100
AcDbEntity
  8
OBJECT
  6
CONTINUOUS
100
AcDbVertex
100
AcDb2dVertex
 10
-1087.5
 20
-787.5
 30
0.0
  0
SEQEND
  5
285
100
AcDbEntity
  8
OBJECT
  6
CONTINUOUS
  0
LINE
  5
286
100
AcDbEntity
  8
OBJECT
  6
CONTINUOUS
100
AcDbLine
 10
-1087.5
 20
-787.5
 30
0.0
 11
-1132.5
 21
-787.5
 31
0.0
  0
LINE
  5
287
100
AcDbEntity
  8
OBJECT
  6
CONTINUOUS
100
AcDbLine
 10
-1092.5
 20
-793.0
 30
0.0
 11
-1092.5
 21
-843.0
 31
0.0
  0
LWPOLYLINE
  5
288
100
AcDbEntity
  8
OBJECT
  6
CONTINUOUS
100
AcDbPolyline
 90
        5
 70
             129
 10
-1082.5
 20
-850.0
 42
-0.414213562373095
 10
-1077.0
 20
-844.5
 42
-0.414213562373095
 10
-1071.5
 20
-850.0
 42
-0.414213562373095
 10
-1077.0
 20
-855.5
 42
-0.414213562373095
 10
-1082.5
 20
-850.0
 42
-0.414213562373095
  0
ARC
  5
289
100
AcDbEntity
  8
OBJECT
  6
CONTINUOUS
100
AcDbCircle
 10
-1077.0
 20
-850.0
 30
0.0
 40
40.00001805624602
100
AcDbArc
 50
139.42693516316959
 51
86.085507773715634
  0
ARC
  5
28A
100
AcDbEntity
  8
OBJECT
  6
CONTINUOUS
100
AcDbCircle
 10
-1077.0
 20
-850.0
 30
0.0
 40
46.499974801391303
100
AcDbArc
 50
137.38144272174625
 51
88.1648678673657
  0
ARC
  5
28B
100
AcDbEntity
  8
OBJECT
  6
CONTINUOUS
100
AcDbCircle
 10
-1077.0
 20
-850.0
 30
0.0
 40
50.000016569696825
100
AcDbArc
 50
136.5052764586583
 51
89.055378894867943
  0
POLYLINE
  5
28C
100
AcDbEntity
  8
OBJECT
  6
CONTINUOUS
100
AcDb2dPolyline
 66
               1
 10
0.0
 20
0.0
 30
0.0
 70
               1
 75
               5
  0
VERTEX
  5
28D
100
AcDbEntity
  8
OBJECT
  6
CONTINUOUS
100
AcDbVertex
100
AcDb2dVertex
 10
-660.0
 20
-781.0
 30
0.0
  0
VERTEX
  5
28E
100
AcDbEntity
  8
OBJECT
  6
CONTINUOUS
100
AcDbVertex
100
AcDb2dVertex
 10
-720.0
 20
-781.0
 30
0.0
  0
VERTEX
  5
28F
100
AcDbEntity
  8
OBJECT
  6
CONTINUOUS
100
AcDbVertex
100
AcDb2dVertex
 10
-720.0
 20
-784.0
 30
0.0
  0
VERTEX
  5
290
100
AcDbEntity
  8
OBJECT
  6
CONTINUOUS
100
AcDbVertex
100
AcDb2dVertex
 10
-660.0
 20
-784.0
 30
0.0
  0
SEQEND
  5
291
100
AcDbEntity
  8
OBJECT
  6
CONTINUOUS
  0
LWPOLYLINE
  5
292
100
AcDbEntity
  8
OBJECT
  6
CONTINUOUS
100
AcDbPolyline
 90
        5
 70
             129
 10
-667.0
 20
-850.0
 42
-0.414213562373095
 10
-657.0
 20
-840.0
 42
-0.414213562373095
 10
-647.0
 20
-850.0
 42
-0.414213562373095
 10
-657.0
 20
-860.0
 42
-0.414213562373095
 10
-667.0
 20
-850.0
 42
-0.414213562373095
  0
LWPOLYLINE
  5
293
100
AcDbEntity
  8
OBJECT
  6
CONTINUOUS
100
AcDbPolyline
 90
        5
 70
             128
 10
-666.5
 20
-792.0
 42
0.414213562373095
 10
-665.5
 20
-793.0
 10
-657.5
 20
-793.0
 10
-647.39999999999964
 20
-846.4377000000004
 10
-647.19999999999982
 20
-848.25840000000017
  0
LWPOLYLINE
  5
294
100
AcDbEntity
  8
OBJECT
  6
CONTINUOUS
100
AcDbPolyline
 90
       10
 70
             128
 10
-665.1275999999998
 20
-855.77719999999999
 10
-665.77109999999993
 20
-854.80280000000039
 10
-703.5
 20
-801.0
 10
-713.5
 20
-801.0
 10
-713.5
 20
-794.0
 10
-713.5
 20
-794.0
 42
-0.414213562373095
 10
-710.5
 20
-791.0
 10
-667.5
 20
-791.0
 10
-667.5
 20
-791.0
 42
-0.414213562373095
 10
-666.5
 20
-792.0
 42
-0.414213562373095
  0
POLYLINE
  5
295
100
AcDbEntity
  8
OBJECT
  6
CONTINUOUS
100
AcDb2dPolyline
 66
               1
 10
0.0
 20
0.0
 30
0.0
 70
               1
 75
               5
  0
VERTEX
  5
296
100
AcDbEntity
  8
OBJECT
  6
CONTINUOUS
100
AcDbVertex
100
AcDb2dVertex
 10
-663.5
 20
-784.0
 30
0.0
  0
VERTEX
  5
297
100
AcDbEntity
  8
OBJECT
  6
CONTINUOUS
100
AcDbVertex
100
AcDb2dVertex
 10
-716.5
 20
-784.0
 30
0.0
  0
VERTEX
  5
298
100
AcDbEntity
  8
OBJECT
  6
CONTINUOUS
100
AcDbVertex
100
AcDb2dVertex
 10
-712.5
 20
-787.5
 30
0.0
  0
VERTEX
  5
299
100
AcDbEntity
  8
OBJECT
  6
CONTINUOUS
100
AcDbVertex
100
AcDb2dVertex
 10
-712.5
 20
-791.0
 30
0.0
  0
VERTEX
  5
29A
100
AcDbEntity
  8
OBJECT
  6
CONTINUOUS
100
AcDbVertex
100
AcDb2dVertex
 10
-667.5
 20
-791.0
 30
0.0
  0
VERTEX
  5
29B
100
AcDbEntity
  8
OBJECT
  6
CONTINUOUS
100
AcDbVertex
100
AcDb2dVertex
 10
-667.5
 20
-787.5
 30
0.0
  0
SEQEND
  5
29C
100
AcDbEntity
  8
OBJECT
  6
CONTINUOUS
  0
LINE
  5
29D
100
AcDbEntity
  8
OBJECT
  6
CONTINUOUS
100
AcDbLine
 10
-667.5
 20
-787.5
 30
0.0
 11
-712.5
 21
-787.5
 31
0.0
  0
LINE
  5
29E
100
AcDbEntity
  8
OBJECT
  6
CONTINUOUS
100
AcDbLine
 10
-672.5
 20
-793.0
 30
0.0
 11
-672.5
 21
-843.0
 31
0.0
  0
LWPOLYLINE
  5
29F
100
AcDbEntity
  8
OBJECT
  6
CONTINUOUS
100
AcDbPolyline
 90
        5
 70
             129
 10
-662.5
 20
-850.0
 42
-0.414213562373095
 10
-657.0
 20
-844.5
 42
-0.414213562373095
 10
-651.5
 20
-850.0
 42
-0.414213562373095
 10
-657.0
 20
-855.5
 42
-0.414213562373095
 10
-662.5
 20
-850.0
 42
-0.414213562373095
  0
ARC
  5
2A0
100
AcDbEntity
  8
OBJECT
  6
CONTINUOUS
100
AcDbCircle
 10
-657.0
 20
-850.0
 30
0.0
 40
40.00001805624602
100
AcDbArc
 50
139.42693516316959
 51
86.085507773715634
  0
ARC
  5
2A1
100
AcDbEntity
  8
OBJECT
  6
CONTINUOUS
100
AcDbCircle
 10
-657.0
 20
-850.0
 30
0.0
 40
46.499974801391303
100
AcDbArc
 50
137.38144272174625
 51
88.1648678673657
  0
ARC
  5
2A2
100
AcDbEntity
  8
OBJECT
  6
CONTINUOUS
100
AcDbCircle
 10
-657.0
 20
-850.0
 30
0.0
 40
50.000016569696825
100
AcDbArc
 50
136.5052764586583
 51
89.055378894867943
  0
POLYLINE
  5
2A3
100
AcDbEntity
  8
OBJECT
  6
CONTINUOUS
100
AcDb2dPolyline
 66
               1
 10
0.0
 20
0.0
 30
0.0
 70
               1
 75
               5
  0
VERTEX
  5
2A4
100
AcDbEntity
  8
OBJECT
  6
CONTINUOUS
100
AcDbVertex
100
AcDb2dVertex
 10
-1143.0
 20
-69.5
 30
0.0
  0
VERTEX
  5
2A5
100
AcDbEntity
  8
OBJECT
  6
CONTINUOUS
100
AcDbVertex
100
AcDb2dVertex
 10
-657.0
 20
-69.5
 30
0.0
  0
VERTEX
  5
2A6
100
AcDbEntity
  8
OBJECT
  6
CONTINUOUS
100
AcDbVertex
100
AcDb2dVertex
 10
-657.0
 20
-779.5
 30
0.0
  0
VERTEX
  5
2A7
100
AcDbEntity
  8
OBJECT
  6
CONTINUOUS
100
AcDbVertex
100
AcDb2dVertex
 10
-1143.0
 20
-779.5
 30
0.0
  0
SEQEND
  5
2A8
100
AcDbEntity
  8
OBJECT
  6
CONTINUOUS
  0
LWPOLYLINE
  5
2A9
100
AcDbEntity
  8
OBJECT
  6
CONTINUOUS
100
AcDbPolyline
 90
        8
 70
             129
 10
-1128.0
 20
-81.5
 42
-0.414213562373095
 10
-1125.0
 20
-78.5
 10
-675.0
 20
-78.5
 42
-0.414213562373095
 10
-672.0
 20
-81.5
 10
-672.0
 20
-737.5
 42
-0.414213562373095
 10
-675.0
 20
-740.5
 10
-1125.0
 20
-740.5
 42
-0.414213562373095
 10
-1128.0
 20
-737.5
  0
LWPOLYLINE
  5
2AA
100
AcDbEntity
  8
OBJECT
  6
CONTINUOUS
100
AcDbPolyline
 90
        5
 70
             129
 10
-764.5
 20
-734.5
 42
-0.414213562373095
 10
-760.0
 20
-730.0
 42
-0.414213562373095
 10
-755.5
 20
-734.5
 42
-0.414213562373095
 10
-760.0
 20
-739.0
 42
-0.414213562373095
 10
-764.5
 20
-734.5
 42
-0.414213562373095
  0
LWPOLYLINE
  5
2AB
100
AcDbEntity
  8
OBJECT
  6
CONTINUOUS
100
AcDbPolyline
 90
        5
 70
             129
 10
-1044.5
 20
-734.5
 42
-0.414213562373095
 10
-1040.0
 20
-730.0
 42
-0.414213562373095
 10
-1035.5
 20
-734.5
 42
-0.414213562373095
 10
-1040.0
 20
-739.0
 42
-0.414213562373095
 10
-1044.5
 20
-734.5
 42
-0.414213562373095
  0
LWPOLYLINE
  5
2AC
100
AcDbEntity
  8
OBJECT
  6
CONTINUOUS
100
AcDbPolyline
 90
        5
 70
             129
 10
-764.5
 20
-84.5
 42
-0.414213562373095
 10
-760.0
 20
-80.0
 42
-0.414213562373095
 10
-755.5
 20
-84.5
 42
-0.414213562373095
 10
-760.0
 20
-89.0
 42
-0.414213562373095
 10
-764.5
 20
-84.5
 42
-0.414213562373095
  0
LWPOLYLINE
  5
2AD
100
AcDbEntity
  8
OBJECT
  6
CONTINUOUS
100
AcDbPolyline
 90
        5
 70
             129
 10
-1044.5
 20
-84.5
 42
-0.414213562373095
 10
-1040.0
 20
-80.0
 42
-0.414213562373095
 10
-1035.5
 20
-84.5
 42
-0.414213562373095
 10
-1040.0
 20
-89.0
 42
-0.414213562373095
 10
-1044.5
 20
-84.5
 42
-0.414213562373095
  0
POLYLINE
  5
2AE
100
AcDbEntity
  8
OBJECT
  6
CONTINUOUS
100
AcDb2dPolyline
 66
               1
 10
0.0
 20
0.0
 30
0.0
 70
               1
 75
               5
  0
VERTEX
  5
2AF
100
AcDbEntity
  8
OBJECT
  6
CONTINUOUS
100
AcDbVertex
100
AcDb2dVertex
 10
-1145.0
 20
-69.5
 30
0.0
  0
VERTEX
  5
2B0
100
AcDbEntity
  8
OBJECT
  6
CONTINUOUS
100
AcDbVertex
100
AcDb2dVertex
 10
-1143.0
 20
-69.5
 30
0.0
  0
VERTEX
  5
2B1
100
AcDbEntity
  8
OBJECT
  6
CONTINUOUS
100
AcDbVertex
100
AcDb2dVertex
 10
-1143.0
 20
-99.5
 30
0.0
  0
VERTEX
  5
2B2
100
AcDbEntity
  8
OBJECT
  6
CONTINUOUS
100
AcDbVertex
100
AcDb2dVertex
 10
-1145.0
 20
-99.5
 30
0.0
  0
SEQEND
  5
2B3
100
AcDbEntity
  8
OBJECT
  6
CONTINUOUS
  0
POLYLINE
  5
2B4
100
AcDbEntity
  8
OBJECT
  6
CONTINUOUS
100
AcDb2dPolyline
 66
               1
 10
0.0
 20
0.0
 30
0.0
 70
               1
 75
               5
  0
VERTEX
  5
2B5
100
AcDbEntity
  8
OBJECT
  6
CONTINUOUS
100
AcDbVertex
100
AcDb2dVertex
 10
-657.0
 20
-69.5
 30
0.0
  0
VERTEX
  5
2B6
100
AcDbEntity
  8
OBJECT
  6
CONTINUOUS
100
AcDbVertex
100
AcDb2dVertex
 10
-655.0
 20
-69.5
 30
0.0
  0
VERTEX
  5
2B7
100
AcDbEntity
  8
OBJECT
  6
CONTINUOUS
100
AcDbVertex
100
AcDb2dVertex
 10
-655.0
 20
-99.5
 30
0.0
  0
VERTEX
  5
2B8
100
AcDbEntity
  8
OBJECT
  6
CONTINUOUS
100
AcDbVertex
100
AcDb2dVertex
 10
-657.0
 20
-99.5
 30
0.0
  0
SEQEND
  5
2B9
100
AcDbEntity
  8
OBJECT
  6
CONTINUOUS
  0
POLYLINE
  5
2BA
100
AcDbEntity
  8
OBJECT
  6
CONTINUOUS
100
AcDb2dPolyline
 66
               1
 10
0.0
 20
0.0
 30
0.0
 70
               1
 75
               5
  0
VERTEX
  5
2BB
100
AcDbEntity
  8
OBJECT
  6
CONTINUOUS
100
AcDbVertex
100
AcDb2dVertex
 10
-1143.0
 20
797.0
 30
0.0
  0
VERTEX
  5
2BC
100
AcDbEntity
  8
OBJECT
  6
CONTINUOUS
100
AcDbVertex
100
AcDb2dVertex
 10
-657.0
 20
797.0
 30
0.0
  0
VERTEX
  5
2BD
100
AcDbEntity
  8
OBJECT
  6
CONTINUOUS
100
AcDbVertex
100
AcDb2dVertex
 10
-657.0
 20
762.0
 30
0.0
  0
VERTEX
  5
2BE
100
AcDbEntity
  8
OBJECT
  6
CONTINUOUS
100
AcDbVertex
100
AcDb2dVertex
 10
-1143.0
 20
762.0
 30
0.0
  0
SEQEND
  5
2BF
100
AcDbEntity
  8
OBJECT
  6
CONTINUOUS
  0
POLYLINE
  5
2C0
100
AcDbEntity
  8
OBJECT
  6
CONTINUOUS
100
AcDb2dPolyline
 66
               1
 10
0.0
 20
0.0
 30
0.0
 70
               1
 75
               5
  0
VERTEX
  5
2C1
100
AcDbEntity
  8
OBJECT
  6
CONTINUOUS
100
AcDbVertex
100
AcDb2dVertex
 10
-1143.0
 20
438.0
 30
0.0
  0
VERTEX
  5
2C2
100
AcDbEntity
  8
OBJECT
  6
CONTINUOUS
100
AcDbVertex
100
AcDb2dVertex
 10
-657.0
 20
438.0
 30
0.0
  0
VERTEX
  5
2C3
100
AcDbEntity
  8
OBJECT
  6
CONTINUOUS
100
AcDbVertex
100
AcDb2dVertex
 10
-657.0
 20
403.0
 30
0.0
  0
VERTEX
  5
2C4
100
AcDbEntity
  8
OBJECT
  6
CONTINUOUS
100
AcDbVertex
100
AcDb2dVertex
 10
-1143.0
 20
403.0
 30
0.0
  0
SEQEND
  5
2C5
100
AcDbEntity
  8
OBJECT
  6
CONTINUOUS
  0
POLYLINE
  5
2C6
100
AcDbEntity
  8
OBJECT
  6
CONTINUOUS
100
AcDb2dPolyline
 66
               1
 10
0.0
 20
0.0
 30
0.0
 70
               1
 75
               5
  0
VERTEX
  5
2C7
100
AcDbEntity
  8
OBJECT
  6
CONTINUOUS
100
AcDbVertex
100
AcDb2dVertex
 10
-1144.0
 20
762.0
 30
0.0
  0
VERTEX
  5
2C8
100
AcDbEntity
  8
OBJECT
  6
CONTINUOUS
100
AcDbVertex
100
AcDb2dVertex
 10
-1142.0
 20
762.0
 30
0.0
  0
VERTEX
  5
2C9
100
AcDbEntity
  8
OBJECT
  6
CONTINUOUS
100
AcDbVertex
100
AcDb2dVertex
 10
-1142.0
 20
438.0
 30
0.0
  0
VERTEX
  5
2CA
100
AcDbEntity
  8
OBJECT
  6
CONTINUOUS
100
AcDbVertex
100
AcDb2dVertex
 10
-1144.0
 20
438.0
 30
0.0
  0
SEQEND
  5
2CB
100
AcDbEntity
  8
OBJECT
  6
CONTINUOUS
  0
POLYLINE
  5
2CC
100
AcDbEntity
  8
OBJECT
  6
CONTINUOUS
100
AcDb2dPolyline
 66
               1
 10
0.0
 20
0.0
 30
0.0
 70
               1
 75
               5
  0
VERTEX
  5
2CD
100
AcDbEntity
  8
OBJECT
  6
CONTINUOUS
100
AcDbVertex
100
AcDb2dVertex
 10
-658.0
 20
762.0
 30
0.0
  0
VERTEX
  5
2CE
100
AcDbEntity
  8
OBJECT
  6
CONTINUOUS
100
AcDbVertex
100
AcDb2dVertex
 10
-656.0
 20
762.0
 30
0.0
  0
VERTEX
  5
2CF
100
AcDbEntity
  8
OBJECT
  6
CONTINUOUS
100
AcDbVertex
100
AcDb2dVertex
 10
-656.0
 20
438.0
 30
0.0
  0
VERTEX
  5
2D0
100
AcDbEntity
  8
OBJECT
  6
CONTINUOUS
100
AcDbVertex
100
AcDb2dVertex
 10
-658.0
 20
438.0
 30
0.0
  0
SEQEND
  5
2D1
100
AcDbEntity
  8
OBJECT
  6
CONTINUOUS
  0
POLYLINE
  5
2D2
100
AcDbEntity
  8
OBJECT
  6
CONTINUOUS
100
AcDb2dPolyline
 66
               1
 10
0.0
 20
0.0
 30
0.0
 70
               1
 75
               5
  0
VERTEX
  5
2D3
100
AcDbEntity
  8
OBJECT
  6
CONTINUOUS
100
AcDbVertex
100
AcDb2dVertex
 10
-1142.0
 20
601.0
 30
0.0
  0
VERTEX
  5
2D4
100
AcDbEntity
  8
OBJECT
  6
CONTINUOUS
100
AcDbVertex
100
AcDb2dVertex
 10
-658.0
 20
601.0
 30
0.0
  0
VERTEX
  5
2D5
100
AcDbEntity
  8
OBJECT
  6
CONTINUOUS
100
AcDbVertex
100
AcDb2dVertex
 10
-658.0
 20
599.0
 30
0.0
  0
VERTEX
  5
2D6
100
AcDbEntity
  8
OBJECT
  6
CONTINUOUS
100
AcDbVertex
100
AcDb2dVertex
 10
-1142.0
 20
599.0
 30
0.0
  0
SEQEND
  5
2D7
100
AcDbEntity
  8
OBJECT
  6
CONTINUOUS
  0
POLYLINE
  5
2D8
100
AcDbEntity
  8
OBJECT
  6
CONTINUOUS
100
AcDb2dPolyline
 66
               1
 10
0.0
 20
0.0
 30
0.0
 70
               1
 75
               5
  0
VERTEX
  5
2D9
100
AcDbEntity
  8
OBJECT
  6
CONTINUOUS
100
AcDbVertex
100
AcDb2dVertex
 10
-982.0
 20
711.0
 30
0.0
  0
VERTEX
  5
2DA
100
AcDbEntity
  8
OBJECT
  6
CONTINUOUS
100
AcDbVertex
100
AcDb2dVertex
 10
-980.0
 20
711.0
 30
0.0
  0
VERTEX
  5
2DB
100
AcDbEntity
  8
OBJECT
  6
CONTINUOUS
100
AcDbVertex
100
AcDb2dVertex
 10
-980.0
 20
601.0
 30
0.0
  0
VERTEX
  5
2DC
100
AcDbEntity
  8
OBJECT
  6
CONTINUOUS
100
AcDbVertex
100
AcDb2dVertex
 10
-982.0
 20
601.0
 30
0.0
  0
SEQEND
  5
2DD
100
AcDbEntity
  8
OBJECT
  6
CONTINUOUS
  0
POLYLINE
  5
2DE
100
AcDbEntity
  8
OBJECT
  6
CONTINUOUS
100
AcDb2dPolyline
 66
               1
 10
0.0
 20
0.0
 30
0.0
 70
               1
 75
               5
  0
VERTEX
  5
2DF
100
AcDbEntity
  8
OBJECT
  6
CONTINUOUS
100
AcDbVertex
100
AcDb2dVertex
 10
-820.0
 20
711.0
 30
0.0
  0
VERTEX
  5
2E0
100
AcDbEntity
  8
OBJECT
  6
CONTINUOUS
100
AcDbVertex
100
AcDb2dVertex
 10
-818.0
 20
711.0
 30
0.0
  0
VERTEX
  5
2E1
100
AcDbEntity
  8
OBJECT
  6
CONTINUOUS
100
AcDbVertex
100
AcDb2dVertex
 10
-818.0
 20
601.0
 30
0.0
  0
VERTEX
  5
2E2
100
AcDbEntity
  8
OBJECT
  6
CONTINUOUS
100
AcDbVertex
100
AcDb2dVertex
 10
-820.0
 20
601.0
 30
0.0
  0
SEQEND
  5
2E3
100
AcDbEntity
  8
OBJECT
  6
CONTINUOUS
  0
POLYLINE
  5
2E4
100
AcDbEntity
  8
OBJECT
  6
CONTINUOUS
100
AcDb2dPolyline
 66
               1
 10
0.0
 20
0.0
 30
0.0
 70
               1
 75
               5
  0
VERTEX
  5
2E5
100
AcDbEntity
  8
OBJECT
  6
CONTINUOUS
100
AcDbVertex
100
AcDb2dVertex
 10
-982.0
 20
599.0
 30
0.0
  0
VERTEX
  5
2E6
100
AcDbEntity
  8
OBJECT
  6
CONTINUOUS
100
AcDbVertex
100
AcDb2dVertex
 10
-980.0
 20
599.0
 30
0.0
  0
VERTEX
  5
2E7
100
AcDbEntity
  8
OBJECT
  6
CONTINUOUS
100
AcDbVertex
100
AcDb2dVertex
 10
-980.0
 20
489.0
 30
0.0
  0
VERTEX
  5
2E8
100
AcDbEntity
  8
OBJECT
  6
CONTINUOUS
100
AcDbVertex
100
AcDb2dVertex
 10
-982.0
 20
489.0
 30
0.0
  0
SEQEND
  5
2E9
100
AcDbEntity
  8
OBJECT
  6
CONTINUOUS
  0
POLYLINE
  5
2EA
100
AcDbEntity
  8
OBJECT
  6
CONTINUOUS
100
AcDb2dPolyline
 66
               1
 10
0.0
 20
0.0
 30
0.0
 70
               1
 75
               5
  0
VERTEX
  5
2EB
100
AcDbEntity
  8
OBJECT
  6
CONTINUOUS
100
AcDbVertex
100
AcDb2dVertex
 10
-820.0
 20
599.0
 30
0.0
  0
VERTEX
  5
2EC
100
AcDbEntity
  8
OBJECT
  6
CONTINUOUS
100
AcDbVertex
100
AcDb2dVertex
 10
-818.0
 20
599.0
 30
0.0
  0
VERTEX
  5
2ED
100
AcDbEntity
  8
OBJECT
  6
CONTINUOUS
100
AcDbVertex
100
AcDb2dVertex
 10
-818.0
 20
489.0
 30
0.0
  0
VERTEX
  5
2EE
100
AcDbEntity
  8
OBJECT
  6
CONTINUOUS
100
AcDbVertex
100
AcDb2dVertex
 10
-820.0
 20
489.0
 30
0.0
  0
SEQEND
  5
2EF
100
AcDbEntity
  8
OBJECT
  6
CONTINUOUS
  0
POLYLINE
  5
2F0
100
AcDbEntity
  8
OBJECT
  6
CONTINUOUS
100
AcDb2dPolyline
 66
               1
 10
0.0
 20
0.0
 30
0.0
 70
               1
 75
               5
  0
VERTEX
  5
2F1
100
AcDbEntity
  8
OBJECT
  6
CONTINUOUS
100
AcDbVertex
100
AcDb2dVertex
 10
-950.0
 20
722.0
 30
0.0
  0
VERTEX
  5
2F2
100
AcDbEntity
  8
OBJECT
  6
CONTINUOUS
100
AcDbVertex
100
AcDb2dVertex
 10
-940.0
 20
732.0
 30
0.0
  0
VERTEX
  5
2F3
100
AcDbEntity
  8
OBJECT
  6
CONTINUOUS
100
AcDbVertex
100
AcDb2dVertex
 10
-860.0
 20
732.0
 30
0.0
  0
VERTEX
  5
2F4
100
AcDbEntity
  8
OBJECT
  6
CONTINUOUS
100
AcDbVertex
100
AcDb2dVertex
 10
-850.0
 20
722.0
 30
0.0
  0
VERTEX
  5
2F5
100
AcDbEntity
  8
OBJECT
  6
CONTINUOUS
100
AcDbVertex
100
AcDb2dVertex
 10
-850.0
 20
642.0
 30
0.0
  0
VERTEX
  5
2F6
100
AcDbEntity
  8
OBJECT
  6
CONTINUOUS
100
AcDbVertex
100
AcDb2dVertex
 10
-860.0
 20
632.0
 30
0.0
  0
VERTEX
  5
2F7
100
AcDbEntity
  8
OBJECT
  6
CONTINUOUS
100
AcDbVertex
100
AcDb2dVertex
 10
-940.0
 20
632.0
 30
0.0
  0
VERTEX
  5
2F8
100
AcDbEntity
  8
OBJECT
  6
CONTINUOUS
100
AcDbVertex
100
AcDb2dVertex
 10
-950.0
 20
642.0
 30
0.0
  0
SEQEND
  5
2F9
100
AcDbEntity
  8
OBJECT
  6
CONTINUOUS
  0
POLYLINE
  5
2FA
100
AcDbEntity
  8
OBJECT
  6
CONTINUOUS
100
AcDb2dPolyline
 66
               1
 10
0.0
 20
0.0
 30
0.0
 75
               5
  0
VERTEX
  5
2FB
100
AcDbEntity
  8
OBJECT
  6
CONTINUOUS
100
AcDbVertex
100
AcDb2dVertex
 10
-901.0
 20
732.0
 30
0.0
  0
VERTEX
  5
2FC
100
AcDbEntity
  8
OBJECT
  6
CONTINUOUS
100
AcDbVertex
100
AcDb2dVertex
 10
-901.0
 20
762.0
 30
0.0
  0
VERTEX
  5
2FD
100
AcDbEntity
  8
OBJECT
  6
CONTINUOUS
100
AcDbVertex
100
AcDb2dVertex
 10
-899.0
 20
762.0
 30
0.0
  0
VERTEX
  5
2FE
100
AcDbEntity
  8
OBJECT
  6
CONTINUOUS
100
AcDbVertex
100
AcDb2dVertex
 10
-899.0
 20
732.0
 30
0.0
  0
SEQEND
  5
2FF
100
AcDbEntity
  8
OBJECT
  6
CONTINUOUS
  0
POLYLINE
  5
300
100
AcDbEntity
  8
OBJECT
  6
CONTINUOUS
100
AcDb2dPolyline
 66
               1
 10
0.0
 20
0.0
 30
0.0
 75
               5
  0
VERTEX
  5
301
100
AcDbEntity
  8
OBJECT
  6
CONTINUOUS
100
AcDbVertex
100
AcDb2dVertex
 10
-901.0
 20
632.0
 30
0.0
  0
VERTEX
  5
302
100
AcDbEntity
  8
OBJECT
  6
CONTINUOUS
100
AcDbVertex
100
AcDb2dVertex
 10
-901.0
 20
627.0
 30
0.0
  0
VERTEX
  5
303
100
AcDbEntity
  8
OBJECT
  6
CONTINUOUS
100
AcDbVertex
100
AcDb2dVertex
 10
-899.0
 20
627.0
 30
0.0
  0
VERTEX
  5
304
100
AcDbEntity
  8
OBJECT
  6
CONTINUOUS
100
AcDbVertex
100
AcDb2dVertex
 10
-899.0
 20
632.0
 30
0.0
  0
SEQEND
  5
305
100
AcDbEntity
  8
OBJECT
  6
CONTINUOUS
  0
POLYLINE
  5
306
100
AcDbEntity
  8
OBJECT
  6
CONTINUOUS
100
AcDb2dPolyline
 66
               1
 10
0.0
 20
0.0
 30
0.0
 70
               1
 75
               5
  0
VERTEX
  5
307
100
AcDbEntity
  8
OBJECT
  6
CONTINUOUS
100
AcDbVertex
100
AcDb2dVertex
 10
-950.0
 20
478.0
 30
0.0
  0
VERTEX
  5
308
100
AcDbEntity
  8
OBJECT
  6
CONTINUOUS
100
AcDbVertex
100
AcDb2dVertex
 10
-940.0
 20
468.0
 30
0.0
  0
VERTEX
  5
309
100
AcDbEntity
  8
OBJECT
  6
CONTINUOUS
100
AcDbVertex
100
AcDb2dVertex
 10
-860.0
 20
468.0
 30
0.0
  0
VERTEX
  5
30A
100
AcDbEntity
  8
OBJECT
  6
CONTINUOUS
100
AcDbVertex
100
AcDb2dVertex
 10
-850.0
 20
478.0
 30
0.0
  0
VERTEX
  5
30B
100
AcDbEntity
  8
OBJECT
  6
CONTINUOUS
100
AcDbVertex
100
AcDb2dVertex
 10
-850.0
 20
558.0
 30
0.0
  0
VERTEX
  5
30C
100
AcDbEntity
  8
OBJECT
  6
CONTINUOUS
100
AcDbVertex
100
AcDb2dVertex
 10
-860.0
 20
568.0
 30
0.0
  0
VERTEX
  5
30D
100
AcDbEntity
  8
OBJECT
  6
CONTINUOUS
100
AcDbVertex
100
AcDb2dVertex
 10
-940.0
 20
568.0
 30
0.0
  0
VERTEX
  5
30E
100
AcDbEntity
  8
OBJECT
  6
CONTINUOUS
100
AcDbVertex
100
AcDb2dVertex
 10
-950.0
 20
558.0
 30
0.0
  0
SEQEND
  5
30F
100
AcDbEntity
  8
OBJECT
  6
CONTINUOUS
  0
POLYLINE
  5
310
100
AcDbEntity
  8
OBJECT
  6
CONTINUOUS
100
AcDb2dPolyline
 66
               1
 10
0.0
 20
0.0
 30
0.0
 75
               5
  0
VERTEX
  5
311
100
AcDbEntity
  8
OBJECT
  6
CONTINUOUS
100
AcDbVertex
100
AcDb2dVertex
 10
-901.0
 20
468.0
 30
0.0
  0
VERTEX
  5
312
100
AcDbEntity
  8
OBJECT
  6
CONTINUOUS
100
AcDbVertex
100
AcDb2dVertex
 10
-901.0
 20
438.0
 30
0.0
  0
VERTEX
  5
313
100
AcDbEntity
  8
OBJECT
  6
CONTINUOUS
100
AcDbVertex
100
AcDb2dVertex
 10
-899.0
 20
438.0
 30
0.0
  0
VERTEX
  5
314
100
AcDbEntity
  8
OBJECT
  6
CONTINUOUS
100
AcDbVertex
100
AcDb2dVertex
 10
-899.0
 20
468.0
 30
0.0
  0
SEQEND
  5
315
100
AcDbEntity
  8
OBJECT
  6
CONTINUOUS
  0
POLYLINE
  5
316
100
AcDbEntity
  8
OBJECT
  6
CONTINUOUS
100
AcDb2dPolyline
 66
               1
 10
0.0
 20
0.0
 30
0.0
 75
               5
  0
VERTEX
  5
317
100
AcDbEntity
  8
OBJECT
  6
CONTINUOUS
100
AcDbVertex
100
AcDb2dVertex
 10
-901.0
 20
568.0
 30
0.0
  0
VERTEX
  5
318
100
AcDbEntity
  8
OBJECT
  6
CONTINUOUS
100
AcDbVertex
100
AcDb2dVertex
 10
-901.0
 20
573.0
 30
0.0
  0
VERTEX
  5
319
100
AcDbEntity
  8
OBJECT
  6
CONTINUOUS
100
AcDbVertex
100
AcDb2dVertex
 10
-899.0
 20
573.0
 30
0.0
  0
VERTEX
  5
31A
100
AcDbEntity
  8
OBJECT
  6
CONTINUOUS
100
AcDbVertex
100
AcDb2dVertex
 10
-899.0
 20
568.0
 30
0.0
  0
SEQEND
  5
31B
100
AcDbEntity
  8
OBJECT
  6
CONTINUOUS
  0
POLYLINE
  5
31C
100
AcDbEntity
  8
OBJECT
  6
CONTINUOUS
100
AcDb2dPolyline
 66
               1
 10
0.0
 20
0.0
 30
0.0
 70
               1
 75
               5
  0
VERTEX
  5
31D
100
AcDbEntity
  8
OBJECT
  6
CONTINUOUS
100
AcDbVertex
100
AcDb2dVertex
 10
-788.0
 20
722.0
 30
0.0
  0
VERTEX
  5
31E
100
AcDbEntity
  8
OBJECT
  6
CONTINUOUS
100
AcDbVertex
100
AcDb2dVertex
 10
-778.0
 20
732.0
 30
0.0
  0
VERTEX
  5
31F
100
AcDbEntity
  8
OBJECT
  6
CONTINUOUS
100
AcDbVertex
100
AcDb2dVertex
 10
-698.0
 20
732.0
 30
0.0
  0
VERTEX
  5
320
100
AcDbEntity
  8
OBJECT
  6
CONTINUOUS
100
AcDbVertex
100
AcDb2dVertex
 10
-688.0
 20
722.0
 30
0.0
  0
VERTEX
  5
321
100
AcDbEntity
  8
OBJECT
  6
CONTINUOUS
100
AcDbVertex
100
AcDb2dVertex
 10
-688.0
 20
642.0
 30
0.0
  0
VERTEX
  5
322
100
AcDbEntity
  8
OBJECT
  6
CONTINUOUS
100
AcDbVertex
100
AcDb2dVertex
 10
-698.0
 20
632.0
 30
0.0
  0
VERTEX
  5
323
100
AcDbEntity
  8
OBJECT
  6
CONTINUOUS
100
AcDbVertex
100
AcDb2dVertex
 10
-778.0
 20
632.0
 30
0.0
  0
VERTEX
  5
324
100
AcDbEntity
  8
OBJECT
  6
CONTINUOUS
100
AcDbVertex
100
AcDb2dVertex
 10
-788.0
 20
642.0
 30
0.0
  0
SEQEND
  5
325
100
AcDbEntity
  8
OBJECT
  6
CONTINUOUS
  0
POLYLINE
  5
326
100
AcDbEntity
  8
OBJECT
  6
CONTINUOUS
100
AcDb2dPolyline
 66
               1
 10
0.0
 20
0.0
 30
0.0
 75
               5
  0
VERTEX
  5
327
100
AcDbEntity
  8
OBJECT
  6
CONTINUOUS
100
AcDbVertex
100
AcDb2dVertex
 10
-739.0
 20
732.0
 30
0.0
  0
VERTEX
  5
328
100
AcDbEntity
  8
OBJECT
  6
CONTINUOUS
100
AcDbVertex
100
AcDb2dVertex
 10
-739.0
 20
762.0
 30
0.0
  0
VERTEX
  5
329
100
AcDbEntity
  8
OBJECT
  6
CONTINUOUS
100
AcDbVertex
100
AcDb2dVertex
 10
-737.0
 20
762.0
 30
0.0
  0
VERTEX
  5
32A
100
AcDbEntity
  8
OBJECT
  6
CONTINUOUS
100
AcDbVertex
100
AcDb2dVertex
 10
-737.0
 20
732.0
 30
0.0
  0
SEQEND
  5
32B
100
AcDbEntity
  8
OBJECT
  6
CONTINUOUS
  0
POLYLINE
  5
32C
100
AcDbEntity
  8
OBJECT
  6
CONTINUOUS
100
AcDb2dPolyline
 66
               1
 10
0.0
 20
0.0
 30
0.0
 75
               5
  0
VERTEX
  5
32D
100
AcDbEntity
  8
OBJECT
  6
CONTINUOUS
100
AcDbVertex
100
AcDb2dVertex
 10
-739.0
 20
632.0
 30
0.0
  0
VERTEX
  5
32E
100
AcDbEntity
  8
OBJECT
  6
CONTINUOUS
100
AcDbVertex
100
AcDb2dVertex
 10
-739.0
 20
627.0
 30
0.0
  0
VERTEX
  5
32F
100
AcDbEntity
  8
OBJECT
  6
CONTINUOUS
100
AcDbVertex
100
AcDb2dVertex
 10
-737.0
 20
627.0
 30
0.0
  0
VERTEX
  5
330
100
AcDbEntity
  8
OBJECT
  6
CONTINUOUS
100
AcDbVertex
100
AcDb2dVertex
 10
-737.0
 20
632.0
 30
0.0
  0
SEQEND
  5
331
100
AcDbEntity
  8
OBJECT
  6
CONTINUOUS
  0
POLYLINE
  5
332
100
AcDbEntity
  8
OBJECT
  6
CONTINUOUS
100
AcDb2dPolyline
 66
               1
 10
0.0
 20
0.0
 30
0.0
 70
               1
 75
               5
  0
VERTEX
  5
333
100
AcDbEntity
  8
OBJECT
  6
CONTINUOUS
100
AcDbVertex
100
AcDb2dVertex
 10
-788.0
 20
478.0
 30
0.0
  0
VERTEX
  5
334
100
AcDbEntity
  8
OBJECT
  6
CONTINUOUS
100
AcDbVertex
100
AcDb2dVertex
 10
-778.0
 20
468.0
 30
0.0
  0
VERTEX
  5
335
100
AcDbEntity
  8
OBJECT
  6
CONTINUOUS
100
AcDbVertex
100
AcDb2dVertex
 10
-698.0
 20
468.0
 30
0.0
  0
VERTEX
  5
336
100
AcDbEntity
  8
OBJECT
  6
CONTINUOUS
100
AcDbVertex
100
AcDb2dVertex
 10
-688.0
 20
478.0
 30
0.0
  0
VERTEX
  5
337
100
AcDbEntity
  8
OBJECT
  6
CONTINUOUS
100
AcDbVertex
100
AcDb2dVertex
 10
-688.0
 20
558.0
 30
0.0
  0
VERTEX
  5
338
100
AcDbEntity
  8
OBJECT
  6
CONTINUOUS
100
AcDbVertex
100
AcDb2dVertex
 10
-698.0
 20
568.0
 30
0.0
  0
VERTEX
  5
339
100
AcDbEntity
  8
OBJECT
  6
CONTINUOUS
100
AcDbVertex
100
AcDb2dVertex
 10
-778.0
 20
568.0
 30
0.0
  0
VERTEX
  5
33A
100
AcDbEntity
  8
OBJECT
  6
CONTINUOUS
100
AcDbVertex
100
AcDb2dVertex
 10
-788.0
 20
558.0
 30
0.0
  0
SEQEND
  5
33B
100
AcDbEntity
  8
OBJECT
  6
CONTINUOUS
  0
POLYLINE
  5
33C
100
AcDbEntity
  8
OBJECT
  6
CONTINUOUS
100
AcDb2dPolyline
 66
               1
 10
0.0
 20
0.0
 30
0.0
 75
               5
  0
VERTEX
  5
33D
100
AcDbEntity
  8
OBJECT
  6
CONTINUOUS
100
AcDbVertex
100
AcDb2dVertex
 10
-739.0
 20
468.0
 30
0.0
  0
VERTEX
  5
33E
100
AcDbEntity
  8
OBJECT
  6
CONTINUOUS
100
AcDbVertex
100
AcDb2dVertex
 10
-739.0
 20
438.0
 30
0.0
  0
VERTEX
  5
33F
100
AcDbEntity
  8
OBJECT
  6
CONTINUOUS
100
AcDbVertex
100
AcDb2dVertex
 10
-737.0
 20
438.0
 30
0.0
  0
VERTEX
  5
340
100
AcDbEntity
  8
OBJECT
  6
CONTINUOUS
100
AcDbVertex
100
AcDb2dVertex
 10
-737.0
 20
468.0
 30
0.0
  0
SEQEND
  5
341
100
AcDbEntity
  8
OBJECT
  6
CONTINUOUS
  0
POLYLINE
  5
342
100
AcDbEntity
  8
OBJECT
  6
CONTINUOUS
100
AcDb2dPolyline
 66
               1
 10
0.0
 20
0.0
 30
0.0
 75
               5
  0
VERTEX
  5
343
100
AcDbEntity
  8
OBJECT
  6
CONTINUOUS
100
AcDbVertex
100
AcDb2dVertex
 10
-739.0
 20
568.0
 30
0.0
  0
VERTEX
  5
344
100
AcDbEntity
  8
OBJECT
  6
CONTINUOUS
100
AcDbVertex
100
AcDb2dVertex
 10
-739.0
 20
573.0
 30
0.0
  0
VERTEX
  5
345
100
AcDbEntity
  8
OBJECT
  6
CONTINUOUS
100
AcDbVertex
100
AcDb2dVertex
 10
-737.0
 20
573.0
 30
0.0
  0
VERTEX
  5
346
100
AcDbEntity
  8
OBJECT
  6
CONTINUOUS
100
AcDbVertex
100
AcDb2dVertex
 10
-737.0
 20
568.0
 30
0.0
  0
SEQEND
  5
347
100
AcDbEntity
  8
OBJECT
  6
CONTINUOUS
  0
POLYLINE
  5
348
100
AcDbEntity
  8
OBJECT
  6
CONTINUOUS
100
AcDb2dPolyline
 66
               1
 10
0.0
 20
0.0
 30
0.0
 70
               1
 75
               5
  0
VERTEX
  5
349
100
AcDbEntity
  8
OBJECT
  6
CONTINUOUS
100
AcDbVertex
100
AcDb2dVertex
 10
-1112.0
 20
722.0
 30
0.0
  0
VERTEX
  5
34A
100
AcDbEntity
  8
OBJECT
  6
CONTINUOUS
100
AcDbVertex
100
AcDb2dVertex
 10
-1102.0
 20
732.0
 30
0.0
  0
VERTEX
  5
34B
100
AcDbEntity
  8
OBJECT
  6
CONTINUOUS
100
AcDbVertex
100
AcDb2dVertex
 10
-1022.0
 20
732.0
 30
0.0
  0
VERTEX
  5
34C
100
AcDbEntity
  8
OBJECT
  6
CONTINUOUS
100
AcDbVertex
100
AcDb2dVertex
 10
-1012.0
 20
722.0
 30
0.0
  0
VERTEX
  5
34D
100
AcDbEntity
  8
OBJECT
  6
CONTINUOUS
100
AcDbVertex
100
AcDb2dVertex
 10
-1012.0
 20
642.0
 30
0.0
  0
VERTEX
  5
34E
100
AcDbEntity
  8
OBJECT
  6
CONTINUOUS
100
AcDbVertex
100
AcDb2dVertex
 10
-1022.0
 20
632.0
 30
0.0
  0
VERTEX
  5
34F
100
AcDbEntity
  8
OBJECT
  6
CONTINUOUS
100
AcDbVertex
100
AcDb2dVertex
 10
-1102.0
 20
632.0
 30
0.0
  0
VERTEX
  5
350
100
AcDbEntity
  8
OBJECT
  6
CONTINUOUS
100
AcDbVertex
100
AcDb2dVertex
 10
-1112.0
 20
642.0
 30
0.0
  0
SEQEND
  5
351
100
AcDbEntity
  8
OBJECT
  6
CONTINUOUS
  0
POLYLINE
  5
352
100
AcDbEntity
  8
OBJECT
  6
CONTINUOUS
100
AcDb2dPolyline
 66
               1
 10
0.0
 20
0.0
 30
0.0
 75
               5
  0
VERTEX
  5
353
100
AcDbEntity
  8
OBJECT
  6
CONTINUOUS
100
AcDbVertex
100
AcDb2dVertex
 10
-1063.0
 20
732.0
 30
0.0
  0
VERTEX
  5
354
100
AcDbEntity
  8
OBJECT
  6
CONTINUOUS
100
AcDbVertex
100
AcDb2dVertex
 10
-1063.0
 20
762.0
 30
0.0
  0
VERTEX
  5
355
100
AcDbEntity
  8
OBJECT
  6
CONTINUOUS
100
AcDbVertex
100
AcDb2dVertex
 10
-1061.0
 20
762.0
 30
0.0
  0
VERTEX
  5
356
100
AcDbEntity
  8
OBJECT
  6
CONTINUOUS
100
AcDbVertex
100
AcDb2dVertex
 10
-1061.0
 20
732.0
 30
0.0
  0
SEQEND
  5
357
100
AcDbEntity
  8
OBJECT
  6
CONTINUOUS
  0
POLYLINE
  5
358
100
AcDbEntity
  8
OBJECT
  6
CONTINUOUS
100
AcDb2dPolyline
 66
               1
 10
0.0
 20
0.0
 30
0.0
 75
               5
  0
VERTEX
  5
359
100
AcDbEntity
  8
OBJECT
  6
CONTINUOUS
100
AcDbVertex
100
AcDb2dVertex
 10
-1063.0
 20
632.0
 30
0.0
  0
VERTEX
  5
35A
100
AcDbEntity
  8
OBJECT
  6
CONTINUOUS
100
AcDbVertex
100
AcDb2dVertex
 10
-1063.0
 20
627.0
 30
0.0
  0
VERTEX
  5
35B
100
AcDbEntity
  8
OBJECT
  6
CONTINUOUS
100
AcDbVertex
100
AcDb2dVertex
 10
-1061.0
 20
627.0
 30
0.0
  0
VERTEX
  5
35C
100
AcDbEntity
  8
OBJECT
  6
CONTINUOUS
100
AcDbVertex
100
AcDb2dVertex
 10
-1061.0
 20
632.0
 30
0.0
  0
SEQEND
  5
35D
100
AcDbEntity
  8
OBJECT
  6
CONTINUOUS
  0
POLYLINE
  5
35E
100
AcDbEntity
  8
OBJECT
  6
CONTINUOUS
100
AcDb2dPolyline
 66
               1
 10
0.0
 20
0.0
 30
0.0
 70
               1
 75
               5
  0
VERTEX
  5
35F
100
AcDbEntity
  8
OBJECT
  6
CONTINUOUS
100
AcDbVertex
100
AcDb2dVertex
 10
-1112.0
 20
478.0
 30
0.0
  0
VERTEX
  5
360
100
AcDbEntity
  8
OBJECT
  6
CONTINUOUS
100
AcDbVertex
100
AcDb2dVertex
 10
-1102.0
 20
468.0
 30
0.0
  0
VERTEX
  5
361
100
AcDbEntity
  8
OBJECT
  6
CONTINUOUS
100
AcDbVertex
100
AcDb2dVertex
 10
-1022.0
 20
468.0
 30
0.0
  0
VERTEX
  5
362
100
AcDbEntity
  8
OBJECT
  6
CONTINUOUS
100
AcDbVertex
100
AcDb2dVertex
 10
-1012.0
 20
478.0
 30
0.0
  0
VERTEX
  5
363
100
AcDbEntity
  8
OBJECT
  6
CONTINUOUS
100
AcDbVertex
100
AcDb2dVertex
 10
-1012.0
 20
558.0
 30
0.0
  0
VERTEX
  5
364
100
AcDbEntity
  8
OBJECT
  6
CONTINUOUS
100
AcDbVertex
100
AcDb2dVertex
 10
-1022.0
 20
568.0
 30
0.0
  0
VERTEX
  5
365
100
AcDbEntity
  8
OBJECT
  6
CONTINUOUS
100
AcDbVertex
100
AcDb2dVertex
 10
-1102.0
 20
568.0
 30
0.0
  0
VERTEX
  5
366
100
AcDbEntity
  8
OBJECT
  6
CONTINUOUS
100
AcDbVertex
100
AcDb2dVertex
 10
-1112.0
 20
558.0
 30
0.0
  0
SEQEND
  5
367
100
AcDbEntity
  8
OBJECT
  6
CONTINUOUS
  0
POLYLINE
  5
368
100
AcDbEntity
  8
OBJECT
  6
CONTINUOUS
100
AcDb2dPolyline
 66
               1
 10
0.0
 20
0.0
 30
0.0
 75
               5
  0
VERTEX
  5
369
100
AcDbEntity
  8
OBJECT
  6
CONTINUOUS
100
AcDbVertex
100
AcDb2dVertex
 10
-1063.0
 20
468.0
 30
0.0
  0
VERTEX
  5
36A
100
AcDbEntity
  8
OBJECT
  6
CONTINUOUS
100
AcDbVertex
100
AcDb2dVertex
 10
-1063.0
 20
438.0
 30
0.0
  0
VERTEX
  5
36B
100
AcDbEntity
  8
OBJECT
  6
CONTINUOUS
100
AcDbVertex
100
AcDb2dVertex
 10
-1061.0
 20
438.0
 30
0.0
  0
VERTEX
  5
36C
100
AcDbEntity
  8
OBJECT
  6
CONTINUOUS
100
AcDbVertex
100
AcDb2dVertex
 10
-1061.0
 20
468.0
 30
0.0
  0
SEQEND
  5
36D
100
AcDbEntity
  8
OBJECT
  6
CONTINUOUS
  0
POLYLINE
  5
36E
100
AcDbEntity
  8
OBJECT
  6
CONTINUOUS
100
AcDb2dPolyline
 66
               1
 10
0.0
 20
0.0
 30
0.0
 75
               5
  0
VERTEX
  5
36F
100
AcDbEntity
  8
OBJECT
  6
CONTINUOUS
100
AcDbVertex
100
AcDb2dVertex
 10
-1063.0
 20
568.0
 30
0.0
  0
VERTEX
  5
370
100
AcDbEntity
  8
OBJECT
  6
CONTINUOUS
100
AcDbVertex
100
AcDb2dVertex
 10
-1063.0
 20
573.0
 30
0.0
  0
VERTEX
  5
371
100
AcDbEntity
  8
OBJECT
  6
CONTINUOUS
100
AcDbVertex
100
AcDb2dVertex
 10
-1061.0
 20
573.0
 30
0.0
  0
VERTEX
  5
372
100
AcDbEntity
  8
OBJECT
  6
CONTINUOUS
100
AcDbVertex
100
AcDb2dVertex
 10
-1061.0
 20
568.0
 30
0.0
  0
SEQEND
  5
373
100
AcDbEntity
  8
OBJECT
  6
CONTINUOUS
  0
LINE
  5
374
100
AcDbEntity
  8
CENTER
  6
STYLE_03
100
AcDbLine
 10
-900.0
 20
850.0
 30
0.0
 11
-900.0
 21
350.0
 31
0.0
  0
LINE
  5
375
100
AcDbEntity
  8
CENTER
  6
STYLE_03
100
AcDbLine
 10
-1200.0
 20
600.0
 30
0.0
 11
-600.0
 21
600.0
 31
0.0
  0
DIMENSION
  5
376
100
AcDbEntity
  8
DIMENTION
  6
CONTINUOUS
100
AcDbDimension
  2
*D12
 10
-1144.0
 20
900.0
 30
0.0
 11
-900.0
 21
900.0
 31
0.0
  1
490
  3
CAD
100
AcDbAlignedDimension
 13
-656.0
 23
762.0
 33
0.0
 14
-1144.0
 24
762.0
 34
0.0
100
AcDbRotatedDimension
1001
ACAD
1000
DSTYLE
1002
{
1070
             271
1070
               0
1070
             340
1005
2D
1070
             147
1040
0.9999999999999999
1002
}
  0
DIMENSION
  5
377
100
AcDbEntity
  8
DIMENTION
  6
CONTINUOUS
100
AcDbDimension
  2
*D13
 10
-500.0
 20
797.0
 30
0.0
 11
-500.0
 21
600.0
 31
0.0
  1
400
  3
CAD
100
AcDbAlignedDimension
 13
-657.0
 23
403.0
 33
0.0
 14
-657.0
 24
797.0
 34
0.0
 50
90.0
100
AcDbRotatedDimension
1001
ACAD
1000
DSTYLE
1002
{
1070
             271
1070
               0
1070
             340
1005
2D
1070
             147
1040
0.9999999999999999
1002
}
  0
DIMENSION
  5
378
100
AcDbEntity
  8
DIMENTION
  6
CONTINUOUS
100
AcDbDimension
  2
*D14
 10
-1142.0
 20
299.99999999999994
 30
0.0
 11
-1062.0
 21
299.99999999999994
 31
0.0
  1
159
  3
CAD
100
AcDbAlignedDimension
 13
-982.0
 23
489.0
 33
0.0
 14
-1142.0
 24
438.0
 34
0.0
100
AcDbRotatedDimension
1001
ACAD
1000
DSTYLE
1002
{
1070
             271
1070
               0
1070
             340
1005
2D
1070
             147
1040
0.9999999999999999
1002
}
  0
DIMENSION
  5
379
100
AcDbEntity
  8
DIMENTION
  6
CONTINUOUS
100
AcDbDimension
  2
*D15
 10
-1300.0
 20
599.0
 30
0.0
 11
-1300.0
 21
518.5
 31
0.0
  1
159
  3
CAD
100
AcDbAlignedDimension
 13
-1142.0
 23
438.0
 33
0.0
 14
-1142.0
 24
599.0
 34
0.0
 50
90.0
100
AcDbRotatedDimension
1001
ACAD
1000
DSTYLE
1002
{
1070
             271
1070
               0
1070
             340
1005
2D
1070
             147
1040
0.9999999999999999
1002
}
  0
LINE
  5
37A
100
AcDbEntity
  8
DIMENTION
100
AcDbLine
 10
-627.96375629619024
 20
-809.29498546194793
 30
0.0
 11
-550.0
 21
-699.99999999999648
 31
0.0
  0
LINE
  5
37B
100
AcDbEntity
  8
DIMENTION
100
AcDbLine
 10
-627.96375629619024
 20
-809.29498546194793
 30
0.0
 11
-616.18419508311399
 21
-778.60817935887189
 31
0.0
  0
LINE
  5
37C
100
AcDbEntity
  8
DIMENTION
100
AcDbLine
 10
-627.96375629619024
 20
-809.29498546194793
 30
0.0
 11
-602.4189539886944
 21
-788.6092124222148
 31
0.0
  0
MTEXT
  5
37D
100
AcDbEntity
  8
DIMENTION
100
AcDbMText
 10
-540.0
 20
-704.99999999999648
 30
0.0
 40
33.866666666666667
 41
441.50939999999997
 71
               1
 72
               1
  1
2個ストッパー付
  7
________
  0
MTEXT
  5
37E
100
AcDbEntity
  8
DIMENTION
100
AcDbMText
 10
-550.0
 20
-654.99999999999648
 30
0.0
 40
33.866666666666667
 41
455.0
 71
               1
 72
               1
  1
φ100 ウレタンキャスター
  7
________
  0
LINE
  5
37F
100
AcDbEntity
  8
DIMENTION
100
AcDbLine
 10
-105.0
 20
-699.99999999999648
 30
0.0
 11
-550.0
 21
-699.99999999999648
 31
0.0
  0
LINE
  5
380
100
AcDbEntity
  8
DIMENTION
100
AcDbLine
 10
-105.0
 20
-749.99999999999648
 30
0.0
 11
-550.0
 21
-749.99999999999648
 31
0.0
  0
LINE
  5
381
100
AcDbEntity
  8
DIMENTION
100
AcDbLine
 10
-550.0
 20
-699.99999999999648
 30
0.0
 11
-550.0
 21
-749.99999999999648
 31
0.0
  0
MTEXT
  5
382
100
AcDbEntity
  8
DIMENTION
100
AcDbMText
 10
1300.0
 20
-1100.0
 30
0.0
 40
33.866666666666667
 41
0.0
 71
               1
 72
               1
  1
注）指示なき寸法公差は±5とする
  7
________
  0
ENDSEC
  0
SECTION
  2
OBJECTS
  0
DICTIONARY
  5
19
100
AcDbDictionary
  3
ACAD_GROUP
350
1A
  3
ACAD_MLINESTYLE
350
1B
  0
DICTIONARY
  5
1A
102
{ACAD_REACTORS
330
19
102
}
100
AcDbDictionary
  0
DICTIONARY
  5
1B
102
{ACAD_REACTORS
330
19
102
}
100
AcDbDictionary
  3
STANDARD
350
1C
  0
MLINESTYLE
  5
1C
102
{ACAD_REACTORS
330
1B
102
}
100
AcDbMlineStyle
  2
STANDARD
 70
               0
  3

 62
               0
 51
90.0
 52
90.0
 71
               2
 49
0.5
 62
             256
  6
BYLAYER
 49
-0.5
 62
             256
  6
BYLAYER
  0
ENDSEC
  0
EOF
