  0
SECTION
  2
HEADER
  9
$ACADVER
  1
AC1014
  9
$ACADMAINTVER
 70
               0
  9
$DWGCODEPAGE
  3
ANSI_932
  9
$INSBASE
 10
0.0
 20
0.0
 30
0.0
  9
$EXTMIN
 10
-2025.3999999999999
 20
-1388.9999999999998
 30
0.0
  9
$EXTMAX
 10
2024.5999999999999
 20
1330.9999999999998
 30
0.0
  9
$LIMMIN
 10
0.0
 20
0.0
  9
$LIMMAX
 10
0.0
 20
0.0
  9
$ORTHOMODE
 70
               0
  9
$REGENMODE
 70
               1
  9
$FILLMODE
 70
               1
  9
$QTEXTMODE
 70
               0
  9
$MIRRTEXT
 70
               1
  9
$DRAGMODE
 70
               2
  9
$LTSCALE
 40
254.0
  9
$OSMODE
 70
               0
  9
$ATTMODE
 70
               1
  9
$TEXTSIZE
 40
0.2
  9
$TRACEWID
 40
1.0
  9
$TEXTSTYLE
  7
STANDARD
  9
$CLAYER
  8
0
  9
$CELTYPE
  6
CONTINUOUS
  9
$CECOLOR
 62
             256
  9
$CELTSCALE
 40
1.0
  9
$DELOBJ
 70
               1
  9
$DISPSILH
 70
               0
  9
$DIMSCALE
 40
1.0
  9
$DIMASZ
 40
31.75
  9
$DIMEXO
 40
9.9999999999999982
  9
$DIMDLI
 40
7.9999999999999991
  9
$DIMRND
 40
0.0
  9
$DIMDLE
 40
0.0
  9
$DIMEXE
 40
19.999999999999996
  9
$DIMTP
 40
0.0
  9
$DIMTM
 40
0.0
  9
$DIMTXT
 40
33.866666666666667
  9
$DIMCEN
 40
0.0
  9
$DIMTSZ
 40
0.0
  9
$DIMTOL
 70
               0
  9
$DIMLIM
 70
               0
  9
$DIMTIH
 70
               0
  9
$DIMTOH
 70
               0
  9
$DIMSE1
 70
               0
  9
$DIMSE2
 70
               0
  9
$DIMTAD
 70
               1
  9
$DIMZIN
 70
              11
  9
$DIMBLK
  1
VW_OPENARROW
  9
$DIMASO
 70
               1
  9
$DIMSHO
 70
               1
  9
$DIMPOST
  1
<>
  9
$DIMAPOST
  1
[]
  9
$DIMALT
 70
               0
  9
$DIMALTD
 70
               1
  9
$DIMALTF
 40
1.0
  9
$DIMLFAC
 40
1.0
  9
$DIMTOFL
 70
               1
  9
$DIMTVP
 40
0.0
  9
$DIMTIX
 70
               1
  9
$DIMSOXD
 70
               0
  9
$DIMSAH
 70
               0
  9
$DIMBLK1
  1

  9
$DIMBLK2
  1

  9
$DIMSTYLE
  2
CAD
  9
$DIMCLRD
 70
               0
  9
$DIMCLRE
 70
               0
  9
$DIMCLRT
 70
               0
  9
$DIMTFAC
 40
0.7
  9
$DIMGAP
 40
0.099999999627471
  9
$DIMJUST
 70
               0
  9
$DIMSD1
 70
               0
  9
$DIMSD2
 70
               0
  9
$DIMTOLJ
 70
               1
  9
$DIMTZIN
 70
              11
  9
$DIMALTZ
 70
              11
  9
$DIMALTTZ
 70
              11
  9
$DIMFIT
 70
               0
  9
$DIMUPT
 70
               0
  9
$DIMUNIT
 70
               2
  9
$DIMDEC
 70
               4
  9
$DIMTDEC
 70
               4
  9
$DIMALTU
 70
               2
  9
$DIMALTTD
 70
               2
  9
$DIMTXSTY
  7
________
  9
$DIMAUNIT
 70
               0
  9
$LUNITS
 70
               2
  9
$LUPREC
 70
               4
  9
$SKETCHINC
 40
0.1
  9
$FILLETRAD
 40
0.0
  9
$AUNITS
 70
               0
  9
$AUPREC
 70
               0
  9
$MENU
  1
acad
  9
$ELEVATION
 40
0.0
  9
$PELEVATION
 40
0.0
  9
$THICKNESS
 40
0.0
  9
$LIMCHECK
 70
               0
  9
$BLIPMODE
 70
               0
  9
$CHAMFERA
 40
0.0
  9
$CHAMFERB
 40
0.0
  9
$CHAMFERC
 40
0.0
  9
$CHAMFERD
 40
0.0
  9
$SKPOLY
 70
               0
  9
$TDCREATE
 40
2458753.557673611
  9
$TDUPDATE
 40
2458753.557673611
  9
$TDINDWG
 40
0.0000000000
  9
$TDUSRTIMER
 40
0.0000000000
  9
$USRTIMER
 70
               1
  9
$ANGBASE
 50
0.0
  9
$ANGDIR
 70
               0
  9
$PDMODE
 70
               1
  9
$PDSIZE
 40
-2.0
  9
$PLINEWID
 40
0.0
  9
$COORDS
 70
               0
  9
$SPLFRAME
 70
               0
  9
$SPLINETYPE
 70
               6
  9
$SPLINESEGS
 70
               8
  9
$ATTDIA
 70
               0
  9
$ATTREQ
 70
               1
  9
$HANDLING
 70
               1
  9
$HANDSEED
  5
309
  9
$SURFTAB1
 70
               6
  9
$SURFTAB2
 70
               6
  9
$SURFTYPE
 70
               6
  9
$SURFU
 70
               6
  9
$SURFV
 70
               6
  9
$UCSNAME
  2

  9
$UCSORG
 10
0.0
 20
0.0
 30
0.0
  9
$UCSXDIR
 10
1.0
 20
0.0
 30
0.0
  9
$UCSYDIR
 10
0.0
 20
1.0
 30
0.0
  9
$PUCSNAME
  2

  9
$PUCSORG
 10
0.0
 20
0.0
 30
0.0
  9
$PUCSXDIR
 10
1.0
 20
0.0
 30
0.0
  9
$PUCSYDIR
 10
0.0
 20
1.0
 30
0.0
  9
$USERI1
 70
               0
  9
$USERI2
 70
               0
  9
$USERI3
 70
               0
  9
$USERI4
 70
               0
  9
$USERI5
 70
               0
  9
$USERR1
 40
0.0
  9
$USERR2
 40
0.0
  9
$USERR3
 40
0.0
  9
$USERR4
 40
0.0
  9
$USERR5
 40
0.0
  9
$WORLDVIEW
 70
               1
  9
$SHADEDGE
 70
               3
  9
$SHADEDIF
 70
              70
  9
$TILEMODE
 70
               1
  9
$MAXACTVP
 70
              16
  9
$PINSBASE
 10
0.0
 20
0.0
 30
0.0
  9
$PLIMCHECK
 70
               0
  9
$PEXTMIN
 10
1.0000000000000000E+20
 20
1.0000000000000000E+20
 30
1.0000000000000000E+20
  9
$PEXTMAX
 10
-1.0000000000000000E+20
 20
-1.0000000000000000E+20
 30
-1.0000000000000000E+20
  9
$PLIMMIN
 10
0.0
 20
0.0
  9
$PLIMMAX
 10
12.0
 20
9.0
  9
$UNITMODE
 70
               0
  9
$VISRETAIN
 70
               0
  9
$PLINEGEN
 70
               1
  9
$PSLTSCALE
 70
               0
  9
$TREEDEPTH
 70
            3020
  9
$PICKSTYLE
 70
               1
  9
$CMLSTYLE
  2
STANDARD
  9
$CMLJUST
 70
               0
  9
$CMLSCALE
 40
1.0
  9
$PROXYGRAPHICS
 70
               0
  9
$MEASUREMENT
 70
               1
  0
ENDSEC
  0
SECTION
  2
CLASSES
  0
CLASS
  1
LWPOLYLINE
  2
AcDbPolyline
  3
"AutoCAD"
 90
        0
280
               0
281
               1
  0
CLASS
  1
IMAGE
  2
AcDbRasterImage
  3
ISM
 90
      127
280
               0
281
               1
  0
CLASS
  1
OLE2FRAME
  2
AcDbOle2Frame
  3
""
 90
        0
280
               0
281
               1
  0
CLASS
  1
HATCH
  2
AcDbHatch
  3
"ACAD_SEDONA"
 90
        0
280
               0
281
               1
  0
CLASS
  1
DICTIONARYVAR
  2
AcDbDictionaryVar
  3
"AutoCAD"
 90
        0
280
               0
281
               0
  0
CLASS
  1
RASTERVARIABLES
  2
AcDbRasterVariables
  3
ISM
 90
        0
280
               0
281
               0
  0
CLASS
  1
IMAGEDEF
  2
AcDbRasterImageDef
  3
ISM
 90
        0
280
               0
281
               0
  0
CLASS
  1
IMAGEDEF_REACTOR
  2
AcDbRasterImageDefReactor
  3
ISM
 90
        1
280
               0
281
               0
  0
CLASS
  1
IDBUFFER
  2
AcDbIdBuffer
  3
"Acad"
 90
        0
280
               0
281
               0
  0
CLASS
  1
SPATIAL_FILTER
  2
AcDbSpatialFilter
  3
"Acad"
 90
        0
280
               0
281
               0
  0
CLASS
  1
XRECORD
  2
AcDbXrecord
  3
"<Built In>"
 90
        0
280
               0
281
               0
  0
CLASS
  1
SORTENTSTABLE
  2
AcDbSortentsTable
  3
"AutoCAD"
 90
        0
280
               0
281
               0
  0
CLASS
  1
LAYER_INDEX
  2
AcDbLayerIndex
  3
"Acad"
 90
        0
280
               0
281
               0
  0
CLASS
  1
SPATIAL_INDEX
  2
AcDbSpatialIndex
  3
"Acad"
 90
        0
280
               0
281
               0
  0
CLASS
  1
OBJECT_PTR
  2
CAseDLPNTableRecord
  3
"ASE-LPNTableRecord"
 90
        1
280
               0
281
               0
  0
CLASS
  1
LAYOUT
  2
AcDbLayout
  3
"AutoCAD 2000"
 90
        1
280
               0
281
               0
  0
CLASS
  1
PLOTSETTINGS
  2
AcDbPlotSettings
  3
"AutoCAD 2000"
 90
        1
280
               0
281
               0
  0
CLASS
  1
ACDBDICTIONARYWDFLT
  2
AcDbDictionaryWithDefault
  3
"AutoCAD 2000"
 90
        1
280
               0
281
               0
  0
CLASS
  1
ACDBPLACEHOLDER
  2
AcDbPlaceHolder
  3
"AutoCAD 2000"
 90
        1
280
               0
281
               0
  0
ENDSEC
  0
SECTION
  2
TABLES
  0
TABLE
  2
VPORT
  5
7
100
AcDbSymbolTable
 70
               1
  0
VPORT
  5
15
100
AcDbSymbolTableRecord
100
AcDbViewportTableRecord
  2
*ACTIVE
 70
               0
 10
0.0
 20
0.0
 11
1.0
 21
1.0
 12
-0.3999999999998636
 22
-29.0
 13
0.0
 23
0.0
 14
1.0
 24
1.0
 15
0.0
 25
0.0
 16
0.0
 26
0.0
 36
1.0
 17
0.0
 27
0.0
 37
0.0
 40
2719.9999999999995
 41
0.688564
 42
50.0
 43
0.0
 44
0.0
 50
0.0
 51
0.0
 71
               0
 72
             100
 73
               1
 74
               1
 75
               0
 76
               0
 77
               0
 78
               0
  0
ENDTAB
  0
TABLE
  2
LTYPE
  5
4
100
AcDbSymbolTable
 70
              21
  0
LTYPE
  5
11
100
AcDbSymbolTableRecord
100
AcDbLinetypeTableRecord
  2
BYBLOCK
 70
              64
  3

 72
              65
 73
               0
 40
0.0
  0
LTYPE
  5
12
100
AcDbSymbolTableRecord
100
AcDbLinetypeTableRecord
  2
BYLAYER
 70
              64
  3

 72
              65
 73
               0
 40
0.0
  0
LTYPE
  5
13
100
AcDbSymbolTableRecord
100
AcDbLinetypeTableRecord
  2
CONTINUOUS
 70
              64
  3
Solid line
 72
              65
 73
               0
 40
0.0
  0
LTYPE
  5
34
100
AcDbSymbolTableRecord
100
AcDbLinetypeTableRecord
  2
STYLE_01
 70
               0
  3

 72
              65
 73
               2
 40
0.0375109361329834
 49
0.0236220472440945
 74
               0
 49
-0.0138888888888889
 74
               0
  0
LTYPE
  5
35
100
AcDbSymbolTableRecord
100
AcDbLinetypeTableRecord
  2
STYLE_02
 70
               0
  3

 72
              65
 73
               6
 40
0.6527777777777778
 49
0.4027777777777778
 74
               0
 49
-0.0555555555555555
 74
               0
 49
0.0416666666666667
 74
               0
 49
-0.0555555555555556
 74
               0
 49
0.0416666666666666
 74
               0
 49
-0.0555555555555556
 74
               0
  0
LTYPE
  5
36
100
AcDbSymbolTableRecord
100
AcDbLinetypeTableRecord
  2
STYLE_03
 70
               0
  3

 72
              65
 73
               4
 40
0.5277777777777778
 49
0.4027777777777778
 74
               0
 49
-0.0416666666666666
 74
               0
 49
0.0416666666666667
 74
               0
 49
-0.0416666666666667
 74
               0
  0
LTYPE
  5
37
100
AcDbSymbolTableRecord
100
AcDbLinetypeTableRecord
  2
STYLE_04
 70
               0
  3

 72
              65
 73
               2
 40
0.1388888888888889
 49
0.0694444444444444
 74
               0
 49
-0.0694444444444444
 74
               0
  0
LTYPE
  5
38
100
AcDbSymbolTableRecord
100
AcDbLinetypeTableRecord
  2
STYLE_05
 70
               0
  3

 72
              65
 73
               2
 40
0.047244094488189
 49
0.0236220472440945
 74
               0
 49
-0.0236220472440945
 74
               0
  0
LTYPE
  5
39
100
AcDbSymbolTableRecord
100
AcDbLinetypeTableRecord
  2
STYLE_06
 70
               0
  3

 72
              65
 73
               2
 40
0.047244094488189
 49
0.0236220472440945
 74
               0
 49
-0.0236220472440945
 74
               0
  0
LTYPE
  5
3A
100
AcDbSymbolTableRecord
100
AcDbLinetypeTableRecord
  2
STYLE_07
 70
               0
  3

 72
              65
 73
               2
 40
0.047244094488189
 49
0.0236220472440945
 74
               0
 49
-0.0236220472440945
 74
               0
  0
LTYPE
  5
3B
100
AcDbSymbolTableRecord
100
AcDbLinetypeTableRecord
  2
STYLE_08
 70
               0
  3

 72
              65
 73
               2
 40
0.047244094488189
 49
0.0236220472440945
 74
               0
 49
-0.0236220472440945
 74
               0
  0
LTYPE
  5
3C
100
AcDbSymbolTableRecord
100
AcDbLinetypeTableRecord
  2
STYLE_09
 70
               0
  3

 72
              65
 73
               6
 40
1.5157480314960627
 49
1.1811023622047243
 74
               0
 49
-0.0590551181102361
 74
               0
 49
0.078740157480315
 74
               0
 49
-0.0590551181102361
 74
               0
 49
0.078740157480315
 74
               0
 49
-0.0590551181102361
 74
               0
  0
LTYPE
  5
3D
100
AcDbSymbolTableRecord
100
AcDbLinetypeTableRecord
  2
STYLE_10
 70
               0
  3

 72
              65
 73
               6
 40
1.1875
 49
0.75
 74
               0
 49
-0.0555572509765625
 74
               0
 49
0.138885498046875
 74
               0
 49
-0.0555572509765625
 74
               0
 49
0.125
 74
               0
 49
-0.0625
 74
               0
  0
LTYPE
  5
3E
100
AcDbSymbolTableRecord
100
AcDbLinetypeTableRecord
  2
STYLE_11
 70
               0
  3

 72
              65
 73
               4
 40
1.5
 49
0.0833282470703125
 74
               0
 49
-0.0555572509765625
 74
               0
 49
1.3055572509765625
 74
               0
 49
-0.0555572509765625
 74
               0
  0
LTYPE
  5
3F
100
AcDbSymbolTableRecord
100
AcDbLinetypeTableRecord
  2
STYLE_12
 70
               0
  3

 72
              65
 73
               4
 40
1.111114501953125
 49
0.7916717529296875
 74
               0
 49
-0.0833282470703125
 74
               0
 49
0.125
 74
               0
 49
-0.111114501953125
 74
               0
  0
LTYPE
  5
40
100
AcDbSymbolTableRecord
100
AcDbLinetypeTableRecord
  2
STYLE_13
 70
               0
  3

 72
              65
 73
               4
 40
2.1944427490234375
 49
1.875
 74
               0
 49
-0.0833282470703125
 74
               0
 49
0.125
 74
               0
 49
-0.111114501953125
 74
               0
  0
LTYPE
  5
41
100
AcDbSymbolTableRecord
100
AcDbLinetypeTableRecord
  2
STYLE_14
 70
               0
  3

 72
              65
 73
               2
 40
0.138885498046875
 49
0.0972137451171875
 74
               0
 49
-0.0416717529296875
 74
               0
  0
LTYPE
  5
42
100
AcDbSymbolTableRecord
100
AcDbLinetypeTableRecord
  2
STYLE_15
 70
               0
  3

 72
              65
 73
               2
 40
0.25
 49
0.2083282470703125
 74
               0
 49
-0.0416717529296875
 74
               0
  0
LTYPE
  5
43
100
AcDbSymbolTableRecord
100
AcDbLinetypeTableRecord
  2
STYLE_16
 70
               0
  3

 72
              65
 73
               2
 40
0.078740157480315
 49
0.0393700787401575
 74
               0
 49
-0.0393700787401575
 74
               0
  0
LTYPE
  5
44
100
AcDbSymbolTableRecord
100
AcDbLinetypeTableRecord
  2
STYLE_17
 70
               0
  3

 72
              65
 73
               4
 40
0.5118110236220472
 49
0.3937007874015748
 74
               0
 49
-0.0393700787401575
 74
               0
 49
0.0393700787401575
 74
               0
 49
-0.0393700787401575
 74
               0
  0
LTYPE
  5
45
100
AcDbSymbolTableRecord
100
AcDbLinetypeTableRecord
  2
STYLE_18
 70
               0
  3

 72
              65
 73
               6
 40
0.5905511811023623
 49
0.3937007874015748
 74
               0
 49
-0.0393700787401575
 74
               0
 49
0.0393700787401575
 74
               0
 49
-0.0393700787401575
 74
               0
 49
0.0393700787401575
 74
               0
 49
-0.0393700787401575
 74
               0
  0
ENDTAB
  0
TABLE
  2
LAYER
  5
2
100
AcDbSymbolTable
 70
               9
  0
LAYER
  5
14
100
AcDbSymbolTableRecord
100
AcDbLayerTableRecord
  2
0
 70
               0
 62
               7
  6
CONTINUOUS
  0
LAYER
  5
4D
100
AcDbSymbolTableRecord
100
AcDbLayerTableRecord
  2
DEFPOINTS
 70
               0
 62
               7
  6
CONTINUOUS
  0
LAYER
  5
4E
100
AcDbSymbolTableRecord
100
AcDbLayerTableRecord
  2
OBJECT
 70
               0
 62
               7
  6
CONTINUOUS
  0
LAYER
  5
4F
100
AcDbSymbolTableRecord
100
AcDbLayerTableRecord
  2
DIMENTION
 70
               0
 62
               7
  6
CONTINUOUS
  0
LAYER
  5
50
100
AcDbSymbolTableRecord
100
AcDbLayerTableRecord
  2
CENTER
 70
               0
 62
               7
  6
STYLE_17
  0
LAYER
  5
51
100
AcDbSymbolTableRecord
100
AcDbLayerTableRecord
  2
HIDDEN
 70
               0
 62
               7
  6
STYLE_16
  0
LAYER
  5
52
100
AcDbSymbolTableRecord
100
AcDbLayerTableRecord
  2
FRAME
 70
               0
 62
               7
  6
CONTINUOUS
  0
LAYER
  5
53
100
AcDbSymbolTableRecord
100
AcDbLayerTableRecord
  2
OUTLINE
 70
               0
 62
               7
  6
STYLE_18
  0
LAYER
  5
54
100
AcDbSymbolTableRecord
100
AcDbLayerTableRecord
  2
TEXT
 70
               0
 62
               7
  6
CONTINUOUS
  0
ENDTAB
  0
TABLE
  2
STYLE
  5
3
100
AcDbSymbolTable
 70
               3
  0
STYLE
  5
17
100
AcDbSymbolTableRecord
100
AcDbTextStyleTableRecord
  2
STANDARD
 70
               0
 40
0.0
 41
1.0
 50
0.0
 71
               0
 42
0.0
  3
txt
  4
BIGFONT.SHX
  0
STYLE
  5
32
100
AcDbSymbolTableRecord
100
AcDbTextStyleTableRecord
  2
ARIAL
 70
               0
 40
0.0
 41
1.0
 50
0.0
 71
               0
 42
0.0
  3
Arial
  4

1001
ACAD
1000
Arial
1071
        0
  0
STYLE
  5
33
100
AcDbSymbolTableRecord
100
AcDbTextStyleTableRecord
  2
________
 70
               0
 40
0.0
 41
1.0
 50
0.0
 71
               0
 42
0.0
  3
ＭＳ Ｐゴシック
  4

1001
ACAD
1000
ＭＳ Ｐゴシック
1071
        0
  0
ENDTAB
  0
TABLE
  2
VIEW
  5
5
100
AcDbSymbolTable
 70
               0
  0
ENDTAB
  0
TABLE
  2
UCS
  5
6
100
AcDbSymbolTable
 70
               0
  0
ENDTAB
  0
TABLE
  2
APPID
  5
8
100
AcDbSymbolTable
 70
               1
  0
APPID
  5
16
100
AcDbSymbolTableRecord
100
AcDbRegAppTableRecord
  2
ACAD
 70
               0
  0
ENDTAB
  0
TABLE
  2
DIMSTYLE
  5
9
100
AcDbSymbolTable
 70
               2
  0
DIMSTYLE
105
18
100
AcDbSymbolTableRecord
100
AcDbDimStyleTableRecord
  2
STANDARD
 70
               0
  3

  4

  5

  6

  7

 40
1.0
 41
0.18
 42
0.0625
 43
0.38
 44
0.18
 45
0.0
 46
0.0
 47
0.0
 48
0.0
 71
               0
 72
               0
 73
               1
 74
               1
 75
               0
 76
               0
 77
               0
 78
               0
140
0.18
141
0.09
142
0.0
143
25.399999999999999
144
1.0
145
0.0
146
1.0
147
0.09
170
               0
171
               2
172
               0
173
               0
174
               0
175
               0
176
               0
177
               0
178
               0
270
               2
271
               4
272
               4
273
               2
274
               2
275
               0
280
               0
281
               0
282
               0
283
               1
284
               0
285
               0
286
               0
287
               0
288
               0
340
17
  0
DIMSTYLE
105
4C
100
AcDbSymbolTableRecord
100
AcDbDimStyleTableRecord
  2
CAD
 70
               0
  3
<>
  4
[]
  5
VW_OPENARROW
  6

  7

 40
1.0
 41
31.75
 42
9.9999999999999982
 43
7.9999999999999991
 44
19.999999999999996
 45
0.0
 46
0.0
 47
0.0
 48
0.0
 71
               0
 72
               0
 73
               0
 74
               0
 75
               0
 76
               0
 77
               1
 78
              11
140
33.866666666666667
141
0.0
142
0.0
143
1.0
144
1.0
145
0.0
146
0.7
147
0.099999999627471
170
               0
171
               1
172
               1
173
               0
174
               1
175
               0
176
               0
177
               0
178
               0
270
               2
271
               4
272
               4
273
               2
274
               2
275
               0
280
               0
281
               0
282
               0
283
               1
284
              11
285
              11
286
              11
287
               0
288
               0
340
33
  0
ENDTAB
  0
TABLE
  2
BLOCK_RECORD
  5
1
100
AcDbSymbolTable
 70
              22
  0
BLOCK_RECORD
  5
A
100
AcDbSymbolTableRecord
100
AcDbBlockTableRecord
  2
*MODEL_SPACE
  0
BLOCK_RECORD
  5
B
100
AcDbSymbolTableRecord
100
AcDbBlockTableRecord
  2
*PAPER_SPACE
  0
BLOCK_RECORD
  5
46
100
AcDbSymbolTableRecord
100
AcDbBlockTableRecord
  2
VW_OPENARROW
  0
BLOCK_RECORD
  5
1D
100
AcDbSymbolTableRecord
100
AcDbBlockTableRecord
  2
*U1
  0
BLOCK_RECORD
  5
1E
100
AcDbSymbolTableRecord
100
AcDbBlockTableRecord
  2
*U2
  0
BLOCK_RECORD
  5
1F
100
AcDbSymbolTableRecord
100
AcDbBlockTableRecord
  2
*U3
  0
BLOCK_RECORD
  5
20
100
AcDbSymbolTableRecord
100
AcDbBlockTableRecord
  2
*U4
  0
BLOCK_RECORD
  5
21
100
AcDbSymbolTableRecord
100
AcDbBlockTableRecord
  2
*U5
  0
BLOCK_RECORD
  5
22
100
AcDbSymbolTableRecord
100
AcDbBlockTableRecord
  2
*U6
  0
BLOCK_RECORD
  5
23
100
AcDbSymbolTableRecord
100
AcDbBlockTableRecord
  2
*D7
  0
BLOCK_RECORD
  5
24
100
AcDbSymbolTableRecord
100
AcDbBlockTableRecord
  2
*U8
  0
BLOCK_RECORD
  5
25
100
AcDbSymbolTableRecord
100
AcDbBlockTableRecord
  2
*U9
  0
BLOCK_RECORD
  5
26
100
AcDbSymbolTableRecord
100
AcDbBlockTableRecord
  2
*U10
  0
BLOCK_RECORD
  5
27
100
AcDbSymbolTableRecord
100
AcDbBlockTableRecord
  2
*U11
  0
BLOCK_RECORD
  5
28
100
AcDbSymbolTableRecord
100
AcDbBlockTableRecord
  2
*D12
  0
BLOCK_RECORD
  5
29
100
AcDbSymbolTableRecord
100
AcDbBlockTableRecord
  2
*D13
  0
BLOCK_RECORD
  5
2A
100
AcDbSymbolTableRecord
100
AcDbBlockTableRecord
  2
*D14
  0
BLOCK_RECORD
  5
2B
100
AcDbSymbolTableRecord
100
AcDbBlockTableRecord
  2
*D15
  0
BLOCK_RECORD
  5
2C
100
AcDbSymbolTableRecord
100
AcDbBlockTableRecord
  2
*D16
  0
BLOCK_RECORD
  5
2D
100
AcDbSymbolTableRecord
100
AcDbBlockTableRecord
  2
*D17
  0
BLOCK_RECORD
  5
2E
100
AcDbSymbolTableRecord
100
AcDbBlockTableRecord
  2
*D18
  0
BLOCK_RECORD
  5
2F
100
AcDbSymbolTableRecord
100
AcDbBlockTableRecord
  2
*D19
  0
BLOCK_RECORD
  5
30
100
AcDbSymbolTableRecord
100
AcDbBlockTableRecord
  2
*D20
  0
BLOCK_RECORD
  5
31
100
AcDbSymbolTableRecord
100
AcDbBlockTableRecord
  2
*D21
  0
ENDTAB
  0
ENDSEC
  0
SECTION
  2
BLOCKS
  0
BLOCK
  5
D
100
AcDbEntity
  8
0
100
AcDbBlockBegin
  2
*MODEL_SPACE
 70
               0
 10
0.0
 20
0.0
 30
0.0
  3
*MODEL_SPACE
  1

  0
ENDBLK
  5
E
100
AcDbEntity
  8
0
100
AcDbBlockEnd
  0
BLOCK
  5
F
100
AcDbEntity
 67
               1
  8
0
100
AcDbBlockBegin
  2
*PAPER_SPACE
 70
               0
 10
0.0
 20
0.0
 30
0.0
  3
*PAPER_SPACE
  1

  0
ENDBLK
  5
10
100
AcDbEntity
 67
               1
  8
0
100
AcDbBlockEnd
  0
BLOCK
  5
47
100
AcDbEntity
  8
0
  6
BYBLOCK
 62
               0
100
AcDbBlockBegin
  2
VW_OPENARROW
 70
               0
 10
0.0
 20
0.0
 30
0.0
  3
VW_OPENARROW
  1

  0
LINE
  5
48
100
AcDbEntity
  8
0
  6
BYBLOCK
 62
               0
100
AcDbLine
 10
0.0
 20
0.0
 30
0.0
 11
-1.0
 21
0.0
 31
0.0
  0
LINE
  5
49
100
AcDbEntity
  8
0
  6
BYBLOCK
 62
               0
100
AcDbLine
 10
0.0
 20
0.0
 30
0.0
 11
-0.9921874999999999
 21
-0.2658558393652545
 31
0.0
  0
LINE
  5
4A
100
AcDbEntity
  8
0
  6
BYBLOCK
 62
               0
100
AcDbLine
 10
0.0
 20
0.0
 30
0.0
 11
-0.9921874999999999
 21
0.2658558393652548
 31
0.0
  0
ENDBLK
  5
4B
100
AcDbEntity
  8
0
100
AcDbBlockEnd
  0
BLOCK
  5
55
100
AcDbEntity
  8
FRAME
100
AcDbBlockBegin
  2
*U1
 70
               1
 10
0.0
 20
0.0
 30
0.0
  3
*U1
  1

  0
ENDBLK
  5
56
100
AcDbEntity
  8
FRAME
100
AcDbBlockEnd
  0
BLOCK
  5
57
100
AcDbEntity
  8
FRAME
100
AcDbBlockBegin
  2
*U2
 70
               1
 10
0.0
 20
0.0
 30
0.0
  3
*U2
  1

  0
ENDBLK
  5
58
100
AcDbEntity
  8
FRAME
100
AcDbBlockEnd
  0
BLOCK
  5
59
100
AcDbEntity
  8
FRAME
100
AcDbBlockBegin
  2
*U3
 70
               1
 10
0.0
 20
0.0
 30
0.0
  3
*U3
  1

  0
ENDBLK
  5
5A
100
AcDbEntity
  8
FRAME
100
AcDbBlockEnd
  0
BLOCK
  5
5B
100
AcDbEntity
  8
FRAME
100
AcDbBlockBegin
  2
*U4
 70
               1
 10
0.0
 20
0.0
 30
0.0
  3
*U4
  1

  0
ENDBLK
  5
5C
100
AcDbEntity
  8
FRAME
100
AcDbBlockEnd
  0
BLOCK
  5
5D
100
AcDbEntity
  8
FRAME
100
AcDbBlockBegin
  2
*U5
 70
               1
 10
0.0
 20
0.0
 30
0.0
  3
*U5
  1

  0
ENDBLK
  5
5E
100
AcDbEntity
  8
FRAME
100
AcDbBlockEnd
  0
BLOCK
  5
5F
100
AcDbEntity
  8
FRAME
100
AcDbBlockBegin
  2
*U6
 70
               1
 10
0.0
 20
0.0
 30
0.0
  3
*U6
  1

  0
INSERT
  5
60
100
AcDbEntity
  8
FRAME
 62
               0
100
AcDbBlockReference
  2
*U1
 10
0.0
 20
0.0
 30
0.0
  0
INSERT
  5
61
100
AcDbEntity
  8
FRAME
 62
               0
100
AcDbBlockReference
  2
*U2
 10
0.0
 20
0.0
 30
0.0
  0
INSERT
  5
62
100
AcDbEntity
  8
FRAME
 62
               0
100
AcDbBlockReference
  2
*U3
 10
0.0
 20
0.0
 30
0.0
  0
INSERT
  5
63
100
AcDbEntity
  8
FRAME
 62
               0
100
AcDbBlockReference
  2
*U4
 10
0.0
 20
0.0
 30
0.0
  0
INSERT
  5
64
100
AcDbEntity
  8
FRAME
 62
               0
100
AcDbBlockReference
  2
*U5
 10
0.0
 20
0.0
 30
0.0
  0
ENDBLK
  5
65
100
AcDbEntity
  8
FRAME
100
AcDbBlockEnd
  0
BLOCK
  5
66
100
AcDbEntity
  8
DIMENTION
100
AcDbBlockBegin
  2
*D7
 70
               1
 10
0.0
 20
0.0
 30
0.0
  3
*D7
  1

  0
LINE
  5
67
100
AcDbEntity
  8
DIMENTION
  6
CONTINUOUS
 62
               0
100
AcDbLine
 10
-1135.0
 20
-69.0
 30
0.0
 11
-1320.0
 21
-69.0
 31
0.0
  0
LINE
  5
68
100
AcDbEntity
  8
DIMENTION
  6
CONTINUOUS
 62
               0
100
AcDbLine
 10
-1160.0
 20
-900.0
 30
0.0
 11
-1320.0
 21
-900.0
 31
0.0
  0
LINE
  5
69
100
AcDbEntity
  8
DIMENTION
  6
CONTINUOUS
 62
               0
100
AcDbLine
 10
-1300.0
 20
-69.0
 30
0.0
 11
-1300.0
 21
-900.0
 31
0.0
  0
LINE
  5
6A
100
AcDbEntity
  8
DIMENTION
  6
CONTINUOUS
 62
               0
100
AcDbLine
 10
-1300.0
 20
-69.0
 30
0.0
 11
-1291.492613140312
 21
-100.75
 31
0.0
  0
LINE
  5
6B
100
AcDbEntity
  8
DIMENTION
  6
CONTINUOUS
 62
               0
100
AcDbLine
 10
-1300.0
 20
-69.0
 30
0.0
 11
-1308.507386859688
 21
-100.75
 31
0.0
  0
LINE
  5
6C
100
AcDbEntity
  8
DIMENTION
  6
CONTINUOUS
 62
               0
100
AcDbLine
 10
-1300.0
 20
-900.0
 30
0.0
 11
-1308.507386859688
 21
-868.25
 31
0.0
  0
LINE
  5
6D
100
AcDbEntity
  8
DIMENTION
  6
CONTINUOUS
 62
               0
100
AcDbLine
 10
-1300.0
 20
-900.0
 30
0.0
 11
-1291.492613140312
 21
-868.25
 31
0.0
  0
MTEXT
  5
6E
100
AcDbEntity
  8
DIMENTION
 62
               0
100
AcDbMText
 10
-1343.3333333333335
 20
-516.25
 30
0.0
 40
33.866666666666667
 41
0.0
 71
               1
 72
               1
  1
830
  7
________
 11
0.0
 21
1.0
 31
0.0
  0
POINT
  5
6F
100
AcDbEntity
  8
DEFPOINTS
 62
               0
100
AcDbPoint
 10
-1150.0
 20
-900.0
 30
0.0
  0
POINT
  5
70
100
AcDbEntity
  8
DEFPOINTS
 62
               0
100
AcDbPoint
 10
-1125.0
 20
-69.0
 30
0.0
  0
POINT
  5
71
100
AcDbEntity
  8
DEFPOINTS
 62
               0
100
AcDbPoint
 10
-1300.0
 20
-69.0
 30
0.0
  0
ENDBLK
  5
72
100
AcDbEntity
  8
DIMENTION
100
AcDbBlockEnd
  0
BLOCK
  5
73
100
AcDbEntity
  8
OBJECT
100
AcDbBlockBegin
  2
*U8
 70
               1
 10
0.0
 20
0.0
 30
0.0
  3
*U8
  1

  0
LWPOLYLINE
  5
74
100
AcDbEntity
  8
OBJECT
  6
CONTINUOUS
 62
               0
100
AcDbPolyline
 90
       10
 70
             129
 10
-530.0
 20
-770.56155281280894
 42
0.3441507314088954
 10
-531.51492874992732
 20
-768.62126781251823
 10
-550.0
 20
-764.0
 10
-582.0
 20
-764.0
 42
0.414213562373095
 10
-587.0
 20
-769.0
 10
-587.0
 20
-789.0
 42
0.414213562373095
 10
-582.0
 20
-794.0
 10
-550.0
 20
-794.0
 10
-531.51492874992732
 20
-789.37873218748177
 42
0.3441507314089383
 10
-530.0
 20
-787.43844718719106
  0
LWPOLYLINE
  5
75
100
AcDbEntity
  8
OBJECT
  6
CONTINUOUS
 62
               0
100
AcDbPolyline
 90
        5
 70
             129
 10
-577.0
 20
-779.0
 42
-0.414213562373095
 10
-572.0
 20
-774.0
 42
-0.414213562373095
 10
-567.0
 20
-779.0
 42
-0.414213562373095
 10
-572.0
 20
-784.0
 42
-0.414213562373095
 10
-577.0
 20
-779.0
 42
-0.414213562373095
  0
LWPOLYLINE
  5
76
100
AcDbEntity
  8
OBJECT
  6
CONTINUOUS
 62
               0
100
AcDbPolyline
 90
        6
 70
             128
 10
-534.0
 20
-769.0
 10
-578.0
 20
-769.0
 42
0.414213562373095
 10
-582.0
 20
-773.0
 10
-582.0
 20
-785.0
 42
0.414213562373095
 10
-578.0
 20
-789.0
 10
-534.0
 20
-789.0
  0
ENDBLK
  5
77
100
AcDbEntity
  8
OBJECT
100
AcDbBlockEnd
  0
BLOCK
  5
78
100
AcDbEntity
  8
OBJECT
100
AcDbBlockBegin
  2
*U9
 70
               1
 10
0.0
 20
0.0
 30
0.0
  3
*U9
  1

  0
LWPOLYLINE
  5
79
100
AcDbEntity
  8
OBJECT
  6
CONTINUOUS
 62
               0
100
AcDbPolyline
 90
       10
 70
             129
 10
-1070.0
 20
-770.56155281280894
 42
-0.3441507314088868
 10
-1068.4850712500727
 20
-768.62126781251823
 10
-1050.0
 20
-764.0
 10
-1018.0
 20
-764.0
 42
-0.414213562373095
 10
-1013.0
 20
-769.0
 10
-1013.0
 20
-789.0
 42
-0.414213562373095
 10
-1018.0
 20
-794.0
 10
-1050.0
 20
-794.0
 10
-1068.4850712500727
 20
-789.37873218748177
 42
-0.3441507314089417
 10
-1070.0
 20
-787.43844718719106
  0
LWPOLYLINE
  5
7A
100
AcDbEntity
  8
OBJECT
  6
CONTINUOUS
 62
               0
100
AcDbPolyline
 90
        5
 70
             129
 10
-1033.0
 20
-779.0
 42
-0.414213562373095
 10
-1028.0
 20
-774.0
 42
-0.414213562373095
 10
-1023.0
 20
-779.0
 42
-0.414213562373095
 10
-1028.0
 20
-784.0
 42
-0.414213562373095
 10
-1033.0
 20
-779.0
 42
-0.414213562373095
  0
LWPOLYLINE
  5
7B
100
AcDbEntity
  8
OBJECT
  6
CONTINUOUS
 62
               0
100
AcDbPolyline
 90
        6
 70
             128
 10
-1066.0
 20
-769.0
 10
-1022.0
 20
-769.0
 42
-0.414213562373095
 10
-1018.0
 20
-773.0
 10
-1018.0
 20
-785.0
 42
-0.414213562373095
 10
-1022.0
 20
-789.0
 10
-1066.0
 20
-789.0
  0
ENDBLK
  5
7C
100
AcDbEntity
  8
OBJECT
100
AcDbBlockEnd
  0
BLOCK
  5
7D
100
AcDbEntity
  8
OBJECT
100
AcDbBlockBegin
  2
*U10
 70
               1
 10
0.0
 20
0.0
 30
0.0
  3
*U10
  1

  0
LWPOLYLINE
  5
7E
100
AcDbEntity
  8
OBJECT
  6
CONTINUOUS
 62
               0
100
AcDbPolyline
 90
       10
 70
             129
 10
470.0
 20
-770.56003624299024
 42
-0.3441507314089503
 10
471.51492874992732
 20
-768.61975124269952
 10
490.0
 20
-763.9984834301813
 10
565.0
 20
-763.9984834301813
 42
-0.414213562373095
 10
570.0
 20
-768.9984834301813
 10
570.0
 20
-788.9984834301813
 42
-0.414213562373095
 10
565.0
 20
-793.9984834301813
 10
490.0
 20
-793.9984834301813
 10
471.51492874992732
 20
-789.37721561766307
 42
-0.3441507314088877
 10
470.0
 20
-787.43693061737235
  0
LWPOLYLINE
  5
7F
100
AcDbEntity
  8
OBJECT
  6
CONTINUOUS
 62
               0
100
AcDbPolyline
 90
        5
 70
             129
 10
500.0
 20
-778.9984834301813
 42
-0.414213562373095
 10
505.0
 20
-773.9984834301813
 42
-0.414213562373095
 10
510.0
 20
-778.9984834301813
 42
-0.414213562373095
 10
505.0
 20
-783.9984834301813
 42
-0.414213562373095
 10
500.0
 20
-778.9984834301813
 42
-0.414213562373095
  0
LWPOLYLINE
  5
80
100
AcDbEntity
  8
OBJECT
  6
CONTINUOUS
 62
               0
100
AcDbPolyline
 90
        5
 70
             129
 10
550.0
 20
-778.9984834301813
 42
-0.414213562373095
 10
555.0
 20
-773.9984834301813
 42
-0.414213562373095
 10
560.0
 20
-778.9984834301813
 42
-0.414213562373095
 10
555.0
 20
-783.9984834301813
 42
-0.414213562373095
 10
550.0
 20
-778.9984834301813
 42
-0.414213562373095
  0
LWPOLYLINE
  5
81
100
AcDbEntity
  8
OBJECT
  6
CONTINUOUS
 62
               0
100
AcDbPolyline
 90
        6
 70
             128
 10
474.0
 20
-768.9984834301813
 10
561.0
 20
-768.9984834301813
 42
-0.414213562373095
 10
565.0
 20
-772.9984834301813
 10
565.0
 20
-784.9984834301813
 42
-0.414213562373095
 10
561.0
 20
-788.9984834301813
 10
474.0
 20
-788.9984834301813
  0
ENDBLK
  5
82
100
AcDbEntity
  8
OBJECT
100
AcDbBlockEnd
  0
BLOCK
  5
83
100
AcDbEntity
  8
OBJECT
100
AcDbBlockBegin
  2
*U11
 70
               1
 10
0.0
 20
0.0
 30
0.0
  3
*U11
  1

  0
LWPOLYLINE
  5
84
100
AcDbEntity
  8
OBJECT
  6
CONTINUOUS
 62
               0
100
AcDbPolyline
 90
       10
 70
             129
 10
930.0
 20
-770.56003624299024
 42
0.3441507314089262
 10
928.48507125007268
 20
-768.61975124269952
 10
910.0
 20
-763.9984834301813
 10
835.0
 20
-763.9984834301813
 42
0.414213562373095
 10
830.0
 20
-768.9984834301813
 10
830.0
 20
-788.9984834301813
 42
0.414213562373095
 10
835.0
 20
-793.9984834301813
 10
910.0
 20
-793.9984834301813
 10
928.48507125007268
 20
-789.37721561766307
 42
0.3441507314089383
 10
930.0
 20
-787.43693061737235
  0
LWPOLYLINE
  5
85
100
AcDbEntity
  8
OBJECT
  6
CONTINUOUS
 62
               0
100
AcDbPolyline
 90
        5
 70
             129
 10
890.0
 20
-778.9984834301813
 42
-0.414213562373095
 10
895.0
 20
-773.9984834301813
 42
-0.414213562373095
 10
900.0
 20
-778.9984834301813
 42
-0.414213562373095
 10
895.0
 20
-783.9984834301813
 42
-0.414213562373095
 10
890.0
 20
-778.9984834301813
 42
-0.414213562373095
  0
LWPOLYLINE
  5
86
100
AcDbEntity
  8
OBJECT
  6
CONTINUOUS
 62
               0
100
AcDbPolyline
 90
        5
 70
             129
 10
840.0
 20
-778.9984834301813
 42
-0.414213562373095
 10
845.0
 20
-773.9984834301813
 42
-0.414213562373095
 10
850.0
 20
-778.9984834301813
 42
-0.414213562373095
 10
845.0
 20
-783.9984834301813
 42
-0.414213562373095
 10
840.0
 20
-778.9984834301813
 42
-0.414213562373095
  0
LWPOLYLINE
  5
87
100
AcDbEntity
  8
OBJECT
  6
CONTINUOUS
 62
               0
100
AcDbPolyline
 90
        6
 70
             128
 10
926.0
 20
-768.9984834301813
 10
839.0
 20
-768.9984834301813
 42
0.414213562373095
 10
835.0
 20
-772.9984834301813
 10
835.0
 20
-784.9984834301813
 42
0.414213562373095
 10
839.0
 20
-788.9984834301813
 10
926.0
 20
-788.9984834301813
  0
ENDBLK
  5
88
100
AcDbEntity
  8
OBJECT
100
AcDbBlockEnd
  0
BLOCK
  5
89
100
AcDbEntity
  8
DIMENTION
100
AcDbBlockBegin
  2
*D12
 70
               1
 10
0.0
 20
0.0
 30
0.0
  3
*D12
  1

  0
LINE
  5
8A
100
AcDbEntity
  8
DIMENTION
  6
CONTINUOUS
 62
               0
100
AcDbLine
 10
-775.0
 20
-89.0
 30
0.0
 11
-1220.0
 21
-89.0
 31
0.0
  0
LINE
  5
8B
100
AcDbEntity
  8
DIMENTION
  6
CONTINUOUS
 62
               0
100
AcDbLine
 10
-1060.0
 20
-69.0
 30
0.0
 11
-1220.0
 21
-69.0
 31
0.0
  0
LINE
  5
8C
100
AcDbEntity
  8
DIMENTION
  6
CONTINUOUS
 62
               0
100
AcDbLine
 10
-1200.0
 20
-69.0
 30
0.0
 11
-1200.0
 21
-89.0
 31
0.0
  0
LINE
  5
8D
100
AcDbEntity
  8
DIMENTION
  6
CONTINUOUS
 62
               0
100
AcDbLine
 10
-1200.0
 20
-89.0
 30
0.0
 11
-1200.0
 21
-149.0
 31
0.0
  0
LINE
  5
8E
100
AcDbEntity
  8
DIMENTION
  6
CONTINUOUS
 62
               0
100
AcDbLine
 10
-1200.0
 20
-89.0
 30
0.0
 11
-1191.492613140312
 21
-120.75
 31
0.0
  0
LINE
  5
8F
100
AcDbEntity
  8
DIMENTION
  6
CONTINUOUS
 62
               0
100
AcDbLine
 10
-1200.0
 20
-89.0
 30
0.0
 11
-1208.507386859688
 21
-120.75
 31
0.0
  0
LINE
  5
90
100
AcDbEntity
  8
DIMENTION
  6
CONTINUOUS
 62
               0
100
AcDbLine
 10
-1200.0
 20
-69.0
 30
0.0
 11
-1200.0
 21
7.333333333333325
 31
0.0
  0
LINE
  5
91
100
AcDbEntity
  8
DIMENTION
  6
CONTINUOUS
 62
               0
100
AcDbLine
 10
-1200.0
 20
-69.0
 30
0.0
 11
-1208.507386859688
 21
-37.25
 31
0.0
  0
LINE
  5
92
100
AcDbEntity
  8
DIMENTION
  6
CONTINUOUS
 62
               0
100
AcDbLine
 10
-1200.0
 20
-69.0
 30
0.0
 11
-1191.492613140312
 21
-37.25
 31
0.0
  0
MTEXT
  5
93
100
AcDbEntity
  8
DIMENTION
 62
               0
100
AcDbMText
 10
-1243.3333333333335
 20
-35.0
 30
0.0
 40
33.866666666666667
 41
0.0
 71
               1
 72
               1
  1
20
  7
________
 11
0.0
 21
1.0
 31
0.0
  0
POINT
  5
94
100
AcDbEntity
  8
DEFPOINTS
 62
               0
100
AcDbPoint
 10
-1050.0
 20
-69.0
 30
0.0
  0
POINT
  5
95
100
AcDbEntity
  8
DEFPOINTS
 62
               0
100
AcDbPoint
 10
-765.0
 20
-89.0
 30
0.0
  0
POINT
  5
96
100
AcDbEntity
  8
DEFPOINTS
 62
               0
100
AcDbPoint
 10
-1200.0
 20
-89.0
 30
0.0
  0
ENDBLK
  5
97
100
AcDbEntity
  8
DIMENTION
100
AcDbBlockEnd
  0
BLOCK
  5
98
100
AcDbEntity
  8
DIMENTION
100
AcDbBlockBegin
  2
*D13
 70
               1
 10
0.0
 20
0.0
 30
0.0
  3
*D13
  1

  0
LINE
  5
99
100
AcDbEntity
  8
DIMENTION
  6
CONTINUOUS
 62
               0
100
AcDbLine
 10
-775.0
 20
-89.0
 30
0.0
 11
-1220.0
 21
-89.0
 31
0.0
  0
LINE
  5
9A
100
AcDbEntity
  8
DIMENTION
  6
CONTINUOUS
 62
               0
100
AcDbLine
 10
-1049.0
 20
-589.0
 30
0.0
 11
-1220.0
 21
-589.0
 31
0.0
  0
LINE
  5
9B
100
AcDbEntity
  8
DIMENTION
  6
CONTINUOUS
 62
               0
100
AcDbLine
 10
-1200.0
 20
-89.0
 30
0.0
 11
-1200.0
 21
-589.0
 31
0.0
  0
LINE
  5
9C
100
AcDbEntity
  8
DIMENTION
  6
CONTINUOUS
 62
               0
100
AcDbLine
 10
-1200.0
 20
-89.0
 30
0.0
 11
-1191.492613140312
 21
-120.75
 31
0.0
  0
LINE
  5
9D
100
AcDbEntity
  8
DIMENTION
  6
CONTINUOUS
 62
               0
100
AcDbLine
 10
-1200.0
 20
-89.0
 30
0.0
 11
-1208.507386859688
 21
-120.75
 31
0.0
  0
LINE
  5
9E
100
AcDbEntity
  8
DIMENTION
  6
CONTINUOUS
 62
               0
100
AcDbLine
 10
-1200.0
 20
-589.0
 30
0.0
 11
-1208.507386859688
 21
-557.25
 31
0.0
  0
LINE
  5
9F
100
AcDbEntity
  8
DIMENTION
  6
CONTINUOUS
 62
               0
100
AcDbLine
 10
-1200.0
 20
-589.0
 30
0.0
 11
-1191.492613140312
 21
-557.25
 31
0.0
  0
MTEXT
  5
A0
100
AcDbEntity
  8
DIMENTION
 62
               0
100
AcDbMText
 10
-1243.3333333333335
 20
-476.58333333333331
 30
0.0
 40
33.866666666666667
 41
0.0
 71
               1
 72
               1
  1
500（可動範囲）
  7
________
 11
0.0
 21
1.0
 31
0.0
  0
POINT
  5
A1
100
AcDbEntity
  8
DEFPOINTS
 62
               0
100
AcDbPoint
 10
-1039.0
 20
-589.0
 30
0.0
  0
POINT
  5
A2
100
AcDbEntity
  8
DEFPOINTS
 62
               0
100
AcDbPoint
 10
-765.0
 20
-89.0
 30
0.0
  0
POINT
  5
A3
100
AcDbEntity
  8
DEFPOINTS
 62
               0
100
AcDbPoint
 10
-1200.0
 20
-89.0
 30
0.0
  0
ENDBLK
  5
A4
100
AcDbEntity
  8
DIMENTION
100
AcDbBlockEnd
  0
BLOCK
  5
A5
100
AcDbEntity
  8
DIMENTION
100
AcDbBlockBegin
  2
*D14
 70
               1
 10
0.0
 20
0.0
 30
0.0
  3
*D14
  1

  0
LINE
  5
A6
100
AcDbEntity
  8
DIMENTION
  6
CONTINUOUS
 62
               0
100
AcDbLine
 10
-590.0
 20
480.0
 30
0.0
 11
-590.0
 21
380.0
 31
0.0
  0
LINE
  5
A7
100
AcDbEntity
  8
DIMENTION
  6
CONTINUOUS
 62
               0
100
AcDbLine
 10
-799.0
 20
480.0
 30
0.0
 11
-799.0
 21
380.0
 31
0.0
  0
LINE
  5
A8
100
AcDbEntity
  8
DIMENTION
  6
CONTINUOUS
 62
               0
100
AcDbLine
 10
-590.0
 20
400.0
 30
0.0
 11
-799.0
 21
400.0
 31
0.0
  0
LINE
  5
A9
100
AcDbEntity
  8
DIMENTION
  6
CONTINUOUS
 62
               0
100
AcDbLine
 10
-590.0
 20
400.0
 30
0.0
 11
-621.75
 21
391.49261314031185
 31
0.0
  0
LINE
  5
AA
100
AcDbEntity
  8
DIMENTION
  6
CONTINUOUS
 62
               0
100
AcDbLine
 10
-590.0
 20
400.0
 30
0.0
 11
-621.75
 21
408.50738685968815
 31
0.0
  0
LINE
  5
AB
100
AcDbEntity
  8
DIMENTION
  6
CONTINUOUS
 62
               0
100
AcDbLine
 10
-799.0
 20
400.0
 30
0.0
 11
-767.25
 21
408.50738685968815
 31
0.0
  0
LINE
  5
AC
100
AcDbEntity
  8
DIMENTION
  6
CONTINUOUS
 62
               0
100
AcDbLine
 10
-799.0
 20
400.0
 30
0.0
 11
-767.25
 21
391.49261314031185
 31
0.0
  0
MTEXT
  5
AD
100
AcDbEntity
  8
DIMENTION
 62
               0
100
AcDbMText
 10
-726.25
 20
443.33333333333331
 30
0.0
 40
33.866666666666667
 41
0.0
 71
               1
 72
               1
  1
208
  7
________
  0
POINT
  5
AE
100
AcDbEntity
  8
DEFPOINTS
 62
               0
100
AcDbPoint
 10
-799.0
 20
490.0
 30
0.0
  0
POINT
  5
AF
100
AcDbEntity
  8
DEFPOINTS
 62
               0
100
AcDbPoint
 10
-590.0
 20
490.0
 30
0.0
  0
POINT
  5
B0
100
AcDbEntity
  8
DEFPOINTS
 62
               0
100
AcDbPoint
 10
-590.0
 20
400.0
 30
0.0
  0
ENDBLK
  5
B1
100
AcDbEntity
  8
DIMENTION
100
AcDbBlockEnd
  0
BLOCK
  5
B2
100
AcDbEntity
  8
DIMENTION
100
AcDbBlockBegin
  2
*D15
 70
               1
 10
0.0
 20
0.0
 30
0.0
  3
*D15
  1

  0
LINE
  5
B3
100
AcDbEntity
  8
DIMENTION
  6
CONTINUOUS
 62
               0
100
AcDbLine
 10
-550.0
 20
480.0
 30
0.0
 11
-550.0
 21
280.0
 31
0.0
  0
LINE
  5
B4
100
AcDbEntity
  8
DIMENTION
  6
CONTINUOUS
 62
               0
100
AcDbLine
 10
-1050.0
 20
479.0
 30
0.0
 11
-1050.0
 21
280.0
 31
0.0
  0
LINE
  5
B5
100
AcDbEntity
  8
DIMENTION
  6
CONTINUOUS
 62
               0
100
AcDbLine
 10
-550.0
 20
300.0
 30
0.0
 11
-1050.0
 21
300.0
 31
0.0
  0
LINE
  5
B6
100
AcDbEntity
  8
DIMENTION
  6
CONTINUOUS
 62
               0
100
AcDbLine
 10
-550.0
 20
300.0
 30
0.0
 11
-581.75
 21
291.49261314031185
 31
0.0
  0
LINE
  5
B7
100
AcDbEntity
  8
DIMENTION
  6
CONTINUOUS
 62
               0
100
AcDbLine
 10
-550.0
 20
300.0
 30
0.0
 11
-581.75
 21
308.50738685968815
 31
0.0
  0
LINE
  5
B8
100
AcDbEntity
  8
DIMENTION
  6
CONTINUOUS
 62
               0
100
AcDbLine
 10
-1050.0
 20
300.0
 30
0.0
 11
-1018.25
 21
308.50738685968815
 31
0.0
  0
LINE
  5
B9
100
AcDbEntity
  8
DIMENTION
  6
CONTINUOUS
 62
               0
100
AcDbLine
 10
-1050.0
 20
300.0
 30
0.0
 11
-1018.25
 21
291.49261314031185
 31
0.0
  0
MTEXT
  5
BA
100
AcDbEntity
  8
DIMENTION
 62
               0
100
AcDbMText
 10
-831.75
 20
343.33333333333331
 30
0.0
 40
33.866666666666667
 41
0.0
 71
               1
 72
               1
  1
500
  7
________
  0
POINT
  5
BB
100
AcDbEntity
  8
DEFPOINTS
 62
               0
100
AcDbPoint
 10
-1050.0
 20
489.0
 30
0.0
  0
POINT
  5
BC
100
AcDbEntity
  8
DEFPOINTS
 62
               0
100
AcDbPoint
 10
-550.0
 20
490.0
 30
0.0
  0
POINT
  5
BD
100
AcDbEntity
  8
DEFPOINTS
 62
               0
100
AcDbPoint
 10
-550.0
 20
300.0
 30
0.0
  0
ENDBLK
  5
BE
100
AcDbEntity
  8
DIMENTION
100
AcDbBlockEnd
  0
BLOCK
  5
BF
100
AcDbEntity
  8
DIMENTION
100
AcDbBlockBegin
  2
*D16
 70
               1
 10
0.0
 20
0.0
 30
0.0
  3
*D16
  1

  0
LINE
  5
C0
100
AcDbEntity
  8
DIMENTION
  6
CONTINUOUS
 62
               0
100
AcDbLine
 10
-540.0
 20
490.0
 30
0.0
 11
-380.0
 21
490.0
 31
0.0
  0
LINE
  5
C1
100
AcDbEntity
  8
DIMENTION
  6
CONTINUOUS
 62
               0
100
AcDbLine
 10
-580.0
 20
699.0
 30
0.0
 11
-380.0
 21
699.0
 31
0.0
  0
LINE
  5
C2
100
AcDbEntity
  8
DIMENTION
  6
CONTINUOUS
 62
               0
100
AcDbLine
 10
-400.0
 20
490.0
 30
0.0
 11
-400.0
 21
699.0
 31
0.0
  0
LINE
  5
C3
100
AcDbEntity
  8
DIMENTION
  6
CONTINUOUS
 62
               0
100
AcDbLine
 10
-400.0
 20
490.0
 30
0.0
 11
-408.50738685968815
 21
521.75
 31
0.0
  0
LINE
  5
C4
100
AcDbEntity
  8
DIMENTION
  6
CONTINUOUS
 62
               0
100
AcDbLine
 10
-400.0
 20
490.0
 30
0.0
 11
-391.49261314031185
 21
521.75
 31
0.0
  0
LINE
  5
C5
100
AcDbEntity
  8
DIMENTION
  6
CONTINUOUS
 62
               0
100
AcDbLine
 10
-400.0
 20
699.0
 30
0.0
 11
-391.49261314031185
 21
667.25
 31
0.0
  0
LINE
  5
C6
100
AcDbEntity
  8
DIMENTION
  6
CONTINUOUS
 62
               0
100
AcDbLine
 10
-400.0
 20
699.0
 30
0.0
 11
-408.50738685968815
 21
667.25
 31
0.0
  0
MTEXT
  5
C7
100
AcDbEntity
  8
DIMENTION
 62
               0
100
AcDbMText
 10
-443.33333333333337
 20
562.75
 30
0.0
 40
33.866666666666667
 41
0.0
 71
               1
 72
               1
  1
208
  7
________
 11
0.0
 21
1.0
 31
0.0
  0
POINT
  5
C8
100
AcDbEntity
  8
DEFPOINTS
 62
               0
100
AcDbPoint
 10
-590.0
 20
699.0
 30
0.0
  0
POINT
  5
C9
100
AcDbEntity
  8
DEFPOINTS
 62
               0
100
AcDbPoint
 10
-550.0
 20
490.0
 30
0.0
  0
POINT
  5
CA
100
AcDbEntity
  8
DEFPOINTS
 62
               0
100
AcDbPoint
 10
-400.0
 20
490.0
 30
0.0
  0
ENDBLK
  5
CB
100
AcDbEntity
  8
DIMENTION
100
AcDbBlockEnd
  0
BLOCK
  5
CC
100
AcDbEntity
  8
DIMENTION
100
AcDbBlockBegin
  2
*D17
 70
               1
 10
0.0
 20
0.0
 30
0.0
  3
*D17
  1

  0
LINE
  5
CD
100
AcDbEntity
  8
DIMENTION
  6
CONTINUOUS
 62
               0
100
AcDbLine
 10
-540.0
 20
490.0
 30
0.0
 11
-280.0
 21
490.0
 31
0.0
  0
LINE
  5
CE
100
AcDbEntity
  8
DIMENTION
  6
CONTINUOUS
 62
               0
100
AcDbLine
 10
-540.0
 20
910.0
 30
0.0
 11
-280.0
 21
910.0
 31
0.0
  0
LINE
  5
CF
100
AcDbEntity
  8
DIMENTION
  6
CONTINUOUS
 62
               0
100
AcDbLine
 10
-300.0
 20
490.0
 30
0.0
 11
-300.0
 21
910.0
 31
0.0
  0
LINE
  5
D0
100
AcDbEntity
  8
DIMENTION
  6
CONTINUOUS
 62
               0
100
AcDbLine
 10
-300.0
 20
490.0
 30
0.0
 11
-308.50738685968815
 21
521.75
 31
0.0
  0
LINE
  5
D1
100
AcDbEntity
  8
DIMENTION
  6
CONTINUOUS
 62
               0
100
AcDbLine
 10
-300.0
 20
490.0
 30
0.0
 11
-291.49261314031185
 21
521.75
 31
0.0
  0
LINE
  5
D2
100
AcDbEntity
  8
DIMENTION
  6
CONTINUOUS
 62
               0
100
AcDbLine
 10
-300.0
 20
910.0
 30
0.0
 11
-291.49261314031185
 21
878.25
 31
0.0
  0
LINE
  5
D3
100
AcDbEntity
  8
DIMENTION
  6
CONTINUOUS
 62
               0
100
AcDbLine
 10
-300.0
 20
910.0
 30
0.0
 11
-308.50738685968815
 21
878.25
 31
0.0
  0
MTEXT
  5
D4
100
AcDbEntity
  8
DIMENTION
 62
               0
100
AcDbMText
 10
-343.33333333333337
 20
668.25
 30
0.0
 40
33.866666666666667
 41
0.0
 71
               1
 72
               1
  1
420
  7
________
 11
0.0
 21
1.0
 31
0.0
  0
POINT
  5
D5
100
AcDbEntity
  8
DEFPOINTS
 62
               0
100
AcDbPoint
 10
-550.0
 20
910.0
 30
0.0
  0
POINT
  5
D6
100
AcDbEntity
  8
DEFPOINTS
 62
               0
100
AcDbPoint
 10
-550.0
 20
490.0
 30
0.0
  0
POINT
  5
D7
100
AcDbEntity
  8
DEFPOINTS
 62
               0
100
AcDbPoint
 10
-300.0
 20
490.0
 30
0.0
  0
ENDBLK
  5
D8
100
AcDbEntity
  8
DIMENTION
100
AcDbBlockEnd
  0
BLOCK
  5
D9
100
AcDbEntity
  8
DIMENTION
100
AcDbBlockBegin
  2
*D18
 70
               1
 10
0.0
 20
0.0
 30
0.0
  3
*D18
  1

  0
LINE
  5
DA
100
AcDbEntity
  8
DIMENTION
  6
CONTINUOUS
 62
               0
100
AcDbLine
 10
-540.0
 20
490.0
 30
0.0
 11
-280.0
 21
490.0
 31
0.0
  0
LINE
  5
DB
100
AcDbEntity
  8
DIMENTION
  6
CONTINUOUS
 62
               0
100
AcDbLine
 10
-535.0
 20
470.0
 30
0.0
 11
-280.0
 21
470.0
 31
0.0
  0
LINE
  5
DC
100
AcDbEntity
  8
DIMENTION
  6
CONTINUOUS
 62
               0
100
AcDbLine
 10
-300.0
 20
470.0
 30
0.0
 11
-300.0
 21
490.0
 31
0.0
  0
LINE
  5
DD
100
AcDbEntity
  8
DIMENTION
  6
CONTINUOUS
 62
               0
100
AcDbLine
 10
-300.0
 20
490.0
 30
0.0
 11
-300.0
 21
550.0
 31
0.0
  0
LINE
  5
DE
100
AcDbEntity
  8
DIMENTION
  6
CONTINUOUS
 62
               0
100
AcDbLine
 10
-300.0
 20
490.0
 30
0.0
 11
-308.50738685968815
 21
521.75
 31
0.0
  0
LINE
  5
DF
100
AcDbEntity
  8
DIMENTION
  6
CONTINUOUS
 62
               0
100
AcDbLine
 10
-300.0
 20
490.0
 30
0.0
 11
-291.49261314031185
 21
521.75
 31
0.0
  0
LINE
  5
E0
100
AcDbEntity
  8
DIMENTION
  6
CONTINUOUS
 62
               0
100
AcDbLine
 10
-300.0
 20
470.0
 30
0.0
 11
-300.0
 21
392.66666666666669
 31
0.0
  0
LINE
  5
E1
100
AcDbEntity
  8
DIMENTION
  6
CONTINUOUS
 62
               0
100
AcDbLine
 10
-300.0
 20
470.0
 30
0.0
 11
-291.49261314031185
 21
438.25
 31
0.0
  0
LINE
  5
E2
100
AcDbEntity
  8
DIMENTION
  6
CONTINUOUS
 62
               0
100
AcDbLine
 10
-300.0
 20
470.0
 30
0.0
 11
-308.50738685968815
 21
438.25
 31
0.0
  0
MTEXT
  5
E3
100
AcDbEntity
  8
DIMENTION
 62
               0
100
AcDbMText
 10
-343.33333333333337
 20
392.66666666666663
 30
0.0
 40
33.866666666666667
 41
0.0
 71
               1
 72
               1
  1
20
  7
________
 11
0.0
 21
1.0
 31
0.0
  0
POINT
  5
E4
100
AcDbEntity
  8
DEFPOINTS
 62
               0
100
AcDbPoint
 10
-545.0
 20
470.0
 30
0.0
  0
POINT
  5
E5
100
AcDbEntity
  8
DEFPOINTS
 62
               0
100
AcDbPoint
 10
-550.0
 20
490.0
 30
0.0
  0
POINT
  5
E6
100
AcDbEntity
  8
DEFPOINTS
 62
               0
100
AcDbPoint
 10
-300.0
 20
490.0
 30
0.0
  0
ENDBLK
  5
E7
100
AcDbEntity
  8
DIMENTION
100
AcDbBlockEnd
  0
BLOCK
  5
E8
100
AcDbEntity
  8
DIMENTION
100
AcDbBlockBegin
  2
*D19
 70
               1
 10
0.0
 20
0.0
 30
0.0
  3
*D19
  1

  0
LINE
  5
E9
100
AcDbEntity
  8
DIMENTION
  6
CONTINUOUS
 62
               0
100
AcDbLine
 10
-550.0
 20
480.0
 30
0.0
 11
-550.0
 21
280.0
 31
0.0
  0
LINE
  5
EA
100
AcDbEntity
  8
DIMENTION
  6
CONTINUOUS
 62
               0
100
AcDbLine
 10
-530.0
 20
475.0
 30
0.0
 11
-530.0
 21
280.0
 31
0.0
  0
LINE
  5
EB
100
AcDbEntity
  8
DIMENTION
  6
CONTINUOUS
 62
               0
100
AcDbLine
 10
-530.0
 20
300.0
 30
0.0
 11
-550.0
 21
300.0
 31
0.0
  0
LINE
  5
EC
100
AcDbEntity
  8
DIMENTION
  6
CONTINUOUS
 62
               0
100
AcDbLine
 10
-550.0
 20
300.0
 30
0.0
 11
-610.0
 21
300.0
 31
0.0
  0
LINE
  5
ED
100
AcDbEntity
  8
DIMENTION
  6
CONTINUOUS
 62
               0
100
AcDbLine
 10
-550.0
 20
300.0
 30
0.0
 11
-581.75
 21
291.49261314031185
 31
0.0
  0
LINE
  5
EE
100
AcDbEntity
  8
DIMENTION
  6
CONTINUOUS
 62
               0
100
AcDbLine
 10
-550.0
 20
300.0
 30
0.0
 11
-581.75
 21
308.50738685968815
 31
0.0
  0
LINE
  5
EF
100
AcDbEntity
  8
DIMENTION
  6
CONTINUOUS
 62
               0
100
AcDbLine
 10
-530.0
 20
300.0
 30
0.0
 11
-452.66666666666669
 21
300.0
 31
0.0
  0
LINE
  5
F0
100
AcDbEntity
  8
DIMENTION
  6
CONTINUOUS
 62
               0
100
AcDbLine
 10
-530.0
 20
300.0
 30
0.0
 11
-498.25
 21
308.50738685968815
 31
0.0
  0
LINE
  5
F1
100
AcDbEntity
  8
DIMENTION
  6
CONTINUOUS
 62
               0
100
AcDbLine
 10
-530.0
 20
300.0
 30
0.0
 11
-498.25
 21
291.49261314031185
 31
0.0
  0
MTEXT
  5
F2
100
AcDbEntity
  8
DIMENTION
 62
               0
100
AcDbMText
 10
-495.0
 20
343.33333333333331
 30
0.0
 40
33.866666666666667
 41
0.0
 71
               1
 72
               1
  1
20
  7
________
  0
POINT
  5
F3
100
AcDbEntity
  8
DEFPOINTS
 62
               0
100
AcDbPoint
 10
-530.0
 20
485.0
 30
0.0
  0
POINT
  5
F4
100
AcDbEntity
  8
DEFPOINTS
 62
               0
100
AcDbPoint
 10
-550.0
 20
490.0
 30
0.0
  0
POINT
  5
F5
100
AcDbEntity
  8
DEFPOINTS
 62
               0
100
AcDbPoint
 10
-550.0
 20
300.0
 30
0.0
  0
ENDBLK
  5
F6
100
AcDbEntity
  8
DIMENTION
100
AcDbBlockEnd
  0
BLOCK
  5
F7
100
AcDbEntity
  8
DIMENTION
100
AcDbBlockBegin
  2
*D20
 70
               1
 10
0.0
 20
0.0
 30
0.0
  3
*D20
  1

  0
LINE
  5
F8
100
AcDbEntity
  8
DIMENTION
 62
               0
100
AcDbLine
 10
-530.0
 20
925.0
 30
0.0
 11
-530.0
 21
1078.6662954709577
 31
0.0
  0
LINE
  5
F9
100
AcDbEntity
  8
DIMENTION
 62
               0
100
AcDbLine
 10
-1070.0
 20
924.0
 30
0.0
 11
-1070.0
 21
1078.6662954709577
 31
0.0
  0
LINE
  5
FA
100
AcDbEntity
  8
DIMENTION
 62
               0
100
AcDbLine
 10
-530.0
 20
1058.6662954709577
 30
0.0
 11
-1070.0
 21
1058.6662954709577
 31
0.0
  0
LINE
  5
FB
100
AcDbEntity
  8
DIMENTION
 62
               0
100
AcDbLine
 10
-530.0
 20
1058.6662954709577
 30
0.0
 11
-561.75
 21
1050.1589086112697
 31
0.0
  0
LINE
  5
FC
100
AcDbEntity
  8
DIMENTION
 62
               0
100
AcDbLine
 10
-530.0
 20
1058.6662954709577
 30
0.0
 11
-561.75
 21
1067.173682330646
 31
0.0
  0
LINE
  5
FD
100
AcDbEntity
  8
DIMENTION
 62
               0
100
AcDbLine
 10
-1070.0
 20
1058.6662954709577
 30
0.0
 11
-1038.25
 21
1067.1736823306458
 31
0.0
  0
LINE
  5
FE
100
AcDbEntity
  8
DIMENTION
 62
               0
100
AcDbLine
 10
-1070.0
 20
1058.6662954709577
 30
0.0
 11
-1038.25
 21
1050.1589086112697
 31
0.0
  0
MTEXT
  5
FF
100
AcDbEntity
  8
DIMENTION
 62
               0
100
AcDbMText
 10
-831.75
 20
1101.9996288005657
 30
0.0
 40
33.866666666666667
 41
0.0
 71
               1
 72
               1
  1
540
  7
________
  0
POINT
  5
100
100
AcDbEntity
  8
DEFPOINTS
 62
               0
100
AcDbPoint
 10
-1070.0
 20
914.0
 30
0.0
  0
POINT
  5
101
100
AcDbEntity
  8
DEFPOINTS
 62
               0
100
AcDbPoint
 10
-530.0
 20
915.0
 30
0.0
  0
POINT
  5
102
100
AcDbEntity
  8
DEFPOINTS
 62
               0
100
AcDbPoint
 10
-530.0
 20
1058.6662954709577
 30
0.0
  0
ENDBLK
  5
103
100
AcDbEntity
  8
DIMENTION
100
AcDbBlockEnd
  0
BLOCK
  5
104
100
AcDbEntity
  8
DIMENTION
100
AcDbBlockBegin
  2
*D21
 70
               1
 10
0.0
 20
0.0
 30
0.0
  3
*D21
  1

  0
LINE
  5
105
100
AcDbEntity
  8
DIMENTION
 62
               0
100
AcDbLine
 10
-1065.0
 20
929.0
 30
0.0
 11
-1220.0
 21
929.0
 31
0.0
  0
LINE
  5
106
100
AcDbEntity
  8
DIMENTION
 62
               0
100
AcDbLine
 10
-1065.0
 20
469.0
 30
0.0
 11
-1220.0
 21
469.0
 31
0.0
  0
LINE
  5
107
100
AcDbEntity
  8
DIMENTION
 62
               0
100
AcDbLine
 10
-1200.0
 20
929.0
 30
0.0
 11
-1200.0
 21
469.0
 31
0.0
  0
LINE
  5
108
100
AcDbEntity
  8
DIMENTION
 62
               0
100
AcDbLine
 10
-1200.0
 20
929.0
 30
0.0
 11
-1191.492613140312
 21
897.25
 31
0.0
  0
LINE
  5
109
100
AcDbEntity
  8
DIMENTION
 62
               0
100
AcDbLine
 10
-1200.0
 20
929.0
 30
0.0
 11
-1208.507386859688
 21
897.25
 31
0.0
  0
LINE
  5
10A
100
AcDbEntity
  8
DIMENTION
 62
               0
100
AcDbLine
 10
-1200.0
 20
469.0
 30
0.0
 11
-1208.507386859688
 21
500.75
 31
0.0
  0
LINE
  5
10B
100
AcDbEntity
  8
DIMENTION
 62
               0
100
AcDbLine
 10
-1200.0
 20
469.0
 30
0.0
 11
-1191.492613140312
 21
500.75
 31
0.0
  0
MTEXT
  5
10C
100
AcDbEntity
  8
DIMENTION
 62
               0
100
AcDbMText
 10
-1243.3333333296082
 20
667.25
 30
0.0
 40
33.866666666666667
 41
0.0
 71
               1
 72
               1
  1
460
  7
________
 11
0.0
 21
1.0
 31
0.0
  0
POINT
  5
10D
100
AcDbEntity
  8
DEFPOINTS
 62
               0
100
AcDbPoint
 10
-1055.0
 20
469.0
 30
0.0
  0
POINT
  5
10E
100
AcDbEntity
  8
DEFPOINTS
 62
               0
100
AcDbPoint
 10
-1055.0
 20
929.0
 30
0.0
  0
POINT
  5
10F
100
AcDbEntity
  8
DEFPOINTS
 62
               0
100
AcDbPoint
 10
-1200.0
 20
929.0
 30
0.0
  0
ENDBLK
  5
110
100
AcDbEntity
  8
DIMENTION
100
AcDbBlockEnd
  0
ENDSEC
  0
SECTION
  2
ENTITIES
  0
LINE
  5
111
100
AcDbEntity
  8
FRAME
  6
CONTINUOUS
100
AcDbLine
 10
-2025.3999999999999
 20
-1388.9999999999998
 30
0.0
 11
-2025.3999999999999
 21
1330.9999999999998
 31
0.0
  0
LINE
  5
112
100
AcDbEntity
  8
FRAME
  6
CONTINUOUS
100
AcDbLine
 10
2024.5999999999999
 20
-1388.9999999999998
 30
0.0
 11
-2025.3999999999999
 21
-1388.9999999999998
 31
0.0
  0
LINE
  5
113
100
AcDbEntity
  8
FRAME
  6
CONTINUOUS
100
AcDbLine
 10
2024.5999999999999
 20
1330.9999999999998
 30
0.0
 11
2024.5999999999999
 21
-1388.9999999999998
 31
0.0
  0
LINE
  5
114
100
AcDbEntity
  8
FRAME
  6
CONTINUOUS
100
AcDbLine
 10
-2025.3999999999999
 20
1330.9999999999998
 30
0.0
 11
2024.5999999999999
 21
1330.9999999999998
 31
0.0
  0
LINE
  5
115
100
AcDbEntity
  8
OBJECT
  6
CONTINUOUS
100
AcDbLine
 10
1264.3599999999999
 20
-1388.9999999999998
 30
0.0
 11
1264.3599999999999
 21
-1249.0
 31
0.0
  0
LINE
  5
116
100
AcDbEntity
  8
OBJECT
  6
CONTINUOUS
100
AcDbLine
 10
1044.3599999999999
 20
-1388.9999999999998
 30
0.0
 11
1044.3599999999999
 21
-1249.0
 31
0.0
  0
LINE
  5
117
100
AcDbEntity
  8
OBJECT
  6
CONTINUOUS
100
AcDbLine
 10
444.35999999999996
 20
-1388.9999999999998
 30
0.0
 11
444.35999999999996
 21
-1249.0
 31
0.0
  0
LINE
  5
118
100
AcDbEntity
  8
OBJECT
  6
CONTINUOUS
100
AcDbLine
 10
-675.39999999999998
 20
-1388.9999999999998
 30
0.0
 11
-675.39999999999998
 21
-1249.0
 31
0.0
  0
MTEXT
  5
119
100
AcDbEntity
  8
DIMENTION
100
AcDbMText
 10
-650.63999999999999
 20
-1254.1299999999999
 30
0.0
 40
28.2224
 41
109.36099999999999
 71
               1
 72
               1
  1
品　名
  7
________
  0
MTEXT
  5
11A
100
AcDbEntity
  8
DIMENTION
100
AcDbMText
 10
464.35999999999996
 20
-1259.1299999999999
 30
0.0
 40
28.2224
 41
0.0
 71
               1
 72
               1
  1
形　式
  7
________
  0
MTEXT
  5
11B
100
AcDbEntity
  8
DIMENTION
100
AcDbMText
 10
1069.3599999999999
 20
-1259.1299999999999
 30
0.0
 40
28.2224
 41
0.0
 71
               1
 72
               1
  1
尺　度
  7
________
  0
MTEXT
  5
11C
100
AcDbEntity
  8
DIMENTION
100
AcDbMText
 10
1289.3599999999999
 20
-1259.1299999999999
 30
0.0
 40
28.2224
 41
0.0
 71
               1
 72
               1
  1
図　番
  7
________
  0
LINE
  5
11D
100
AcDbEntity
  8
OBJECT
  6
CONTINUOUS
100
AcDbLine
 10
-1095.3999999999999
 20
-1388.9999999999998
 30
0.0
 11
-1095.3999999999999
 21
-1249.0
 31
0.0
  0
MTEXT
  5
11E
100
AcDbEntity
  8
TEXT
100
AcDbMText
 10
1115.3119999999999
 20
-1314.0139999999999
 30
0.0
 40
39.511200000000002
 41
0.0
 71
               1
 72
               1
  1
1/10
  7
________
  0
LINE
  5
11F
100
AcDbEntity
  8
FRAME
  6
CONTINUOUS
100
AcDbLine
 10
-2025.3999999999999
 20
-1249.0
 30
0.0
 11
2024.5999999999999
 21
-1249.0
 31
0.0
  0
MTEXT
  5
120
100
AcDbEntity
  8
DIMENTION
100
AcDbMText
 10
-1085.6399999999999
 20
-1257.1088
 30
0.0
 40
28.2224
 41
0.0
 71
               1
 72
               1
  1
検  図
  7
________
  0
MTEXT
  5
121
100
AcDbEntity
  8
DIMENTION
100
AcDbMText
 10
-1085.6399999999999
 20
-1302.1899999999998
 30
0.0
 40
28.2224
 41
0.0
 71
               1
 72
               1
  1
担  当
  7
________
  0
MTEXT
  5
122
100
AcDbEntity
  8
DIMENTION
100
AcDbMText
 10
-1085.6399999999999
 20
-1347.0599999999999
 30
0.0
 40
28.2224
 41
0.0
 71
               1
 72
               1
  1
年月日
  7
________
  0
LINE
  5
123
100
AcDbEntity
  8
OBJECT
  6
CONTINUOUS
100
AcDbLine
 10
-1095.3999999999999
 20
-1297.9399999999998
 30
0.0
 11
-675.39999999999998
 21
-1297.9399999999998
 31
0.0
  0
LINE
  5
124
100
AcDbEntity
  8
OBJECT
  6
CONTINUOUS
100
AcDbLine
 10
-1095.3999999999999
 20
-1342.3299999999999
 30
0.0
 11
-675.39999999999998
 21
-1342.3299999999999
 31
0.0
  0
MTEXT
  5
125
100
AcDbEntity
  8
TEXT
100
AcDbMText
 10
-44.165000000000077
 20
-1315.0347999999999
 30
0.0
 40
39.511200000000002
 41
0.0
 71
               1
 72
               1
  1
食器ディスペンサー
  7
________
  0
MTEXT
  5
126
100
AcDbEntity
  8
TEXT
100
AcDbMText
 10
-930.0
 20
-1350.0
 30
0.0
 40
28.222222222222225
 41
0.0
 71
               1
 72
               1
  1
2019.09.04
  7
________
  0
MTEXT
  5
127
100
AcDbEntity
  8
TEXT
100
AcDbMText
 10
-930.0
 20
-1302.0
 30
0.0
 40
28.222222222222225
 41
0.0
 71
               1
 72
               1
  1
月川
  7
________
  0
MTEXT
  5
128
100
AcDbEntity
  8
TEXT
100
AcDbMText
 10
-930.0
 20
-1258.0
 30
0.0
 40
28.222222222222225
 41
0.0
 71
               1
 72
               1
  1
大谷
  7
________
  0
MTEXT
  5
129
100
AcDbEntity
  8
DIMENTION
100
AcDbMText
 10
-395.00000000000045
 20
-155.0
 30
0.0
 40
33.866666666666667
 41
0.0
 71
               1
 72
               1
  1
胴体外板
  7
________
  0
MTEXT
  5
12A
100
AcDbEntity
  8
DIMENTION
100
AcDbMText
 10
-400.00000000000045
 20
-655.00000000000023
 30
0.0
 40
33.866666666666667
 41
0.0
 71
               1
 72
               1
  1
ダンパーゴム4個
  7
________
  0
MTEXT
  5
12B
100
AcDbEntity
  8
DIMENTION
100
AcDbMText
 10
-390.00000000000045
 20
-205.0
 30
0.0
 40
33.866666666666667
 41
0.0
 71
               1
 72
               1
  1
SUS 430
  7
________
  0
MTEXT
  5
12C
100
AcDbEntity
  8
DIMENTION
100
AcDbMText
 10
-390.00000000000045
 20
-255.0
 30
0.0
 40
33.866666666666667
 41
0.0
 71
               1
 72
               1
  1
緑色シート貼り
  7
________
  0
LINE
  5
12D
100
AcDbEntity
  8
DIMENTION
100
AcDbLine
 10
-400.00000000000045
 20
-200.0
 30
0.0
 11
-130.0
 21
-200.0
 31
0.0
  0
LINE
  5
12E
100
AcDbEntity
  8
DIMENTION
100
AcDbLine
 10
-400.00000000000045
 20
-200.0
 30
0.0
 11
-400.00000000000045
 21
-300.0
 31
0.0
  0
LINE
  5
12F
100
AcDbEntity
  8
DIMENTION
100
AcDbLine
 10
-400.00000000000045
 20
-300.0
 30
0.0
 11
-130.0
 21
-300.0
 31
0.0
  0
LINE
  5
130
100
AcDbEntity
  8
DIMENTION
100
AcDbLine
 10
-400.00000000000045
 20
-250.0
 30
0.0
 11
-130.0
 21
-250.0
 31
0.0
  0
LINE
  5
131
100
AcDbEntity
  8
DIMENTION
100
AcDbLine
 10
-400.00000000000045
 20
-700.00000000000023
 30
0.0
 11
-100.0
 21
-700.00000000000023
 31
0.0
  0
MTEXT
  5
132
100
AcDbEntity
  8
TEXT
100
AcDbMText
 10
744.36000000000013
 20
-1339.7293
 30
0.0
 40
50.800000000000004
 41
0.0
 71
               5
 72
               1
  1
CL 21W4
  7
________
  0
MTEXT
  5
133
100
AcDbEntity
  8
TEXT
100
AcDbMText
 10
1429.9999999999995
 20
-1270.0
 30
0.0
 40
79.02222222222224
 41
0.0
 71
               1
 72
               1
  1
A330-098B
  7
ARIAL
  0
INSERT
  5
134
100
AcDbEntity
  8
FRAME
100
AcDbBlockReference
  2
*U6
 10
0.0
 20
19.999999999999996
 30
0.0
  0
POLYLINE
  5
135
100
AcDbEntity
  8
OBJECT
  6
CONTINUOUS
100
AcDb2dPolyline
 66
               1
 10
0.0
 20
0.0
 30
0.0
 70
               1
 75
               5
  0
VERTEX
  5
136
100
AcDbEntity
  8
OBJECT
  6
CONTINUOUS
100
AcDbVertex
100
AcDb2dVertex
 10
700.0
 20
1200.0
 30
0.0
  0
VERTEX
  5
137
100
AcDbEntity
  8
OBJECT
  6
CONTINUOUS
100
AcDbVertex
100
AcDb2dVertex
 10
1800.0
 20
1200.0
 30
0.0
  0
VERTEX
  5
138
100
AcDbEntity
  8
OBJECT
  6
CONTINUOUS
100
AcDbVertex
100
AcDb2dVertex
 10
1800.0
 20
900.0
 30
0.0
  0
VERTEX
  5
139
100
AcDbEntity
  8
OBJECT
  6
CONTINUOUS
100
AcDbVertex
100
AcDb2dVertex
 10
700.0
 20
900.0
 30
0.0
  0
SEQEND
  5
13A
100
AcDbEntity
  8
OBJECT
  6
CONTINUOUS
  0
LINE
  5
13B
100
AcDbEntity
  8
OBJECT
  6
CONTINUOUS
100
AcDbLine
 10
1099.9999999999995
 20
1200.0
 30
0.0
 11
1099.9999999999995
 21
900.0
 31
0.0
  0
MTEXT
  5
13C
100
AcDbEntity
  8
TEXT
100
AcDbMText
 10
700.0
 20
1170.0
 30
0.0
 40
33.866666666666667
 41
399.99999999999955
 71
               4
 72
               1
  1
　形　　　　　　　　式
  7
________
  0
LINE
  5
13D
100
AcDbEntity
  8
OBJECT
100
AcDbLine
 10
1800.0
 20
1140.0
 30
0.0
 11
700.0
 21
1140.0
 31
0.0
  0
MTEXT
  5
13E
100
AcDbEntity
  8
TEXT
100
AcDbMText
 10
1099.9999999999995
 20
1170.0
 30
0.0
 40
33.866666666666667
 41
700.00000000000045
 71
               4
 72
               1
  1
　CL 21W4
  7
________
  0
LINE
  5
13F
100
AcDbEntity
  8
OBJECT
100
AcDbLine
 10
1800.0
 20
1020.0
 30
0.0
 11
700.0
 21
1020.0
 31
0.0
  0
MTEXT
  5
140
100
AcDbEntity
  8
TEXT
100
AcDbMText
 10
700.0
 20
1080.0
 30
0.0
 40
33.866666666666667
 41
399.99999999999955
 71
               4
 72
               1
  1
　{\H0.976x;\l適　用　食　器\P　ストック数量の目安}
  7
________
  0
MTEXT
  5
141
100
AcDbEntity
  8
TEXT
100
AcDbMText
 10
1100.0
 20
1080.0
 30
0.0
 40
33.866666666666667
 41
700.0
 71
               4
 72
               1
  1
　{\H0.976x;\l皿200φ×60枚×2列×2\P　240枚}
  7
________
  0
LINE
  5
142
100
AcDbEntity
  8
OBJECT
100
AcDbLine
 10
1800.0
 20
960.0
 30
0.0
 11
700.0
 21
960.0
 31
0.0
  0
MTEXT
  5
143
100
AcDbEntity
  8
TEXT
100
AcDbMText
 10
700.0
 20
990.0
 30
0.0
 40
33.866666666666667
 41
399.99999999999955
 71
               4
 72
               1
  1
　ば ね 調 整 範 囲
  7
________
  0
MTEXT
  5
144
100
AcDbEntity
  8
TEXT
100
AcDbMText
 10
1099.9999999999995
 20
990.0
 30
0.0
 40
33.866666666666667
 41
700.00000000000045
 71
               4
 72
               1
  1
　10～25kg×4
  7
________
  0
MTEXT
  5
145
100
AcDbEntity
  8
TEXT
100
AcDbMText
 10
700.0
 20
930.0
 30
0.0
 40
33.866666666666667
 41
399.99999999999955
 71
               4
 72
               1
  1
　質　　　　　　　　量
  7
________
  0
MTEXT
  5
146
100
AcDbEntity
  8
TEXT
100
AcDbMText
 10
1099.9999999999995
 20
930.0
 30
0.0
 40
33.866666666666667
 41
700.00000000000045
 71
               4
 72
               1
  1
　38kg
  7
________
  0
MTEXT
  5
147
100
AcDbEntity
  8
DIMENTION
100
AcDbMText
 10
655.0
 20
800.0
 30
0.0
 40
33.866666666666667
 41
1305.0
 71
               1
 72
               1
  1
使用する食器は外径寸法200φ(mm)を超えないようにしてください。\P超えてしまうと食器が収納できないまたは引っ掛かりが生じ、出し\P入れできない場合があります。
  7
________
  0
MTEXT
  5
148
100
AcDbEntity
  8
DIMENTION
100
AcDbMText
 10
600.0
 20
800.0
 30
0.0
 40
33.866666666666667
 41
50.0
 71
               1
 72
               1
  1
※
  7
________
  0
LINE
  5
149
100
AcDbEntity
  8
DIMENTION
  6
CONTINUOUS
100
AcDbLine
 10
-400.00000000000045
 20
-200.0
 30
0.0
 11
-700.0
 21
-400.0
 31
0.0
  0
CIRCLE
  5
14A
102
{ACAD_REACTORS
330
14B
102
}
100
AcDbEntity
  8
DIMENTION
  6
CONTINUOUS
100
AcDbCircle
 10
-700.0
 20
-400.0
 30
0.0
 40
4.99969482421875
  0
HATCH
  5
14B
100
AcDbEntity
  8
DIMENTION
  6
CONTINUOUS
100
AcDbHatch
 10
0.0
 20
0.0
 30
0.0
210
0.0
220
0.0
230
1.0
  2
SOLID
 70
               1
 71
               1
 91
        1
 92
        1
 93
        1
 72
               2
 10
-700.0
 20
-400.0
 40
4.99969482421875
 50
0.0
 51
360.0
 73
               0
 97
        1
330
14A
 75
               0
 76
               1
 98
        1
 10
0.0
 20
0.0
  0
LINE
  5
14C
100
AcDbEntity
  8
DIMENTION
  6
CONTINUOUS
100
AcDbLine
 10
-400.00000000000045
 20
-700.00000000000023
 30
0.0
 11
-530.0
 21
-759.0
 31
0.0
  0
LINE
  5
14D
100
AcDbEntity
  8
DIMENTION
  6
CONTINUOUS
100
AcDbLine
 10
-530.0
 20
-759.0
 30
0.0
 11
-512.30074488557784
 21
-744.66742580889581
 31
0.0
  0
LINE
  5
14E
100
AcDbEntity
  8
DIMENTION
  6
CONTINUOUS
100
AcDbLine
 10
-530.0
 20
-759.0
 30
0.0
 11
-507.50570834729666
 21
-755.43725420608973
 31
0.0
  0
LINE
  5
14F
100
AcDbEntity
  8
DIMENTION
100
AcDbLine
 10
940.92781262238861
 20
-819.90244654554431
 30
0.0
 11
1099.9999999999995
 21
-700.00000000000023
 31
0.0
  0
LINE
  5
150
100
AcDbEntity
  8
DIMENTION
100
AcDbLine
 10
940.92781262238861
 20
-819.90244654554431
 30
0.0
 11
961.16461684646356
 21
-794.00051831661006
 31
0.0
  0
LINE
  5
151
100
AcDbEntity
  8
DIMENTION
100
AcDbLine
 10
940.92781262238861
 20
-819.90244654554431
 30
0.0
 11
971.40436328631677
 21
-807.58912080432344
 31
0.0
  0
MTEXT
  5
152
100
AcDbEntity
  8
DIMENTION
100
AcDbMText
 10
1109.9999999999995
 20
-705.00000000000023
 30
0.0
 40
33.866666666666667
 41
441.50939999999997
 71
               1
 72
               1
  1
2個ストッパー付
  7
________
  0
MTEXT
  5
153
100
AcDbEntity
  8
DIMENTION
100
AcDbMText
 10
1099.9999999999995
 20
-655.00000000000023
 30
0.0
 40
33.866666666666667
 41
455.0
 71
               1
 72
               1
  1
φ100 ウレタンキャスター
  7
________
  0
LINE
  5
154
100
AcDbEntity
  8
DIMENTION
100
AcDbLine
 10
1544.9999999999995
 20
-700.00000000000023
 30
0.0
 11
1099.9999999999995
 21
-700.00000000000023
 31
0.0
  0
LINE
  5
155
100
AcDbEntity
  8
DIMENTION
100
AcDbLine
 10
1544.9999999999995
 20
-750.00000000000023
 30
0.0
 11
1099.9999999999995
 21
-750.00000000000023
 31
0.0
  0
LINE
  5
156
100
AcDbEntity
  8
DIMENTION
100
AcDbLine
 10
1099.9999999999995
 20
-700.00000000000023
 30
0.0
 11
1099.9999999999995
 21
-750.00000000000023
 31
0.0
  0
LINE
  5
157
100
AcDbEntity
  8
CENTER
  6
STYLE_03
100
AcDbLine
 10
-800.0
 20
-950.0
 30
0.0
 11
-800.0
 21
-0.0000000000000036
 31
0.0
  0
LINE
  5
158
100
AcDbEntity
  8
FRAME
  6
CONTINUOUS
100
AcDbLine
 10
-1150.0
 20
-900.0
 30
0.0
 11
-450.0
 21
-900.0
 31
0.0
  0
DIMENSION
  5
159
100
AcDbEntity
  8
DIMENTION
  6
CONTINUOUS
100
AcDbDimension
  2
*D7
 10
-1300.0
 20
-69.0
 30
0.0
 11
-1300.0
 21
-484.5
 31
0.0
  1
830
  3
CAD
100
AcDbAlignedDimension
 13
-1150.0
 23
-900.0
 33
0.0
 14
-1125.0
 24
-69.0
 34
0.0
 50
90.0
100
AcDbRotatedDimension
1001
ACAD
1000
DSTYLE
1002
{
1070
             271
1070
               0
1070
             340
1005
33
1070
             147
1040
0.9999999999999999
1002
}
  0
LINE
  5
15A
100
AcDbEntity
  8
FRAME
  6
CONTINUOUS
100
AcDbLine
 10
360.0
 20
-900.0
 30
0.0
 11
1060.0
 21
-900.0
 31
0.0
  0
POLYLINE
  5
15B
100
AcDbEntity
  8
OBJECT
  6
CONTINUOUS
100
AcDb2dPolyline
 66
               1
 10
0.0
 20
0.0
 30
0.0
 70
               1
 75
               5
  0
VERTEX
  5
15C
100
AcDbEntity
  8
OBJECT
  6
CONTINUOUS
100
AcDbVertex
100
AcDb2dVertex
 10
903.0
 20
-780.9984834301813
 30
0.0
  0
VERTEX
  5
15D
100
AcDbEntity
  8
OBJECT
  6
CONTINUOUS
100
AcDbVertex
100
AcDb2dVertex
 10
833.0
 20
-780.9984834301813
 30
0.0
  0
VERTEX
  5
15E
100
AcDbEntity
  8
OBJECT
  6
CONTINUOUS
100
AcDbVertex
100
AcDb2dVertex
 10
833.0
 20
-783.9984834301813
 30
0.0
  0
VERTEX
  5
15F
100
AcDbEntity
  8
OBJECT
  6
CONTINUOUS
100
AcDbVertex
100
AcDb2dVertex
 10
903.0
 20
-783.9984834301813
 30
0.0
  0
SEQEND
  5
160
100
AcDbEntity
  8
OBJECT
  6
CONTINUOUS
  0
LWPOLYLINE
  5
161
100
AcDbEntity
  8
OBJECT
  6
CONTINUOUS
100
AcDbPolyline
 90
        5
 70
             129
 10
891.0
 20
-849.9984834301813
 42
-0.414213562373095
 10
901.0
 20
-839.9984834301813
 42
-0.414213562373095
 10
911.0
 20
-849.9984834301813
 42
-0.414213562373095
 10
901.0
 20
-859.9984834301813
 42
-0.414213562373095
 10
891.0
 20
-849.9984834301813
 42
-0.414213562373095
  0
LWPOLYLINE
  5
162
100
AcDbEntity
  8
OBJECT
  6
CONTINUOUS
100
AcDbPolyline
 90
        5
 70
             128
 10
891.5
 20
-791.9984834301813
 42
0.414213562373095
 10
892.5
 20
-792.9984834301813
 10
900.5
 20
-792.9984834301813
 10
910.60000000000036
 20
-846.4361834301817
 10
910.79999999999927
 20
-848.25688343018101
  0
LWPOLYLINE
  5
163
100
AcDbEntity
  8
OBJECT
  6
CONTINUOUS
100
AcDbPolyline
 90
       10
 70
             128
 10
892.8724000000002
 20
-855.77568343018174
 10
892.22890000000007
 20
-854.80128343018168
 10
854.5
 20
-800.9984834301813
 10
844.5
 20
-800.9984834301813
 10
844.5
 20
-793.9984834301813
 10
844.5
 20
-793.9984834301813
 42
-0.414213562373095
 10
847.5
 20
-790.9984834301813
 10
890.5
 20
-790.9984834301813
 10
890.5
 20
-790.9984834301813
 42
-0.414213562373095
 10
891.5
 20
-791.9984834301813
 42
-0.414213562373095
  0
POLYLINE
  5
164
100
AcDbEntity
  8
OBJECT
  6
CONTINUOUS
100
AcDb2dPolyline
 66
               1
 10
0.0
 20
0.0
 30
0.0
 70
               1
 75
               5
  0
VERTEX
  5
165
100
AcDbEntity
  8
OBJECT
  6
CONTINUOUS
100
AcDbVertex
100
AcDb2dVertex
 10
894.5
 20
-783.9984834301813
 30
0.0
  0
VERTEX
  5
166
100
AcDbEntity
  8
OBJECT
  6
CONTINUOUS
100
AcDbVertex
100
AcDb2dVertex
 10
841.5
 20
-783.9984834301813
 30
0.0
  0
VERTEX
  5
167
100
AcDbEntity
  8
OBJECT
  6
CONTINUOUS
100
AcDbVertex
100
AcDb2dVertex
 10
845.5
 20
-787.4984834301813
 30
0.0
  0
VERTEX
  5
168
100
AcDbEntity
  8
OBJECT
  6
CONTINUOUS
100
AcDbVertex
100
AcDb2dVertex
 10
845.5
 20
-790.9984834301813
 30
0.0
  0
VERTEX
  5
169
100
AcDbEntity
  8
OBJECT
  6
CONTINUOUS
100
AcDbVertex
100
AcDb2dVertex
 10
890.5
 20
-790.9984834301813
 30
0.0
  0
VERTEX
  5
16A
100
AcDbEntity
  8
OBJECT
  6
CONTINUOUS
100
AcDbVertex
100
AcDb2dVertex
 10
890.5
 20
-787.4984834301813
 30
0.0
  0
SEQEND
  5
16B
100
AcDbEntity
  8
OBJECT
  6
CONTINUOUS
  0
LINE
  5
16C
100
AcDbEntity
  8
OBJECT
  6
CONTINUOUS
100
AcDbLine
 10
890.5
 20
-787.4984834301813
 30
0.0
 11
845.5
 21
-787.4984834301813
 31
0.0
  0
LINE
  5
16D
100
AcDbEntity
  8
OBJECT
  6
CONTINUOUS
100
AcDbLine
 10
885.5
 20
-792.9984834301813
 30
0.0
 11
885.5
 21
-842.9984834301813
 31
0.0
  0
LWPOLYLINE
  5
16E
100
AcDbEntity
  8
OBJECT
  6
CONTINUOUS
100
AcDbPolyline
 90
        5
 70
             129
 10
895.5
 20
-849.9984834301813
 42
-0.414213562373095
 10
901.0
 20
-844.4984834301813
 42
-0.414213562373095
 10
906.5
 20
-849.9984834301813
 42
-0.414213562373095
 10
901.0
 20
-855.4984834301813
 42
-0.414213562373095
 10
895.5
 20
-849.9984834301813
 42
-0.414213562373095
  0
ARC
  5
16F
100
AcDbEntity
  8
OBJECT
  6
CONTINUOUS
100
AcDbCircle
 10
901.0
 20
-849.9984834301813
 30
0.0
 40
40.000018056245324
100
AcDbArc
 50
139.42693516316874
 51
86.085507773715634
  0
ARC
  5
170
100
AcDbEntity
  8
OBJECT
  6
CONTINUOUS
100
AcDbCircle
 10
901.0
 20
-849.9984834301813
 30
0.0
 40
46.499974801391609
100
AcDbArc
 50
137.38144272174583
 51
88.1648678673657
  0
ARC
  5
171
100
AcDbEntity
  8
OBJECT
  6
CONTINUOUS
100
AcDbCircle
 10
901.0
 20
-849.9984834301813
 30
0.0
 40
50.000016569696825
100
AcDbArc
 50
136.5052764586583
 51
89.055378894867943
  0
POLYLINE
  5
172
100
AcDbEntity
  8
OBJECT
  6
CONTINUOUS
100
AcDb2dPolyline
 66
               1
 10
0.0
 20
0.0
 30
0.0
 70
               1
 75
               5
  0
VERTEX
  5
173
100
AcDbEntity
  8
OBJECT
  6
CONTINUOUS
100
AcDbVertex
100
AcDb2dVertex
 10
557.0
 20
-780.9984834301813
 30
0.0
  0
VERTEX
  5
174
100
AcDbEntity
  8
OBJECT
  6
CONTINUOUS
100
AcDbVertex
100
AcDb2dVertex
 10
497.0
 20
-780.9984834301813
 30
0.0
  0
VERTEX
  5
175
100
AcDbEntity
  8
OBJECT
  6
CONTINUOUS
100
AcDbVertex
100
AcDb2dVertex
 10
497.0
 20
-783.9984834301813
 30
0.0
  0
VERTEX
  5
176
100
AcDbEntity
  8
OBJECT
  6
CONTINUOUS
100
AcDbVertex
100
AcDb2dVertex
 10
557.0
 20
-783.9984834301813
 30
0.0
  0
SEQEND
  5
177
100
AcDbEntity
  8
OBJECT
  6
CONTINUOUS
  0
LWPOLYLINE
  5
178
100
AcDbEntity
  8
OBJECT
  6
CONTINUOUS
100
AcDbPolyline
 90
        5
 70
             129
 10
550.0
 20
-849.9984834301813
 42
-0.414213562373095
 10
560.0
 20
-839.9984834301813
 42
-0.414213562373095
 10
570.0
 20
-849.9984834301813
 42
-0.414213562373095
 10
560.0
 20
-859.9984834301813
 42
-0.414213562373095
 10
550.0
 20
-849.9984834301813
 42
-0.414213562373095
  0
LWPOLYLINE
  5
179
100
AcDbEntity
  8
OBJECT
  6
CONTINUOUS
100
AcDbPolyline
 90
        5
 70
             128
 10
550.5
 20
-791.9984834301813
 42
0.414213562373095
 10
551.5
 20
-792.9984834301813
 10
559.5
 20
-792.9984834301813
 10
569.60000000000036
 20
-846.4361834301817
 10
569.79999999999927
 20
-848.25688343018101
  0
LWPOLYLINE
  5
17A
100
AcDbEntity
  8
OBJECT
  6
CONTINUOUS
100
AcDbPolyline
 90
       10
 70
             128
 10
551.8724000000002
 20
-855.77568343018174
 10
551.22890000000007
 20
-854.80128343018168
 10
513.5
 20
-800.9984834301813
 10
503.5
 20
-800.9984834301813
 10
503.5
 20
-793.9984834301813
 10
503.5
 20
-793.9984834301813
 42
-0.414213562373095
 10
506.5
 20
-790.9984834301813
 10
549.5
 20
-790.9984834301813
 10
549.5
 20
-790.9984834301813
 42
-0.414213562373095
 10
550.5
 20
-791.9984834301813
 42
-0.414213562373095
  0
POLYLINE
  5
17B
100
AcDbEntity
  8
OBJECT
  6
CONTINUOUS
100
AcDb2dPolyline
 66
               1
 10
0.0
 20
0.0
 30
0.0
 70
               1
 75
               5
  0
VERTEX
  5
17C
100
AcDbEntity
  8
OBJECT
  6
CONTINUOUS
100
AcDbVertex
100
AcDb2dVertex
 10
553.5
 20
-783.9984834301813
 30
0.0
  0
VERTEX
  5
17D
100
AcDbEntity
  8
OBJECT
  6
CONTINUOUS
100
AcDbVertex
100
AcDb2dVertex
 10
500.5
 20
-783.9984834301813
 30
0.0
  0
VERTEX
  5
17E
100
AcDbEntity
  8
OBJECT
  6
CONTINUOUS
100
AcDbVertex
100
AcDb2dVertex
 10
504.5
 20
-787.4984834301813
 30
0.0
  0
VERTEX
  5
17F
100
AcDbEntity
  8
OBJECT
  6
CONTINUOUS
100
AcDbVertex
100
AcDb2dVertex
 10
504.5
 20
-790.9984834301813
 30
0.0
  0
VERTEX
  5
180
100
AcDbEntity
  8
OBJECT
  6
CONTINUOUS
100
AcDbVertex
100
AcDb2dVertex
 10
549.5
 20
-790.9984834301813
 30
0.0
  0
VERTEX
  5
181
100
AcDbEntity
  8
OBJECT
  6
CONTINUOUS
100
AcDbVertex
100
AcDb2dVertex
 10
549.5
 20
-787.4984834301813
 30
0.0
  0
SEQEND
  5
182
100
AcDbEntity
  8
OBJECT
  6
CONTINUOUS
  0
LINE
  5
183
100
AcDbEntity
  8
OBJECT
  6
CONTINUOUS
100
AcDbLine
 10
549.5
 20
-787.4984834301813
 30
0.0
 11
504.5
 21
-787.4984834301813
 31
0.0
  0
LINE
  5
184
100
AcDbEntity
  8
OBJECT
  6
CONTINUOUS
100
AcDbLine
 10
544.5
 20
-792.9984834301813
 30
0.0
 11
544.5
 21
-842.9984834301813
 31
0.0
  0
LWPOLYLINE
  5
185
100
AcDbEntity
  8
OBJECT
  6
CONTINUOUS
100
AcDbPolyline
 90
        5
 70
             129
 10
554.5
 20
-849.9984834301813
 42
-0.414213562373095
 10
560.0
 20
-844.4984834301813
 42
-0.414213562373095
 10
565.5
 20
-849.9984834301813
 42
-0.414213562373095
 10
560.0
 20
-855.4984834301813
 42
-0.414213562373095
 10
554.5
 20
-849.9984834301813
 42
-0.414213562373095
  0
ARC
  5
186
100
AcDbEntity
  8
OBJECT
  6
CONTINUOUS
100
AcDbCircle
 10
560.0
 20
-849.9984834301813
 30
0.0
 40
40.000018056245324
100
AcDbArc
 50
139.42693516316874
 51
86.085507773715634
  0
ARC
  5
187
100
AcDbEntity
  8
OBJECT
  6
CONTINUOUS
100
AcDbCircle
 10
560.0
 20
-849.9984834301813
 30
0.0
 40
46.499974801391609
100
AcDbArc
 50
137.38144272174583
 51
88.1648678673657
  0
ARC
  5
188
100
AcDbEntity
  8
OBJECT
  6
CONTINUOUS
100
AcDbCircle
 10
560.0
 20
-849.9984834301813
 30
0.0
 40
50.000016569696825
100
AcDbArc
 50
136.5052764586583
 51
89.055378894867943
  0
LWPOLYLINE
  5
189
100
AcDbEntity
  8
OBJECT
  6
CONTINUOUS
100
AcDbPolyline
 90
       10
 70
             129
 10
-1025.5
 20
-845.5
 42
-0.414213562373095
 10
-1023.5
 20
-847.5
 10
-1023.5
 20
-860.5
 42
-0.414213562373095
 10
-1025.5
 20
-862.5
 10
-1026.5
 20
-862.5
 10
-1026.5
 20
-855.5
 10
-1041.5
 20
-855.5
 42
-0.414213562373095
 10
-1043.5
 20
-853.5
 10
-1043.5
 20
-847.5
 42
-0.414213562373095
 10
-1041.5
 20
-845.5
  0
POLYLINE
  5
18A
100
AcDbEntity
  8
OBJECT
  6
CONTINUOUS
100
AcDb2dPolyline
 66
               1
 10
0.0
 20
0.0
 30
0.0
 70
               1
 75
               5
  0
VERTEX
  5
18B
100
AcDbEntity
  8
OBJECT
  6
CONTINUOUS
100
AcDbVertex
100
AcDb2dVertex
 10
-1038.0
 20
-781.0
 30
0.0
  0
VERTEX
  5
18C
100
AcDbEntity
  8
OBJECT
  6
CONTINUOUS
100
AcDbVertex
100
AcDb2dVertex
 10
-968.0
 20
-781.0
 30
0.0
  0
VERTEX
  5
18D
100
AcDbEntity
  8
OBJECT
  6
CONTINUOUS
100
AcDbVertex
100
AcDb2dVertex
 10
-968.0
 20
-784.0
 30
0.0
  0
VERTEX
  5
18E
100
AcDbEntity
  8
OBJECT
  6
CONTINUOUS
100
AcDbVertex
100
AcDb2dVertex
 10
-1038.0
 20
-784.0
 30
0.0
  0
SEQEND
  5
18F
100
AcDbEntity
  8
OBJECT
  6
CONTINUOUS
  0
POLYLINE
  5
190
100
AcDbEntity
  8
OBJECT
  6
CONTINUOUS
100
AcDb2dPolyline
 66
               1
 10
0.0
 20
0.0
 30
0.0
 70
               1
 75
               5
  0
VERTEX
  5
191
100
AcDbEntity
  8
OBJECT
  6
CONTINUOUS
100
AcDbVertex
100
AcDb2dVertex
 10
-1029.5
 20
-784.0
 30
0.0
  0
VERTEX
  5
192
100
AcDbEntity
  8
OBJECT
  6
CONTINUOUS
100
AcDbVertex
100
AcDb2dVertex
 10
-976.5
 20
-784.0
 30
0.0
  0
VERTEX
  5
193
100
AcDbEntity
  8
OBJECT
  6
CONTINUOUS
100
AcDbVertex
100
AcDb2dVertex
 10
-980.5
 20
-787.5
 30
0.0
  0
VERTEX
  5
194
100
AcDbEntity
  8
OBJECT
  6
CONTINUOUS
100
AcDbVertex
100
AcDb2dVertex
 10
-980.5
 20
-791.0
 30
0.0
  0
VERTEX
  5
195
100
AcDbEntity
  8
OBJECT
  6
CONTINUOUS
100
AcDbVertex
100
AcDb2dVertex
 10
-1025.5
 20
-791.0
 30
0.0
  0
VERTEX
  5
196
100
AcDbEntity
  8
OBJECT
  6
CONTINUOUS
100
AcDbVertex
100
AcDb2dVertex
 10
-1025.5
 20
-787.5
 30
0.0
  0
SEQEND
  5
197
100
AcDbEntity
  8
OBJECT
  6
CONTINUOUS
  0
LINE
  5
198
100
AcDbEntity
  8
OBJECT
  6
CONTINUOUS
100
AcDbLine
 10
-1025.5
 20
-787.5
 30
0.0
 11
-980.5
 21
-787.5
 31
0.0
  0
SPLINE
  5
199
100
AcDbEntity
  8
OBJECT
  6
CONTINUOUS
100
AcDbSpline
210
0.0
220
0.0
230
1.0
 70
               9
 71
               2
 72
              28
 73
              25
 74
               0
 42
0.000001
 43
0.000001
 40
0.0
 40
0.0
 40
0.0
 40
0.1364451216774349
 40
0.1364451216774349
 40
0.206088985866959
 40
0.206088985866959
 40
0.2868044973790079
 40
0.2868044973790079
 40
0.3351288113064328
 40
0.3351288113064328
 40
0.3436566314112725
 40
0.3436566314112725
 40
0.525583460314519
 40
0.525583460314519
 40
0.6108616613629158
 40
0.6108616613629158
 40
0.7927884902661623
 40
0.7927884902661623
 40
0.8013163103710019
 40
0.8013163103710019
 40
0.8496406242984268
 40
0.8496406242984268
 40
0.9303561358104757
 40
0.9303561358104757
 40
1.0
 40
1.0
 40
1.0
 10
-979.0
 20
-791.0
 30
0.0
 10
-1003.0
 20
-791.0
 30
0.0
 10
-1027.0
 20
-791.0
 30
0.0
 10
-1027.0
 20
-803.25
 30
0.0
 10
-1027.0
 20
-815.5
 30
0.0
 10
-1027.0
 20
-830.5
 30
0.0
 10
-1021.0
 20
-843.0
 30
0.0
 10
-1021.0
 20
-851.5
 30
0.0
 10
-1021.0
 20
-860.0
 30
0.0
 10
-1019.5
 20
-860.0
 30
0.0
 10
-1018.0
 20
-860.0
 30
0.0
 10
-1018.0
 20
-828.0
 30
0.0
 10
-1018.0
 20
-796.0
 30
0.0
 10
-1003.0
 20
-796.0
 30
0.0
 10
-988.0
 20
-796.0
 30
0.0
 10
-988.0
 20
-828.0
 30
0.0
 10
-988.0
 20
-860.0
 30
0.0
 10
-986.5
 20
-860.0
 30
0.0
 10
-985.0
 20
-860.0
 30
0.0
 10
-985.0
 20
-851.5
 30
0.0
 10
-985.0
 20
-843.0
 30
0.0
 10
-979.0
 20
-830.5
 30
0.0
 10
-979.0
 20
-815.5
 30
0.0
 10
-979.0
 20
-803.25
 30
0.0
 10
-979.0
 20
-791.0
 30
0.0
  0
POLYLINE
  5
19A
100
AcDbEntity
  8
OBJECT
  6
CONTINUOUS
100
AcDb2dPolyline
 66
               1
 10
0.0
 20
0.0
 30
0.0
 70
               1
 75
               5
  0
VERTEX
  5
19B
100
AcDbEntity
  8
OBJECT
  6
CONTINUOUS
100
AcDbVertex
100
AcDb2dVertex
 10
-985.0
 20
-793.0
 30
0.0
  0
VERTEX
  5
19C
100
AcDbEntity
  8
OBJECT
  6
CONTINUOUS
100
AcDbVertex
100
AcDb2dVertex
 10
-1021.0
 20
-793.0
 30
0.0
  0
VERTEX
  5
19D
100
AcDbEntity
  8
OBJECT
  6
CONTINUOUS
100
AcDbVertex
100
AcDb2dVertex
 10
-1021.0
 20
-860.0
 30
0.0
  0
VERTEX
  5
19E
100
AcDbEntity
  8
OBJECT
  6
CONTINUOUS
100
AcDbVertex
100
AcDb2dVertex
 10
-1018.0
 20
-860.0
 30
0.0
  0
VERTEX
  5
19F
100
AcDbEntity
  8
OBJECT
  6
CONTINUOUS
100
AcDbVertex
100
AcDb2dVertex
 10
-1018.0
 20
-796.0
 30
0.0
  0
VERTEX
  5
1A0
100
AcDbEntity
  8
OBJECT
  6
CONTINUOUS
100
AcDbVertex
100
AcDb2dVertex
 10
-988.0
 20
-796.0
 30
0.0
  0
VERTEX
  5
1A1
100
AcDbEntity
  8
OBJECT
  6
CONTINUOUS
100
AcDbVertex
100
AcDb2dVertex
 10
-988.0
 20
-860.0
 30
0.0
  0
VERTEX
  5
1A2
100
AcDbEntity
  8
OBJECT
  6
CONTINUOUS
100
AcDbVertex
100
AcDb2dVertex
 10
-985.0
 20
-860.0
 30
0.0
  0
SEQEND
  5
1A3
100
AcDbEntity
  8
OBJECT
  6
CONTINUOUS
  0
SPLINE
  5
1A4
100
AcDbEntity
  8
OBJECT
  6
CONTINUOUS
100
AcDbSpline
210
0.0
220
0.0
230
1.0
 70
              13
 71
               2
 72
              28
 73
              25
 74
               0
 42
0.000001
 43
0.000001
 40
0.0
 40
0.0
 40
0.0
 40
0.0116664369471657
 40
0.0116664369471657
 40
0.0307673121208434
 40
0.0307673121208434
 40
0.0826383042797594
 40
0.0826383042797594
 40
0.1017391794534372
 40
0.1017391794534372
 40
0.1134056164006018
 40
0.1134056164006018
 40
0.5000000000000007
 40
0.5000000000000007
 40
0.511666436947165
 40
0.511666436947165
 40
0.5307673121208428
 40
0.5307673121208428
 40
0.5826383042797588
 40
0.5826383042797588
 40
0.6017391794534366
 40
0.6017391794534366
 40
0.6134056164006005
 40
0.6134056164006005
 40
1.0
 40
1.0
 40
1.0
 10
-990.5
 20
-803.20543822418745
 30
0.0
 41
1.0
 10
-990.5
 20
-801.49999999999977
 30
0.0
 41
0.7609173743274019
 10
-992.18401899778667
 20
-801.23055696035408
 30
0.0
 41
1.0
 10
-994.46700949889328
 20
-800.86527848017704
 30
0.0
 41
1.0
 10
-996.75
 20
-800.5
 30
0.0
 41
1.0
 10
-1003.0
 20
-799.5
 30
0.0
 41
1.0
 10
-1009.25
 20
-800.5
 30
0.0
 41
1.0
 10
-1011.5329905011067
 20
-800.86527848017704
 30
0.0
 41
1.0
 10
-1013.8159810022133
 20
-801.23055696035408
 30
0.0
 41
1.0
 10
-1015.4999999999999
 20
-801.49999999999989
 30
0.0
 41
0.7609173743274358
 10
-1015.5
 20
-803.20543822418745
 30
0.0
 41
1.0
 10
-1015.5
 20
-850.0
 30
0.0
 41
1.0
 10
-1015.5
 20
-896.79456177581244
 30
0.0
 41
1.0
 10
-1015.5
 20
-898.5
 30
0.0
 41
0.7609173743274202
 10
-1013.8159810022133
 20
-898.76944303964581
 30
0.0
 41
1.0
 10
-1011.5329905011067
 20
-899.13472151982296
 30
0.0
 41
1.0
 10
-1009.25
 20
-899.5
 30
0.0
 41
1.0
 10
-1003.0
 20
-900.5
 30
0.0
 41
1.0
 10
-996.75
 20
-899.5
 30
0.0
 41
1.0
 10
-994.46700949889328
 20
-899.13472151982296
 30
0.0
 41
1.0
 10
-992.18401899778667
 20
-898.76944303964592
 30
0.0
 41
1.0
 10
-990.50000000000034
 20
-898.5
 30
0.0
 41
0.7609173743275187
 10
-990.5
 20
-896.79456177581255
 30
0.0
 41
1.0
 10
-990.5
 20
-850.0
 30
0.0
 41
1.0
 10
-990.5
 20
-803.20543822418745
 30
0.0
 41
1.0
  0
POLYLINE
  5
1A5
100
AcDbEntity
  8
OBJECT
  6
CONTINUOUS
100
AcDb2dPolyline
 66
               1
 10
0.0
 20
0.0
 30
0.0
 70
               1
 75
               5
  0
VERTEX
  5
1A6
100
AcDbEntity
  8
OBJECT
  6
CONTINUOUS
100
AcDbVertex
100
AcDb2dVertex
 10
-1018.0
 20
-841.75
 30
0.0
  0
VERTEX
  5
1A7
100
AcDbEntity
  8
OBJECT
  6
CONTINUOUS
100
AcDbVertex
100
AcDb2dVertex
 10
-1015.5
 20
-841.75
 30
0.0
  0
VERTEX
  5
1A8
100
AcDbEntity
  8
OBJECT
  6
CONTINUOUS
100
AcDbVertex
100
AcDb2dVertex
 10
-1015.5
 20
-858.25
 30
0.0
  0
VERTEX
  5
1A9
100
AcDbEntity
  8
OBJECT
  6
CONTINUOUS
100
AcDbVertex
100
AcDb2dVertex
 10
-1018.0
 20
-858.25
 30
0.0
  0
SEQEND
  5
1AA
100
AcDbEntity
  8
OBJECT
  6
CONTINUOUS
  0
POLYLINE
  5
1AB
100
AcDbEntity
  8
OBJECT
  6
CONTINUOUS
100
AcDb2dPolyline
 66
               1
 10
0.0
 20
0.0
 30
0.0
 70
               1
 75
               5
  0
VERTEX
  5
1AC
100
AcDbEntity
  8
OBJECT
  6
CONTINUOUS
100
AcDbVertex
100
AcDb2dVertex
 10
-990.5
 20
-841.75
 30
0.0
  0
VERTEX
  5
1AD
100
AcDbEntity
  8
OBJECT
  6
CONTINUOUS
100
AcDbVertex
100
AcDb2dVertex
 10
-988.0
 20
-841.75
 30
0.0
  0
VERTEX
  5
1AE
100
AcDbEntity
  8
OBJECT
  6
CONTINUOUS
100
AcDbVertex
100
AcDb2dVertex
 10
-988.0
 20
-858.25
 30
0.0
  0
VERTEX
  5
1AF
100
AcDbEntity
  8
OBJECT
  6
CONTINUOUS
100
AcDbVertex
100
AcDb2dVertex
 10
-990.5
 20
-858.25
 30
0.0
  0
SEQEND
  5
1B0
100
AcDbEntity
  8
OBJECT
  6
CONTINUOUS
  0
POLYLINE
  5
1B1
100
AcDbEntity
  8
OBJECT
  6
CONTINUOUS
100
AcDb2dPolyline
 66
               1
 10
0.0
 20
0.0
 30
0.0
 70
               1
 75
               5
  0
VERTEX
  5
1B2
100
AcDbEntity
  8
OBJECT
  6
CONTINUOUS
100
AcDbVertex
100
AcDb2dVertex
 10
-985.0
 20
-844.5
 30
0.0
  0
VERTEX
  5
1B3
100
AcDbEntity
  8
OBJECT
  6
CONTINUOUS
100
AcDbVertex
100
AcDb2dVertex
 10
-982.5
 20
-844.5
 30
0.0
  0
VERTEX
  5
1B4
100
AcDbEntity
  8
OBJECT
  6
CONTINUOUS
100
AcDbVertex
100
AcDb2dVertex
 10
-982.5
 20
-855.5
 30
0.0
  0
VERTEX
  5
1B5
100
AcDbEntity
  8
OBJECT
  6
CONTINUOUS
100
AcDbVertex
100
AcDb2dVertex
 10
-985.0
 20
-855.5
 30
0.0
  0
SEQEND
  5
1B6
100
AcDbEntity
  8
OBJECT
  6
CONTINUOUS
  0
POLYLINE
  5
1B7
100
AcDbEntity
  8
OBJECT
  6
CONTINUOUS
100
AcDb2dPolyline
 66
               1
 10
0.0
 20
0.0
 30
0.0
 70
               1
 75
               5
  0
VERTEX
  5
1B8
100
AcDbEntity
  8
OBJECT
  6
CONTINUOUS
100
AcDbVertex
100
AcDb2dVertex
 10
-1023.5
 20
-844.5
 30
0.0
  0
VERTEX
  5
1B9
100
AcDbEntity
  8
OBJECT
  6
CONTINUOUS
100
AcDbVertex
100
AcDb2dVertex
 10
-1021.0
 20
-844.5
 30
0.0
  0
VERTEX
  5
1BA
100
AcDbEntity
  8
OBJECT
  6
CONTINUOUS
100
AcDbVertex
100
AcDb2dVertex
 10
-1021.0
 20
-855.5
 30
0.0
  0
VERTEX
  5
1BB
100
AcDbEntity
  8
OBJECT
  6
CONTINUOUS
100
AcDbVertex
100
AcDb2dVertex
 10
-1023.5
 20
-855.5
 30
0.0
  0
SEQEND
  5
1BC
100
AcDbEntity
  8
OBJECT
  6
CONTINUOUS
  0
POLYLINE
  5
1BD
100
AcDbEntity
  8
OBJECT
  6
CONTINUOUS
100
AcDb2dPolyline
 66
               1
 10
0.0
 20
0.0
 30
0.0
 70
               1
 75
               5
  0
VERTEX
  5
1BE
100
AcDbEntity
  8
OBJECT
  6
CONTINUOUS
100
AcDbVertex
100
AcDb2dVertex
 10
-1023.5
 20
-837.5
 30
0.0
  0
VERTEX
  5
1BF
100
AcDbEntity
  8
OBJECT
  6
CONTINUOUS
100
AcDbVertex
100
AcDb2dVertex
 10
-1023.5
 20
-862.5
 30
0.0
  0
VERTEX
  5
1C0
100
AcDbEntity
  8
OBJECT
  6
CONTINUOUS
100
AcDbVertex
100
AcDb2dVertex
 10
-1026.5
 20
-862.5
 30
0.0
  0
VERTEX
  5
1C1
100
AcDbEntity
  8
OBJECT
  6
CONTINUOUS
100
AcDbVertex
100
AcDb2dVertex
 10
-1026.5
 20
-840.5
 30
0.0
  0
VERTEX
  5
1C2
100
AcDbEntity
  8
OBJECT
  6
CONTINUOUS
100
AcDbVertex
100
AcDb2dVertex
 10
-1043.5
 20
-840.5
 30
0.0
  0
VERTEX
  5
1C3
100
AcDbEntity
  8
OBJECT
  6
CONTINUOUS
100
AcDbVertex
100
AcDb2dVertex
 10
-1043.5
 20
-837.5
 30
0.0
  0
SEQEND
  5
1C4
100
AcDbEntity
  8
OBJECT
  6
CONTINUOUS
  0
LINE
  5
1C5
100
AcDbEntity
  8
OBJECT
  6
CONTINUOUS
100
AcDbLine
 10
-1041.5
 20
-848.5
 30
0.0
 11
-1026.5
 21
-848.5
 31
0.0
  0
ARC
  5
1C6
100
AcDbEntity
  8
OBJECT
  6
CONTINUOUS
100
AcDbCircle
 10
-1041.5
 20
-850.5
 30
0.0
 40
2.0
100
AcDbArc
 50
90.0
 51
180.0
  0
POLYLINE
  5
1C7
100
AcDbEntity
  8
OBJECT
  6
CONTINUOUS
100
AcDb2dPolyline
 66
               1
 10
0.0
 20
0.0
 30
0.0
 75
               5
  0
VERTEX
  5
1C8
100
AcDbEntity
  8
OBJECT
  6
CONTINUOUS
100
AcDbVertex
100
AcDb2dVertex
 10
-550.0
 20
-774.0
 30
0.0
  0
VERTEX
  5
1C9
100
AcDbEntity
  8
OBJECT
  6
CONTINUOUS
100
AcDbVertex
100
AcDb2dVertex
 10
-550.0
 20
-779.0
 30
0.0
  0
VERTEX
  5
1CA
100
AcDbEntity
  8
OBJECT
  6
CONTINUOUS
100
AcDbVertex
100
AcDb2dVertex
 10
-1050.0
 20
-779.0
 30
0.0
  0
VERTEX
  5
1CB
100
AcDbEntity
  8
OBJECT
  6
CONTINUOUS
100
AcDbVertex
100
AcDb2dVertex
 10
-1050.0
 20
-774.0
 30
0.0
  0
SEQEND
  5
1CC
100
AcDbEntity
  8
OBJECT
  6
CONTINUOUS
  0
LWPOLYLINE
  5
1CD
100
AcDbEntity
  8
OBJECT
  6
CONTINUOUS
100
AcDbPolyline
 90
       10
 70
             129
 10
-619.5
 20
-845.5
 42
-0.414213562373095
 10
-617.5
 20
-847.5
 10
-617.5
 20
-860.5
 42
-0.414213562373095
 10
-619.5
 20
-862.5
 10
-620.5
 20
-862.5
 10
-620.5
 20
-855.5
 10
-635.5
 20
-855.5
 42
-0.414213562373095
 10
-637.5
 20
-853.5
 10
-637.5
 20
-847.5
 42
-0.414213562373095
 10
-635.5
 20
-845.5
  0
POLYLINE
  5
1CE
100
AcDbEntity
  8
OBJECT
  6
CONTINUOUS
100
AcDb2dPolyline
 66
               1
 10
0.0
 20
0.0
 30
0.0
 70
               1
 75
               5
  0
VERTEX
  5
1CF
100
AcDbEntity
  8
OBJECT
  6
CONTINUOUS
100
AcDbVertex
100
AcDb2dVertex
 10
-632.0
 20
-781.0
 30
0.0
  0
VERTEX
  5
1D0
100
AcDbEntity
  8
OBJECT
  6
CONTINUOUS
100
AcDbVertex
100
AcDb2dVertex
 10
-562.0
 20
-781.0
 30
0.0
  0
VERTEX
  5
1D1
100
AcDbEntity
  8
OBJECT
  6
CONTINUOUS
100
AcDbVertex
100
AcDb2dVertex
 10
-562.0
 20
-784.0
 30
0.0
  0
VERTEX
  5
1D2
100
AcDbEntity
  8
OBJECT
  6
CONTINUOUS
100
AcDbVertex
100
AcDb2dVertex
 10
-632.0
 20
-784.0
 30
0.0
  0
SEQEND
  5
1D3
100
AcDbEntity
  8
OBJECT
  6
CONTINUOUS
  0
POLYLINE
  5
1D4
100
AcDbEntity
  8
OBJECT
  6
CONTINUOUS
100
AcDb2dPolyline
 66
               1
 10
0.0
 20
0.0
 30
0.0
 70
               1
 75
               5
  0
VERTEX
  5
1D5
100
AcDbEntity
  8
OBJECT
  6
CONTINUOUS
100
AcDbVertex
100
AcDb2dVertex
 10
-623.5
 20
-784.0
 30
0.0
  0
VERTEX
  5
1D6
100
AcDbEntity
  8
OBJECT
  6
CONTINUOUS
100
AcDbVertex
100
AcDb2dVertex
 10
-570.5
 20
-784.0
 30
0.0
  0
VERTEX
  5
1D7
100
AcDbEntity
  8
OBJECT
  6
CONTINUOUS
100
AcDbVertex
100
AcDb2dVertex
 10
-574.5
 20
-787.5
 30
0.0
  0
VERTEX
  5
1D8
100
AcDbEntity
  8
OBJECT
  6
CONTINUOUS
100
AcDbVertex
100
AcDb2dVertex
 10
-574.5
 20
-791.0
 30
0.0
  0
VERTEX
  5
1D9
100
AcDbEntity
  8
OBJECT
  6
CONTINUOUS
100
AcDbVertex
100
AcDb2dVertex
 10
-619.5
 20
-791.0
 30
0.0
  0
VERTEX
  5
1DA
100
AcDbEntity
  8
OBJECT
  6
CONTINUOUS
100
AcDbVertex
100
AcDb2dVertex
 10
-619.5
 20
-787.5
 30
0.0
  0
SEQEND
  5
1DB
100
AcDbEntity
  8
OBJECT
  6
CONTINUOUS
  0
LINE
  5
1DC
100
AcDbEntity
  8
OBJECT
  6
CONTINUOUS
100
AcDbLine
 10
-619.5
 20
-787.5
 30
0.0
 11
-574.5
 21
-787.5
 31
0.0
  0
SPLINE
  5
1DD
100
AcDbEntity
  8
OBJECT
  6
CONTINUOUS
100
AcDbSpline
210
0.0
220
0.0
230
1.0
 70
               9
 71
               2
 72
              28
 73
              25
 74
               0
 42
0.000001
 43
0.000001
 40
0.0
 40
0.0
 40
0.0
 40
0.1364451216774349
 40
0.1364451216774349
 40
0.206088985866959
 40
0.206088985866959
 40
0.2868044973790079
 40
0.2868044973790079
 40
0.3351288113064328
 40
0.3351288113064328
 40
0.3436566314112725
 40
0.3436566314112725
 40
0.525583460314519
 40
0.525583460314519
 40
0.6108616613629158
 40
0.6108616613629158
 40
0.7927884902661623
 40
0.7927884902661623
 40
0.8013163103710019
 40
0.8013163103710019
 40
0.8496406242984268
 40
0.8496406242984268
 40
0.9303561358104757
 40
0.9303561358104757
 40
1.0
 40
1.0
 40
1.0
 10
-573.0
 20
-791.0
 30
0.0
 10
-597.0
 20
-791.0
 30
0.0
 10
-621.0
 20
-791.0
 30
0.0
 10
-621.0
 20
-803.25
 30
0.0
 10
-621.0
 20
-815.5
 30
0.0
 10
-621.0
 20
-830.5
 30
0.0
 10
-615.0
 20
-843.0
 30
0.0
 10
-615.0
 20
-851.5
 30
0.0
 10
-615.0
 20
-860.0
 30
0.0
 10
-613.5
 20
-860.0
 30
0.0
 10
-612.0
 20
-860.0
 30
0.0
 10
-612.0
 20
-828.0
 30
0.0
 10
-612.0
 20
-796.0
 30
0.0
 10
-597.0
 20
-796.0
 30
0.0
 10
-582.0
 20
-796.0
 30
0.0
 10
-582.0
 20
-828.0
 30
0.0
 10
-582.0
 20
-860.0
 30
0.0
 10
-580.5
 20
-860.0
 30
0.0
 10
-579.0
 20
-860.0
 30
0.0
 10
-579.0
 20
-851.5
 30
0.0
 10
-579.0
 20
-843.0
 30
0.0
 10
-573.0
 20
-830.5
 30
0.0
 10
-573.0
 20
-815.5
 30
0.0
 10
-573.0
 20
-803.25
 30
0.0
 10
-573.0
 20
-791.0
 30
0.0
  0
POLYLINE
  5
1DE
100
AcDbEntity
  8
OBJECT
  6
CONTINUOUS
100
AcDb2dPolyline
 66
               1
 10
0.0
 20
0.0
 30
0.0
 70
               1
 75
               5
  0
VERTEX
  5
1DF
100
AcDbEntity
  8
OBJECT
  6
CONTINUOUS
100
AcDbVertex
100
AcDb2dVertex
 10
-579.0
 20
-793.0
 30
0.0
  0
VERTEX
  5
1E0
100
AcDbEntity
  8
OBJECT
  6
CONTINUOUS
100
AcDbVertex
100
AcDb2dVertex
 10
-615.0
 20
-793.0
 30
0.0
  0
VERTEX
  5
1E1
100
AcDbEntity
  8
OBJECT
  6
CONTINUOUS
100
AcDbVertex
100
AcDb2dVertex
 10
-615.0
 20
-860.0
 30
0.0
  0
VERTEX
  5
1E2
100
AcDbEntity
  8
OBJECT
  6
CONTINUOUS
100
AcDbVertex
100
AcDb2dVertex
 10
-612.0
 20
-860.0
 30
0.0
  0
VERTEX
  5
1E3
100
AcDbEntity
  8
OBJECT
  6
CONTINUOUS
100
AcDbVertex
100
AcDb2dVertex
 10
-612.0
 20
-796.0
 30
0.0
  0
VERTEX
  5
1E4
100
AcDbEntity
  8
OBJECT
  6
CONTINUOUS
100
AcDbVertex
100
AcDb2dVertex
 10
-582.0
 20
-796.0
 30
0.0
  0
VERTEX
  5
1E5
100
AcDbEntity
  8
OBJECT
  6
CONTINUOUS
100
AcDbVertex
100
AcDb2dVertex
 10
-582.0
 20
-860.0
 30
0.0
  0
VERTEX
  5
1E6
100
AcDbEntity
  8
OBJECT
  6
CONTINUOUS
100
AcDbVertex
100
AcDb2dVertex
 10
-579.0
 20
-860.0
 30
0.0
  0
SEQEND
  5
1E7
100
AcDbEntity
  8
OBJECT
  6
CONTINUOUS
  0
SPLINE
  5
1E8
100
AcDbEntity
  8
OBJECT
  6
CONTINUOUS
100
AcDbSpline
210
0.0
220
0.0
230
1.0
 70
              13
 71
               2
 72
              28
 73
              25
 74
               0
 42
0.000001
 43
0.000001
 40
0.0
 40
0.0
 40
0.0
 40
0.0116664369471645
 40
0.0116664369471645
 40
0.0307673121208423
 40
0.0307673121208423
 40
0.0826383042797583
 40
0.0826383042797583
 40
0.1017391794534362
 40
0.1017391794534362
 40
0.1134056164006018
 40
0.1134056164006018
 40
0.5000000000000003
 40
0.5000000000000003
 40
0.5116664369471643
 40
0.5116664369471643
 40
0.5307673121208422
 40
0.5307673121208422
 40
0.5826383042797582
 40
0.5826383042797582
 40
0.6017391794534359
 40
0.6017391794534359
 40
0.6134056164006005
 40
0.6134056164006005
 40
1.0
 40
1.0
 40
1.0
 10
-584.5
 20
-803.20543822418745
 30
0.0
 41
1.0
 10
-584.5
 20
-801.49999999999977
 30
0.0
 41
0.7609173743274019
 10
-586.18401899778667
 20
-801.23055696035408
 30
0.0
 41
1.0
 10
-588.46700949889328
 20
-800.86527848017704
 30
0.0
 41
1.0
 10
-590.75
 20
-800.5
 30
0.0
 41
1.0
 10
-597.0
 20
-799.5
 30
0.0
 41
1.0
 10
-603.25
 20
-800.5
 30
0.0
 41
1.0
 10
-605.53299050110672
 20
-800.86527848017704
 30
0.0
 41
1.0
 10
-607.81598100221333
 20
-801.23055696035419
 30
0.0
 41
1.0
 10
-609.50000000000011
 20
-801.5
 30
0.0
 41
0.7609173743273865
 10
-609.5
 20
-803.20543822418756
 30
0.0
 41
1.0
 10
-609.5
 20
-850.0
 30
0.0
 41
1.0
 10
-609.5
 20
-896.79456177581244
 30
0.0
 41
1.0
 10
-609.5
 20
-898.5
 30
0.0
 41
0.7609173743274019
 10
-607.81598100221333
 20
-898.76944303964581
 30
0.0
 41
1.0
 10
-605.53299050110672
 20
-899.13472151982296
 30
0.0
 41
1.0
 10
-603.25
 20
-899.5
 30
0.0
 41
1.0
 10
-597.0
 20
-900.5
 30
0.0
 41
1.0
 10
-590.75
 20
-899.5
 30
0.0
 41
1.0
 10
-588.46700949889328
 20
-899.13472151982296
 30
0.0
 41
1.0
 10
-586.18401899778667
 20
-898.76944303964592
 30
0.0
 41
1.0
 10
-584.5
 20
-898.50000000000011
 30
0.0
 41
0.7609173743274202
 10
-584.5
 20
-896.79456177581255
 30
0.0
 41
1.0
 10
-584.5
 20
-850.0
 30
0.0
 41
1.0
 10
-584.5
 20
-803.20543822418745
 30
0.0
 41
1.0
  0
POLYLINE
  5
1E9
100
AcDbEntity
  8
OBJECT
  6
CONTINUOUS
100
AcDb2dPolyline
 66
               1
 10
0.0
 20
0.0
 30
0.0
 70
               1
 75
               5
  0
VERTEX
  5
1EA
100
AcDbEntity
  8
OBJECT
  6
CONTINUOUS
100
AcDbVertex
100
AcDb2dVertex
 10
-612.0
 20
-841.75
 30
0.0
  0
VERTEX
  5
1EB
100
AcDbEntity
  8
OBJECT
  6
CONTINUOUS
100
AcDbVertex
100
AcDb2dVertex
 10
-609.5
 20
-841.75
 30
0.0
  0
VERTEX
  5
1EC
100
AcDbEntity
  8
OBJECT
  6
CONTINUOUS
100
AcDbVertex
100
AcDb2dVertex
 10
-609.5
 20
-858.25
 30
0.0
  0
VERTEX
  5
1ED
100
AcDbEntity
  8
OBJECT
  6
CONTINUOUS
100
AcDbVertex
100
AcDb2dVertex
 10
-612.0
 20
-858.25
 30
0.0
  0
SEQEND
  5
1EE
100
AcDbEntity
  8
OBJECT
  6
CONTINUOUS
  0
POLYLINE
  5
1EF
100
AcDbEntity
  8
OBJECT
  6
CONTINUOUS
100
AcDb2dPolyline
 66
               1
 10
0.0
 20
0.0
 30
0.0
 70
               1
 75
               5
  0
VERTEX
  5
1F0
100
AcDbEntity
  8
OBJECT
  6
CONTINUOUS
100
AcDbVertex
100
AcDb2dVertex
 10
-584.5
 20
-841.75
 30
0.0
  0
VERTEX
  5
1F1
100
AcDbEntity
  8
OBJECT
  6
CONTINUOUS
100
AcDbVertex
100
AcDb2dVertex
 10
-582.0
 20
-841.75
 30
0.0
  0
VERTEX
  5
1F2
100
AcDbEntity
  8
OBJECT
  6
CONTINUOUS
100
AcDbVertex
100
AcDb2dVertex
 10
-582.0
 20
-858.25
 30
0.0
  0
VERTEX
  5
1F3
100
AcDbEntity
  8
OBJECT
  6
CONTINUOUS
100
AcDbVertex
100
AcDb2dVertex
 10
-584.5
 20
-858.25
 30
0.0
  0
SEQEND
  5
1F4
100
AcDbEntity
  8
OBJECT
  6
CONTINUOUS
  0
POLYLINE
  5
1F5
100
AcDbEntity
  8
OBJECT
  6
CONTINUOUS
100
AcDb2dPolyline
 66
               1
 10
0.0
 20
0.0
 30
0.0
 70
               1
 75
               5
  0
VERTEX
  5
1F6
100
AcDbEntity
  8
OBJECT
  6
CONTINUOUS
100
AcDbVertex
100
AcDb2dVertex
 10
-579.0
 20
-844.5
 30
0.0
  0
VERTEX
  5
1F7
100
AcDbEntity
  8
OBJECT
  6
CONTINUOUS
100
AcDbVertex
100
AcDb2dVertex
 10
-576.5
 20
-844.5
 30
0.0
  0
VERTEX
  5
1F8
100
AcDbEntity
  8
OBJECT
  6
CONTINUOUS
100
AcDbVertex
100
AcDb2dVertex
 10
-576.5
 20
-855.5
 30
0.0
  0
VERTEX
  5
1F9
100
AcDbEntity
  8
OBJECT
  6
CONTINUOUS
100
AcDbVertex
100
AcDb2dVertex
 10
-579.0
 20
-855.5
 30
0.0
  0
SEQEND
  5
1FA
100
AcDbEntity
  8
OBJECT
  6
CONTINUOUS
  0
POLYLINE
  5
1FB
100
AcDbEntity
  8
OBJECT
  6
CONTINUOUS
100
AcDb2dPolyline
 66
               1
 10
0.0
 20
0.0
 30
0.0
 70
               1
 75
               5
  0
VERTEX
  5
1FC
100
AcDbEntity
  8
OBJECT
  6
CONTINUOUS
100
AcDbVertex
100
AcDb2dVertex
 10
-617.5
 20
-844.5
 30
0.0
  0
VERTEX
  5
1FD
100
AcDbEntity
  8
OBJECT
  6
CONTINUOUS
100
AcDbVertex
100
AcDb2dVertex
 10
-615.0
 20
-844.5
 30
0.0
  0
VERTEX
  5
1FE
100
AcDbEntity
  8
OBJECT
  6
CONTINUOUS
100
AcDbVertex
100
AcDb2dVertex
 10
-615.0
 20
-855.5
 30
0.0
  0
VERTEX
  5
1FF
100
AcDbEntity
  8
OBJECT
  6
CONTINUOUS
100
AcDbVertex
100
AcDb2dVertex
 10
-617.5
 20
-855.5
 30
0.0
  0
SEQEND
  5
200
100
AcDbEntity
  8
OBJECT
  6
CONTINUOUS
  0
POLYLINE
  5
201
100
AcDbEntity
  8
OBJECT
  6
CONTINUOUS
100
AcDb2dPolyline
 66
               1
 10
0.0
 20
0.0
 30
0.0
 70
               1
 75
               5
  0
VERTEX
  5
202
100
AcDbEntity
  8
OBJECT
  6
CONTINUOUS
100
AcDbVertex
100
AcDb2dVertex
 10
-617.5
 20
-837.5
 30
0.0
  0
VERTEX
  5
203
100
AcDbEntity
  8
OBJECT
  6
CONTINUOUS
100
AcDbVertex
100
AcDb2dVertex
 10
-617.5
 20
-862.5
 30
0.0
  0
VERTEX
  5
204
100
AcDbEntity
  8
OBJECT
  6
CONTINUOUS
100
AcDbVertex
100
AcDb2dVertex
 10
-620.5
 20
-862.5
 30
0.0
  0
VERTEX
  5
205
100
AcDbEntity
  8
OBJECT
  6
CONTINUOUS
100
AcDbVertex
100
AcDb2dVertex
 10
-620.5
 20
-840.5
 30
0.0
  0
VERTEX
  5
206
100
AcDbEntity
  8
OBJECT
  6
CONTINUOUS
100
AcDbVertex
100
AcDb2dVertex
 10
-637.5
 20
-840.5
 30
0.0
  0
VERTEX
  5
207
100
AcDbEntity
  8
OBJECT
  6
CONTINUOUS
100
AcDbVertex
100
AcDb2dVertex
 10
-637.5
 20
-837.5
 30
0.0
  0
SEQEND
  5
208
100
AcDbEntity
  8
OBJECT
  6
CONTINUOUS
  0
LINE
  5
209
100
AcDbEntity
  8
OBJECT
  6
CONTINUOUS
100
AcDbLine
 10
-635.5
 20
-848.5
 30
0.0
 11
-620.5
 21
-848.5
 31
0.0
  0
ARC
  5
20A
100
AcDbEntity
  8
OBJECT
  6
CONTINUOUS
100
AcDbCircle
 10
-635.5
 20
-850.5
 30
0.0
 40
2.0
100
AcDbArc
 50
90.0
 51
180.0
  0
POLYLINE
  5
20B
100
AcDbEntity
  8
OBJECT
  6
CONTINUOUS
100
AcDb2dPolyline
 66
               1
 10
0.0
 20
0.0
 30
0.0
 70
               1
 75
               5
  0
VERTEX
  5
20C
100
AcDbEntity
  8
OBJECT
  6
CONTINUOUS
100
AcDbVertex
100
AcDb2dVertex
 10
-1050.0
 20
-779.0
 30
0.0
  0
VERTEX
  5
20D
100
AcDbEntity
  8
OBJECT
  6
CONTINUOUS
100
AcDbVertex
100
AcDb2dVertex
 10
-550.0
 20
-779.0
 30
0.0
  0
VERTEX
  5
20E
100
AcDbEntity
  8
OBJECT
  6
CONTINUOUS
100
AcDbVertex
100
AcDb2dVertex
 10
-550.0
 20
-781.0
 30
0.0
  0
VERTEX
  5
20F
100
AcDbEntity
  8
OBJECT
  6
CONTINUOUS
100
AcDbVertex
100
AcDb2dVertex
 10
-1050.0
 20
-781.0
 30
0.0
  0
SEQEND
  5
210
100
AcDbEntity
  8
OBJECT
  6
CONTINUOUS
  0
POLYLINE
  5
211
100
AcDbEntity
  8
OBJECT
  6
CONTINUOUS
100
AcDb2dPolyline
 66
               1
 10
0.0
 20
0.0
 30
0.0
 70
               1
 75
               5
  0
VERTEX
  5
212
100
AcDbEntity
  8
OBJECT
  6
CONTINUOUS
100
AcDbVertex
100
AcDb2dVertex
 10
-1010.0
 20
-69.0
 30
0.0
  0
VERTEX
  5
213
100
AcDbEntity
  8
OBJECT
  6
CONTINUOUS
100
AcDbVertex
100
AcDb2dVertex
 10
-590.0
 20
-69.0
 30
0.0
  0
VERTEX
  5
214
100
AcDbEntity
  8
OBJECT
  6
CONTINUOUS
100
AcDbVertex
100
AcDb2dVertex
 10
-590.0
 20
-99.0
 30
0.0
  0
VERTEX
  5
215
100
AcDbEntity
  8
OBJECT
  6
CONTINUOUS
100
AcDbVertex
100
AcDb2dVertex
 10
-1010.0
 20
-99.0
 30
0.0
  0
SEQEND
  5
216
100
AcDbEntity
  8
OBJECT
  6
CONTINUOUS
  0
LINE
  5
217
100
AcDbEntity
  8
OBJECT
  6
CONTINUOUS
100
AcDbLine
 10
-1010.0
 20
-99.0
 30
0.0
 11
-1010.0
 21
-779.0
 31
0.0
  0
LINE
  5
218
100
AcDbEntity
  8
OBJECT
  6
CONTINUOUS
100
AcDbLine
 10
-590.0
 20
-99.0
 30
0.0
 11
-590.0
 21
-779.0
 31
0.0
  0
INSERT
  5
219
100
AcDbEntity
  8
OBJECT
100
AcDbBlockReference
  2
*U8
 10
0.0
 20
19.999999999999996
 30
0.0
  0
INSERT
  5
21A
100
AcDbEntity
  8
OBJECT
100
AcDbBlockReference
  2
*U9
 10
0.0
 20
19.999999999999996
 30
0.0
  0
INSERT
  5
21B
100
AcDbEntity
  8
OBJECT
100
AcDbBlockReference
  2
*U10
 10
0.0
 20
19.999999999999996
 30
0.0
  0
LINE
  5
21C
100
AcDbEntity
  8
CENTER
  6
STYLE_03
100
AcDbLine
 10
-500.0
 20
700.0
 30
0.0
 11
-1100.0
 21
700.0
 31
0.0
  0
POLYLINE
  5
21D
100
AcDbEntity
  8
OBJECT
  6
CONTINUOUS
100
AcDb2dPolyline
 66
               1
 10
0.0
 20
0.0
 30
0.0
 70
               1
 75
               5
  0
VERTEX
  5
21E
100
AcDbEntity
  8
OBJECT
  6
CONTINUOUS
100
AcDbVertex
100
AcDb2dVertex
 10
-590.0
 20
910.0
 30
0.0
  0
VERTEX
  5
21F
100
AcDbEntity
  8
OBJECT
  6
CONTINUOUS
100
AcDbVertex
100
AcDb2dVertex
 10
-550.0
 20
910.0
 30
0.0
  0
VERTEX
  5
220
100
AcDbEntity
  8
OBJECT
  6
CONTINUOUS
100
AcDbVertex
100
AcDb2dVertex
 10
-550.0
 20
490.0
 30
0.0
  0
VERTEX
  5
221
100
AcDbEntity
  8
OBJECT
  6
CONTINUOUS
100
AcDbVertex
100
AcDb2dVertex
 10
-590.0
 20
490.0
 30
0.0
  0
SEQEND
  5
222
100
AcDbEntity
  8
OBJECT
  6
CONTINUOUS
  0
POLYLINE
  5
223
100
AcDbEntity
  8
OBJECT
  6
CONTINUOUS
100
AcDb2dPolyline
 66
               1
 10
0.0
 20
0.0
 30
0.0
 70
               1
 75
               5
  0
VERTEX
  5
224
100
AcDbEntity
  8
OBJECT
  6
CONTINUOUS
100
AcDbVertex
100
AcDb2dVertex
 10
-621.0
 20
888.0
 30
0.0
  0
VERTEX
  5
225
100
AcDbEntity
  8
OBJECT
  6
CONTINUOUS
100
AcDbVertex
100
AcDb2dVertex
 10
-606.0
 20
873.0
 30
0.0
  0
VERTEX
  5
226
100
AcDbEntity
  8
OBJECT
  6
CONTINUOUS
100
AcDbVertex
100
AcDb2dVertex
 10
-606.0
 20
737.0
 30
0.0
  0
VERTEX
  5
227
100
AcDbEntity
  8
OBJECT
  6
CONTINUOUS
100
AcDbVertex
100
AcDb2dVertex
 10
-621.0
 20
722.0
 30
0.0
  0
VERTEX
  5
228
100
AcDbEntity
  8
OBJECT
  6
CONTINUOUS
100
AcDbVertex
100
AcDb2dVertex
 10
-753.0
 20
722.0
 30
0.0
  0
VERTEX
  5
229
100
AcDbEntity
  8
OBJECT
  6
CONTINUOUS
100
AcDbVertex
100
AcDb2dVertex
 10
-768.0
 20
737.0
 30
0.0
  0
VERTEX
  5
22A
100
AcDbEntity
  8
OBJECT
  6
CONTINUOUS
100
AcDbVertex
100
AcDb2dVertex
 10
-768.0
 20
873.0
 30
0.0
  0
VERTEX
  5
22B
100
AcDbEntity
  8
OBJECT
  6
CONTINUOUS
100
AcDbVertex
100
AcDb2dVertex
 10
-753.0
 20
888.0
 30
0.0
  0
SEQEND
  5
22C
100
AcDbEntity
  8
OBJECT
  6
CONTINUOUS
  0
POLYLINE
  5
22D
100
AcDbEntity
  8
OBJECT
  6
CONTINUOUS
100
AcDb2dPolyline
 66
               1
 10
0.0
 20
0.0
 30
0.0
 70
               1
 75
               5
  0
VERTEX
  5
22E
100
AcDbEntity
  8
OBJECT
  6
CONTINUOUS
100
AcDbVertex
100
AcDb2dVertex
 10
-621.0
 20
678.0
 30
0.0
  0
VERTEX
  5
22F
100
AcDbEntity
  8
OBJECT
  6
CONTINUOUS
100
AcDbVertex
100
AcDb2dVertex
 10
-606.0
 20
663.0
 30
0.0
  0
VERTEX
  5
230
100
AcDbEntity
  8
OBJECT
  6
CONTINUOUS
100
AcDbVertex
100
AcDb2dVertex
 10
-606.0
 20
527.0
 30
0.0
  0
VERTEX
  5
231
100
AcDbEntity
  8
OBJECT
  6
CONTINUOUS
100
AcDbVertex
100
AcDb2dVertex
 10
-621.0
 20
512.0
 30
0.0
  0
VERTEX
  5
232
100
AcDbEntity
  8
OBJECT
  6
CONTINUOUS
100
AcDbVertex
100
AcDb2dVertex
 10
-753.0
 20
512.0
 30
0.0
  0
VERTEX
  5
233
100
AcDbEntity
  8
OBJECT
  6
CONTINUOUS
100
AcDbVertex
100
AcDb2dVertex
 10
-768.0
 20
527.0
 30
0.0
  0
VERTEX
  5
234
100
AcDbEntity
  8
OBJECT
  6
CONTINUOUS
100
AcDbVertex
100
AcDb2dVertex
 10
-768.0
 20
663.0
 30
0.0
  0
VERTEX
  5
235
100
AcDbEntity
  8
OBJECT
  6
CONTINUOUS
100
AcDbVertex
100
AcDb2dVertex
 10
-753.0
 20
678.0
 30
0.0
  0
SEQEND
  5
236
100
AcDbEntity
  8
OBJECT
  6
CONTINUOUS
  0
POLYLINE
  5
237
100
AcDbEntity
  8
OBJECT
  6
CONTINUOUS
100
AcDb2dPolyline
 66
               1
 10
0.0
 20
0.0
 30
0.0
 70
               1
 75
               5
  0
VERTEX
  5
238
100
AcDbEntity
  8
OBJECT
  6
CONTINUOUS
100
AcDbVertex
100
AcDb2dVertex
 10
-1010.0
 20
912.0
 30
0.0
  0
VERTEX
  5
239
100
AcDbEntity
  8
OBJECT
  6
CONTINUOUS
100
AcDbVertex
100
AcDb2dVertex
 10
-590.0
 20
912.0
 30
0.0
  0
VERTEX
  5
23A
100
AcDbEntity
  8
OBJECT
  6
CONTINUOUS
100
AcDbVertex
100
AcDb2dVertex
 10
-590.0
 20
910.0
 30
0.0
  0
VERTEX
  5
23B
100
AcDbEntity
  8
OBJECT
  6
CONTINUOUS
100
AcDbVertex
100
AcDb2dVertex
 10
-1010.0
 20
910.0
 30
0.0
  0
SEQEND
  5
23C
100
AcDbEntity
  8
OBJECT
  6
CONTINUOUS
  0
POLYLINE
  5
23D
100
AcDbEntity
  8
OBJECT
  6
CONTINUOUS
100
AcDb2dPolyline
 66
               1
 10
0.0
 20
0.0
 30
0.0
 70
               1
 75
               5
  0
VERTEX
  5
23E
100
AcDbEntity
  8
OBJECT
  6
CONTINUOUS
100
AcDbVertex
100
AcDb2dVertex
 10
-1010.0
 20
490.0
 30
0.0
  0
VERTEX
  5
23F
100
AcDbEntity
  8
OBJECT
  6
CONTINUOUS
100
AcDbVertex
100
AcDb2dVertex
 10
-590.0
 20
490.0
 30
0.0
  0
VERTEX
  5
240
100
AcDbEntity
  8
OBJECT
  6
CONTINUOUS
100
AcDbVertex
100
AcDb2dVertex
 10
-590.0
 20
488.0
 30
0.0
  0
VERTEX
  5
241
100
AcDbEntity
  8
OBJECT
  6
CONTINUOUS
100
AcDbVertex
100
AcDb2dVertex
 10
-1010.0
 20
488.0
 30
0.0
  0
SEQEND
  5
242
100
AcDbEntity
  8
OBJECT
  6
CONTINUOUS
  0
POLYLINE
  5
243
100
AcDbEntity
  8
OBJECT
  6
CONTINUOUS
100
AcDb2dPolyline
 66
               1
 10
0.0
 20
0.0
 30
0.0
 70
               1
 75
               5
  0
VERTEX
  5
244
100
AcDbEntity
  8
OBJECT
  6
CONTINUOUS
100
AcDbVertex
100
AcDb2dVertex
 10
-1050.0
 20
909.0
 30
0.0
  0
VERTEX
  5
245
100
AcDbEntity
  8
OBJECT
  6
CONTINUOUS
100
AcDbVertex
100
AcDb2dVertex
 10
-1010.0
 20
909.0
 30
0.0
  0
VERTEX
  5
246
100
AcDbEntity
  8
OBJECT
  6
CONTINUOUS
100
AcDbVertex
100
AcDb2dVertex
 10
-1010.0
 20
489.0
 30
0.0
  0
VERTEX
  5
247
100
AcDbEntity
  8
OBJECT
  6
CONTINUOUS
100
AcDbVertex
100
AcDb2dVertex
 10
-1050.0
 20
489.0
 30
0.0
  0
SEQEND
  5
248
100
AcDbEntity
  8
OBJECT
  6
CONTINUOUS
  0
POLYLINE
  5
249
100
AcDbEntity
  8
OBJECT
  6
CONTINUOUS
100
AcDb2dPolyline
 66
               1
 10
0.0
 20
0.0
 30
0.0
 70
               1
 75
               5
  0
VERTEX
  5
24A
100
AcDbEntity
  8
OBJECT
  6
CONTINUOUS
100
AcDbVertex
100
AcDb2dVertex
 10
-979.0
 20
887.0
 30
0.0
  0
VERTEX
  5
24B
100
AcDbEntity
  8
OBJECT
  6
CONTINUOUS
100
AcDbVertex
100
AcDb2dVertex
 10
-994.0
 20
872.0
 30
0.0
  0
VERTEX
  5
24C
100
AcDbEntity
  8
OBJECT
  6
CONTINUOUS
100
AcDbVertex
100
AcDb2dVertex
 10
-994.0
 20
736.0
 30
0.0
  0
VERTEX
  5
24D
100
AcDbEntity
  8
OBJECT
  6
CONTINUOUS
100
AcDbVertex
100
AcDb2dVertex
 10
-979.0
 20
721.0
 30
0.0
  0
VERTEX
  5
24E
100
AcDbEntity
  8
OBJECT
  6
CONTINUOUS
100
AcDbVertex
100
AcDb2dVertex
 10
-847.0
 20
721.0
 30
0.0
  0
VERTEX
  5
24F
100
AcDbEntity
  8
OBJECT
  6
CONTINUOUS
100
AcDbVertex
100
AcDb2dVertex
 10
-832.0
 20
736.0
 30
0.0
  0
VERTEX
  5
250
100
AcDbEntity
  8
OBJECT
  6
CONTINUOUS
100
AcDbVertex
100
AcDb2dVertex
 10
-832.0
 20
872.0
 30
0.0
  0
VERTEX
  5
251
100
AcDbEntity
  8
OBJECT
  6
CONTINUOUS
100
AcDbVertex
100
AcDb2dVertex
 10
-847.0
 20
887.0
 30
0.0
  0
SEQEND
  5
252
100
AcDbEntity
  8
OBJECT
  6
CONTINUOUS
  0
POLYLINE
  5
253
100
AcDbEntity
  8
OBJECT
  6
CONTINUOUS
100
AcDb2dPolyline
 66
               1
 10
0.0
 20
0.0
 30
0.0
 70
               1
 75
               5
  0
VERTEX
  5
254
100
AcDbEntity
  8
OBJECT
  6
CONTINUOUS
100
AcDbVertex
100
AcDb2dVertex
 10
-979.0
 20
677.0
 30
0.0
  0
VERTEX
  5
255
100
AcDbEntity
  8
OBJECT
  6
CONTINUOUS
100
AcDbVertex
100
AcDb2dVertex
 10
-994.0
 20
662.0
 30
0.0
  0
VERTEX
  5
256
100
AcDbEntity
  8
OBJECT
  6
CONTINUOUS
100
AcDbVertex
100
AcDb2dVertex
 10
-994.0
 20
526.0
 30
0.0
  0
VERTEX
  5
257
100
AcDbEntity
  8
OBJECT
  6
CONTINUOUS
100
AcDbVertex
100
AcDb2dVertex
 10
-979.0
 20
511.0
 30
0.0
  0
VERTEX
  5
258
100
AcDbEntity
  8
OBJECT
  6
CONTINUOUS
100
AcDbVertex
100
AcDb2dVertex
 10
-847.0
 20
511.0
 30
0.0
  0
VERTEX
  5
259
100
AcDbEntity
  8
OBJECT
  6
CONTINUOUS
100
AcDbVertex
100
AcDb2dVertex
 10
-832.0
 20
526.0
 30
0.0
  0
VERTEX
  5
25A
100
AcDbEntity
  8
OBJECT
  6
CONTINUOUS
100
AcDbVertex
100
AcDb2dVertex
 10
-832.0
 20
662.0
 30
0.0
  0
VERTEX
  5
25B
100
AcDbEntity
  8
OBJECT
  6
CONTINUOUS
100
AcDbVertex
100
AcDb2dVertex
 10
-847.0
 20
677.0
 30
0.0
  0
SEQEND
  5
25C
100
AcDbEntity
  8
OBJECT
  6
CONTINUOUS
  0
POLYLINE
  5
25D
100
AcDbEntity
  8
OBJECT
  6
CONTINUOUS
100
AcDb2dPolyline
 66
               1
 10
0.0
 20
0.0
 30
0.0
 70
               1
 75
               5
  0
VERTEX
  5
25E
100
AcDbEntity
  8
OBJECT
  6
CONTINUOUS
100
AcDbVertex
100
AcDb2dVertex
 10
-801.0
 20
910.0
 30
0.0
  0
VERTEX
  5
25F
100
AcDbEntity
  8
OBJECT
  6
CONTINUOUS
100
AcDbVertex
100
AcDb2dVertex
 10
-799.0
 20
910.0
 30
0.0
  0
VERTEX
  5
260
100
AcDbEntity
  8
OBJECT
  6
CONTINUOUS
100
AcDbVertex
100
AcDb2dVertex
 10
-799.0
 20
490.0
 30
0.0
  0
VERTEX
  5
261
100
AcDbEntity
  8
OBJECT
  6
CONTINUOUS
100
AcDbVertex
100
AcDb2dVertex
 10
-801.0
 20
490.0
 30
0.0
  0
SEQEND
  5
262
100
AcDbEntity
  8
OBJECT
  6
CONTINUOUS
  0
POLYLINE
  5
263
100
AcDbEntity
  8
OBJECT
  6
CONTINUOUS
100
AcDb2dPolyline
 66
               1
 10
0.0
 20
0.0
 30
0.0
 75
               5
  0
VERTEX
  5
264
100
AcDbEntity
  8
OBJECT
  6
CONTINUOUS
100
AcDbVertex
100
AcDb2dVertex
 10
-799.0
 20
701.0
 30
0.0
  0
VERTEX
  5
265
100
AcDbEntity
  8
OBJECT
  6
CONTINUOUS
100
AcDbVertex
100
AcDb2dVertex
 10
-590.0
 20
701.0
 30
0.0
  0
VERTEX
  5
266
100
AcDbEntity
  8
OBJECT
  6
CONTINUOUS
100
AcDbVertex
100
AcDb2dVertex
 10
-590.0
 20
699.0
 30
0.0
  0
VERTEX
  5
267
100
AcDbEntity
  8
OBJECT
  6
CONTINUOUS
100
AcDbVertex
100
AcDb2dVertex
 10
-799.0
 20
699.0
 30
0.0
  0
SEQEND
  5
268
100
AcDbEntity
  8
OBJECT
  6
CONTINUOUS
  0
POLYLINE
  5
269
100
AcDbEntity
  8
OBJECT
  6
CONTINUOUS
100
AcDb2dPolyline
 66
               1
 10
0.0
 20
0.0
 30
0.0
 75
               5
  0
VERTEX
  5
26A
100
AcDbEntity
  8
OBJECT
  6
CONTINUOUS
100
AcDbVertex
100
AcDb2dVertex
 10
-801.0
 20
701.0
 30
0.0
  0
VERTEX
  5
26B
100
AcDbEntity
  8
OBJECT
  6
CONTINUOUS
100
AcDbVertex
100
AcDb2dVertex
 10
-1010.0
 20
701.0
 30
0.0
  0
VERTEX
  5
26C
100
AcDbEntity
  8
OBJECT
  6
CONTINUOUS
100
AcDbVertex
100
AcDb2dVertex
 10
-1010.0
 20
699.0
 30
0.0
  0
VERTEX
  5
26D
100
AcDbEntity
  8
OBJECT
  6
CONTINUOUS
100
AcDbVertex
100
AcDb2dVertex
 10
-801.0
 20
699.0
 30
0.0
  0
SEQEND
  5
26E
100
AcDbEntity
  8
OBJECT
  6
CONTINUOUS
  0
LINE
  5
26F
100
AcDbEntity
  8
CENTER
  6
STYLE_03
100
AcDbLine
 10
-800.0
 20
950.0
 30
0.0
 11
-800.0
 21
450.0
 31
0.0
  0
POLYLINE
  5
270
100
AcDbEntity
  8
OBJECT
  6
CONTINUOUS
100
AcDb2dPolyline
 66
               1
 10
0.0
 20
0.0
 30
0.0
 75
               5
  0
VERTEX
  5
271
100
AcDbEntity
  8
OBJECT
  6
CONTINUOUS
100
AcDbVertex
100
AcDb2dVertex
 10
-982.0
 20
884.0
 30
0.0
  0
VERTEX
  5
272
100
AcDbEntity
  8
OBJECT
  6
CONTINUOUS
100
AcDbVertex
100
AcDb2dVertex
 10
-1010.0
 20
884.0
 30
0.0
  0
VERTEX
  5
273
100
AcDbEntity
  8
OBJECT
  6
CONTINUOUS
100
AcDbVertex
100
AcDb2dVertex
 10
-1010.0
 20
886.0
 30
0.0
  0
VERTEX
  5
274
100
AcDbEntity
  8
OBJECT
  6
CONTINUOUS
100
AcDbVertex
100
AcDb2dVertex
 10
-980.0
 20
886.0
 30
0.0
  0
SEQEND
  5
275
100
AcDbEntity
  8
OBJECT
  6
CONTINUOUS
  0
POLYLINE
  5
276
100
AcDbEntity
  8
OBJECT
  6
CONTINUOUS
100
AcDb2dPolyline
 66
               1
 10
0.0
 20
0.0
 30
0.0
 75
               5
  0
VERTEX
  5
277
100
AcDbEntity
  8
OBJECT
  6
CONTINUOUS
100
AcDbVertex
100
AcDb2dVertex
 10
-982.0
 20
724.0
 30
0.0
  0
VERTEX
  5
278
100
AcDbEntity
  8
OBJECT
  6
CONTINUOUS
100
AcDbVertex
100
AcDb2dVertex
 10
-1010.0
 20
724.0
 30
0.0
  0
VERTEX
  5
279
100
AcDbEntity
  8
OBJECT
  6
CONTINUOUS
100
AcDbVertex
100
AcDb2dVertex
 10
-1010.0
 20
722.0
 30
0.0
  0
VERTEX
  5
27A
100
AcDbEntity
  8
OBJECT
  6
CONTINUOUS
100
AcDbVertex
100
AcDb2dVertex
 10
-980.0
 20
722.0
 30
0.0
  0
SEQEND
  5
27B
100
AcDbEntity
  8
OBJECT
  6
CONTINUOUS
  0
POLYLINE
  5
27C
100
AcDbEntity
  8
OBJECT
  6
CONTINUOUS
100
AcDb2dPolyline
 66
               1
 10
0.0
 20
0.0
 30
0.0
 75
               5
  0
VERTEX
  5
27D
100
AcDbEntity
  8
OBJECT
  6
CONTINUOUS
100
AcDbVertex
100
AcDb2dVertex
 10
-982.0
 20
674.0
 30
0.0
  0
VERTEX
  5
27E
100
AcDbEntity
  8
OBJECT
  6
CONTINUOUS
100
AcDbVertex
100
AcDb2dVertex
 10
-1010.0
 20
674.0
 30
0.0
  0
VERTEX
  5
27F
100
AcDbEntity
  8
OBJECT
  6
CONTINUOUS
100
AcDbVertex
100
AcDb2dVertex
 10
-1010.0
 20
676.0
 30
0.0
  0
VERTEX
  5
280
100
AcDbEntity
  8
OBJECT
  6
CONTINUOUS
100
AcDbVertex
100
AcDb2dVertex
 10
-980.0
 20
676.0
 30
0.0
  0
SEQEND
  5
281
100
AcDbEntity
  8
OBJECT
  6
CONTINUOUS
  0
POLYLINE
  5
282
100
AcDbEntity
  8
OBJECT
  6
CONTINUOUS
100
AcDb2dPolyline
 66
               1
 10
0.0
 20
0.0
 30
0.0
 75
               5
  0
VERTEX
  5
283
100
AcDbEntity
  8
OBJECT
  6
CONTINUOUS
100
AcDbVertex
100
AcDb2dVertex
 10
-982.0
 20
514.0
 30
0.0
  0
VERTEX
  5
284
100
AcDbEntity
  8
OBJECT
  6
CONTINUOUS
100
AcDbVertex
100
AcDb2dVertex
 10
-1010.0
 20
514.0
 30
0.0
  0
VERTEX
  5
285
100
AcDbEntity
  8
OBJECT
  6
CONTINUOUS
100
AcDbVertex
100
AcDb2dVertex
 10
-1010.0
 20
512.0
 30
0.0
  0
VERTEX
  5
286
100
AcDbEntity
  8
OBJECT
  6
CONTINUOUS
100
AcDbVertex
100
AcDb2dVertex
 10
-980.0
 20
512.0
 30
0.0
  0
SEQEND
  5
287
100
AcDbEntity
  8
OBJECT
  6
CONTINUOUS
  0
POLYLINE
  5
288
100
AcDbEntity
  8
OBJECT
  6
CONTINUOUS
100
AcDb2dPolyline
 66
               1
 10
0.0
 20
0.0
 30
0.0
 75
               5
  0
VERTEX
  5
289
100
AcDbEntity
  8
OBJECT
  6
CONTINUOUS
100
AcDbVertex
100
AcDb2dVertex
 10
-618.0
 20
515.0
 30
0.0
  0
VERTEX
  5
28A
100
AcDbEntity
  8
OBJECT
  6
CONTINUOUS
100
AcDbVertex
100
AcDb2dVertex
 10
-590.0
 20
515.0
 30
0.0
  0
VERTEX
  5
28B
100
AcDbEntity
  8
OBJECT
  6
CONTINUOUS
100
AcDbVertex
100
AcDb2dVertex
 10
-590.0
 20
513.0
 30
0.0
  0
VERTEX
  5
28C
100
AcDbEntity
  8
OBJECT
  6
CONTINUOUS
100
AcDbVertex
100
AcDb2dVertex
 10
-620.0
 20
513.0
 30
0.0
  0
SEQEND
  5
28D
100
AcDbEntity
  8
OBJECT
  6
CONTINUOUS
  0
POLYLINE
  5
28E
100
AcDbEntity
  8
OBJECT
  6
CONTINUOUS
100
AcDb2dPolyline
 66
               1
 10
0.0
 20
0.0
 30
0.0
 75
               5
  0
VERTEX
  5
28F
100
AcDbEntity
  8
OBJECT
  6
CONTINUOUS
100
AcDbVertex
100
AcDb2dVertex
 10
-618.0
 20
675.0
 30
0.0
  0
VERTEX
  5
290
100
AcDbEntity
  8
OBJECT
  6
CONTINUOUS
100
AcDbVertex
100
AcDb2dVertex
 10
-590.0
 20
675.0
 30
0.0
  0
VERTEX
  5
291
100
AcDbEntity
  8
OBJECT
  6
CONTINUOUS
100
AcDbVertex
100
AcDb2dVertex
 10
-590.0
 20
677.0
 30
0.0
  0
VERTEX
  5
292
100
AcDbEntity
  8
OBJECT
  6
CONTINUOUS
100
AcDbVertex
100
AcDb2dVertex
 10
-620.0
 20
677.0
 30
0.0
  0
SEQEND
  5
293
100
AcDbEntity
  8
OBJECT
  6
CONTINUOUS
  0
POLYLINE
  5
294
100
AcDbEntity
  8
OBJECT
  6
CONTINUOUS
100
AcDb2dPolyline
 66
               1
 10
0.0
 20
0.0
 30
0.0
 75
               5
  0
VERTEX
  5
295
100
AcDbEntity
  8
OBJECT
  6
CONTINUOUS
100
AcDbVertex
100
AcDb2dVertex
 10
-618.0
 20
725.0
 30
0.0
  0
VERTEX
  5
296
100
AcDbEntity
  8
OBJECT
  6
CONTINUOUS
100
AcDbVertex
100
AcDb2dVertex
 10
-590.0
 20
725.0
 30
0.0
  0
VERTEX
  5
297
100
AcDbEntity
  8
OBJECT
  6
CONTINUOUS
100
AcDbVertex
100
AcDb2dVertex
 10
-590.0
 20
723.0
 30
0.0
  0
VERTEX
  5
298
100
AcDbEntity
  8
OBJECT
  6
CONTINUOUS
100
AcDbVertex
100
AcDb2dVertex
 10
-620.0
 20
723.0
 30
0.0
  0
SEQEND
  5
299
100
AcDbEntity
  8
OBJECT
  6
CONTINUOUS
  0
POLYLINE
  5
29A
100
AcDbEntity
  8
OBJECT
  6
CONTINUOUS
100
AcDb2dPolyline
 66
               1
 10
0.0
 20
0.0
 30
0.0
 75
               5
  0
VERTEX
  5
29B
100
AcDbEntity
  8
OBJECT
  6
CONTINUOUS
100
AcDbVertex
100
AcDb2dVertex
 10
-618.0
 20
885.0
 30
0.0
  0
VERTEX
  5
29C
100
AcDbEntity
  8
OBJECT
  6
CONTINUOUS
100
AcDbVertex
100
AcDb2dVertex
 10
-590.0
 20
885.0
 30
0.0
  0
VERTEX
  5
29D
100
AcDbEntity
  8
OBJECT
  6
CONTINUOUS
100
AcDbVertex
100
AcDb2dVertex
 10
-590.0
 20
887.0
 30
0.0
  0
VERTEX
  5
29E
100
AcDbEntity
  8
OBJECT
  6
CONTINUOUS
100
AcDbVertex
100
AcDb2dVertex
 10
-620.0
 20
887.0
 30
0.0
  0
SEQEND
  5
29F
100
AcDbEntity
  8
OBJECT
  6
CONTINUOUS
  0
POLYLINE
  5
2A0
100
AcDbEntity
  8
OBJECT
  6
CONTINUOUS
100
AcDb2dPolyline
 66
               1
 10
0.0
 20
0.0
 30
0.0
 75
               5
  0
VERTEX
  5
2A1
100
AcDbEntity
  8
OBJECT
  6
CONTINUOUS
100
AcDbVertex
100
AcDb2dVertex
 10
-1010.0
 20
-69.0
 30
0.0
  0
VERTEX
  5
2A2
100
AcDbEntity
  8
OBJECT
  6
CONTINUOUS
100
AcDbVertex
100
AcDb2dVertex
 10
-1050.0
 20
-69.0
 30
0.0
  0
VERTEX
  5
2A3
100
AcDbEntity
  8
OBJECT
  6
CONTINUOUS
100
AcDbVertex
100
AcDb2dVertex
 10
-1050.0
 20
-744.0
 30
0.0
  0
SEQEND
  5
2A4
100
AcDbEntity
  8
OBJECT
  6
CONTINUOUS
  0
POLYLINE
  5
2A5
100
AcDbEntity
  8
OBJECT
  6
CONTINUOUS
100
AcDb2dPolyline
 66
               1
 10
0.0
 20
0.0
 30
0.0
 75
               5
  0
VERTEX
  5
2A6
100
AcDbEntity
  8
OBJECT
  6
CONTINUOUS
100
AcDbVertex
100
AcDb2dVertex
 10
-590.0
 20
-69.0
 30
0.0
  0
VERTEX
  5
2A7
100
AcDbEntity
  8
OBJECT
  6
CONTINUOUS
100
AcDbVertex
100
AcDb2dVertex
 10
-550.0
 20
-69.0
 30
0.0
  0
VERTEX
  5
2A8
100
AcDbEntity
  8
OBJECT
  6
CONTINUOUS
100
AcDbVertex
100
AcDb2dVertex
 10
-550.0
 20
-744.0
 30
0.0
  0
SEQEND
  5
2A9
100
AcDbEntity
  8
OBJECT
  6
CONTINUOUS
  0
POLYLINE
  5
2AA
100
AcDbEntity
  8
HIDDEN
  6
STYLE_16
100
AcDb2dPolyline
 66
               1
 10
0.0
 20
0.0
 30
0.0
 70
               1
 75
               5
  0
VERTEX
  5
2AB
100
AcDbEntity
  8
HIDDEN
  6
STYLE_16
100
AcDbVertex
100
AcDb2dVertex
 10
-765.0
 20
-89.0
 30
0.0
  0
VERTEX
  5
2AC
100
AcDbEntity
  8
HIDDEN
  6
STYLE_16
100
AcDbVertex
100
AcDb2dVertex
 10
-765.0
 20
-199.0
 30
0.0
  0
VERTEX
  5
2AD
100
AcDbEntity
  8
HIDDEN
  6
STYLE_16
100
AcDbVertex
100
AcDb2dVertex
 10
-690.0
 20
-199.0
 30
0.0
  0
VERTEX
  5
2AE
100
AcDbEntity
  8
HIDDEN
  6
STYLE_16
100
AcDbVertex
100
AcDb2dVertex
 10
-690.0
 20
-269.0
 30
0.0
  0
VERTEX
  5
2AF
100
AcDbEntity
  8
HIDDEN
  6
STYLE_16
100
AcDbVertex
100
AcDb2dVertex
 10
-561.0
 20
-269.0
 30
0.0
  0
VERTEX
  5
2B0
100
AcDbEntity
  8
HIDDEN
  6
STYLE_16
100
AcDbVertex
100
AcDb2dVertex
 10
-561.0
 20
-89.0
 30
0.0
  0
SEQEND
  5
2B1
100
AcDbEntity
  8
HIDDEN
  6
STYLE_16
  0
LWPOLYLINE
  5
2B2
100
AcDbEntity
  8
HIDDEN
  6
STYLE_16
100
AcDbPolyline
 90
        5
 70
             129
 10
-590.0
 20
-99.0
 42
-0.414213562373095
 10
-579.0
 20
-88.0
 42
-0.414213562373095
 10
-568.0
 20
-99.0
 42
-0.414213562373095
 10
-579.0
 20
-110.0
 42
-0.414213562373095
 10
-590.0
 20
-99.0
 42
-0.414213562373095
  0
LWPOLYLINE
  5
2B3
100
AcDbEntity
  8
HIDDEN
  6
STYLE_16
100
AcDbPolyline
 90
        5
 70
             129
 10
-613.0
 20
-258.0
 42
-0.414213562373095
 10
-602.0
 20
-247.0
 42
-0.414213562373095
 10
-591.0
 20
-258.0
 42
-0.414213562373095
 10
-602.0
 20
-269.0
 42
-0.414213562373095
 10
-613.0
 20
-258.0
 42
-0.414213562373095
  0
POLYLINE
  5
2B4
100
AcDbEntity
  8
HIDDEN
  6
STYLE_16
100
AcDb2dPolyline
 66
               1
 10
0.0
 20
0.0
 30
0.0
 70
               1
 75
               5
  0
VERTEX
  5
2B5
100
AcDbEntity
  8
HIDDEN
  6
STYLE_16
100
AcDbVertex
100
AcDb2dVertex
 10
-835.0
 20
-589.0
 30
0.0
  0
VERTEX
  5
2B6
100
AcDbEntity
  8
HIDDEN
  6
STYLE_16
100
AcDbVertex
100
AcDb2dVertex
 10
-835.0
 20
-699.0
 30
0.0
  0
VERTEX
  5
2B7
100
AcDbEntity
  8
HIDDEN
  6
STYLE_16
100
AcDbVertex
100
AcDb2dVertex
 10
-910.0
 20
-699.0
 30
0.0
  0
VERTEX
  5
2B8
100
AcDbEntity
  8
HIDDEN
  6
STYLE_16
100
AcDbVertex
100
AcDb2dVertex
 10
-910.0
 20
-769.0
 30
0.0
  0
VERTEX
  5
2B9
100
AcDbEntity
  8
HIDDEN
  6
STYLE_16
100
AcDbVertex
100
AcDb2dVertex
 10
-1039.0
 20
-769.0
 30
0.0
  0
VERTEX
  5
2BA
100
AcDbEntity
  8
HIDDEN
  6
STYLE_16
100
AcDbVertex
100
AcDb2dVertex
 10
-1039.0
 20
-589.0
 30
0.0
  0
SEQEND
  5
2BB
100
AcDbEntity
  8
HIDDEN
  6
STYLE_16
  0
LWPOLYLINE
  5
2BC
100
AcDbEntity
  8
HIDDEN
  6
STYLE_16
100
AcDbPolyline
 90
        5
 70
             129
 10
-1032.0
 20
-599.0
 42
-0.414213562373095
 10
-1021.0
 20
-588.0
 42
-0.414213562373095
 10
-1010.0
 20
-599.0
 42
-0.414213562373095
 10
-1021.0
 20
-610.0
 42
-0.414213562373095
 10
-1032.0
 20
-599.0
 42
-0.414213562373095
  0
LWPOLYLINE
  5
2BD
100
AcDbEntity
  8
HIDDEN
  6
STYLE_16
100
AcDbPolyline
 90
        5
 70
             129
 10
-1009.0
 20
-758.0
 42
-0.414213562373095
 10
-998.0
 20
-747.0
 42
-0.414213562373095
 10
-987.0
 20
-758.0
 42
-0.414213562373095
 10
-998.0
 20
-769.0
 42
-0.414213562373095
 10
-1009.0
 20
-758.0
 42
-0.414213562373095
  0
POLYLINE
  5
2BE
100
AcDbEntity
  8
OBJECT
  6
CONTINUOUS
100
AcDb2dPolyline
 66
               1
 10
0.0
 20
0.0
 30
0.0
 75
               5
  0
VERTEX
  5
2BF
100
AcDbEntity
  8
OBJECT
  6
CONTINUOUS
100
AcDbVertex
100
AcDb2dVertex
 10
490.0
 20
-743.9984834301813
 30
0.0
  0
VERTEX
  5
2C0
100
AcDbEntity
  8
OBJECT
  6
CONTINUOUS
100
AcDbVertex
100
AcDb2dVertex
 10
490.0
 20
-68.998483430181295
 30
0.0
  0
VERTEX
  5
2C1
100
AcDbEntity
  8
OBJECT
  6
CONTINUOUS
100
AcDbVertex
100
AcDb2dVertex
 10
910.0
 20
-68.998483430181295
 30
0.0
  0
VERTEX
  5
2C2
100
AcDbEntity
  8
OBJECT
  6
CONTINUOUS
100
AcDbVertex
100
AcDb2dVertex
 10
910.0
 20
-743.9984834301813
 30
0.0
  0
VERTEX
  5
2C3
100
AcDbEntity
  8
OBJECT
  6
CONTINUOUS
100
AcDbVertex
100
AcDb2dVertex
 10
910.0
 20
-743.9984834301813
 30
0.0
  0
SEQEND
  5
2C4
100
AcDbEntity
  8
OBJECT
  6
CONTINUOUS
  0
LINE
  5
2C5
100
AcDbEntity
  8
OBJECT
  6
CONTINUOUS
100
AcDbLine
 10
492.0
 20
-778.9984834301813
 30
0.0
 11
695.48689999999988
 21
-778.9984834301813
 31
0.0
  0
LINE
  5
2C6
100
AcDbEntity
  8
OBJECT
  6
CONTINUOUS
100
AcDbLine
 10
492.0
 20
-780.9984834301813
 30
0.0
 11
492.0
 21
-778.9984834301813
 31
0.0
  0
LINE
  5
2C7
100
AcDbEntity
  8
OBJECT
  6
CONTINUOUS
100
AcDbLine
 10
908.0
 20
-780.9984834301813
 30
0.0
 11
492.0
 21
-780.9984834301813
 31
0.0
  0
LINE
  5
2C8
100
AcDbEntity
  8
OBJECT
  6
CONTINUOUS
100
AcDbLine
 10
908.0
 20
-780.9984834301813
 30
0.0
 11
908.0
 21
-778.9984834301813
 31
0.0
  0
LINE
  5
2C9
100
AcDbEntity
  8
OBJECT
  6
CONTINUOUS
100
AcDbLine
 10
910.0
 20
-778.9984834301813
 30
0.0
 11
910.0
 21
-773.9984834301813
 31
0.0
  0
LINE
  5
2CA
100
AcDbEntity
  8
OBJECT
  6
CONTINUOUS
100
AcDbLine
 10
490.0
 20
-778.9984834301813
 30
0.0
 11
490.0
 21
-773.9984834301813
 31
0.0
  0
LINE
  5
2CB
100
AcDbEntity
  8
OBJECT
  6
CONTINUOUS
100
AcDbLine
 10
910.0
 20
-778.9984834301813
 30
0.0
 11
490.0
 21
-778.9984834301813
 31
0.0
  0
LINE
  5
2CC
100
AcDbEntity
  8
CENTER
  6
STYLE_03
100
AcDbLine
 10
700.0
 20
-0.0000000000000036
 30
0.0
 11
700.0
 21
-950.0
 31
0.0
  0
LWPOLYLINE
  5
2CD
100
AcDbEntity
  8
OBJECT
  6
CONTINUOUS
100
AcDbPolyline
 90
        5
 70
             129
 10
835.0
 20
-723.9984834301813
 42
-0.414213562373095
 10
840.0
 20
-718.9984834301813
 42
-0.414213562373095
 10
845.0
 20
-723.9984834301813
 42
-0.414213562373095
 10
840.0
 20
-728.9984834301813
 42
-0.414213562373095
 10
835.0
 20
-723.9984834301813
 42
-0.414213562373095
  0
LWPOLYLINE
  5
2CE
100
AcDbEntity
  8
OBJECT
  6
CONTINUOUS
100
AcDbPolyline
 90
        5
 70
             129
 10
555.0
 20
-723.9984834301813
 42
-0.414213562373095
 10
560.0
 20
-718.9984834301813
 42
-0.414213562373095
 10
565.0
 20
-723.9984834301813
 42
-0.414213562373095
 10
560.0
 20
-728.9984834301813
 42
-0.414213562373095
 10
555.0
 20
-723.9984834301813
 42
-0.414213562373095
  0
LWPOLYLINE
  5
2CF
100
AcDbEntity
  8
OBJECT
  6
CONTINUOUS
100
AcDbPolyline
 90
        5
 70
             129
 10
555.0
 20
-83.998483430181295
 42
-0.414213562373095
 10
560.0
 20
-78.998483430181295
 42
-0.414213562373095
 10
565.0
 20
-83.998483430181295
 42
-0.414213562373095
 10
560.0
 20
-88.998483430181295
 42
-0.414213562373095
 10
555.0
 20
-83.998483430181295
 42
-0.414213562373095
  0
LWPOLYLINE
  5
2D0
100
AcDbEntity
  8
OBJECT
  6
CONTINUOUS
100
AcDbPolyline
 90
        9
 70
             128
 10
562.5
 20
-88.328583430181425
 10
562.5
 20
-91.998483430181295
 10
562.5
 20
-91.998483430181295
 10
562.5
 20
-91.998483430181295
 42
-0.414213562373095
 10
560.0
 20
-94.498483430181295
 10
560.0
 20
-94.498483430181295
 10
560.0
 20
-94.498483430181295
 42
-0.414213562373095
 10
557.5
 20
-91.998483430181295
 10
557.5
 20
-88.328583430181425
  0
LWPOLYLINE
  5
2D1
100
AcDbEntity
  8
OBJECT
  6
CONTINUOUS
100
AcDbPolyline
 90
        5
 70
             129
 10
835.0
 20
-83.998483430181295
 42
-0.414213562373095
 10
840.0
 20
-78.998483430181295
 42
-0.414213562373095
 10
845.0
 20
-83.998483430181295
 42
-0.414213562373095
 10
840.0
 20
-88.998483430181295
 42
-0.414213562373095
 10
835.0
 20
-83.998483430181295
 42
-0.414213562373095
  0
POLYLINE
  5
2D2
100
AcDbEntity
  8
OBJECT
  6
CONTINUOUS
100
AcDb2dPolyline
 66
               1
 10
0.0
 20
0.0
 30
0.0
 75
               5
  0
VERTEX
  5
2D3
100
AcDbEntity
  8
OBJECT
  6
CONTINUOUS
100
AcDbVertex
100
AcDb2dVertex
 10
837.5
 20
-79.668383430181166
 30
0.0
  0
VERTEX
  5
2D4
100
AcDbEntity
  8
OBJECT
  6
CONTINUOUS
100
AcDbVertex
100
AcDb2dVertex
 10
837.5
 20
-78.498483430181295
 30
0.0
  0
VERTEX
  5
2D5
100
AcDbEntity
  8
OBJECT
  6
CONTINUOUS
100
AcDbVertex
100
AcDb2dVertex
 10
562.5
 20
-78.498483430181295
 30
0.0
  0
VERTEX
  5
2D6
100
AcDbEntity
  8
OBJECT
  6
CONTINUOUS
100
AcDbVertex
100
AcDb2dVertex
 10
562.5
 20
-79.668383430181166
 30
0.0
  0
SEQEND
  5
2D7
100
AcDbEntity
  8
OBJECT
  6
CONTINUOUS
  0
LINE
  5
2D8
100
AcDbEntity
  8
OBJECT
  6
CONTINUOUS
100
AcDbLine
 10
842.5
 20
-728.4984834301813
 30
0.0
 11
842.5
 21
-728.32858343018142
 31
0.0
  0
LINE
  5
2D9
100
AcDbEntity
  8
OBJECT
  6
CONTINUOUS
100
AcDbLine
 10
886.0
 20
-717.4984834301813
 30
0.0
 11
886.0
 21
-728.4984834301813
 31
0.0
  0
LINE
  5
2DA
100
AcDbEntity
  8
OBJECT
  6
CONTINUOUS
100
AcDbLine
 10
889.0
 20
-717.4984834301813
 30
0.0
 11
886.0
 21
-717.4984834301813
 31
0.0
  0
LINE
  5
2DB
100
AcDbEntity
  8
OBJECT
  6
CONTINUOUS
100
AcDbLine
 10
889.0
 20
-98.498483430181295
 30
0.0
 11
889.0
 21
-717.4984834301813
 31
0.0
  0
LINE
  5
2DC
100
AcDbEntity
  8
OBJECT
  6
CONTINUOUS
100
AcDbLine
 10
886.0
 20
-98.498483430181295
 30
0.0
 11
889.0
 21
-98.498483430181295
 31
0.0
  0
LINE
  5
2DD
100
AcDbEntity
  8
OBJECT
  6
CONTINUOUS
100
AcDbLine
 10
886.0
 20
-78.498483430181295
 30
0.0
 11
886.0
 21
-98.498483430181295
 31
0.0
  0
LINE
  5
2DE
100
AcDbEntity
  8
OBJECT
  6
CONTINUOUS
100
AcDbLine
 10
842.5
 20
-78.498483430181295
 30
0.0
 11
886.0
 21
-78.498483430181295
 31
0.0
  0
LINE
  5
2DF
100
AcDbEntity
  8
OBJECT
  6
CONTINUOUS
100
AcDbLine
 10
842.5
 20
-79.668383430181166
 30
0.0
 11
842.5
 21
-78.498483430181295
 31
0.0
  0
LWPOLYLINE
  5
2E0
100
AcDbEntity
  8
OBJECT
  6
CONTINUOUS
100
AcDbPolyline
 90
        9
 70
             128
 10
842.5
 20
-88.328583430181425
 10
842.5
 20
-91.998483430181295
 10
842.5
 20
-91.998483430181295
 10
842.5
 20
-91.998483430181295
 42
-0.414213562373095
 10
840.0
 20
-94.498483430181295
 10
840.0
 20
-94.498483430181295
 10
840.0
 20
-94.498483430181295
 42
-0.414213562373095
 10
837.5
 20
-91.998483430181295
 10
837.5
 20
-88.328583430181425
  0
LINE
  5
2E1
100
AcDbEntity
  8
OBJECT
  6
CONTINUOUS
100
AcDbLine
 10
557.5
 20
-78.498483430181295
 30
0.0
 11
557.5
 21
-79.668383430181166
 31
0.0
  0
LINE
  5
2E2
100
AcDbEntity
  8
OBJECT
  6
CONTINUOUS
100
AcDbLine
 10
514.0
 20
-78.498483430181295
 30
0.0
 11
557.5
 21
-78.498483430181295
 31
0.0
  0
LINE
  5
2E3
100
AcDbEntity
  8
OBJECT
  6
CONTINUOUS
100
AcDbLine
 10
514.0
 20
-98.498483430181295
 30
0.0
 11
514.0
 21
-78.498483430181295
 31
0.0
  0
LINE
  5
2E4
100
AcDbEntity
  8
OBJECT
  6
CONTINUOUS
100
AcDbLine
 10
511.0
 20
-98.498483430181295
 30
0.0
 11
514.0
 21
-98.498483430181295
 31
0.0
  0
LINE
  5
2E5
100
AcDbEntity
  8
OBJECT
  6
CONTINUOUS
100
AcDbLine
 10
511.0
 20
-717.4984834301813
 30
0.0
 11
511.0
 21
-98.498483430181295
 31
0.0
  0
LINE
  5
2E6
100
AcDbEntity
  8
OBJECT
  6
CONTINUOUS
100
AcDbLine
 10
514.0
 20
-717.4984834301813
 30
0.0
 11
511.0
 21
-717.4984834301813
 31
0.0
  0
LINE
  5
2E7
100
AcDbEntity
  8
OBJECT
  6
CONTINUOUS
100
AcDbLine
 10
514.0
 20
-728.4984834301813
 30
0.0
 11
514.0
 21
-717.4984834301813
 31
0.0
  0
LINE
  5
2E8
100
AcDbEntity
  8
OBJECT
  6
CONTINUOUS
100
AcDbLine
 10
886.0
 20
-728.4984834301813
 30
0.0
 11
514.0
 21
-728.4984834301813
 31
0.0
  0
LINE
  5
2E9
100
AcDbEntity
  8
OBJECT
  6
CONTINUOUS
100
AcDbLine
 10
557.5
 20
-728.32858343018142
 30
0.0
 11
557.5
 21
-728.4984834301813
 31
0.0
  0
POLYLINE
  5
2EA
100
AcDbEntity
  8
OBJECT
  6
CONTINUOUS
100
AcDb2dPolyline
 66
               1
 10
0.0
 20
0.0
 30
0.0
 70
               1
 75
               5
  0
VERTEX
  5
2EB
100
AcDbEntity
  8
OBJECT
  6
CONTINUOUS
100
AcDbVertex
100
AcDb2dVertex
 10
488.0
 20
-68.998483430181295
 30
0.0
  0
VERTEX
  5
2EC
100
AcDbEntity
  8
OBJECT
  6
CONTINUOUS
100
AcDbVertex
100
AcDb2dVertex
 10
490.0
 20
-68.998483430181295
 30
0.0
  0
VERTEX
  5
2ED
100
AcDbEntity
  8
OBJECT
  6
CONTINUOUS
100
AcDbVertex
100
AcDb2dVertex
 10
490.0
 20
-98.998483430181295
 30
0.0
  0
VERTEX
  5
2EE
100
AcDbEntity
  8
OBJECT
  6
CONTINUOUS
100
AcDbVertex
100
AcDb2dVertex
 10
488.0
 20
-98.998483430181295
 30
0.0
  0
SEQEND
  5
2EF
100
AcDbEntity
  8
OBJECT
  6
CONTINUOUS
  0
POLYLINE
  5
2F0
100
AcDbEntity
  8
OBJECT
  6
CONTINUOUS
100
AcDb2dPolyline
 66
               1
 10
0.0
 20
0.0
 30
0.0
 70
               1
 75
               5
  0
VERTEX
  5
2F1
100
AcDbEntity
  8
OBJECT
  6
CONTINUOUS
100
AcDbVertex
100
AcDb2dVertex
 10
910.0
 20
-68.998483430181295
 30
0.0
  0
VERTEX
  5
2F2
100
AcDbEntity
  8
OBJECT
  6
CONTINUOUS
100
AcDbVertex
100
AcDb2dVertex
 10
912.0
 20
-68.998483430181295
 30
0.0
  0
VERTEX
  5
2F3
100
AcDbEntity
  8
OBJECT
  6
CONTINUOUS
100
AcDbVertex
100
AcDb2dVertex
 10
912.0
 20
-98.998483430181295
 30
0.0
  0
VERTEX
  5
2F4
100
AcDbEntity
  8
OBJECT
  6
CONTINUOUS
100
AcDbVertex
100
AcDb2dVertex
 10
910.0
 20
-98.998483430181295
 30
0.0
  0
SEQEND
  5
2F5
100
AcDbEntity
  8
OBJECT
  6
CONTINUOUS
  0
INSERT
  5
2F6
100
AcDbEntity
  8
OBJECT
100
AcDbBlockReference
  2
*U11
 10
0.0
 20
19.999999999999996
 30
0.0
  0
LWPOLYLINE
  5
2F7
100
AcDbEntity
  8
OBJECT
  6
CONTINUOUS
100
AcDbPolyline
 90
        9
 70
             129
 10
-580.43844718719106
 20
470.0
 42
-0.344150731408958
 10
-582.37873218748177
 20
471.51492874992732
 10
-587.0
 20
490.0
 10
-550.0
 20
490.0
 10
-550.0
 20
570.0
 10
-531.51492874992732
 20
565.37873218748177
 42
-0.3441507314088954
 10
-530.0
 20
563.43844718719106
 10
-530.0
 20
485.0
 42
-0.414213562373095
 10
-545.0
 20
470.0
  0
LWPOLYLINE
  5
2F8
100
AcDbEntity
  8
OBJECT
  6
CONTINUOUS
100
AcDbPolyline
 90
        9
 70
             129
 10
-1019.5615528128089
 20
469.0
 42
0.3441507314088954
 10
-1017.6212678125182
 20
470.51492874992732
 10
-1013.0
 20
489.0
 10
-1050.0
 20
489.0
 10
-1050.0
 20
569.0
 10
-1068.4850712500727
 20
564.37873218748177
 42
0.3441507314088988
 10
-1070.0
 20
562.43844718719106
 10
-1070.0
 20
484.0
 42
0.414213562373095
 10
-1055.0
 20
469.0
  0
LWPOLYLINE
  5
2F9
100
AcDbEntity
  8
OBJECT
  6
CONTINUOUS
100
AcDbPolyline
 90
        9
 70
             129
 10
-580.43844718719106
 20
930.0
 42
0.3441507314088954
 10
-582.37873218748177
 20
928.48507125007268
 10
-587.0
 20
910.0
 10
-550.0
 20
910.0
 10
-550.0
 20
830.0
 10
-531.51492874992732
 20
834.62126781251823
 42
0.3441507314089383
 10
-530.0
 20
836.56155281280894
 10
-530.0
 20
915.0
 42
0.414213562373095
 10
-545.0
 20
930.0
  0
LWPOLYLINE
  5
2FA
100
AcDbEntity
  8
OBJECT
  6
CONTINUOUS
100
AcDbPolyline
 90
        9
 70
             129
 10
-1019.5615528128089
 20
929.0
 42
-0.3441507314089383
 10
-1017.6212678125182
 20
927.48507125007268
 10
-1013.0
 20
909.0
 10
-1050.0
 20
909.0
 10
-1050.0
 20
829.0
 10
-1068.4850712500727
 20
833.62126781251823
 42
-0.3441507314089417
 10
-1070.0
 20
835.56155281280894
 10
-1070.0
 20
914.0
 42
-0.414213562373095
 10
-1055.0
 20
929.0
  0
DIMENSION
  5
2FB
100
AcDbEntity
  8
DIMENTION
  6
CONTINUOUS
100
AcDbDimension
  2
*D12
 10
-1200.0
 20
-89.0
 30
0.0
 11
-1201.0
 21
-35.0
 31
0.0
 70
             128
  3
CAD
100
AcDbAlignedDimension
 13
-1050.0
 23
-69.0
 33
0.0
 14
-765.0
 24
-89.0
 34
0.0
 50
90.0
100
AcDbRotatedDimension
1001
ACAD
1000
DSTYLE
1002
{
1070
             271
1070
               0
1070
             340
1005
33
1070
             174
1070
               0
1070
             147
1040
0.9999999999999999
1002
}
  0
DIMENSION
  5
2FC
100
AcDbEntity
  8
DIMENTION
  6
CONTINUOUS
100
AcDbDimension
  2
*D13
 10
-1200.0
 20
-89.0
 30
0.0
 11
-1200.0
 21
-339.0
 31
0.0
  3
CAD
100
AcDbAlignedDimension
 13
-1039.0
 23
-589.0
 33
0.0
 14
-765.0
 24
-89.0
 34
0.0
 50
90.0
100
AcDbRotatedDimension
1001
ACAD
1000
DSTYLE
1002
{
1070
             271
1070
               0
1070
             340
1005
33
1070
               3
1000
<>（可動範囲
1070
             147
1040
0.9999999999999999
1002
}
  0
DIMENSION
  5
2FD
100
AcDbEntity
  8
DIMENTION
  6
CONTINUOUS
100
AcDbDimension
  2
*D14
 10
-590.0
 20
400.0
 30
0.0
 11
-694.5
 21
400.0
 31
0.0
  1
208
  3
CAD
100
AcDbAlignedDimension
 13
-799.0
 23
490.0
 33
0.0
 14
-590.0
 24
490.0
 34
0.0
100
AcDbRotatedDimension
1001
ACAD
1000
DSTYLE
1002
{
1070
             271
1070
               0
1070
             340
1005
33
1070
             147
1040
0.9999999999999999
1002
}
  0
DIMENSION
  5
2FE
100
AcDbEntity
  8
DIMENTION
  6
CONTINUOUS
100
AcDbDimension
  2
*D15
 10
-550.0
 20
300.0
 30
0.0
 11
-800.0
 21
300.0
 31
0.0
  3
CAD
100
AcDbAlignedDimension
 13
-1050.0
 23
489.0
 33
0.0
 14
-550.0
 24
490.0
 34
0.0
100
AcDbRotatedDimension
1001
ACAD
1000
DSTYLE
1002
{
1070
             271
1070
               0
1070
             340
1005
33
1070
             147
1040
0.9999999999999999
1002
}
  0
DIMENSION
  5
2FF
100
AcDbEntity
  8
DIMENTION
  6
CONTINUOUS
100
AcDbDimension
  2
*D16
 10
-400.0
 20
490.0
 30
0.0
 11
-400.0
 21
594.5
 31
0.0
  1
208
  3
CAD
100
AcDbAlignedDimension
 13
-590.0
 23
699.0
 33
0.0
 14
-550.0
 24
490.0
 34
0.0
 50
90.0
100
AcDbRotatedDimension
1001
ACAD
1000
DSTYLE
1002
{
1070
             271
1070
               0
1070
             340
1005
33
1070
             147
1040
0.9999999999999999
1002
}
  0
DIMENSION
  5
300
100
AcDbEntity
  8
DIMENTION
  6
CONTINUOUS
100
AcDbDimension
  2
*D17
 10
-300.0
 20
490.0
 30
0.0
 11
-300.0
 21
700.0
 31
0.0
  3
CAD
100
AcDbAlignedDimension
 13
-550.0
 23
910.0
 33
0.0
 14
-550.0
 24
490.0
 34
0.0
 50
90.0
100
AcDbRotatedDimension
1001
ACAD
1000
DSTYLE
1002
{
1070
             271
1070
               0
1070
             340
1005
33
1070
             147
1040
0.9999999999999999
1002
}
  0
DIMENSION
  5
301
100
AcDbEntity
  8
DIMENTION
  6
CONTINUOUS
100
AcDbDimension
  2
*D18
 10
-300.0
 20
490.0
 30
0.0
 11
-299.0
 21
435.0
 31
0.0
 70
             128
  3
CAD
100
AcDbAlignedDimension
 13
-545.0
 23
470.0
 33
0.0
 14
-550.0
 24
490.0
 34
0.0
 50
90.0
100
AcDbRotatedDimension
1001
ACAD
1000
DSTYLE
1002
{
1070
             271
1070
               0
1070
             340
1005
33
1070
             174
1070
               0
1070
             147
1040
0.9999999999999999
1002
}
  0
DIMENSION
  5
302
100
AcDbEntity
  8
DIMENTION
  6
CONTINUOUS
100
AcDbDimension
  2
*D19
 10
-550.0
 20
300.0
 30
0.0
 11
-495.0
 21
301.0
 31
0.0
 70
             128
  3
CAD
100
AcDbAlignedDimension
 13
-530.0
 23
485.0
 33
0.0
 14
-550.0
 24
490.0
 34
0.0
100
AcDbRotatedDimension
1001
ACAD
1000
DSTYLE
1002
{
1070
             271
1070
               0
1070
             340
1005
33
1070
             174
1070
               0
1070
             147
1040
0.9999999999999999
1002
}
  0
POINT
  5
303
100
AcDbEntity
  8
DIMENTION
  6
CONTINUOUS
100
AcDbPoint
 10
901.0
 20
-849.9984834301813
 30
0.0
  0
MTEXT
  5
304
100
AcDbEntity
  8
DIMENTION
100
AcDbMText
 10
-395.0
 20
594.5
 30
0.0
 40
33.866666666666667
 41
0.0
 71
               2
 72
               1
  1
(内寸)
  7
________
 11
0.0
 21
1.0
 31
0.0
  0
MTEXT
  5
305
100
AcDbEntity
  8
DIMENTION
100
AcDbMText
 10
-694.5
 20
395.0
 30
0.0
 40
33.866666666666667
 41
0.0
 71
               2
 72
               1
  1
(内寸)
  7
________
  0
MTEXT
  5
306
100
AcDbEntity
  8
DIMENTION
100
AcDbMText
 10
1300.0
 20
-1100.0
 30
0.0
 40
33.866666666666667
 41
0.0
 71
               1
 72
               1
  1
注）指示なき寸法公差は±5とする
  7
________
  0
DIMENSION
  5
307
100
AcDbEntity
  8
DIMENTION
100
AcDbDimension
  2
*D20
 10
-530.0
 20
1058.6662954709577
 30
0.0
 11
-800.0
 21
1058.6662954709577
 31
0.0
  3
CAD
100
AcDbAlignedDimension
 13
-1070.0
 23
914.0
 33
0.0
 14
-530.0
 24
915.0
 34
0.0
100
AcDbRotatedDimension
1001
ACAD
1000
DSTYLE
1002
{
1070
             340
1005
33
1070
             147
1040
0.9999999962747097
1002
}
  0
DIMENSION
  5
308
100
AcDbEntity
  8
DIMENTION
100
AcDbDimension
  2
*D21
 10
-1200.0
 20
929.0
 30
0.0
 11
-1200.0
 21
699.0
 31
0.0
  3
CAD
100
AcDbAlignedDimension
 13
-1055.0
 23
469.0
 33
0.0
 14
-1055.0
 24
929.0
 34
0.0
 50
90.0
100
AcDbRotatedDimension
1001
ACAD
1000
DSTYLE
1002
{
1070
             340
1005
33
1070
             147
1040
0.9999999962747097
1002
}
  0
ENDSEC
  0
SECTION
  2
OBJECTS
  0
DICTIONARY
  5
19
100
AcDbDictionary
  3
ACAD_GROUP
350
1A
  3
ACAD_MLINESTYLE
350
1B
  0
DICTIONARY
  5
1A
102
{ACAD_REACTORS
330
19
102
}
100
AcDbDictionary
  0
DICTIONARY
  5
1B
102
{ACAD_REACTORS
330
19
102
}
100
AcDbDictionary
  3
STANDARD
350
1C
  0
MLINESTYLE
  5
1C
102
{ACAD_REACTORS
330
1B
102
}
100
AcDbMlineStyle
  2
STANDARD
 70
               0
  3

 62
               0
 51
90.0
 52
90.0
 71
               2
 49
0.5
 62
             256
  6
BYLAYER
 49
-0.5
 62
             256
  6
BYLAYER
  0
ENDSEC
  0
EOF
