  0
SECTION
  2
HEADER
  9
$ACADVER
  1
AC1014
  9
$ACADMAINTVER
 70
               0
  9
$DWGCODEPAGE
  3
ANSI_932
  9
$INSBASE
 10
0.0
 20
0.0
 30
0.0
  9
$EXTMIN
 10
-2025.3999999999999
 20
-1388.9999999999998
 30
0.0
  9
$EXTMAX
 10
2024.5999999999999
 20
1330.9999999999998
 30
0.0
  9
$LIMMIN
 10
0.0
 20
0.0
  9
$LIMMAX
 10
0.0
 20
0.0
  9
$ORTHOMODE
 70
               0
  9
$REGENMODE
 70
               1
  9
$FILLMODE
 70
               1
  9
$QTEXTMODE
 70
               0
  9
$MIRRTEXT
 70
               1
  9
$DRAGMODE
 70
               2
  9
$LTSCALE
 40
254.0
  9
$OSMODE
 70
               0
  9
$ATTMODE
 70
               1
  9
$TEXTSIZE
 40
0.2
  9
$TRACEWID
 40
1.0
  9
$TEXTSTYLE
  7
STANDARD
  9
$CLAYER
  8
0
  9
$CELTYPE
  6
CONTINUOUS
  9
$CECOLOR
 62
             256
  9
$CELTSCALE
 40
1.0
  9
$DELOBJ
 70
               1
  9
$DISPSILH
 70
               0
  9
$DIMSCALE
 40
1.0
  9
$DIMASZ
 40
31.75
  9
$DIMEXO
 40
9.9999999999999982
  9
$DIMDLI
 40
7.9999999999999991
  9
$DIMRND
 40
0.0
  9
$DIMDLE
 40
0.0
  9
$DIMEXE
 40
19.999999999999996
  9
$DIMTP
 40
0.0
  9
$DIMTM
 40
0.0
  9
$DIMTXT
 40
33.866666666666667
  9
$DIMCEN
 40
0.0
  9
$DIMTSZ
 40
0.0
  9
$DIMTOL
 70
               0
  9
$DIMLIM
 70
               0
  9
$DIMTIH
 70
               0
  9
$DIMTOH
 70
               0
  9
$DIMSE1
 70
               0
  9
$DIMSE2
 70
               0
  9
$DIMTAD
 70
               1
  9
$DIMZIN
 70
              11
  9
$DIMBLK
  1
VW_OPENARROW
  9
$DIMASO
 70
               1
  9
$DIMSHO
 70
               1
  9
$DIMPOST
  1
<>
  9
$DIMAPOST
  1
[]
  9
$DIMALT
 70
               0
  9
$DIMALTD
 70
               1
  9
$DIMALTF
 40
1.0
  9
$DIMLFAC
 40
1.0
  9
$DIMTOFL
 70
               1
  9
$DIMTVP
 40
0.0
  9
$DIMTIX
 70
               1
  9
$DIMSOXD
 70
               0
  9
$DIMSAH
 70
               0
  9
$DIMBLK1
  1

  9
$DIMBLK2
  1

  9
$DIMSTYLE
  2
CAD
  9
$DIMCLRD
 70
               0
  9
$DIMCLRE
 70
               0
  9
$DIMCLRT
 70
               0
  9
$DIMTFAC
 40
0.7
  9
$DIMGAP
 40
0.099999999627471
  9
$DIMJUST
 70
               0
  9
$DIMSD1
 70
               0
  9
$DIMSD2
 70
               0
  9
$DIMTOLJ
 70
               1
  9
$DIMTZIN
 70
              11
  9
$DIMALTZ
 70
              11
  9
$DIMALTTZ
 70
              11
  9
$DIMFIT
 70
               0
  9
$DIMUPT
 70
               0
  9
$DIMUNIT
 70
               2
  9
$DIMDEC
 70
               4
  9
$DIMTDEC
 70
               4
  9
$DIMALTU
 70
               2
  9
$DIMALTTD
 70
               2
  9
$DIMTXSTY
  7
________
  9
$DIMAUNIT
 70
               0
  9
$LUNITS
 70
               2
  9
$LUPREC
 70
               4
  9
$SKETCHINC
 40
0.1
  9
$FILLETRAD
 40
0.0
  9
$AUNITS
 70
               0
  9
$AUPREC
 70
               0
  9
$MENU
  1
acad
  9
$ELEVATION
 40
0.0
  9
$PELEVATION
 40
0.0
  9
$THICKNESS
 40
0.0
  9
$LIMCHECK
 70
               0
  9
$BLIPMODE
 70
               0
  9
$CHAMFERA
 40
0.0
  9
$CHAMFERB
 40
0.0
  9
$CHAMFERC
 40
0.0
  9
$CHAMFERD
 40
0.0
  9
$SKPOLY
 70
               0
  9
$TDCREATE
 40
2458753.561122685
  9
$TDUPDATE
 40
2458753.561122685
  9
$TDINDWG
 40
0.0000000000
  9
$TDUSRTIMER
 40
0.0000000000
  9
$USRTIMER
 70
               1
  9
$ANGBASE
 50
0.0
  9
$ANGDIR
 70
               0
  9
$PDMODE
 70
               1
  9
$PDSIZE
 40
-2.0
  9
$PLINEWID
 40
0.0
  9
$COORDS
 70
               0
  9
$SPLFRAME
 70
               0
  9
$SPLINETYPE
 70
               6
  9
$SPLINESEGS
 70
               8
  9
$ATTDIA
 70
               0
  9
$ATTREQ
 70
               1
  9
$HANDLING
 70
               1
  9
$HANDSEED
  5
45B
  9
$SURFTAB1
 70
               6
  9
$SURFTAB2
 70
               6
  9
$SURFTYPE
 70
               6
  9
$SURFU
 70
               6
  9
$SURFV
 70
               6
  9
$UCSNAME
  2

  9
$UCSORG
 10
0.0
 20
0.0
 30
0.0
  9
$UCSXDIR
 10
1.0
 20
0.0
 30
0.0
  9
$UCSYDIR
 10
0.0
 20
1.0
 30
0.0
  9
$PUCSNAME
  2

  9
$PUCSORG
 10
0.0
 20
0.0
 30
0.0
  9
$PUCSXDIR
 10
1.0
 20
0.0
 30
0.0
  9
$PUCSYDIR
 10
0.0
 20
1.0
 30
0.0
  9
$USERI1
 70
               0
  9
$USERI2
 70
               0
  9
$USERI3
 70
               0
  9
$USERI4
 70
               0
  9
$USERI5
 70
               0
  9
$USERR1
 40
0.0
  9
$USERR2
 40
0.0
  9
$USERR3
 40
0.0
  9
$USERR4
 40
0.0
  9
$USERR5
 40
0.0
  9
$WORLDVIEW
 70
               1
  9
$SHADEDGE
 70
               3
  9
$SHADEDIF
 70
              70
  9
$TILEMODE
 70
               1
  9
$MAXACTVP
 70
              16
  9
$PINSBASE
 10
0.0
 20
0.0
 30
0.0
  9
$PLIMCHECK
 70
               0
  9
$PEXTMIN
 10
1.0000000000000000E+20
 20
1.0000000000000000E+20
 30
1.0000000000000000E+20
  9
$PEXTMAX
 10
-1.0000000000000000E+20
 20
-1.0000000000000000E+20
 30
-1.0000000000000000E+20
  9
$PLIMMIN
 10
0.0
 20
0.0
  9
$PLIMMAX
 10
12.0
 20
9.0
  9
$UNITMODE
 70
               0
  9
$VISRETAIN
 70
               0
  9
$PLINEGEN
 70
               1
  9
$PSLTSCALE
 70
               0
  9
$TREEDEPTH
 70
            3020
  9
$PICKSTYLE
 70
               1
  9
$CMLSTYLE
  2
STANDARD
  9
$CMLJUST
 70
               0
  9
$CMLSCALE
 40
1.0
  9
$PROXYGRAPHICS
 70
               0
  9
$MEASUREMENT
 70
               1
  0
ENDSEC
  0
SECTION
  2
CLASSES
  0
CLASS
  1
LWPOLYLINE
  2
AcDbPolyline
  3
"AutoCAD"
 90
        0
280
               0
281
               1
  0
CLASS
  1
IMAGE
  2
AcDbRasterImage
  3
ISM
 90
      127
280
               0
281
               1
  0
CLASS
  1
OLE2FRAME
  2
AcDbOle2Frame
  3
""
 90
        0
280
               0
281
               1
  0
CLASS
  1
HATCH
  2
AcDbHatch
  3
"ACAD_SEDONA"
 90
        0
280
               0
281
               1
  0
CLASS
  1
DICTIONARYVAR
  2
AcDbDictionaryVar
  3
"AutoCAD"
 90
        0
280
               0
281
               0
  0
CLASS
  1
RASTERVARIABLES
  2
AcDbRasterVariables
  3
ISM
 90
        0
280
               0
281
               0
  0
CLASS
  1
IMAGEDEF
  2
AcDbRasterImageDef
  3
ISM
 90
        0
280
               0
281
               0
  0
CLASS
  1
IMAGEDEF_REACTOR
  2
AcDbRasterImageDefReactor
  3
ISM
 90
        1
280
               0
281
               0
  0
CLASS
  1
IDBUFFER
  2
AcDbIdBuffer
  3
"Acad"
 90
        0
280
               0
281
               0
  0
CLASS
  1
SPATIAL_FILTER
  2
AcDbSpatialFilter
  3
"Acad"
 90
        0
280
               0
281
               0
  0
CLASS
  1
XRECORD
  2
AcDbXrecord
  3
"<Built In>"
 90
        0
280
               0
281
               0
  0
CLASS
  1
SORTENTSTABLE
  2
AcDbSortentsTable
  3
"AutoCAD"
 90
        0
280
               0
281
               0
  0
CLASS
  1
LAYER_INDEX
  2
AcDbLayerIndex
  3
"Acad"
 90
        0
280
               0
281
               0
  0
CLASS
  1
SPATIAL_INDEX
  2
AcDbSpatialIndex
  3
"Acad"
 90
        0
280
               0
281
               0
  0
CLASS
  1
OBJECT_PTR
  2
CAseDLPNTableRecord
  3
"ASE-LPNTableRecord"
 90
        1
280
               0
281
               0
  0
CLASS
  1
LAYOUT
  2
AcDbLayout
  3
"AutoCAD 2000"
 90
        1
280
               0
281
               0
  0
CLASS
  1
PLOTSETTINGS
  2
AcDbPlotSettings
  3
"AutoCAD 2000"
 90
        1
280
               0
281
               0
  0
CLASS
  1
ACDBDICTIONARYWDFLT
  2
AcDbDictionaryWithDefault
  3
"AutoCAD 2000"
 90
        1
280
               0
281
               0
  0
CLASS
  1
ACDBPLACEHOLDER
  2
AcDbPlaceHolder
  3
"AutoCAD 2000"
 90
        1
280
               0
281
               0
  0
ENDSEC
  0
SECTION
  2
TABLES
  0
TABLE
  2
VPORT
  5
7
100
AcDbSymbolTable
 70
               1
  0
VPORT
  5
15
100
AcDbSymbolTableRecord
100
AcDbViewportTableRecord
  2
*ACTIVE
 70
               0
 10
0.0
 20
0.0
 11
1.0
 21
1.0
 12
-0.3999999999998636
 22
-29.0
 13
0.0
 23
0.0
 14
1.0
 24
1.0
 15
0.0
 25
0.0
 16
0.0
 26
0.0
 36
1.0
 17
0.0
 27
0.0
 37
0.0
 40
2719.9999999999995
 41
0.688564
 42
50.0
 43
0.0
 44
0.0
 50
0.0
 51
0.0
 71
               0
 72
             100
 73
               1
 74
               1
 75
               0
 76
               0
 77
               0
 78
               0
  0
ENDTAB
  0
TABLE
  2
LTYPE
  5
4
100
AcDbSymbolTable
 70
              21
  0
LTYPE
  5
11
100
AcDbSymbolTableRecord
100
AcDbLinetypeTableRecord
  2
BYBLOCK
 70
              64
  3

 72
              65
 73
               0
 40
0.0
  0
LTYPE
  5
12
100
AcDbSymbolTableRecord
100
AcDbLinetypeTableRecord
  2
BYLAYER
 70
              64
  3

 72
              65
 73
               0
 40
0.0
  0
LTYPE
  5
13
100
AcDbSymbolTableRecord
100
AcDbLinetypeTableRecord
  2
CONTINUOUS
 70
              64
  3
Solid line
 72
              65
 73
               0
 40
0.0
  0
LTYPE
  5
3F
100
AcDbSymbolTableRecord
100
AcDbLinetypeTableRecord
  2
STYLE_01
 70
               0
  3

 72
              65
 73
               2
 40
0.0375109361329834
 49
0.0236220472440945
 74
               0
 49
-0.0138888888888889
 74
               0
  0
LTYPE
  5
40
100
AcDbSymbolTableRecord
100
AcDbLinetypeTableRecord
  2
STYLE_02
 70
               0
  3

 72
              65
 73
               6
 40
0.6527777777777778
 49
0.4027777777777778
 74
               0
 49
-0.0555555555555555
 74
               0
 49
0.0416666666666667
 74
               0
 49
-0.0555555555555556
 74
               0
 49
0.0416666666666666
 74
               0
 49
-0.0555555555555556
 74
               0
  0
LTYPE
  5
41
100
AcDbSymbolTableRecord
100
AcDbLinetypeTableRecord
  2
STYLE_03
 70
               0
  3

 72
              65
 73
               4
 40
0.5277777777777778
 49
0.4027777777777778
 74
               0
 49
-0.0416666666666666
 74
               0
 49
0.0416666666666667
 74
               0
 49
-0.0416666666666667
 74
               0
  0
LTYPE
  5
42
100
AcDbSymbolTableRecord
100
AcDbLinetypeTableRecord
  2
STYLE_04
 70
               0
  3

 72
              65
 73
               2
 40
0.1388888888888889
 49
0.0694444444444444
 74
               0
 49
-0.0694444444444444
 74
               0
  0
LTYPE
  5
43
100
AcDbSymbolTableRecord
100
AcDbLinetypeTableRecord
  2
STYLE_05
 70
               0
  3

 72
              65
 73
               2
 40
0.047244094488189
 49
0.0236220472440945
 74
               0
 49
-0.0236220472440945
 74
               0
  0
LTYPE
  5
44
100
AcDbSymbolTableRecord
100
AcDbLinetypeTableRecord
  2
STYLE_06
 70
               0
  3

 72
              65
 73
               2
 40
0.047244094488189
 49
0.0236220472440945
 74
               0
 49
-0.0236220472440945
 74
               0
  0
LTYPE
  5
45
100
AcDbSymbolTableRecord
100
AcDbLinetypeTableRecord
  2
STYLE_07
 70
               0
  3

 72
              65
 73
               2
 40
0.047244094488189
 49
0.0236220472440945
 74
               0
 49
-0.0236220472440945
 74
               0
  0
LTYPE
  5
46
100
AcDbSymbolTableRecord
100
AcDbLinetypeTableRecord
  2
STYLE_08
 70
               0
  3

 72
              65
 73
               2
 40
0.047244094488189
 49
0.0236220472440945
 74
               0
 49
-0.0236220472440945
 74
               0
  0
LTYPE
  5
47
100
AcDbSymbolTableRecord
100
AcDbLinetypeTableRecord
  2
STYLE_09
 70
               0
  3

 72
              65
 73
               6
 40
1.5157480314960627
 49
1.1811023622047243
 74
               0
 49
-0.0590551181102361
 74
               0
 49
0.078740157480315
 74
               0
 49
-0.0590551181102361
 74
               0
 49
0.078740157480315
 74
               0
 49
-0.0590551181102361
 74
               0
  0
LTYPE
  5
48
100
AcDbSymbolTableRecord
100
AcDbLinetypeTableRecord
  2
STYLE_10
 70
               0
  3

 72
              65
 73
               6
 40
1.1875
 49
0.75
 74
               0
 49
-0.0555572509765625
 74
               0
 49
0.138885498046875
 74
               0
 49
-0.0555572509765625
 74
               0
 49
0.125
 74
               0
 49
-0.0625
 74
               0
  0
LTYPE
  5
49
100
AcDbSymbolTableRecord
100
AcDbLinetypeTableRecord
  2
STYLE_11
 70
               0
  3

 72
              65
 73
               4
 40
1.5
 49
0.0833282470703125
 74
               0
 49
-0.0555572509765625
 74
               0
 49
1.3055572509765625
 74
               0
 49
-0.0555572509765625
 74
               0
  0
LTYPE
  5
4A
100
AcDbSymbolTableRecord
100
AcDbLinetypeTableRecord
  2
STYLE_12
 70
               0
  3

 72
              65
 73
               4
 40
1.111114501953125
 49
0.7916717529296875
 74
               0
 49
-0.0833282470703125
 74
               0
 49
0.125
 74
               0
 49
-0.111114501953125
 74
               0
  0
LTYPE
  5
4B
100
AcDbSymbolTableRecord
100
AcDbLinetypeTableRecord
  2
STYLE_13
 70
               0
  3

 72
              65
 73
               4
 40
2.1944427490234375
 49
1.875
 74
               0
 49
-0.0833282470703125
 74
               0
 49
0.125
 74
               0
 49
-0.111114501953125
 74
               0
  0
LTYPE
  5
4C
100
AcDbSymbolTableRecord
100
AcDbLinetypeTableRecord
  2
STYLE_14
 70
               0
  3

 72
              65
 73
               2
 40
0.138885498046875
 49
0.0972137451171875
 74
               0
 49
-0.0416717529296875
 74
               0
  0
LTYPE
  5
4D
100
AcDbSymbolTableRecord
100
AcDbLinetypeTableRecord
  2
STYLE_15
 70
               0
  3

 72
              65
 73
               2
 40
0.25
 49
0.2083282470703125
 74
               0
 49
-0.0416717529296875
 74
               0
  0
LTYPE
  5
4E
100
AcDbSymbolTableRecord
100
AcDbLinetypeTableRecord
  2
STYLE_16
 70
               0
  3

 72
              65
 73
               2
 40
0.078740157480315
 49
0.0393700787401575
 74
               0
 49
-0.0393700787401575
 74
               0
  0
LTYPE
  5
4F
100
AcDbSymbolTableRecord
100
AcDbLinetypeTableRecord
  2
STYLE_17
 70
               0
  3

 72
              65
 73
               4
 40
0.5118110236220472
 49
0.3937007874015748
 74
               0
 49
-0.0393700787401575
 74
               0
 49
0.0393700787401575
 74
               0
 49
-0.0393700787401575
 74
               0
  0
LTYPE
  5
50
100
AcDbSymbolTableRecord
100
AcDbLinetypeTableRecord
  2
STYLE_18
 70
               0
  3

 72
              65
 73
               6
 40
0.5905511811023623
 49
0.3937007874015748
 74
               0
 49
-0.0393700787401575
 74
               0
 49
0.0393700787401575
 74
               0
 49
-0.0393700787401575
 74
               0
 49
0.0393700787401575
 74
               0
 49
-0.0393700787401575
 74
               0
  0
ENDTAB
  0
TABLE
  2
LAYER
  5
2
100
AcDbSymbolTable
 70
               9
  0
LAYER
  5
14
100
AcDbSymbolTableRecord
100
AcDbLayerTableRecord
  2
0
 70
               0
 62
               7
  6
CONTINUOUS
  0
LAYER
  5
58
100
AcDbSymbolTableRecord
100
AcDbLayerTableRecord
  2
DEFPOINTS
 70
               0
 62
               7
  6
CONTINUOUS
  0
LAYER
  5
59
100
AcDbSymbolTableRecord
100
AcDbLayerTableRecord
  2
OBJECT
 70
               0
 62
               7
  6
CONTINUOUS
  0
LAYER
  5
5A
100
AcDbSymbolTableRecord
100
AcDbLayerTableRecord
  2
DIMENTION
 70
               0
 62
               7
  6
CONTINUOUS
  0
LAYER
  5
5B
100
AcDbSymbolTableRecord
100
AcDbLayerTableRecord
  2
CENTER
 70
               0
 62
               7
  6
STYLE_17
  0
LAYER
  5
5C
100
AcDbSymbolTableRecord
100
AcDbLayerTableRecord
  2
HIDDEN
 70
               0
 62
               7
  6
STYLE_16
  0
LAYER
  5
5D
100
AcDbSymbolTableRecord
100
AcDbLayerTableRecord
  2
FRAME
 70
               0
 62
               7
  6
CONTINUOUS
  0
LAYER
  5
5E
100
AcDbSymbolTableRecord
100
AcDbLayerTableRecord
  2
OUTLINE
 70
               0
 62
               7
  6
STYLE_18
  0
LAYER
  5
5F
100
AcDbSymbolTableRecord
100
AcDbLayerTableRecord
  2
TEXT
 70
               0
 62
               7
  6
CONTINUOUS
  0
ENDTAB
  0
TABLE
  2
STYLE
  5
3
100
AcDbSymbolTable
 70
               3
  0
STYLE
  5
17
100
AcDbSymbolTableRecord
100
AcDbTextStyleTableRecord
  2
STANDARD
 70
               0
 40
0.0
 41
1.0
 50
0.0
 71
               0
 42
0.0
  3
txt
  4
BIGFONT.SHX
  0
STYLE
  5
3D
100
AcDbSymbolTableRecord
100
AcDbTextStyleTableRecord
  2
ARIAL
 70
               0
 40
0.0
 41
1.0
 50
0.0
 71
               0
 42
0.0
  3
Arial
  4

1001
ACAD
1000
Arial
1071
        0
  0
STYLE
  5
3E
100
AcDbSymbolTableRecord
100
AcDbTextStyleTableRecord
  2
________
 70
               0
 40
0.0
 41
1.0
 50
0.0
 71
               0
 42
0.0
  3
ＭＳ Ｐゴシック
  4

1001
ACAD
1000
ＭＳ Ｐゴシック
1071
        0
  0
ENDTAB
  0
TABLE
  2
VIEW
  5
5
100
AcDbSymbolTable
 70
               0
  0
ENDTAB
  0
TABLE
  2
UCS
  5
6
100
AcDbSymbolTable
 70
               0
  0
ENDTAB
  0
TABLE
  2
APPID
  5
8
100
AcDbSymbolTable
 70
               1
  0
APPID
  5
16
100
AcDbSymbolTableRecord
100
AcDbRegAppTableRecord
  2
ACAD
 70
               0
  0
ENDTAB
  0
TABLE
  2
DIMSTYLE
  5
9
100
AcDbSymbolTable
 70
               2
  0
DIMSTYLE
105
18
100
AcDbSymbolTableRecord
100
AcDbDimStyleTableRecord
  2
STANDARD
 70
               0
  3

  4

  5

  6

  7

 40
1.0
 41
0.18
 42
0.0625
 43
0.38
 44
0.18
 45
0.0
 46
0.0
 47
0.0
 48
0.0
 71
               0
 72
               0
 73
               1
 74
               1
 75
               0
 76
               0
 77
               0
 78
               0
140
0.18
141
0.09
142
0.0
143
25.399999999999999
144
1.0
145
0.0
146
1.0
147
0.09
170
               0
171
               2
172
               0
173
               0
174
               0
175
               0
176
               0
177
               0
178
               0
270
               2
271
               4
272
               4
273
               2
274
               2
275
               0
280
               0
281
               0
282
               0
283
               1
284
               0
285
               0
286
               0
287
               0
288
               0
340
17
  0
DIMSTYLE
105
57
100
AcDbSymbolTableRecord
100
AcDbDimStyleTableRecord
  2
CAD
 70
               0
  3
<>
  4
[]
  5
VW_OPENARROW
  6

  7

 40
1.0
 41
31.75
 42
9.9999999999999982
 43
7.9999999999999991
 44
19.999999999999996
 45
0.0
 46
0.0
 47
0.0
 48
0.0
 71
               0
 72
               0
 73
               0
 74
               0
 75
               0
 76
               0
 77
               1
 78
              11
140
33.866666666666667
141
0.0
142
0.0
143
1.0
144
1.0
145
0.0
146
0.7
147
0.099999999627471
170
               0
171
               1
172
               1
173
               0
174
               1
175
               0
176
               0
177
               0
178
               0
270
               2
271
               4
272
               4
273
               2
274
               2
275
               0
280
               0
281
               0
282
               0
283
               1
284
              11
285
              11
286
              11
287
               0
288
               0
340
3E
  0
ENDTAB
  0
TABLE
  2
BLOCK_RECORD
  5
1
100
AcDbSymbolTable
 70
              33
  0
BLOCK_RECORD
  5
A
100
AcDbSymbolTableRecord
100
AcDbBlockTableRecord
  2
*MODEL_SPACE
  0
BLOCK_RECORD
  5
B
100
AcDbSymbolTableRecord
100
AcDbBlockTableRecord
  2
*PAPER_SPACE
  0
BLOCK_RECORD
  5
51
100
AcDbSymbolTableRecord
100
AcDbBlockTableRecord
  2
VW_OPENARROW
  0
BLOCK_RECORD
  5
1D
100
AcDbSymbolTableRecord
100
AcDbBlockTableRecord
  2
*U1
  0
BLOCK_RECORD
  5
1E
100
AcDbSymbolTableRecord
100
AcDbBlockTableRecord
  2
*U2
  0
BLOCK_RECORD
  5
1F
100
AcDbSymbolTableRecord
100
AcDbBlockTableRecord
  2
*U3
  0
BLOCK_RECORD
  5
20
100
AcDbSymbolTableRecord
100
AcDbBlockTableRecord
  2
*U4
  0
BLOCK_RECORD
  5
21
100
AcDbSymbolTableRecord
100
AcDbBlockTableRecord
  2
*U5
  0
BLOCK_RECORD
  5
22
100
AcDbSymbolTableRecord
100
AcDbBlockTableRecord
  2
*U6
  0
BLOCK_RECORD
  5
23
100
AcDbSymbolTableRecord
100
AcDbBlockTableRecord
  2
*D7
  0
BLOCK_RECORD
  5
24
100
AcDbSymbolTableRecord
100
AcDbBlockTableRecord
  2
*U8
  0
BLOCK_RECORD
  5
25
100
AcDbSymbolTableRecord
100
AcDbBlockTableRecord
  2
*U9
  0
BLOCK_RECORD
  5
26
100
AcDbSymbolTableRecord
100
AcDbBlockTableRecord
  2
*D10
  0
BLOCK_RECORD
  5
27
100
AcDbSymbolTableRecord
100
AcDbBlockTableRecord
  2
*D11
  0
BLOCK_RECORD
  5
28
100
AcDbSymbolTableRecord
100
AcDbBlockTableRecord
  2
*D12
  0
BLOCK_RECORD
  5
29
100
AcDbSymbolTableRecord
100
AcDbBlockTableRecord
  2
*D13
  0
BLOCK_RECORD
  5
2A
100
AcDbSymbolTableRecord
100
AcDbBlockTableRecord
  2
*D14
  0
BLOCK_RECORD
  5
2B
100
AcDbSymbolTableRecord
100
AcDbBlockTableRecord
  2
*D15
  0
BLOCK_RECORD
  5
2C
100
AcDbSymbolTableRecord
100
AcDbBlockTableRecord
  2
*D16
  0
BLOCK_RECORD
  5
2D
100
AcDbSymbolTableRecord
100
AcDbBlockTableRecord
  2
*U17
  0
BLOCK_RECORD
  5
2E
100
AcDbSymbolTableRecord
100
AcDbBlockTableRecord
  2
*D18
  0
BLOCK_RECORD
  5
2F
100
AcDbSymbolTableRecord
100
AcDbBlockTableRecord
  2
*U19
  0
BLOCK_RECORD
  5
30
100
AcDbSymbolTableRecord
100
AcDbBlockTableRecord
  2
*U20
  0
BLOCK_RECORD
  5
31
100
AcDbSymbolTableRecord
100
AcDbBlockTableRecord
  2
*U21
  0
BLOCK_RECORD
  5
32
100
AcDbSymbolTableRecord
100
AcDbBlockTableRecord
  2
*U22
  0
BLOCK_RECORD
  5
33
100
AcDbSymbolTableRecord
100
AcDbBlockTableRecord
  2
*U23
  0
BLOCK_RECORD
  5
34
100
AcDbSymbolTableRecord
100
AcDbBlockTableRecord
  2
*U24
  0
BLOCK_RECORD
  5
35
100
AcDbSymbolTableRecord
100
AcDbBlockTableRecord
  2
*U25
  0
BLOCK_RECORD
  5
36
100
AcDbSymbolTableRecord
100
AcDbBlockTableRecord
  2
*D26
  0
BLOCK_RECORD
  5
37
100
AcDbSymbolTableRecord
100
AcDbBlockTableRecord
  2
*D27
  0
BLOCK_RECORD
  5
38
100
AcDbSymbolTableRecord
100
AcDbBlockTableRecord
  2
*D28
  0
BLOCK_RECORD
  5
39
100
AcDbSymbolTableRecord
100
AcDbBlockTableRecord
  2
*D29
  0
BLOCK_RECORD
  5
3A
100
AcDbSymbolTableRecord
100
AcDbBlockTableRecord
  2
*U30
  0
BLOCK_RECORD
  5
3B
100
AcDbSymbolTableRecord
100
AcDbBlockTableRecord
  2
*D31
  0
BLOCK_RECORD
  5
3C
100
AcDbSymbolTableRecord
100
AcDbBlockTableRecord
  2
*D32
  0
ENDTAB
  0
ENDSEC
  0
SECTION
  2
BLOCKS
  0
BLOCK
  5
D
100
AcDbEntity
  8
0
100
AcDbBlockBegin
  2
*MODEL_SPACE
 70
               0
 10
0.0
 20
0.0
 30
0.0
  3
*MODEL_SPACE
  1

  0
ENDBLK
  5
E
100
AcDbEntity
  8
0
100
AcDbBlockEnd
  0
BLOCK
  5
F
100
AcDbEntity
 67
               1
  8
0
100
AcDbBlockBegin
  2
*PAPER_SPACE
 70
               0
 10
0.0
 20
0.0
 30
0.0
  3
*PAPER_SPACE
  1

  0
ENDBLK
  5
10
100
AcDbEntity
 67
               1
  8
0
100
AcDbBlockEnd
  0
BLOCK
  5
52
100
AcDbEntity
  8
0
  6
BYBLOCK
 62
               0
100
AcDbBlockBegin
  2
VW_OPENARROW
 70
               0
 10
0.0
 20
0.0
 30
0.0
  3
VW_OPENARROW
  1

  0
LINE
  5
53
100
AcDbEntity
  8
0
  6
BYBLOCK
 62
               0
100
AcDbLine
 10
0.0
 20
0.0
 30
0.0
 11
-1.0
 21
0.0
 31
0.0
  0
LINE
  5
54
100
AcDbEntity
  8
0
  6
BYBLOCK
 62
               0
100
AcDbLine
 10
0.0
 20
0.0
 30
0.0
 11
-0.9921874999999999
 21
-0.2658558393652545
 31
0.0
  0
LINE
  5
55
100
AcDbEntity
  8
0
  6
BYBLOCK
 62
               0
100
AcDbLine
 10
0.0
 20
0.0
 30
0.0
 11
-0.9921874999999999
 21
0.2658558393652548
 31
0.0
  0
ENDBLK
  5
56
100
AcDbEntity
  8
0
100
AcDbBlockEnd
  0
BLOCK
  5
60
100
AcDbEntity
  8
FRAME
100
AcDbBlockBegin
  2
*U1
 70
               1
 10
0.0
 20
0.0
 30
0.0
  3
*U1
  1

  0
ENDBLK
  5
61
100
AcDbEntity
  8
FRAME
100
AcDbBlockEnd
  0
BLOCK
  5
62
100
AcDbEntity
  8
FRAME
100
AcDbBlockBegin
  2
*U2
 70
               1
 10
0.0
 20
0.0
 30
0.0
  3
*U2
  1

  0
ENDBLK
  5
63
100
AcDbEntity
  8
FRAME
100
AcDbBlockEnd
  0
BLOCK
  5
64
100
AcDbEntity
  8
FRAME
100
AcDbBlockBegin
  2
*U3
 70
               1
 10
0.0
 20
0.0
 30
0.0
  3
*U3
  1

  0
ENDBLK
  5
65
100
AcDbEntity
  8
FRAME
100
AcDbBlockEnd
  0
BLOCK
  5
66
100
AcDbEntity
  8
FRAME
100
AcDbBlockBegin
  2
*U4
 70
               1
 10
0.0
 20
0.0
 30
0.0
  3
*U4
  1

  0
ENDBLK
  5
67
100
AcDbEntity
  8
FRAME
100
AcDbBlockEnd
  0
BLOCK
  5
68
100
AcDbEntity
  8
FRAME
100
AcDbBlockBegin
  2
*U5
 70
               1
 10
0.0
 20
0.0
 30
0.0
  3
*U5
  1

  0
ENDBLK
  5
69
100
AcDbEntity
  8
FRAME
100
AcDbBlockEnd
  0
BLOCK
  5
6A
100
AcDbEntity
  8
FRAME
100
AcDbBlockBegin
  2
*U6
 70
               1
 10
0.0
 20
0.0
 30
0.0
  3
*U6
  1

  0
INSERT
  5
6B
100
AcDbEntity
  8
FRAME
 62
               0
100
AcDbBlockReference
  2
*U1
 10
0.0
 20
0.0
 30
0.0
  0
INSERT
  5
6C
100
AcDbEntity
  8
FRAME
 62
               0
100
AcDbBlockReference
  2
*U2
 10
0.0
 20
0.0
 30
0.0
  0
INSERT
  5
6D
100
AcDbEntity
  8
FRAME
 62
               0
100
AcDbBlockReference
  2
*U3
 10
0.0
 20
0.0
 30
0.0
  0
INSERT
  5
6E
100
AcDbEntity
  8
FRAME
 62
               0
100
AcDbBlockReference
  2
*U4
 10
0.0
 20
0.0
 30
0.0
  0
INSERT
  5
6F
100
AcDbEntity
  8
FRAME
 62
               0
100
AcDbBlockReference
  2
*U5
 10
0.0
 20
0.0
 30
0.0
  0
ENDBLK
  5
70
100
AcDbEntity
  8
FRAME
100
AcDbBlockEnd
  0
BLOCK
  5
71
100
AcDbEntity
  8
DIMENTION
100
AcDbBlockBegin
  2
*D7
 70
               1
 10
0.0
 20
0.0
 30
0.0
  3
*D7
  1

  0
LINE
  5
72
100
AcDbEntity
  8
DIMENTION
  6
CONTINUOUS
 62
               0
100
AcDbLine
 10
-1322.0
 20
-69.0
 30
0.0
 11
-1520.0
 21
-69.0
 31
0.0
  0
LINE
  5
73
100
AcDbEntity
  8
DIMENTION
  6
CONTINUOUS
 62
               0
100
AcDbLine
 10
-1410.0
 20
-900.0
 30
0.0
 11
-1520.0
 21
-900.0
 31
0.0
  0
LINE
  5
74
100
AcDbEntity
  8
DIMENTION
  6
CONTINUOUS
 62
               0
100
AcDbLine
 10
-1500.0
 20
-69.0
 30
0.0
 11
-1500.0
 21
-900.0
 31
0.0
  0
LINE
  5
75
100
AcDbEntity
  8
DIMENTION
  6
CONTINUOUS
 62
               0
100
AcDbLine
 10
-1500.0
 20
-69.0
 30
0.0
 11
-1491.492613140312
 21
-100.75
 31
0.0
  0
LINE
  5
76
100
AcDbEntity
  8
DIMENTION
  6
CONTINUOUS
 62
               0
100
AcDbLine
 10
-1500.0
 20
-69.0
 30
0.0
 11
-1508.507386859688
 21
-100.75
 31
0.0
  0
LINE
  5
77
100
AcDbEntity
  8
DIMENTION
  6
CONTINUOUS
 62
               0
100
AcDbLine
 10
-1500.0
 20
-900.0
 30
0.0
 11
-1508.507386859688
 21
-868.25
 31
0.0
  0
LINE
  5
78
100
AcDbEntity
  8
DIMENTION
  6
CONTINUOUS
 62
               0
100
AcDbLine
 10
-1500.0
 20
-900.0
 30
0.0
 11
-1491.492613140312
 21
-868.25
 31
0.0
  0
MTEXT
  5
79
100
AcDbEntity
  8
DIMENTION
 62
               0
100
AcDbMText
 10
-1543.3333333333335
 20
-516.25
 30
0.0
 40
33.866666666666667
 41
0.0
 71
               1
 72
               1
  1
830
  7
________
 11
0.0
 21
1.0
 31
0.0
  0
POINT
  5
7A
100
AcDbEntity
  8
DEFPOINTS
 62
               0
100
AcDbPoint
 10
-1400.0
 20
-900.0
 30
0.0
  0
POINT
  5
7B
100
AcDbEntity
  8
DEFPOINTS
 62
               0
100
AcDbPoint
 10
-1312.0
 20
-69.0
 30
0.0
  0
POINT
  5
7C
100
AcDbEntity
  8
DEFPOINTS
 62
               0
100
AcDbPoint
 10
-1500.0
 20
-69.0
 30
0.0
  0
ENDBLK
  5
7D
100
AcDbEntity
  8
DIMENTION
100
AcDbBlockEnd
  0
BLOCK
  5
7E
100
AcDbEntity
  8
OBJECT
100
AcDbBlockBegin
  2
*U8
 70
               1
 10
0.0
 20
0.0
 30
0.0
  3
*U8
  1

  0
LWPOLYLINE
  5
7F
100
AcDbEntity
  8
OBJECT
  6
CONTINUOUS
 62
               0
100
AcDbPolyline
 90
       10
 70
             129
 10
-820.0
 20
-770.56155281280894
 42
0.3441507314089108
 10
-821.51492874992732
 20
-768.62126781251823
 10
-840.0
 20
-764.0
 10
-872.0
 20
-764.0
 42
0.414213562373095
 10
-877.0
 20
-769.0
 10
-877.0
 20
-789.0
 42
0.414213562373095
 10
-872.0
 20
-794.0
 10
-840.0
 20
-794.0
 10
-821.51492874992732
 20
-789.37873218748177
 42
0.3441507314088833
 10
-820.0
 20
-787.43844718719106
  0
LWPOLYLINE
  5
80
100
AcDbEntity
  8
OBJECT
  6
CONTINUOUS
 62
               0
100
AcDbPolyline
 90
        5
 70
             129
 10
-867.0
 20
-779.0
 42
-0.414213562373095
 10
-862.0
 20
-774.0
 42
-0.414213562373095
 10
-857.0
 20
-779.0
 42
-0.414213562373095
 10
-862.0
 20
-784.0
 42
-0.414213562373095
 10
-867.0
 20
-779.0
 42
-0.414213562373095
  0
LWPOLYLINE
  5
81
100
AcDbEntity
  8
OBJECT
  6
CONTINUOUS
 62
               0
100
AcDbPolyline
 90
        6
 70
             128
 10
-824.0
 20
-769.0
 10
-868.0
 20
-769.0
 42
0.414213562373095
 10
-872.0
 20
-773.0
 10
-872.0
 20
-785.0
 42
0.414213562373095
 10
-868.0
 20
-789.0
 10
-824.0
 20
-789.0
  0
ENDBLK
  5
82
100
AcDbEntity
  8
OBJECT
100
AcDbBlockEnd
  0
BLOCK
  5
83
100
AcDbEntity
  8
OBJECT
100
AcDbBlockBegin
  2
*U9
 70
               1
 10
0.0
 20
0.0
 30
0.0
  3
*U9
  1

  0
LWPOLYLINE
  5
84
100
AcDbEntity
  8
OBJECT
  6
CONTINUOUS
 62
               0
100
AcDbPolyline
 90
       10
 70
             129
 10
-1380.0
 20
-770.56155281280894
 42
-0.3441507314089657
 10
-1378.4850712500727
 20
-768.62126781251823
 10
-1360.0
 20
-764.0
 10
-1328.0
 20
-764.0
 42
-0.414213562373095
 10
-1323.0
 20
-769.0
 10
-1323.0
 20
-789.0
 42
-0.414213562373095
 10
-1328.0
 20
-794.0
 10
-1360.0
 20
-794.0
 10
-1378.4850712500727
 20
-789.37873218748177
 42
-0.3441507314089108
 10
-1380.0
 20
-787.43844718719106
  0
LWPOLYLINE
  5
85
100
AcDbEntity
  8
OBJECT
  6
CONTINUOUS
 62
               0
100
AcDbPolyline
 90
        5
 70
             129
 10
-1343.0
 20
-779.0
 42
-0.414213562373095
 10
-1338.0
 20
-774.0
 42
-0.414213562373095
 10
-1333.0
 20
-779.0
 42
-0.414213562373095
 10
-1338.0
 20
-784.0
 42
-0.414213562373095
 10
-1343.0
 20
-779.0
 42
-0.414213562373095
  0
LWPOLYLINE
  5
86
100
AcDbEntity
  8
OBJECT
  6
CONTINUOUS
 62
               0
100
AcDbPolyline
 90
        6
 70
             128
 10
-1376.0
 20
-769.0
 10
-1332.0
 20
-769.0
 42
-0.414213562373095
 10
-1328.0
 20
-773.0
 10
-1328.0
 20
-785.0
 42
-0.414213562373095
 10
-1332.0
 20
-789.0
 10
-1376.0
 20
-789.0
  0
ENDBLK
  5
87
100
AcDbEntity
  8
OBJECT
100
AcDbBlockEnd
  0
BLOCK
  5
88
100
AcDbEntity
  8
DIMENTION
100
AcDbBlockBegin
  2
*D10
 70
               1
 10
0.0
 20
0.0
 30
0.0
  3
*D10
  1

  0
LINE
  5
89
100
AcDbEntity
  8
DIMENTION
  6
CONTINUOUS
 62
               0
100
AcDbLine
 10
-840.0
 20
812.0
 30
0.0
 11
-840.0
 21
960.0
 31
0.0
  0
LINE
  5
8A
100
AcDbEntity
  8
DIMENTION
  6
CONTINUOUS
 62
               0
100
AcDbLine
 10
-820.0
 20
824.5
 30
0.0
 11
-820.0
 21
960.0
 31
0.0
  0
LINE
  5
8B
100
AcDbEntity
  8
DIMENTION
  6
CONTINUOUS
 62
               0
100
AcDbLine
 10
-820.0
 20
940.0
 30
0.0
 11
-840.0
 21
940.0
 31
0.0
  0
LINE
  5
8C
100
AcDbEntity
  8
DIMENTION
  6
CONTINUOUS
 62
               0
100
AcDbLine
 10
-840.0
 20
940.0
 30
0.0
 11
-900.0
 21
940.0
 31
0.0
  0
LINE
  5
8D
100
AcDbEntity
  8
DIMENTION
  6
CONTINUOUS
 62
               0
100
AcDbLine
 10
-840.0
 20
940.0
 30
0.0
 11
-871.75
 21
931.49261314031185
 31
0.0
  0
LINE
  5
8E
100
AcDbEntity
  8
DIMENTION
  6
CONTINUOUS
 62
               0
100
AcDbLine
 10
-840.0
 20
940.0
 30
0.0
 11
-871.75
 21
948.50738685968815
 31
0.0
  0
LINE
  5
8F
100
AcDbEntity
  8
DIMENTION
  6
CONTINUOUS
 62
               0
100
AcDbLine
 10
-820.0
 20
940.0
 30
0.0
 11
-742.66666666666663
 21
940.0
 31
0.0
  0
LINE
  5
90
100
AcDbEntity
  8
DIMENTION
  6
CONTINUOUS
 62
               0
100
AcDbLine
 10
-820.0
 20
940.0
 30
0.0
 11
-788.25
 21
948.50738685968815
 31
0.0
  0
LINE
  5
91
100
AcDbEntity
  8
DIMENTION
  6
CONTINUOUS
 62
               0
100
AcDbLine
 10
-820.0
 20
940.0
 30
0.0
 11
-788.25
 21
931.49261314031185
 31
0.0
  0
MTEXT
  5
92
100
AcDbEntity
  8
DIMENTION
 62
               0
100
AcDbMText
 10
-785.0
 20
983.33333333333337
 30
0.0
 40
33.866666666666667
 41
0.0
 71
               1
 72
               1
  1
20
  7
________
  0
POINT
  5
93
100
AcDbEntity
  8
DEFPOINTS
 62
               0
100
AcDbPoint
 10
-820.0
 20
814.5
 30
0.0
  0
POINT
  5
94
100
AcDbEntity
  8
DEFPOINTS
 62
               0
100
AcDbPoint
 10
-840.0
 20
802.0
 30
0.0
  0
POINT
  5
95
100
AcDbEntity
  8
DEFPOINTS
 62
               0
100
AcDbPoint
 10
-840.0
 20
940.0
 30
0.0
  0
ENDBLK
  5
96
100
AcDbEntity
  8
DIMENTION
100
AcDbBlockEnd
  0
BLOCK
  5
97
100
AcDbEntity
  8
DIMENTION
100
AcDbBlockBegin
  2
*D11
 70
               1
 10
0.0
 20
0.0
 30
0.0
  3
*D11
  1

  0
LINE
  5
98
100
AcDbEntity
  8
DIMENTION
  6
CONTINUOUS
 62
               0
100
AcDbLine
 10
-830.0
 20
802.0
 30
0.0
 11
-680.0
 21
802.0
 31
0.0
  0
LINE
  5
99
100
AcDbEntity
  8
DIMENTION
  6
CONTINUOUS
 62
               0
100
AcDbLine
 10
-817.5
 20
822.0
 30
0.0
 11
-680.0
 21
822.0
 31
0.0
  0
LINE
  5
9A
100
AcDbEntity
  8
DIMENTION
  6
CONTINUOUS
 62
               0
100
AcDbLine
 10
-700.0
 20
822.0
 30
0.0
 11
-700.0
 21
802.0
 31
0.0
  0
LINE
  5
9B
100
AcDbEntity
  8
DIMENTION
  6
CONTINUOUS
 62
               0
100
AcDbLine
 10
-700.0
 20
802.0
 30
0.0
 11
-700.0
 21
742.0
 31
0.0
  0
LINE
  5
9C
100
AcDbEntity
  8
DIMENTION
  6
CONTINUOUS
 62
               0
100
AcDbLine
 10
-700.0
 20
802.0
 30
0.0
 11
-691.49261314031185
 21
770.25
 31
0.0
  0
LINE
  5
9D
100
AcDbEntity
  8
DIMENTION
  6
CONTINUOUS
 62
               0
100
AcDbLine
 10
-700.0
 20
802.0
 30
0.0
 11
-708.50738685968815
 21
770.25
 31
0.0
  0
LINE
  5
9E
100
AcDbEntity
  8
DIMENTION
  6
CONTINUOUS
 62
               0
100
AcDbLine
 10
-700.0
 20
822.0
 30
0.0
 11
-700.0
 21
897.33333333333337
 31
0.0
  0
LINE
  5
9F
100
AcDbEntity
  8
DIMENTION
  6
CONTINUOUS
 62
               0
100
AcDbLine
 10
-700.0
 20
822.0
 30
0.0
 11
-708.50738685968815
 21
853.75
 31
0.0
  0
LINE
  5
A0
100
AcDbEntity
  8
DIMENTION
  6
CONTINUOUS
 62
               0
100
AcDbLine
 10
-700.0
 20
822.0
 30
0.0
 11
-691.49261314031185
 21
853.75
 31
0.0
  0
MTEXT
  5
A1
100
AcDbEntity
  8
DIMENTION
 62
               0
100
AcDbMText
 10
-743.33333333333326
 20
855.0
 30
0.0
 40
33.866666666666667
 41
0.0
 71
               1
 72
               1
  1
20
  7
________
 11
0.0
 21
1.0
 31
0.0
  0
POINT
  5
A2
100
AcDbEntity
  8
DEFPOINTS
 62
               0
100
AcDbPoint
 10
-827.5
 20
822.0
 30
0.0
  0
POINT
  5
A3
100
AcDbEntity
  8
DEFPOINTS
 62
               0
100
AcDbPoint
 10
-840.0
 20
802.0
 30
0.0
  0
POINT
  5
A4
100
AcDbEntity
  8
DEFPOINTS
 62
               0
100
AcDbPoint
 10
-700.0
 20
802.0
 30
0.0
  0
ENDBLK
  5
A5
100
AcDbEntity
  8
DIMENTION
100
AcDbBlockEnd
  0
BLOCK
  5
A6
100
AcDbEntity
  8
DIMENTION
100
AcDbBlockBegin
  2
*D12
 70
               1
 10
0.0
 20
0.0
 30
0.0
  3
*D12
  1

  0
LINE
  5
A7
100
AcDbEntity
  8
DIMENTION
  6
CONTINUOUS
 62
               0
100
AcDbLine
 10
-1360.0
 20
812.0
 30
0.0
 11
-1360.0
 21
960.0
 31
0.0
  0
LINE
  5
A8
100
AcDbEntity
  8
DIMENTION
  6
CONTINUOUS
 62
               0
100
AcDbLine
 10
-840.0
 20
812.0
 30
0.0
 11
-840.0
 21
960.0
 31
0.0
  0
LINE
  5
A9
100
AcDbEntity
  8
DIMENTION
  6
CONTINUOUS
 62
               0
100
AcDbLine
 10
-1360.0
 20
940.0
 30
0.0
 11
-840.0
 21
940.0
 31
0.0
  0
LINE
  5
AA
100
AcDbEntity
  8
DIMENTION
  6
CONTINUOUS
 62
               0
100
AcDbLine
 10
-1360.0
 20
940.0
 30
0.0
 11
-1328.25
 21
948.50738685968815
 31
0.0
  0
LINE
  5
AB
100
AcDbEntity
  8
DIMENTION
  6
CONTINUOUS
 62
               0
100
AcDbLine
 10
-1360.0
 20
940.0
 30
0.0
 11
-1328.25
 21
931.49261314031185
 31
0.0
  0
LINE
  5
AC
100
AcDbEntity
  8
DIMENTION
  6
CONTINUOUS
 62
               0
100
AcDbLine
 10
-840.0
 20
940.0
 30
0.0
 11
-871.75
 21
931.49261314031185
 31
0.0
  0
LINE
  5
AD
100
AcDbEntity
  8
DIMENTION
  6
CONTINUOUS
 62
               0
100
AcDbLine
 10
-840.0
 20
940.0
 30
0.0
 11
-871.75
 21
948.50738685968815
 31
0.0
  0
MTEXT
  5
AE
100
AcDbEntity
  8
DIMENTION
 62
               0
100
AcDbMText
 10
-1131.75
 20
983.33333333333337
 30
0.0
 40
33.866666666666667
 41
0.0
 71
               1
 72
               1
  1
520
  7
________
  0
POINT
  5
AF
100
AcDbEntity
  8
DEFPOINTS
 62
               0
100
AcDbPoint
 10
-840.0
 20
802.0
 30
0.0
  0
POINT
  5
B0
100
AcDbEntity
  8
DEFPOINTS
 62
               0
100
AcDbPoint
 10
-1360.0
 20
802.0
 30
0.0
  0
POINT
  5
B1
100
AcDbEntity
  8
DEFPOINTS
 62
               0
100
AcDbPoint
 10
-1360.0
 20
940.0
 30
0.0
  0
ENDBLK
  5
B2
100
AcDbEntity
  8
DIMENTION
100
AcDbBlockEnd
  0
BLOCK
  5
B3
100
AcDbEntity
  8
DIMENTION
100
AcDbBlockBegin
  2
*D13
 70
               1
 10
0.0
 20
0.0
 30
0.0
  3
*D13
  1

  0
LINE
  5
B4
100
AcDbEntity
  8
DIMENTION
  6
CONTINUOUS
 62
               0
100
AcDbLine
 10
-1372.0
 20
762.0
 30
0.0
 11
-1520.0
 21
762.0
 31
0.0
  0
LINE
  5
B5
100
AcDbEntity
  8
DIMENTION
  6
CONTINUOUS
 62
               0
100
AcDbLine
 10
-1352.0
 20
502.0
 30
0.0
 11
-1520.0
 21
502.0
 31
0.0
  0
LINE
  5
B6
100
AcDbEntity
  8
DIMENTION
  6
CONTINUOUS
 62
               0
100
AcDbLine
 10
-1500.0
 20
762.0
 30
0.0
 11
-1500.0
 21
502.0
 31
0.0
  0
LINE
  5
B7
100
AcDbEntity
  8
DIMENTION
  6
CONTINUOUS
 62
               0
100
AcDbLine
 10
-1500.0
 20
762.0
 30
0.0
 11
-1491.492613140312
 21
730.25
 31
0.0
  0
LINE
  5
B8
100
AcDbEntity
  8
DIMENTION
  6
CONTINUOUS
 62
               0
100
AcDbLine
 10
-1500.0
 20
762.0
 30
0.0
 11
-1508.507386859688
 21
730.25
 31
0.0
  0
LINE
  5
B9
100
AcDbEntity
  8
DIMENTION
  6
CONTINUOUS
 62
               0
100
AcDbLine
 10
-1500.0
 20
502.0
 30
0.0
 11
-1508.507386859688
 21
533.75
 31
0.0
  0
LINE
  5
BA
100
AcDbEntity
  8
DIMENTION
  6
CONTINUOUS
 62
               0
100
AcDbLine
 10
-1500.0
 20
502.0
 30
0.0
 11
-1491.492613140312
 21
533.75
 31
0.0
  0
MTEXT
  5
BB
100
AcDbEntity
  8
DIMENTION
 62
               0
100
AcDbMText
 10
-1543.3333333333335
 20
538.8666680124071
 30
0.0
 40
33.866666666666667
 41
0.0
 71
               1
 72
               1
  1
259 (内寸)
  7
________
 11
0.0
 21
1.0
 31
0.0
  0
POINT
  5
BC
100
AcDbEntity
  8
DEFPOINTS
 62
               0
100
AcDbPoint
 10
-1342.0
 20
502.0
 30
0.0
  0
POINT
  5
BD
100
AcDbEntity
  8
DEFPOINTS
 62
               0
100
AcDbPoint
 10
-1362.0
 20
762.0
 30
0.0
  0
POINT
  5
BE
100
AcDbEntity
  8
DEFPOINTS
 62
               0
100
AcDbPoint
 10
-1500.0
 20
762.0
 30
0.0
  0
ENDBLK
  5
BF
100
AcDbEntity
  8
DIMENTION
100
AcDbBlockEnd
  0
BLOCK
  5
C0
100
AcDbEntity
  8
DIMENTION
100
AcDbBlockBegin
  2
*D14
 70
               1
 10
0.0
 20
0.0
 30
0.0
  3
*D14
  1

  0
LINE
  5
C1
100
AcDbEntity
  8
DIMENTION
  6
CONTINUOUS
 62
               0
100
AcDbLine
 10
-1372.0
 20
762.0
 30
0.0
 11
-1520.0
 21
762.0
 31
0.0
  0
LINE
  5
C2
100
AcDbEntity
  8
DIMENTION
  6
CONTINUOUS
 62
               0
100
AcDbLine
 10
-1370.0
 20
802.0
 30
0.0
 11
-1520.0
 21
802.0
 31
0.0
  0
LINE
  5
C3
100
AcDbEntity
  8
DIMENTION
  6
CONTINUOUS
 62
               0
100
AcDbLine
 10
-1500.0
 20
802.0
 30
0.0
 11
-1500.0
 21
762.0
 31
0.0
  0
LINE
  5
C4
100
AcDbEntity
  8
DIMENTION
  6
CONTINUOUS
 62
               0
100
AcDbLine
 10
-1500.0
 20
762.0
 30
0.0
 11
-1500.0
 21
702.0
 31
0.0
  0
LINE
  5
C5
100
AcDbEntity
  8
DIMENTION
  6
CONTINUOUS
 62
               0
100
AcDbLine
 10
-1500.0
 20
762.0
 30
0.0
 11
-1491.492613140312
 21
730.25
 31
0.0
  0
LINE
  5
C6
100
AcDbEntity
  8
DIMENTION
  6
CONTINUOUS
 62
               0
100
AcDbLine
 10
-1500.0
 20
762.0
 30
0.0
 11
-1508.507386859688
 21
730.25
 31
0.0
  0
LINE
  5
C7
100
AcDbEntity
  8
DIMENTION
  6
CONTINUOUS
 62
               0
100
AcDbLine
 10
-1500.0
 20
802.0
 30
0.0
 11
-1500.0
 21
877.33333333333337
 31
0.0
  0
LINE
  5
C8
100
AcDbEntity
  8
DIMENTION
  6
CONTINUOUS
 62
               0
100
AcDbLine
 10
-1500.0
 20
802.0
 30
0.0
 11
-1508.507386859688
 21
833.75
 31
0.0
  0
LINE
  5
C9
100
AcDbEntity
  8
DIMENTION
  6
CONTINUOUS
 62
               0
100
AcDbLine
 10
-1500.0
 20
802.0
 30
0.0
 11
-1491.492613140312
 21
833.75
 31
0.0
  0
MTEXT
  5
CA
100
AcDbEntity
  8
DIMENTION
 62
               0
100
AcDbMText
 10
-1543.3333333333335
 20
835.0
 30
0.0
 40
33.866666666666667
 41
0.0
 71
               1
 72
               1
  1
40
  7
________
 11
0.0
 21
1.0
 31
0.0
  0
POINT
  5
CB
100
AcDbEntity
  8
DEFPOINTS
 62
               0
100
AcDbPoint
 10
-1360.0
 20
802.0
 30
0.0
  0
POINT
  5
CC
100
AcDbEntity
  8
DEFPOINTS
 62
               0
100
AcDbPoint
 10
-1362.0
 20
762.0
 30
0.0
  0
POINT
  5
CD
100
AcDbEntity
  8
DEFPOINTS
 62
               0
100
AcDbPoint
 10
-1500.0
 20
762.0
 30
0.0
  0
ENDBLK
  5
CE
100
AcDbEntity
  8
DIMENTION
100
AcDbBlockEnd
  0
BLOCK
  5
CF
100
AcDbEntity
  8
DIMENTION
100
AcDbBlockBegin
  2
*D15
 70
               1
 10
0.0
 20
0.0
 30
0.0
  3
*D15
  1

  0
LINE
  5
D0
100
AcDbEntity
  8
DIMENTION
  6
CONTINUOUS
 62
               0
100
AcDbLine
 10
-848.0
 20
502.0
 30
0.0
 11
-680.0
 21
502.0
 31
0.0
  0
LINE
  5
D1
100
AcDbEntity
  8
DIMENTION
  6
CONTINUOUS
 62
               0
100
AcDbLine
 10
-830.0
 20
802.0
 30
0.0
 11
-680.0
 21
802.0
 31
0.0
  0
LINE
  5
D2
100
AcDbEntity
  8
DIMENTION
  6
CONTINUOUS
 62
               0
100
AcDbLine
 10
-700.0
 20
502.0
 30
0.0
 11
-700.0
 21
802.0
 31
0.0
  0
LINE
  5
D3
100
AcDbEntity
  8
DIMENTION
  6
CONTINUOUS
 62
               0
100
AcDbLine
 10
-700.0
 20
502.0
 30
0.0
 11
-708.50738685968815
 21
533.75
 31
0.0
  0
LINE
  5
D4
100
AcDbEntity
  8
DIMENTION
  6
CONTINUOUS
 62
               0
100
AcDbLine
 10
-700.0
 20
502.0
 30
0.0
 11
-691.49261314031185
 21
533.75
 31
0.0
  0
LINE
  5
D5
100
AcDbEntity
  8
DIMENTION
  6
CONTINUOUS
 62
               0
100
AcDbLine
 10
-700.0
 20
802.0
 30
0.0
 11
-691.49261314031185
 21
770.25
 31
0.0
  0
LINE
  5
D6
100
AcDbEntity
  8
DIMENTION
  6
CONTINUOUS
 62
               0
100
AcDbLine
 10
-700.0
 20
802.0
 30
0.0
 11
-708.50738685968815
 21
770.25
 31
0.0
  0
MTEXT
  5
D7
100
AcDbEntity
  8
DIMENTION
 62
               0
100
AcDbMText
 10
-743.33333333333326
 20
620.25
 30
0.0
 40
33.866666666666667
 41
0.0
 71
               1
 72
               1
  1
300
  7
________
 11
0.0
 21
1.0
 31
0.0
  0
POINT
  5
D8
100
AcDbEntity
  8
DEFPOINTS
 62
               0
100
AcDbPoint
 10
-840.0
 20
802.0
 30
0.0
  0
POINT
  5
D9
100
AcDbEntity
  8
DEFPOINTS
 62
               0
100
AcDbPoint
 10
-858.0
 20
502.0
 30
0.0
  0
POINT
  5
DA
100
AcDbEntity
  8
DEFPOINTS
 62
               0
100
AcDbPoint
 10
-700.0
 20
502.0
 30
0.0
  0
ENDBLK
  5
DB
100
AcDbEntity
  8
DIMENTION
100
AcDbBlockEnd
  0
BLOCK
  5
DC
100
AcDbEntity
  8
DIMENTION
100
AcDbBlockBegin
  2
*D16
 70
               1
 10
0.0
 20
0.0
 30
0.0
  3
*D16
  1

  0
LINE
  5
DD
100
AcDbEntity
  8
DIMENTION
  6
CONTINUOUS
 62
               0
100
AcDbLine
 10
-1101.0
 20
492.0
 30
0.0
 11
-1101.0
 21
380.0
 31
0.0
  0
LINE
  5
DE
100
AcDbEntity
  8
DIMENTION
  6
CONTINUOUS
 62
               0
100
AcDbLine
 10
-1360.0
 20
510.0
 30
0.0
 11
-1360.0
 21
380.0
 31
0.0
  0
LINE
  5
DF
100
AcDbEntity
  8
DIMENTION
  6
CONTINUOUS
 62
               0
100
AcDbLine
 10
-1101.0
 20
400.0
 30
0.0
 11
-1360.0
 21
400.0
 31
0.0
  0
LINE
  5
E0
100
AcDbEntity
  8
DIMENTION
  6
CONTINUOUS
 62
               0
100
AcDbLine
 10
-1101.0
 20
400.0
 30
0.0
 11
-1132.75
 21
391.49261314031185
 31
0.0
  0
LINE
  5
E1
100
AcDbEntity
  8
DIMENTION
  6
CONTINUOUS
 62
               0
100
AcDbLine
 10
-1101.0
 20
400.0
 30
0.0
 11
-1132.75
 21
408.50738685968815
 31
0.0
  0
LINE
  5
E2
100
AcDbEntity
  8
DIMENTION
  6
CONTINUOUS
 62
               0
100
AcDbLine
 10
-1360.0
 20
400.0
 30
0.0
 11
-1328.25
 21
408.50738685968815
 31
0.0
  0
LINE
  5
E3
100
AcDbEntity
  8
DIMENTION
  6
CONTINUOUS
 62
               0
100
AcDbLine
 10
-1360.0
 20
400.0
 30
0.0
 11
-1328.25
 21
391.49261314031185
 31
0.0
  0
MTEXT
  5
E4
100
AcDbEntity
  8
DIMENTION
 62
               0
100
AcDbMText
 10
-1323.633331987593
 20
443.33333333333331
 30
0.0
 40
33.866666666666667
 41
0.0
 71
               1
 72
               1
  1
257 (内寸)
  7
________
  0
POINT
  5
E5
100
AcDbEntity
  8
DEFPOINTS
 62
               0
100
AcDbPoint
 10
-1360.0
 20
520.0
 30
0.0
  0
POINT
  5
E6
100
AcDbEntity
  8
DEFPOINTS
 62
               0
100
AcDbPoint
 10
-1101.0
 20
502.0
 30
0.0
  0
POINT
  5
E7
100
AcDbEntity
  8
DEFPOINTS
 62
               0
100
AcDbPoint
 10
-1101.0
 20
400.0
 30
0.0
  0
ENDBLK
  5
E8
100
AcDbEntity
  8
DIMENTION
100
AcDbBlockEnd
  0
BLOCK
  5
E9
100
AcDbEntity
  8
OBJECT
100
AcDbBlockBegin
  2
*U17
 70
               1
 10
0.0
 20
0.0
 30
0.0
  3
*U17
  1

  0
LWPOLYLINE
  5
EA
100
AcDbEntity
  8
OBJECT
  6
CONTINUOUS
 62
               0
100
AcDbPolyline
 90
       10
 70
             129
 10
1131.0
 20
-770.56155281280894
 42
-0.3441507314089108
 10
1132.5149287499273
 20
-768.62126781251823
 10
1151.0
 20
-764.0
 10
1226.0
 20
-764.0
 42
-0.414213562373095
 10
1231.0
 20
-769.0
 10
1231.0
 20
-789.0
 42
-0.414213562373095
 10
1226.0
 20
-794.0
 10
1151.0
 20
-794.0
 10
1132.5149287499273
 20
-789.37873218748177
 42
-0.3441507314089108
 10
1131.0
 20
-787.43844718719106
  0
LWPOLYLINE
  5
EB
100
AcDbEntity
  8
OBJECT
  6
CONTINUOUS
 62
               0
100
AcDbPolyline
 90
        5
 70
             129
 10
1161.0
 20
-779.0
 42
-0.414213562373095
 10
1166.0
 20
-774.0
 42
-0.414213562373095
 10
1171.0
 20
-779.0
 42
-0.414213562373095
 10
1166.0
 20
-784.0
 42
-0.414213562373095
 10
1161.0
 20
-779.0
 42
-0.414213562373095
  0
LWPOLYLINE
  5
EC
100
AcDbEntity
  8
OBJECT
  6
CONTINUOUS
 62
               0
100
AcDbPolyline
 90
        5
 70
             129
 10
1211.0
 20
-779.0
 42
-0.414213562373095
 10
1216.0
 20
-774.0
 42
-0.414213562373095
 10
1221.0
 20
-779.0
 42
-0.414213562373095
 10
1216.0
 20
-784.0
 42
-0.414213562373095
 10
1211.0
 20
-779.0
 42
-0.414213562373095
  0
LWPOLYLINE
  5
ED
100
AcDbEntity
  8
OBJECT
  6
CONTINUOUS
 62
               0
100
AcDbPolyline
 90
        6
 70
             128
 10
1135.0
 20
-769.0
 10
1222.0
 20
-769.0
 42
-0.414213562373095
 10
1226.0
 20
-773.0
 10
1226.0
 20
-785.0
 42
-0.414213562373095
 10
1222.0
 20
-789.0
 10
1135.0
 20
-789.0
  0
ENDBLK
  5
EE
100
AcDbEntity
  8
OBJECT
100
AcDbBlockEnd
  0
BLOCK
  5
EF
100
AcDbEntity
  8
DIMENTION
100
AcDbBlockBegin
  2
*D18
 70
               1
 10
0.0
 20
0.0
 30
0.0
  3
*D18
  1

  0
LINE
  5
F0
100
AcDbEntity
  8
DIMENTION
  6
CONTINUOUS
 62
               0
100
AcDbLine
 10
247.99999985035902
 20
-89.0
 30
0.0
 11
80.0
 21
-89.0
 31
0.0
  0
LINE
  5
F1
100
AcDbEntity
  8
DIMENTION
  6
CONTINUOUS
 62
               0
100
AcDbLine
 10
247.99999985035902
 20
-589.0
 30
0.0
 11
80.0
 21
-589.0
 31
0.0
  0
LINE
  5
F2
100
AcDbEntity
  8
DIMENTION
  6
CONTINUOUS
 62
               0
100
AcDbLine
 10
100.0
 20
-89.0
 30
0.0
 11
100.0
 21
-589.0
 31
0.0
  0
LINE
  5
F3
100
AcDbEntity
  8
DIMENTION
  6
CONTINUOUS
 62
               0
100
AcDbLine
 10
100.0
 20
-89.0
 30
0.0
 11
108.50738685968813
 21
-120.75
 31
0.0
  0
LINE
  5
F4
100
AcDbEntity
  8
DIMENTION
  6
CONTINUOUS
 62
               0
100
AcDbLine
 10
100.0
 20
-89.0
 30
0.0
 11
91.49261314031186
 21
-120.75
 31
0.0
  0
LINE
  5
F5
100
AcDbEntity
  8
DIMENTION
  6
CONTINUOUS
 62
               0
100
AcDbLine
 10
100.0
 20
-589.0
 30
0.0
 11
91.492613140311846
 21
-557.25
 31
0.0
  0
LINE
  5
F6
100
AcDbEntity
  8
DIMENTION
  6
CONTINUOUS
 62
               0
100
AcDbLine
 10
100.0
 20
-589.0
 30
0.0
 11
108.50738685968814
 21
-557.25
 31
0.0
  0
MTEXT
  5
F7
100
AcDbEntity
  8
DIMENTION
 62
               0
100
AcDbMText
 10
56.666666666666643
 20
-476.58333333333331
 30
0.0
 40
33.866666666666667
 41
0.0
 71
               1
 72
               1
  1
500（可動範囲）
  7
________
 11
0.0
 21
1.0
 31
0.0
  0
POINT
  5
F8
100
AcDbEntity
  8
DEFPOINTS
 62
               0
100
AcDbPoint
 10
257.99999985035902
 20
-589.0
 30
0.0
  0
POINT
  5
F9
100
AcDbEntity
  8
DEFPOINTS
 62
               0
100
AcDbPoint
 10
257.99999985035902
 20
-89.0
 30
0.0
  0
POINT
  5
FA
100
AcDbEntity
  8
DEFPOINTS
 62
               0
100
AcDbPoint
 10
100.0
 20
-89.0
 30
0.0
  0
ENDBLK
  5
FB
100
AcDbEntity
  8
DIMENTION
100
AcDbBlockEnd
  0
BLOCK
  5
FC
100
AcDbEntity
  8
OBJECT
100
AcDbBlockBegin
  2
*U19
 70
               1
 10
0.0
 20
0.0
 30
0.0
  3
*U19
  1

  0
LINE
  5
FD
100
AcDbEntity
  8
OBJECT
  6
CONTINUOUS
 62
               0
100
AcDbLine
 10
-1362.0
 20
-84.0
 30
0.0
 11
-1362.0
 21
-67.5
 31
0.0
  0
LINE
  5
FE
100
AcDbEntity
  8
OBJECT
  6
CONTINUOUS
 62
               0
100
AcDbLine
 10
-1332.0
 20
-84.0
 30
0.0
 11
-1362.0
 21
-84.0
 31
0.0
  0
LINE
  5
FF
100
AcDbEntity
  8
OBJECT
  6
CONTINUOUS
 62
               0
100
AcDbLine
 10
-1332.0
 20
-84.0
 30
0.0
 11
-1354.1458999999995
 21
-64.5
 31
0.0
  0
ARC
  5
100
100
AcDbEntity
  8
OBJECT
  6
CONTINUOUS
 62
               0
100
AcDbCircle
 10
-1357.5
 20
-67.5
 30
0.0
 40
4.4999985344445577
100
AcDbArc
 50
41.810331585825722
 51
180.0
  0
ENDBLK
  5
101
100
AcDbEntity
  8
OBJECT
100
AcDbBlockEnd
  0
BLOCK
  5
102
100
AcDbEntity
  8
OBJECT
100
AcDbBlockBegin
  2
*U20
 70
               1
 10
0.0
 20
0.0
 30
0.0
  3
*U20
  1

  0
LWPOLYLINE
  5
103
100
AcDbEntity
  8
OBJECT
  6
CONTINUOUS
 62
               0
100
AcDbPolyline
 90
       10
 70
             129
 10
202.99999985035902
 20
-770.56155281280894
 42
-0.3441507314089503
 10
204.51492860028634
 20
-768.62126781251823
 10
222.99999985035902
 20
-764.0
 10
297.99999985035902
 20
-764.0
 42
-0.414213562373095
 10
302.99999985035902
 20
-769.0
 10
302.99999985035902
 20
-789.0
 42
-0.414213562373095
 10
297.99999985035902
 20
-794.0
 10
222.99999985035902
 20
-794.0
 10
204.51492860028634
 20
-789.37873218748177
 42
-0.3441507314088954
 10
202.99999985035902
 20
-787.43844718719106
  0
LWPOLYLINE
  5
104
100
AcDbEntity
  8
OBJECT
  6
CONTINUOUS
 62
               0
100
AcDbPolyline
 90
        5
 70
             129
 10
232.99999985035902
 20
-779.0
 42
-0.414213562373095
 10
237.99999985035902
 20
-774.0
 42
-0.414213562373095
 10
242.99999985035902
 20
-779.0
 42
-0.414213562373095
 10
237.99999985035902
 20
-784.0
 42
-0.414213562373095
 10
232.99999985035902
 20
-779.0
 42
-0.414213562373095
  0
LWPOLYLINE
  5
105
100
AcDbEntity
  8
OBJECT
  6
CONTINUOUS
 62
               0
100
AcDbPolyline
 90
        5
 70
             129
 10
282.99999985035902
 20
-779.0
 42
-0.414213562373095
 10
287.99999985035902
 20
-774.0
 42
-0.414213562373095
 10
292.99999985035902
 20
-779.0
 42
-0.414213562373095
 10
287.99999985035902
 20
-784.0
 42
-0.414213562373095
 10
282.99999985035902
 20
-779.0
 42
-0.414213562373095
  0
LWPOLYLINE
  5
106
100
AcDbEntity
  8
OBJECT
  6
CONTINUOUS
 62
               0
100
AcDbPolyline
 90
        6
 70
             128
 10
206.99999985035902
 20
-769.0
 10
293.99999985035902
 20
-769.0
 42
-0.414213562373095
 10
297.99999985035902
 20
-773.0
 10
297.99999985035902
 20
-785.0
 42
-0.414213562373095
 10
293.99999985035902
 20
-789.0
 10
206.99999985035902
 20
-789.0
  0
ENDBLK
  5
107
100
AcDbEntity
  8
OBJECT
100
AcDbBlockEnd
  0
BLOCK
  5
108
100
AcDbEntity
  8
OBJECT
100
AcDbBlockBegin
  2
*U21
 70
               1
 10
0.0
 20
0.0
 30
0.0
  3
*U21
  1

  0
LWPOLYLINE
  5
109
100
AcDbEntity
  8
OBJECT
  6
CONTINUOUS
 62
               0
100
AcDbPolyline
 90
       10
 70
             129
 10
542.99999985035902
 20
-770.56155281280894
 42
0.3441507314088954
 10
541.4850711004317
 20
-768.62126781251823
 10
522.99999985035902
 20
-764.0
 10
490.99999985035902
 20
-764.0
 42
0.414213562373095
 10
485.99999985035902
 20
-769.0
 10
485.99999985035902
 20
-789.0
 42
0.414213562373095
 10
490.99999985035902
 20
-794.0
 10
522.99999985035902
 20
-794.0
 10
541.4850711004317
 20
-789.37873218748177
 42
0.3441507314089383
 10
542.99999985035902
 20
-787.43844718719106
  0
LWPOLYLINE
  5
10A
100
AcDbEntity
  8
OBJECT
  6
CONTINUOUS
 62
               0
100
AcDbPolyline
 90
        5
 70
             129
 10
495.99999985035902
 20
-779.0
 42
-0.414213562373095
 10
500.99999985035902
 20
-774.0
 42
-0.414213562373095
 10
505.99999985035902
 20
-779.0
 42
-0.414213562373095
 10
500.99999985035902
 20
-784.0
 42
-0.414213562373095
 10
495.99999985035902
 20
-779.0
 42
-0.414213562373095
  0
LWPOLYLINE
  5
10B
100
AcDbEntity
  8
OBJECT
  6
CONTINUOUS
 62
               0
100
AcDbPolyline
 90
        6
 70
             128
 10
538.99999985035902
 20
-769.0
 10
494.99999985035902
 20
-769.0
 42
0.414213562373095
 10
490.99999985035902
 20
-773.0
 10
490.99999985035902
 20
-785.0
 42
0.414213562373095
 10
494.99999985035902
 20
-789.0
 10
538.99999985035902
 20
-789.0
  0
ENDBLK
  5
10C
100
AcDbEntity
  8
OBJECT
100
AcDbBlockEnd
  0
BLOCK
  5
10D
100
AcDbEntity
  8
OBJECT
100
AcDbBlockBegin
  2
*U22
 70
               1
 10
0.0
 20
0.0
 30
0.0
  3
*U22
  1

  0
LINE
  5
10E
100
AcDbEntity
  8
OBJECT
  6
CONTINUOUS
 62
               0
100
AcDbLine
 10
-838.0
 20
-84.0
 30
0.0
 11
-838.0
 21
-67.5
 31
0.0
  0
LINE
  5
10F
100
AcDbEntity
  8
OBJECT
  6
CONTINUOUS
 62
               0
100
AcDbLine
 10
-868.0
 20
-84.0
 30
0.0
 11
-838.0
 21
-84.0
 31
0.0
  0
LINE
  5
110
100
AcDbEntity
  8
OBJECT
  6
CONTINUOUS
 62
               0
100
AcDbLine
 10
-868.0
 20
-84.0
 30
0.0
 11
-845.85409999999956
 21
-64.5
 31
0.0
  0
ARC
  5
111
100
AcDbEntity
  8
OBJECT
  6
CONTINUOUS
 62
               0
100
AcDbCircle
 10
-842.5
 20
-67.5
 30
0.0
 40
4.5
100
AcDbArc
 50
0.0
 51
138.18966841416685
  0
ENDBLK
  5
112
100
AcDbEntity
  8
OBJECT
100
AcDbBlockEnd
  0
BLOCK
  5
113
100
AcDbEntity
  8
OBJECT
100
AcDbBlockBegin
  2
*U23
 70
               1
 10
0.0
 20
0.0
 30
0.0
  3
*U23
  1

  0
LINE
  5
114
100
AcDbEntity
  8
OBJECT
  6
CONTINUOUS
 62
               0
100
AcDbLine
 10
-62.0
 20
385.0
 30
0.0
 11
-62.0
 21
401.5
 31
0.0
  0
LINE
  5
115
100
AcDbEntity
  8
OBJECT
  6
CONTINUOUS
 62
               0
100
AcDbLine
 10
-32.0
 20
385.0
 30
0.0
 11
-62.0
 21
385.0
 31
0.0
  0
LINE
  5
116
100
AcDbEntity
  8
OBJECT
  6
CONTINUOUS
 62
               0
100
AcDbLine
 10
-32.0
 20
385.0
 30
0.0
 11
-54.145899999999529
 21
404.5
 31
0.0
  0
ARC
  5
117
100
AcDbEntity
  8
OBJECT
  6
CONTINUOUS
 62
               0
100
AcDbCircle
 10
-57.5
 20
401.5
 30
0.0
 40
4.4999985344445577
100
AcDbArc
 50
41.810331585825722
 51
180.0
  0
ENDBLK
  5
118
100
AcDbEntity
  8
OBJECT
100
AcDbBlockEnd
  0
BLOCK
  5
119
100
AcDbEntity
  8
OBJECT
100
AcDbBlockBegin
  2
*U24
 70
               1
 10
0.0
 20
0.0
 30
0.0
  3
*U24
  1

  0
LINE
  5
11A
100
AcDbEntity
  8
OBJECT
  6
CONTINUOUS
 62
               0
100
AcDbLine
 10
462.0
 20
385.0
 30
0.0
 11
462.0
 21
401.5
 31
0.0
  0
LINE
  5
11B
100
AcDbEntity
  8
OBJECT
  6
CONTINUOUS
 62
               0
100
AcDbLine
 10
432.0
 20
385.0
 30
0.0
 11
462.0
 21
385.0
 31
0.0
  0
LINE
  5
11C
100
AcDbEntity
  8
OBJECT
  6
CONTINUOUS
 62
               0
100
AcDbLine
 10
432.0
 20
385.0
 30
0.0
 11
454.14589999999953
 21
404.5
 31
0.0
  0
ARC
  5
11D
100
AcDbEntity
  8
OBJECT
  6
CONTINUOUS
 62
               0
100
AcDbCircle
 10
457.5
 20
401.5
 30
0.0
 40
4.5
100
AcDbArc
 50
0.0
 51
138.18966841416685
  0
ENDBLK
  5
11E
100
AcDbEntity
  8
OBJECT
100
AcDbBlockEnd
  0
BLOCK
  5
11F
100
AcDbEntity
  8
HIDDEN
100
AcDbBlockBegin
  2
*U25
 70
               1
 10
0.0
 20
0.0
 30
0.0
  3
*U25
  1

  0
POLYLINE
  5
120
100
AcDbEntity
  8
HIDDEN
  6
STYLE_16
 62
               0
100
AcDb2dPolyline
 66
               1
 10
0.0
 20
0.0
 30
0.0
 70
               1
 75
               5
  0
VERTEX
  5
121
100
AcDbEntity
  8
HIDDEN
  6
STYLE_16
 62
               0
100
AcDbVertex
100
AcDb2dVertex
 10
280.49999985035902
 20
-674.0
 30
0.0
  0
VERTEX
  5
122
100
AcDbEntity
  8
HIDDEN
  6
STYLE_16
 62
               0
100
AcDbVertex
100
AcDb2dVertex
 10
425.49999985035902
 20
-674.0
 30
0.0
  0
VERTEX
  5
123
100
AcDbEntity
  8
HIDDEN
  6
STYLE_16
 62
               0
100
AcDbVertex
100
AcDb2dVertex
 10
425.49999985035902
 20
-759.0
 30
0.0
  0
VERTEX
  5
124
100
AcDbEntity
  8
HIDDEN
  6
STYLE_16
 62
               0
100
AcDbVertex
100
AcDb2dVertex
 10
280.49999985035902
 20
-759.0
 30
0.0
  0
SEQEND
  5
125
100
AcDbEntity
  8
HIDDEN
  6
STYLE_16
 62
               0
  0
POLYLINE
  5
126
100
AcDbEntity
  8
HIDDEN
  6
STYLE_16
 62
               0
100
AcDb2dPolyline
 66
               1
 10
0.0
 20
0.0
 30
0.0
 75
               5
  0
VERTEX
  5
127
100
AcDbEntity
  8
HIDDEN
  6
STYLE_16
 62
               0
100
AcDbVertex
100
AcDb2dVertex
 10
417.99999985035902
 20
-759.0
 30
0.0
  0
VERTEX
  5
128
100
AcDbEntity
  8
HIDDEN
  6
STYLE_16
 62
               0
100
AcDbVertex
100
AcDb2dVertex
 10
417.99999985035902
 20
-799.0
 30
0.0
  0
VERTEX
  5
129
100
AcDbEntity
  8
HIDDEN
  6
STYLE_16
 62
               0
100
AcDbVertex
100
AcDb2dVertex
 10
287.99999985035902
 20
-799.0
 30
0.0
  0
VERTEX
  5
12A
100
AcDbEntity
  8
HIDDEN
  6
STYLE_16
 62
               0
100
AcDbVertex
100
AcDb2dVertex
 10
287.99999985035902
 20
-759.0
 30
0.0
  0
SEQEND
  5
12B
100
AcDbEntity
  8
HIDDEN
  6
STYLE_16
 62
               0
  0
ENDBLK
  5
12C
100
AcDbEntity
  8
HIDDEN
100
AcDbBlockEnd
  0
BLOCK
  5
12D
100
AcDbEntity
  8
DIMENTION
100
AcDbBlockBegin
  2
*D26
 70
               1
 10
0.0
 20
0.0
 30
0.0
  3
*D26
  1

  0
LINE
  5
12E
100
AcDbEntity
  8
DIMENTION
  6
CONTINUOUS
 62
               0
100
AcDbLine
 10
247.99999985035902
 20
-89.0
 30
0.0
 11
80.0
 21
-89.0
 31
0.0
  0
LINE
  5
12F
100
AcDbEntity
  8
DIMENTION
  6
CONTINUOUS
 62
               0
100
AcDbLine
 10
206.99999985035902
 20
-69.0
 30
0.0
 11
80.0
 21
-69.0
 31
0.0
  0
LINE
  5
130
100
AcDbEntity
  8
DIMENTION
  6
CONTINUOUS
 62
               0
100
AcDbLine
 10
100.0
 20
-69.0
 30
0.0
 11
100.0
 21
-89.0
 31
0.0
  0
LINE
  5
131
100
AcDbEntity
  8
DIMENTION
  6
CONTINUOUS
 62
               0
100
AcDbLine
 10
100.0
 20
-89.0
 30
0.0
 11
100.0
 21
-149.0
 31
0.0
  0
LINE
  5
132
100
AcDbEntity
  8
DIMENTION
  6
CONTINUOUS
 62
               0
100
AcDbLine
 10
100.0
 20
-89.0
 30
0.0
 11
108.50738685968813
 21
-120.75
 31
0.0
  0
LINE
  5
133
100
AcDbEntity
  8
DIMENTION
  6
CONTINUOUS
 62
               0
100
AcDbLine
 10
100.0
 20
-89.0
 30
0.0
 11
91.49261314031186
 21
-120.75
 31
0.0
  0
LINE
  5
134
100
AcDbEntity
  8
DIMENTION
  6
CONTINUOUS
 62
               0
100
AcDbLine
 10
100.0
 20
-69.0
 30
0.0
 11
100.0
 21
12.333333333333552
 31
0.0
  0
LINE
  5
135
100
AcDbEntity
  8
DIMENTION
  6
CONTINUOUS
 62
               0
100
AcDbLine
 10
100.0
 20
-69.0
 30
0.0
 11
91.492613140311846
 21
-37.25
 31
0.0
  0
LINE
  5
136
100
AcDbEntity
  8
DIMENTION
  6
CONTINUOUS
 62
               0
100
AcDbLine
 10
100.0
 20
-69.0
 30
0.0
 11
108.50738685968814
 21
-37.25
 31
0.0
  0
MTEXT
  5
137
100
AcDbEntity
  8
DIMENTION
 62
               0
100
AcDbMText
 10
56.666666666666657
 20
-29.999999999999776
 30
0.0
 40
33.866666666666667
 41
0.0
 71
               1
 72
               1
  1
20
  7
________
 11
0.0
 21
1.0
 31
0.0
  0
POINT
  5
138
100
AcDbEntity
  8
DEFPOINTS
 62
               0
100
AcDbPoint
 10
216.99999985035902
 20
-69.0
 30
0.0
  0
POINT
  5
139
100
AcDbEntity
  8
DEFPOINTS
 62
               0
100
AcDbPoint
 10
257.99999985035902
 20
-89.0
 30
0.0
  0
POINT
  5
13A
100
AcDbEntity
  8
DEFPOINTS
 62
               0
100
AcDbPoint
 10
100.0
 20
-89.0
 30
0.0
  0
ENDBLK
  5
13B
100
AcDbEntity
  8
DIMENTION
100
AcDbBlockEnd
  0
BLOCK
  5
13C
100
AcDbEntity
  8
DIMENTION
100
AcDbBlockBegin
  2
*D27
 70
               1
 10
0.0
 20
0.0
 30
0.0
  3
*D27
  1

  0
LINE
  5
13D
100
AcDbEntity
  8
DIMENTION
  6
CONTINUOUS
 62
               0
100
AcDbLine
 10
-65.0
 20
780.0
 30
0.0
 11
-65.0
 21
875.0
 31
0.0
  0
LINE
  5
13E
100
AcDbEntity
  8
DIMENTION
  6
CONTINUOUS
 62
               0
100
AcDbLine
 10
465.0
 20
780.0
 30
0.0
 11
465.0
 21
875.0
 31
0.0
  0
LINE
  5
13F
100
AcDbEntity
  8
DIMENTION
  6
CONTINUOUS
 62
               0
100
AcDbLine
 10
-65.0
 20
855.0
 30
0.0
 11
465.0
 21
855.0
 31
0.0
  0
LINE
  5
140
100
AcDbEntity
  8
DIMENTION
  6
CONTINUOUS
 62
               0
100
AcDbLine
 10
-65.0
 20
855.0
 30
0.0
 11
-33.25
 21
863.50738685968815
 31
0.0
  0
LINE
  5
141
100
AcDbEntity
  8
DIMENTION
  6
CONTINUOUS
 62
               0
100
AcDbLine
 10
-65.0
 20
855.0
 30
0.0
 11
-33.25
 21
846.49261314031185
 31
0.0
  0
LINE
  5
142
100
AcDbEntity
  8
DIMENTION
  6
CONTINUOUS
 62
               0
100
AcDbLine
 10
465.0
 20
855.0
 30
0.0
 11
433.25
 21
846.49261314031185
 31
0.0
  0
LINE
  5
143
100
AcDbEntity
  8
DIMENTION
  6
CONTINUOUS
 62
               0
100
AcDbLine
 10
465.0
 20
855.0
 30
0.0
 11
433.25
 21
863.50738685968815
 31
0.0
  0
MTEXT
  5
144
100
AcDbEntity
  8
DIMENTION
 62
               0
100
AcDbMText
 10
168.25
 20
898.33333333333337
 30
0.0
 40
33.866666666666667
 41
0.0
 71
               1
 72
               1
  1
530
  7
________
  0
POINT
  5
145
100
AcDbEntity
  8
DEFPOINTS
 62
               0
100
AcDbPoint
 10
465.0
 20
770.0
 30
0.0
  0
POINT
  5
146
100
AcDbEntity
  8
DEFPOINTS
 62
               0
100
AcDbPoint
 10
-65.0
 20
770.0
 30
0.0
  0
POINT
  5
147
100
AcDbEntity
  8
DEFPOINTS
 62
               0
100
AcDbPoint
 10
-65.0
 20
855.0
 30
0.0
  0
ENDBLK
  5
148
100
AcDbEntity
  8
DIMENTION
100
AcDbBlockEnd
  0
BLOCK
  5
149
100
AcDbEntity
  8
DIMENTION
100
AcDbBlockBegin
  2
*D28
 70
               1
 10
0.0
 20
0.0
 30
0.0
  3
*D28
  1

  0
LINE
  5
14A
100
AcDbEntity
  8
DIMENTION
  6
CONTINUOUS
 62
               0
100
AcDbLine
 10
-75.0
 20
770.0
 30
0.0
 11
-170.0
 21
770.0
 31
0.0
  0
LINE
  5
14B
100
AcDbEntity
  8
DIMENTION
  6
CONTINUOUS
 62
               0
100
AcDbLine
 10
-75.0
 20
500.0
 30
0.0
 11
-170.0
 21
500.0
 31
0.0
  0
LINE
  5
14C
100
AcDbEntity
  8
DIMENTION
  6
CONTINUOUS
 62
               0
100
AcDbLine
 10
-150.0
 20
770.0
 30
0.0
 11
-150.0
 21
500.0
 31
0.0
  0
LINE
  5
14D
100
AcDbEntity
  8
DIMENTION
  6
CONTINUOUS
 62
               0
100
AcDbLine
 10
-150.0
 20
770.0
 30
0.0
 11
-141.49261314031187
 21
738.25
 31
0.0
  0
LINE
  5
14E
100
AcDbEntity
  8
DIMENTION
  6
CONTINUOUS
 62
               0
100
AcDbLine
 10
-150.0
 20
770.0
 30
0.0
 11
-158.50738685968815
 21
738.25
 31
0.0
  0
LINE
  5
14F
100
AcDbEntity
  8
DIMENTION
  6
CONTINUOUS
 62
               0
100
AcDbLine
 10
-150.0
 20
500.0
 30
0.0
 11
-158.50738685968815
 21
531.75
 31
0.0
  0
LINE
  5
150
100
AcDbEntity
  8
DIMENTION
  6
CONTINUOUS
 62
               0
100
AcDbLine
 10
-150.0
 20
500.0
 30
0.0
 11
-141.49261314031185
 21
531.75
 31
0.0
  0
MTEXT
  5
151
100
AcDbEntity
  8
DIMENTION
 62
               0
100
AcDbMText
 10
-193.33333333333334
 20
603.25
 30
0.0
 40
33.866666666666667
 41
0.0
 71
               1
 72
               1
  1
270
  7
________
 11
0.0
 21
1.0
 31
0.0
  0
POINT
  5
152
100
AcDbEntity
  8
DEFPOINTS
 62
               0
100
AcDbPoint
 10
-65.0
 20
500.0
 30
0.0
  0
POINT
  5
153
100
AcDbEntity
  8
DEFPOINTS
 62
               0
100
AcDbPoint
 10
-65.0
 20
770.0
 30
0.0
  0
POINT
  5
154
100
AcDbEntity
  8
DEFPOINTS
 62
               0
100
AcDbPoint
 10
-150.0
 20
770.0
 30
0.0
  0
ENDBLK
  5
155
100
AcDbEntity
  8
DIMENTION
100
AcDbBlockEnd
  0
BLOCK
  5
156
100
AcDbEntity
  8
DIMENTION
100
AcDbBlockBegin
  2
*D29
 70
               1
 10
0.0
 20
0.0
 30
0.0
  3
*D29
  1

  0
LINE
  5
157
100
AcDbEntity
  8
DIMENTION
  6
CONTINUOUS
 62
               0
100
AcDbLine
 10
-75.0
 20
405.0
 30
0.0
 11
-170.0
 21
405.0
 31
0.0
  0
LINE
  5
158
100
AcDbEntity
  8
DIMENTION
  6
CONTINUOUS
 62
               0
100
AcDbLine
 10
-75.0
 20
400.0
 30
0.0
 11
-170.0
 21
400.0
 31
0.0
  0
LINE
  5
159
100
AcDbEntity
  8
DIMENTION
  6
CONTINUOUS
 62
               0
100
AcDbLine
 10
-150.0
 20
400.0
 30
0.0
 11
-150.0
 21
405.0
 31
0.0
  0
LINE
  5
15A
100
AcDbEntity
  8
DIMENTION
  6
CONTINUOUS
 62
               0
100
AcDbLine
 10
-150.0
 20
405.0
 30
0.0
 11
-150.0
 21
465.0
 31
0.0
  0
LINE
  5
15B
100
AcDbEntity
  8
DIMENTION
  6
CONTINUOUS
 62
               0
100
AcDbLine
 10
-150.0
 20
405.0
 30
0.0
 11
-158.50738685968815
 21
436.75
 31
0.0
  0
LINE
  5
15C
100
AcDbEntity
  8
DIMENTION
  6
CONTINUOUS
 62
               0
100
AcDbLine
 10
-150.0
 20
405.0
 30
0.0
 11
-141.49261314031185
 21
436.75
 31
0.0
  0
LINE
  5
15D
100
AcDbEntity
  8
DIMENTION
  6
CONTINUOUS
 62
               0
100
AcDbLine
 10
-150.0
 20
400.0
 30
0.0
 11
-150.0
 21
338.83333333333331
 31
0.0
  0
LINE
  5
15E
100
AcDbEntity
  8
DIMENTION
  6
CONTINUOUS
 62
               0
100
AcDbLine
 10
-150.0
 20
400.0
 30
0.0
 11
-141.49261314031187
 21
368.25
 31
0.0
  0
LINE
  5
15F
100
AcDbEntity
  8
DIMENTION
  6
CONTINUOUS
 62
               0
100
AcDbLine
 10
-150.0
 20
400.0
 30
0.0
 11
-158.50738685968815
 21
368.25
 31
0.0
  0
MTEXT
  5
160
100
AcDbEntity
  8
DIMENTION
 62
               0
100
AcDbMText
 10
-193.33333333333334
 20
338.83333333333331
 30
0.0
 40
33.866666666666667
 41
0.0
 71
               1
 72
               1
  1
3
  7
________
 11
0.0
 21
1.0
 31
0.0
  0
POINT
  5
161
100
AcDbEntity
  8
DEFPOINTS
 62
               0
100
AcDbPoint
 10
-65.0
 20
400.0
 30
0.0
  0
POINT
  5
162
100
AcDbEntity
  8
DEFPOINTS
 62
               0
100
AcDbPoint
 10
-65.0
 20
405.0
 30
0.0
  0
POINT
  5
163
100
AcDbEntity
  8
DEFPOINTS
 62
               0
100
AcDbPoint
 10
-150.0
 20
405.0
 30
0.0
  0
ENDBLK
  5
164
100
AcDbEntity
  8
DIMENTION
100
AcDbBlockEnd
  0
BLOCK
  5
165
100
AcDbEntity
  8
OBJECT
100
AcDbBlockBegin
  2
*U30
 70
               1
 10
0.0
 20
0.0
 30
0.0
  3
*U30
  1

  0
LWPOLYLINE
  5
166
100
AcDbEntity
  8
OBJECT
  6
CONTINUOUS
 62
               0
100
AcDbPolyline
 90
       10
 70
             128
 10
1301.0
 20
-801.0
 10
1301.0
 20
-806.0
 10
1301.0
 20
-806.0
 10
1301.0
 20
-806.0
 42
-0.414213562373095
 10
1296.0
 20
-811.0
 10
1296.0
 20
-811.0
 10
1296.0
 20
-811.0
 42
-0.414213562373095
 10
1291.0
 20
-806.0
 10
1291.0
 20
-801.0
 10
1291.0
 20
-801.0
  0
LINE
  5
167
100
AcDbEntity
  8
OBJECT
  6
CONTINUOUS
 62
               0
100
AcDbLine
 10
1383.4223999999995
 20
-465.0
 30
0.0
 11
1301.0
 21
-801.0
 31
0.0
  0
LWPOLYLINE
  5
168
100
AcDbEntity
  8
OBJECT
  6
CONTINUOUS
 62
               0
100
AcDbPolyline
 90
        5
 70
             128
 10
1402.4508000000005
 20
-473.0
 10
1393.2760260812188
 20
-466.88348405414553
 42
0.3575107650276802
 10
1376.9508000000005
 20
-468.5
 42
-0.3575107650276796
 10
1360.6255739187823
 20
-470.11651594585447
 10
1351.4508000000005
 20
-464.0
  0
LINE
  5
169
100
AcDbEntity
  8
OBJECT
  6
CONTINUOUS
 62
               0
100
AcDbLine
 10
1291.0
 20
-801.0
 30
0.0
 11
1371.134399999999
 21
-471.85290000000032
 31
0.0
  0
POINT
  5
16A
100
AcDbEntity
  8
OBJECT
  6
CONTINUOUS
 62
               0
100
AcDbPoint
 10
1166.0
 20
-779.0
 30
0.0
  0
ENDBLK
  5
16B
100
AcDbEntity
  8
OBJECT
100
AcDbBlockEnd
  0
BLOCK
  5
16C
100
AcDbEntity
  8
DIMENTION
100
AcDbBlockBegin
  2
*D31
 70
               1
 10
0.0
 20
0.0
 30
0.0
  3
*D31
  1

  0
LINE
  5
16D
100
AcDbEntity
  8
DIMENTION
 62
               0
100
AcDbLine
 10
-825.0
 20
822.0
 30
0.0
 11
-580.0
 21
822.0
 31
0.0
  0
LINE
  5
16E
100
AcDbEntity
  8
DIMENTION
 62
               0
100
AcDbLine
 10
-825.0
 20
482.0
 30
0.0
 11
-580.0
 21
482.0
 31
0.0
  0
LINE
  5
16F
100
AcDbEntity
  8
DIMENTION
 62
               0
100
AcDbLine
 10
-600.0
 20
822.0
 30
0.0
 11
-600.0
 21
482.0
 31
0.0
  0
LINE
  5
170
100
AcDbEntity
  8
DIMENTION
 62
               0
100
AcDbLine
 10
-600.0
 20
822.0
 30
0.0
 11
-591.49261314031185
 21
790.25
 31
0.0
  0
LINE
  5
171
100
AcDbEntity
  8
DIMENTION
 62
               0
100
AcDbLine
 10
-600.0
 20
822.0
 30
0.0
 11
-608.50738685968815
 21
790.25
 31
0.0
  0
LINE
  5
172
100
AcDbEntity
  8
DIMENTION
 62
               0
100
AcDbLine
 10
-600.0
 20
482.0
 30
0.0
 11
-608.50738685968815
 21
513.75
 31
0.0
  0
LINE
  5
173
100
AcDbEntity
  8
DIMENTION
 62
               0
100
AcDbLine
 10
-600.0
 20
482.0
 30
0.0
 11
-591.49261314031185
 21
513.75
 31
0.0
  0
MTEXT
  5
174
100
AcDbEntity
  8
DIMENTION
 62
               0
100
AcDbMText
 10
-643.33333332960797
 20
620.25
 30
0.0
 40
33.866666666666667
 41
0.0
 71
               1
 72
               1
  1
340
  7
________
 11
0.0
 21
1.0
 31
0.0
  0
POINT
  5
175
100
AcDbEntity
  8
DEFPOINTS
 62
               0
100
AcDbPoint
 10
-835.0
 20
482.0
 30
0.0
  0
POINT
  5
176
100
AcDbEntity
  8
DEFPOINTS
 62
               0
100
AcDbPoint
 10
-835.0
 20
822.0
 30
0.0
  0
POINT
  5
177
100
AcDbEntity
  8
DEFPOINTS
 62
               0
100
AcDbPoint
 10
-600.0
 20
822.0
 30
0.0
  0
ENDBLK
  5
178
100
AcDbEntity
  8
DIMENTION
100
AcDbBlockEnd
  0
BLOCK
  5
179
100
AcDbEntity
  8
DIMENTION
100
AcDbBlockBegin
  2
*D32
 70
               1
 10
0.0
 20
0.0
 30
0.0
  3
*D32
  1

  0
LINE
  5
17A
100
AcDbEntity
  8
DIMENTION
 62
               0
100
AcDbLine
 10
-820.0
 20
817.0
 30
0.0
 11
-820.0
 21
1060.0
 31
0.0
  0
LINE
  5
17B
100
AcDbEntity
  8
DIMENTION
 62
               0
100
AcDbLine
 10
-1380.0
 20
817.0
 30
0.0
 11
-1380.0
 21
1060.0
 31
0.0
  0
LINE
  5
17C
100
AcDbEntity
  8
DIMENTION
 62
               0
100
AcDbLine
 10
-820.0
 20
1040.0
 30
0.0
 11
-1380.0
 21
1040.0
 31
0.0
  0
LINE
  5
17D
100
AcDbEntity
  8
DIMENTION
 62
               0
100
AcDbLine
 10
-820.0
 20
1040.0
 30
0.0
 11
-851.75
 21
1031.4926131403117
 31
0.0
  0
LINE
  5
17E
100
AcDbEntity
  8
DIMENTION
 62
               0
100
AcDbLine
 10
-820.0
 20
1040.0
 30
0.0
 11
-851.75
 21
1048.5073868596883
 31
0.0
  0
LINE
  5
17F
100
AcDbEntity
  8
DIMENTION
 62
               0
100
AcDbLine
 10
-1380.0
 20
1040.0
 30
0.0
 11
-1348.25
 21
1048.507386859688
 31
0.0
  0
LINE
  5
180
100
AcDbEntity
  8
DIMENTION
 62
               0
100
AcDbLine
 10
-1380.0
 20
1040.0
 30
0.0
 11
-1348.25
 21
1031.4926131403117
 31
0.0
  0
MTEXT
  5
181
100
AcDbEntity
  8
DIMENTION
 62
               0
100
AcDbMText
 10
-1131.75
 20
1083.3333333296082
 30
0.0
 40
33.866666666666667
 41
0.0
 71
               1
 72
               1
  1
560
  7
________
  0
POINT
  5
182
100
AcDbEntity
  8
DEFPOINTS
 62
               0
100
AcDbPoint
 10
-1380.0
 20
807.0
 30
0.0
  0
POINT
  5
183
100
AcDbEntity
  8
DEFPOINTS
 62
               0
100
AcDbPoint
 10
-820.0
 20
807.0
 30
0.0
  0
POINT
  5
184
100
AcDbEntity
  8
DEFPOINTS
 62
               0
100
AcDbPoint
 10
-820.0
 20
1040.0
 30
0.0
  0
ENDBLK
  5
185
100
AcDbEntity
  8
DIMENTION
100
AcDbBlockEnd
  0
ENDSEC
  0
SECTION
  2
ENTITIES
  0
LINE
  5
186
100
AcDbEntity
  8
FRAME
  6
CONTINUOUS
100
AcDbLine
 10
-2025.3999999999999
 20
-1388.9999999999998
 30
0.0
 11
-2025.3999999999999
 21
1330.9999999999998
 31
0.0
  0
LINE
  5
187
100
AcDbEntity
  8
FRAME
  6
CONTINUOUS
100
AcDbLine
 10
2024.5999999999999
 20
-1388.9999999999998
 30
0.0
 11
-2025.3999999999999
 21
-1388.9999999999998
 31
0.0
  0
LINE
  5
188
100
AcDbEntity
  8
FRAME
  6
CONTINUOUS
100
AcDbLine
 10
2024.5999999999999
 20
1330.9999999999998
 30
0.0
 11
2024.5999999999999
 21
-1388.9999999999998
 31
0.0
  0
LINE
  5
189
100
AcDbEntity
  8
FRAME
  6
CONTINUOUS
100
AcDbLine
 10
-2025.3999999999999
 20
1330.9999999999998
 30
0.0
 11
2024.5999999999999
 21
1330.9999999999998
 31
0.0
  0
LINE
  5
18A
100
AcDbEntity
  8
OBJECT
  6
CONTINUOUS
100
AcDbLine
 10
1264.3599999999999
 20
-1388.9999999999998
 30
0.0
 11
1264.3599999999999
 21
-1249.0
 31
0.0
  0
LINE
  5
18B
100
AcDbEntity
  8
OBJECT
  6
CONTINUOUS
100
AcDbLine
 10
1044.3599999999999
 20
-1388.9999999999998
 30
0.0
 11
1044.3599999999999
 21
-1249.0
 31
0.0
  0
LINE
  5
18C
100
AcDbEntity
  8
OBJECT
  6
CONTINUOUS
100
AcDbLine
 10
444.35999999999996
 20
-1388.9999999999998
 30
0.0
 11
444.35999999999996
 21
-1249.0
 31
0.0
  0
LINE
  5
18D
100
AcDbEntity
  8
OBJECT
  6
CONTINUOUS
100
AcDbLine
 10
-675.39999999999998
 20
-1388.9999999999998
 30
0.0
 11
-675.39999999999998
 21
-1249.0
 31
0.0
  0
MTEXT
  5
18E
100
AcDbEntity
  8
DIMENTION
100
AcDbMText
 10
-650.63999999999999
 20
-1254.1299999999999
 30
0.0
 40
28.2224
 41
109.36099999999999
 71
               1
 72
               1
  1
品　名
  7
________
  0
MTEXT
  5
18F
100
AcDbEntity
  8
DIMENTION
100
AcDbMText
 10
464.35999999999996
 20
-1259.1299999999999
 30
0.0
 40
28.2224
 41
0.0
 71
               1
 72
               1
  1
形　式
  7
________
  0
MTEXT
  5
190
100
AcDbEntity
  8
DIMENTION
100
AcDbMText
 10
1069.3599999999999
 20
-1259.1299999999999
 30
0.0
 40
28.2224
 41
0.0
 71
               1
 72
               1
  1
尺　度
  7
________
  0
MTEXT
  5
191
100
AcDbEntity
  8
DIMENTION
100
AcDbMText
 10
1289.3599999999999
 20
-1259.1299999999999
 30
0.0
 40
28.2224
 41
0.0
 71
               1
 72
               1
  1
図　番
  7
________
  0
LINE
  5
192
100
AcDbEntity
  8
OBJECT
  6
CONTINUOUS
100
AcDbLine
 10
-1095.3999999999999
 20
-1388.9999999999998
 30
0.0
 11
-1095.3999999999999
 21
-1249.0
 31
0.0
  0
MTEXT
  5
193
100
AcDbEntity
  8
TEXT
100
AcDbMText
 10
1115.3119999999999
 20
-1314.0139999999999
 30
0.0
 40
39.511200000000002
 41
0.0
 71
               1
 72
               1
  1
1/10
  7
________
  0
LINE
  5
194
100
AcDbEntity
  8
FRAME
  6
CONTINUOUS
100
AcDbLine
 10
-2025.3999999999999
 20
-1249.0
 30
0.0
 11
2024.5999999999999
 21
-1249.0
 31
0.0
  0
MTEXT
  5
195
100
AcDbEntity
  8
DIMENTION
100
AcDbMText
 10
-1085.6399999999999
 20
-1257.1088
 30
0.0
 40
28.2224
 41
0.0
 71
               1
 72
               1
  1
検  図
  7
________
  0
MTEXT
  5
196
100
AcDbEntity
  8
DIMENTION
100
AcDbMText
 10
-1085.6399999999999
 20
-1302.1899999999998
 30
0.0
 40
28.2224
 41
0.0
 71
               1
 72
               1
  1
担  当
  7
________
  0
MTEXT
  5
197
100
AcDbEntity
  8
DIMENTION
100
AcDbMText
 10
-1085.6399999999999
 20
-1347.0599999999999
 30
0.0
 40
28.2224
 41
0.0
 71
               1
 72
               1
  1
年月日
  7
________
  0
LINE
  5
198
100
AcDbEntity
  8
OBJECT
  6
CONTINUOUS
100
AcDbLine
 10
-1095.3999999999999
 20
-1297.9399999999998
 30
0.0
 11
-675.39999999999998
 21
-1297.9399999999998
 31
0.0
  0
LINE
  5
199
100
AcDbEntity
  8
OBJECT
  6
CONTINUOUS
100
AcDbLine
 10
-1095.3999999999999
 20
-1342.3299999999999
 30
0.0
 11
-675.39999999999998
 21
-1342.3299999999999
 31
0.0
  0
MTEXT
  5
19A
100
AcDbEntity
  8
TEXT
100
AcDbMText
 10
-44.165000000000077
 20
-1315.0347999999999
 30
0.0
 40
39.511200000000002
 41
0.0
 71
               1
 72
               1
  1
食器ディスペンサー
  7
________
  0
MTEXT
  5
19B
100
AcDbEntity
  8
TEXT
100
AcDbMText
 10
-930.0
 20
-1350.0
 30
0.0
 40
28.222222222222225
 41
0.0
 71
               1
 72
               1
  1
2019.09.04
  7
________
  0
MTEXT
  5
19C
100
AcDbEntity
  8
TEXT
100
AcDbMText
 10
-930.0
 20
-1302.0
 30
0.0
 40
28.222222222222225
 41
0.0
 71
               1
 72
               1
  1
月川
  7
________
  0
MTEXT
  5
19D
100
AcDbEntity
  8
TEXT
100
AcDbMText
 10
-930.0
 20
-1258.0
 30
0.0
 40
28.222222222222225
 41
0.0
 71
               1
 72
               1
  1
大谷
  7
________
  0
MTEXT
  5
19E
100
AcDbEntity
  8
DIMENTION
100
AcDbMText
 10
-695.00000000000045
 20
-155.0
 30
0.0
 40
33.866666666666667
 41
0.0
 71
               1
 72
               1
  1
胴体外板
  7
________
  0
MTEXT
  5
19F
100
AcDbEntity
  8
DIMENTION
100
AcDbMText
 10
-700.00000000000045
 20
-655.0
 30
0.0
 40
33.866666666666667
 41
0.0
 71
               1
 72
               1
  1
ダンパーゴム4個
  7
________
  0
MTEXT
  5
1A0
100
AcDbEntity
  8
DIMENTION
100
AcDbMText
 10
-690.00000000000045
 20
-205.0
 30
0.0
 40
33.866666666666667
 41
0.0
 71
               1
 72
               1
  1
SUS 430
  7
________
  0
MTEXT
  5
1A1
100
AcDbEntity
  8
DIMENTION
100
AcDbMText
 10
-690.00000000000045
 20
-255.0
 30
0.0
 40
33.866666666666667
 41
0.0
 71
               1
 72
               1
  1
緑色シート貼り
  7
________
  0
LINE
  5
1A2
100
AcDbEntity
  8
DIMENTION
100
AcDbLine
 10
-700.00000000000045
 20
-200.0
 30
0.0
 11
-430.0
 21
-200.0
 31
0.0
  0
LINE
  5
1A3
100
AcDbEntity
  8
DIMENTION
100
AcDbLine
 10
-700.00000000000045
 20
-200.0
 30
0.0
 11
-700.00000000000045
 21
-300.0
 31
0.0
  0
LINE
  5
1A4
100
AcDbEntity
  8
DIMENTION
100
AcDbLine
 10
-700.00000000000045
 20
-300.0
 30
0.0
 11
-430.0
 21
-300.0
 31
0.0
  0
LINE
  5
1A5
100
AcDbEntity
  8
DIMENTION
100
AcDbLine
 10
-700.00000000000045
 20
-250.0
 30
0.0
 11
-430.0
 21
-250.0
 31
0.0
  0
LINE
  5
1A6
100
AcDbEntity
  8
DIMENTION
100
AcDbLine
 10
-700.00000000000045
 20
-700.0
 30
0.0
 11
-400.0
 21
-700.0
 31
0.0
  0
MTEXT
  5
1A7
100
AcDbEntity
  8
TEXT
100
AcDbMText
 10
744.36000000000013
 20
-1339.7293
 30
0.0
 40
50.800000000000004
 41
0.0
 71
               5
 72
               1
  1
CL 26W2 H
  7
________
  0
MTEXT
  5
1A8
100
AcDbEntity
  8
TEXT
100
AcDbMText
 10
1429.9999999999995
 20
-1270.0
 30
0.0
 40
79.02222222222224
 41
0.0
 71
               1
 72
               1
  1
A330-0{\H0.9873x;\l93C}
  7
ARIAL
  0
INSERT
  5
1A9
100
AcDbEntity
  8
FRAME
100
AcDbBlockReference
  2
*U6
 10
0.0
 20
19.999999999999996
 30
0.0
  0
LINE
  5
1AA
100
AcDbEntity
  8
DIMENTION
  6
CONTINUOUS
100
AcDbLine
 10
-700.00000000000045
 20
-200.0
 30
0.0
 11
-840.0
 21
-300.0
 31
0.0
  0
LINE
  5
1AB
100
AcDbEntity
  8
DIMENTION
  6
CONTINUOUS
100
AcDbLine
 10
-840.0
 20
-300.0
 30
0.0
 11
-825.36071413547245
 21
-282.55357847793567
 31
0.0
  0
LINE
  5
1AC
100
AcDbEntity
  8
DIMENTION
  6
CONTINUOUS
100
AcDbLine
 10
-840.0
 20
-300.0
 30
0.0
 11
-818.59879578702453
 21
-292.21059868902449
 31
0.0
  0
LINE
  5
1AD
100
AcDbEntity
  8
DIMENTION
  6
CONTINUOUS
100
AcDbLine
 10
-700.00000000000045
 20
-700.0
 30
0.0
 11
-820.0
 21
-759.0
 31
0.0
  0
LINE
  5
1AE
100
AcDbEntity
  8
DIMENTION
  6
CONTINUOUS
100
AcDbLine
 10
-820.0
 20
-759.0
 30
0.0
 11
-802.81172641929641
 21
-744.0584617303374
 31
0.0
  0
LINE
  5
1AF
100
AcDbEntity
  8
DIMENTION
  6
CONTINUOUS
100
AcDbLine
 10
-820.0
 20
-759.0
 30
0.0
 11
-797.64374929708254
 21
-754.6543850772066
 31
0.0
  0
MTEXT
  5
1B0
100
AcDbEntity
  8
DIMENTION
100
AcDbMText
 10
-340.0
 20
-755.0
 30
0.0
 40
33.866666666666667
 41
441.50939999999997
 71
               1
 72
               1
  1
2個ストッパー付
  7
________
  0
MTEXT
  5
1B1
100
AcDbEntity
  8
DIMENTION
100
AcDbMText
 10
-350.0
 20
-705.0
 30
0.0
 40
33.866666666666667
 41
455.0
 71
               1
 72
               1
  1
φ100 ウレタンキャスター
  7
________
  0
LINE
  5
1B2
100
AcDbEntity
  8
DIMENTION
100
AcDbLine
 10
100.0
 20
-750.0
 30
0.0
 11
-350.0
 21
-750.0
 31
0.0
  0
LINE
  5
1B3
100
AcDbEntity
  8
DIMENTION
100
AcDbLine
 10
100.0
 20
-800.0
 30
0.0
 11
-350.0
 21
-800.0
 31
0.0
  0
LINE
  5
1B4
100
AcDbEntity
  8
CENTER
  6
STYLE_03
100
AcDbLine
 10
-1100.0
 20
-950.0
 30
0.0
 11
-1100.0
 21
-30.000000000000004
 31
0.0
  0
LINE
  5
1B5
100
AcDbEntity
  8
FRAME
  6
CONTINUOUS
100
AcDbLine
 10
-1400.0
 20
-900.0
 30
0.0
 11
-800.0
 21
-900.0
 31
0.0
  0
DIMENSION
  5
1B6
100
AcDbEntity
  8
DIMENTION
  6
CONTINUOUS
100
AcDbDimension
  2
*D7
 10
-1500.0
 20
-69.0
 30
0.0
 11
-1500.0
 21
-484.5
 31
0.0
  1
830
  3
CAD
100
AcDbAlignedDimension
 13
-1400.0
 23
-900.0
 33
0.0
 14
-1312.0
 24
-69.0
 34
0.0
 50
90.0
100
AcDbRotatedDimension
1001
ACAD
1000
DSTYLE
1002
{
1070
             271
1070
               0
1070
             340
1005
3E
1070
             147
1040
0.9999999999999999
1002
}
  0
LINE
  5
1B7
100
AcDbEntity
  8
CENTER
  6
STYLE_03
100
AcDbLine
 10
-1100.0
 20
850.0
 30
0.0
 11
-1100.0
 21
450.0
 31
0.0
  0
LWPOLYLINE
  5
1B8
100
AcDbEntity
  8
OBJECT
  6
CONTINUOUS
100
AcDbPolyline
 90
       10
 70
             129
 10
-1333.5
 20
-845.5
 42
-0.414213562373095
 10
-1331.5
 20
-847.5
 10
-1331.5
 20
-860.5
 42
-0.414213562373095
 10
-1333.5
 20
-862.5
 10
-1334.5
 20
-862.5
 10
-1334.5
 20
-855.5
 10
-1349.5
 20
-855.5
 42
-0.414213562373095
 10
-1351.5
 20
-853.5
 10
-1351.5
 20
-847.5
 42
-0.414213562373095
 10
-1349.5
 20
-845.5
  0
POLYLINE
  5
1B9
100
AcDbEntity
  8
OBJECT
  6
CONTINUOUS
100
AcDb2dPolyline
 66
               1
 10
0.0
 20
0.0
 30
0.0
 70
               1
 75
               5
  0
VERTEX
  5
1BA
100
AcDbEntity
  8
OBJECT
  6
CONTINUOUS
100
AcDbVertex
100
AcDb2dVertex
 10
-1346.0
 20
-781.0
 30
0.0
  0
VERTEX
  5
1BB
100
AcDbEntity
  8
OBJECT
  6
CONTINUOUS
100
AcDbVertex
100
AcDb2dVertex
 10
-1276.0
 20
-781.0
 30
0.0
  0
VERTEX
  5
1BC
100
AcDbEntity
  8
OBJECT
  6
CONTINUOUS
100
AcDbVertex
100
AcDb2dVertex
 10
-1276.0
 20
-784.0
 30
0.0
  0
VERTEX
  5
1BD
100
AcDbEntity
  8
OBJECT
  6
CONTINUOUS
100
AcDbVertex
100
AcDb2dVertex
 10
-1346.0
 20
-784.0
 30
0.0
  0
SEQEND
  5
1BE
100
AcDbEntity
  8
OBJECT
  6
CONTINUOUS
  0
POLYLINE
  5
1BF
100
AcDbEntity
  8
OBJECT
  6
CONTINUOUS
100
AcDb2dPolyline
 66
               1
 10
0.0
 20
0.0
 30
0.0
 70
               1
 75
               5
  0
VERTEX
  5
1C0
100
AcDbEntity
  8
OBJECT
  6
CONTINUOUS
100
AcDbVertex
100
AcDb2dVertex
 10
-1337.5
 20
-784.0
 30
0.0
  0
VERTEX
  5
1C1
100
AcDbEntity
  8
OBJECT
  6
CONTINUOUS
100
AcDbVertex
100
AcDb2dVertex
 10
-1284.5
 20
-784.0
 30
0.0
  0
VERTEX
  5
1C2
100
AcDbEntity
  8
OBJECT
  6
CONTINUOUS
100
AcDbVertex
100
AcDb2dVertex
 10
-1288.5
 20
-787.5
 30
0.0
  0
VERTEX
  5
1C3
100
AcDbEntity
  8
OBJECT
  6
CONTINUOUS
100
AcDbVertex
100
AcDb2dVertex
 10
-1288.5
 20
-791.0
 30
0.0
  0
VERTEX
  5
1C4
100
AcDbEntity
  8
OBJECT
  6
CONTINUOUS
100
AcDbVertex
100
AcDb2dVertex
 10
-1333.5
 20
-791.0
 30
0.0
  0
VERTEX
  5
1C5
100
AcDbEntity
  8
OBJECT
  6
CONTINUOUS
100
AcDbVertex
100
AcDb2dVertex
 10
-1333.5
 20
-787.5
 30
0.0
  0
SEQEND
  5
1C6
100
AcDbEntity
  8
OBJECT
  6
CONTINUOUS
  0
LINE
  5
1C7
100
AcDbEntity
  8
OBJECT
  6
CONTINUOUS
100
AcDbLine
 10
-1333.5
 20
-787.5
 30
0.0
 11
-1288.5
 21
-787.5
 31
0.0
  0
SPLINE
  5
1C8
100
AcDbEntity
  8
OBJECT
  6
CONTINUOUS
100
AcDbSpline
210
0.0
220
0.0
230
1.0
 70
               9
 71
               2
 72
              28
 73
              25
 74
               0
 42
0.000001
 43
0.000001
 40
0.0
 40
0.0
 40
0.0
 40
0.1364451216774349
 40
0.1364451216774349
 40
0.206088985866959
 40
0.206088985866959
 40
0.2868044973790079
 40
0.2868044973790079
 40
0.3351288113064328
 40
0.3351288113064328
 40
0.3436566314112725
 40
0.3436566314112725
 40
0.525583460314519
 40
0.525583460314519
 40
0.6108616613629158
 40
0.6108616613629158
 40
0.7927884902661623
 40
0.7927884902661623
 40
0.8013163103710019
 40
0.8013163103710019
 40
0.8496406242984268
 40
0.8496406242984268
 40
0.9303561358104757
 40
0.9303561358104757
 40
1.0
 40
1.0
 40
1.0
 10
-1287.0
 20
-791.0
 30
0.0
 10
-1311.0
 20
-791.0
 30
0.0
 10
-1335.0
 20
-791.0
 30
0.0
 10
-1335.0
 20
-803.25
 30
0.0
 10
-1335.0
 20
-815.5
 30
0.0
 10
-1335.0
 20
-830.5
 30
0.0
 10
-1329.0
 20
-843.0
 30
0.0
 10
-1329.0
 20
-851.5
 30
0.0
 10
-1329.0
 20
-860.0
 30
0.0
 10
-1327.5
 20
-860.0
 30
0.0
 10
-1326.0
 20
-860.0
 30
0.0
 10
-1326.0
 20
-828.0
 30
0.0
 10
-1326.0
 20
-796.0
 30
0.0
 10
-1311.0
 20
-796.0
 30
0.0
 10
-1296.0
 20
-796.0
 30
0.0
 10
-1296.0
 20
-828.0
 30
0.0
 10
-1296.0
 20
-860.0
 30
0.0
 10
-1294.5
 20
-860.0
 30
0.0
 10
-1293.0
 20
-860.0
 30
0.0
 10
-1293.0
 20
-851.5
 30
0.0
 10
-1293.0
 20
-843.0
 30
0.0
 10
-1287.0
 20
-830.5
 30
0.0
 10
-1287.0
 20
-815.5
 30
0.0
 10
-1287.0
 20
-803.25
 30
0.0
 10
-1287.0
 20
-791.0
 30
0.0
  0
POLYLINE
  5
1C9
100
AcDbEntity
  8
OBJECT
  6
CONTINUOUS
100
AcDb2dPolyline
 66
               1
 10
0.0
 20
0.0
 30
0.0
 70
               1
 75
               5
  0
VERTEX
  5
1CA
100
AcDbEntity
  8
OBJECT
  6
CONTINUOUS
100
AcDbVertex
100
AcDb2dVertex
 10
-1293.0
 20
-793.0
 30
0.0
  0
VERTEX
  5
1CB
100
AcDbEntity
  8
OBJECT
  6
CONTINUOUS
100
AcDbVertex
100
AcDb2dVertex
 10
-1329.0
 20
-793.0
 30
0.0
  0
VERTEX
  5
1CC
100
AcDbEntity
  8
OBJECT
  6
CONTINUOUS
100
AcDbVertex
100
AcDb2dVertex
 10
-1329.0
 20
-860.0
 30
0.0
  0
VERTEX
  5
1CD
100
AcDbEntity
  8
OBJECT
  6
CONTINUOUS
100
AcDbVertex
100
AcDb2dVertex
 10
-1326.0
 20
-860.0
 30
0.0
  0
VERTEX
  5
1CE
100
AcDbEntity
  8
OBJECT
  6
CONTINUOUS
100
AcDbVertex
100
AcDb2dVertex
 10
-1326.0
 20
-796.0
 30
0.0
  0
VERTEX
  5
1CF
100
AcDbEntity
  8
OBJECT
  6
CONTINUOUS
100
AcDbVertex
100
AcDb2dVertex
 10
-1296.0
 20
-796.0
 30
0.0
  0
VERTEX
  5
1D0
100
AcDbEntity
  8
OBJECT
  6
CONTINUOUS
100
AcDbVertex
100
AcDb2dVertex
 10
-1296.0
 20
-860.0
 30
0.0
  0
VERTEX
  5
1D1
100
AcDbEntity
  8
OBJECT
  6
CONTINUOUS
100
AcDbVertex
100
AcDb2dVertex
 10
-1293.0
 20
-860.0
 30
0.0
  0
SEQEND
  5
1D2
100
AcDbEntity
  8
OBJECT
  6
CONTINUOUS
  0
SPLINE
  5
1D3
100
AcDbEntity
  8
OBJECT
  6
CONTINUOUS
100
AcDbSpline
210
0.0
220
0.0
230
1.0
 70
              13
 71
               2
 72
              28
 73
              25
 74
               0
 42
0.000001
 43
0.000001
 40
0.0
 40
0.0
 40
0.0
 40
0.0116664369471643
 40
0.0116664369471643
 40
0.0307673121208426
 40
0.0307673121208426
 40
0.0826383042797586
 40
0.0826383042797586
 40
0.1017391794534369
 40
0.1017391794534369
 40
0.1134056164006014
 40
0.1134056164006014
 40
0.5000000000000001
 40
0.5000000000000001
 40
0.5116664369471645
 40
0.5116664369471645
 40
0.5307673121208429
 40
0.5307673121208429
 40
0.5826383042797589
 40
0.5826383042797589
 40
0.6017391794534373
 40
0.6017391794534373
 40
0.6134056164006007
 40
0.6134056164006007
 40
1.0
 40
1.0
 40
1.0
 10
-1298.5
 20
-803.20543822418756
 30
0.0
 41
1.0
 10
-1298.5
 20
-801.50000000000011
 30
0.0
 41
0.7609173743274383
 10
-1300.1840189977866
 20
-801.23055696035419
 30
0.0
 41
1.0
 10
-1302.4670094988933
 20
-800.86527848017704
 30
0.0
 41
1.0
 10
-1304.75
 20
-800.5
 30
0.0
 41
1.0
 10
-1311.0
 20
-799.5
 30
0.0
 41
1.0
 10
-1317.25
 20
-800.5
 30
0.0
 41
1.0
 10
-1319.5329905011067
 20
-800.86527848017704
 30
0.0
 41
1.0
 10
-1321.8159810022134
 20
-801.23055696035408
 30
0.0
 41
1.0
 10
-1323.5
 20
-801.5
 30
0.0
 41
0.7609173743274383
 10
-1323.5
 20
-803.20543822418745
 30
0.0
 41
1.0
 10
-1323.5
 20
-849.99999999999989
 30
0.0
 41
1.0
 10
-1323.5
 20
-896.79456177581233
 30
0.0
 41
1.0
 10
-1323.5
 20
-898.49999999999966
 30
0.0
 41
0.7609173743274748
 10
-1321.8159810022134
 20
-898.76944303964569
 30
0.0
 41
1.0
 10
-1319.5329905011067
 20
-899.13472151982285
 30
0.0
 41
1.0
 10
-1317.25
 20
-899.5
 30
0.0
 41
1.0
 10
-1311.0
 20
-900.5
 30
0.0
 41
1.0
 10
-1304.75
 20
-899.5
 30
0.0
 41
1.0
 10
-1302.4670094988933
 20
-899.13472151982296
 30
0.0
 41
1.0
 10
-1300.1840189977866
 20
-898.76944303964592
 30
0.0
 41
1.0
 10
-1298.5000000000002
 20
-898.49999999999989
 30
0.0
 41
0.760917374327506
 10
-1298.5
 20
-896.79456177581255
 30
0.0
 41
1.0
 10
-1298.5
 20
-850.0
 30
0.0
 41
1.0
 10
-1298.5
 20
-803.20543822418756
 30
0.0
 41
1.0
  0
POLYLINE
  5
1D4
100
AcDbEntity
  8
OBJECT
  6
CONTINUOUS
100
AcDb2dPolyline
 66
               1
 10
0.0
 20
0.0
 30
0.0
 70
               1
 75
               5
  0
VERTEX
  5
1D5
100
AcDbEntity
  8
OBJECT
  6
CONTINUOUS
100
AcDbVertex
100
AcDb2dVertex
 10
-1326.0
 20
-841.75
 30
0.0
  0
VERTEX
  5
1D6
100
AcDbEntity
  8
OBJECT
  6
CONTINUOUS
100
AcDbVertex
100
AcDb2dVertex
 10
-1323.5
 20
-841.75
 30
0.0
  0
VERTEX
  5
1D7
100
AcDbEntity
  8
OBJECT
  6
CONTINUOUS
100
AcDbVertex
100
AcDb2dVertex
 10
-1323.5
 20
-858.25
 30
0.0
  0
VERTEX
  5
1D8
100
AcDbEntity
  8
OBJECT
  6
CONTINUOUS
100
AcDbVertex
100
AcDb2dVertex
 10
-1326.0
 20
-858.25
 30
0.0
  0
SEQEND
  5
1D9
100
AcDbEntity
  8
OBJECT
  6
CONTINUOUS
  0
POLYLINE
  5
1DA
100
AcDbEntity
  8
OBJECT
  6
CONTINUOUS
100
AcDb2dPolyline
 66
               1
 10
0.0
 20
0.0
 30
0.0
 70
               1
 75
               5
  0
VERTEX
  5
1DB
100
AcDbEntity
  8
OBJECT
  6
CONTINUOUS
100
AcDbVertex
100
AcDb2dVertex
 10
-1298.5
 20
-841.75
 30
0.0
  0
VERTEX
  5
1DC
100
AcDbEntity
  8
OBJECT
  6
CONTINUOUS
100
AcDbVertex
100
AcDb2dVertex
 10
-1296.0
 20
-841.75
 30
0.0
  0
VERTEX
  5
1DD
100
AcDbEntity
  8
OBJECT
  6
CONTINUOUS
100
AcDbVertex
100
AcDb2dVertex
 10
-1296.0
 20
-858.25
 30
0.0
  0
VERTEX
  5
1DE
100
AcDbEntity
  8
OBJECT
  6
CONTINUOUS
100
AcDbVertex
100
AcDb2dVertex
 10
-1298.5
 20
-858.25
 30
0.0
  0
SEQEND
  5
1DF
100
AcDbEntity
  8
OBJECT
  6
CONTINUOUS
  0
POLYLINE
  5
1E0
100
AcDbEntity
  8
OBJECT
  6
CONTINUOUS
100
AcDb2dPolyline
 66
               1
 10
0.0
 20
0.0
 30
0.0
 70
               1
 75
               5
  0
VERTEX
  5
1E1
100
AcDbEntity
  8
OBJECT
  6
CONTINUOUS
100
AcDbVertex
100
AcDb2dVertex
 10
-1293.0
 20
-844.5
 30
0.0
  0
VERTEX
  5
1E2
100
AcDbEntity
  8
OBJECT
  6
CONTINUOUS
100
AcDbVertex
100
AcDb2dVertex
 10
-1290.5
 20
-844.5
 30
0.0
  0
VERTEX
  5
1E3
100
AcDbEntity
  8
OBJECT
  6
CONTINUOUS
100
AcDbVertex
100
AcDb2dVertex
 10
-1290.5
 20
-855.5
 30
0.0
  0
VERTEX
  5
1E4
100
AcDbEntity
  8
OBJECT
  6
CONTINUOUS
100
AcDbVertex
100
AcDb2dVertex
 10
-1293.0
 20
-855.5
 30
0.0
  0
SEQEND
  5
1E5
100
AcDbEntity
  8
OBJECT
  6
CONTINUOUS
  0
POLYLINE
  5
1E6
100
AcDbEntity
  8
OBJECT
  6
CONTINUOUS
100
AcDb2dPolyline
 66
               1
 10
0.0
 20
0.0
 30
0.0
 70
               1
 75
               5
  0
VERTEX
  5
1E7
100
AcDbEntity
  8
OBJECT
  6
CONTINUOUS
100
AcDbVertex
100
AcDb2dVertex
 10
-1331.5
 20
-844.5
 30
0.0
  0
VERTEX
  5
1E8
100
AcDbEntity
  8
OBJECT
  6
CONTINUOUS
100
AcDbVertex
100
AcDb2dVertex
 10
-1329.0
 20
-844.5
 30
0.0
  0
VERTEX
  5
1E9
100
AcDbEntity
  8
OBJECT
  6
CONTINUOUS
100
AcDbVertex
100
AcDb2dVertex
 10
-1329.0
 20
-855.5
 30
0.0
  0
VERTEX
  5
1EA
100
AcDbEntity
  8
OBJECT
  6
CONTINUOUS
100
AcDbVertex
100
AcDb2dVertex
 10
-1331.5
 20
-855.5
 30
0.0
  0
SEQEND
  5
1EB
100
AcDbEntity
  8
OBJECT
  6
CONTINUOUS
  0
POLYLINE
  5
1EC
100
AcDbEntity
  8
OBJECT
  6
CONTINUOUS
100
AcDb2dPolyline
 66
               1
 10
0.0
 20
0.0
 30
0.0
 70
               1
 75
               5
  0
VERTEX
  5
1ED
100
AcDbEntity
  8
OBJECT
  6
CONTINUOUS
100
AcDbVertex
100
AcDb2dVertex
 10
-1331.5
 20
-837.5
 30
0.0
  0
VERTEX
  5
1EE
100
AcDbEntity
  8
OBJECT
  6
CONTINUOUS
100
AcDbVertex
100
AcDb2dVertex
 10
-1331.5
 20
-862.5
 30
0.0
  0
VERTEX
  5
1EF
100
AcDbEntity
  8
OBJECT
  6
CONTINUOUS
100
AcDbVertex
100
AcDb2dVertex
 10
-1334.5
 20
-862.5
 30
0.0
  0
VERTEX
  5
1F0
100
AcDbEntity
  8
OBJECT
  6
CONTINUOUS
100
AcDbVertex
100
AcDb2dVertex
 10
-1334.5
 20
-840.5
 30
0.0
  0
VERTEX
  5
1F1
100
AcDbEntity
  8
OBJECT
  6
CONTINUOUS
100
AcDbVertex
100
AcDb2dVertex
 10
-1351.5
 20
-840.5
 30
0.0
  0
VERTEX
  5
1F2
100
AcDbEntity
  8
OBJECT
  6
CONTINUOUS
100
AcDbVertex
100
AcDb2dVertex
 10
-1351.5
 20
-837.5
 30
0.0
  0
SEQEND
  5
1F3
100
AcDbEntity
  8
OBJECT
  6
CONTINUOUS
  0
LINE
  5
1F4
100
AcDbEntity
  8
OBJECT
  6
CONTINUOUS
100
AcDbLine
 10
-1349.5
 20
-848.5
 30
0.0
 11
-1334.5
 21
-848.5
 31
0.0
  0
ARC
  5
1F5
100
AcDbEntity
  8
OBJECT
  6
CONTINUOUS
100
AcDbCircle
 10
-1349.5
 20
-850.5
 30
0.0
 40
2.0
100
AcDbArc
 50
90.0
 51
180.0
  0
POLYLINE
  5
1F6
100
AcDbEntity
  8
OBJECT
  6
CONTINUOUS
100
AcDb2dPolyline
 66
               1
 10
0.0
 20
0.0
 30
0.0
 75
               5
  0
VERTEX
  5
1F7
100
AcDbEntity
  8
OBJECT
  6
CONTINUOUS
100
AcDbVertex
100
AcDb2dVertex
 10
-840.0
 20
-774.0
 30
0.0
  0
VERTEX
  5
1F8
100
AcDbEntity
  8
OBJECT
  6
CONTINUOUS
100
AcDbVertex
100
AcDb2dVertex
 10
-840.0
 20
-779.0
 30
0.0
  0
VERTEX
  5
1F9
100
AcDbEntity
  8
OBJECT
  6
CONTINUOUS
100
AcDbVertex
100
AcDb2dVertex
 10
-1360.0
 20
-779.0
 30
0.0
  0
VERTEX
  5
1FA
100
AcDbEntity
  8
OBJECT
  6
CONTINUOUS
100
AcDbVertex
100
AcDb2dVertex
 10
-1360.0
 20
-774.0
 30
0.0
  0
SEQEND
  5
1FB
100
AcDbEntity
  8
OBJECT
  6
CONTINUOUS
  0
LWPOLYLINE
  5
1FC
100
AcDbEntity
  8
OBJECT
  6
CONTINUOUS
100
AcDbPolyline
 90
       10
 70
             129
 10
-911.5
 20
-845.5
 42
-0.414213562373095
 10
-909.5
 20
-847.5
 10
-909.5
 20
-860.5
 42
-0.414213562373095
 10
-911.5
 20
-862.5
 10
-912.5
 20
-862.5
 10
-912.5
 20
-855.5
 10
-927.5
 20
-855.5
 42
-0.414213562373095
 10
-929.5
 20
-853.5
 10
-929.5
 20
-847.5
 42
-0.414213562373095
 10
-927.5
 20
-845.5
  0
POLYLINE
  5
1FD
100
AcDbEntity
  8
OBJECT
  6
CONTINUOUS
100
AcDb2dPolyline
 66
               1
 10
0.0
 20
0.0
 30
0.0
 70
               1
 75
               5
  0
VERTEX
  5
1FE
100
AcDbEntity
  8
OBJECT
  6
CONTINUOUS
100
AcDbVertex
100
AcDb2dVertex
 10
-924.0
 20
-781.0
 30
0.0
  0
VERTEX
  5
1FF
100
AcDbEntity
  8
OBJECT
  6
CONTINUOUS
100
AcDbVertex
100
AcDb2dVertex
 10
-854.0
 20
-781.0
 30
0.0
  0
VERTEX
  5
200
100
AcDbEntity
  8
OBJECT
  6
CONTINUOUS
100
AcDbVertex
100
AcDb2dVertex
 10
-854.0
 20
-784.0
 30
0.0
  0
VERTEX
  5
201
100
AcDbEntity
  8
OBJECT
  6
CONTINUOUS
100
AcDbVertex
100
AcDb2dVertex
 10
-924.0
 20
-784.0
 30
0.0
  0
SEQEND
  5
202
100
AcDbEntity
  8
OBJECT
  6
CONTINUOUS
  0
POLYLINE
  5
203
100
AcDbEntity
  8
OBJECT
  6
CONTINUOUS
100
AcDb2dPolyline
 66
               1
 10
0.0
 20
0.0
 30
0.0
 70
               1
 75
               5
  0
VERTEX
  5
204
100
AcDbEntity
  8
OBJECT
  6
CONTINUOUS
100
AcDbVertex
100
AcDb2dVertex
 10
-915.5
 20
-784.0
 30
0.0
  0
VERTEX
  5
205
100
AcDbEntity
  8
OBJECT
  6
CONTINUOUS
100
AcDbVertex
100
AcDb2dVertex
 10
-862.5
 20
-784.0
 30
0.0
  0
VERTEX
  5
206
100
AcDbEntity
  8
OBJECT
  6
CONTINUOUS
100
AcDbVertex
100
AcDb2dVertex
 10
-866.5
 20
-787.5
 30
0.0
  0
VERTEX
  5
207
100
AcDbEntity
  8
OBJECT
  6
CONTINUOUS
100
AcDbVertex
100
AcDb2dVertex
 10
-866.5
 20
-791.0
 30
0.0
  0
VERTEX
  5
208
100
AcDbEntity
  8
OBJECT
  6
CONTINUOUS
100
AcDbVertex
100
AcDb2dVertex
 10
-911.5
 20
-791.0
 30
0.0
  0
VERTEX
  5
209
100
AcDbEntity
  8
OBJECT
  6
CONTINUOUS
100
AcDbVertex
100
AcDb2dVertex
 10
-911.5
 20
-787.5
 30
0.0
  0
SEQEND
  5
20A
100
AcDbEntity
  8
OBJECT
  6
CONTINUOUS
  0
LINE
  5
20B
100
AcDbEntity
  8
OBJECT
  6
CONTINUOUS
100
AcDbLine
 10
-911.5
 20
-787.5
 30
0.0
 11
-866.5
 21
-787.5
 31
0.0
  0
SPLINE
  5
20C
100
AcDbEntity
  8
OBJECT
  6
CONTINUOUS
100
AcDbSpline
210
0.0
220
0.0
230
1.0
 70
               9
 71
               2
 72
              28
 73
              25
 74
               0
 42
0.000001
 43
0.000001
 40
0.0
 40
0.0
 40
0.0
 40
0.1364451216774349
 40
0.1364451216774349
 40
0.206088985866959
 40
0.206088985866959
 40
0.2868044973790079
 40
0.2868044973790079
 40
0.3351288113064328
 40
0.3351288113064328
 40
0.3436566314112725
 40
0.3436566314112725
 40
0.525583460314519
 40
0.525583460314519
 40
0.6108616613629158
 40
0.6108616613629158
 40
0.7927884902661623
 40
0.7927884902661623
 40
0.8013163103710019
 40
0.8013163103710019
 40
0.8496406242984268
 40
0.8496406242984268
 40
0.9303561358104757
 40
0.9303561358104757
 40
1.0
 40
1.0
 40
1.0
 10
-865.0
 20
-791.0
 30
0.0
 10
-889.0
 20
-791.0
 30
0.0
 10
-913.0
 20
-791.0
 30
0.0
 10
-913.0
 20
-803.25
 30
0.0
 10
-913.0
 20
-815.5
 30
0.0
 10
-913.0
 20
-830.5
 30
0.0
 10
-907.0
 20
-843.0
 30
0.0
 10
-907.0
 20
-851.5
 30
0.0
 10
-907.0
 20
-860.0
 30
0.0
 10
-905.5
 20
-860.0
 30
0.0
 10
-904.0
 20
-860.0
 30
0.0
 10
-904.0
 20
-828.0
 30
0.0
 10
-904.0
 20
-796.0
 30
0.0
 10
-889.0
 20
-796.0
 30
0.0
 10
-874.0
 20
-796.0
 30
0.0
 10
-874.0
 20
-828.0
 30
0.0
 10
-874.0
 20
-860.0
 30
0.0
 10
-872.5
 20
-860.0
 30
0.0
 10
-871.0
 20
-860.0
 30
0.0
 10
-871.0
 20
-851.5
 30
0.0
 10
-871.0
 20
-843.0
 30
0.0
 10
-865.0
 20
-830.5
 30
0.0
 10
-865.0
 20
-815.5
 30
0.0
 10
-865.0
 20
-803.25
 30
0.0
 10
-865.0
 20
-791.0
 30
0.0
  0
POLYLINE
  5
20D
100
AcDbEntity
  8
OBJECT
  6
CONTINUOUS
100
AcDb2dPolyline
 66
               1
 10
0.0
 20
0.0
 30
0.0
 70
               1
 75
               5
  0
VERTEX
  5
20E
100
AcDbEntity
  8
OBJECT
  6
CONTINUOUS
100
AcDbVertex
100
AcDb2dVertex
 10
-871.0
 20
-793.0
 30
0.0
  0
VERTEX
  5
20F
100
AcDbEntity
  8
OBJECT
  6
CONTINUOUS
100
AcDbVertex
100
AcDb2dVertex
 10
-907.0
 20
-793.0
 30
0.0
  0
VERTEX
  5
210
100
AcDbEntity
  8
OBJECT
  6
CONTINUOUS
100
AcDbVertex
100
AcDb2dVertex
 10
-907.0
 20
-860.0
 30
0.0
  0
VERTEX
  5
211
100
AcDbEntity
  8
OBJECT
  6
CONTINUOUS
100
AcDbVertex
100
AcDb2dVertex
 10
-904.0
 20
-860.0
 30
0.0
  0
VERTEX
  5
212
100
AcDbEntity
  8
OBJECT
  6
CONTINUOUS
100
AcDbVertex
100
AcDb2dVertex
 10
-904.0
 20
-796.0
 30
0.0
  0
VERTEX
  5
213
100
AcDbEntity
  8
OBJECT
  6
CONTINUOUS
100
AcDbVertex
100
AcDb2dVertex
 10
-874.0
 20
-796.0
 30
0.0
  0
VERTEX
  5
214
100
AcDbEntity
  8
OBJECT
  6
CONTINUOUS
100
AcDbVertex
100
AcDb2dVertex
 10
-874.0
 20
-860.0
 30
0.0
  0
VERTEX
  5
215
100
AcDbEntity
  8
OBJECT
  6
CONTINUOUS
100
AcDbVertex
100
AcDb2dVertex
 10
-871.0
 20
-860.0
 30
0.0
  0
SEQEND
  5
216
100
AcDbEntity
  8
OBJECT
  6
CONTINUOUS
  0
SPLINE
  5
217
100
AcDbEntity
  8
OBJECT
  6
CONTINUOUS
100
AcDbSpline
210
0.0
220
0.0
230
1.0
 70
              13
 71
               2
 72
              28
 73
              25
 74
               0
 42
0.000001
 43
0.000001
 40
0.0
 40
0.0
 40
0.0
 40
0.0116664369471639
 40
0.0116664369471639
 40
0.0307673121208418
 40
0.0307673121208418
 40
0.0826383042797579
 40
0.0826383042797579
 40
0.1017391794534357
 40
0.1017391794534357
 40
0.1134056164005998
 40
0.1134056164005998
 40
0.499999999999999
 40
0.499999999999999
 40
0.5116664369471629
 40
0.5116664369471629
 40
0.5307673121208408
 40
0.5307673121208408
 40
0.5826383042797569
 40
0.5826383042797569
 40
0.6017391794534348
 40
0.6017391794534348
 40
0.6134056164005999
 40
0.6134056164005999
 40
1.0
 40
1.0
 40
1.0
 10
-876.5
 20
-803.20543822418745
 30
0.0
 41
1.0
 10
-876.5
 20
-801.49999999999977
 30
0.0
 41
0.7609173743274019
 10
-878.18401899778667
 20
-801.23055696035408
 30
0.0
 41
1.0
 10
-880.46700949889328
 20
-800.86527848017704
 30
0.0
 41
1.0
 10
-882.75
 20
-800.5
 30
0.0
 41
1.0
 10
-889.0
 20
-799.5
 30
0.0
 41
1.0
 10
-895.25
 20
-800.5
 30
0.0
 41
1.0
 10
-897.53299050110672
 20
-800.86527848017704
 30
0.0
 41
1.0
 10
-899.81598100221333
 20
-801.23055696035408
 30
0.0
 41
1.0
 10
-901.49999999999977
 20
-801.49999999999977
 30
0.0
 41
0.7609173743274513
 10
-901.5
 20
-803.20543822418745
 30
0.0
 41
1.0
 10
-901.5
 20
-849.99999999999989
 30
0.0
 41
1.0
 10
-901.5
 20
-896.79456177581233
 30
0.0
 41
1.0
 10
-901.5
 20
-898.49999999999977
 30
0.0
 41
0.7609173743274019
 10
-899.81598100221333
 20
-898.76944303964569
 30
0.0
 41
1.0
 10
-897.53299050110672
 20
-899.13472151982285
 30
0.0
 41
1.0
 10
-895.25
 20
-899.5
 30
0.0
 41
1.0
 10
-889.0
 20
-900.5
 30
0.0
 41
1.0
 10
-882.75
 20
-899.5
 30
0.0
 41
1.0
 10
-880.46700949889328
 20
-899.13472151982296
 30
0.0
 41
1.0
 10
-878.18401899778667
 20
-898.76944303964592
 30
0.0
 41
1.0
 10
-876.50000000000023
 20
-898.50000000000011
 30
0.0
 41
0.7609173743274694
 10
-876.5
 20
-896.79456177581255
 30
0.0
 41
1.0
 10
-876.5
 20
-850.0
 30
0.0
 41
1.0
 10
-876.5
 20
-803.20543822418745
 30
0.0
 41
1.0
  0
POLYLINE
  5
218
100
AcDbEntity
  8
OBJECT
  6
CONTINUOUS
100
AcDb2dPolyline
 66
               1
 10
0.0
 20
0.0
 30
0.0
 70
               1
 75
               5
  0
VERTEX
  5
219
100
AcDbEntity
  8
OBJECT
  6
CONTINUOUS
100
AcDbVertex
100
AcDb2dVertex
 10
-904.0
 20
-841.75
 30
0.0
  0
VERTEX
  5
21A
100
AcDbEntity
  8
OBJECT
  6
CONTINUOUS
100
AcDbVertex
100
AcDb2dVertex
 10
-901.5
 20
-841.75
 30
0.0
  0
VERTEX
  5
21B
100
AcDbEntity
  8
OBJECT
  6
CONTINUOUS
100
AcDbVertex
100
AcDb2dVertex
 10
-901.5
 20
-858.25
 30
0.0
  0
VERTEX
  5
21C
100
AcDbEntity
  8
OBJECT
  6
CONTINUOUS
100
AcDbVertex
100
AcDb2dVertex
 10
-904.0
 20
-858.25
 30
0.0
  0
SEQEND
  5
21D
100
AcDbEntity
  8
OBJECT
  6
CONTINUOUS
  0
POLYLINE
  5
21E
100
AcDbEntity
  8
OBJECT
  6
CONTINUOUS
100
AcDb2dPolyline
 66
               1
 10
0.0
 20
0.0
 30
0.0
 70
               1
 75
               5
  0
VERTEX
  5
21F
100
AcDbEntity
  8
OBJECT
  6
CONTINUOUS
100
AcDbVertex
100
AcDb2dVertex
 10
-876.5
 20
-841.75
 30
0.0
  0
VERTEX
  5
220
100
AcDbEntity
  8
OBJECT
  6
CONTINUOUS
100
AcDbVertex
100
AcDb2dVertex
 10
-874.0
 20
-841.75
 30
0.0
  0
VERTEX
  5
221
100
AcDbEntity
  8
OBJECT
  6
CONTINUOUS
100
AcDbVertex
100
AcDb2dVertex
 10
-874.0
 20
-858.25
 30
0.0
  0
VERTEX
  5
222
100
AcDbEntity
  8
OBJECT
  6
CONTINUOUS
100
AcDbVertex
100
AcDb2dVertex
 10
-876.5
 20
-858.25
 30
0.0
  0
SEQEND
  5
223
100
AcDbEntity
  8
OBJECT
  6
CONTINUOUS
  0
POLYLINE
  5
224
100
AcDbEntity
  8
OBJECT
  6
CONTINUOUS
100
AcDb2dPolyline
 66
               1
 10
0.0
 20
0.0
 30
0.0
 70
               1
 75
               5
  0
VERTEX
  5
225
100
AcDbEntity
  8
OBJECT
  6
CONTINUOUS
100
AcDbVertex
100
AcDb2dVertex
 10
-871.0
 20
-844.5
 30
0.0
  0
VERTEX
  5
226
100
AcDbEntity
  8
OBJECT
  6
CONTINUOUS
100
AcDbVertex
100
AcDb2dVertex
 10
-868.5
 20
-844.5
 30
0.0
  0
VERTEX
  5
227
100
AcDbEntity
  8
OBJECT
  6
CONTINUOUS
100
AcDbVertex
100
AcDb2dVertex
 10
-868.5
 20
-855.5
 30
0.0
  0
VERTEX
  5
228
100
AcDbEntity
  8
OBJECT
  6
CONTINUOUS
100
AcDbVertex
100
AcDb2dVertex
 10
-871.0
 20
-855.5
 30
0.0
  0
SEQEND
  5
229
100
AcDbEntity
  8
OBJECT
  6
CONTINUOUS
  0
POLYLINE
  5
22A
100
AcDbEntity
  8
OBJECT
  6
CONTINUOUS
100
AcDb2dPolyline
 66
               1
 10
0.0
 20
0.0
 30
0.0
 70
               1
 75
               5
  0
VERTEX
  5
22B
100
AcDbEntity
  8
OBJECT
  6
CONTINUOUS
100
AcDbVertex
100
AcDb2dVertex
 10
-909.5
 20
-844.5
 30
0.0
  0
VERTEX
  5
22C
100
AcDbEntity
  8
OBJECT
  6
CONTINUOUS
100
AcDbVertex
100
AcDb2dVertex
 10
-907.0
 20
-844.5
 30
0.0
  0
VERTEX
  5
22D
100
AcDbEntity
  8
OBJECT
  6
CONTINUOUS
100
AcDbVertex
100
AcDb2dVertex
 10
-907.0
 20
-855.5
 30
0.0
  0
VERTEX
  5
22E
100
AcDbEntity
  8
OBJECT
  6
CONTINUOUS
100
AcDbVertex
100
AcDb2dVertex
 10
-909.5
 20
-855.5
 30
0.0
  0
SEQEND
  5
22F
100
AcDbEntity
  8
OBJECT
  6
CONTINUOUS
  0
POLYLINE
  5
230
100
AcDbEntity
  8
OBJECT
  6
CONTINUOUS
100
AcDb2dPolyline
 66
               1
 10
0.0
 20
0.0
 30
0.0
 70
               1
 75
               5
  0
VERTEX
  5
231
100
AcDbEntity
  8
OBJECT
  6
CONTINUOUS
100
AcDbVertex
100
AcDb2dVertex
 10
-909.5
 20
-837.5
 30
0.0
  0
VERTEX
  5
232
100
AcDbEntity
  8
OBJECT
  6
CONTINUOUS
100
AcDbVertex
100
AcDb2dVertex
 10
-909.5
 20
-862.5
 30
0.0
  0
VERTEX
  5
233
100
AcDbEntity
  8
OBJECT
  6
CONTINUOUS
100
AcDbVertex
100
AcDb2dVertex
 10
-912.5
 20
-862.5
 30
0.0
  0
VERTEX
  5
234
100
AcDbEntity
  8
OBJECT
  6
CONTINUOUS
100
AcDbVertex
100
AcDb2dVertex
 10
-912.5
 20
-840.5
 30
0.0
  0
VERTEX
  5
235
100
AcDbEntity
  8
OBJECT
  6
CONTINUOUS
100
AcDbVertex
100
AcDb2dVertex
 10
-929.5
 20
-840.5
 30
0.0
  0
VERTEX
  5
236
100
AcDbEntity
  8
OBJECT
  6
CONTINUOUS
100
AcDbVertex
100
AcDb2dVertex
 10
-929.5
 20
-837.5
 30
0.0
  0
SEQEND
  5
237
100
AcDbEntity
  8
OBJECT
  6
CONTINUOUS
  0
LINE
  5
238
100
AcDbEntity
  8
OBJECT
  6
CONTINUOUS
100
AcDbLine
 10
-927.5
 20
-848.5
 30
0.0
 11
-912.5
 21
-848.5
 31
0.0
  0
ARC
  5
239
100
AcDbEntity
  8
OBJECT
  6
CONTINUOUS
100
AcDbCircle
 10
-927.5
 20
-850.5
 30
0.0
 40
2.0
100
AcDbArc
 50
90.0
 51
180.0
  0
POLYLINE
  5
23A
100
AcDbEntity
  8
OBJECT
  6
CONTINUOUS
100
AcDb2dPolyline
 66
               1
 10
0.0
 20
0.0
 30
0.0
 70
               1
 75
               5
  0
VERTEX
  5
23B
100
AcDbEntity
  8
OBJECT
  6
CONTINUOUS
100
AcDbVertex
100
AcDb2dVertex
 10
-1358.0
 20
-779.0
 30
0.0
  0
VERTEX
  5
23C
100
AcDbEntity
  8
OBJECT
  6
CONTINUOUS
100
AcDbVertex
100
AcDb2dVertex
 10
-842.0
 20
-779.0
 30
0.0
  0
VERTEX
  5
23D
100
AcDbEntity
  8
OBJECT
  6
CONTINUOUS
100
AcDbVertex
100
AcDb2dVertex
 10
-842.0
 20
-781.0
 30
0.0
  0
VERTEX
  5
23E
100
AcDbEntity
  8
OBJECT
  6
CONTINUOUS
100
AcDbVertex
100
AcDb2dVertex
 10
-1358.0
 20
-781.0
 30
0.0
  0
SEQEND
  5
23F
100
AcDbEntity
  8
OBJECT
  6
CONTINUOUS
  0
POLYLINE
  5
240
100
AcDbEntity
  8
OBJECT
  6
CONTINUOUS
100
AcDb2dPolyline
 66
               1
 10
0.0
 20
0.0
 30
0.0
 70
               1
 75
               5
  0
VERTEX
  5
241
100
AcDbEntity
  8
OBJECT
  6
CONTINUOUS
100
AcDbVertex
100
AcDb2dVertex
 10
-1362.0
 20
-69.0
 30
0.0
  0
VERTEX
  5
242
100
AcDbEntity
  8
OBJECT
  6
CONTINUOUS
100
AcDbVertex
100
AcDb2dVertex
 10
-838.0
 20
-69.0
 30
0.0
  0
VERTEX
  5
243
100
AcDbEntity
  8
OBJECT
  6
CONTINUOUS
100
AcDbVertex
100
AcDb2dVertex
 10
-838.0
 20
-99.0
 30
0.0
  0
VERTEX
  5
244
100
AcDbEntity
  8
OBJECT
  6
CONTINUOUS
100
AcDbVertex
100
AcDb2dVertex
 10
-1362.0
 20
-99.0
 30
0.0
  0
SEQEND
  5
245
100
AcDbEntity
  8
OBJECT
  6
CONTINUOUS
  0
LINE
  5
246
100
AcDbEntity
  8
OBJECT
  6
CONTINUOUS
100
AcDbLine
 10
-1360.0
 20
-99.0
 30
0.0
 11
-1360.0
 21
-744.0
 31
0.0
  0
LINE
  5
247
100
AcDbEntity
  8
OBJECT
  6
CONTINUOUS
100
AcDbLine
 10
-840.0
 20
-99.0
 30
0.0
 11
-840.0
 21
-744.0
 31
0.0
  0
POLYLINE
  5
248
100
AcDbEntity
  8
OBJECT
  6
CONTINUOUS
100
AcDb2dPolyline
 66
               1
 10
0.0
 20
0.0
 30
0.0
 70
               1
 75
               5
  0
VERTEX
  5
249
100
AcDbEntity
  8
OBJECT
  6
CONTINUOUS
100
AcDbVertex
100
AcDb2dVertex
 10
-1360.0
 20
802.0
 30
0.0
  0
VERTEX
  5
24A
100
AcDbEntity
  8
OBJECT
  6
CONTINUOUS
100
AcDbVertex
100
AcDb2dVertex
 10
-1100.0
 20
802.0
 30
0.0
  0
VERTEX
  5
24B
100
AcDbEntity
  8
OBJECT
  6
CONTINUOUS
100
AcDbVertex
100
AcDb2dVertex
 10
-1100.0
 20
762.0
 30
0.0
  0
VERTEX
  5
24C
100
AcDbEntity
  8
OBJECT
  6
CONTINUOUS
100
AcDbVertex
100
AcDb2dVertex
 10
-1360.0
 20
762.0
 30
0.0
  0
SEQEND
  5
24D
100
AcDbEntity
  8
OBJECT
  6
CONTINUOUS
  0
LWPOLYLINE
  5
24E
100
AcDbEntity
  8
OBJECT
  6
CONTINUOUS
100
AcDbPolyline
 90
        6
 70
             129
 10
-1360.0
 20
762.0
 10
-840.0
 20
762.0
 10
-840.0
 20
520.0
 42
-0.414213562373095
 10
-858.0
 20
502.0
 10
-1342.0
 20
502.0
 42
-0.414213562373095
 10
-1360.0
 20
520.0
  0
LWPOLYLINE
  5
24F
100
AcDbEntity
  8
OBJECT
  6
CONTINUOUS
100
AcDbPolyline
 90
        6
 70
             129
 10
-1362.0
 20
762.0
 10
-838.0
 20
762.0
 10
-838.0
 20
520.0
 42
-0.414213562373095
 10
-858.0
 20
500.0
 10
-1342.0
 20
500.0
 42
-0.414213562373095
 10
-1362.0
 20
520.0
  0
POLYLINE
  5
250
100
AcDbEntity
  8
OBJECT
  6
CONTINUOUS
100
AcDb2dPolyline
 66
               1
 10
0.0
 20
0.0
 30
0.0
 70
               1
 75
               5
  0
VERTEX
  5
251
100
AcDbEntity
  8
OBJECT
  6
CONTINUOUS
100
AcDbVertex
100
AcDb2dVertex
 10
-1337.0
 20
731.0
 30
0.0
  0
VERTEX
  5
252
100
AcDbEntity
  8
OBJECT
  6
CONTINUOUS
100
AcDbVertex
100
AcDb2dVertex
 10
-1322.0
 20
746.0
 30
0.0
  0
VERTEX
  5
253
100
AcDbEntity
  8
OBJECT
  6
CONTINUOUS
100
AcDbVertex
100
AcDb2dVertex
 10
-1138.0
 20
746.0
 30
0.0
  0
VERTEX
  5
254
100
AcDbEntity
  8
OBJECT
  6
CONTINUOUS
100
AcDbVertex
100
AcDb2dVertex
 10
-1123.0
 20
731.0
 30
0.0
  0
VERTEX
  5
255
100
AcDbEntity
  8
OBJECT
  6
CONTINUOUS
100
AcDbVertex
100
AcDb2dVertex
 10
-1123.0
 20
547.0
 30
0.0
  0
VERTEX
  5
256
100
AcDbEntity
  8
OBJECT
  6
CONTINUOUS
100
AcDbVertex
100
AcDb2dVertex
 10
-1138.0
 20
532.0
 30
0.0
  0
VERTEX
  5
257
100
AcDbEntity
  8
OBJECT
  6
CONTINUOUS
100
AcDbVertex
100
AcDb2dVertex
 10
-1322.0
 20
532.0
 30
0.0
  0
VERTEX
  5
258
100
AcDbEntity
  8
OBJECT
  6
CONTINUOUS
100
AcDbVertex
100
AcDb2dVertex
 10
-1337.0
 20
547.0
 30
0.0
  0
SEQEND
  5
259
100
AcDbEntity
  8
OBJECT
  6
CONTINUOUS
  0
LWPOLYLINE
  5
25A
100
AcDbEntity
  8
OBJECT
  6
CONTINUOUS
100
AcDbPolyline
 90
        5
 70
             129
 10
-975.0
 20
-781.0
 10
-965.0
 20
-781.0
 10
-965.0
 20
-786.0
 42
-0.414213562373095
 10
-970.0
 20
-791.0
 42
-0.414213562373095
 10
-975.0
 20
-786.0
  0
INSERT
  5
25B
100
AcDbEntity
  8
OBJECT
100
AcDbBlockReference
  2
*U8
 10
0.0
 20
19.999999999999996
 30
0.0
  0
INSERT
  5
25C
100
AcDbEntity
  8
OBJECT
100
AcDbBlockReference
  2
*U9
 10
0.0
 20
19.999999999999996
 30
0.0
  0
POLYLINE
  5
25D
100
AcDbEntity
  8
OBJECT
  6
CONTINUOUS
100
AcDb2dPolyline
 66
               1
 10
0.0
 20
0.0
 30
0.0
 75
               5
  0
VERTEX
  5
25E
100
AcDbEntity
  8
OBJECT
  6
CONTINUOUS
100
AcDbVertex
100
AcDb2dVertex
 10
-1335.0
 20
733.0
 30
0.0
  0
VERTEX
  5
25F
100
AcDbEntity
  8
OBJECT
  6
CONTINUOUS
100
AcDbVertex
100
AcDb2dVertex
 10
-1335.0
 20
762.0
 30
0.0
  0
VERTEX
  5
260
100
AcDbEntity
  8
OBJECT
  6
CONTINUOUS
100
AcDbVertex
100
AcDb2dVertex
 10
-1337.0
 20
762.0
 30
0.0
  0
VERTEX
  5
261
100
AcDbEntity
  8
OBJECT
  6
CONTINUOUS
100
AcDbVertex
100
AcDb2dVertex
 10
-1337.0
 20
712.0
 30
0.0
  0
VERTEX
  5
262
100
AcDbEntity
  8
OBJECT
  6
CONTINUOUS
100
AcDbVertex
100
AcDb2dVertex
 10
-1337.0
 20
712.0
 30
0.0
  0
SEQEND
  5
263
100
AcDbEntity
  8
OBJECT
  6
CONTINUOUS
  0
POLYLINE
  5
264
100
AcDbEntity
  8
OBJECT
  6
CONTINUOUS
100
AcDb2dPolyline
 66
               1
 10
0.0
 20
0.0
 30
0.0
 75
               5
  0
VERTEX
  5
265
100
AcDbEntity
  8
OBJECT
  6
CONTINUOUS
100
AcDbVertex
100
AcDb2dVertex
 10
-1125.0
 20
733.0
 30
0.0
  0
VERTEX
  5
266
100
AcDbEntity
  8
OBJECT
  6
CONTINUOUS
100
AcDbVertex
100
AcDb2dVertex
 10
-1125.0
 20
762.0
 30
0.0
  0
VERTEX
  5
267
100
AcDbEntity
  8
OBJECT
  6
CONTINUOUS
100
AcDbVertex
100
AcDb2dVertex
 10
-1123.0
 20
762.0
 30
0.0
  0
VERTEX
  5
268
100
AcDbEntity
  8
OBJECT
  6
CONTINUOUS
100
AcDbVertex
100
AcDb2dVertex
 10
-1123.0
 20
712.0
 30
0.0
  0
VERTEX
  5
269
100
AcDbEntity
  8
OBJECT
  6
CONTINUOUS
100
AcDbVertex
100
AcDb2dVertex
 10
-1123.0
 20
712.0
 30
0.0
  0
SEQEND
  5
26A
100
AcDbEntity
  8
OBJECT
  6
CONTINUOUS
  0
POLYLINE
  5
26B
100
AcDbEntity
  8
OBJECT
  6
CONTINUOUS
100
AcDb2dPolyline
 66
               1
 10
0.0
 20
0.0
 30
0.0
 70
               1
 75
               5
  0
VERTEX
  5
26C
100
AcDbEntity
  8
OBJECT
  6
CONTINUOUS
100
AcDbVertex
100
AcDb2dVertex
 10
-1100.0
 20
802.0
 30
0.0
  0
VERTEX
  5
26D
100
AcDbEntity
  8
OBJECT
  6
CONTINUOUS
100
AcDbVertex
100
AcDb2dVertex
 10
-840.0
 20
802.0
 30
0.0
  0
VERTEX
  5
26E
100
AcDbEntity
  8
OBJECT
  6
CONTINUOUS
100
AcDbVertex
100
AcDb2dVertex
 10
-840.0
 20
762.0
 30
0.0
  0
VERTEX
  5
26F
100
AcDbEntity
  8
OBJECT
  6
CONTINUOUS
100
AcDbVertex
100
AcDb2dVertex
 10
-1100.0
 20
762.0
 30
0.0
  0
SEQEND
  5
270
100
AcDbEntity
  8
OBJECT
  6
CONTINUOUS
  0
POLYLINE
  5
271
100
AcDbEntity
  8
OBJECT
  6
CONTINUOUS
100
AcDb2dPolyline
 66
               1
 10
0.0
 20
0.0
 30
0.0
 70
               1
 75
               5
  0
VERTEX
  5
272
100
AcDbEntity
  8
OBJECT
  6
CONTINUOUS
100
AcDbVertex
100
AcDb2dVertex
 10
-1077.0
 20
731.0
 30
0.0
  0
VERTEX
  5
273
100
AcDbEntity
  8
OBJECT
  6
CONTINUOUS
100
AcDbVertex
100
AcDb2dVertex
 10
-1062.0
 20
746.0
 30
0.0
  0
VERTEX
  5
274
100
AcDbEntity
  8
OBJECT
  6
CONTINUOUS
100
AcDbVertex
100
AcDb2dVertex
 10
-878.0
 20
746.0
 30
0.0
  0
VERTEX
  5
275
100
AcDbEntity
  8
OBJECT
  6
CONTINUOUS
100
AcDbVertex
100
AcDb2dVertex
 10
-863.0
 20
731.0
 30
0.0
  0
VERTEX
  5
276
100
AcDbEntity
  8
OBJECT
  6
CONTINUOUS
100
AcDbVertex
100
AcDb2dVertex
 10
-863.0
 20
547.0
 30
0.0
  0
VERTEX
  5
277
100
AcDbEntity
  8
OBJECT
  6
CONTINUOUS
100
AcDbVertex
100
AcDb2dVertex
 10
-878.0
 20
532.0
 30
0.0
  0
VERTEX
  5
278
100
AcDbEntity
  8
OBJECT
  6
CONTINUOUS
100
AcDbVertex
100
AcDb2dVertex
 10
-1062.0
 20
532.0
 30
0.0
  0
VERTEX
  5
279
100
AcDbEntity
  8
OBJECT
  6
CONTINUOUS
100
AcDbVertex
100
AcDb2dVertex
 10
-1077.0
 20
547.0
 30
0.0
  0
SEQEND
  5
27A
100
AcDbEntity
  8
OBJECT
  6
CONTINUOUS
  0
POLYLINE
  5
27B
100
AcDbEntity
  8
OBJECT
  6
CONTINUOUS
100
AcDb2dPolyline
 66
               1
 10
0.0
 20
0.0
 30
0.0
 75
               5
  0
VERTEX
  5
27C
100
AcDbEntity
  8
OBJECT
  6
CONTINUOUS
100
AcDbVertex
100
AcDb2dVertex
 10
-1075.0
 20
733.0
 30
0.0
  0
VERTEX
  5
27D
100
AcDbEntity
  8
OBJECT
  6
CONTINUOUS
100
AcDbVertex
100
AcDb2dVertex
 10
-1075.0
 20
762.0
 30
0.0
  0
VERTEX
  5
27E
100
AcDbEntity
  8
OBJECT
  6
CONTINUOUS
100
AcDbVertex
100
AcDb2dVertex
 10
-1077.0
 20
762.0
 30
0.0
  0
VERTEX
  5
27F
100
AcDbEntity
  8
OBJECT
  6
CONTINUOUS
100
AcDbVertex
100
AcDb2dVertex
 10
-1077.0
 20
712.0
 30
0.0
  0
VERTEX
  5
280
100
AcDbEntity
  8
OBJECT
  6
CONTINUOUS
100
AcDbVertex
100
AcDb2dVertex
 10
-1077.0
 20
712.0
 30
0.0
  0
SEQEND
  5
281
100
AcDbEntity
  8
OBJECT
  6
CONTINUOUS
  0
POLYLINE
  5
282
100
AcDbEntity
  8
OBJECT
  6
CONTINUOUS
100
AcDb2dPolyline
 66
               1
 10
0.0
 20
0.0
 30
0.0
 75
               5
  0
VERTEX
  5
283
100
AcDbEntity
  8
OBJECT
  6
CONTINUOUS
100
AcDbVertex
100
AcDb2dVertex
 10
-865.0
 20
733.0
 30
0.0
  0
VERTEX
  5
284
100
AcDbEntity
  8
OBJECT
  6
CONTINUOUS
100
AcDbVertex
100
AcDb2dVertex
 10
-865.0
 20
762.0
 30
0.0
  0
VERTEX
  5
285
100
AcDbEntity
  8
OBJECT
  6
CONTINUOUS
100
AcDbVertex
100
AcDb2dVertex
 10
-863.0
 20
762.0
 30
0.0
  0
VERTEX
  5
286
100
AcDbEntity
  8
OBJECT
  6
CONTINUOUS
100
AcDbVertex
100
AcDb2dVertex
 10
-863.0
 20
712.0
 30
0.0
  0
VERTEX
  5
287
100
AcDbEntity
  8
OBJECT
  6
CONTINUOUS
100
AcDbVertex
100
AcDb2dVertex
 10
-863.0
 20
712.0
 30
0.0
  0
SEQEND
  5
288
100
AcDbEntity
  8
OBJECT
  6
CONTINUOUS
  0
POLYLINE
  5
289
100
AcDbEntity
  8
OBJECT
  6
CONTINUOUS
100
AcDb2dPolyline
 66
               1
 10
0.0
 20
0.0
 30
0.0
 70
               1
 75
               5
  0
VERTEX
  5
28A
100
AcDbEntity
  8
OBJECT
  6
CONTINUOUS
100
AcDbVertex
100
AcDb2dVertex
 10
-1101.0
 20
762.0
 30
0.0
  0
VERTEX
  5
28B
100
AcDbEntity
  8
OBJECT
  6
CONTINUOUS
100
AcDbVertex
100
AcDb2dVertex
 10
-1099.0
 20
762.0
 30
0.0
  0
VERTEX
  5
28C
100
AcDbEntity
  8
OBJECT
  6
CONTINUOUS
100
AcDbVertex
100
AcDb2dVertex
 10
-1099.0
 20
502.0
 30
0.0
  0
VERTEX
  5
28D
100
AcDbEntity
  8
OBJECT
  6
CONTINUOUS
100
AcDbVertex
100
AcDb2dVertex
 10
-1101.0
 20
502.0
 30
0.0
  0
SEQEND
  5
28E
100
AcDbEntity
  8
OBJECT
  6
CONTINUOUS
  0
LWPOLYLINE
  5
28F
100
AcDbEntity
  8
OBJECT
  6
CONTINUOUS
100
AcDbPolyline
 90
        9
 70
             129
 10
-1380.0
 20
771.56155281280894
 42
0.3441507314089108
 10
-1378.4850712500727
 20
769.62126781251823
 10
-1360.0
 20
765.0
 10
-1360.0
 20
802.0
 10
-1280.0
 20
802.0
 10
-1284.6212678125182
 20
820.48507125007268
 42
0.3441507314089262
 10
-1286.5615528128089
 20
822.0
 10
-1365.0
 20
822.0
 42
0.414213562373095
 10
-1380.0
 20
807.0
  0
LWPOLYLINE
  5
290
100
AcDbEntity
  8
OBJECT
  6
CONTINUOUS
100
AcDbPolyline
 90
       14
 70
             128
 10
-1362.0
 20
581.5
 10
-1378.4850999999999
 20
577.37870000000021
 10
-1378.4850999999999
 20
577.37870000000021
 10
-1378.4850999999999
 20
577.37870000000021
 42
0.3441753471598028
 10
-1380.0
 20
575.4384
 10
-1380.0
 20
497.0
 10
-1380.0
 20
497.0
 10
-1380.0
 20
497.0
 42
0.414213562373095
 10
-1365.0
 20
482.0
 10
-1329.5616
 20
482.0
 10
-1329.5616
 20
482.0
 10
-1329.5616
 20
482.0
 42
0.3441434864435375
 10
-1327.6212999999998
 20
483.51490000000013
 10
-1323.5
 20
500.0
  0
LWPOLYLINE
  5
291
100
AcDbEntity
  8
OBJECT
  6
CONTINUOUS
100
AcDbPolyline
 90
       14
 70
             128
 10
-838.0
 20
581.5
 10
-821.51490000000013
 20
577.37870000000021
 10
-821.51490000000013
 20
577.37870000000021
 10
-821.51490000000013
 20
577.37870000000021
 42
-0.3441434864435221
 10
-820.0
 20
575.4384
 10
-820.0
 20
497.0
 10
-820.0
 20
497.0
 10
-820.0
 20
497.0
 42
-0.414213562373095
 10
-835.0
 20
482.0
 10
-870.4384
 20
482.0
 10
-870.4384
 20
482.0
 10
-870.4384
 20
482.0
 42
-0.3441753471598302
 10
-872.37870000000021
 20
483.51490000000013
 10
-876.5
 20
500.0
  0
DIMENSION
  5
292
100
AcDbEntity
  8
DIMENTION
  6
CONTINUOUS
100
AcDbDimension
  2
*D10
 10
-840.0
 20
940.0
 30
0.0
 11
-785.0
 21
941.0
 31
0.0
 70
             128
  3
CAD
100
AcDbAlignedDimension
 13
-820.0
 23
814.5
 33
0.0
 14
-840.0
 24
802.0
 34
0.0
100
AcDbRotatedDimension
1001
ACAD
1000
DSTYLE
1002
{
1070
             271
1070
               0
1070
             340
1005
3E
1070
             174
1070
               0
1070
             147
1040
0.9999999999999999
1002
}
  0
DIMENSION
  5
293
100
AcDbEntity
  8
DIMENTION
  6
CONTINUOUS
100
AcDbDimension
  2
*D11
 10
-700.0
 20
802.0
 30
0.0
 11
-699.0
 21
855.0
 31
0.0
 70
             128
  3
CAD
100
AcDbAlignedDimension
 13
-827.5
 23
822.0
 33
0.0
 14
-840.0
 24
802.0
 34
0.0
 50
90.0
100
AcDbRotatedDimension
1001
ACAD
1000
DSTYLE
1002
{
1070
             271
1070
               0
1070
             340
1005
3E
1070
             174
1070
               0
1070
             147
1040
0.9999999999999999
1002
}
  0
DIMENSION
  5
294
100
AcDbEntity
  8
DIMENTION
  6
CONTINUOUS
100
AcDbDimension
  2
*D12
 10
-1360.0
 20
940.0
 30
0.0
 11
-1100.0
 21
940.0
 31
0.0
  3
CAD
100
AcDbAlignedDimension
 13
-840.0
 23
802.0
 33
0.0
 14
-1360.0
 24
802.0
 34
0.0
100
AcDbRotatedDimension
1001
ACAD
1000
DSTYLE
1002
{
1070
             271
1070
               0
1070
             340
1005
3E
1070
             147
1040
0.9999999999999999
1002
}
  0
DIMENSION
  5
295
100
AcDbEntity
  8
DIMENTION
  6
CONTINUOUS
100
AcDbDimension
  2
*D13
 10
-1500.0
 20
762.0
 30
0.0
 11
-1501.0
 21
632.0
 31
0.0
 70
             128
  1
259 (内寸)
  3
CAD
100
AcDbAlignedDimension
 13
-1342.0
 23
502.0
 33
0.0
 14
-1362.0
 24
762.0
 34
0.0
 50
90.0
100
AcDbRotatedDimension
1001
ACAD
1000
DSTYLE
1002
{
1070
             271
1070
               0
1070
             340
1005
3E
1070
             147
1040
0.9999999999999999
1002
}
  0
DIMENSION
  5
296
100
AcDbEntity
  8
DIMENTION
  6
CONTINUOUS
100
AcDbDimension
  2
*D14
 10
-1500.0
 20
762.0
 30
0.0
 11
-1501.0
 21
835.0
 31
0.0
 70
             128
  3
CAD
100
AcDbAlignedDimension
 13
-1360.0
 23
802.0
 33
0.0
 14
-1362.0
 24
762.0
 34
0.0
 50
90.0
100
AcDbRotatedDimension
1001
ACAD
1000
DSTYLE
1002
{
1070
             271
1070
               0
1070
             340
1005
3E
1070
             174
1070
               0
1070
             147
1040
0.9999999999999999
1002
}
  0
DIMENSION
  5
297
100
AcDbEntity
  8
DIMENTION
  6
CONTINUOUS
100
AcDbDimension
  2
*D15
 10
-700.0
 20
502.0
 30
0.0
 11
-700.0
 21
652.0
 31
0.0
  3
CAD
100
AcDbAlignedDimension
 13
-840.0
 23
802.0
 33
0.0
 14
-858.0
 24
502.0
 34
0.0
 50
90.0
100
AcDbRotatedDimension
1001
ACAD
1000
DSTYLE
1002
{
1070
             271
1070
               0
1070
             340
1005
3E
1070
             147
1040
0.9999999999999999
1002
}
  0
DIMENSION
  5
298
100
AcDbEntity
  8
DIMENTION
  6
CONTINUOUS
100
AcDbDimension
  2
*D16
 10
-1101.0
 20
400.0
 30
0.0
 11
-971.5
 21
400.0
 31
0.0
  1
257 (内寸)
  3
CAD
100
AcDbAlignedDimension
 13
-1360.0
 23
520.0
 33
0.0
 14
-1101.0
 24
502.0
 34
0.0
100
AcDbRotatedDimension
1001
ACAD
1000
DSTYLE
1002
{
1070
             271
1070
               0
1070
             340
1005
3E
1070
             147
1040
0.9999999999999999
1002
}
  0
LWPOLYLINE
  5
299
100
AcDbEntity
  8
OBJECT
  6
CONTINUOUS
100
AcDbPolyline
 90
        9
 70
             129
 10
-820.0
 20
771.56155281280894
 42
-0.3441507314088833
 10
-821.51492874992732
 20
769.62126781251823
 10
-840.0
 20
765.0
 10
-840.0
 20
802.0
 10
-920.0
 20
802.0
 10
-915.37873218748177
 20
820.48507125007268
 42
-0.3441507314088954
 10
-913.43844718719106
 20
822.0
 10
-835.0
 20
822.0
 42
-0.414213562373095
 10
-820.0
 20
807.0
  0
MTEXT
  5
29A
100
AcDbEntity
  8
DIMENTION
100
AcDbMText
 10
200.0
 20
950.0
 30
0.0
 40
33.866666666666667
 41
0.0
 71
               2
 72
               1
  1
2つ折り半透明カバー
  7
________
  0
LWPOLYLINE
  5
29B
100
AcDbEntity
  8
OBJECT
  6
CONTINUOUS
100
AcDbPolyline
 90
        5
 70
             128
 10
1202.0
 20
-461.26130000000012
 10
1192.8252260812183
 20
-455.14478405414565
 42
0.3575107650276858
 10
1176.5
 20
-456.76130000000012
 42
-0.3575107650276858
 10
1160.1747739187817
 20
-458.37781594585459
 10
1151.0
 20
-452.26130000000012
  0
POLYLINE
  5
29C
100
AcDbEntity
  8
OBJECT
  6
CONTINUOUS
100
AcDb2dPolyline
 66
               1
 10
0.0
 20
0.0
 30
0.0
 70
               1
 75
               5
  0
VERTEX
  5
29D
100
AcDbEntity
  8
OBJECT
  6
CONTINUOUS
100
AcDbVertex
100
AcDb2dVertex
 10
1165.0
 20
-781.0
 30
0.0
  0
VERTEX
  5
29E
100
AcDbEntity
  8
OBJECT
  6
CONTINUOUS
100
AcDbVertex
100
AcDb2dVertex
 10
1235.0
 20
-781.0
 30
0.0
  0
VERTEX
  5
29F
100
AcDbEntity
  8
OBJECT
  6
CONTINUOUS
100
AcDbVertex
100
AcDb2dVertex
 10
1235.0
 20
-784.0
 30
0.0
  0
VERTEX
  5
2A0
100
AcDbEntity
  8
OBJECT
  6
CONTINUOUS
100
AcDbVertex
100
AcDb2dVertex
 10
1165.0
 20
-784.0
 30
0.0
  0
SEQEND
  5
2A1
100
AcDbEntity
  8
OBJECT
  6
CONTINUOUS
  0
POLYLINE
  5
2A2
100
AcDbEntity
  8
OBJECT
  6
CONTINUOUS
100
AcDb2dPolyline
 66
               1
 10
0.0
 20
0.0
 30
0.0
 70
               1
 75
               5
  0
VERTEX
  5
2A3
100
AcDbEntity
  8
OBJECT
  6
CONTINUOUS
100
AcDbVertex
100
AcDb2dVertex
 10
1173.5
 20
-784.0
 30
0.0
  0
VERTEX
  5
2A4
100
AcDbEntity
  8
OBJECT
  6
CONTINUOUS
100
AcDbVertex
100
AcDb2dVertex
 10
1226.5
 20
-784.0
 30
0.0
  0
VERTEX
  5
2A5
100
AcDbEntity
  8
OBJECT
  6
CONTINUOUS
100
AcDbVertex
100
AcDb2dVertex
 10
1222.5
 20
-787.5
 30
0.0
  0
VERTEX
  5
2A6
100
AcDbEntity
  8
OBJECT
  6
CONTINUOUS
100
AcDbVertex
100
AcDb2dVertex
 10
1222.5
 20
-791.0
 30
0.0
  0
VERTEX
  5
2A7
100
AcDbEntity
  8
OBJECT
  6
CONTINUOUS
100
AcDbVertex
100
AcDb2dVertex
 10
1177.5
 20
-791.0
 30
0.0
  0
VERTEX
  5
2A8
100
AcDbEntity
  8
OBJECT
  6
CONTINUOUS
100
AcDbVertex
100
AcDb2dVertex
 10
1177.5
 20
-787.5
 30
0.0
  0
SEQEND
  5
2A9
100
AcDbEntity
  8
OBJECT
  6
CONTINUOUS
  0
LINE
  5
2AA
100
AcDbEntity
  8
OBJECT
  6
CONTINUOUS
100
AcDbLine
 10
1177.5
 20
-787.5
 30
0.0
 11
1222.5
 21
-787.5
 31
0.0
  0
SPLINE
  5
2AB
100
AcDbEntity
  8
OBJECT
  6
CONTINUOUS
100
AcDbSpline
210
0.0
220
0.0
230
1.0
 70
               9
 71
               2
 72
              28
 73
              25
 74
               0
 42
0.000001
 43
0.000001
 40
0.0
 40
0.0
 40
0.0
 40
0.1364451216774349
 40
0.1364451216774349
 40
0.206088985866959
 40
0.206088985866959
 40
0.2868044973790079
 40
0.2868044973790079
 40
0.3351288113064328
 40
0.3351288113064328
 40
0.3436566314112725
 40
0.3436566314112725
 40
0.525583460314519
 40
0.525583460314519
 40
0.6108616613629158
 40
0.6108616613629158
 40
0.7927884902661623
 40
0.7927884902661623
 40
0.8013163103710019
 40
0.8013163103710019
 40
0.8496406242984268
 40
0.8496406242984268
 40
0.9303561358104757
 40
0.9303561358104757
 40
1.0
 40
1.0
 40
1.0
 10
1224.0
 20
-791.0
 30
0.0
 10
1200.0
 20
-791.0
 30
0.0
 10
1176.0
 20
-791.0
 30
0.0
 10
1176.0
 20
-803.25
 30
0.0
 10
1176.0
 20
-815.5
 30
0.0
 10
1176.0
 20
-830.5
 30
0.0
 10
1182.0
 20
-843.0
 30
0.0
 10
1182.0
 20
-851.5
 30
0.0
 10
1182.0
 20
-860.0
 30
0.0
 10
1183.5
 20
-860.0
 30
0.0
 10
1185.0
 20
-860.0
 30
0.0
 10
1185.0
 20
-828.0
 30
0.0
 10
1185.0
 20
-796.0
 30
0.0
 10
1200.0
 20
-796.0
 30
0.0
 10
1215.0
 20
-796.0
 30
0.0
 10
1215.0
 20
-828.0
 30
0.0
 10
1215.0
 20
-860.0
 30
0.0
 10
1216.5
 20
-860.0
 30
0.0
 10
1218.0
 20
-860.0
 30
0.0
 10
1218.0
 20
-851.5
 30
0.0
 10
1218.0
 20
-843.0
 30
0.0
 10
1224.0
 20
-830.5
 30
0.0
 10
1224.0
 20
-815.5
 30
0.0
 10
1224.0
 20
-803.25
 30
0.0
 10
1224.0
 20
-791.0
 30
0.0
  0
POLYLINE
  5
2AC
100
AcDbEntity
  8
OBJECT
  6
CONTINUOUS
100
AcDb2dPolyline
 66
               1
 10
0.0
 20
0.0
 30
0.0
 70
               1
 75
               5
  0
VERTEX
  5
2AD
100
AcDbEntity
  8
OBJECT
  6
CONTINUOUS
100
AcDbVertex
100
AcDb2dVertex
 10
1218.0
 20
-793.0
 30
0.0
  0
VERTEX
  5
2AE
100
AcDbEntity
  8
OBJECT
  6
CONTINUOUS
100
AcDbVertex
100
AcDb2dVertex
 10
1182.0
 20
-793.0
 30
0.0
  0
VERTEX
  5
2AF
100
AcDbEntity
  8
OBJECT
  6
CONTINUOUS
100
AcDbVertex
100
AcDb2dVertex
 10
1182.0
 20
-860.0
 30
0.0
  0
VERTEX
  5
2B0
100
AcDbEntity
  8
OBJECT
  6
CONTINUOUS
100
AcDbVertex
100
AcDb2dVertex
 10
1185.0
 20
-860.0
 30
0.0
  0
VERTEX
  5
2B1
100
AcDbEntity
  8
OBJECT
  6
CONTINUOUS
100
AcDbVertex
100
AcDb2dVertex
 10
1185.0
 20
-796.0
 30
0.0
  0
VERTEX
  5
2B2
100
AcDbEntity
  8
OBJECT
  6
CONTINUOUS
100
AcDbVertex
100
AcDb2dVertex
 10
1215.0
 20
-796.0
 30
0.0
  0
VERTEX
  5
2B3
100
AcDbEntity
  8
OBJECT
  6
CONTINUOUS
100
AcDbVertex
100
AcDb2dVertex
 10
1215.0
 20
-860.0
 30
0.0
  0
VERTEX
  5
2B4
100
AcDbEntity
  8
OBJECT
  6
CONTINUOUS
100
AcDbVertex
100
AcDb2dVertex
 10
1218.0
 20
-860.0
 30
0.0
  0
SEQEND
  5
2B5
100
AcDbEntity
  8
OBJECT
  6
CONTINUOUS
  0
SPLINE
  5
2B6
100
AcDbEntity
  8
OBJECT
  6
CONTINUOUS
100
AcDbSpline
210
0.0
220
0.0
230
1.0
 70
              13
 71
               2
 72
              28
 73
              25
 74
               0
 42
0.000001
 43
0.000001
 40
0.0
 40
0.0
 40
0.0
 40
0.011666436947165
 40
0.011666436947165
 40
0.0307673121208433
 40
0.0307673121208433
 40
0.0826383042797593
 40
0.0826383042797593
 40
0.1017391794534376
 40
0.1017391794534376
 40
0.1134056164006011
 40
0.1134056164006011
 40
0.5000000000000007
 40
0.5000000000000007
 40
0.5116664369471652
 40
0.5116664369471652
 40
0.5307673121208435
 40
0.5307673121208435
 40
0.5826383042797595
 40
0.5826383042797595
 40
0.6017391794534379
 40
0.6017391794534379
 40
0.6134056164006013
 40
0.6134056164006013
 40
1.0
 40
1.0
 40
1.0
 10
1212.5
 20
-803.20543822418745
 30
0.0
 41
1.0
 10
1212.5
 20
-801.49999999999966
 30
0.0
 41
0.760917374327402
 10
1210.8159810022134
 20
-801.23055696035408
 30
0.0
 41
1.0
 10
1208.5329905011067
 20
-800.86527848017704
 30
0.0
 41
1.0
 10
1206.25
 20
-800.5
 30
0.0
 41
1.0
 10
1200.0
 20
-799.5
 30
0.0
 41
1.0
 10
1193.75
 20
-800.5
 30
0.0
 41
1.0
 10
1191.4670094988933
 20
-800.86527848017704
 30
0.0
 41
1.0
 10
1189.1840189977866
 20
-801.23055696035408
 30
0.0
 41
1.0
 10
1187.5
 20
-801.5
 30
0.0
 41
0.7609173743274383
 10
1187.5
 20
-803.20543822418745
 30
0.0
 41
1.0
 10
1187.5
 20
-850.0
 30
0.0
 41
1.0
 10
1187.5
 20
-896.79456177581255
 30
0.0
 41
1.0
 10
1187.5
 20
-898.49999999999989
 30
0.0
 41
0.7609173743274383
 10
1189.1840189977866
 20
-898.76944303964592
 30
0.0
 41
1.0
 10
1191.4670094988933
 20
-899.13472151982296
 30
0.0
 41
1.0
 10
1193.75
 20
-899.5
 30
0.0
 41
1.0
 10
1200.0
 20
-900.5
 30
0.0
 41
1.0
 10
1206.25
 20
-899.5
 30
0.0
 41
1.0
 10
1208.5329905011067
 20
-899.13472151982285
 30
0.0
 41
1.0
 10
1210.8159810022134
 20
-898.76944303964569
 30
0.0
 41
1.0
 10
1212.5
 20
-898.49999999999989
 30
0.0
 41
0.7609173743273865
 10
1212.5
 20
-896.79456177581233
 30
0.0
 41
1.0
 10
1212.5
 20
-849.99999999999989
 30
0.0
 41
1.0
 10
1212.5
 20
-803.20543822418745
 30
0.0
 41
1.0
  0
POLYLINE
  5
2B7
100
AcDbEntity
  8
OBJECT
  6
CONTINUOUS
100
AcDb2dPolyline
 66
               1
 10
0.0
 20
0.0
 30
0.0
 70
               1
 75
               5
  0
VERTEX
  5
2B8
100
AcDbEntity
  8
OBJECT
  6
CONTINUOUS
100
AcDbVertex
100
AcDb2dVertex
 10
1185.0
 20
-841.75
 30
0.0
  0
VERTEX
  5
2B9
100
AcDbEntity
  8
OBJECT
  6
CONTINUOUS
100
AcDbVertex
100
AcDb2dVertex
 10
1187.5
 20
-841.75
 30
0.0
  0
VERTEX
  5
2BA
100
AcDbEntity
  8
OBJECT
  6
CONTINUOUS
100
AcDbVertex
100
AcDb2dVertex
 10
1187.5
 20
-858.25
 30
0.0
  0
VERTEX
  5
2BB
100
AcDbEntity
  8
OBJECT
  6
CONTINUOUS
100
AcDbVertex
100
AcDb2dVertex
 10
1185.0
 20
-858.25
 30
0.0
  0
SEQEND
  5
2BC
100
AcDbEntity
  8
OBJECT
  6
CONTINUOUS
  0
POLYLINE
  5
2BD
100
AcDbEntity
  8
OBJECT
  6
CONTINUOUS
100
AcDb2dPolyline
 66
               1
 10
0.0
 20
0.0
 30
0.0
 70
               1
 75
               5
  0
VERTEX
  5
2BE
100
AcDbEntity
  8
OBJECT
  6
CONTINUOUS
100
AcDbVertex
100
AcDb2dVertex
 10
1212.5
 20
-841.75
 30
0.0
  0
VERTEX
  5
2BF
100
AcDbEntity
  8
OBJECT
  6
CONTINUOUS
100
AcDbVertex
100
AcDb2dVertex
 10
1215.0
 20
-841.75
 30
0.0
  0
VERTEX
  5
2C0
100
AcDbEntity
  8
OBJECT
  6
CONTINUOUS
100
AcDbVertex
100
AcDb2dVertex
 10
1215.0
 20
-858.25
 30
0.0
  0
VERTEX
  5
2C1
100
AcDbEntity
  8
OBJECT
  6
CONTINUOUS
100
AcDbVertex
100
AcDb2dVertex
 10
1212.5
 20
-858.25
 30
0.0
  0
SEQEND
  5
2C2
100
AcDbEntity
  8
OBJECT
  6
CONTINUOUS
  0
POLYLINE
  5
2C3
100
AcDbEntity
  8
OBJECT
  6
CONTINUOUS
100
AcDb2dPolyline
 66
               1
 10
0.0
 20
0.0
 30
0.0
 70
               1
 75
               5
  0
VERTEX
  5
2C4
100
AcDbEntity
  8
OBJECT
  6
CONTINUOUS
100
AcDbVertex
100
AcDb2dVertex
 10
1218.0
 20
-844.5
 30
0.0
  0
VERTEX
  5
2C5
100
AcDbEntity
  8
OBJECT
  6
CONTINUOUS
100
AcDbVertex
100
AcDb2dVertex
 10
1220.5
 20
-844.5
 30
0.0
  0
VERTEX
  5
2C6
100
AcDbEntity
  8
OBJECT
  6
CONTINUOUS
100
AcDbVertex
100
AcDb2dVertex
 10
1220.5
 20
-855.5
 30
0.0
  0
VERTEX
  5
2C7
100
AcDbEntity
  8
OBJECT
  6
CONTINUOUS
100
AcDbVertex
100
AcDb2dVertex
 10
1218.0
 20
-855.5
 30
0.0
  0
SEQEND
  5
2C8
100
AcDbEntity
  8
OBJECT
  6
CONTINUOUS
  0
POLYLINE
  5
2C9
100
AcDbEntity
  8
OBJECT
  6
CONTINUOUS
100
AcDb2dPolyline
 66
               1
 10
0.0
 20
0.0
 30
0.0
 70
               1
 75
               5
  0
VERTEX
  5
2CA
100
AcDbEntity
  8
OBJECT
  6
CONTINUOUS
100
AcDbVertex
100
AcDb2dVertex
 10
1179.5
 20
-844.5
 30
0.0
  0
VERTEX
  5
2CB
100
AcDbEntity
  8
OBJECT
  6
CONTINUOUS
100
AcDbVertex
100
AcDb2dVertex
 10
1182.0
 20
-844.5
 30
0.0
  0
VERTEX
  5
2CC
100
AcDbEntity
  8
OBJECT
  6
CONTINUOUS
100
AcDbVertex
100
AcDb2dVertex
 10
1182.0
 20
-855.5
 30
0.0
  0
VERTEX
  5
2CD
100
AcDbEntity
  8
OBJECT
  6
CONTINUOUS
100
AcDbVertex
100
AcDb2dVertex
 10
1179.5
 20
-855.5
 30
0.0
  0
SEQEND
  5
2CE
100
AcDbEntity
  8
OBJECT
  6
CONTINUOUS
  0
LINE
  5
2CF
100
AcDbEntity
  8
FRAME
  6
CONTINUOUS
100
AcDbLine
 10
1100.0
 20
-900.0
 30
0.0
 11
1500.0
 21
-900.0
 31
0.0
  0
INSERT
  5
2D0
100
AcDbEntity
  8
OBJECT
100
AcDbBlockReference
  2
*U17
 10
0.0
 20
19.999999999999996
 30
0.0
  0
LWPOLYLINE
  5
2D1
100
AcDbEntity
  8
OBJECT
  6
CONTINUOUS
100
AcDbPolyline
 90
        5
 70
             129
 10
1257.5
 20
-759.0
 42
-0.414213562373095
 10
1261.0
 20
-755.5
 42
-0.414213562373095
 10
1264.5
 20
-759.0
 42
-0.414213562373095
 10
1261.0
 20
-762.5
 42
-0.414213562373095
 10
1257.5
 20
-759.0
 42
-0.414213562373095
  0
LINE
  5
2D2
100
AcDbEntity
  8
OBJECT
  6
CONTINUOUS
100
AcDbLine
 10
1258.5
 20
-759.0
 30
0.0
 11
1263.5
 21
-759.0
 31
0.0
  0
LINE
  5
2D3
100
AcDbEntity
  8
OBJECT
  6
CONTINUOUS
100
AcDbLine
 10
1261.0
 20
-761.5
 30
0.0
 11
1261.0
 21
-756.5
 31
0.0
  0
LINE
  5
2D4
100
AcDbEntity
  8
OBJECT
  6
CONTINUOUS
100
AcDbLine
 10
1174.0
 20
-728.5
 30
0.0
 11
1218.5
 21
-728.5
 31
0.0
  0
LINE
  5
2D5
100
AcDbEntity
  8
OBJECT
  6
CONTINUOUS
100
AcDbLine
 10
1223.5
 20
-728.5
 30
0.0
 11
1303.7816894027019
 21
-728.5
 31
0.0
  0
LINE
  5
2D6
100
AcDbEntity
  8
OBJECT
  6
CONTINUOUS
100
AcDbLine
 10
1313.8784999999989
 20
-728.5
 30
0.0
 11
1485.4716468007809
 21
-728.5
 31
0.0
  0
LINE
  5
2D7
100
AcDbEntity
  8
OBJECT
  6
CONTINUOUS
100
AcDbLine
 10
1174.0
 20
-717.5
 30
0.0
 11
1174.0
 21
-728.5
 31
0.0
  0
LINE
  5
2D8
100
AcDbEntity
  8
OBJECT
  6
CONTINUOUS
100
AcDbLine
 10
1172.0
 20
-717.5
 30
0.0
 11
1174.0
 21
-717.5
 31
0.0
  0
LINE
  5
2D9
100
AcDbEntity
  8
OBJECT
  6
CONTINUOUS
100
AcDbLine
 10
1172.0
 20
-459.68680697457467
 30
0.0
 11
1172.0
 21
-717.5
 31
0.0
  0
LINE
  5
2DA
100
AcDbEntity
  8
OBJECT
  6
CONTINUOUS
100
AcDbLine
 10
1151.0
 20
-452.26130000000012
 30
0.0
 11
1151.0
 21
-744.0
 31
0.0
  0
LWPOLYLINE
  5
2DB
100
AcDbEntity
  8
OBJECT
  6
CONTINUOUS
100
AcDbPolyline
 90
        5
 70
             128
 10
1502.8430000000008
 20
-699.5
 10
1490.0830905494224
 20
-713.19533460347247
 42
0.4525140883241319
 10
1492.7930000000015
 20
-740.25
 42
-0.4525140883241334
 10
1495.5029094505799
 20
-767.30466539652741
 10
1482.7430000000004
 20
-781.0
  0
LINE
  5
2DC
100
AcDbEntity
  8
OBJECT
  6
CONTINUOUS
100
AcDbLine
 10
1482.7430000000004
 20
-781.0
 30
0.0
 11
1301.0
 21
-781.0
 31
0.0
  0
LINE
  5
2DD
100
AcDbEntity
  8
OBJECT
  6
CONTINUOUS
100
AcDbLine
 10
1291.4868999999999
 20
-779.0
 30
0.0
 11
1291.4869215010549
 21
-779.0
 31
0.0
  0
LINE
  5
2DE
100
AcDbEntity
  8
OBJECT
  6
CONTINUOUS
100
AcDbLine
 10
1301.4906095238093
 20
-779.0
 30
0.0
 11
1484.6063950640892
 21
-779.0
 31
0.0
  0
POLYLINE
  5
2DF
100
AcDbEntity
  8
OBJECT
  6
CONTINUOUS
100
AcDb2dPolyline
 66
               1
 10
0.0
 20
0.0
 30
0.0
 75
               5
  0
VERTEX
  5
2E0
100
AcDbEntity
  8
OBJECT
  6
CONTINUOUS
100
AcDbVertex
100
AcDb2dVertex
 10
1291.4868999999999
 20
-779.0
 30
0.0
  0
VERTEX
  5
2E1
100
AcDbEntity
  8
OBJECT
  6
CONTINUOUS
100
AcDbVertex
100
AcDb2dVertex
 10
1153.0
 20
-779.0
 30
0.0
  0
VERTEX
  5
2E2
100
AcDbEntity
  8
OBJECT
  6
CONTINUOUS
100
AcDbVertex
100
AcDb2dVertex
 10
1153.0
 20
-781.0
 30
0.0
  0
VERTEX
  5
2E3
100
AcDbEntity
  8
OBJECT
  6
CONTINUOUS
100
AcDbVertex
100
AcDb2dVertex
 10
1291.0
 20
-781.0
 30
0.0
  0
SEQEND
  5
2E4
100
AcDbEntity
  8
OBJECT
  6
CONTINUOUS
  0
POLYLINE
  5
2E5
100
AcDbEntity
  8
OBJECT
  6
CONTINUOUS
100
AcDb2dPolyline
 66
               1
 10
0.0
 20
0.0
 30
0.0
 75
               5
  0
VERTEX
  5
2E6
100
AcDbEntity
  8
OBJECT
  6
CONTINUOUS
100
AcDbVertex
100
AcDb2dVertex
 10
1291.4868999999999
 20
-779.0
 30
0.0
  0
VERTEX
  5
2E7
100
AcDbEntity
  8
OBJECT
  6
CONTINUOUS
100
AcDbVertex
100
AcDb2dVertex
 10
1151.0
 20
-779.0
 30
0.0
  0
VERTEX
  5
2E8
100
AcDbEntity
  8
OBJECT
  6
CONTINUOUS
100
AcDbVertex
100
AcDb2dVertex
 10
1151.0
 20
-774.0
 30
0.0
  0
SEQEND
  5
2E9
100
AcDbEntity
  8
OBJECT
  6
CONTINUOUS
  0
MTEXT
  5
2EA
100
AcDbEntity
  8
DIMENTION
100
AcDbMText
 10
1300.0
 20
-805.0
 30
0.0
 40
33.866666666666667
 41
0.0
 71
               1
 72
               1
  1
アース接続端子 M4
  7
________
  0
LINE
  5
2EB
100
AcDbEntity
  8
DIMENTION
  6
CONTINUOUS
100
AcDbLine
 10
1300.0
 20
-850.0
 30
0.0
 11
1262.3787175449288
 21
-762.21700760483236
 31
0.0
  0
LINE
  5
2EC
100
AcDbEntity
  8
DIMENTION
  6
CONTINUOUS
100
AcDbLine
 10
1262.3787175449288
 20
-762.21700760483236
 30
0.0
 11
1276.4002142216682
 21
-780.16370494704802
 31
0.0
  0
LINE
  5
2ED
100
AcDbEntity
  8
DIMENTION
  6
CONTINUOUS
100
AcDbLine
 10
1262.3787175449288
 20
-762.21700760483236
 30
0.0
 11
1265.5483411949563
 21
-784.77005175559145
 31
0.0
  0
LINE
  5
2EE
100
AcDbEntity
  8
DIMENTION
  6
CONTINUOUS
100
AcDbLine
 10
-460.0
 20
400.0
 30
0.0
 11
-900.0
 21
400.0
 31
0.0
  0
LINE
  5
2EF
100
AcDbEntity
  8
DIMENTION
  6
CONTINUOUS
100
AcDbLine
 10
-900.0
 20
400.0
 30
0.0
 11
-970.0
 21
632.0
 31
0.0
  0
LINE
  5
2F0
100
AcDbEntity
  8
DIMENTION
  6
CONTINUOUS
100
AcDbLine
 10
-970.0
 20
632.0
 30
0.0
 11
-958.27016965463747
 21
612.47828402476057
 31
0.0
  0
LINE
  5
2F1
100
AcDbEntity
  8
DIMENTION
  6
CONTINUOUS
100
AcDbLine
 10
-970.0
 20
632.0
 30
0.0
 11
-969.60252692645417
 21
609.2287828672969
 31
0.0
  0
MTEXT
  5
2F2
100
AcDbEntity
  8
DIMENTION
100
AcDbMText
 10
-900.0
 20
445.0
 30
0.0
 40
33.866666666666667
 41
0.0
 71
               1
 72
               1
  1
225Wヒーターユニット2個
  7
________
  0
MTEXT
  5
2F3
100
AcDbEntity
  8
DIMENTION
100
AcDbMText
 10
700.0
 20
-155.0
 30
0.0
 40
33.866666666666667
 41
281.50939999999997
 71
               1
 72
               1
  1
電源コード2.5m
  7
________
  0
LINE
  5
2F4
100
AcDbEntity
  8
DIMENTION
  6
CONTINUOUS
100
AcDbLine
 10
-700.0
 20
100.0
 30
0.0
 11
-839.37334590578757
 21
-44.263638744587752
 31
0.0
  0
LINE
  5
2F5
100
AcDbEntity
  8
DIMENTION
  6
CONTINUOUS
100
AcDbLine
 10
-839.37334590578757
 20
-44.263638744587752
 30
0.0
 11
-827.98600299195448
 21
-24.540182254619321
 31
0.0
  0
LINE
  5
2F6
100
AcDbEntity
  8
DIMENTION
  6
CONTINUOUS
100
AcDbLine
 10
-839.37334590578757
 20
-44.263638744587752
 30
0.0
 11
-819.64988941581919
 21
-32.876295830754614
 31
0.0
  0
LINE
  5
2F7
100
AcDbEntity
  8
FRAME
  6
CONTINUOUS
100
AcDbLine
 10
100.0
 20
-900.0
 30
0.0
 11
700.0
 21
-900.0
 31
0.0
  0
ARC
  5
2F8
100
AcDbEntity
  8
OBJECT
100
AcDbCircle
 10
1221.0
 20
-724.0
 30
0.0
 40
2.5
100
AcDbArc
 50
0.0
 51
180.0
  0
LINE
  5
2F9
100
AcDbEntity
  8
OBJECT
100
AcDbLine
 10
1223.5
 20
-724.0
 30
0.0
 11
1223.5
 21
-728.5
 31
0.0
  0
LINE
  5
2FA
100
AcDbEntity
  8
OBJECT
100
AcDbLine
 10
1218.5
 20
-724.0
 30
0.0
 11
1218.5
 21
-728.5
 31
0.0
  0
LINE
  5
2FB
100
AcDbEntity
  8
DIMENTION
100
AcDbLine
 10
1300.0
 20
-850.0
 30
0.0
 11
1650.0
 21
-850.0
 31
0.0
  0
LINE
  5
2FC
100
AcDbEntity
  8
DIMENTION
100
AcDbLine
 10
610.08759985035795
 20
-282.5
 30
0.0
 11
700.0
 21
-200.0
 31
0.0
  0
LINE
  5
2FD
100
AcDbEntity
  8
DIMENTION
100
AcDbLine
 10
610.08759985035795
 20
-282.5
 30
0.0
 11
627.98989513131266
 21
-254.93288272499461
 31
0.0
  0
LINE
  5
2FE
100
AcDbEntity
  8
DIMENTION
100
AcDbLine
 10
610.08759985035795
 20
-282.5
 30
0.0
 11
639.37500098721773
 21
-267.57732377121789
 31
0.0
  0
LINE
  5
2FF
100
AcDbEntity
  8
DIMENTION
100
AcDbLine
 10
700.0
 20
-200.0
 30
0.0
 11
975.0
 21
-200.0
 31
0.0
  0
DIMENSION
  5
300
100
AcDbEntity
  8
DIMENTION
  6
CONTINUOUS
100
AcDbDimension
  2
*D18
 10
100.0
 20
-89.0
 30
0.0
 11
100.0
 21
-339.0
 31
0.0
  3
CAD
100
AcDbAlignedDimension
 13
257.99999985035902
 23
-589.0
 33
0.0
 14
257.99999985035902
 24
-89.0
 34
0.0
 50
90.0
100
AcDbRotatedDimension
1001
ACAD
1000
DSTYLE
1002
{
1070
             271
1070
               0
1070
             340
1005
3E
1070
               3
1000
<>（可動範囲
1070
             147
1040
0.9999999999999999
1002
}
  0
POLYLINE
  5
301
100
AcDbEntity
  8
OBJECT
  6
CONTINUOUS
100
AcDb2dPolyline
 66
               1
 10
0.0
 20
0.0
 30
0.0
 70
               1
 75
               5
  0
VERTEX
  5
302
100
AcDbEntity
  8
OBJECT
  6
CONTINUOUS
100
AcDbVertex
100
AcDb2dVertex
 10
510.99999985035902
 20
-781.0
 30
0.0
  0
VERTEX
  5
303
100
AcDbEntity
  8
OBJECT
  6
CONTINUOUS
100
AcDbVertex
100
AcDb2dVertex
 10
440.99999985035902
 20
-781.0
 30
0.0
  0
VERTEX
  5
304
100
AcDbEntity
  8
OBJECT
  6
CONTINUOUS
100
AcDbVertex
100
AcDb2dVertex
 10
440.99999985035902
 20
-784.0
 30
0.0
  0
VERTEX
  5
305
100
AcDbEntity
  8
OBJECT
  6
CONTINUOUS
100
AcDbVertex
100
AcDb2dVertex
 10
510.99999985035902
 20
-784.0
 30
0.0
  0
SEQEND
  5
306
100
AcDbEntity
  8
OBJECT
  6
CONTINUOUS
  0
LWPOLYLINE
  5
307
100
AcDbEntity
  8
OBJECT
  6
CONTINUOUS
100
AcDbPolyline
 90
        5
 70
             129
 10
498.99999985035902
 20
-850.0
 42
-0.414213562373095
 10
508.99999985035902
 20
-840.0
 42
-0.414213562373095
 10
518.99999985035902
 20
-850.0
 42
-0.414213562373095
 10
508.99999985035902
 20
-860.0
 42
-0.414213562373095
 10
498.99999985035902
 20
-850.0
 42
-0.414213562373095
  0
LWPOLYLINE
  5
308
100
AcDbEntity
  8
OBJECT
  6
CONTINUOUS
100
AcDbPolyline
 90
        5
 70
             128
 10
499.49999985035902
 20
-792.0
 42
0.414213562373095
 10
500.49999985035902
 20
-793.0
 10
508.49999985035902
 20
-793.0
 10
518.59999985035938
 20
-846.4377000000004
 10
518.79999985035829
 20
-848.25840000000017
  0
LWPOLYLINE
  5
309
100
AcDbEntity
  8
OBJECT
  6
CONTINUOUS
100
AcDbPolyline
 90
       10
 70
             128
 10
500.87239985035922
 20
-855.77720000000045
 10
500.22889985035908
 20
-854.80280000000039
 10
462.49999985035902
 20
-801.0
 10
452.49999985035902
 20
-801.0
 10
452.49999985035902
 20
-794.0
 10
452.49999985035902
 20
-794.0
 42
-0.414213562373095
 10
455.49999985035902
 20
-791.0
 10
498.49999985035902
 20
-791.0
 10
498.49999985035902
 20
-791.0
 42
-0.414213562373095
 10
499.49999985035902
 20
-792.0
 42
-0.414213562373095
  0
POLYLINE
  5
30A
100
AcDbEntity
  8
OBJECT
  6
CONTINUOUS
100
AcDb2dPolyline
 66
               1
 10
0.0
 20
0.0
 30
0.0
 70
               1
 75
               5
  0
VERTEX
  5
30B
100
AcDbEntity
  8
OBJECT
  6
CONTINUOUS
100
AcDbVertex
100
AcDb2dVertex
 10
502.49999985035902
 20
-784.0
 30
0.0
  0
VERTEX
  5
30C
100
AcDbEntity
  8
OBJECT
  6
CONTINUOUS
100
AcDbVertex
100
AcDb2dVertex
 10
449.49999985035902
 20
-784.0
 30
0.0
  0
VERTEX
  5
30D
100
AcDbEntity
  8
OBJECT
  6
CONTINUOUS
100
AcDbVertex
100
AcDb2dVertex
 10
453.49999985035902
 20
-787.5
 30
0.0
  0
VERTEX
  5
30E
100
AcDbEntity
  8
OBJECT
  6
CONTINUOUS
100
AcDbVertex
100
AcDb2dVertex
 10
453.49999985035902
 20
-791.0
 30
0.0
  0
VERTEX
  5
30F
100
AcDbEntity
  8
OBJECT
  6
CONTINUOUS
100
AcDbVertex
100
AcDb2dVertex
 10
498.49999985035902
 20
-791.0
 30
0.0
  0
VERTEX
  5
310
100
AcDbEntity
  8
OBJECT
  6
CONTINUOUS
100
AcDbVertex
100
AcDb2dVertex
 10
498.49999985035902
 20
-787.5
 30
0.0
  0
SEQEND
  5
311
100
AcDbEntity
  8
OBJECT
  6
CONTINUOUS
  0
LINE
  5
312
100
AcDbEntity
  8
OBJECT
  6
CONTINUOUS
100
AcDbLine
 10
498.49999985035902
 20
-787.5
 30
0.0
 11
453.49999985035902
 21
-787.5
 31
0.0
  0
LINE
  5
313
100
AcDbEntity
  8
OBJECT
  6
CONTINUOUS
100
AcDbLine
 10
493.49999985035902
 20
-793.0
 30
0.0
 11
493.49999985035902
 21
-843.0
 31
0.0
  0
LWPOLYLINE
  5
314
100
AcDbEntity
  8
OBJECT
  6
CONTINUOUS
100
AcDbPolyline
 90
        5
 70
             129
 10
503.49999985035902
 20
-850.0
 42
-0.414213562373095
 10
508.99999985035902
 20
-844.5
 42
-0.414213562373095
 10
514.49999985035902
 20
-850.0
 42
-0.414213562373095
 10
508.99999985035902
 20
-855.5
 42
-0.414213562373095
 10
503.49999985035902
 20
-850.0
 42
-0.414213562373095
  0
ARC
  5
315
100
AcDbEntity
  8
OBJECT
  6
CONTINUOUS
100
AcDbCircle
 10
508.99999985035902
 20
-850.0
 30
0.0
 40
40.000018056245324
100
AcDbArc
 50
139.42693516316874
 51
86.085507773715634
  0
ARC
  5
316
100
AcDbEntity
  8
OBJECT
  6
CONTINUOUS
100
AcDbCircle
 10
508.99999985035902
 20
-850.0
 30
0.0
 40
46.499974801391303
100
AcDbArc
 50
137.38144272174625
 51
88.1648678673657
  0
ARC
  5
317
100
AcDbEntity
  8
OBJECT
  6
CONTINUOUS
100
AcDbCircle
 10
508.99999985035902
 20
-850.0
 30
0.0
 40
50.000016569696825
100
AcDbArc
 50
136.5052764586583
 51
89.055378894867943
  0
POLYLINE
  5
318
100
AcDbEntity
  8
OBJECT
  6
CONTINUOUS
100
AcDb2dPolyline
 66
               1
 10
0.0
 20
0.0
 30
0.0
 75
               5
  0
VERTEX
  5
319
100
AcDbEntity
  8
OBJECT
  6
CONTINUOUS
100
AcDbVertex
100
AcDb2dVertex
 10
482.99999985035902
 20
-750.0
 30
0.0
  0
VERTEX
  5
31A
100
AcDbEntity
  8
OBJECT
  6
CONTINUOUS
100
AcDbVertex
100
AcDb2dVertex
 10
482.99999985035902
 20
-779.0
 30
0.0
  0
VERTEX
  5
31B
100
AcDbEntity
  8
OBJECT
  6
CONTINUOUS
100
AcDbVertex
100
AcDb2dVertex
 10
222.99999985035902
 20
-779.0
 30
0.0
  0
VERTEX
  5
31C
100
AcDbEntity
  8
OBJECT
  6
CONTINUOUS
100
AcDbVertex
100
AcDb2dVertex
 10
222.99999985035902
 20
-774.0
 30
0.0
  0
SEQEND
  5
31D
100
AcDbEntity
  8
OBJECT
  6
CONTINUOUS
  0
POLYLINE
  5
31E
100
AcDbEntity
  8
OBJECT
  6
CONTINUOUS
100
AcDb2dPolyline
 66
               1
 10
0.0
 20
0.0
 30
0.0
 70
               1
 75
               5
  0
VERTEX
  5
31F
100
AcDbEntity
  8
OBJECT
  6
CONTINUOUS
100
AcDbVertex
100
AcDb2dVertex
 10
296.99999985035902
 20
-781.0
 30
0.0
  0
VERTEX
  5
320
100
AcDbEntity
  8
OBJECT
  6
CONTINUOUS
100
AcDbVertex
100
AcDb2dVertex
 10
236.99999985035902
 20
-781.0
 30
0.0
  0
VERTEX
  5
321
100
AcDbEntity
  8
OBJECT
  6
CONTINUOUS
100
AcDbVertex
100
AcDb2dVertex
 10
236.99999985035902
 20
-784.0
 30
0.0
  0
VERTEX
  5
322
100
AcDbEntity
  8
OBJECT
  6
CONTINUOUS
100
AcDbVertex
100
AcDb2dVertex
 10
296.99999985035902
 20
-784.0
 30
0.0
  0
SEQEND
  5
323
100
AcDbEntity
  8
OBJECT
  6
CONTINUOUS
  0
LWPOLYLINE
  5
324
100
AcDbEntity
  8
OBJECT
  6
CONTINUOUS
100
AcDbPolyline
 90
        5
 70
             129
 10
289.99999985035902
 20
-850.0
 42
-0.414213562373095
 10
299.99999985035902
 20
-840.0
 42
-0.414213562373095
 10
309.99999985035902
 20
-850.0
 42
-0.414213562373095
 10
299.99999985035902
 20
-860.0
 42
-0.414213562373095
 10
289.99999985035902
 20
-850.0
 42
-0.414213562373095
  0
LWPOLYLINE
  5
325
100
AcDbEntity
  8
OBJECT
  6
CONTINUOUS
100
AcDbPolyline
 90
        5
 70
             128
 10
290.49999985035902
 20
-792.0
 42
0.414213562373095
 10
291.49999985035902
 20
-793.0
 10
299.49999985035902
 20
-793.0
 10
309.59999985035938
 20
-846.4377000000004
 10
309.79999985035829
 20
-848.25840000000017
  0
LWPOLYLINE
  5
326
100
AcDbEntity
  8
OBJECT
  6
CONTINUOUS
100
AcDbPolyline
 90
       10
 70
             128
 10
291.87239985035922
 20
-855.77720000000045
 10
291.22889985035908
 20
-854.80280000000039
 10
253.49999985035902
 20
-801.0
 10
243.49999985035902
 20
-801.0
 10
243.49999985035902
 20
-794.0
 10
243.49999985035902
 20
-794.0
 42
-0.414213562373095
 10
246.49999985035902
 20
-791.0
 10
289.49999985035902
 20
-791.0
 10
289.49999985035902
 20
-791.0
 42
-0.414213562373095
 10
290.49999985035902
 20
-792.0
 42
-0.414213562373095
  0
POLYLINE
  5
327
100
AcDbEntity
  8
OBJECT
  6
CONTINUOUS
100
AcDb2dPolyline
 66
               1
 10
0.0
 20
0.0
 30
0.0
 70
               1
 75
               5
  0
VERTEX
  5
328
100
AcDbEntity
  8
OBJECT
  6
CONTINUOUS
100
AcDbVertex
100
AcDb2dVertex
 10
293.49999985035902
 20
-784.0
 30
0.0
  0
VERTEX
  5
329
100
AcDbEntity
  8
OBJECT
  6
CONTINUOUS
100
AcDbVertex
100
AcDb2dVertex
 10
240.49999985035902
 20
-784.0
 30
0.0
  0
VERTEX
  5
32A
100
AcDbEntity
  8
OBJECT
  6
CONTINUOUS
100
AcDbVertex
100
AcDb2dVertex
 10
244.49999985035902
 20
-787.5
 30
0.0
  0
VERTEX
  5
32B
100
AcDbEntity
  8
OBJECT
  6
CONTINUOUS
100
AcDbVertex
100
AcDb2dVertex
 10
244.49999985035902
 20
-791.0
 30
0.0
  0
VERTEX
  5
32C
100
AcDbEntity
  8
OBJECT
  6
CONTINUOUS
100
AcDbVertex
100
AcDb2dVertex
 10
289.49999985035902
 20
-791.0
 30
0.0
  0
VERTEX
  5
32D
100
AcDbEntity
  8
OBJECT
  6
CONTINUOUS
100
AcDbVertex
100
AcDb2dVertex
 10
289.49999985035902
 20
-787.5
 30
0.0
  0
SEQEND
  5
32E
100
AcDbEntity
  8
OBJECT
  6
CONTINUOUS
  0
LINE
  5
32F
100
AcDbEntity
  8
OBJECT
  6
CONTINUOUS
100
AcDbLine
 10
289.49999985035902
 20
-787.5
 30
0.0
 11
244.49999985035902
 21
-787.5
 31
0.0
  0
LINE
  5
330
100
AcDbEntity
  8
OBJECT
  6
CONTINUOUS
100
AcDbLine
 10
284.49999985035902
 20
-793.0
 30
0.0
 11
284.49999985035902
 21
-843.0
 31
0.0
  0
LWPOLYLINE
  5
331
100
AcDbEntity
  8
OBJECT
  6
CONTINUOUS
100
AcDbPolyline
 90
        5
 70
             129
 10
294.49999985035902
 20
-850.0
 42
-0.414213562373095
 10
299.99999985035902
 20
-844.5
 42
-0.414213562373095
 10
305.49999985035902
 20
-850.0
 42
-0.414213562373095
 10
299.99999985035902
 20
-855.5
 42
-0.414213562373095
 10
294.49999985035902
 20
-850.0
 42
-0.414213562373095
  0
ARC
  5
332
100
AcDbEntity
  8
OBJECT
  6
CONTINUOUS
100
AcDbCircle
 10
299.99999985035902
 20
-850.0
 30
0.0
 40
40.000018056245324
100
AcDbArc
 50
139.42693516316874
 51
86.085507773715634
  0
ARC
  5
333
100
AcDbEntity
  8
OBJECT
  6
CONTINUOUS
100
AcDbCircle
 10
299.99999985035902
 20
-850.0
 30
0.0
 40
46.499974801391303
100
AcDbArc
 50
137.38144272174625
 51
88.1648678673657
  0
ARC
  5
334
100
AcDbEntity
  8
OBJECT
  6
CONTINUOUS
100
AcDbCircle
 10
299.99999985035902
 20
-850.0
 30
0.0
 40
50.000016569696825
100
AcDbArc
 50
136.5052764586583
 51
89.055378894867943
  0
POLYLINE
  5
335
100
AcDbEntity
  8
OBJECT
  6
CONTINUOUS
100
AcDb2dPolyline
 66
               1
 10
0.0
 20
0.0
 30
0.0
 70
               1
 75
               5
  0
VERTEX
  5
336
100
AcDbEntity
  8
OBJECT
  6
CONTINUOUS
100
AcDbVertex
100
AcDb2dVertex
 10
-1365.0
 20
-64.0
 30
0.0
  0
VERTEX
  5
337
100
AcDbEntity
  8
OBJECT
  6
CONTINUOUS
100
AcDbVertex
100
AcDb2dVertex
 10
-1100.0
 20
-64.0
 30
0.0
  0
VERTEX
  5
338
100
AcDbEntity
  8
OBJECT
  6
CONTINUOUS
100
AcDbVertex
100
AcDb2dVertex
 10
-1100.0
 20
-69.0
 30
0.0
  0
VERTEX
  5
339
100
AcDbEntity
  8
OBJECT
  6
CONTINUOUS
100
AcDbVertex
100
AcDb2dVertex
 10
-1365.0
 20
-69.0
 30
0.0
  0
SEQEND
  5
33A
100
AcDbEntity
  8
OBJECT
  6
CONTINUOUS
  0
POLYLINE
  5
33B
100
AcDbEntity
  8
OBJECT
  6
CONTINUOUS
100
AcDb2dPolyline
 66
               1
 10
0.0
 20
0.0
 30
0.0
 70
               1
 75
               5
  0
VERTEX
  5
33C
100
AcDbEntity
  8
OBJECT
  6
CONTINUOUS
100
AcDbVertex
100
AcDb2dVertex
 10
301.99999985035902
 20
-43.0
 30
0.0
  0
VERTEX
  5
33D
100
AcDbEntity
  8
OBJECT
  6
CONTINUOUS
100
AcDbVertex
100
AcDb2dVertex
 10
301.99999985035902
 20
-64.0
 30
0.0
  0
VERTEX
  5
33E
100
AcDbEntity
  8
OBJECT
  6
CONTINUOUS
100
AcDbVertex
100
AcDb2dVertex
 10
311.99999985035902
 20
-64.0
 30
0.0
  0
VERTEX
  5
33F
100
AcDbEntity
  8
OBJECT
  6
CONTINUOUS
100
AcDbVertex
100
AcDb2dVertex
 10
311.99999985035902
 20
-52.0
 30
0.0
  0
VERTEX
  5
340
100
AcDbEntity
  8
OBJECT
  6
CONTINUOUS
100
AcDbVertex
100
AcDb2dVertex
 10
361.99999985035902
 20
-52.0
 30
0.0
  0
VERTEX
  5
341
100
AcDbEntity
  8
OBJECT
  6
CONTINUOUS
100
AcDbVertex
100
AcDb2dVertex
 10
361.99999985035902
 20
-64.0
 30
0.0
  0
VERTEX
  5
342
100
AcDbEntity
  8
OBJECT
  6
CONTINUOUS
100
AcDbVertex
100
AcDb2dVertex
 10
371.99999985035902
 20
-64.0
 30
0.0
  0
VERTEX
  5
343
100
AcDbEntity
  8
OBJECT
  6
CONTINUOUS
100
AcDbVertex
100
AcDb2dVertex
 10
371.99999985035902
 20
-43.0
 30
0.0
  0
SEQEND
  5
344
100
AcDbEntity
  8
OBJECT
  6
CONTINUOUS
  0
POLYLINE
  5
345
100
AcDbEntity
  8
OBJECT
  6
CONTINUOUS
100
AcDb2dPolyline
 66
               1
 10
0.0
 20
0.0
 30
0.0
 70
               1
 75
               5
  0
VERTEX
  5
346
100
AcDbEntity
  8
OBJECT
  6
CONTINUOUS
100
AcDbVertex
100
AcDb2dVertex
 10
224.99999985035902
 20
-779.0
 30
0.0
  0
VERTEX
  5
347
100
AcDbEntity
  8
OBJECT
  6
CONTINUOUS
100
AcDbVertex
100
AcDb2dVertex
 10
522.99999985035902
 20
-779.0
 30
0.0
  0
VERTEX
  5
348
100
AcDbEntity
  8
OBJECT
  6
CONTINUOUS
100
AcDbVertex
100
AcDb2dVertex
 10
522.99999985035902
 20
-781.0
 30
0.0
  0
VERTEX
  5
349
100
AcDbEntity
  8
OBJECT
  6
CONTINUOUS
100
AcDbVertex
100
AcDb2dVertex
 10
224.99999985035902
 20
-781.0
 30
0.0
  0
SEQEND
  5
34A
100
AcDbEntity
  8
OBJECT
  6
CONTINUOUS
  0
POLYLINE
  5
34B
100
AcDbEntity
  8
OBJECT
  6
CONTINUOUS
100
AcDb2dPolyline
 66
               1
 10
0.0
 20
0.0
 30
0.0
 70
               1
 75
               5
  0
VERTEX
  5
34C
100
AcDbEntity
  8
OBJECT
  6
CONTINUOUS
100
AcDbVertex
100
AcDb2dVertex
 10
220.99999985035902
 20
-69.0
 30
0.0
  0
VERTEX
  5
34D
100
AcDbEntity
  8
OBJECT
  6
CONTINUOUS
100
AcDbVertex
100
AcDb2dVertex
 10
482.99999985035902
 20
-69.0
 30
0.0
  0
VERTEX
  5
34E
100
AcDbEntity
  8
OBJECT
  6
CONTINUOUS
100
AcDbVertex
100
AcDb2dVertex
 10
482.99999985035902
 20
-99.0
 30
0.0
  0
VERTEX
  5
34F
100
AcDbEntity
  8
OBJECT
  6
CONTINUOUS
100
AcDbVertex
100
AcDb2dVertex
 10
220.99999985035902
 20
-99.0
 30
0.0
  0
SEQEND
  5
350
100
AcDbEntity
  8
OBJECT
  6
CONTINUOUS
  0
POLYLINE
  5
351
100
AcDbEntity
  8
OBJECT
  6
CONTINUOUS
100
AcDb2dPolyline
 66
               1
 10
0.0
 20
0.0
 30
0.0
 75
               5
  0
VERTEX
  5
352
100
AcDbEntity
  8
OBJECT
  6
CONTINUOUS
100
AcDbVertex
100
AcDb2dVertex
 10
482.99999985035902
 20
-75.0
 30
0.0
  0
VERTEX
  5
353
100
AcDbEntity
  8
OBJECT
  6
CONTINUOUS
100
AcDbVertex
100
AcDb2dVertex
 10
482.99999985035902
 20
-75.0
 30
0.0
  0
VERTEX
  5
354
100
AcDbEntity
  8
OBJECT
  6
CONTINUOUS
100
AcDbVertex
100
AcDb2dVertex
 10
482.99999985035902
 20
-750.0
 30
0.0
  0
SEQEND
  5
355
100
AcDbEntity
  8
OBJECT
  6
CONTINUOUS
  0
LINE
  5
356
100
AcDbEntity
  8
OBJECT
  6
CONTINUOUS
100
AcDbLine
 10
222.99999985035902
 20
-744.0
 30
0.0
 11
222.99999985035902
 21
-99.0
 31
0.0
  0
POLYLINE
  5
357
100
AcDbEntity
  8
OBJECT
  6
CONTINUOUS
100
AcDb2dPolyline
 66
               1
 10
0.0
 20
0.0
 30
0.0
 75
               5
  0
VERTEX
  5
358
100
AcDbEntity
  8
OBJECT
  6
CONTINUOUS
100
AcDbVertex
100
AcDb2dVertex
 10
522.99999985035902
 20
-774.0
 30
0.0
  0
VERTEX
  5
359
100
AcDbEntity
  8
OBJECT
  6
CONTINUOUS
100
AcDbVertex
100
AcDb2dVertex
 10
522.99999985035902
 20
-779.0
 30
0.0
  0
VERTEX
  5
35A
100
AcDbEntity
  8
OBJECT
  6
CONTINUOUS
100
AcDbVertex
100
AcDb2dVertex
 10
482.99999985035902
 20
-779.0
 30
0.0
  0
VERTEX
  5
35B
100
AcDbEntity
  8
OBJECT
  6
CONTINUOUS
100
AcDbVertex
100
AcDb2dVertex
 10
482.99999985035902
 20
-69.0
 30
0.0
  0
VERTEX
  5
35C
100
AcDbEntity
  8
OBJECT
  6
CONTINUOUS
100
AcDbVertex
100
AcDb2dVertex
 10
522.99999985035902
 20
-69.0
 30
0.0
  0
VERTEX
  5
35D
100
AcDbEntity
  8
OBJECT
  6
CONTINUOUS
100
AcDbVertex
100
AcDb2dVertex
 10
522.99999985035902
 20
-744.0
 30
0.0
  0
SEQEND
  5
35E
100
AcDbEntity
  8
OBJECT
  6
CONTINUOUS
  0
POLYLINE
  5
35F
100
AcDbEntity
  8
OBJECT
  6
CONTINUOUS
100
AcDb2dPolyline
 66
               1
 10
0.0
 20
0.0
 30
0.0
 70
               1
 75
               5
  0
VERTEX
  5
360
100
AcDbEntity
  8
OBJECT
  6
CONTINUOUS
100
AcDbVertex
100
AcDb2dVertex
 10
216.99999985035902
 20
-64.0
 30
0.0
  0
VERTEX
  5
361
100
AcDbEntity
  8
OBJECT
  6
CONTINUOUS
100
AcDbVertex
100
AcDb2dVertex
 10
486.99999985035902
 20
-64.0
 30
0.0
  0
VERTEX
  5
362
100
AcDbEntity
  8
OBJECT
  6
CONTINUOUS
100
AcDbVertex
100
AcDb2dVertex
 10
486.99999985035902
 20
-69.0
 30
0.0
  0
VERTEX
  5
363
100
AcDbEntity
  8
OBJECT
  6
CONTINUOUS
100
AcDbVertex
100
AcDb2dVertex
 10
216.99999985035902
 20
-69.0
 30
0.0
  0
SEQEND
  5
364
100
AcDbEntity
  8
OBJECT
  6
CONTINUOUS
  0
INSERT
  5
365
100
AcDbEntity
  8
OBJECT
100
AcDbBlockReference
  2
*U19
 10
0.0
 20
19.999999999999996
 30
0.0
  0
POLYLINE
  5
366
100
AcDbEntity
  8
OBJECT
  6
CONTINUOUS
100
AcDb2dPolyline
 66
               1
 10
0.0
 20
0.0
 30
0.0
 70
               1
 75
               5
  0
VERTEX
  5
367
100
AcDbEntity
  8
OBJECT
  6
CONTINUOUS
100
AcDbVertex
100
AcDb2dVertex
 10
566.08759985035795
 20
-147.0
 30
0.0
  0
VERTEX
  5
368
100
AcDbEntity
  8
OBJECT
  6
CONTINUOUS
100
AcDbVertex
100
AcDb2dVertex
 10
553.08759985035795
 20
-147.0
 30
0.0
  0
VERTEX
  5
369
100
AcDbEntity
  8
OBJECT
  6
CONTINUOUS
100
AcDbVertex
100
AcDb2dVertex
 10
553.08759985035795
 20
-191.0
 30
0.0
  0
VERTEX
  5
36A
100
AcDbEntity
  8
OBJECT
  6
CONTINUOUS
100
AcDbVertex
100
AcDb2dVertex
 10
566.08759985035795
 20
-191.0
 30
0.0
  0
SEQEND
  5
36B
100
AcDbEntity
  8
OBJECT
  6
CONTINUOUS
  0
LWPOLYLINE
  5
36C
100
AcDbEntity
  8
OBJECT
  6
CONTINUOUS
100
AcDbPolyline
 90
        6
 70
             129
 10
610.08759985035795
 20
-282.5
 10
610.08759985035795
 20
-312.5
 10
585.08759985035795
 20
-312.5
 42
-0.414213562373095
 10
575.08759985035795
 20
-302.5
 10
575.08759985035795
 20
-292.5
 42
-0.414213562373095
 10
585.08759985035795
 20
-282.5
  0
POLYLINE
  5
36D
100
AcDbEntity
  8
OBJECT
  6
CONTINUOUS
100
AcDb2dPolyline
 66
               1
 10
0.0
 20
0.0
 30
0.0
 70
               1
 75
               5
  0
VERTEX
  5
36E
100
AcDbEntity
  8
OBJECT
  6
CONTINUOUS
100
AcDbVertex
100
AcDb2dVertex
 10
631.08759985035795
 20
-286.0
 30
0.0
  0
VERTEX
  5
36F
100
AcDbEntity
  8
OBJECT
  6
CONTINUOUS
100
AcDbVertex
100
AcDb2dVertex
 10
631.08759985035795
 20
-289.0
 30
0.0
  0
VERTEX
  5
370
100
AcDbEntity
  8
OBJECT
  6
CONTINUOUS
100
AcDbVertex
100
AcDb2dVertex
 10
610.08759985035795
 20
-289.0
 30
0.0
  0
VERTEX
  5
371
100
AcDbEntity
  8
OBJECT
  6
CONTINUOUS
100
AcDbVertex
100
AcDb2dVertex
 10
610.08759985035795
 20
-286.0
 30
0.0
  0
SEQEND
  5
372
100
AcDbEntity
  8
OBJECT
  6
CONTINUOUS
  0
POLYLINE
  5
373
100
AcDbEntity
  8
OBJECT
  6
CONTINUOUS
100
AcDb2dPolyline
 66
               1
 10
0.0
 20
0.0
 30
0.0
 70
               1
 75
               5
  0
VERTEX
  5
374
100
AcDbEntity
  8
OBJECT
  6
CONTINUOUS
100
AcDbVertex
100
AcDb2dVertex
 10
631.08759985035795
 20
-306.0
 30
0.0
  0
VERTEX
  5
375
100
AcDbEntity
  8
OBJECT
  6
CONTINUOUS
100
AcDbVertex
100
AcDb2dVertex
 10
631.08759985035795
 20
-309.0
 30
0.0
  0
VERTEX
  5
376
100
AcDbEntity
  8
OBJECT
  6
CONTINUOUS
100
AcDbVertex
100
AcDb2dVertex
 10
610.08759985035795
 20
-309.0
 30
0.0
  0
VERTEX
  5
377
100
AcDbEntity
  8
OBJECT
  6
CONTINUOUS
100
AcDbVertex
100
AcDb2dVertex
 10
610.08759985035795
 20
-306.0
 30
0.0
  0
SEQEND
  5
378
100
AcDbEntity
  8
OBJECT
  6
CONTINUOUS
  0
POLYLINE
  5
379
100
AcDbEntity
  8
OBJECT
  6
CONTINUOUS
100
AcDb2dPolyline
 66
               1
 10
0.0
 20
0.0
 30
0.0
 75
               5
  0
VERTEX
  5
37A
100
AcDbEntity
  8
OBJECT
  6
CONTINUOUS
100
AcDbVertex
100
AcDb2dVertex
 10
545.75109985035851
 20
-164.0
 30
0.0
  0
VERTEX
  5
37B
100
AcDbEntity
  8
OBJECT
  6
CONTINUOUS
100
AcDbVertex
100
AcDb2dVertex
 10
553.08759985035795
 20
-164.0
 30
0.0
  0
VERTEX
  5
37C
100
AcDbEntity
  8
OBJECT
  6
CONTINUOUS
100
AcDbVertex
100
AcDb2dVertex
 10
553.08759985035795
 20
-174.0
 30
0.0
  0
VERTEX
  5
37D
100
AcDbEntity
  8
OBJECT
  6
CONTINUOUS
100
AcDbVertex
100
AcDb2dVertex
 10
545.98989985035951
 20
-174.0
 30
0.0
  0
SEQEND
  5
37E
100
AcDbEntity
  8
OBJECT
  6
CONTINUOUS
  0
POLYLINE
  5
37F
100
AcDbEntity
  8
OBJECT
  6
CONTINUOUS
100
AcDb2dPolyline
 66
               1
 10
0.0
 20
0.0
 30
0.0
 75
               5
  0
VERTEX
  5
380
100
AcDbEntity
  8
OBJECT
  6
CONTINUOUS
100
AcDbVertex
100
AcDb2dVertex
 10
522.79999985035829
 20
-164.0
 30
0.0
  0
VERTEX
  5
381
100
AcDbEntity
  8
OBJECT
  6
CONTINUOUS
100
AcDbVertex
100
AcDb2dVertex
 10
535.08759985035795
 20
-164.0
 30
0.0
  0
VERTEX
  5
382
100
AcDbEntity
  8
OBJECT
  6
CONTINUOUS
100
AcDbVertex
100
AcDb2dVertex
 10
535.08759985035795
 20
-174.0
 30
0.0
  0
VERTEX
  5
383
100
AcDbEntity
  8
OBJECT
  6
CONTINUOUS
100
AcDbVertex
100
AcDb2dVertex
 10
523.19999985035975
 20
-174.0
 30
0.0
  0
SEQEND
  5
384
100
AcDbEntity
  8
OBJECT
  6
CONTINUOUS
  0
LWPOLYLINE
  5
385
100
AcDbEntity
  8
OBJECT
  6
CONTINUOUS
100
AcDbPolyline
 90
        6
 70
             128
 10
575.1073998503598
 20
-291.86920000000009
 42
-0.3784005756993815
 10
548.1086998503597
 20
-262.73500000000013
 10
545.4883998503592
 20
-152.9969000000001
 10
545.4883998503592
 20
-152.9969000000001
 10
545.4883998503592
 20
-152.9969000000001
 42
0.1106643221608389
 10
544.95969985035845
 20
-150.87570000000051
 42
0.1106643221608389
  0
ARC
  5
386
100
AcDbEntity
  8
OBJECT
  6
CONTINUOUS
100
AcDbCircle
 10
578.10029985035908
 20
-262.01870000000008
 30
0.0
 40
40.000023694118937
100
AcDbArc
 50
214.37935543850409
 51
265.6805363988579
  0
LWPOLYLINE
  5
387
100
AcDbEntity
  8
OBJECT
  6
CONTINUOUS
100
AcDbPolyline
 90
       23
 70
             128
 10
535.08759985035795
 20
-770.97810000000027
 10
535.08759985035795
 20
-771.0
 10
535.08759985035795
 20
-771.0
 10
535.08759985035795
 20
-771.0
 42
-0.414213562373095
 10
525.08759985035795
 20
-781.0
 10
363.49999985035902
 20
-781.0
 10
353.49999985035902
 20
-781.0
 10
353.49999985035902
 20
-784.0
 10
353.49999985035902
 20
-784.0
 10
353.49999985035902
 20
-784.0
 42
0.414213562373095
 10
360.49999985035902
 20
-791.0
 10
525.08759985035795
 20
-791.0
 10
525.08759985035795
 20
-791.0
 10
525.08759985035795
 20
-791.0
 42
0.414213562373095
 10
545.08759985035795
 20
-771.0
 10
545.08759985035795
 20
-152.0
 10
545.08759985035795
 20
-152.0
 10
545.08759985035795
 20
-152.0
 42
0.414213562373095
 10
540.08759985035795
 20
-147.0
 10
540.08759985035795
 20
-147.0
 10
540.08759985035795
 20
-147.0
 42
0.414213562373095
 10
535.08759985035795
 20
-152.0
 10
535.08759985035795
 20
-747.02190000000019
  0
LWPOLYLINE
  5
388
100
AcDbEntity
  8
HIDDEN
  6
STYLE_16
100
AcDbPolyline
 90
        5
 70
             129
 10
482.99999985035902
 20
-99.0
 42
-0.414213562373095
 10
493.99999985035902
 20
-88.0
 42
-0.414213562373095
 10
504.99999985035902
 20
-99.0
 42
-0.414213562373095
 10
493.99999985035902
 20
-110.0
 42
-0.414213562373095
 10
482.99999985035902
 20
-99.0
 42
-0.414213562373095
  0
LWPOLYLINE
  5
389
100
AcDbEntity
  8
HIDDEN
  6
STYLE_16
100
AcDbPolyline
 90
        5
 70
             129
 10
459.49999985035902
 20
-258.0
 42
-0.414213562373095
 10
470.49999985035902
 20
-247.0
 42
-0.414213562373095
 10
481.49999985035902
 20
-258.0
 42
-0.414213562373095
 10
470.49999985035902
 20
-269.0
 42
-0.414213562373095
 10
459.49999985035902
 20
-258.0
 42
-0.414213562373095
  0
POLYLINE
  5
38A
100
AcDbEntity
  8
HIDDEN
  6
STYLE_16
100
AcDb2dPolyline
 66
               1
 10
0.0
 20
0.0
 30
0.0
 70
               1
 75
               5
  0
VERTEX
  5
38B
100
AcDbEntity
  8
HIDDEN
  6
STYLE_16
100
AcDbVertex
100
AcDb2dVertex
 10
511.99999985035902
 20
-268.0634
 30
0.0
  0
VERTEX
  5
38C
100
AcDbEntity
  8
HIDDEN
  6
STYLE_16
100
AcDbVertex
100
AcDb2dVertex
 10
511.99999985035902
 20
-269.0
 30
0.0
  0
VERTEX
  5
38D
100
AcDbEntity
  8
HIDDEN
  6
STYLE_16
100
AcDbVertex
100
AcDb2dVertex
 10
332.99999985035902
 20
-269.0
 30
0.0
  0
VERTEX
  5
38E
100
AcDbEntity
  8
HIDDEN
  6
STYLE_16
100
AcDbVertex
100
AcDb2dVertex
 10
332.99999985035902
 20
-199.0
 30
0.0
  0
VERTEX
  5
38F
100
AcDbEntity
  8
HIDDEN
  6
STYLE_16
100
AcDbVertex
100
AcDb2dVertex
 10
257.99999985035902
 20
-199.0
 30
0.0
  0
VERTEX
  5
390
100
AcDbEntity
  8
HIDDEN
  6
STYLE_16
100
AcDbVertex
100
AcDb2dVertex
 10
257.99999985035902
 20
-89.0
 30
0.0
  0
VERTEX
  5
391
100
AcDbEntity
  8
HIDDEN
  6
STYLE_16
100
AcDbVertex
100
AcDb2dVertex
 10
511.99999985035902
 20
-89.0
 30
0.0
  0
VERTEX
  5
392
100
AcDbEntity
  8
HIDDEN
  6
STYLE_16
100
AcDbVertex
100
AcDb2dVertex
 10
511.99999985035902
 20
-89.0
 30
0.0
  0
SEQEND
  5
393
100
AcDbEntity
  8
HIDDEN
  6
STYLE_16
  0
POLYLINE
  5
394
100
AcDbEntity
  8
HIDDEN
  6
STYLE_16
100
AcDb2dPolyline
 66
               1
 10
0.0
 20
0.0
 30
0.0
 70
               1
 75
               5
  0
VERTEX
  5
395
100
AcDbEntity
  8
HIDDEN
  6
STYLE_16
100
AcDbVertex
100
AcDb2dVertex
 10
-1277.5
 20
704.5
 30
0.0
  0
VERTEX
  5
396
100
AcDbEntity
  8
HIDDEN
  6
STYLE_16
100
AcDbVertex
100
AcDb2dVertex
 10
-1182.5
 20
704.5
 30
0.0
  0
VERTEX
  5
397
100
AcDbEntity
  8
HIDDEN
  6
STYLE_16
100
AcDbVertex
100
AcDb2dVertex
 10
-1182.5
 20
559.5
 30
0.0
  0
VERTEX
  5
398
100
AcDbEntity
  8
HIDDEN
  6
STYLE_16
100
AcDbVertex
100
AcDb2dVertex
 10
-1277.5
 20
559.5
 30
0.0
  0
SEQEND
  5
399
100
AcDbEntity
  8
HIDDEN
  6
STYLE_16
  0
INSERT
  5
39A
100
AcDbEntity
  8
OBJECT
100
AcDbBlockReference
  2
*U20
 10
0.0
 20
19.999999999999996
 30
0.0
  0
INSERT
  5
39B
100
AcDbEntity
  8
OBJECT
100
AcDbBlockReference
  2
*U21
 10
0.0
 20
19.999999999999996
 30
0.0
  0
POLYLINE
  5
39C
100
AcDbEntity
  8
HIDDEN
  6
STYLE_16
100
AcDb2dPolyline
 66
               1
 10
0.0
 20
0.0
 30
0.0
 70
               1
 75
               5
  0
VERTEX
  5
39D
100
AcDbEntity
  8
HIDDEN
  6
STYLE_16
100
AcDbVertex
100
AcDb2dVertex
 10
-1017.5
 20
704.5
 30
0.0
  0
VERTEX
  5
39E
100
AcDbEntity
  8
HIDDEN
  6
STYLE_16
100
AcDbVertex
100
AcDb2dVertex
 10
-922.5
 20
704.5
 30
0.0
  0
VERTEX
  5
39F
100
AcDbEntity
  8
HIDDEN
  6
STYLE_16
100
AcDbVertex
100
AcDb2dVertex
 10
-922.5
 20
559.5
 30
0.0
  0
VERTEX
  5
3A0
100
AcDbEntity
  8
HIDDEN
  6
STYLE_16
100
AcDbVertex
100
AcDb2dVertex
 10
-1017.5
 20
559.5
 30
0.0
  0
SEQEND
  5
3A1
100
AcDbEntity
  8
HIDDEN
  6
STYLE_16
  0
POLYLINE
  5
3A2
100
AcDbEntity
  8
OBJECT
  6
CONTINUOUS
100
AcDb2dPolyline
 66
               1
 10
0.0
 20
0.0
 30
0.0
 70
               1
 75
               5
  0
VERTEX
  5
3A3
100
AcDbEntity
  8
OBJECT
  6
CONTINUOUS
100
AcDbVertex
100
AcDb2dVertex
 10
-1100.0
 20
-64.0
 30
0.0
  0
VERTEX
  5
3A4
100
AcDbEntity
  8
OBJECT
  6
CONTINUOUS
100
AcDbVertex
100
AcDb2dVertex
 10
-835.0
 20
-64.0
 30
0.0
  0
VERTEX
  5
3A5
100
AcDbEntity
  8
OBJECT
  6
CONTINUOUS
100
AcDbVertex
100
AcDb2dVertex
 10
-835.0
 20
-69.0
 30
0.0
  0
VERTEX
  5
3A6
100
AcDbEntity
  8
OBJECT
  6
CONTINUOUS
100
AcDbVertex
100
AcDb2dVertex
 10
-1100.0
 20
-69.0
 30
0.0
  0
SEQEND
  5
3A7
100
AcDbEntity
  8
OBJECT
  6
CONTINUOUS
  0
INSERT
  5
3A8
100
AcDbEntity
  8
OBJECT
100
AcDbBlockReference
  2
*U22
 10
0.0
 20
19.999999999999996
 30
0.0
  0
POLYLINE
  5
3A9
100
AcDbEntity
  8
OBJECT
  6
CONTINUOUS
100
AcDb2dPolyline
 66
               1
 10
0.0
 20
0.0
 30
0.0
 70
               1
 75
               5
  0
VERTEX
  5
3AA
100
AcDbEntity
  8
OBJECT
  6
CONTINUOUS
100
AcDbVertex
100
AcDb2dVertex
 10
-1120.0
 20
-62.0
 30
0.0
  0
VERTEX
  5
3AB
100
AcDbEntity
  8
OBJECT
  6
CONTINUOUS
100
AcDbVertex
100
AcDb2dVertex
 10
-1080.0
 20
-62.0
 30
0.0
  0
VERTEX
  5
3AC
100
AcDbEntity
  8
OBJECT
  6
CONTINUOUS
100
AcDbVertex
100
AcDb2dVertex
 10
-1080.0
 20
-64.0
 30
0.0
  0
VERTEX
  5
3AD
100
AcDbEntity
  8
OBJECT
  6
CONTINUOUS
100
AcDbVertex
100
AcDb2dVertex
 10
-1120.0
 20
-64.0
 30
0.0
  0
SEQEND
  5
3AE
100
AcDbEntity
  8
OBJECT
  6
CONTINUOUS
  0
LWPOLYLINE
  5
3AF
100
AcDbEntity
  8
OBJECT
  6
CONTINUOUS
100
AcDbPolyline
 90
        5
 70
             129
 10
-1102.0
 20
-60.0
 42
-0.414213562373095
 10
-1100.0
 20
-58.0
 42
-0.414213562373095
 10
-1098.0
 20
-60.0
 42
-0.414213562373095
 10
-1100.0
 20
-62.0
 42
-0.414213562373095
 10
-1102.0
 20
-60.0
 42
-0.414213562373095
  0
LWPOLYLINE
  5
3B0
100
AcDbEntity
  8
OBJECT
  6
CONTINUOUS
100
AcDbPolyline
 90
        6
 70
             129
 10
465.0
 20
510.0
 42
-0.414213562373095
 10
455.0
 20
500.0
 10
200.0
 20
500.0
 10
200.0
 20
770.0
 10
455.0
 20
770.0
 42
-0.414213562373095
 10
465.0
 20
760.0
  0
LWPOLYLINE
  5
3B1
100
AcDbEntity
  8
OBJECT
  6
CONTINUOUS
100
AcDbPolyline
 90
        5
 70
             129
 10
447.0
 20
513.0
 42
-0.414213562373095
 10
452.0
 20
518.0
 42
-0.414213562373095
 10
457.0
 20
513.0
 42
-0.414213562373095
 10
452.0
 20
508.0
 42
-0.414213562373095
 10
447.0
 20
513.0
 42
-0.414213562373095
  0
LWPOLYLINE
  5
3B2
100
AcDbEntity
  8
OBJECT
  6
CONTINUOUS
100
AcDbPolyline
 90
        5
 70
             129
 10
447.0
 20
757.0
 42
-0.414213562373095
 10
452.0
 20
762.0
 42
-0.414213562373095
 10
457.0
 20
757.0
 42
-0.414213562373095
 10
452.0
 20
752.0
 42
-0.414213562373095
 10
447.0
 20
757.0
 42
-0.414213562373095
  0
POLYLINE
  5
3B3
100
AcDbEntity
  8
OBJECT
  6
CONTINUOUS
100
AcDb2dPolyline
 66
               1
 10
0.0
 20
0.0
 30
0.0
 70
               1
 75
               5
  0
VERTEX
  5
3B4
100
AcDbEntity
  8
OBJECT
  6
CONTINUOUS
100
AcDbVertex
100
AcDb2dVertex
 10
432.0
 20
670.0
 30
0.0
  0
VERTEX
  5
3B5
100
AcDbEntity
  8
OBJECT
  6
CONTINUOUS
100
AcDbVertex
100
AcDb2dVertex
 10
432.0
 20
660.0
 30
0.0
  0
VERTEX
  5
3B6
100
AcDbEntity
  8
OBJECT
  6
CONTINUOUS
100
AcDbVertex
100
AcDb2dVertex
 10
453.0
 20
660.0
 30
0.0
  0
VERTEX
  5
3B7
100
AcDbEntity
  8
OBJECT
  6
CONTINUOUS
100
AcDbVertex
100
AcDb2dVertex
 10
453.0
 20
610.0
 30
0.0
  0
VERTEX
  5
3B8
100
AcDbEntity
  8
OBJECT
  6
CONTINUOUS
100
AcDbVertex
100
AcDb2dVertex
 10
432.0
 20
610.0
 30
0.0
  0
VERTEX
  5
3B9
100
AcDbEntity
  8
OBJECT
  6
CONTINUOUS
100
AcDbVertex
100
AcDb2dVertex
 10
432.0
 20
600.0
 30
0.0
  0
VERTEX
  5
3BA
100
AcDbEntity
  8
OBJECT
  6
CONTINUOUS
100
AcDbVertex
100
AcDb2dVertex
 10
462.0
 20
600.0
 30
0.0
  0
VERTEX
  5
3BB
100
AcDbEntity
  8
OBJECT
  6
CONTINUOUS
100
AcDbVertex
100
AcDb2dVertex
 10
462.0
 20
670.0
 30
0.0
  0
SEQEND
  5
3BC
100
AcDbEntity
  8
OBJECT
  6
CONTINUOUS
  0
LINE
  5
3BD
100
AcDbEntity
  8
CENTER
  6
STYLE_03
100
AcDbLine
 10
500.0
 20
635.0
 30
0.0
 11
-100.0
 21
635.0
 31
0.0
  0
LWPOLYLINE
  5
3BE
100
AcDbEntity
  8
OBJECT
  6
CONTINUOUS
100
AcDbPolyline
 90
        6
 70
             129
 10
-65.0
 20
510.0
 42
0.414213562373095
 10
-55.0
 20
500.0
 10
200.0
 20
500.0
 10
200.0
 20
770.0
 10
-55.0
 20
770.0
 42
0.414213562373095
 10
-65.0
 20
760.0
  0
LWPOLYLINE
  5
3BF
100
AcDbEntity
  8
OBJECT
  6
CONTINUOUS
100
AcDbPolyline
 90
        5
 70
             129
 10
-57.0
 20
513.0
 42
-0.414213562373095
 10
-52.0
 20
518.0
 42
-0.414213562373095
 10
-47.0
 20
513.0
 42
-0.414213562373095
 10
-52.0
 20
508.0
 42
-0.414213562373095
 10
-57.0
 20
513.0
 42
-0.414213562373095
  0
LWPOLYLINE
  5
3C0
100
AcDbEntity
  8
OBJECT
  6
CONTINUOUS
100
AcDbPolyline
 90
        5
 70
             129
 10
-57.0
 20
757.0
 42
-0.414213562373095
 10
-52.0
 20
762.0
 42
-0.414213562373095
 10
-47.0
 20
757.0
 42
-0.414213562373095
 10
-52.0
 20
752.0
 42
-0.414213562373095
 10
-57.0
 20
757.0
 42
-0.414213562373095
  0
POLYLINE
  5
3C1
100
AcDbEntity
  8
OBJECT
  6
CONTINUOUS
100
AcDb2dPolyline
 66
               1
 10
0.0
 20
0.0
 30
0.0
 70
               1
 75
               5
  0
VERTEX
  5
3C2
100
AcDbEntity
  8
OBJECT
  6
CONTINUOUS
100
AcDbVertex
100
AcDb2dVertex
 10
-32.0
 20
670.0
 30
0.0
  0
VERTEX
  5
3C3
100
AcDbEntity
  8
OBJECT
  6
CONTINUOUS
100
AcDbVertex
100
AcDb2dVertex
 10
-32.0
 20
660.0
 30
0.0
  0
VERTEX
  5
3C4
100
AcDbEntity
  8
OBJECT
  6
CONTINUOUS
100
AcDbVertex
100
AcDb2dVertex
 10
-53.0
 20
660.0
 30
0.0
  0
VERTEX
  5
3C5
100
AcDbEntity
  8
OBJECT
  6
CONTINUOUS
100
AcDbVertex
100
AcDb2dVertex
 10
-53.0
 20
610.0
 30
0.0
  0
VERTEX
  5
3C6
100
AcDbEntity
  8
OBJECT
  6
CONTINUOUS
100
AcDbVertex
100
AcDb2dVertex
 10
-32.0
 20
610.0
 30
0.0
  0
VERTEX
  5
3C7
100
AcDbEntity
  8
OBJECT
  6
CONTINUOUS
100
AcDbVertex
100
AcDb2dVertex
 10
-32.0
 20
600.0
 30
0.0
  0
VERTEX
  5
3C8
100
AcDbEntity
  8
OBJECT
  6
CONTINUOUS
100
AcDbVertex
100
AcDb2dVertex
 10
-62.0
 20
600.0
 30
0.0
  0
VERTEX
  5
3C9
100
AcDbEntity
  8
OBJECT
  6
CONTINUOUS
100
AcDbVertex
100
AcDb2dVertex
 10
-62.0
 20
670.0
 30
0.0
  0
SEQEND
  5
3CA
100
AcDbEntity
  8
OBJECT
  6
CONTINUOUS
  0
LINE
  5
3CB
100
AcDbEntity
  8
CENTER
  6
STYLE_03
100
AcDbLine
 10
200.0
 20
440.0
 30
0.0
 11
200.0
 21
370.0
 31
0.0
  0
POLYLINE
  5
3CC
100
AcDbEntity
  8
OBJECT
  6
CONTINUOUS
100
AcDb2dPolyline
 66
               1
 10
0.0
 20
0.0
 30
0.0
 70
               1
 75
               5
  0
VERTEX
  5
3CD
100
AcDbEntity
  8
OBJECT
  6
CONTINUOUS
100
AcDbVertex
100
AcDb2dVertex
 10
-65.0
 20
405.0
 30
0.0
  0
VERTEX
  5
3CE
100
AcDbEntity
  8
OBJECT
  6
CONTINUOUS
100
AcDbVertex
100
AcDb2dVertex
 10
200.0
 20
405.0
 30
0.0
  0
VERTEX
  5
3CF
100
AcDbEntity
  8
OBJECT
  6
CONTINUOUS
100
AcDbVertex
100
AcDb2dVertex
 10
200.0
 20
400.0
 30
0.0
  0
VERTEX
  5
3D0
100
AcDbEntity
  8
OBJECT
  6
CONTINUOUS
100
AcDbVertex
100
AcDb2dVertex
 10
-65.0
 20
400.0
 30
0.0
  0
SEQEND
  5
3D1
100
AcDbEntity
  8
OBJECT
  6
CONTINUOUS
  0
INSERT
  5
3D2
100
AcDbEntity
  8
OBJECT
100
AcDbBlockReference
  2
*U23
 10
0.0
 20
19.999999999999996
 30
0.0
  0
POLYLINE
  5
3D3
100
AcDbEntity
  8
OBJECT
  6
CONTINUOUS
100
AcDb2dPolyline
 66
               1
 10
0.0
 20
0.0
 30
0.0
 70
               1
 75
               5
  0
VERTEX
  5
3D4
100
AcDbEntity
  8
OBJECT
  6
CONTINUOUS
100
AcDbVertex
100
AcDb2dVertex
 10
200.0
 20
405.0
 30
0.0
  0
VERTEX
  5
3D5
100
AcDbEntity
  8
OBJECT
  6
CONTINUOUS
100
AcDbVertex
100
AcDb2dVertex
 10
465.0
 20
405.0
 30
0.0
  0
VERTEX
  5
3D6
100
AcDbEntity
  8
OBJECT
  6
CONTINUOUS
100
AcDbVertex
100
AcDb2dVertex
 10
465.0
 20
400.0
 30
0.0
  0
VERTEX
  5
3D7
100
AcDbEntity
  8
OBJECT
  6
CONTINUOUS
100
AcDbVertex
100
AcDb2dVertex
 10
200.0
 20
400.0
 30
0.0
  0
SEQEND
  5
3D8
100
AcDbEntity
  8
OBJECT
  6
CONTINUOUS
  0
INSERT
  5
3D9
100
AcDbEntity
  8
OBJECT
100
AcDbBlockReference
  2
*U24
 10
0.0
 20
19.999999999999996
 30
0.0
  0
POLYLINE
  5
3DA
100
AcDbEntity
  8
OBJECT
  6
CONTINUOUS
100
AcDb2dPolyline
 66
               1
 10
0.0
 20
0.0
 30
0.0
 70
               1
 75
               5
  0
VERTEX
  5
3DB
100
AcDbEntity
  8
OBJECT
  6
CONTINUOUS
100
AcDbVertex
100
AcDb2dVertex
 10
180.0
 20
407.0
 30
0.0
  0
VERTEX
  5
3DC
100
AcDbEntity
  8
OBJECT
  6
CONTINUOUS
100
AcDbVertex
100
AcDb2dVertex
 10
220.0
 20
407.0
 30
0.0
  0
VERTEX
  5
3DD
100
AcDbEntity
  8
OBJECT
  6
CONTINUOUS
100
AcDbVertex
100
AcDb2dVertex
 10
220.0
 20
405.0
 30
0.0
  0
VERTEX
  5
3DE
100
AcDbEntity
  8
OBJECT
  6
CONTINUOUS
100
AcDbVertex
100
AcDb2dVertex
 10
180.0
 20
405.0
 30
0.0
  0
SEQEND
  5
3DF
100
AcDbEntity
  8
OBJECT
  6
CONTINUOUS
  0
LWPOLYLINE
  5
3E0
100
AcDbEntity
  8
OBJECT
  6
CONTINUOUS
100
AcDbPolyline
 90
        5
 70
             129
 10
198.0
 20
409.0
 42
-0.414213562373095
 10
200.0
 20
411.0
 42
-0.414213562373095
 10
202.0
 20
409.0
 42
-0.414213562373095
 10
200.0
 20
407.0
 42
-0.414213562373095
 10
198.0
 20
409.0
 42
-0.414213562373095
  0
POLYLINE
  5
3E1
100
AcDbEntity
  8
OBJECT
  6
CONTINUOUS
100
AcDb2dPolyline
 66
               1
 10
0.0
 20
0.0
 30
0.0
 70
               1
 75
               5
  0
VERTEX
  5
3E2
100
AcDbEntity
  8
OBJECT
  6
CONTINUOUS
100
AcDbVertex
100
AcDb2dVertex
 10
457.0
 20
400.0
 30
0.0
  0
VERTEX
  5
3E3
100
AcDbEntity
  8
OBJECT
  6
CONTINUOUS
100
AcDbVertex
100
AcDb2dVertex
 10
447.0
 20
400.0
 30
0.0
  0
VERTEX
  5
3E4
100
AcDbEntity
  8
OBJECT
  6
CONTINUOUS
100
AcDbVertex
100
AcDb2dVertex
 10
447.0
 20
392.0
 30
0.0
  0
VERTEX
  5
3E5
100
AcDbEntity
  8
OBJECT
  6
CONTINUOUS
100
AcDbVertex
100
AcDb2dVertex
 10
449.0
 20
390.0
 30
0.0
  0
VERTEX
  5
3E6
100
AcDbEntity
  8
OBJECT
  6
CONTINUOUS
100
AcDbVertex
100
AcDb2dVertex
 10
455.0
 20
390.0
 30
0.0
  0
VERTEX
  5
3E7
100
AcDbEntity
  8
OBJECT
  6
CONTINUOUS
100
AcDbVertex
100
AcDb2dVertex
 10
457.0
 20
392.0
 30
0.0
  0
SEQEND
  5
3E8
100
AcDbEntity
  8
OBJECT
  6
CONTINUOUS
  0
POLYLINE
  5
3E9
100
AcDbEntity
  8
OBJECT
  6
CONTINUOUS
100
AcDb2dPolyline
 66
               1
 10
0.0
 20
0.0
 30
0.0
 70
               1
 75
               5
  0
VERTEX
  5
3EA
100
AcDbEntity
  8
OBJECT
  6
CONTINUOUS
100
AcDbVertex
100
AcDb2dVertex
 10
-47.0
 20
400.0
 30
0.0
  0
VERTEX
  5
3EB
100
AcDbEntity
  8
OBJECT
  6
CONTINUOUS
100
AcDbVertex
100
AcDb2dVertex
 10
-57.0
 20
400.0
 30
0.0
  0
VERTEX
  5
3EC
100
AcDbEntity
  8
OBJECT
  6
CONTINUOUS
100
AcDbVertex
100
AcDb2dVertex
 10
-57.0
 20
392.0
 30
0.0
  0
VERTEX
  5
3ED
100
AcDbEntity
  8
OBJECT
  6
CONTINUOUS
100
AcDbVertex
100
AcDb2dVertex
 10
-55.0
 20
390.0
 30
0.0
  0
VERTEX
  5
3EE
100
AcDbEntity
  8
OBJECT
  6
CONTINUOUS
100
AcDbVertex
100
AcDb2dVertex
 10
-49.0
 20
390.0
 30
0.0
  0
VERTEX
  5
3EF
100
AcDbEntity
  8
OBJECT
  6
CONTINUOUS
100
AcDbVertex
100
AcDb2dVertex
 10
-47.0
 20
392.0
 30
0.0
  0
SEQEND
  5
3F0
100
AcDbEntity
  8
OBJECT
  6
CONTINUOUS
  0
POLYLINE
  5
3F1
100
AcDbEntity
  8
OBJECT
  6
CONTINUOUS
100
AcDb2dPolyline
 66
               1
 10
0.0
 20
0.0
 30
0.0
 70
               1
 75
               5
  0
VERTEX
  5
3F2
100
AcDbEntity
  8
OBJECT
  6
CONTINUOUS
100
AcDbVertex
100
AcDb2dVertex
 10
196.5
 20
400.0
 30
0.0
  0
VERTEX
  5
3F3
100
AcDbEntity
  8
OBJECT
  6
CONTINUOUS
100
AcDbVertex
100
AcDb2dVertex
 10
186.5
 20
400.0
 30
0.0
  0
VERTEX
  5
3F4
100
AcDbEntity
  8
OBJECT
  6
CONTINUOUS
100
AcDbVertex
100
AcDb2dVertex
 10
186.5
 20
392.0
 30
0.0
  0
VERTEX
  5
3F5
100
AcDbEntity
  8
OBJECT
  6
CONTINUOUS
100
AcDbVertex
100
AcDb2dVertex
 10
188.5
 20
390.0
 30
0.0
  0
VERTEX
  5
3F6
100
AcDbEntity
  8
OBJECT
  6
CONTINUOUS
100
AcDbVertex
100
AcDb2dVertex
 10
194.5
 20
390.0
 30
0.0
  0
VERTEX
  5
3F7
100
AcDbEntity
  8
OBJECT
  6
CONTINUOUS
100
AcDbVertex
100
AcDb2dVertex
 10
196.5
 20
392.0
 30
0.0
  0
SEQEND
  5
3F8
100
AcDbEntity
  8
OBJECT
  6
CONTINUOUS
  0
POLYLINE
  5
3F9
100
AcDbEntity
  8
OBJECT
  6
CONTINUOUS
100
AcDb2dPolyline
 66
               1
 10
0.0
 20
0.0
 30
0.0
 70
               1
 75
               5
  0
VERTEX
  5
3FA
100
AcDbEntity
  8
OBJECT
  6
CONTINUOUS
100
AcDbVertex
100
AcDb2dVertex
 10
213.5
 20
400.0
 30
0.0
  0
VERTEX
  5
3FB
100
AcDbEntity
  8
OBJECT
  6
CONTINUOUS
100
AcDbVertex
100
AcDb2dVertex
 10
203.5
 20
400.0
 30
0.0
  0
VERTEX
  5
3FC
100
AcDbEntity
  8
OBJECT
  6
CONTINUOUS
100
AcDbVertex
100
AcDb2dVertex
 10
203.5
 20
392.0
 30
0.0
  0
VERTEX
  5
3FD
100
AcDbEntity
  8
OBJECT
  6
CONTINUOUS
100
AcDbVertex
100
AcDb2dVertex
 10
205.5
 20
390.0
 30
0.0
  0
VERTEX
  5
3FE
100
AcDbEntity
  8
OBJECT
  6
CONTINUOUS
100
AcDbVertex
100
AcDb2dVertex
 10
211.5
 20
390.0
 30
0.0
  0
VERTEX
  5
3FF
100
AcDbEntity
  8
OBJECT
  6
CONTINUOUS
100
AcDbVertex
100
AcDb2dVertex
 10
213.5
 20
392.0
 30
0.0
  0
SEQEND
  5
400
100
AcDbEntity
  8
OBJECT
  6
CONTINUOUS
  0
POLYLINE
  5
401
100
AcDbEntity
  8
OBJECT
  6
CONTINUOUS
100
AcDb2dPolyline
 66
               1
 10
0.0
 20
0.0
 30
0.0
 70
               1
 75
               5
  0
VERTEX
  5
402
100
AcDbEntity
  8
OBJECT
  6
CONTINUOUS
100
AcDbVertex
100
AcDb2dVertex
 10
187.0
 20
545.5
 30
0.0
  0
VERTEX
  5
403
100
AcDbEntity
  8
OBJECT
  6
CONTINUOUS
100
AcDbVertex
100
AcDb2dVertex
 10
213.0
 20
545.5
 30
0.0
  0
VERTEX
  5
404
100
AcDbEntity
  8
OBJECT
  6
CONTINUOUS
100
AcDbVertex
100
AcDb2dVertex
 10
213.0
 20
507.5
 30
0.0
  0
VERTEX
  5
405
100
AcDbEntity
  8
OBJECT
  6
CONTINUOUS
100
AcDbVertex
100
AcDb2dVertex
 10
187.0
 20
507.5
 30
0.0
  0
SEQEND
  5
406
100
AcDbEntity
  8
OBJECT
  6
CONTINUOUS
  0
POLYLINE
  5
407
100
AcDbEntity
  8
OBJECT
  6
CONTINUOUS
100
AcDb2dPolyline
 66
               1
 10
0.0
 20
0.0
 30
0.0
 70
               1
 75
               5
  0
VERTEX
  5
408
100
AcDbEntity
  8
OBJECT
  6
CONTINUOUS
100
AcDbVertex
100
AcDb2dVertex
 10
198.0
 20
545.5
 30
0.0
  0
VERTEX
  5
409
100
AcDbEntity
  8
OBJECT
  6
CONTINUOUS
100
AcDbVertex
100
AcDb2dVertex
 10
202.0
 20
545.5
 30
0.0
  0
VERTEX
  5
40A
100
AcDbEntity
  8
OBJECT
  6
CONTINUOUS
100
AcDbVertex
100
AcDb2dVertex
 10
202.0
 20
507.5
 30
0.0
  0
VERTEX
  5
40B
100
AcDbEntity
  8
OBJECT
  6
CONTINUOUS
100
AcDbVertex
100
AcDb2dVertex
 10
198.0
 20
507.5
 30
0.0
  0
SEQEND
  5
40C
100
AcDbEntity
  8
OBJECT
  6
CONTINUOUS
  0
LINE
  5
40D
100
AcDbEntity
  8
OBJECT
  6
CONTINUOUS
100
AcDbLine
 10
198.0
 20
517.5
 30
0.0
 11
202.0
 21
517.5
 31
0.0
  0
LINE
  5
40E
100
AcDbEntity
  8
OBJECT
  6
CONTINUOUS
100
AcDbLine
 10
198.0
 20
535.5
 30
0.0
 11
202.0
 21
535.5
 31
0.0
  0
LWPOLYLINE
  5
40F
100
AcDbEntity
  8
OBJECT
  6
CONTINUOUS
100
AcDbPolyline
 90
        5
 70
             129
 10
188.5
 20
540.0
 42
-0.414213562373095
 10
191.5
 20
543.0
 42
-0.414213562373095
 10
194.5
 20
540.0
 42
-0.414213562373095
 10
191.5
 20
537.0
 42
-0.414213562373095
 10
188.5
 20
540.0
 42
-0.414213562373095
  0
LWPOLYLINE
  5
410
100
AcDbEntity
  8
OBJECT
  6
CONTINUOUS
100
AcDbPolyline
 90
        5
 70
             129
 10
188.5
 20
513.0
 42
-0.414213562373095
 10
191.5
 20
516.0
 42
-0.414213562373095
 10
194.5
 20
513.0
 42
-0.414213562373095
 10
191.5
 20
510.0
 42
-0.414213562373095
 10
188.5
 20
513.0
 42
-0.414213562373095
  0
LWPOLYLINE
  5
411
100
AcDbEntity
  8
OBJECT
  6
CONTINUOUS
100
AcDbPolyline
 90
        5
 70
             129
 10
205.5
 20
540.0
 42
-0.414213562373095
 10
208.5
 20
543.0
 42
-0.414213562373095
 10
211.5
 20
540.0
 42
-0.414213562373095
 10
208.5
 20
537.0
 42
-0.414213562373095
 10
205.5
 20
540.0
 42
-0.414213562373095
  0
LWPOLYLINE
  5
412
100
AcDbEntity
  8
OBJECT
  6
CONTINUOUS
100
AcDbPolyline
 90
        5
 70
             129
 10
205.5
 20
513.0
 42
-0.414213562373095
 10
208.5
 20
516.0
 42
-0.414213562373095
 10
211.5
 20
513.0
 42
-0.414213562373095
 10
208.5
 20
510.0
 42
-0.414213562373095
 10
205.5
 20
513.0
 42
-0.414213562373095
  0
POLYLINE
  5
413
100
AcDbEntity
  8
OBJECT
  6
CONTINUOUS
100
AcDb2dPolyline
 66
               1
 10
0.0
 20
0.0
 30
0.0
 70
               1
 75
               5
  0
VERTEX
  5
414
100
AcDbEntity
  8
OBJECT
  6
CONTINUOUS
100
AcDbVertex
100
AcDb2dVertex
 10
187.0
 20
762.5
 30
0.0
  0
VERTEX
  5
415
100
AcDbEntity
  8
OBJECT
  6
CONTINUOUS
100
AcDbVertex
100
AcDb2dVertex
 10
213.0
 20
762.5
 30
0.0
  0
VERTEX
  5
416
100
AcDbEntity
  8
OBJECT
  6
CONTINUOUS
100
AcDbVertex
100
AcDb2dVertex
 10
213.0
 20
724.5
 30
0.0
  0
VERTEX
  5
417
100
AcDbEntity
  8
OBJECT
  6
CONTINUOUS
100
AcDbVertex
100
AcDb2dVertex
 10
187.0
 20
724.5
 30
0.0
  0
SEQEND
  5
418
100
AcDbEntity
  8
OBJECT
  6
CONTINUOUS
  0
POLYLINE
  5
419
100
AcDbEntity
  8
OBJECT
  6
CONTINUOUS
100
AcDb2dPolyline
 66
               1
 10
0.0
 20
0.0
 30
0.0
 70
               1
 75
               5
  0
VERTEX
  5
41A
100
AcDbEntity
  8
OBJECT
  6
CONTINUOUS
100
AcDbVertex
100
AcDb2dVertex
 10
198.0
 20
762.5
 30
0.0
  0
VERTEX
  5
41B
100
AcDbEntity
  8
OBJECT
  6
CONTINUOUS
100
AcDbVertex
100
AcDb2dVertex
 10
202.0
 20
762.5
 30
0.0
  0
VERTEX
  5
41C
100
AcDbEntity
  8
OBJECT
  6
CONTINUOUS
100
AcDbVertex
100
AcDb2dVertex
 10
202.0
 20
724.5
 30
0.0
  0
VERTEX
  5
41D
100
AcDbEntity
  8
OBJECT
  6
CONTINUOUS
100
AcDbVertex
100
AcDb2dVertex
 10
198.0
 20
724.5
 30
0.0
  0
SEQEND
  5
41E
100
AcDbEntity
  8
OBJECT
  6
CONTINUOUS
  0
LINE
  5
41F
100
AcDbEntity
  8
OBJECT
  6
CONTINUOUS
100
AcDbLine
 10
198.0
 20
734.5
 30
0.0
 11
202.0
 21
734.5
 31
0.0
  0
LINE
  5
420
100
AcDbEntity
  8
OBJECT
  6
CONTINUOUS
100
AcDbLine
 10
198.0
 20
752.5
 30
0.0
 11
202.0
 21
752.5
 31
0.0
  0
LWPOLYLINE
  5
421
100
AcDbEntity
  8
OBJECT
  6
CONTINUOUS
100
AcDbPolyline
 90
        5
 70
             129
 10
188.5
 20
757.0
 42
-0.414213562373095
 10
191.5
 20
760.0
 42
-0.414213562373095
 10
194.5
 20
757.0
 42
-0.414213562373095
 10
191.5
 20
754.0
 42
-0.414213562373095
 10
188.5
 20
757.0
 42
-0.414213562373095
  0
LWPOLYLINE
  5
422
100
AcDbEntity
  8
OBJECT
  6
CONTINUOUS
100
AcDbPolyline
 90
        5
 70
             129
 10
188.5
 20
730.0
 42
-0.414213562373095
 10
191.5
 20
733.0
 42
-0.414213562373095
 10
194.5
 20
730.0
 42
-0.414213562373095
 10
191.5
 20
727.0
 42
-0.414213562373095
 10
188.5
 20
730.0
 42
-0.414213562373095
  0
LWPOLYLINE
  5
423
100
AcDbEntity
  8
OBJECT
  6
CONTINUOUS
100
AcDbPolyline
 90
        5
 70
             129
 10
205.5
 20
757.0
 42
-0.414213562373095
 10
208.5
 20
760.0
 42
-0.414213562373095
 10
211.5
 20
757.0
 42
-0.414213562373095
 10
208.5
 20
754.0
 42
-0.414213562373095
 10
205.5
 20
757.0
 42
-0.414213562373095
  0
LWPOLYLINE
  5
424
100
AcDbEntity
  8
OBJECT
  6
CONTINUOUS
100
AcDbPolyline
 90
        5
 70
             129
 10
205.5
 20
730.0
 42
-0.414213562373095
 10
208.5
 20
733.0
 42
-0.414213562373095
 10
211.5
 20
730.0
 42
-0.414213562373095
 10
208.5
 20
727.0
 42
-0.414213562373095
 10
205.5
 20
730.0
 42
-0.414213562373095
  0
INSERT
  5
425
100
AcDbEntity
  8
HIDDEN
100
AcDbBlockReference
  2
*U25
 10
0.0
 20
19.999999999999996
 30
0.0
  0
LWPOLYLINE
  5
426
100
AcDbEntity
  8
HIDDEN
  6
STYLE_16
100
AcDbPolyline
 90
        5
 70
             129
 10
482.99999985035902
 20
-599.0
 42
-0.414213562373095
 10
493.99999985035902
 20
-588.0
 42
-0.414213562373095
 10
504.99999985035902
 20
-599.0
 42
-0.414213562373095
 10
493.99999985035902
 20
-610.0
 42
-0.414213562373095
 10
482.99999985035902
 20
-599.0
 42
-0.414213562373095
  0
LWPOLYLINE
  5
427
100
AcDbEntity
  8
HIDDEN
  6
STYLE_16
100
AcDbPolyline
 90
        5
 70
             129
 10
459.49999985035902
 20
-758.0
 42
-0.414213562373095
 10
470.49999985035902
 20
-747.0
 42
-0.414213562373095
 10
481.49999985035902
 20
-758.0
 42
-0.414213562373095
 10
470.49999985035902
 20
-769.0
 42
-0.414213562373095
 10
459.49999985035902
 20
-758.0
 42
-0.414213562373095
  0
POLYLINE
  5
428
100
AcDbEntity
  8
HIDDEN
  6
STYLE_16
100
AcDb2dPolyline
 66
               1
 10
0.0
 20
0.0
 30
0.0
 70
               1
 75
               5
  0
VERTEX
  5
429
100
AcDbEntity
  8
HIDDEN
  6
STYLE_16
100
AcDbVertex
100
AcDb2dVertex
 10
511.99999985035902
 20
-768.0634
 30
0.0
  0
VERTEX
  5
42A
100
AcDbEntity
  8
HIDDEN
  6
STYLE_16
100
AcDbVertex
100
AcDb2dVertex
 10
511.99999985035902
 20
-769.0
 30
0.0
  0
VERTEX
  5
42B
100
AcDbEntity
  8
HIDDEN
  6
STYLE_16
100
AcDbVertex
100
AcDb2dVertex
 10
332.99999985035902
 20
-769.0
 30
0.0
  0
VERTEX
  5
42C
100
AcDbEntity
  8
HIDDEN
  6
STYLE_16
100
AcDbVertex
100
AcDb2dVertex
 10
332.99999985035902
 20
-699.0
 30
0.0
  0
VERTEX
  5
42D
100
AcDbEntity
  8
HIDDEN
  6
STYLE_16
100
AcDbVertex
100
AcDb2dVertex
 10
257.99999985035902
 20
-699.0
 30
0.0
  0
VERTEX
  5
42E
100
AcDbEntity
  8
HIDDEN
  6
STYLE_16
100
AcDbVertex
100
AcDb2dVertex
 10
257.99999985035902
 20
-589.0
 30
0.0
  0
VERTEX
  5
42F
100
AcDbEntity
  8
HIDDEN
  6
STYLE_16
100
AcDbVertex
100
AcDb2dVertex
 10
511.99999985035902
 20
-589.0
 30
0.0
  0
VERTEX
  5
430
100
AcDbEntity
  8
HIDDEN
  6
STYLE_16
100
AcDbVertex
100
AcDb2dVertex
 10
511.99999985035902
 20
-589.0
 30
0.0
  0
SEQEND
  5
431
100
AcDbEntity
  8
HIDDEN
  6
STYLE_16
  0
DIMENSION
  5
432
100
AcDbEntity
  8
DIMENTION
  6
CONTINUOUS
100
AcDbDimension
  2
*D26
 10
100.0
 20
-89.0
 30
0.0
 11
99.0
 21
-29.999999999999776
 31
0.0
 70
             128
  3
CAD
100
AcDbAlignedDimension
 13
216.99999985035902
 23
-69.0
 33
0.0
 14
257.99999985035902
 24
-89.0
 34
0.0
 50
90.0
100
AcDbRotatedDimension
1001
ACAD
1000
DSTYLE
1002
{
1070
             271
1070
               0
1070
             340
1005
3E
1070
             174
1070
               0
1070
             147
1040
0.9999999999999999
1002
}
  0
MTEXT
  5
433
100
AcDbEntity
  8
DIMENTION
100
AcDbMText
 10
-700.0
 20
145.0
 30
0.0
 40
33.866666666666667
 41
0.0
 71
               1
 72
               1
  1
2つ折り半透明カバー
  7
________
  0
DIMENSION
  5
434
100
AcDbEntity
  8
DIMENTION
  6
CONTINUOUS
100
AcDbDimension
  2
*D27
 10
-65.0
 20
855.0
 30
0.0
 11
200.0
 21
855.0
 31
0.0
  3
CAD
100
AcDbAlignedDimension
 13
465.0
 23
770.0
 33
0.0
 14
-65.0
 24
770.0
 34
0.0
100
AcDbRotatedDimension
1001
ACAD
1000
DSTYLE
1002
{
1070
             271
1070
               0
1070
             340
1005
3E
1070
             147
1040
0.9999999999999999
1002
}
  0
DIMENSION
  5
435
100
AcDbEntity
  8
DIMENTION
  6
CONTINUOUS
100
AcDbDimension
  2
*D28
 10
-150.0
 20
770.0
 30
0.0
 11
-150.0
 21
635.0
 31
0.0
  3
CAD
100
AcDbAlignedDimension
 13
-65.0
 23
500.0
 33
0.0
 14
-65.0
 24
770.0
 34
0.0
 50
90.0
100
AcDbRotatedDimension
1001
ACAD
1000
DSTYLE
1002
{
1070
             271
1070
               0
1070
             340
1005
3E
1070
             147
1040
0.9999999999999999
1002
}
  0
DIMENSION
  5
436
100
AcDbEntity
  8
DIMENTION
  6
CONTINUOUS
100
AcDbDimension
  2
*D29
 10
-150.0
 20
405.0
 30
0.0
 11
-151.0
 21
360.0
 31
0.0
 70
             128
  1
3
  3
CAD
100
AcDbAlignedDimension
 13
-65.0
 23
400.0
 33
0.0
 14
-65.0
 24
405.0
 34
0.0
 50
90.0
100
AcDbRotatedDimension
1001
ACAD
1000
DSTYLE
1002
{
1070
             271
1070
               0
1070
             340
1005
3E
1070
             174
1070
               0
1070
             147
1040
0.9999999999999999
1002
}
  0
LINE
  5
437
100
AcDbEntity
  8
DIMENTION
100
AcDbLine
 10
-700.0
 20
100.0
 30
0.0
 11
-320.0
 21
100.0
 31
0.0
  0
INSERT
  5
438
100
AcDbEntity
  8
OBJECT
100
AcDbBlockReference
  2
*U30
 10
0.0
 20
19.999999999999996
 30
0.0
  0
LINE
  5
439
100
AcDbEntity
  8
DIMENTION
100
AcDbLine
 10
100.0
 20
-750.0
 30
0.0
 11
100.0
 21
-800.0
 31
0.0
  0
LINE
  5
43A
100
AcDbEntity
  8
DIMENTION
100
AcDbLine
 10
255.27862548666803
 20
-827.63931280142413
 30
0.0
 11
100.0
 21
-750.0
 31
0.0
  0
LINE
  5
43B
100
AcDbEntity
  8
DIMENTION
100
AcDbLine
 10
255.27862548666803
 20
-827.63931280142413
 30
0.0
 11
223.12689553177989
 21
-820.80525163047002
 31
0.0
  0
LINE
  5
43C
100
AcDbEntity
  8
DIMENTION
100
AcDbLine
 10
255.27862548666803
 20
-827.63931280142413
 30
0.0
 11
230.85144115559484
 21
-805.64497723891702
 31
0.0
  0
POLYLINE
  5
43D
100
AcDbEntity
  8
OBJECT
  6
CONTINUOUS
100
AcDb2dPolyline
 66
               1
 10
0.0
 20
0.0
 30
0.0
 70
               1
 75
               5
  0
VERTEX
  5
43E
100
AcDbEntity
  8
OBJECT
  6
CONTINUOUS
100
AcDbVertex
100
AcDb2dVertex
 10
700.0
 20
1200.0000000000002
 30
0.0
  0
VERTEX
  5
43F
100
AcDbEntity
  8
OBJECT
  6
CONTINUOUS
100
AcDbVertex
100
AcDb2dVertex
 10
1800.0
 20
1200.0000000000002
 30
0.0
  0
VERTEX
  5
440
100
AcDbEntity
  8
OBJECT
  6
CONTINUOUS
100
AcDbVertex
100
AcDb2dVertex
 10
1800.0
 20
660.00000000000023
 30
0.0
  0
VERTEX
  5
441
100
AcDbEntity
  8
OBJECT
  6
CONTINUOUS
100
AcDbVertex
100
AcDb2dVertex
 10
700.0
 20
660.00000000000023
 30
0.0
  0
SEQEND
  5
442
100
AcDbEntity
  8
OBJECT
  6
CONTINUOUS
  0
LINE
  5
443
100
AcDbEntity
  8
OBJECT
  6
CONTINUOUS
100
AcDbLine
 10
1100.0
 20
1200.0000000000002
 30
0.0
 11
1100.0
 21
660.00000000000023
 31
0.0
  0
MTEXT
  5
444
100
AcDbEntity
  8
TEXT
100
AcDbMText
 10
700.0
 20
1170.0000000000002
 30
0.0
 40
33.866666666666667
 41
399.99999999999955
 71
               4
 72
               1
  1
　形　　　　　　　　式
  7
________
  0
LINE
  5
445
100
AcDbEntity
  8
OBJECT
100
AcDbLine
 10
1800.0
 20
1140.0000000000002
 30
0.0
 11
700.0
 21
1140.0000000000002
 31
0.0
  0
MTEXT
  5
446
100
AcDbEntity
  8
TEXT
100
AcDbMText
 10
1100.0
 20
1170.0000000000002
 30
0.0
 40
33.866666666666667
 41
700.00000000000045
 71
               4
 72
               1
  1
　CL 26W2 H
  7
________
  0
LINE
  5
447
100
AcDbEntity
  8
OBJECT
100
AcDbLine
 10
1800.0
 20
1020.0000000000002
 30
0.0
 11
700.0
 21
1020.0000000000002
 31
0.0
  0
MTEXT
  5
448
100
AcDbEntity
  8
TEXT
100
AcDbMText
 10
700.0
 20
1080.0000000000002
 30
0.0
 40
33.866666666666667
 41
399.99999999999955
 71
               4
 72
               1
  1
　{\H0.976x;\l適　用　食　器\P　ストック数量の目安}
  7
________
  0
MTEXT
  5
449
100
AcDbEntity
  8
TEXT
100
AcDbMText
 10
1100.0
 20
1080.0000000000002
 30
0.0
 40
33.866666666666667
 41
700.0
 71
               4
 72
               1
  1
　{\H0.976x;\l皿250φ×60枚×2列\P　120枚}
  7
________
  0
LINE
  5
44A
100
AcDbEntity
  8
OBJECT
100
AcDbLine
 10
1800.0
 20
960.00000000000023
 30
0.0
 11
700.0
 21
960.00000000000023
 31
0.0
  0
MTEXT
  5
44B
100
AcDbEntity
  8
TEXT
100
AcDbMText
 10
700.0
 20
990.00000000000023
 30
0.0
 40
33.866666666666667
 41
399.99999999999955
 71
               4
 72
               1
  1
　ば ね 調 整 範 囲
  7
________
  0
MTEXT
  5
44C
100
AcDbEntity
  8
TEXT
100
AcDbMText
 10
1100.0
 20
990.00000000000023
 30
0.0
 40
33.866666666666667
 41
700.00000000000045
 71
               4
 72
               1
  1
　20～30kg×2
  7
________
  0
LINE
  5
44D
100
AcDbEntity
  8
OBJECT
100
AcDbLine
 10
1800.0
 20
780.00000000000023
 30
0.0
 11
700.0
 21
780.00000000000023
 31
0.0
  0
MTEXT
  5
44E
100
AcDbEntity
  8
TEXT
100
AcDbMText
 10
700.0
 20
870.00000000000023
 30
0.0
 40
33.866666666666667
 41
399.99999999999955
 71
               4
 72
               1
  1
　保 　温　 機　 能
  7
________
  0
MTEXT
  5
44F
100
AcDbEntity
  8
TEXT
100
AcDbMText
 10
1100.0
 20
870.00000000000023
 30
0.0
 40
33.866666666666667
 41
700.00000000000045
 71
               4
 72
               1
  1
　225Wヒーター×2\P　固定サーモスタ ット ・ 温度ヒューズ\P　2つ折り半透明カバー付属
  7
________
  0
LINE
  5
450
100
AcDbEntity
  8
OBJECT
100
AcDbLine
 10
1800.0
 20
720.00000000000023
 30
0.0
 11
700.0
 21
720.00000000000023
 31
0.0
  0
MTEXT
  5
451
100
AcDbEntity
  8
TEXT
100
AcDbMText
 10
700.0
 20
750.00000000000023
 30
0.0
 40
33.866666666666667
 41
399.99999999999955
 71
               4
 72
               1
  1
　電　　　　　　　　源
  7
________
  0
MTEXT
  5
452
100
AcDbEntity
  8
TEXT
100
AcDbMText
 10
1100.0
 20
750.00000000000023
 30
0.0
 40
33.866666666666667
 41
700.00000000000045
 71
               4
 72
               1
  1
　単相 100 V　　50/60 Hz
  7
________
  0
MTEXT
  5
453
100
AcDbEntity
  8
TEXT
100
AcDbMText
 10
700.0
 20
690.00000000000023
 30
0.0
 40
33.866666666666667
 41
399.99999999999955
 71
               4
 72
               1
  1
　質　　　　　　　　量
  7
________
  0
MTEXT
  5
454
100
AcDbEntity
  8
TEXT
100
AcDbMText
 10
1100.0
 20
690.00000000000023
 30
0.0
 40
33.866666666666667
 41
700.00000000000045
 71
               4
 72
               1
  1
　29kg
  7
________
  0
MTEXT
  5
455
100
AcDbEntity
  8
TEXT
100
AcDbMText
 10
950.0
 20
600.00000000000023
 30
0.0
 40
33.866666666666667
 41
855.0
 71
               4
 72
               1
  1
電気用品型式認可番号　JET1293-81037-1003
  7
________
  0
MTEXT
  5
456
100
AcDbEntity
  8
DIMENTION
100
AcDbMText
 10
655.0
 20
400.00000000000023
 30
0.0
 40
33.866666666666667
 41
1305.0
 71
               1
 72
               1
  1
使用する{\H0.9804x;\l食器}は外径寸法250φ(mm)を超えないようにしてください。\P超えてしまうと食器が収納できないまたは引っ掛かりが生じ、出し\P入れできない場合があります。
  7
________
  0
MTEXT
  5
457
100
AcDbEntity
  8
DIMENTION
100
AcDbMText
 10
600.0
 20
400.00000000000023
 30
0.0
 40
33.866666666666667
 41
50.0
 71
               1
 72
               1
  1
※
  7
________
  0
DIMENSION
  5
458
100
AcDbEntity
  8
DIMENTION
100
AcDbDimension
  2
*D31
 10
-600.0
 20
822.0
 30
0.0
 11
-600.0
 21
652.0
 31
0.0
  3
CAD
100
AcDbAlignedDimension
 13
-835.0
 23
482.0
 33
0.0
 14
-835.0
 24
822.0
 34
0.0
 50
90.0
100
AcDbRotatedDimension
1001
ACAD
1000
DSTYLE
1002
{
1070
             340
1005
3E
1070
             147
1040
0.9999999962747097
1002
}
  0
DIMENSION
  5
459
100
AcDbEntity
  8
DIMENTION
100
AcDbDimension
  2
*D32
 10
-820.0
 20
1040.0
 30
0.0
 11
-1100.0
 21
1040.0
 31
0.0
  3
CAD
100
AcDbAlignedDimension
 13
-1380.0
 23
807.0
 33
0.0
 14
-820.0
 24
807.0
 34
0.0
100
AcDbRotatedDimension
1001
ACAD
1000
DSTYLE
1002
{
1070
             340
1005
3E
1070
             147
1040
0.9999999962747097
1002
}
  0
MTEXT
  5
45A
100
AcDbEntity
  8
DIMENTION
100
AcDbMText
 10
1300.0
 20
-1100.0
 30
0.0
 40
33.866666666666667
 41
0.0
 71
               1
 72
               1
  1
注）指示なき寸法公差は±5とする
  7
________
  0
ENDSEC
  0
SECTION
  2
OBJECTS
  0
DICTIONARY
  5
19
100
AcDbDictionary
  3
ACAD_GROUP
350
1A
  3
ACAD_MLINESTYLE
350
1B
  0
DICTIONARY
  5
1A
102
{ACAD_REACTORS
330
19
102
}
100
AcDbDictionary
  0
DICTIONARY
  5
1B
102
{ACAD_REACTORS
330
19
102
}
100
AcDbDictionary
  3
STANDARD
350
1C
  0
MLINESTYLE
  5
1C
102
{ACAD_REACTORS
330
1B
102
}
100
AcDbMlineStyle
  2
STANDARD
 70
               0
  3

 62
               0
 51
90.0
 52
90.0
 71
               2
 49
0.5
 62
             256
  6
BYLAYER
 49
-0.5
 62
             256
  6
BYLAYER
  0
ENDSEC
  0
EOF
