  0
SECTION
  2
HEADER
  9
$ACADVER
  1
AC1014
  9
$ACADMAINTVER
 70
               0
  9
$DWGCODEPAGE
  3
ANSI_932
  9
$INSBASE
 10
0.0
 20
0.0
 30
0.0
  9
$EXTMIN
 10
-2025.3999999999999
 20
-1388.9999999999998
 30
0.0
  9
$EXTMAX
 10
2024.5999999999999
 20
1330.9999999999998
 30
0.0
  9
$LIMMIN
 10
0.0
 20
0.0
  9
$LIMMAX
 10
0.0
 20
0.0
  9
$ORTHOMODE
 70
               0
  9
$REGENMODE
 70
               1
  9
$FILLMODE
 70
               1
  9
$QTEXTMODE
 70
               0
  9
$MIRRTEXT
 70
               1
  9
$DRAGMODE
 70
               2
  9
$LTSCALE
 40
254.0
  9
$OSMODE
 70
               0
  9
$ATTMODE
 70
               1
  9
$TEXTSIZE
 40
0.2
  9
$TRACEWID
 40
1.0
  9
$TEXTSTYLE
  7
STANDARD
  9
$CLAYER
  8
0
  9
$CELTYPE
  6
CONTINUOUS
  9
$CECOLOR
 62
             256
  9
$CELTSCALE
 40
1.0
  9
$DELOBJ
 70
               1
  9
$DISPSILH
 70
               0
  9
$DIMSCALE
 40
1.0
  9
$DIMASZ
 40
31.75
  9
$DIMEXO
 40
9.9999999999999982
  9
$DIMDLI
 40
7.9999999999999991
  9
$DIMRND
 40
0.0
  9
$DIMDLE
 40
0.0
  9
$DIMEXE
 40
19.999999999999996
  9
$DIMTP
 40
0.0
  9
$DIMTM
 40
0.0
  9
$DIMTXT
 40
33.866666666666667
  9
$DIMCEN
 40
0.0
  9
$DIMTSZ
 40
0.0
  9
$DIMTOL
 70
               0
  9
$DIMLIM
 70
               0
  9
$DIMTIH
 70
               0
  9
$DIMTOH
 70
               0
  9
$DIMSE1
 70
               0
  9
$DIMSE2
 70
               0
  9
$DIMTAD
 70
               1
  9
$DIMZIN
 70
              11
  9
$DIMBLK
  1
VW_OPENARROW
  9
$DIMASO
 70
               1
  9
$DIMSHO
 70
               1
  9
$DIMPOST
  1
<>
  9
$DIMAPOST
  1
[]
  9
$DIMALT
 70
               0
  9
$DIMALTD
 70
               1
  9
$DIMALTF
 40
1.0
  9
$DIMLFAC
 40
1.0
  9
$DIMTOFL
 70
               1
  9
$DIMTVP
 40
0.0
  9
$DIMTIX
 70
               1
  9
$DIMSOXD
 70
               0
  9
$DIMSAH
 70
               0
  9
$DIMBLK1
  1

  9
$DIMBLK2
  1

  9
$DIMSTYLE
  2
CAD
  9
$DIMCLRD
 70
               0
  9
$DIMCLRE
 70
               0
  9
$DIMCLRT
 70
               0
  9
$DIMTFAC
 40
0.7
  9
$DIMGAP
 40
0.099999999627471
  9
$DIMJUST
 70
               0
  9
$DIMSD1
 70
               0
  9
$DIMSD2
 70
               0
  9
$DIMTOLJ
 70
               1
  9
$DIMTZIN
 70
              11
  9
$DIMALTZ
 70
              11
  9
$DIMALTTZ
 70
              11
  9
$DIMFIT
 70
               0
  9
$DIMUPT
 70
               0
  9
$DIMUNIT
 70
               2
  9
$DIMDEC
 70
               4
  9
$DIMTDEC
 70
               4
  9
$DIMALTU
 70
               2
  9
$DIMALTTD
 70
               2
  9
$DIMTXSTY
  7
________
  9
$DIMAUNIT
 70
               0
  9
$LUNITS
 70
               2
  9
$LUPREC
 70
               4
  9
$SKETCHINC
 40
0.1
  9
$FILLETRAD
 40
0.0
  9
$AUNITS
 70
               0
  9
$AUPREC
 70
               0
  9
$MENU
  1
acad
  9
$ELEVATION
 40
0.0
  9
$PELEVATION
 40
0.0
  9
$THICKNESS
 40
0.0
  9
$LIMCHECK
 70
               0
  9
$BLIPMODE
 70
               0
  9
$CHAMFERA
 40
0.0
  9
$CHAMFERB
 40
0.0
  9
$CHAMFERC
 40
0.0
  9
$CHAMFERD
 40
0.0
  9
$SKPOLY
 70
               0
  9
$TDCREATE
 40
2458753.562905093
  9
$TDUPDATE
 40
2458753.562905093
  9
$TDINDWG
 40
0.0000000000
  9
$TDUSRTIMER
 40
0.0000000000
  9
$USRTIMER
 70
               1
  9
$ANGBASE
 50
0.0
  9
$ANGDIR
 70
               0
  9
$PDMODE
 70
               1
  9
$PDSIZE
 40
-2.0
  9
$PLINEWID
 40
0.0
  9
$COORDS
 70
               0
  9
$SPLFRAME
 70
               0
  9
$SPLINETYPE
 70
               6
  9
$SPLINESEGS
 70
               8
  9
$ATTDIA
 70
               0
  9
$ATTREQ
 70
               1
  9
$HANDLING
 70
               1
  9
$HANDSEED
  5
405
  9
$SURFTAB1
 70
               6
  9
$SURFTAB2
 70
               6
  9
$SURFTYPE
 70
               6
  9
$SURFU
 70
               6
  9
$SURFV
 70
               6
  9
$UCSNAME
  2

  9
$UCSORG
 10
0.0
 20
0.0
 30
0.0
  9
$UCSXDIR
 10
1.0
 20
0.0
 30
0.0
  9
$UCSYDIR
 10
0.0
 20
1.0
 30
0.0
  9
$PUCSNAME
  2

  9
$PUCSORG
 10
0.0
 20
0.0
 30
0.0
  9
$PUCSXDIR
 10
1.0
 20
0.0
 30
0.0
  9
$PUCSYDIR
 10
0.0
 20
1.0
 30
0.0
  9
$USERI1
 70
               0
  9
$USERI2
 70
               0
  9
$USERI3
 70
               0
  9
$USERI4
 70
               0
  9
$USERI5
 70
               0
  9
$USERR1
 40
0.0
  9
$USERR2
 40
0.0
  9
$USERR3
 40
0.0
  9
$USERR4
 40
0.0
  9
$USERR5
 40
0.0
  9
$WORLDVIEW
 70
               1
  9
$SHADEDGE
 70
               3
  9
$SHADEDIF
 70
              70
  9
$TILEMODE
 70
               1
  9
$MAXACTVP
 70
              16
  9
$PINSBASE
 10
0.0
 20
0.0
 30
0.0
  9
$PLIMCHECK
 70
               0
  9
$PEXTMIN
 10
1.0000000000000000E+20
 20
1.0000000000000000E+20
 30
1.0000000000000000E+20
  9
$PEXTMAX
 10
-1.0000000000000000E+20
 20
-1.0000000000000000E+20
 30
-1.0000000000000000E+20
  9
$PLIMMIN
 10
0.0
 20
0.0
  9
$PLIMMAX
 10
12.0
 20
9.0
  9
$UNITMODE
 70
               0
  9
$VISRETAIN
 70
               0
  9
$PLINEGEN
 70
               1
  9
$PSLTSCALE
 70
               0
  9
$TREEDEPTH
 70
            3020
  9
$PICKSTYLE
 70
               1
  9
$CMLSTYLE
  2
STANDARD
  9
$CMLJUST
 70
               0
  9
$CMLSCALE
 40
1.0
  9
$PROXYGRAPHICS
 70
               0
  9
$MEASUREMENT
 70
               1
  0
ENDSEC
  0
SECTION
  2
CLASSES
  0
CLASS
  1
LWPOLYLINE
  2
AcDbPolyline
  3
"AutoCAD"
 90
        0
280
               0
281
               1
  0
CLASS
  1
IMAGE
  2
AcDbRasterImage
  3
ISM
 90
      127
280
               0
281
               1
  0
CLASS
  1
OLE2FRAME
  2
AcDbOle2Frame
  3
""
 90
        0
280
               0
281
               1
  0
CLASS
  1
HATCH
  2
AcDbHatch
  3
"ACAD_SEDONA"
 90
        0
280
               0
281
               1
  0
CLASS
  1
DICTIONARYVAR
  2
AcDbDictionaryVar
  3
"AutoCAD"
 90
        0
280
               0
281
               0
  0
CLASS
  1
RASTERVARIABLES
  2
AcDbRasterVariables
  3
ISM
 90
        0
280
               0
281
               0
  0
CLASS
  1
IMAGEDEF
  2
AcDbRasterImageDef
  3
ISM
 90
        0
280
               0
281
               0
  0
CLASS
  1
IMAGEDEF_REACTOR
  2
AcDbRasterImageDefReactor
  3
ISM
 90
        1
280
               0
281
               0
  0
CLASS
  1
IDBUFFER
  2
AcDbIdBuffer
  3
"Acad"
 90
        0
280
               0
281
               0
  0
CLASS
  1
SPATIAL_FILTER
  2
AcDbSpatialFilter
  3
"Acad"
 90
        0
280
               0
281
               0
  0
CLASS
  1
XRECORD
  2
AcDbXrecord
  3
"<Built In>"
 90
        0
280
               0
281
               0
  0
CLASS
  1
SORTENTSTABLE
  2
AcDbSortentsTable
  3
"AutoCAD"
 90
        0
280
               0
281
               0
  0
CLASS
  1
LAYER_INDEX
  2
AcDbLayerIndex
  3
"Acad"
 90
        0
280
               0
281
               0
  0
CLASS
  1
SPATIAL_INDEX
  2
AcDbSpatialIndex
  3
"Acad"
 90
        0
280
               0
281
               0
  0
CLASS
  1
OBJECT_PTR
  2
CAseDLPNTableRecord
  3
"ASE-LPNTableRecord"
 90
        1
280
               0
281
               0
  0
CLASS
  1
LAYOUT
  2
AcDbLayout
  3
"AutoCAD 2000"
 90
        1
280
               0
281
               0
  0
CLASS
  1
PLOTSETTINGS
  2
AcDbPlotSettings
  3
"AutoCAD 2000"
 90
        1
280
               0
281
               0
  0
CLASS
  1
ACDBDICTIONARYWDFLT
  2
AcDbDictionaryWithDefault
  3
"AutoCAD 2000"
 90
        1
280
               0
281
               0
  0
CLASS
  1
ACDBPLACEHOLDER
  2
AcDbPlaceHolder
  3
"AutoCAD 2000"
 90
        1
280
               0
281
               0
  0
ENDSEC
  0
SECTION
  2
TABLES
  0
TABLE
  2
VPORT
  5
7
100
AcDbSymbolTable
 70
               1
  0
VPORT
  5
15
100
AcDbSymbolTableRecord
100
AcDbViewportTableRecord
  2
*ACTIVE
 70
               0
 10
0.0
 20
0.0
 11
1.0
 21
1.0
 12
-0.3999999999998636
 22
-29.0
 13
0.0
 23
0.0
 14
1.0
 24
1.0
 15
0.0
 25
0.0
 16
0.0
 26
0.0
 36
1.0
 17
0.0
 27
0.0
 37
0.0
 40
2719.9999999999995
 41
0.688564
 42
50.0
 43
0.0
 44
0.0
 50
0.0
 51
0.0
 71
               0
 72
             100
 73
               1
 74
               1
 75
               0
 76
               0
 77
               0
 78
               0
  0
ENDTAB
  0
TABLE
  2
LTYPE
  5
4
100
AcDbSymbolTable
 70
              21
  0
LTYPE
  5
11
100
AcDbSymbolTableRecord
100
AcDbLinetypeTableRecord
  2
BYBLOCK
 70
              64
  3

 72
              65
 73
               0
 40
0.0
  0
LTYPE
  5
12
100
AcDbSymbolTableRecord
100
AcDbLinetypeTableRecord
  2
BYLAYER
 70
              64
  3

 72
              65
 73
               0
 40
0.0
  0
LTYPE
  5
13
100
AcDbSymbolTableRecord
100
AcDbLinetypeTableRecord
  2
CONTINUOUS
 70
              64
  3
Solid line
 72
              65
 73
               0
 40
0.0
  0
LTYPE
  5
3B
100
AcDbSymbolTableRecord
100
AcDbLinetypeTableRecord
  2
STYLE_01
 70
               0
  3

 72
              65
 73
               2
 40
0.0375109361329834
 49
0.0236220472440945
 74
               0
 49
-0.0138888888888889
 74
               0
  0
LTYPE
  5
3C
100
AcDbSymbolTableRecord
100
AcDbLinetypeTableRecord
  2
STYLE_02
 70
               0
  3

 72
              65
 73
               6
 40
0.6527777777777778
 49
0.4027777777777778
 74
               0
 49
-0.0555555555555555
 74
               0
 49
0.0416666666666667
 74
               0
 49
-0.0555555555555556
 74
               0
 49
0.0416666666666666
 74
               0
 49
-0.0555555555555556
 74
               0
  0
LTYPE
  5
3D
100
AcDbSymbolTableRecord
100
AcDbLinetypeTableRecord
  2
STYLE_03
 70
               0
  3

 72
              65
 73
               4
 40
0.5277777777777778
 49
0.4027777777777778
 74
               0
 49
-0.0416666666666666
 74
               0
 49
0.0416666666666667
 74
               0
 49
-0.0416666666666667
 74
               0
  0
LTYPE
  5
3E
100
AcDbSymbolTableRecord
100
AcDbLinetypeTableRecord
  2
STYLE_04
 70
               0
  3

 72
              65
 73
               2
 40
0.1388888888888889
 49
0.0694444444444444
 74
               0
 49
-0.0694444444444444
 74
               0
  0
LTYPE
  5
3F
100
AcDbSymbolTableRecord
100
AcDbLinetypeTableRecord
  2
STYLE_05
 70
               0
  3

 72
              65
 73
               2
 40
0.047244094488189
 49
0.0236220472440945
 74
               0
 49
-0.0236220472440945
 74
               0
  0
LTYPE
  5
40
100
AcDbSymbolTableRecord
100
AcDbLinetypeTableRecord
  2
STYLE_06
 70
               0
  3

 72
              65
 73
               2
 40
0.047244094488189
 49
0.0236220472440945
 74
               0
 49
-0.0236220472440945
 74
               0
  0
LTYPE
  5
41
100
AcDbSymbolTableRecord
100
AcDbLinetypeTableRecord
  2
STYLE_07
 70
               0
  3

 72
              65
 73
               2
 40
0.047244094488189
 49
0.0236220472440945
 74
               0
 49
-0.0236220472440945
 74
               0
  0
LTYPE
  5
42
100
AcDbSymbolTableRecord
100
AcDbLinetypeTableRecord
  2
STYLE_08
 70
               0
  3

 72
              65
 73
               2
 40
0.047244094488189
 49
0.0236220472440945
 74
               0
 49
-0.0236220472440945
 74
               0
  0
LTYPE
  5
43
100
AcDbSymbolTableRecord
100
AcDbLinetypeTableRecord
  2
STYLE_09
 70
               0
  3

 72
              65
 73
               6
 40
1.5157480314960627
 49
1.1811023622047243
 74
               0
 49
-0.0590551181102361
 74
               0
 49
0.078740157480315
 74
               0
 49
-0.0590551181102361
 74
               0
 49
0.078740157480315
 74
               0
 49
-0.0590551181102361
 74
               0
  0
LTYPE
  5
44
100
AcDbSymbolTableRecord
100
AcDbLinetypeTableRecord
  2
STYLE_10
 70
               0
  3

 72
              65
 73
               6
 40
1.1875
 49
0.75
 74
               0
 49
-0.0555572509765625
 74
               0
 49
0.138885498046875
 74
               0
 49
-0.0555572509765625
 74
               0
 49
0.125
 74
               0
 49
-0.0625
 74
               0
  0
LTYPE
  5
45
100
AcDbSymbolTableRecord
100
AcDbLinetypeTableRecord
  2
STYLE_11
 70
               0
  3

 72
              65
 73
               4
 40
1.5
 49
0.0833282470703125
 74
               0
 49
-0.0555572509765625
 74
               0
 49
1.3055572509765625
 74
               0
 49
-0.0555572509765625
 74
               0
  0
LTYPE
  5
46
100
AcDbSymbolTableRecord
100
AcDbLinetypeTableRecord
  2
STYLE_12
 70
               0
  3

 72
              65
 73
               4
 40
1.111114501953125
 49
0.7916717529296875
 74
               0
 49
-0.0833282470703125
 74
               0
 49
0.125
 74
               0
 49
-0.111114501953125
 74
               0
  0
LTYPE
  5
47
100
AcDbSymbolTableRecord
100
AcDbLinetypeTableRecord
  2
STYLE_13
 70
               0
  3

 72
              65
 73
               4
 40
2.1944427490234375
 49
1.875
 74
               0
 49
-0.0833282470703125
 74
               0
 49
0.125
 74
               0
 49
-0.111114501953125
 74
               0
  0
LTYPE
  5
48
100
AcDbSymbolTableRecord
100
AcDbLinetypeTableRecord
  2
STYLE_14
 70
               0
  3

 72
              65
 73
               2
 40
0.138885498046875
 49
0.0972137451171875
 74
               0
 49
-0.0416717529296875
 74
               0
  0
LTYPE
  5
49
100
AcDbSymbolTableRecord
100
AcDbLinetypeTableRecord
  2
STYLE_15
 70
               0
  3

 72
              65
 73
               2
 40
0.25
 49
0.2083282470703125
 74
               0
 49
-0.0416717529296875
 74
               0
  0
LTYPE
  5
4A
100
AcDbSymbolTableRecord
100
AcDbLinetypeTableRecord
  2
STYLE_16
 70
               0
  3

 72
              65
 73
               2
 40
0.078740157480315
 49
0.0393700787401575
 74
               0
 49
-0.0393700787401575
 74
               0
  0
LTYPE
  5
4B
100
AcDbSymbolTableRecord
100
AcDbLinetypeTableRecord
  2
STYLE_17
 70
               0
  3

 72
              65
 73
               4
 40
0.5118110236220472
 49
0.3937007874015748
 74
               0
 49
-0.0393700787401575
 74
               0
 49
0.0393700787401575
 74
               0
 49
-0.0393700787401575
 74
               0
  0
LTYPE
  5
4C
100
AcDbSymbolTableRecord
100
AcDbLinetypeTableRecord
  2
STYLE_18
 70
               0
  3

 72
              65
 73
               6
 40
0.5905511811023623
 49
0.3937007874015748
 74
               0
 49
-0.0393700787401575
 74
               0
 49
0.0393700787401575
 74
               0
 49
-0.0393700787401575
 74
               0
 49
0.0393700787401575
 74
               0
 49
-0.0393700787401575
 74
               0
  0
ENDTAB
  0
TABLE
  2
LAYER
  5
2
100
AcDbSymbolTable
 70
               9
  0
LAYER
  5
14
100
AcDbSymbolTableRecord
100
AcDbLayerTableRecord
  2
0
 70
               0
 62
               7
  6
CONTINUOUS
  0
LAYER
  5
54
100
AcDbSymbolTableRecord
100
AcDbLayerTableRecord
  2
DEFPOINTS
 70
               0
 62
               7
  6
CONTINUOUS
  0
LAYER
  5
55
100
AcDbSymbolTableRecord
100
AcDbLayerTableRecord
  2
OBJECT
 70
               0
 62
               7
  6
CONTINUOUS
  0
LAYER
  5
56
100
AcDbSymbolTableRecord
100
AcDbLayerTableRecord
  2
DIMENTION
 70
               0
 62
               7
  6
CONTINUOUS
  0
LAYER
  5
57
100
AcDbSymbolTableRecord
100
AcDbLayerTableRecord
  2
CENTER
 70
               0
 62
               7
  6
STYLE_17
  0
LAYER
  5
58
100
AcDbSymbolTableRecord
100
AcDbLayerTableRecord
  2
HIDDEN
 70
               0
 62
               7
  6
STYLE_16
  0
LAYER
  5
59
100
AcDbSymbolTableRecord
100
AcDbLayerTableRecord
  2
FRAME
 70
               0
 62
               7
  6
CONTINUOUS
  0
LAYER
  5
5A
100
AcDbSymbolTableRecord
100
AcDbLayerTableRecord
  2
OUTLINE
 70
               0
 62
               7
  6
STYLE_18
  0
LAYER
  5
5B
100
AcDbSymbolTableRecord
100
AcDbLayerTableRecord
  2
TEXT
 70
               0
 62
               7
  6
CONTINUOUS
  0
ENDTAB
  0
TABLE
  2
STYLE
  5
3
100
AcDbSymbolTable
 70
               3
  0
STYLE
  5
17
100
AcDbSymbolTableRecord
100
AcDbTextStyleTableRecord
  2
STANDARD
 70
               0
 40
0.0
 41
1.0
 50
0.0
 71
               0
 42
0.0
  3
txt
  4
BIGFONT.SHX
  0
STYLE
  5
39
100
AcDbSymbolTableRecord
100
AcDbTextStyleTableRecord
  2
ARIAL
 70
               0
 40
0.0
 41
1.0
 50
0.0
 71
               0
 42
0.0
  3
Arial
  4

1001
ACAD
1000
Arial
1071
        0
  0
STYLE
  5
3A
100
AcDbSymbolTableRecord
100
AcDbTextStyleTableRecord
  2
________
 70
               0
 40
0.0
 41
1.0
 50
0.0
 71
               0
 42
0.0
  3
ＭＳ Ｐゴシック
  4

1001
ACAD
1000
ＭＳ Ｐゴシック
1071
        0
  0
ENDTAB
  0
TABLE
  2
VIEW
  5
5
100
AcDbSymbolTable
 70
               0
  0
ENDTAB
  0
TABLE
  2
UCS
  5
6
100
AcDbSymbolTable
 70
               0
  0
ENDTAB
  0
TABLE
  2
APPID
  5
8
100
AcDbSymbolTable
 70
               1
  0
APPID
  5
16
100
AcDbSymbolTableRecord
100
AcDbRegAppTableRecord
  2
ACAD
 70
               0
  0
ENDTAB
  0
TABLE
  2
DIMSTYLE
  5
9
100
AcDbSymbolTable
 70
               2
  0
DIMSTYLE
105
18
100
AcDbSymbolTableRecord
100
AcDbDimStyleTableRecord
  2
STANDARD
 70
               0
  3

  4

  5

  6

  7

 40
1.0
 41
0.18
 42
0.0625
 43
0.38
 44
0.18
 45
0.0
 46
0.0
 47
0.0
 48
0.0
 71
               0
 72
               0
 73
               1
 74
               1
 75
               0
 76
               0
 77
               0
 78
               0
140
0.18
141
0.09
142
0.0
143
25.399999999999999
144
1.0
145
0.0
146
1.0
147
0.09
170
               0
171
               2
172
               0
173
               0
174
               0
175
               0
176
               0
177
               0
178
               0
270
               2
271
               4
272
               4
273
               2
274
               2
275
               0
280
               0
281
               0
282
               0
283
               1
284
               0
285
               0
286
               0
287
               0
288
               0
340
17
  0
DIMSTYLE
105
53
100
AcDbSymbolTableRecord
100
AcDbDimStyleTableRecord
  2
CAD
 70
               0
  3
<>
  4
[]
  5
VW_OPENARROW
  6

  7

 40
1.0
 41
31.75
 42
9.9999999999999982
 43
7.9999999999999991
 44
19.999999999999996
 45
0.0
 46
0.0
 47
0.0
 48
0.0
 71
               0
 72
               0
 73
               0
 74
               0
 75
               0
 76
               0
 77
               1
 78
              11
140
33.866666666666667
141
0.0
142
0.0
143
1.0
144
1.0
145
0.0
146
0.7
147
0.099999999627471
170
               0
171
               1
172
               1
173
               0
174
               1
175
               0
176
               0
177
               0
178
               0
270
               2
271
               4
272
               4
273
               2
274
               2
275
               0
280
               0
281
               0
282
               0
283
               1
284
              11
285
              11
286
              11
287
               0
288
               0
340
3A
  0
ENDTAB
  0
TABLE
  2
BLOCK_RECORD
  5
1
100
AcDbSymbolTable
 70
              29
  0
BLOCK_RECORD
  5
A
100
AcDbSymbolTableRecord
100
AcDbBlockTableRecord
  2
*MODEL_SPACE
  0
BLOCK_RECORD
  5
B
100
AcDbSymbolTableRecord
100
AcDbBlockTableRecord
  2
*PAPER_SPACE
  0
BLOCK_RECORD
  5
4D
100
AcDbSymbolTableRecord
100
AcDbBlockTableRecord
  2
VW_OPENARROW
  0
BLOCK_RECORD
  5
1D
100
AcDbSymbolTableRecord
100
AcDbBlockTableRecord
  2
*U1
  0
BLOCK_RECORD
  5
1E
100
AcDbSymbolTableRecord
100
AcDbBlockTableRecord
  2
*U2
  0
BLOCK_RECORD
  5
1F
100
AcDbSymbolTableRecord
100
AcDbBlockTableRecord
  2
*U3
  0
BLOCK_RECORD
  5
20
100
AcDbSymbolTableRecord
100
AcDbBlockTableRecord
  2
*U4
  0
BLOCK_RECORD
  5
21
100
AcDbSymbolTableRecord
100
AcDbBlockTableRecord
  2
*U5
  0
BLOCK_RECORD
  5
22
100
AcDbSymbolTableRecord
100
AcDbBlockTableRecord
  2
*U6
  0
BLOCK_RECORD
  5
23
100
AcDbSymbolTableRecord
100
AcDbBlockTableRecord
  2
*U7
  0
BLOCK_RECORD
  5
24
100
AcDbSymbolTableRecord
100
AcDbBlockTableRecord
  2
*D8
  0
BLOCK_RECORD
  5
25
100
AcDbSymbolTableRecord
100
AcDbBlockTableRecord
  2
*U9
  0
BLOCK_RECORD
  5
26
100
AcDbSymbolTableRecord
100
AcDbBlockTableRecord
  2
*U10
  0
BLOCK_RECORD
  5
27
100
AcDbSymbolTableRecord
100
AcDbBlockTableRecord
  2
*D11
  0
BLOCK_RECORD
  5
28
100
AcDbSymbolTableRecord
100
AcDbBlockTableRecord
  2
*D12
  0
BLOCK_RECORD
  5
29
100
AcDbSymbolTableRecord
100
AcDbBlockTableRecord
  2
*D13
  0
BLOCK_RECORD
  5
2A
100
AcDbSymbolTableRecord
100
AcDbBlockTableRecord
  2
*D14
  0
BLOCK_RECORD
  5
2B
100
AcDbSymbolTableRecord
100
AcDbBlockTableRecord
  2
*D15
  0
BLOCK_RECORD
  5
2C
100
AcDbSymbolTableRecord
100
AcDbBlockTableRecord
  2
*D16
  0
BLOCK_RECORD
  5
2D
100
AcDbSymbolTableRecord
100
AcDbBlockTableRecord
  2
*D17
  0
BLOCK_RECORD
  5
2E
100
AcDbSymbolTableRecord
100
AcDbBlockTableRecord
  2
*D18
  0
BLOCK_RECORD
  5
2F
100
AcDbSymbolTableRecord
100
AcDbBlockTableRecord
  2
*D19
  0
BLOCK_RECORD
  5
30
100
AcDbSymbolTableRecord
100
AcDbBlockTableRecord
  2
*D20
  0
BLOCK_RECORD
  5
31
100
AcDbSymbolTableRecord
100
AcDbBlockTableRecord
  2
*U21
  0
BLOCK_RECORD
  5
32
100
AcDbSymbolTableRecord
100
AcDbBlockTableRecord
  2
*D22
  0
BLOCK_RECORD
  5
33
100
AcDbSymbolTableRecord
100
AcDbBlockTableRecord
  2
*D23
  0
BLOCK_RECORD
  5
34
100
AcDbSymbolTableRecord
100
AcDbBlockTableRecord
  2
*U24
  0
BLOCK_RECORD
  5
35
100
AcDbSymbolTableRecord
100
AcDbBlockTableRecord
  2
*U25
  0
BLOCK_RECORD
  5
36
100
AcDbSymbolTableRecord
100
AcDbBlockTableRecord
  2
*U26
  0
BLOCK_RECORD
  5
37
100
AcDbSymbolTableRecord
100
AcDbBlockTableRecord
  2
*D27
  0
BLOCK_RECORD
  5
38
100
AcDbSymbolTableRecord
100
AcDbBlockTableRecord
  2
*D28
  0
ENDTAB
  0
ENDSEC
  0
SECTION
  2
BLOCKS
  0
BLOCK
  5
D
100
AcDbEntity
  8
0
100
AcDbBlockBegin
  2
*MODEL_SPACE
 70
               0
 10
0.0
 20
0.0
 30
0.0
  3
*MODEL_SPACE
  1

  0
ENDBLK
  5
E
100
AcDbEntity
  8
0
100
AcDbBlockEnd
  0
BLOCK
  5
F
100
AcDbEntity
 67
               1
  8
0
100
AcDbBlockBegin
  2
*PAPER_SPACE
 70
               0
 10
0.0
 20
0.0
 30
0.0
  3
*PAPER_SPACE
  1

  0
ENDBLK
  5
10
100
AcDbEntity
 67
               1
  8
0
100
AcDbBlockEnd
  0
BLOCK
  5
4E
100
AcDbEntity
  8
0
  6
BYBLOCK
 62
               0
100
AcDbBlockBegin
  2
VW_OPENARROW
 70
               0
 10
0.0
 20
0.0
 30
0.0
  3
VW_OPENARROW
  1

  0
LINE
  5
4F
100
AcDbEntity
  8
0
  6
BYBLOCK
 62
               0
100
AcDbLine
 10
0.0
 20
0.0
 30
0.0
 11
-1.0
 21
0.0
 31
0.0
  0
LINE
  5
50
100
AcDbEntity
  8
0
  6
BYBLOCK
 62
               0
100
AcDbLine
 10
0.0
 20
0.0
 30
0.0
 11
-0.9921874999999999
 21
-0.2658558393652545
 31
0.0
  0
LINE
  5
51
100
AcDbEntity
  8
0
  6
BYBLOCK
 62
               0
100
AcDbLine
 10
0.0
 20
0.0
 30
0.0
 11
-0.9921874999999999
 21
0.2658558393652548
 31
0.0
  0
ENDBLK
  5
52
100
AcDbEntity
  8
0
100
AcDbBlockEnd
  0
BLOCK
  5
5C
100
AcDbEntity
  8
FRAME
100
AcDbBlockBegin
  2
*U1
 70
               1
 10
0.0
 20
0.0
 30
0.0
  3
*U1
  1

  0
LWPOLYLINE
  5
5D
100
AcDbEntity
  8
FRAME
  6
CONTINUOUS
 62
               0
100
AcDbPolyline
 90
       12
 70
             129
 10
-1321.4083975958638
 20
-1337.8059416390497
 10
-1306.0076179471669
 20
-1337.8059416390497
 10
-1306.0076179471669
 20
-1328.6544278907847
 10
-1324.9024142087437
 20
-1328.6544278907847
 10
-1328.5132660125498
 20
-1319.1825281765064
 10
-1340.1335809756258
 20
-1319.1825281765064
 10
-1336.6923420536355
 20
-1328.6544278907847
 10
-1371.6965109792334
 20
-1328.6544278907847
 10
-1371.6965109792334
 20
-1337.8059416390497
 10
-1333.3604002153932
 20
-1337.8059416390497
 10
-1318.4420703666974
 20
-1378.8483094641131
 10
-1305.7626239935773
 20
-1378.8256842019323
  0
LWPOLYLINE
  5
5E
100
AcDbEntity
  8
FRAME
  6
CONTINUOUS
 62
               0
100
AcDbPolyline
 90
       12
 70
             129
 10
-1346.2509245301289
 20
-1354.2206240547275
 10
-1335.7688965727843
 20
-1354.2206240547275
 10
-1335.7688965727843
 20
-1345.0427214610168
 10
-1370.8672973084233
 20
-1345.0427214610168
 10
-1370.8672973084233
 20
-1354.1377048757756
 10
-1359.4165952271637
 20
-1354.1377048757756
 10
-1359.4165952271637
 20
-1368.0195176359591
 10
-1371.5193599902411
 20
-1368.9391885928976
 10
-1371.5193599902411
 20
-1378.8859999999997
 10
-1331.1554436924398
 20
-1375.6746678765955
 10
-1331.1554436924398
 20
-1366.2253934244991
 10
-1346.2509245301289
 20
-1367.3749821206704
  0
LWPOLYLINE
  5
5F
100
AcDbEntity
  8
FRAME
  6
CONTINUOUS
 62
               0
100
AcDbPolyline
 90
        4
 70
             129
 10
-1306.4373009969261
 20
-1319.2089170219519
 10
-1317.375400849475
 20
-1319.2089170219519
 10
-1317.375400849475
 20
-1326.1140091874643
 10
-1306.4373009969261
 20
-1326.1140091874643
  0
ENDBLK
  5
60
100
AcDbEntity
  8
FRAME
100
AcDbBlockEnd
  0
BLOCK
  5
61
100
AcDbEntity
  8
FRAME
100
AcDbBlockBegin
  2
*U2
 70
               1
 10
0.0
 20
0.0
 30
0.0
  3
*U2
  1

  0
LWPOLYLINE
  5
62
100
AcDbEntity
  8
FRAME
  6
CONTINUOUS
 62
               0
100
AcDbPolyline
 90
       16
 70
             129
 10
-1164.2759736290011
 20
-1343.5275290964157
 10
-1164.2759736290011
 20
-1333.9237179768593
 10
-1175.7492900317934
 20
-1333.9237179768593
 10
-1175.7492900317934
 20
-1318.9375451635663
 10
-1187.2263700178505
 20
-1318.9375451635663
 10
-1187.2263700178505
 20
-1333.9237179768593
 10
-1197.7649392493497
 20
-1333.9237179768593
 10
-1197.7649392493497
 20
-1343.5275290964157
 10
-1187.2263700178505
 20
-1343.5275290964157
 10
-1187.2263700178505
 20
-1368.3474307685001
 10
-1199.6344445325844
 20
-1368.3474307685001
 10
-1199.6344445325844
 20
-1378.8859999999997
 10
-1164.2759736290011
 20
-1378.8859999999997
 10
-1164.2759736290011
 20
-1368.3474307685001
 10
-1175.7492900317934
 20
-1368.3474307685001
 10
-1175.7492900317934
 20
-1343.5275290964157
  0
LWPOLYLINE
  5
63
100
AcDbEntity
  8
FRAME
  6
CONTINUOUS
 62
               0
100
AcDbPolyline
 90
        4
 70
             129
 10
-1205.2542511320826
 20
-1318.703852900419
 10
-1225.3928678998748
 20
-1318.703852900419
 10
-1225.3928678998748
 20
-1327.3691423247694
 10
-1205.2542511320826
 20
-1327.3691423247694
  0
LWPOLYLINE
  5
64
100
AcDbEntity
  8
FRAME
  6
CONTINUOUS
 62
               0
100
AcDbPolyline
 90
       17
 70
             129
 10
-1199.6344445325844
 20
-1363.4286790771473
 10
-1198.695922837378
 20
-1362.4939319058549
 10
-1198.695922837378
 20
-1351.9553626743555
 10
-1207.3084455114874
 20
-1346.8745362083644
 10
-1199.8681258550832
 20
-1335.0959209945634
 10
-1199.8681258550832
 20
-1334.8546906242391
 10
-1199.8681258550832
 20
-1333.9463322983909
 10
-1199.8681258550832
 20
-1333.690025713712
 10
-1231.4800590256682
 20
-1333.690025713712
 10
-1231.4800590256682
 20
-1343.2938368332677
 10
-1215.6307455889435
 20
-1343.2938368332677
 10
-1231.7137403481668
 20
-1357.1078066288555
 10
-1231.7137403481668
 20
-1371.6228313325885
 10
-1220.402498720013
 20
-1360.7751997068162
 10
-1220.9452643180821
 20
-1378.8859999999997
 10
-1208.5334262200829
 20
-1378.8859999999997
 10
-1208.8688774598011
 20
-1356.9532699613951
  0
ENDBLK
  5
65
100
AcDbEntity
  8
FRAME
100
AcDbBlockEnd
  0
BLOCK
  5
66
100
AcDbEntity
  8
FRAME
100
AcDbBlockBegin
  2
*U3
 70
               1
 10
0.0
 20
0.0
 30
0.0
  3
*U3
  1

  0
LWPOLYLINE
  5
67
100
AcDbEntity
  8
FRAME
  6
CONTINUOUS
 62
               0
100
AcDbPolyline
 90
        4
 70
             129
 10
-1594.7100551815106
 20
-1319.2541456650169
 10
-1580.2176338586619
 20
-1319.2541456650169
 10
-1580.2176338586619
 20
-1328.0890589118317
 10
-1594.7100551815106
 20
-1328.0890589118317
  0
LWPOLYLINE
  5
68
100
AcDbEntity
  8
FRAME
  6
CONTINUOUS
 62
               0
100
AcDbPolyline
 90
        4
 70
             129
 10
-1594.7100551815106
 20
-1335.3258387337983
 10
-1580.2176338586619
 20
-1335.3258387337983
 10
-1580.2176338586619
 20
-1344.1607519806146
 10
-1594.7100551815106
 20
-1344.1607519806146
  0
LWPOLYLINE
  5
69
100
AcDbEntity
  8
FRAME
  6
CONTINUOUS
 62
               0
100
AcDbPolyline
 90
        6
 70
             129
 10
-1594.7100551815106
 20
-1363.3834504340832
 10
-1580.8772455883045
 20
-1349.659948865273
 10
-1580.2176338586619
 20
-1349.9426333547501
 10
-1580.1874814299517
 20
-1366.0859439120418
 10
-1593.8883796178784
 20
-1378.8822364167352
 10
-1594.7100551815106
 20
-1378.8596111545551
  0
ENDBLK
  5
6A
100
AcDbEntity
  8
FRAME
100
AcDbBlockEnd
  0
BLOCK
  5
6B
100
AcDbEntity
  8
FRAME
100
AcDbBlockBegin
  2
*U4
 70
               1
 10
0.0
 20
0.0
 30
0.0
  3
*U4
  1

  0
LWPOLYLINE
  5
6C
100
AcDbEntity
  8
FRAME
  6
CONTINUOUS
 62
               0
100
AcDbPolyline
 90
        4
 70
             129
 10
-1668.1860317407907
 20
-1319.2541347243678
 10
-1653.6898468346772
 20
-1319.2541347243678
 10
-1653.6898468346772
 20
-1328.0890479711832
 10
-1668.1860317407907
 20
-1328.0890479711832
  0
LWPOLYLINE
  5
6D
100
AcDbEntity
  8
FRAME
  6
CONTINUOUS
 62
               0
100
AcDbPolyline
 90
        4
 70
             129
 10
-1668.1860317407907
 20
-1335.3258277931495
 10
-1653.6898468346772
 20
-1335.3258277931495
 10
-1653.6898468346772
 20
-1344.1607410399658
 10
-1668.1860317407907
 20
-1344.1607410399658
  0
LWPOLYLINE
  5
6E
100
AcDbEntity
  8
FRAME
  6
CONTINUOUS
 62
               0
100
AcDbPolyline
 90
        6
 70
             129
 10
-1668.1860317407907
 20
-1363.3834394934343
 10
-1654.3532221475841
 20
-1349.6599379246245
 10
-1653.6898468346772
 20
-1349.9426224141009
 10
-1653.6634579892318
 20
-1366.0859329713928
 10
-1667.3643561771585
 20
-1378.882225476086
 10
-1668.1860317407907
 20
-1378.8596002139045
  0
ENDBLK
  5
6F
100
AcDbEntity
  8
FRAME
100
AcDbBlockEnd
  0
BLOCK
  5
70
100
AcDbEntity
  8
FRAME
100
AcDbBlockBegin
  2
*U5
 70
               1
 10
0.0
 20
0.0
 30
0.0
  3
*U5
  1

  0
LWPOLYLINE
  5
71
100
AcDbEntity
  8
FRAME
  6
CONTINUOUS
 62
               0
100
AcDbPolyline
 90
        8
 70
             129
 10
-1491.3484266985106
 20
-1343.3240002026268
 10
-1480.5573363468932
 20
-1343.3240002026268
 10
-1475.4991242024346
 20
-1327.5651440520307
 10
-1483.4218936588406
 20
-1327.5651440520307
 10
-1479.3059667928524
 20
-1318.9676975922755
 10
-1490.19129989516
 20
-1318.9676975922755
 10
-1494.4881413334056
 20
-1333.5581033677829
 10
-1486.6784434846602
 20
-1333.5581033677829
  0
LWPOLYLINE
  5
72
100
AcDbEntity
  8
FRAME
  6
CONTINUOUS
 62
               0
100
AcDbPolyline
 90
        8
 70
             129
 10
-1470.508755022573
 20
-1343.3240002026268
 10
-1459.717653730306
 20
-1343.3240002026268
 10
-1454.6632161097609
 20
-1327.5651440520307
 10
-1462.5784474589891
 20
-1327.5651440520307
 10
-1458.4700696408283
 20
-1318.9676975922755
 10
-1469.3553918024863
 20
-1318.9676975922755
 10
-1473.6446951335545
 20
-1333.5581033677829
 10
-1465.8387718087222
 20
-1333.5581033677829
  0
LWPOLYLINE
  5
73
100
AcDbEntity
  8
FRAME
  6
CONTINUOUS
 62
               0
100
AcDbPolyline
 90
       32
 70
             129
 10
-1460.2378050068437
 20
-1345.1520404260616
 10
-1461.1423997494273
 20
-1348.5367380738967
 10
-1467.6140452819166
 20
-1348.5367380738967
 10
-1469.7436207330954
 20
-1343.4559116079063
 10
-1479.7733513191481
 20
-1343.4559116079063
 10
-1477.9151477263549
 20
-1348.5367380738967
 10
-1492.2794102865391
 20
-1348.5367380738967
 10
-1492.2794102865391
 20
-1350.2856336422938
 10
-1496.8325583094645
 20
-1378.6259298320551
 10
-1486.938513652605
 20
-1378.6259298320551
 10
-1485.0388559406601
 20
-1366.8133876656316
 10
-1476.6449493153436
 20
-1370.4167013622593
 10
-1476.6449493153436
 20
-1361.9549408316982
 10
-1483.7611194224723
 20
-1358.8906182092262
 10
-1483.1882013956931
 20
-1355.3099188341303
 10
-1475.4350448211028
 20
-1355.3099188341303
 10
-1470.9761286082194
 20
-1367.488064668981
 10
-1483.0939695856512
 20
-1377.3858729091053
 10
-1482.3778384631507
 20
-1378.1020149722547
 10
-1474.0442257546049
 20
-1377.9738671502378
 10
-1468.6731766919604
 20
-1373.7637194148585
 10
-1466.7961333015487
 20
-1378.8859999999997
 10
-1454.8969083729085
 20
-1378.8859999999997
 10
-1459.9174190408314
 20
-1366.9038449517609
 10
-1454.7649860269803
 20
-1362.8633100981951
 10
-1456.8493218944466
 20
-1355.9619815159476
 10
-1462.5558331374575
 20
-1360.6168885154418
 10
-1464.7758658747648
 20
-1355.3099188341303
 10
-1454.3767570963716
 20
-1355.3099188341303
 10
-1454.3767570963716
 20
-1352.4453615221826
 10
-1454.3767570963716
 20
-1348.5367380738967
 10
-1454.3767570963716
 20
-1345.1520404260616
  0
ENDBLK
  5
74
100
AcDbEntity
  8
FRAME
100
AcDbBlockEnd
  0
BLOCK
  5
75
100
AcDbEntity
  8
FRAME
100
AcDbBlockBegin
  2
*U6
 70
               1
 10
0.0
 20
0.0
 30
0.0
  3
*U6
  1

  0
LWPOLYLINE
  5
76
100
AcDbEntity
  8
FRAME
  6
CONTINUOUS
 62
               0
100
AcDbPolyline
 90
       10
 70
             129
 10
-1890.8075724885466
 20
-1295.5310659388631
 10
-1890.8075724885466
 20
-1303.9702121478929
 10
-1927.6774721734662
 20
-1295.3426132594293
 10
-1964.2760000000001
 20
-1295.3426132594293
 10
-1964.2760000000001
 20
-1378.8859999999997
 10
-1929.0796038710548
 20
-1378.8859999999997
 10
-1929.0796038710548
 20
-1370.6315428871403
 10
-1893.8115902535999
 20
-1378.8859999999997
 10
-1855.9843181352057
 20
-1378.8859999999997
 10
-1855.9843181352057
 20
-1295.5310659388631
  0
SPLINE
  5
77
100
AcDbEntity
  8
FRAME
  6
CONTINUOUS
 62
               0
100
AcDbSpline
210
0.0
220
0.0
230
1.0
 70
               9
 71
               2
 72
             107
 73
             104
 74
               0
 42
0.000001
 43
0.000001
 40
0.0
 40
0.0
 40
0.0
 40
0.0003765905969515
 40
0.0003765905969515
 40
0.0143604422883839
 40
0.0143604422883839
 40
0.0346322236208433
 40
0.0346322236208433
 40
0.0350235091012373
 40
0.0350235091012373
 40
0.03955091875155
 40
0.03955091875155
 40
0.0523198084587713
 40
0.0523198084587713
 40
0.0716099717453309
 40
0.0716099717453309
 40
0.088821307037026
 40
0.088821307037026
 40
0.1081003173462627
 40
0.1081003173462627
 40
0.137639785470028
 40
0.137639785470028
 40
0.1733609950596557
 40
0.1733609950596557
 40
0.2090821149689121
 40
0.2090821149689121
 40
0.242620769393104
 40
0.242620769393104
 40
0.2717922268276777
 40
0.2717922268276777
 40
0.2944214671593592
 40
0.2944214671593592
 40
0.3071703961999702
 40
0.3071703961999702
 40
0.3116751603979877
 40
0.3116751603979877
 40
0.3150341278643261
 40
0.3150341278643261
 40
0.3245075991029287
 40
0.3245075991029287
 40
0.3412955502219136
 40
0.3412955502219136
 40
0.3629390225707593
 40
0.3629390225707593
 40
0.3878217666752017
 40
0.3878217666752017
 40
0.4143239651403261
 40
0.4408261667706415
 40
0.4408261667706415
 40
0.465708882715716
 40
0.465708882715716
 40
0.4873526244634798
 40
0.4873526244634798
 40
0.5041377837587512
 40
0.5041377837587512
 40
0.5135886206223482
 40
0.5135886206223482
 40
0.516928046260869
 40
0.516928046260869
 40
0.5217879486534964
 40
0.5217879486534964
 40
0.5355011054525221
 40
0.5355011054525221
 40
0.5598166058174023
 40
0.5598166058174023
 40
0.5911702444716982
 40
0.5911702444716982
 40
0.6272159282628705
 40
0.6272159282628705
 40
0.6656076599412991
 40
0.6656076599412991
 40
0.7039992952348344
 40
0.7039992952348344
 40
0.7400453036511466
 40
0.7400453036511466
 40
0.7713976228856498
 40
0.7713976228856498
 40
0.7957186280498493
 40
0.7957186280498493
 40
0.8094206686172683
 40
0.8094206686172683
 40
0.8142622095491502
 40
0.8142622095491502
 40
0.8242370939273971
 40
0.8242370939273971
 40
0.8410537029973061
 40
0.8410537029973061
 40
0.8606395975404642
 40
0.8606395975404642
 40
0.8831565044058624
 40
0.8831565044058624
 40
0.9071389332484553
 40
0.9071389332484553
 40
0.9311213018816343
 40
0.9311213018816343
 40
0.9536384115328663
 40
0.9536384115328663
 40
0.9732234818649284
 40
0.9732234818649284
 40
0.9884162525535761
 40
0.9884162525535761
 40
0.9969756011044266
 40
0.9969756011044266
 40
1.0
 40
1.0
 40
1.0
 10
-1935.4306325231494
 20
-1355.5398357898546
 30
0.0
 10
-1935.4343811966519
 20
-1355.5548304838624
 30
0.0
 10
-1935.4381298701544
 20
-1355.5698251778701
 30
0.0
 10
-1935.5570379249764
 20
-1356.0190208059907
 30
0.0
 10
-1935.8545452689107
 20
-1356.6375060763048
 30
0.0
 10
-1936.152052612845
 20
-1357.2559913466187
 30
0.0
 10
-1936.9098222148552
 20
-1357.9089564740325
 30
0.0
 10
-1936.922174401313
 20
-1357.9192192359153
 30
0.0
 10
-1936.9345265877707
 20
-1357.9294819977981
 30
0.0
 10
-1937.0192569131018
 20
-1357.9737512127181
 30
0.0
 10
-1937.2639103092856
 20
-1358.1015757399375
 30
0.0
 10
-1937.5085637054692
 20
-1358.229400267157
 30
0.0
 10
-1938.1928884085139
 20
-1358.586940701894
 30
0.0
 10
-1938.8772131115586
 20
-1358.9444811366311
 30
0.0
 10
-1939.5963102904977
 20
-1359.3201892132677
 30
0.0
 10
-1940.3154074694369
 20
-1359.6958972899042
 30
0.0
 10
-1940.8484907001555
 20
-1359.9744183037064
 30
0.0
 10
-1941.3815739308741
 20
-1360.2529393175089
 30
0.0
 10
-1942.2511011669017
 20
-1360.7072428734114
 30
0.0
 10
-1943.1206284029292
 20
-1361.1615464293136
 30
0.0
 10
-1944.4001931850053
 20
-1361.8300830851167
 30
0.0
 10
-1945.6797579670811
 20
-1362.4986197409196
 30
0.0
 10
-1946.9990269244763
 20
-1363.1879007130424
 30
0.0
 10
-1948.3182958818718
 20
-1363.8771816851652
 30
0.0
 10
-1949.5978541394095
 20
-1364.545714932081
 30
0.0
 10
-1950.8774123969472
 20
-1365.2142481789965
 30
0.0
 10
-1952.0378999188044
 20
-1365.8205703112026
 30
0.0
 10
-1953.1983874406617
 20
-1366.4268924434089
 30
0.0
 10
-1954.1602179668619
 20
-1366.9294218756372
 30
0.0
 10
-1955.122048493062
 20
-1367.4319513078658
 30
0.0
 10
-1955.8065685229651
 20
-1367.7895937953995
 30
0.0
 10
-1956.4910885528682
 20
-1368.1472362829331
 30
0.0
 10
-1956.7340944190221
 20
-1368.2742000219912
 30
0.0
 10
-1956.977100285176
 20
-1368.4011637610492
 30
0.0
 10
-1957.0618306105077
 20
-1368.4454329759699
 30
0.0
 10
-1957.0618306105077
 20
-1368.3745070294833
 30
0.0
 10
-1957.0618306105077
 20
-1368.1697128944759
 30
0.0
 10
-1957.0618306105077
 20
-1367.9649187594684
 30
0.0
 10
-1957.0618306105077
 20
-1367.3920851597286
 30
0.0
 10
-1957.0618306105077
 20
-1366.8192515599887
 30
0.0
 10
-1957.0618306105077
 20
-1366.0140500054645
 30
0.0
 10
-1957.0618306105077
 20
-1365.2088484509402
 30
0.0
 10
-1957.0618306105077
 20
-1364.2374504939658
 30
0.0
 10
-1957.0618306105077
 20
-1363.2660525369915
 30
0.0
 10
-1957.0618306105077
 20
-1362.1949560962007
 30
0.0
 10
-1957.0618306105077
 20
-1361.1238596554097
 30
0.0
 10
-1957.0618306105077
 20
-1358.9151986547779
 30
0.0
 10
-1957.0618306105077
 20
-1357.8441019541729
 30
0.0
 10
-1957.0618306105077
 20
-1356.7730052535678
 30
0.0
 10
-1957.0618306105077
 20
-1355.8016098678631
 30
0.0
 10
-1957.0618306105077
 20
-1354.8302144821587
 30
0.0
 10
-1957.0618306105077
 20
-1354.0249882428154
 30
0.0
 10
-1957.0618306105077
 20
-1353.2197620034722
 30
0.0
 10
-1957.0618306105077
 20
-1352.6471822547667
 30
0.0
 10
-1957.0618306105077
 20
-1352.0746025060612
 30
0.0
 10
-1957.0618306105077
 20
-1351.8714124575504
 30
0.0
 10
-1957.0618306105077
 20
-1351.6682224090396
 30
0.0
 10
-1957.0618306105077
 20
-1351.5972964625539
 30
0.0
 10
-1956.9707693114294
 20
-1351.5497110232905
 30
0.0
 10
-1956.7082704606157
 20
-1351.4125383357857
 30
0.0
 10
-1956.445771609802
 20
-1351.275365648281
 30
0.0
 10
-1955.7106319523386
 20
-1350.8912074617097
 30
0.0
 10
-1954.9754922948755
 20
-1350.5070492751383
 30
0.0
 10
-1953.941668039248
 20
-1349.9668089993716
 30
0.0
 10
-1952.9078437836206
 20
-1349.426568723605
 30
0.0
 10
-1951.6606763059403
 20
-1348.7748427668939
 30
0.0
 10
-1950.4135088282601
 20
-1348.1231168101831
 30
0.0
 10
-1949.0383361158388
 20
-1347.4044998099125
 30
0.0
 10
-1947.6631634034172
 20
-1346.685882809642
 30
0.0
 10
-1946.2453198553844
 20
-1345.944967528138
 30
0.0
 10
-1944.8274763073518
 20
-1345.2040522466343
 30
0.0
 10
-1943.4523106069755
 20
-1344.4854389106129
 30
0.0
 10
-1942.0771449065994
 20
-1343.7668255745914
 30
0.0
 10
-1940.8299468002444
 20
-1343.1150836124102
 30
0.0
 10
-1939.5827486938895
 20
-1342.4633416502288
 30
0.0
 10
-1938.5490510553377
 20
-1341.9231675401024
 30
0.0
 10
-1937.515353416786
 20
-1341.3829934299761
 30
0.0
 10
-1936.7796866655472
 20
-1340.9985598026949
 30
0.0
 10
-1936.0440199143086
 20
-1340.6141261754137
 30
0.0
 10
-1935.782856868268
 20
-1340.4776515326057
 30
0.0
 10
-1935.5216938222277
 20
-1340.3411768897977
 30
0.0
 10
-1935.4306325231494
 20
-1340.293591450534
 30
0.0
 10
-1935.4306325231494
 20
-1340.4606568940771
 30
0.0
 10
-1935.4306325231494
 20
-1341.1123775689543
 30
0.0
 10
-1935.4306325231494
 20
-1341.7640982438318
 30
0.0
 10
-1935.4306325231494
 20
-1342.4927651046105
 30
0.0
 10
-1935.4306325231494
 20
-1343.2214319653895
 30
0.0
 10
-1935.4306325231494
 20
-1344.1004688093026
 30
0.0
 10
-1935.4306325231494
 20
-1344.9795056532155
 30
0.0
 10
-1935.4306325231494
 20
-1345.9487639946942
 30
0.0
 10
-1935.4306325231494
 20
-1346.9180223361727
 30
0.0
 10
-1935.4306325231494
 20
-1347.9173562186945
 30
0.0
 10
-1935.4306325231494
 20
-1348.9166901012163
 30
0.0
 10
-1935.4306325231494
 20
-1349.8859435004188
 30
0.0
 10
-1935.4306325231494
 20
-1350.855196899621
 30
0.0
 10
-1935.4306325231494
 20
-1351.7342553314395
 30
0.0
 10
-1935.4306325231494
 20
-1352.613313763258
 30
0.0
 10
-1935.4306325231494
 20
-1353.341891380951
 30
0.0
 10
-1935.4306325231494
 20
-1354.0704689986437
 30
0.0
 10
-1935.4306325231494
 20
-1354.5889865119318
 30
0.0
 10
-1935.4306325231494
 20
-1355.1075040252199
 30
0.0
 10
-1935.4306325231494
 20
-1355.2915786934955
 30
0.0
 10
-1935.4306325231494
 20
-1355.4756533617708
 30
0.0
 10
-1935.4306325231494
 20
-1355.5398357898546
 30
0.0
  0
LWPOLYLINE
  5
78
100
AcDbEntity
  8
FRAME
  6
CONTINUOUS
 62
               0
100
AcDbPolyline
 90
        4
 70
             129
 10
-1935.4306287480567
 20
-1335.7178312476713
 10
-1957.061834499566
 20
-1335.7178312476713
 10
-1957.061834499566
 20
-1325.0096600750053
 10
-1935.4306287480567
 20
-1325.0096600750053
  0
LWPOLYLINE
  5
79
100
AcDbEntity
  8
FRAME
  6
CONTINUOUS
 62
               0
100
AcDbPolyline
 90
        4
 70
             129
 10
-1935.4306287480567
 20
-1319.9552115138113
 10
-1957.061834499566
 20
-1318.3495509224324
 10
-1957.061834499566
 20
-1307.637605225854
 10
-1935.4306287480567
 20
-1309.2470403411453
  0
LWPOLYLINE
  5
7A
100
AcDbEntity
  8
FRAME
  6
CONTINUOUS
 62
               0
100
AcDbPolyline
 90
        3
 70
             129
 10
-1911.3419453534757
 20
-1366.489238116355
 10
-1911.3419453534757
 20
-1366.4854745330917
 10
-1911.3381708295626
 20
-1366.4854745330917
  0
SPLINE
  5
7B
100
AcDbEntity
  8
FRAME
  6
CONTINUOUS
 62
               0
100
AcDbSpline
210
0.0
220
0.0
230
1.0
 70
               9
 71
               2
 72
             106
 73
             103
 74
               0
 42
0.000001
 43
0.000001
 40
0.0
 40
0.0
 40
0.0
 40
0.0003687219168034
 40
0.0003687219168034
 40
0.0138428385244524
 40
0.0138428385244524
 40
0.0327049076513207
 40
0.0327049076513207
 40
0.0330609961700133
 40
0.0330609961700133
 40
0.036385211204986
 40
0.036385211204986
 40
0.0457606683478238
 40
0.0457606683478238
 40
0.0623749285559117
 40
0.0623749285559117
 40
0.0837944739704548
 40
0.0837944739704548
 40
0.1084197771008133
 40
0.1084197771008133
 40
0.1346477794499621
 40
0.160875784931545
 40
0.160875784931545
 40
0.1855010601938635
 40
0.1855010601938635
 40
0.2069208722200863
 40
0.2069208722200863
 40
0.2235323694891389
 40
0.2235323694891389
 40
0.2328854264359455
 40
0.2328854264359455
 40
0.2361903018260684
 40
0.2361903018260684
 40
0.2407821203975564
 40
0.2407821203975564
 40
0.253738826721319
 40
0.253738826721319
 40
0.2767130260220596
 40
0.2767130260220596
 40
0.3063371230975058
 40
0.3063371230975058
 40
0.3403944408957454
 40
0.3403944408957454
 40
0.3766683929775471
 40
0.3766683929775471
 40
0.4129422539912822
 40
0.4129422539912822
 40
0.4469998785075716
 40
0.4469998785075716
 40
0.4766227289455675
 40
0.4766227289455675
 40
0.4996021293877477
 40
0.4996021293877477
 40
0.5125483326777894
 40
0.5125483326777894
 40
0.5171228026505467
 40
0.5171228026505467
 40
0.5207479929523978
 40
0.5207479929523978
 40
0.5309723063473322
 40
0.5309723063473322
 40
0.5490908258610446
 40
0.5490908258610446
 40
0.5724497023146169
 40
0.5724497023146169
 40
0.5993045865953633
 40
0.5993045865953633
 40
0.6279072788860122
 40
0.6565099745927024
 40
0.6565099745927024
 40
0.6833648284822231
 40
0.6833648284822231
 40
0.706723995686568
 40
0.706723995686568
 40
0.7248395021040498
 40
0.7248395021040498
 40
0.7350393871835614
 40
0.7350393871835614
 40
0.7386434868242499
 40
0.7386434868242499
 40
0.7429153374910691
 40
0.7429153374910691
 40
0.7549691923390614
 40
0.7549691923390614
 40
0.7763424994666571
 40
0.7763424994666571
 40
0.8039023250293631
 40
0.8039023250293631
 40
0.8355864548532332
 40
0.8355864548532332
 40
0.8693327590628994
 40
0.8693327590628994
 40
0.9030789785503195
 40
0.9030789785503195
 40
0.9347633937194478
 40
0.9347633937194478
 40
0.9623220595131193
 40
0.9623220595131193
 40
0.9837002053553192
 40
0.9837002053553192
 40
0.9957442890438132
 40
0.9957442890438132
 40
1.0
 40
1.0
 40
1.0
 10
-1911.1459471638816
 20
-1365.4715672692396
 30
0.0
 10
-1911.1561484721001
 20
-1365.4839194556967
 30
0.0
 10
-1911.1663497803188
 20
-1365.4962716421539
 30
0.0
 10
-1911.4780257371992
 20
-1365.8620334521092
 30
0.0
 10
-1912.0230299711616
 20
-1366.2913333438055
 30
0.0
 10
-1912.5680342051239
 20
-1366.7206332355017
 30
0.0
 10
-1913.501834825752
 20
-1366.9716102375837
 30
0.0
 10
-1913.5168295197598
 20
-1366.9754203647499
 30
0.0
 10
-1913.5318242137675
 20
-1366.9792304919163
 30
0.0
 10
-1913.6061298530049
 20
-1366.9792304919163
 30
0.0
 10
-1913.8206826347146
 20
-1366.9792304919163
 30
0.0
 10
-1914.0352354164243
 20
-1366.9792304919163
 30
0.0
 10
-1914.6353651138697
 20
-1366.9792304919163
 30
0.0
 10
-1915.2354948113152
 20
-1366.9792304919163
 30
0.0
 10
-1916.079065030518
 20
-1366.9792304919163
 30
0.0
 10
-1916.9226352497205
 20
-1366.9792304919163
 30
0.0
 10
-1917.940321297262
 20
-1366.9792304919163
 30
0.0
 10
-1918.9580073448037
 20
-1366.9792304919163
 30
0.0
 10
-1920.0801426092835
 20
-1366.9792304919163
 30
0.0
 10
-1921.2022778737635
 20
-1366.9792304919163
 30
0.0
 10
-1923.5161837945602
 20
-1366.9792304919163
 30
0.0
 10
-1924.6383193312336
 20
-1366.9792304919163
 30
0.0
 10
-1925.7604548679071
 20
-1366.9792304919163
 30
0.0
 10
-1926.7781382216554
 20
-1366.9792304919163
 30
0.0
 10
-1927.7958215754036
 20
-1366.9792304919163
 30
0.0
 10
-1928.6394176556819
 20
-1366.9792304919163
 30
0.0
 10
-1929.4830137359604
 20
-1366.9792304919163
 30
0.0
 10
-1930.0828774861147
 20
-1366.9792304919163
 30
0.0
 10
-1930.6827412362688
 20
-1366.9792304919163
 30
0.0
 10
-1930.895613495145
 20
-1366.9792304919163
 30
0.0
 10
-1931.1084857540209
 20
-1366.9792304919163
 30
0.0
 10
-1931.1827913932575
 20
-1366.9792304919163
 30
0.0
 10
-1931.1351900868926
 20
-1366.8881533257356
 30
0.0
 10
-1930.9979716599114
 20
-1366.6256087354461
 30
0.0
 10
-1930.8607532329304
 20
-1366.3630641451566
 30
0.0
 10
-1930.476466950932
 20
-1365.6277963922664
 30
0.0
 10
-1930.0921806689337
 20
-1364.8925286393762
 30
0.0
 10
-1929.5517602530285
 20
-1363.8585242436097
 30
0.0
 10
-1929.0113398371232
 20
-1362.8245198478432
 30
0.0
 10
-1928.3593965659884
 20
-1361.5771350557397
 30
0.0
 10
-1927.7074532948538
 20
-1360.329750263636
 30
0.0
 10
-1926.9885966757104
 20
-1358.9543379323413
 30
0.0
 10
-1926.2697400565669
 20
-1357.5789256010464
 30
0.0
 10
-1925.5285777209515
 20
-1356.1608349989024
 30
0.0
 10
-1924.7874153853359
 20
-1354.7427443967581
 30
0.0
 10
-1924.0685624316629
 20
-1353.3673390787305
 30
0.0
 10
-1923.3497094779902
 20
-1351.991933760703
 30
0.0
 10
-1922.6977501960478
 20
-1350.7445183345872
 30
0.0
 10
-1922.0457909141053
 20
-1349.4971029084716
 30
0.0
 10
-1921.5054366859031
 20
-1348.4632251518442
 30
0.0
 10
-1920.9650824577009
 20
-1347.4293473952171
 30
0.0
 10
-1920.5805206431485
 20
-1346.6935524567064
 30
0.0
 10
-1920.1959588285961
 20
-1345.9577575181956
 30
0.0
 10
-1920.0594386790715
 20
-1345.6965489654388
 30
0.0
 10
-1919.9229185295469
 20
-1345.4353404126819
 30
0.0
 10
-1919.8753172231807
 20
-1345.3442632465019
 30
0.0
 10
-1919.7942839326442
 20
-1345.3442632465019
 30
0.0
 10
-1919.5603054880166
 20
-1345.3442632465019
 30
0.0
 10
-1919.3263270433893
 20
-1345.3442632465019
 30
0.0
 10
-1918.6718614519189
 20
-1345.3442632465019
 30
0.0
 10
-1918.0173958604485
 20
-1345.3442632465019
 30
0.0
 10
-1917.0974485810405
 20
-1345.3442632465019
 30
0.0
 10
-1916.1775013016324
 20
-1345.3442632465019
 30
0.0
 10
-1915.0676737029148
 20
-1345.3442632465019
 30
0.0
 10
-1913.9578461041972
 20
-1345.3442632465019
 30
0.0
 10
-1912.7341124301211
 20
-1345.3442632465019
 30
0.0
 10
-1911.5103787560449
 20
-1345.3442632465019
 30
0.0
 10
-1908.986971210132
 20
-1345.3442632465019
 30
0.0
 10
-1907.7632372392181
 20
-1345.3442632465019
 30
0.0
 10
-1906.5395032683043
 20
-1345.3442632465019
 30
0.0
 10
-1905.4296786072769
 20
-1345.3442632465019
 30
0.0
 10
-1904.3198539462492
 20
-1345.3442632465019
 30
0.0
 10
-1903.3998784642968
 20
-1345.3442632465019
 30
0.0
 10
-1902.4799029823446
 20
-1345.3442632465019
 30
0.0
 10
-1901.8257274171001
 20
-1345.3442632465019
 30
0.0
 10
-1901.1715518518556
 20
-1345.3442632465019
 30
0.0
 10
-1900.9394060850227
 20
-1345.3442632465019
 30
0.0
 10
-1900.70726031819
 20
-1345.3442632465019
 30
0.0
 10
-1900.6262270276536
 20
-1345.3442632465019
 30
0.0
 10
-1900.6705121096759
 20
-1345.4289935718334
 30
0.0
 10
-1900.7981709862433
 20
-1345.6732423718586
 30
0.0
 10
-1900.9258298628108
 20
-1345.917491171884
 30
0.0
 10
-1901.2833442004967
 20
-1346.6015207538417
 30
0.0
 10
-1901.6408585381828
 20
-1347.2855503357991
 30
0.0
 10
-1902.1436296651136
 20
-1348.2474986761104
 30
0.0
 10
-1902.6464007920445
 20
-1349.2094470164216
 30
0.0
 10
-1903.2529253486232
 20
-1350.3699060390413
 30
0.0
 10
-1903.8594499052022
 20
-1351.5303650616609
 30
0.0
 10
-1904.5282261798784
 20
-1352.8099298437364
 30
0.0
 10
-1905.1970024545549
 20
-1354.0894946258118
 30
0.0
 10
-1905.8865304807891
 20
-1355.4087635832079
 30
0.0
 10
-1906.5760585070236
 20
-1356.7280325406043
 30
0.0
 10
-1907.2448313715909
 20
-1358.0075907981416
 30
0.0
 10
-1907.9136042361581
 20
-1359.2871490556788
 30
0.0
 10
-1908.5201436881243
 20
-1360.4476365775358
 30
0.0
 10
-1909.1266831400908
 20
-1361.6081240993926
 30
0.0
 10
-1909.6293926903954
 20
-1362.5699546255933
 30
0.0
 10
-1910.1321022407001
 20
-1363.5317851517939
 30
0.0
 10
-1910.4898729155057
 20
-1364.2163051816974
 30
0.0
 10
-1910.847643590311
 20
-1364.9008252116009
 30
0.0
 10
-1910.9746528360852
 20
-1365.1438310777542
 30
0.0
 10
-1911.1016620818591
 20
-1365.3868369439074
 30
0.0
 10
-1911.1459471638816
 20
-1365.4715672692396
 30
0.0
  0
SPLINE
  5
7C
100
AcDbEntity
  8
FRAME
  6
CONTINUOUS
 62
               0
100
AcDbSpline
210
0.0
220
0.0
230
1.0
 70
               8
 71
               2
 72
             410
 73
             407
 74
               0
 42
0.000001
 43
0.000001
 40
0.0
 40
0.0
 40
0.0
 40
0.0023844785176215
 40
0.0023844785176215
 40
0.0076716774181597
 40
0.0076716774181597
 40
0.0139752913569056
 40
0.0139752913569056
 40
0.0214744903236628
 40
0.0214744903236628
 40
0.033282875116352
 40
0.033282875116352
 40
0.0474637787181729
 40
0.0474637787181729
 40
0.0608548505524835
 40
0.0608548505524835
 40
0.0718842806135508
 40
0.0718842806135508
 40
0.0783615765119823
 40
0.0783615765119823
 40
0.080729689963601
 40
0.080729689963601
 40
0.0822924975045522
 40
0.0822924975045522
 40
0.08654722661627
 40
0.08654722661627
 40
0.0937753110603819
 40
0.0937753110603819
 40
0.1025523410448059
 40
0.1025523410448059
 40
0.1118465029270046
 40
0.1118465029270046
 40
0.120623703061269
 40
0.120623703061269
 40
0.1278500053937071
 40
0.1278500053937071
 40
0.1320902847021568
 40
0.1320902847021568
 40
0.1336406167433182
 40
0.1336406167433182
 40
0.1371163685869794
 40
0.1371163685869794
 40
0.1427002213099997
 40
0.1427002213099997
 40
0.148799741829807
 40
0.148799741829807
 40
0.1552586216828239
 40
0.1552586216828239
 40
0.1613577622248844
 40
0.1613577622248844
 40
0.1663812618277259
 40
0.1663812618277259
 40
0.1693314317996177
 40
0.1693314317996177
 40
0.1704100203502339
 40
0.1704100203502339
 40
0.1723920948453705
 40
0.1723920948453705
 40
0.1755736410901272
 40
0.1755736410901272
 40
0.1790476998356649
 40
0.1790476998356649
 40
0.1827264458837706
 40
0.1827264458837706
 40
0.1862005719767529
 40
0.1862005719767529
 40
0.1893901245327589
 40
0.1893901245327589
 40
0.1913528299612029
 40
0.1913528299612029
 40
0.1942228730479662
 40
0.1942228730479662
 40
0.1988297507548359
 40
0.1988297507548359
 40
0.203860186447397
 40
0.203860186447397
 40
0.2091870092732997
 40
0.2091870092732997
 40
0.2142175424849362
 40
0.2142175424849362
 40
0.2188360133273358
 40
0.2188360133273358
 40
0.2216780100131761
 40
0.2216780100131761
 40
0.2216878335246915
 40
0.2216878335246915
 40
0.2234719646175021
 40
0.2234719646175021
 40
0.2263357800757075
 40
0.2263357800757075
 40
0.2294628957524251
 40
0.2294628957524251
 40
0.2327742572694022
 40
0.2327742572694022
 40
0.2359014335677916
 40
0.2359014335677916
 40
0.2387724557727037
 40
0.2387724557727037
 40
0.2405391521251916
 40
0.2405391521251916
 40
0.2420955321824609
 40
0.2420955321824609
 40
0.2463327625291566
 40
0.2463327625291566
 40
0.2535311194517418
 40
0.2535311194517418
 40
0.262272051442317
 40
0.262272051442317
 40
0.2715279884809131
 40
0.2715279884809131
 40
0.2802690899215397
 40
0.2802690899215397
 40
0.2874656720618826
 40
0.2874656720618826
 40
0.2916885120341706
 40
0.2916885120341706
 40
0.293232467900636
 40
0.293232467900636
 40
0.2950144523484007
 40
0.2950144523484007
 40
0.2978772397850765
 40
0.2978772397850765
 40
0.3010044051277194
 40
0.3010044051277194
 40
0.3043158105345956
 40
0.3043158105345956
 40
0.3074427810663094
 40
0.3074427810663094
 40
0.3103151710084725
 40
0.3103151710084725
 40
0.3120837865011361
 40
0.3120837865011361
 40
0.3120936100126515
 40
0.3120936100126515
 40
0.31210343352417
 40
0.31210343352417
 40
0.3133017649254618
 40
0.3133017649254618
 40
0.3165642111096244
 40
0.3165642111096244
 40
0.3221065701868571
 40
0.3221065701868571
 40
0.3288366315442531
 40
0.3288366315442531
 40
0.3359632199054398
 40
0.3359632199054398
 40
0.342693411730531
 40
0.342693411730531
 40
0.3482344043180801
 40
0.3482344043180801
 40
0.3514857706651253
 40
0.3514857706651253
 40
0.3526745360880392
 40
0.3526745360880392
 40
0.3553981214894447
 40
0.3553981214894447
 40
0.3597736064043828
 40
0.3597736064043828
 40
0.3645531665659101
 40
0.3645531665659101
 40
0.3696143192800166
 40
0.3696143192800166
 40
0.3743935816924822
 40
0.3743935816924822
 40
0.3787837430788124
 40
0.3787837430788124
 40
0.3814868953664481
 40
0.3814868953664481
 40
0.3826852267677387
 40
0.3826852267677387
 40
0.3859476729519013
 40
0.3859476729519013
 40
0.3914900320291335
 40
0.3914900320291335
 40
0.3982200933865295
 40
0.3982200933865295
 40
0.4053466817477162
 40
0.4053466817477162
 40
0.4120768735728079
 40
0.4120768735728079
 40
0.4176178661603582
 40
0.4176178661603582
 40
0.4208692325074034
 40
0.4208692325074034
 40
0.4220579979303173
 40
0.4220579979303173
 40
0.423561402214284
 40
0.423561402214284
 40
0.4259766460183356
 40
0.4259766460183356
 40
0.4286149371542088
 40
0.4286149371542088
 40
0.4321560671893361
 40
0.4321560671893361
 40
0.4359763114338625
 40
0.4359763114338625
 40
0.4379622630758152
 40
0.4379622630758152
 40
0.4391605944771069
 40
0.4391605944771069
 40
0.4424230406612695
 40
0.4424230406612695
 40
0.4479653997385023
 40
0.4479653997385023
 40
0.4546954610958983
 40
0.4546954610958983
 40
0.461822049457085
 40
0.461822049457085
 40
0.4685522412821762
 40
0.4685522412821762
 40
0.4740932338697253
 40
0.4740932338697253
 40
0.4773446002167704
 40
0.4773446002167704
 40
0.4785333656396844
 40
0.4785333656396844
 40
0.4804147103458691
 40
0.4804147103458691
 40
0.48343712167818
 40
0.48343712167818
 40
0.4867386521545717
 40
0.4867386521545717
 40
0.4902346955909091
 40
0.4902346955909091
 40
0.4935360203940654
 40
0.4935360203940654
 40
0.4965685696503577
 40
0.4965685696503577
 40
0.4984357999724677
 40
0.4984357999724677
 40
0.5022709202274279
 40
0.5022709202274279
 40
0.5084321042365317
 40
0.5084321042365317
 40
0.515162272483076
 40
0.515162272483076
 40
0.5222889553024595
 40
0.5222889553024595
 40
0.5290187042842135
 40
0.5290187042842135
 40
0.5345615985828334
 40
0.5345615985828334
 40
0.5378167954794184
 40
0.5378167954794184
 40
0.5390069025363369
 40
0.5390069025363369
 40
0.5406442352732991
 40
0.5406442352732991
 40
0.5451018585435907
 40
0.5451018585435907
 40
0.5526746267672975
 40
0.5526746267672975
 40
0.5618702046937154
 40
0.5618702046937154
 40
0.5716075748519802
 40
0.5716075748519802
 40
0.5808033310421308
 40
0.5808033310421308
 40
0.5883742321710664
 40
0.5883742321710664
 40
0.5928167165740841
 40
0.5928167165740841
 40
0.59444097889535
 40
0.59444097889535
 40
0.5944606259183862
 40
0.5944606259183862
 40
0.5944704494299047
 40
0.5944704494299047
 40
0.5957607592946841
 40
0.5957607592946841
 40
0.5992736159970986
 40
0.5992736159970986
 40
0.6052413813279586
 40
0.6052413813279586
 40
0.612488011559518
 40
0.612488011559518
 40
0.6201616044026653
 40
0.6201616044026653
 40
0.6274083751160278
 40
0.6274083751160278
 40
0.6333746690716775
 40
0.6333746690716775
 40
0.6368755954991127
 40
0.6368755954991127
 40
0.6381556051445604
 40
0.6381556051445604
 40
0.6400140402851897
 40
0.6400140402851897
 40
0.6429971256118616
 40
0.6429971256118616
 40
0.6462544768714509
 40
0.6462544768714509
 40
0.6497037472929398
 40
0.6497037472929398
 40
0.6529611616989228
 40
0.6529611616989228
 40
0.6559517539130542
 40
0.6559517539130542
 40
0.6577920282054087
 40
0.6577920282054087
 40
0.6603016766200928
 40
0.6603016766200928
 40
0.6671383731250489
 40
0.6671383731250489
 40
0.6787624834460497
 40
0.6787624834460497
 40
0.6928811705375857
 40
0.6928811705375857
 40
0.70783167415675
 40
0.70783167415675
 40
0.7219494817058838
 40
0.7219494817058838
 40
0.7335774807865728
 40
0.7335774807865728
 40
0.7404063006199899
 40
0.7404063006199899
 40
0.7429029319858831
 40
0.7429029319858831
 40
0.7429127554974015
 40
0.7429127554974015
 40
0.7429324025204355
 40
0.7429324025204355
 40
0.7431040272339919
 40
0.7431040272339919
 40
0.7464102013119628
 40
0.7464102013119628
 40
0.7497015563969225
 40
0.7497015563969225
 40
0.7541141459187647
 40
0.7541141459187647
 40
0.7542940028575644
 40
0.7542940028575644
 40
0.754441682617673
 40
0.754441682617673
 40
0.7544613296407051
 40
0.7544613296407051
 40
0.7544809766637384
 40
0.7544809766637384
 40
0.7564585124124739
 40
0.7564585124124739
 40
0.7618456461889456
 40
0.7618456461889456
 40
0.7710051338576288
 40
0.7710051338576288
 40
0.7821302812230386
 40
0.7821302812230386
 40
0.7939108777382768
 40
0.7939108777382768
 40
0.8050353320478265
 40
0.8050353320478265
 40
0.8141978839550127
 40
0.8141978839550127
 40
0.8195788111252279
 40
0.8195788111252279
 40
0.8215460897880789
 40
0.8215460897880789
 40
0.8238876235431409
 40
0.8238876235431409
 40
0.829079599316397
 40
0.829079599316397
 40
0.8352696843632428
 40
0.8352696843632428
 40
0.84263382179909
 40
0.84263382179909
 40
0.8542295360739365
 40
0.8542295360739365
 40
0.8681550397912312
 40
0.8681550397912312
 40
0.8813049367119961
 40
0.8813049367119961
 40
0.8921357253293973
 40
0.8921357253293973
 40
0.8984963643016591
 40
0.8984963643016591
 40
0.9008218277276475
 40
0.9008218277276475
 40
0.9027054387719594
 40
0.9027054387719594
 40
0.9057289354464383
 40
0.9057289354464383
 40
0.9090304134876209
 40
0.9090304134876209
 40
0.9125264105868364
 40
0.9125264105868364
 40
0.9158279526298475
 40
0.9158279526298475
 40
0.9188590578863097
 40
0.9188590578863097
 40
0.9207242620604309
 40
0.9207242620604309
 40
0.9230618500921149
 40
0.9230618500921149
 40
0.9294298257148066
 40
0.9294298257148066
 40
0.9402569921841609
 40
0.9402569921841609
 40
0.9534077083462914
 40
0.9534077083462914
 40
0.9673332120635861
 40
0.9673332120635861
 40
0.980483108984351
 40
0.980483108984351
 40
0.9913138976017512
 40
0.9913138976017512
 40
0.9976745365740135
 40
0.9976745365740135
 40
1.0
 40
1.0
 40
1.0
 10
-1898.7152638929108
 20
-1325.1981134334817
 30
0.0
 10
-1898.9530747104818
 20
-1325.1984317492513
 30
0.0
 10
-1899.6301575487337
 20
-1325.1993380416848
 30
0.0
 10
-1900.3072403869858
 20
-1325.200244334118
 30
0.0
 10
-1901.6587875805953
 20
-1325.2020534140802
 30
0.0
 10
-1903.0103347742047
 20
-1325.2038624940424
 30
0.0
 10
-1904.0774029544373
 20
-1325.2052907916795
 30
0.0
 10
-1905.1444711346701
 20
-1325.2067190893169
 30
0.0
 10
-1906.9547488846842
 20
-1325.2091421916837
 30
0.0
 10
-1908.7650266346984
 20
-1325.2115652940504
 30
0.0
 10
-1911.4854738429963
 20
-1325.215206681163
 30
0.0
 10
-1914.2059210512941
 20
-1325.2188480682755
 30
0.0
 10
-1916.9265036712218
 20
-1325.2224896366406
 30
0.0
 10
-1919.6470862911494
 20
-1325.2261312050057
 30
0.0
 10
-1922.0644852363062
 20
-1325.2293669543842
 30
0.0
 10
-1924.4818841814629
 20
-1325.2326027037625
 30
0.0
 10
-1926.2963353098719
 20
-1325.2350313923021
 30
0.0
 10
-1928.1107864382809
 20
-1325.2374600808414
 30
0.0
 10
-1928.7815902117586
 20
-1325.2383579685882
 30
0.0
 10
-1929.4523939852361
 20
-1325.2392558563349
 30
0.0
 10
-1929.690204802808
 20
-1325.2395741721052
 30
0.0
 10
-1929.6221141659437
 20
-1325.099370544564
 30
0.0
 10
-1929.4282499753367
 20
-1324.7001899225966
 30
0.0
 10
-1929.23438578473
 20
-1324.3010093006292
 30
0.0
 10
-1928.7150803743534
 20
-1323.2317212796879
 30
0.0
 10
-1928.1957749639771
 20
-1322.1624332587469
 30
0.0
 10
-1927.5035226080358
 20
-1320.7370347612812
 30
0.0
 10
-1926.8112702520943
 20
-1319.3116362638154
 30
0.0
 10
-1926.0323335364283
 20
-1317.7077482963687
 30
0.0
 10
-1925.2533968207624
 20
-1316.1038603289219
 30
0.0
 10
-1924.4744637997285
 20
-1314.4999799689942
 30
0.0
 10
-1923.6955307786945
 20
-1312.8960996090666
 30
0.0
 10
-1923.0032462079282
 20
-1311.4706347789083
 30
0.0
 10
-1922.3109616371619
 20
-1310.0451699487498
 30
0.0
 10
-1921.7919871557792
 20
-1308.9765633349384
 30
0.0
 10
-1921.2730126743966
 20
-1307.9079567211268
 30
0.0
 10
-1921.0812396033357
 20
-1307.5130818680491
 30
0.0
 10
-1920.8894665322746
 20
-1307.1182070149716
 30
0.0
 10
-1920.8213758954109
 20
-1306.9780033874304
 30
0.0
 10
-1920.5289830065908
 20
-1306.9780033874304
 30
0.0
 10
-1919.4877735433029
 20
-1306.9780033874304
 30
0.0
 10
-1918.4465640800147
 20
-1306.9780033874304
 30
0.0
 10
-1917.3453193462849
 20
-1306.9780033874304
 30
0.0
 10
-1916.2440746125551
 20
-1306.9780033874304
 30
0.0
 10
-1915.0050098886977
 20
-1306.9780033874304
 30
0.0
 10
-1913.7659451648401
 20
-1306.9780033874304
 30
0.0
 10
-1912.5268187659121
 20
-1306.9780033874304
 30
0.0
 10
-1911.2876923669842
 20
-1306.9780033874304
 30
0.0
 10
-1910.1866551010166
 20
-1306.9780033874304
 30
0.0
 10
-1909.0856178350489
 20
-1306.9780033874304
 30
0.0
 10
-1908.2592013622289
 20
-1306.9780033874304
 30
0.0
 10
-1907.432784889409
 20
-1306.9780033874304
 30
0.0
 10
-1907.1272581768117
 20
-1306.9780033874304
 30
0.0
 10
-1906.8217314642145
 20
-1306.9780033874304
 30
0.0
 10
-1906.7134172892115
 20
-1306.9780033874304
 30
0.0
 10
-1906.7890022156191
 20
-1307.1269017761374
 30
0.0
 10
-1907.0576536101439
 20
-1307.6561311035896
 30
0.0
 10
-1907.3263050046687
 20
-1308.1853604310418
 30
0.0
 10
-1907.6102079045768
 20
-1308.7446344338653
 30
0.0
 10
-1907.8941108044846
 20
-1309.3039084366887
 30
0.0
 10
-1908.2135642386613
 20
-1309.9332151500262
 30
0.0
 10
-1908.533017672838
 20
-1310.5625218633634
 30
0.0
 10
-1908.852469591792
 20
-1311.191825591789
 30
0.0
 10
-1909.171921510746
 20
-1311.8211293202148
 30
0.0
 10
-1909.4558376224281
 20
-1312.3804293495505
 30
0.0
 10
-1909.7397537341105
 20
-1312.9397293788859
 30
0.0
 10
-1910.0097824110806
 20
-1313.4716718813929
 30
0.0
 10
-1910.2798110880506
 20
-1314.0036143838997
 30
0.0
 10
-1910.3506548139187
 20
-1314.1431728532029
 30
0.0
 10
-1910.1088613757631
 20
-1314.1431728532029
 30
0.0
 10
-1909.2494553085112
 20
-1314.1431728532029
 30
0.0
 10
-1908.390049241259
 20
-1314.1431728532029
 30
0.0
 10
-1907.48185416145
 20
-1314.1431728532029
 30
0.0
 10
-1906.5736590816407
 20
-1314.1431728532029
 30
0.0
 10
-1905.5517391321039
 20
-1314.1431728532029
 30
0.0
 10
-1904.5298191825671
 20
-1314.1431728532029
 30
0.0
 10
-1903.5079040801734
 20
-1314.1431728532029
 30
0.0
 10
-1902.4859889777797
 20
-1314.1431728532029
 30
0.0
 10
-1901.5777516339822
 20
-1314.1431728532029
 30
0.0
 10
-1900.6695142901847
 20
-1314.1431728532029
 30
0.0
 10
-1899.8057023463441
 20
-1314.1431728532029
 30
0.0
 10
-1898.9418904025035
 20
-1314.1431728532029
 30
0.0
 10
-1898.7152638929108
 20
-1314.1431728532029
 30
0.0
 10
-1898.7152638929108
 20
-1314.141078425555
 30
0.0
 10
-1898.7152638929108
 20
-1314.1394036951467
 30
0.0
 10
-1898.7152638929108
 20
-1313.9890954321654
 30
0.0
 10
-1898.7152638929108
 20
-1313.4548549906181
 30
0.0
 10
-1898.7152638929108
 20
-1312.9206145490707
 30
0.0
 10
-1898.7152638929108
 20
-1312.3560449481142
 30
0.0
 10
-1898.7152638929108
 20
-1311.7914753471575
 30
0.0
 10
-1898.7152638929108
 20
-1311.1562099169137
 30
0.0
 10
-1898.7152638929108
 20
-1310.5209444866698
 30
0.0
 10
-1898.7152638929108
 20
-1309.8856820696008
 30
0.0
 10
-1898.7152638929108
 20
-1309.2504196525317
 30
0.0
 10
-1898.7152638929108
 20
-1308.6858237786257
 30
0.0
 10
-1898.7152638929108
 20
-1308.1212279047197
 30
0.0
 10
-1898.7152638929108
 20
-1307.5842485978751
 30
0.0
 10
-1898.7152638929108
 20
-1307.0472692910305
 30
0.0
 10
-1898.7152638929108
 20
-1306.906389384354
 30
0.0
 10
-1898.5600415486113
 20
-1306.906389384354
 30
0.0
 10
-1898.1181004018135
 20
-1306.906389384354
 30
0.0
 10
-1897.6761592550156
 20
-1306.906389384354
 30
0.0
 10
-1896.4923283067537
 20
-1306.906389384354
 30
0.0
 10
-1895.3084973584921
 20
-1306.906389384354
 30
0.0
 10
-1893.7304091148585
 20
-1306.906389384354
 30
0.0
 10
-1892.1523208712249
 20
-1306.906389384354
 30
0.0
 10
-1890.3766232329617
 20
-1306.906389384354
 30
0.0
 10
-1888.6009255946985
 20
-1306.906389384354
 30
0.0
 10
-1886.8252363788779
 20
-1306.906389384354
 30
0.0
 10
-1885.049547163057
 20
-1306.906389384354
 30
0.0
 10
-1883.4713854811234
 20
-1306.906389384354
 30
0.0
 10
-1881.8932237991901
 20
-1306.906389384354
 30
0.0
 10
-1880.7101472508962
 20
-1306.906389384354
 30
0.0
 10
-1879.5270707026023
 20
-1306.906389384354
 30
0.0
 10
-1879.0898965618576
 20
-1306.906389384354
 30
0.0
 10
-1878.6527224211127
 20
-1306.906389384354
 30
0.0
 10
-1878.4975000768138
 20
-1306.906389384354
 30
0.0
 10
-1878.4975000768138
 20
-1307.0562963984189
 30
0.0
 10
-1878.4975000768138
 20
-1307.590114448125
 30
0.0
 10
-1878.4975000768138
 20
-1308.1239324978312
 30
0.0
 10
-1878.4975000768138
 20
-1308.6885300516724
 30
0.0
 10
-1878.4975000768138
 20
-1309.2531276055138
 30
0.0
 10
-1878.4975000768138
 20
-1309.888384139065
 30
0.0
 10
-1878.4975000768138
 20
-1310.5236406726162
 30
0.0
 10
-1878.4975000768138
 20
-1311.1589288263813
 30
0.0
 10
-1878.4975000768138
 20
-1311.7942169801461
 30
0.0
 10
-1878.4975000768138
 20
-1312.3587081672658
 30
0.0
 10
-1878.4975000768138
 20
-1312.9231993543858
 30
0.0
 10
-1878.4975000768138
 20
-1313.4608081316308
 30
0.0
 10
-1878.4975000768138
 20
-1313.9984169088757
 30
0.0
 10
-1878.4975000768138
 20
-1314.1394036951467
 30
0.0
 10
-1878.4975000768138
 20
-1314.1414981227945
 30
0.0
 10
-1878.4975000768138
 20
-1314.1431728532029
 30
0.0
 10
-1878.4954056491642
 20
-1314.1431728532029
 30
0.0
 10
-1878.4937309187565
 20
-1314.1431728532029
 30
0.0
 10
-1878.3742178162286
 20
-1314.1431728532029
 30
0.0
 10
-1878.0339462024563
 20
-1314.1431728532029
 30
0.0
 10
-1877.6936745886837
 20
-1314.1431728532029
 30
0.0
 10
-1876.7821865543215
 20
-1314.1431728532029
 30
0.0
 10
-1875.8706985199592
 20
-1314.1431728532029
 30
0.0
 10
-1874.6556529483321
 20
-1314.1431728532029
 30
0.0
 10
-1873.440607376705
 20
-1314.1431728532029
 30
0.0
 10
-1872.0734128863946
 20
-1314.1431728532029
 30
0.0
 10
-1870.7062183960841
 20
-1314.1431728532029
 30
0.0
 10
-1869.339030390614
 20
-1314.1431728532029
 30
0.0
 10
-1867.9718423851441
 20
-1314.1431728532029
 30
0.0
 10
-1866.7567402698596
 20
-1314.1431728532029
 30
0.0
 10
-1865.5416381545754
 20
-1314.1431728532029
 30
0.0
 10
-1864.6307309688086
 20
-1314.1431728532029
 30
0.0
 10
-1863.7198237830419
 20
-1314.1431728532029
 30
0.0
 10
-1863.3832225150932
 20
-1314.1431728532029
 30
0.0
 10
-1863.0466212471445
 20
-1314.1431728532029
 30
0.0
 10
-1862.927108144617
 20
-1314.1431728532029
 30
0.0
 10
-1862.927108144617
 20
-1314.3722907647475
 30
0.0
 10
-1862.927108144617
 20
-1315.188178383188
 30
0.0
 10
-1862.927108144617
 20
-1316.0040660016284
 30
0.0
 10
-1862.927108144617
 20
-1316.8669970206049
 30
0.0
 10
-1862.927108144617
 20
-1317.7299280395814
 30
0.0
 10
-1862.927108144617
 20
-1318.7008542578756
 30
0.0
 10
-1862.927108144617
 20
-1319.6717804761699
 30
0.0
 10
-1862.927108144617
 20
-1320.642755022805
 30
0.0
 10
-1862.927108144617
 20
-1321.61372956944
 30
0.0
 10
-1862.927108144617
 20
-1322.4764980174982
 30
0.0
 10
-1862.927108144617
 20
-1323.3392664655566
 30
0.0
 10
-1862.927108144617
 20
-1324.160947832758
 30
0.0
 10
-1862.927108144617
 20
-1324.9826291999593
 30
0.0
 10
-1862.927108144617
 20
-1325.1981134334817
 30
0.0
 10
-1863.0466212471445
 20
-1325.1981134334817
 30
0.0
 10
-1863.3868928609168
 20
-1325.1981134334817
 30
0.0
 10
-1863.7271644746888
 20
-1325.1981134334817
 30
0.0
 10
-1864.6386525090516
 20
-1325.1981134334817
 30
0.0
 10
-1865.550140543414
 20
-1325.1981134334817
 30
0.0
 10
-1866.7651861150407
 20
-1325.1981134334817
 30
0.0
 10
-1867.9802316866674
 20
-1325.1981134334817
 30
0.0
 10
-1869.3474261769782
 20
-1325.1981134334817
 30
0.0
 10
-1870.714620667289
 20
-1325.1981134334817
 30
0.0
 10
-1872.0818086727588
 20
-1325.1981134334817
 30
0.0
 10
-1873.4489966782287
 20
-1325.1981134334817
 30
0.0
 10
-1874.6640987935134
 20
-1325.1981134334817
 30
0.0
 10
-1875.8792009087981
 20
-1325.1981134334817
 30
0.0
 10
-1876.7901080945649
 20
-1325.1981134334817
 30
0.0
 10
-1877.7010152803318
 20
-1325.1981134334817
 30
0.0
 10
-1878.0376165482803
 20
-1325.1981134334817
 30
0.0
 10
-1878.3742178162286
 20
-1325.1981134334817
 30
0.0
 10
-1878.4937309187565
 20
-1325.1981134334817
 30
0.0
 10
-1878.4937309187565
 20
-1325.3245852707782
 30
0.0
 10
-1878.4937309187565
 20
-1325.7749507853553
 30
0.0
 10
-1878.4937309187565
 20
-1326.2253162999323
 30
0.0
 10
-1878.4937309187565
 20
-1326.701649514976
 30
0.0
 10
-1878.4937309187565
 20
-1327.1779827300199
 30
0.0
 10
-1878.4937309187565
 20
-1327.7139287059554
 30
0.0
 10
-1878.4937309187565
 20
-1328.2498746818906
 30
0.0
 10
-1878.4937309187565
 20
-1329.0726158494517
 30
0.0
 10
-1878.4937309187565
 20
-1329.8953570170131
 30
0.0
 10
-1878.4937309187565
 20
-1330.5383956114388
 30
0.0
 10
-1878.4937309187565
 20
-1331.1814342058644
 30
0.0
 10
-1878.4937309187565
 20
-1331.3003803272668
 30
0.0
 10
-1878.3742178162286
 20
-1331.3003803272668
 30
0.0
 10
-1878.0339462024563
 20
-1331.3003803272668
 30
0.0
 10
-1877.6936745886837
 20
-1331.3003803272668
 30
0.0
 10
-1876.7821865543215
 20
-1331.3003803272668
 30
0.0
 10
-1875.8706985199592
 20
-1331.3003803272668
 30
0.0
 10
-1874.6556529483321
 20
-1331.3003803272668
 30
0.0
 10
-1873.440607376705
 20
-1331.3003803272668
 30
0.0
 10
-1872.0734128863946
 20
-1331.3003803272668
 30
0.0
 10
-1870.7062183960841
 20
-1331.3003803272668
 30
0.0
 10
-1869.339030390614
 20
-1331.3003803272668
 30
0.0
 10
-1867.9718423851441
 20
-1331.3003803272668
 30
0.0
 10
-1866.7567402698596
 20
-1331.3003803272668
 30
0.0
 10
-1865.5416381545754
 20
-1331.3003803272668
 30
0.0
 10
-1864.6307309688086
 20
-1331.3003803272668
 30
0.0
 10
-1863.7198237830419
 20
-1331.3003803272668
 30
0.0
 10
-1863.3832225150932
 20
-1331.3003803272668
 30
0.0
 10
-1863.0466212471445
 20
-1331.3003803272668
 30
0.0
 10
-1862.927108144617
 20
-1331.3003803272668
 30
0.0
 10
-1862.927108144617
 20
-1331.458645887712
 30
0.0
 10
-1862.927108144617
 20
-1332.0222286749472
 30
0.0
 10
-1862.927108144617
 20
-1332.5858114621822
 30
0.0
 10
-1862.927108144617
 20
-1333.1818899635282
 30
0.0
 10
-1862.927108144617
 20
-1333.7779684648742
 30
0.0
 10
-1862.927108144617
 20
-1334.4486457639753
 30
0.0
 10
-1862.927108144617
 20
-1335.1193230630763
 30
0.0
 10
-1862.927108144617
 20
-1335.7900337454776
 30
0.0
 10
-1862.927108144617
 20
-1336.4607444278788
 30
0.0
 10
-1862.927108144617
 20
-1337.056710631686
 30
0.0
 10
-1862.927108144617
 20
-1337.6526768354931
 30
0.0
 10
-1862.927108144617
 20
-1338.2202617144396
 30
0.0
 10
-1862.927108144617
 20
-1338.7878465933861
 30
0.0
 10
-1862.927108144617
 20
-1338.9366945501251
 30
0.0
 10
-1863.249732411469
 20
-1338.9366945501251
 30
0.0
 10
-1864.3985956450724
 20
-1338.9366945501251
 30
0.0
 10
-1865.5474588786758
 20
-1338.9366945501251
 30
0.0
 10
-1866.7625646094552
 20
-1338.9366945501251
 30
0.0
 10
-1867.9776703402347
 20
-1338.9366945501251
 30
0.0
 10
-1869.3448456834171
 20
-1338.9366945501251
 30
0.0
 10
-1870.7120210265996
 20
-1338.9366945501251
 30
0.0
 10
-1872.0792644216222
 20
-1338.9366945501251
 30
0.0
 10
-1873.446507816645
 20
-1338.9366945501251
 30
0.0
 10
-1874.661384628947
 20
-1338.9366945501251
 30
0.0
 10
-1875.8762614412487
 20
-1338.9366945501251
 30
0.0
 10
-1876.7881235926641
 20
-1338.9366945501251
 30
0.0
 10
-1877.6999857440794
 20
-1338.9366945501251
 30
0.0
 10
-1878.037101780154
 20
-1338.9366945501251
 30
0.0
 10
-1878.3742178162286
 20
-1338.9366945501251
 30
0.0
 10
-1878.4937309187565
 20
-1338.9366945501251
 30
0.0
 10
-1878.4937598565539
 20
-1339.0999905398492
 30
0.0
 10
-1878.4938422467749
 20
-1339.5649185583761
 30
0.0
 10
-1878.4939246369956
 20
-1340.0298465769033
 30
0.0
 10
-1878.4941453362778
 20
-1341.2752526248232
 30
0.0
 10
-1878.49436603556
 20
-1342.5206586727431
 30
0.0
 10
-1878.494660235456
 20
-1344.180828687438
 30
0.0
 10
-1878.4949544353519
 20
-1345.840998702133
 30
0.0
 10
-1878.4952854751805
 20
-1347.7090564524533
 30
0.0
 10
-1878.495616515009
 20
-1349.5771142027736
 30
0.0
 10
-1878.4959475532667
 20
-1351.4451630925723
 30
0.0
 10
-1878.4962785915243
 20
-1353.3132119823711
 30
0.0
 10
-1878.496572805112
 20
-1354.9734592551431
 30
0.0
 10
-1878.4968670186995
 20
-1356.6337065279154
 30
0.0
 10
-1878.4970875773402
 20
-1357.8783189369426
 30
0.0
 10
-1878.4973081359806
 20
-1359.1229313459698
 30
0.0
 10
-1878.4973896374981
 20
-1359.5828444101426
 30
0.0
 10
-1878.4974711390155
 20
-1360.0427574743151
 30
0.0
 10
-1878.4975000768138
 20
-1360.2060534640395
 30
0.0
 10
-1878.4975000768138
 20
-1360.2102423193373
 30
0.0
 10
-1878.4975000768138
 20
-1360.213591780154
 30
0.0
 10
-1878.4954056491642
 20
-1360.213591780154
 30
0.0
 10
-1878.4937309187565
 20
-1360.213591780154
 30
0.0
 10
-1878.3650445345095
 20
-1360.213591780154
 30
0.0
 10
-1877.9986552206003
 20
-1360.213591780154
 30
0.0
 10
-1877.6322659066911
 20
-1360.213591780154
 30
0.0
 10
-1876.6508161999573
 20
-1360.213591780154
 30
0.0
 10
-1875.6693664932234
 20
-1360.213591780154
 30
0.0
 10
-1874.3610595544769
 20
-1360.213591780154
 30
0.0
 10
-1873.0527526157302
 20
-1360.213591780154
 30
0.0
 10
-1871.5806184998919
 20
-1360.213591780154
 30
0.0
 10
-1870.1084843840536
 20
-1360.213591780154
 30
0.0
 10
-1868.636357250803
 20
-1360.213591780154
 30
0.0
 10
-1867.1642301175523
 20
-1360.213591780154
 30
0.0
 10
-1865.8558622951136
 20
-1360.213591780154
 30
0.0
 10
-1864.5474944726752
 20
-1360.213591780154
 30
0.0
 10
-1863.5666701978316
 20
-1360.213591780154
 30
0.0
 10
-1862.5858459229878
 20
-1360.213591780154
 30
0.0
 10
-1862.2234086739402
 20
-1360.213591780154
 30
0.0
 10
-1861.8609714248926
 20
-1360.213591780154
 30
0.0
 10
-1861.7322850406454
 20
-1360.213591780154
 30
0.0
 10
-1861.7656520651537
 20
-1360.3665631389863
 30
0.0
 10
-1861.8842484320626
 20
-1360.9102690182683
 30
0.0
 10
-1862.0028447989714
 20
-1361.4539748975503
 30
0.0
 10
-1862.128173954786
 20
-1362.0285472949811
 30
0.0
 10
-1862.2535031106006
 20
-1362.6031196924118
 30
0.0
 10
-1862.3945260773976
 20
-1363.2496404768128
 30
0.0
 10
-1862.5355490441946
 20
-1363.8961612612138
 30
0.0
 10
-1862.6765713420953
 20
-1364.5426789790545
 30
0.0
 10
-1862.8175936399959
 20
-1365.1891966968949
 30
0.0
 10
-1862.9429286281586
 20
-1365.7637958327671
 30
0.0
 10
-1863.0682636163212
 20
-1366.3383949686392
 30
0.0
 10
-1863.1874679856362
 20
-1366.8848882392322
 30
0.0
 10
-1863.3066723549512
 20
-1367.4313815098249
 30
0.0
 10
-1863.3379463727965
 20
-1367.5747574648733
 30
0.0
 10
-1863.5886634479295
 20
-1367.5747574648733
 30
0.0
 10
-1864.3008669664778
 20
-1367.5747574648733
 30
0.0
 10
-1865.013070485026
 20
-1367.5747574648733
 30
0.0
 10
-1866.9240215959678
 20
-1367.5747574648733
 30
0.0
 10
-1868.8349727069096
 20
-1367.5747574648733
 30
0.0
 10
-1871.3840468113817
 20
-1367.5747574648733
 30
0.0
 10
-1873.9331209158536
 20
-1367.5747574648733
 30
0.0
 10
-1876.8012098198078
 20
-1367.5747574648733
 30
0.0
 10
-1879.6692987237623
 20
-1367.5747574648733
 30
0.0
 10
-1882.5375303882854
 20
-1367.5747574648733
 30
0.0
 10
-1885.4057620528085
 20
-1367.5747574648733
 30
0.0
 10
-1887.9543559273325
 20
-1367.5747574648733
 30
0.0
 10
-1890.5029498018564
 20
-1367.5747574648733
 30
0.0
 10
-1892.4158732110241
 20
-1367.5747574648733
 30
0.0
 10
-1894.3287966201915
 20
-1367.5747574648733
 30
0.0
 10
-1895.0360056605186
 20
-1367.5747574648733
 30
0.0
 10
-1895.743214700846
 20
-1367.5747574648733
 30
0.0
 10
-1895.9939317759788
 20
-1367.5747574648733
 30
0.0
 10
-1895.9939317759788
 20
-1367.5726642007398
 30
0.0
 10
-1895.9939317759788
 20
-1367.5709883068159
 30
0.0
 10
-1895.9981183042462
 20
-1367.5709883068159
 30
0.0
 10
-1896.0014700920924
 20
-1367.5709883068159
 30
0.0
 10
-1896.0343947962933
 20
-1367.570822020431
 30
0.0
 10
-1896.067319500494
 20
-1367.5706557340461
 30
0.0
 10
-1896.7906102717773
 20
-1367.5241221088888
 30
0.0
 10
-1897.2775320162973
 20
-1367.2334244413905
 30
0.0
 10
-1897.7644537608171
 20
-1366.942726773892
 30
0.0
 10
-1898.2083404565201
 20
-1366.3901015012384
 30
0.0
 10
-1898.6522271522228
 20
-1365.8374762285848
 30
0.0
 10
-1898.7114947348537
 20
-1364.8018211398423
 30
0.0
 10
-1898.7114947348537
 20
-1364.7673167149846
 30
0.0
 10
-1898.7114947348537
 20
-1364.7328122901272
 30
0.0
 10
-1898.7094014707202
 20
-1364.7014133281209
 30
0.0
 10
-1898.7077255767974
 20
-1364.676274919276
 30
0.0
 10
-1898.7077255767974
 20
-1364.6720883910091
 30
0.0
 10
-1898.7077255767974
 20
-1364.6687366031631
 30
0.0
 10
-1898.7119121050646
 20
-1364.6687366031631
 30
0.0
 10
-1898.7152638929108
 20
-1364.6687366031631
 30
0.0
 10
-1898.7152638929108
 20
-1364.4711782615279
 30
0.0
 10
-1898.7152638929108
 20
-1363.9099809599197
 30
0.0
 10
-1898.7152638929108
 20
-1363.3487836583117
 30
0.0
 10
-1898.7152638929108
 20
-1361.8430053533252
 30
0.0
 10
-1898.7152638929108
 20
-1360.3372270483389
 30
0.0
 10
-1898.7152638929108
 20
-1358.3286249117705
 30
0.0
 10
-1898.7152638929108
 20
-1356.320022775202
 30
0.0
 10
-1898.7152638929108
 20
-1354.0600455190508
 30
0.0
 10
-1898.7152638929108
 20
-1351.8000682628997
 30
0.0
 10
-1898.7152638929108
 20
-1349.5399785152429
 30
0.0
 10
-1898.7152638929108
 20
-1347.279888767586
 30
0.0
 10
-1898.7152638929108
 20
-1345.271665039357
 30
0.0
 10
-1898.7152638929108
 20
-1343.263441311128
 30
0.0
 10
-1898.7152638929108
 20
-1341.7561088879534
 30
0.0
 10
-1898.7152638929108
 20
-1340.2487764647785
 30
0.0
 10
-1898.7152638929108
 20
-1339.6915146782694
 30
0.0
 10
-1898.7152638929108
 20
-1339.1342528917603
 30
0.0
 10
-1898.7152638929108
 20
-1338.9366945501251
 30
0.0
 10
-1898.9487919164928
 20
-1338.9366945501251
 30
0.0
 10
-1899.6136810019993
 20
-1338.9366945501251
 30
0.0
 10
-1900.2785700875061
 20
-1338.9366945501251
 30
0.0
 10
-1901.605776932533
 20
-1338.9366945501251
 30
0.0
 10
-1902.9329837775597
 20
-1338.9366945501251
 30
0.0
 10
-1903.9808348623094
 20
-1338.9366945501251
 30
0.0
 10
-1905.0286859470591
 20
-1338.9366945501251
 30
0.0
 10
-1906.806361956139
 20
-1338.9366945501251
 30
0.0
 10
-1908.5840379652188
 20
-1338.9366945501251
 30
0.0
 10
-1911.2554919650925
 20
-1338.9366945501251
 30
0.0
 10
-1913.9269459649663
 20
-1338.9366945501251
 30
0.0
 10
-1916.5985329378082
 20
-1338.9366945501251
 30
0.0
 10
-1919.27011991065
 20
-1338.9366945501251
 30
0.0
 10
-1921.6439833187071
 20
-1338.9366945501251
 30
0.0
 10
-1924.0178467267642
 20
-1338.9366945501251
 30
0.0
 10
-1925.7996209548328
 20
-1338.9366945501251
 30
0.0
 10
-1927.5813951829014
 20
-1338.9366945501251
 30
0.0
 10
-1928.2401182848675
 20
-1338.9366945501251
 30
0.0
 10
-1928.898841386834
 20
-1338.9366945501251
 30
0.0
 10
-1929.1323694104176
 20
-1338.9366945501251
 30
0.0
 10
-1929.1323694104176
 20
-1338.7780053678423
 30
0.0
 10
-1929.1323694104176
 20
-1338.2139766369542
 30
0.0
 10
-1929.1323694104176
 20
-1337.6499479060658
 30
0.0
 10
-1929.1323694104176
 20
-1337.0538989162073
 30
0.0
 10
-1929.1323694104176
 20
-1336.4578499263487
 30
0.0
 10
-1929.1323694104176
 20
-1335.7871632344918
 30
0.0
 10
-1929.1323694104176
 20
-1335.1164765426349
 30
0.0
 10
-1929.1323694104176
 20
-1334.4457930319616
 30
0.0
 10
-1929.1323694104176
 20
-1333.7751095212882
 30
0.0
 10
-1929.1323694104176
 20
-1333.1790327935478
 30
0.0
 10
-1929.1323694104176
 20
-1332.5829560658074
 30
0.0
 10
-1929.1323694104176
 20
-1332.0160357554028
 30
0.0
 10
-1929.1323694104176
 20
-1331.4491154449981
 30
0.0
 10
-1929.1323694104176
 20
-1331.3003803272668
 30
0.0
 10
-1928.898841386834
 20
-1331.3003803272668
 30
0.0
 10
-1928.2354662258595
 20
-1331.3003803272668
 30
0.0
 10
-1927.5720910648849
 20
-1331.3003803272668
 30
0.0
 10
-1925.79215391515
 20
-1331.3003803272668
 30
0.0
 10
-1924.0122167654151
 20
-1331.3003803272668
 30
0.0
 10
-1921.637906051762
 20
-1331.3003803272668
 30
0.0
 10
-1919.2635953381091
 20
-1331.3003803272668
 30
0.0
 10
-1916.5921413382348
 20
-1331.3003803272668
 30
0.0
 10
-1913.9206873383607
 20
-1331.3003803272668
 30
0.0
 10
-1911.2491003655191
 20
-1331.3003803272668
 30
0.0
 10
-1908.5775133926775
 20
-1331.3003803272668
 30
0.0
 10
-1906.2036499846201
 20
-1331.3003803272668
 30
0.0
 10
-1903.8297865765628
 20
-1331.3003803272668
 30
0.0
 10
-1902.0480123484949
 20
-1331.3003803272668
 30
0.0
 10
-1900.266238120427
 20
-1331.3003803272668
 30
0.0
 10
-1899.6075150184599
 20
-1331.3003803272668
 30
0.0
 10
-1898.9487919164928
 20
-1331.3003803272668
 30
0.0
 10
-1898.7152638929108
 20
-1331.3003803272668
 30
0.0
  0
INSERT
  5
7D
100
AcDbEntity
  8
FRAME
 62
               0
100
AcDbBlockReference
  2
*U1
 10
0.0
 20
0.0
 30
0.0
  0
INSERT
  5
7E
100
AcDbEntity
  8
FRAME
 62
               0
100
AcDbBlockReference
  2
*U2
 10
0.0
 20
0.0
 30
0.0
  0
LWPOLYLINE
  5
7F
100
AcDbEntity
  8
FRAME
  6
CONTINUOUS
 62
               0
100
AcDbPolyline
 90
       22
 70
             129
 10
-1422.0788452319962
 20
-1338.4203137849793
 10
-1422.0788452319962
 20
-1329.4308748113526
 10
-1427.5780421166562
 20
-1329.4308748113526
 10
-1427.2878195200021
 20
-1318.9337706396523
 10
-1437.965849204608
 20
-1318.9337706396523
 10
-1437.5889329050897
 20
-1329.4308748113526
 10
-1446.9552881782354
 20
-1329.4308748113526
 10
-1446.9552881782354
 20
-1338.4203137849793
 10
-1437.2610088319
 20
-1338.4203137849793
 10
-1437.1818641768618
 20
-1340.5574273433356
 10
-1447.087210524164
 20
-1355.0083836063861
 10
-1447.087210524164
 20
-1373.6355606521934
 10
-1446.3032254964185
 20
-1373.6355606521934
 10
-1436.978324342424
 20
-1357.2924957250257
 10
-1437.965849204608
 20
-1378.716387118184
 10
-1427.2878195200021
 20
-1378.716387118184
 10
-1427.5478896879465
 20
-1354.345008293478
 10
-1422.5726076630881
 20
-1358.3290128135377
 10
-1422.0788452319962
 20
-1357.7259423580497
 10
-1422.0788452319962
 20
-1346.2865529078804
 10
-1427.676037509962
 20
-1342.1857022562456
 10
-1427.7175025697613
 20
-1338.4203137849793
  0
LWPOLYLINE
  5
80
100
AcDbEntity
  8
FRAME
  6
CONTINUOUS
 62
               0
100
AcDbPolyline
 90
       32
 70
             129
 10
-1388.891403898743
 20
-1378.8859999999997
 10
-1378.8616733126889
 20
-1378.8859999999997
 10
-1384.7905641877583
 20
-1353.4856421939596
 10
-1379.227287921766
 20
-1353.4856421939596
 10
-1379.227287921766
 20
-1344.3680444576676
 10
-1394.4207641527605
 20
-1344.3680444576676
 10
-1394.3001434972737
 20
-1337.462952292155
 10
-1379.227287921766
 20
-1337.462952292155
 10
-1379.227287921766
 20
-1328.3491290797754
 10
-1394.1418432465487
 20
-1328.3491290797754
 10
-1393.9722303647329
 20
-1318.7076164836824
 10
-1404.9140938005473
 20
-1318.7076164836824
 10
-1404.7444809187311
 20
-1328.3491290797754
 10
-1410.6545210555316
 20
-1328.3491290797754
 10
-1409.0790128928641
 20
-1319.0996089975558
 10
-1417.3108556841908
 20
-1319.0996089975558
 10
-1419.5007359927893
 20
-1337.462952292155
 10
-1417.0244076114502
 20
-1337.462952292155
 10
-1412.2036513134042
 20
-1337.462952292155
 10
-1404.5824061440931
 20
-1337.462952292155
 10
-1404.4655709531694
 20
-1344.3680444576676
 10
-1418.8976764779502
 20
-1344.3680444576676
 10
-1418.8976764779502
 20
-1353.4856421939596
 10
-1414.6159112540593
 20
-1353.4856421939596
 10
-1419.7608061607334
 20
-1378.8859999999997
 10
-1409.7310865153302
 20
-1378.8859999999997
 10
-1406.1541507234979
 20
-1353.4856421939596
 10
-1404.5711044536527
 20
-1353.4856421939596
 10
-1404.9140938005473
 20
-1378.882225476086
 10
-1393.9722303647329
 20
-1378.882225476086
 10
-1394.3114561283646
 20
-1353.4856421939596
 10
-1393.2523247183203
 20
-1353.4856421939596
  0
LWPOLYLINE
  5
81
100
AcDbEntity
  8
FRAME
  6
CONTINUOUS
 62
               0
100
AcDbPolyline
 90
       30
 70
             129
 10
-1539.5559677976789
 20
-1332.1672843012834
 10
-1533.3443924331343
 20
-1319.6310729051834
 10
-1533.9361502575316
 20
-1318.9375451635663
 10
-1568.7104014438955
 20
-1318.9375451635663
 10
-1573.9420009940823
 20
-1327.8478285415074
 10
-1573.6178514448065
 20
-1328.303900436711
 10
-1561.1004798463241
 20
-1328.303900436711
 10
-1557.9381508898969
 20
-1323.4643043410472
 10
-1549.0806342621984
 20
-1323.4643043410472
 10
-1553.4113917124171
 20
-1332.1672843012834
 10
-1574.2133728524682
 20
-1332.1672843012834
 10
-1574.2133728524682
 20
-1339.1703828007521
 10
-1561.1004798463241
 20
-1339.1703828007521
 10
-1561.1004798463241
 20
-1344.4396619461772
 10
-1574.2133728524682
 20
-1344.4396619461772
 10
-1574.2133728524682
 20
-1352.2832867475445
 10
-1561.1004798463241
 20
-1352.2832867475445
 10
-1561.1004798463241
 20
-1358.0463283240613
 10
-1574.2133728524682
 20
-1358.0463283240613
 10
-1574.2133728524682
 20
-1365.6524863383688
 10
-1561.1004798463241
 20
-1365.6524863383688
 10
-1561.1004798463241
 20
-1371.3891500100883
 10
-1568.5935553123209
 20
-1371.3891500100883
 10
-1567.6588081410284
 20
-1378.8859999999997
 10
-1547.7350438387646
 20
-1378.8859999999997
 10
-1546.9812112397287
 20
-1377.9474783047931
 10
-1546.9812112397287
 20
-1365.7730960532074
 10
-1528.9043269585193
 20
-1365.7730960532074
 10
-1528.2447261695243
 20
-1364.8345852986499
 10
-1528.2447261695243
 20
-1332.1672843012834
  0
LWPOLYLINE
  5
82
100
AcDbEntity
  8
FRAME
  6
CONTINUOUS
 62
               0
100
AcDbPolyline
 90
        4
 70
             129
 10
-1546.9209063823089
 20
-1339.2306876581702
 10
-1538.6777509598912
 20
-1339.2306876581702
 10
-1538.6777509598912
 20
-1344.4962032203321
 10
-1546.9209063823089
 20
-1344.4962032203321
  0
LWPOLYLINE
  5
83
100
AcDbEntity
  8
FRAME
  6
CONTINUOUS
 62
               0
100
AcDbPolyline
 90
        4
 70
             129
 10
-1538.6212206263856
 20
-1358.0463283240613
 10
-1546.864365108155
 20
-1358.0463283240613
 10
-1546.864365108155
 20
-1352.2832867475445
 10
-1538.6212206263856
 20
-1352.2832867475445
  0
INSERT
  5
84
100
AcDbEntity
  8
FRAME
 62
               0
100
AcDbBlockReference
  2
*U3
 10
0.0
 20
0.0
 30
0.0
  0
INSERT
  5
85
100
AcDbEntity
  8
FRAME
 62
               0
100
AcDbBlockReference
  2
*U4
 10
0.0
 20
0.0
 30
0.0
  0
LWPOLYLINE
  5
86
100
AcDbEntity
  8
FRAME
  6
CONTINUOUS
 62
               0
100
AcDbPolyline
 90
       35
 70
             129
 10
-1615.9982606454762
 20
-1371.4607456173012
 10
-1615.9982606454762
 20
-1349.9426224141009
 10
-1600.4994856034725
 20
-1349.9426224141009
 10
-1600.4994856034725
 20
-1341.869090814148
 10
-1615.9982606454762
 20
-1341.869090814148
 10
-1615.9982606454762
 20
-1335.8761314983958
 10
-1600.4994856034725
 20
-1335.8761314983958
 10
-1600.4994856034725
 20
-1327.8025889577939
 10
-1615.9982606454762
 20
-1327.8025889577939
 10
-1615.9982606454762
 20
-1319.468987189897
 10
-1630.3286071936873
 20
-1319.468987189897
 10
-1630.3286071936873
 20
-1327.8025889577939
 10
-1637.8292317075106
 20
-1327.8025889577939
 10
-1635.6506530893541
 20
-1318.8772293654977
 10
-1645.3034673758896
 20
-1318.8772293654977
 10
-1649.4382340394966
 20
-1335.8158266409775
 10
-1649.3327005390131
 20
-1335.8158266409775
 10
-1649.3440022294546
 20
-1335.8761314983958
 10
-1630.3286071936873
 20
-1335.8761314983958
 10
-1630.3286071936873
 20
-1341.869090814148
 10
-1649.3440022294546
 20
-1341.869090814148
 10
-1649.3440022294546
 20
-1349.9426224141009
 10
-1630.3286071936873
 20
-1349.9426224141009
 10
-1630.3286071936873
 20
-1354.8274580934792
 10
-1641.8471522395434
 20
-1354.8349962006571
 10
-1652.0163323380539
 20
-1378.407313783262
 10
-1651.7072699437815
 20
-1378.863374737818
 10
-1638.6207548424331
 20
-1378.870912844995
 10
-1630.3286071936873
 20
-1358.4948511714406
 10
-1630.3286071936873
 20
-1371.4607456173012
 10
-1630.3286071936873
 20
-1378.3168455564855
 10
-1630.3286071936873
 20
-1378.4374662119724
 10
-1629.8687607745687
 20
-1378.8859890593505
 10
-1600.4994856034725
 20
-1378.8859890593505
 10
-1599.5647384321801
 20
-1371.4607456173012
  0
INSERT
  5
87
100
AcDbEntity
  8
FRAME
 62
               0
100
AcDbBlockReference
  2
*U5
 10
0.0
 20
0.0
 30
0.0
  0
LWPOLYLINE
  5
88
100
AcDbEntity
  8
FRAME
  6
CONTINUOUS
 62
               0
100
AcDbPolyline
 90
       22
 70
             129
 10
-1496.8174820951097
 20
-1338.5032439045808
 10
-1496.8174820951097
 20
-1329.5175685142169
 10
-1502.3204535036823
 20
-1329.5175685142169
 10
-1502.0302309070296
 20
-1319.0166898186046
 10
-1512.7082496509854
 20
-1319.0166898186046
 10
-1512.3313333514673
 20
-1329.5175685142169
 10
-1521.6976995652622
 20
-1329.5175685142169
 10
-1521.6976995652622
 20
-1338.5032439045808
 10
-1512.003420218927
 20
-1338.5032439045808
 10
-1511.9242646232403
 20
-1340.6441210462006
 10
-1521.8296109705423
 20
-1355.0950773092507
 10
-1521.8296109705423
 20
-1373.7184907717935
 10
-1521.0456259427958
 20
-1373.7184907717935
 10
-1511.7207357294512
 20
-1357.3829530111545
 10
-1512.7082496509854
 20
-1378.8030808210485
 10
-1502.0302309070296
 20
-1378.8030808210485
 10
-1502.2865265510607
 20
-1354.4279384130791
 10
-1497.3112445262013
 20
-1358.415706516402
 10
-1496.8174820951097
 20
-1357.8126360609135
 10
-1496.8174820951097
 20
-1346.3732466107447
 10
-1502.418448896989
 20
-1342.2686323758462
 10
-1502.4561394328753
 20
-1338.5032439045808
  0
LWPOLYLINE
  5
89
100
AcDbEntity
  8
FRAME
  6
CONTINUOUS
 62
               0
100
AcDbPolyline
 90
       22
 70
             129
 10
-1691.1703441416141
 20
-1336.4226606797286
 10
-1675.8449455646908
 20
-1336.4226606797286
 10
-1675.8449455646908
 20
-1327.1316864783576
 10
-1703.0281149511015
 20
-1327.1316864783576
 10
-1702.4928984008586
 20
-1319.0430786640493
 10
-1717.3471488682226
 20
-1319.0430786640493
 10
-1716.81192137733
 20
-1327.1316864783576
 10
-1743.9950907637417
 20
-1327.1316864783576
 10
-1743.9950907637417
 20
-1336.4226606797286
 10
-1728.8355414853697
 20
-1336.4226606797286
 10
-1744.9976918402804
 20
-1374.7060046933277
 10
-1744.5793104809616
 20
-1375.4032960182101
 10
-1731.455104843727
 20
-1375.4032960182101
 10
-1729.7401362279534
 20
-1370.4883188507702
 10
-1717.490372904592
 20
-1370.4883188507702
 10
-1717.7127525366498
 20
-1378.8859999999997
 10
-1702.1272837917827
 20
-1378.8859999999997
 10
-1702.3232855190431
 20
-1370.4883188507702
 10
-1689.7305219081384
 20
-1370.4883188507702
 10
-1687.9364086373255
 20
-1375.4032960182101
 10
-1674.8084284761783
 20
-1375.4032960182101
 10
-1674.3900471168599
 20
-1374.7060046933277
  0
LWPOLYLINE
  5
8A
100
AcDbEntity
  8
FRAME
  6
CONTINUOUS
 62
               0
100
AcDbPolyline
 90
        4
 70
             129
 10
-1726.8868806064472
 20
-1362.3167809168617
 10
-1717.8484384658427
 20
-1336.4226606797286
 10
-1716.5895417452732
 20
-1336.4226606797286
 10
-1717.2755313797129
 20
-1362.3167809168617
  0
LWPOLYLINE
  5
8B
100
AcDbEntity
  8
FRAME
  6
CONTINUOUS
 62
               0
100
AcDbPolyline
 90
        4
 70
             129
 10
-1702.5155127223909
 20
-1362.3167809168617
 10
-1703.11857223723
 20
-1336.4226606797286
 10
-1702.1612107444055
 20
-1336.4226606797286
 10
-1692.708161768395
 20
-1362.3167809168617
  0
LWPOLYLINE
  5
8C
100
AcDbEntity
  8
FRAME
 62
               0
100
AcDbPolyline
 90
       12
 70
             129
 10
-1755.2912561775406
 20
-1319.3747553798535
 10
-1768.6868446138096
 20
-1319.3747553798535
 10
-1803.0163365360586
 20
-1319.3747553798535
 10
-1816.2310104000708
 20
-1319.3747553798535
 10
-1817.836670991449
 20
-1319.3747553798535
 10
-1817.836670991449
 20
-1378.9199160119736
 10
-1803.0163365360586
 20
-1378.9199160119736
 10
-1803.0163365360586
 20
-1375.9271999373618
 10
-1768.6868446138096
 20
-1375.9271999373618
 10
-1768.6868446138096
 20
-1378.9199160119736
 10
-1753.8702846823332
 20
-1378.9199160119736
 10
-1753.8702846823332
 20
-1319.3747553798535
  0
LWPOLYLINE
  5
8D
100
AcDbEntity
  8
FRAME
  6
CONTINUOUS
 62
               0
100
AcDbPolyline
 90
        4
 70
             129
 10
-1768.6868446138096
 20
-1328.2247339003761
 10
-1768.6868446138096
 20
-1343.0450683557665
 10
-1803.0163365360586
 20
-1343.0450683557665
 10
-1803.0163365360586
 20
-1328.2247339003761
  0
LWPOLYLINE
  5
8E
100
AcDbEntity
  8
FRAME
  6
CONTINUOUS
 62
               0
100
AcDbPolyline
 90
        4
 70
             129
 10
-1803.0163365360586
 20
-1367.0734468929268
 10
-1803.0163365360586
 20
-1351.8950468762871
 10
-1768.6868446138096
 20
-1351.8950468762871
 10
-1768.6868446138096
 20
-1367.0734468929268
  0
LWPOLYLINE
  5
8F
100
AcDbEntity
  8
FRAME
  6
CONTINUOUS
 62
               0
100
AcDbPolyline
 90
       18
 70
             129
 10
-1258.0714705876819
 20
-1320.2642848487319
 10
-1258.1770040881647
 20
-1319.7742969415544
 10
-1258.5614584948603
 20
-1319.7742969415544
 10
-1269.3299454655946
 20
-1319.7742969415544
 10
-1270.0649273263627
 20
-1319.7742969415544
 10
-1280.8334142970962
 20
-1319.7742969415544
 10
-1281.330940311452
 20
-1319.7742969415544
 10
-1281.4666371812937
 20
-1320.4075088851025
 10
-1304.2625078433309
 20
-1343.2372955591131
 10
-1303.7122041380846
 20
-1344.1532029327871
 10
-1289.031330135801
 20
-1343.9722883605307
 10
-1284.2708896358226
 20
-1338.1225530811487
 10
-1282.962989748276
 20
-1344.6356527327875
 10
-1256.5449655919908
 20
-1344.6356527327875
 10
-1255.2182149661758
 20
-1338.0094814734878
 10
-1250.367317180069
 20
-1343.9722883605307
 10
-1235.6864431777849
 20
-1344.1532029327871
 10
-1235.1361394725382
 20
-1343.2372955591131
  0
LWPOLYLINE
  5
90
100
AcDbEntity
  8
FRAME
  6
CONTINUOUS
 62
               0
100
AcDbPolyline
 90
        4
 70
             129
 10
-1281.9943156243601
 20
-1335.3296023170617
 10
-1275.5264446157839
 20
-1327.384218539124
 10
-1263.8684391168213
 20
-1327.384218539124
 10
-1257.4005571675968
 20
-1335.3296023170617
  0
LWPOLYLINE
  5
91
100
AcDbEntity
  8
FRAME
  6
CONTINUOUS
 62
               0
100
AcDbPolyline
 90
       14
 70
             129
 10
-1301.9067782361824
 20
-1360.3944979427361
 10
-1290.2336965228644
 20
-1360.3944979427361
 10
-1298.6615301008044
 20
-1378.4336916880588
 10
-1298.2619994797537
 20
-1378.8859890593505
 10
-1286.4796097420399
 20
-1378.8859890593505
 10
-1285.6428579640526
 20
-1378.8859890593505
 10
-1253.8311594829422
 20
-1378.8859890593505
 10
-1253.0320982408418
 20
-1378.8859890593505
 10
-1241.2157924911542
 20
-1378.8859890593505
 10
-1240.8162618701042
 20
-1378.4336916880588
 10
-1249.2440954480435
 20
-1360.3944979427361
 10
-1237.4240151744425
 20
-1360.3944979427361
 10
-1237.4240151744425
 20
-1351.0997601581005
 10
-1301.9067782361824
 20
-1351.0997601581005
  0
LWPOLYLINE
  5
92
100
AcDbEntity
  8
FRAME
  6
CONTINUOUS
 62
               0
100
AcDbPolyline
 90
        4
 70
             129
 10
-1257.2384823929588
 20
-1370.5071477077395
 10
-1282.2393095779491
 20
-1370.5071477077395
 10
-1278.1309208191381
 20
-1360.3944979427361
 10
-1261.3468602111207
 20
-1360.3944979427361
  0
ENDBLK
  5
93
100
AcDbEntity
  8
FRAME
100
AcDbBlockEnd
  0
BLOCK
  5
94
100
AcDbEntity
  8
OBJECT
100
AcDbBlockBegin
  2
*U7
 70
               1
 10
0.0
 20
0.0
 30
0.0
  3
*U7
  1

  0
LWPOLYLINE
  5
95
100
AcDbEntity
  8
OBJECT
  6
CONTINUOUS
 62
               0
100
AcDbPolyline
 90
       10
 70
             129
 10
1031.0
 20
-770.56155281280894
 42
-0.3441507314089108
 10
1032.5149287499273
 20
-768.62126781251823
 10
1051.0
 20
-764.0
 10
1126.0
 20
-764.0
 42
-0.414213562373095
 10
1131.0
 20
-769.0
 10
1131.0
 20
-789.0
 42
-0.414213562373095
 10
1126.0
 20
-794.0
 10
1051.0
 20
-794.0
 10
1032.5149287499273
 20
-789.37873218748177
 42
-0.3441507314089108
 10
1031.0
 20
-787.43844718719106
  0
LWPOLYLINE
  5
96
100
AcDbEntity
  8
OBJECT
  6
CONTINUOUS
 62
               0
100
AcDbPolyline
 90
        5
 70
             129
 10
1061.0
 20
-779.0
 42
-0.414213562373095
 10
1066.0
 20
-774.0
 42
-0.414213562373095
 10
1071.0
 20
-779.0
 42
-0.414213562373095
 10
1066.0
 20
-784.0
 42
-0.414213562373095
 10
1061.0
 20
-779.0
 42
-0.414213562373095
  0
LWPOLYLINE
  5
97
100
AcDbEntity
  8
OBJECT
  6
CONTINUOUS
 62
               0
100
AcDbPolyline
 90
        5
 70
             129
 10
1111.0
 20
-779.0
 42
-0.414213562373095
 10
1116.0
 20
-774.0
 42
-0.414213562373095
 10
1121.0
 20
-779.0
 42
-0.414213562373095
 10
1116.0
 20
-784.0
 42
-0.414213562373095
 10
1111.0
 20
-779.0
 42
-0.414213562373095
  0
LWPOLYLINE
  5
98
100
AcDbEntity
  8
OBJECT
  6
CONTINUOUS
 62
               0
100
AcDbPolyline
 90
        6
 70
             128
 10
1035.0
 20
-769.0
 10
1122.0
 20
-769.0
 42
-0.414213562373095
 10
1126.0
 20
-773.0
 10
1126.0
 20
-785.0
 42
-0.414213562373095
 10
1122.0
 20
-789.0
 10
1035.0
 20
-789.0
  0
ENDBLK
  5
99
100
AcDbEntity
  8
OBJECT
100
AcDbBlockEnd
  0
BLOCK
  5
9A
100
AcDbEntity
  8
DIMENTION
100
AcDbBlockBegin
  2
*D8
 70
               1
 10
0.0
 20
0.0
 30
0.0
  3
*D8
  1

  0
LINE
  5
9B
100
AcDbEntity
  8
DIMENTION
  6
CONTINUOUS
 62
               0
100
AcDbLine
 10
-1322.0
 20
-69.0
 30
0.0
 11
-1520.0
 21
-69.0
 31
0.0
  0
LINE
  5
9C
100
AcDbEntity
  8
DIMENTION
  6
CONTINUOUS
 62
               0
100
AcDbLine
 10
-1410.0
 20
-900.0
 30
0.0
 11
-1520.0
 21
-900.0
 31
0.0
  0
LINE
  5
9D
100
AcDbEntity
  8
DIMENTION
  6
CONTINUOUS
 62
               0
100
AcDbLine
 10
-1500.0
 20
-69.0
 30
0.0
 11
-1500.0
 21
-900.0
 31
0.0
  0
LINE
  5
9E
100
AcDbEntity
  8
DIMENTION
  6
CONTINUOUS
 62
               0
100
AcDbLine
 10
-1500.0
 20
-69.0
 30
0.0
 11
-1491.492613140312
 21
-100.75
 31
0.0
  0
LINE
  5
9F
100
AcDbEntity
  8
DIMENTION
  6
CONTINUOUS
 62
               0
100
AcDbLine
 10
-1500.0
 20
-69.0
 30
0.0
 11
-1508.507386859688
 21
-100.75
 31
0.0
  0
LINE
  5
A0
100
AcDbEntity
  8
DIMENTION
  6
CONTINUOUS
 62
               0
100
AcDbLine
 10
-1500.0
 20
-900.0
 30
0.0
 11
-1508.507386859688
 21
-868.25
 31
0.0
  0
LINE
  5
A1
100
AcDbEntity
  8
DIMENTION
  6
CONTINUOUS
 62
               0
100
AcDbLine
 10
-1500.0
 20
-900.0
 30
0.0
 11
-1491.492613140312
 21
-868.25
 31
0.0
  0
MTEXT
  5
A2
100
AcDbEntity
  8
DIMENTION
 62
               0
100
AcDbMText
 10
-1543.3333333333335
 20
-516.25
 30
0.0
 40
33.866666666666667
 41
0.0
 71
               1
 72
               1
  1
830
  7
________
 11
0.0
 21
1.0
 31
0.0
  0
POINT
  5
A3
100
AcDbEntity
  8
DEFPOINTS
 62
               0
100
AcDbPoint
 10
-1400.0
 20
-900.0
 30
0.0
  0
POINT
  5
A4
100
AcDbEntity
  8
DEFPOINTS
 62
               0
100
AcDbPoint
 10
-1312.0
 20
-69.0
 30
0.0
  0
POINT
  5
A5
100
AcDbEntity
  8
DEFPOINTS
 62
               0
100
AcDbPoint
 10
-1500.0
 20
-69.0
 30
0.0
  0
ENDBLK
  5
A6
100
AcDbEntity
  8
DIMENTION
100
AcDbBlockEnd
  0
BLOCK
  5
A7
100
AcDbEntity
  8
OBJECT
100
AcDbBlockBegin
  2
*U9
 70
               1
 10
0.0
 20
0.0
 30
0.0
  3
*U9
  1

  0
LWPOLYLINE
  5
A8
100
AcDbEntity
  8
OBJECT
  6
CONTINUOUS
 62
               0
100
AcDbPolyline
 90
       10
 70
             129
 10
102.95929410379176
 20
-770.56153624311139
 42
-0.3441507314089011
 10
104.4742228537191
 20
-768.62125124282068
 10
122.95929410379176
 20
-763.99998343030256
 10
197.95929410379176
 20
-763.99998343030256
 42
-0.414213562373095
 10
202.95929410379176
 20
-768.99998343030256
 10
202.95929410379176
 20
-788.99998343030256
 42
-0.414213562373095
 10
197.95929410379176
 20
-793.99998343030256
 10
122.95929410379176
 20
-793.99998343030256
 10
104.4742228537191
 20
-789.37871561778445
 42
-0.344150731408905
 10
102.95929410379176
 20
-787.43843061749374
  0
LWPOLYLINE
  5
A9
100
AcDbEntity
  8
OBJECT
  6
CONTINUOUS
 62
               0
100
AcDbPolyline
 90
        5
 70
             129
 10
132.95929410379176
 20
-778.99998343030256
 42
-0.414213562373095
 10
137.95929410379176
 20
-773.99998343030256
 42
-0.414213562373095
 10
142.95929410379176
 20
-778.99998343030256
 42
-0.414213562373095
 10
137.95929410379176
 20
-783.99998343030256
 42
-0.414213562373095
 10
132.95929410379176
 20
-778.99998343030256
 42
-0.414213562373095
  0
LWPOLYLINE
  5
AA
100
AcDbEntity
  8
OBJECT
  6
CONTINUOUS
 62
               0
100
AcDbPolyline
 90
        5
 70
             129
 10
182.95929410379176
 20
-778.99998343030256
 42
-0.414213562373095
 10
187.95929410379176
 20
-773.99998343030256
 42
-0.414213562373095
 10
192.95929410379176
 20
-778.99998343030256
 42
-0.414213562373095
 10
187.95929410379176
 20
-783.99998343030256
 42
-0.414213562373095
 10
182.95929410379176
 20
-778.99998343030256
 42
-0.414213562373095
  0
LWPOLYLINE
  5
AB
100
AcDbEntity
  8
OBJECT
  6
CONTINUOUS
 62
               0
100
AcDbPolyline
 90
        6
 70
             128
 10
106.95929410379176
 20
-768.99998343030256
 10
193.95929410379176
 20
-768.99998343030256
 42
-0.414213562373095
 10
197.95929410379176
 20
-772.99998343030256
 10
197.95929410379176
 20
-784.99998343030256
 42
-0.414213562373095
 10
193.95929410379176
 20
-788.99998343030256
 10
106.95929410379176
 20
-788.99998343030256
  0
ENDBLK
  5
AC
100
AcDbEntity
  8
OBJECT
100
AcDbBlockEnd
  0
BLOCK
  5
AD
100
AcDbEntity
  8
OBJECT
100
AcDbBlockBegin
  2
*U10
 70
               1
 10
0.0
 20
0.0
 30
0.0
  3
*U10
  1

  0
LWPOLYLINE
  5
AE
100
AcDbEntity
  8
OBJECT
  6
CONTINUOUS
 62
               0
100
AcDbPolyline
 90
       10
 70
             129
 10
452.95929410379176
 20
-770.5615362431115
 42
0.3441507314089186
 10
451.44436535386444
 20
-768.62125124282079
 10
432.95929410379176
 20
-763.99998343030256
 10
400.95929410379176
 20
-763.99998343030256
 42
0.414213562373095
 10
395.95929410379176
 20
-768.99998343030256
 10
395.95929410379176
 20
-788.99998343030256
 42
0.414213562373095
 10
400.95929410379176
 20
-793.99998343030256
 10
432.95929410379176
 20
-793.99998343030256
 10
451.44436535386444
 20
-789.37871561778434
 42
0.3441507314089503
 10
452.95929410379176
 20
-787.43843061749362
  0
LWPOLYLINE
  5
AF
100
AcDbEntity
  8
OBJECT
  6
CONTINUOUS
 62
               0
100
AcDbPolyline
 90
        5
 70
             129
 10
405.95929410379176
 20
-778.99998343030256
 42
-0.414213562373095
 10
410.95929410379176
 20
-773.99998343030256
 42
-0.414213562373095
 10
415.95929410379176
 20
-778.99998343030256
 42
-0.414213562373095
 10
410.95929410379176
 20
-783.99998343030256
 42
-0.414213562373095
 10
405.95929410379176
 20
-778.99998343030256
 42
-0.414213562373095
  0
LWPOLYLINE
  5
B0
100
AcDbEntity
  8
OBJECT
  6
CONTINUOUS
 62
               0
100
AcDbPolyline
 90
        6
 70
             128
 10
448.95929410379176
 20
-768.99998343030256
 10
404.95929410379176
 20
-768.99998343030256
 42
0.414213562373095
 10
400.95929410379176
 20
-772.99998343030256
 10
400.95929410379176
 20
-784.99998343030256
 42
0.414213562373095
 10
404.95929410379176
 20
-788.99998343030256
 10
448.95929410379176
 20
-788.99998343030256
  0
ENDBLK
  5
B1
100
AcDbEntity
  8
OBJECT
100
AcDbBlockEnd
  0
BLOCK
  5
B2
100
AcDbEntity
  8
DIMENTION
100
AcDbBlockBegin
  2
*D11
 70
               1
 10
0.0
 20
0.0
 30
0.0
  3
*D11
  1

  0
LINE
  5
B3
100
AcDbEntity
  8
DIMENTION
  6
CONTINUOUS
 62
               0
100
AcDbLine
 10
145.95929410379176
 20
-88.999983430302564
 30
0.0
 11
-20.0
 21
-88.999983430302564
 31
0.0
  0
LINE
  5
B4
100
AcDbEntity
  8
DIMENTION
  6
CONTINUOUS
 62
               0
100
AcDbLine
 10
145.95929410379176
 20
-588.99998343030256
 30
0.0
 11
-20.0
 21
-588.99998343030256
 31
0.0
  0
LINE
  5
B5
100
AcDbEntity
  8
DIMENTION
  6
CONTINUOUS
 62
               0
100
AcDbLine
 10
0.0
 20
-88.999983430302564
 30
0.0
 11
0.0
 21
-588.99998343030256
 31
0.0
  0
LINE
  5
B6
100
AcDbEntity
  8
DIMENTION
  6
CONTINUOUS
 62
               0
100
AcDbLine
 10
0.0
 20
-88.999983430302564
 30
0.0
 11
8.507386859688129
 21
-120.74998343030256
 31
0.0
  0
LINE
  5
B7
100
AcDbEntity
  8
DIMENTION
  6
CONTINUOUS
 62
               0
100
AcDbLine
 10
0.0
 20
-88.999983430302564
 30
0.0
 11
-8.5073868596881415
 21
-120.74998343030256
 31
0.0
  0
LINE
  5
B8
100
AcDbEntity
  8
DIMENTION
  6
CONTINUOUS
 62
               0
100
AcDbLine
 10
0.0
 20
-588.99998343030256
 30
0.0
 11
-8.5073868596881486
 21
-557.24998343030256
 31
0.0
  0
LINE
  5
B9
100
AcDbEntity
  8
DIMENTION
  6
CONTINUOUS
 62
               0
100
AcDbLine
 10
0.0
 20
-588.99998343030256
 30
0.0
 11
8.507386859688145
 21
-557.24998343030256
 31
0.0
  0
MTEXT
  5
BA
100
AcDbEntity
  8
DIMENTION
 62
               0
100
AcDbMText
 10
-43.333333333333329
 20
-476.58331676363593
 30
0.0
 40
33.866666666666667
 41
0.0
 71
               1
 72
               1
  1
500（可動範囲）
  7
________
 11
0.0
 21
1.0
 31
0.0
  0
POINT
  5
BB
100
AcDbEntity
  8
DEFPOINTS
 62
               0
100
AcDbPoint
 10
155.95929410379176
 20
-588.99998343030256
 30
0.0
  0
POINT
  5
BC
100
AcDbEntity
  8
DEFPOINTS
 62
               0
100
AcDbPoint
 10
155.95929410379176
 20
-88.999983430302564
 30
0.0
  0
POINT
  5
BD
100
AcDbEntity
  8
DEFPOINTS
 62
               0
100
AcDbPoint
 10
0.0
 20
-88.999983430302564
 30
0.0
  0
ENDBLK
  5
BE
100
AcDbEntity
  8
DIMENTION
100
AcDbBlockEnd
  0
BLOCK
  5
BF
100
AcDbEntity
  8
DIMENTION
100
AcDbBlockBegin
  2
*D12
 70
               1
 10
0.0
 20
0.0
 30
0.0
  3
*D12
  1

  0
LINE
  5
C0
100
AcDbEntity
  8
DIMENTION
  6
CONTINUOUS
 62
               0
100
AcDbLine
 10
145.95929410379176
 20
-88.999983430302564
 30
0.0
 11
-20.0
 21
-88.999983430302564
 31
0.0
  0
LINE
  5
C1
100
AcDbEntity
  8
DIMENTION
  6
CONTINUOUS
 62
               0
100
AcDbLine
 10
106.95929410379176
 20
-68.999983430302564
 30
0.0
 11
-20.0
 21
-68.999983430302564
 31
0.0
  0
LINE
  5
C2
100
AcDbEntity
  8
DIMENTION
  6
CONTINUOUS
 62
               0
100
AcDbLine
 10
0.0
 20
-68.999983430302564
 30
0.0
 11
0.0
 21
-88.999983430302564
 31
0.0
  0
LINE
  5
C3
100
AcDbEntity
  8
DIMENTION
  6
CONTINUOUS
 62
               0
100
AcDbLine
 10
0.0
 20
-88.999983430302564
 30
0.0
 11
0.0
 21
-148.99998343030256
 31
0.0
  0
LINE
  5
C4
100
AcDbEntity
  8
DIMENTION
  6
CONTINUOUS
 62
               0
100
AcDbLine
 10
0.0
 20
-88.999983430302564
 30
0.0
 11
8.507386859688129
 21
-120.74998343030256
 31
0.0
  0
LINE
  5
C5
100
AcDbEntity
  8
DIMENTION
  6
CONTINUOUS
 62
               0
100
AcDbLine
 10
0.0
 20
-88.999983430302564
 30
0.0
 11
-8.5073868596881415
 21
-120.74998343030256
 31
0.0
  0
LINE
  5
C6
100
AcDbEntity
  8
DIMENTION
  6
CONTINUOUS
 62
               0
100
AcDbLine
 10
0.0
 20
-68.999983430302564
 30
0.0
 11
0.0
 21
12.333333333333325
 31
0.0
  0
LINE
  5
C7
100
AcDbEntity
  8
DIMENTION
  6
CONTINUOUS
 62
               0
100
AcDbLine
 10
0.0
 20
-68.999983430302564
 30
0.0
 11
-8.5073868596881486
 21
-37.249983430302564
 31
0.0
  0
LINE
  5
C8
100
AcDbEntity
  8
DIMENTION
  6
CONTINUOUS
 62
               0
100
AcDbLine
 10
0.0
 20
-68.999983430302564
 30
0.0
 11
8.507386859688145
 21
-37.249983430302564
 31
0.0
  0
MTEXT
  5
C9
100
AcDbEntity
  8
DIMENTION
 62
               0
100
AcDbMText
 10
-43.333333333333329
 20
-30.000000000000004
 30
0.0
 40
33.866666666666667
 41
0.0
 71
               1
 72
               1
  1
20
  7
________
 11
0.0
 21
1.0
 31
0.0
  0
POINT
  5
CA
100
AcDbEntity
  8
DEFPOINTS
 62
               0
100
AcDbPoint
 10
116.95929410379176
 20
-68.999983430302564
 30
0.0
  0
POINT
  5
CB
100
AcDbEntity
  8
DEFPOINTS
 62
               0
100
AcDbPoint
 10
155.95929410379176
 20
-88.999983430302564
 30
0.0
  0
POINT
  5
CC
100
AcDbEntity
  8
DEFPOINTS
 62
               0
100
AcDbPoint
 10
0.0
 20
-88.999983430302564
 30
0.0
  0
ENDBLK
  5
CD
100
AcDbEntity
  8
DIMENTION
100
AcDbBlockEnd
  0
BLOCK
  5
CE
100
AcDbEntity
  8
DIMENTION
100
AcDbBlockBegin
  2
*D13
 70
               1
 10
0.0
 20
0.0
 30
0.0
  3
*D13
  1

  0
LINE
  5
CF
100
AcDbEntity
  8
DIMENTION
  6
CONTINUOUS
 62
               0
100
AcDbLine
 10
-1372.0
 20
672.0
 30
0.0
 11
-1520.0
 21
672.0
 31
0.0
  0
LINE
  5
D0
100
AcDbEntity
  8
DIMENTION
  6
CONTINUOUS
 62
               0
100
AcDbLine
 10
-1352.0
 20
402.0
 30
0.0
 11
-1520.0
 21
402.0
 31
0.0
  0
LINE
  5
D1
100
AcDbEntity
  8
DIMENTION
  6
CONTINUOUS
 62
               0
100
AcDbLine
 10
-1500.0
 20
672.0
 30
0.0
 11
-1500.0
 21
402.0
 31
0.0
  0
LINE
  5
D2
100
AcDbEntity
  8
DIMENTION
  6
CONTINUOUS
 62
               0
100
AcDbLine
 10
-1500.0
 20
672.0
 30
0.0
 11
-1491.492613140312
 21
640.25
 31
0.0
  0
LINE
  5
D3
100
AcDbEntity
  8
DIMENTION
  6
CONTINUOUS
 62
               0
100
AcDbLine
 10
-1500.0
 20
672.0
 30
0.0
 11
-1508.507386859688
 21
640.25
 31
0.0
  0
LINE
  5
D4
100
AcDbEntity
  8
DIMENTION
  6
CONTINUOUS
 62
               0
100
AcDbLine
 10
-1500.0
 20
402.0
 30
0.0
 11
-1508.507386859688
 21
433.75
 31
0.0
  0
LINE
  5
D5
100
AcDbEntity
  8
DIMENTION
  6
CONTINUOUS
 62
               0
100
AcDbLine
 10
-1500.0
 20
402.0
 30
0.0
 11
-1491.492613140312
 21
433.75
 31
0.0
  0
MTEXT
  5
D6
100
AcDbEntity
  8
DIMENTION
 62
               0
100
AcDbMText
 10
-1543.3333333333335
 20
443.8666680124071
 30
0.0
 40
33.866666666666667
 41
0.0
 71
               1
 72
               1
  1
269 (内寸)
  7
________
 11
0.0
 21
1.0
 31
0.0
  0
POINT
  5
D7
100
AcDbEntity
  8
DEFPOINTS
 62
               0
100
AcDbPoint
 10
-1342.0
 20
402.0
 30
0.0
  0
POINT
  5
D8
100
AcDbEntity
  8
DEFPOINTS
 62
               0
100
AcDbPoint
 10
-1362.0
 20
672.0
 30
0.0
  0
POINT
  5
D9
100
AcDbEntity
  8
DEFPOINTS
 62
               0
100
AcDbPoint
 10
-1500.0
 20
672.0
 30
0.0
  0
ENDBLK
  5
DA
100
AcDbEntity
  8
DIMENTION
100
AcDbBlockEnd
  0
BLOCK
  5
DB
100
AcDbEntity
  8
DIMENTION
100
AcDbBlockBegin
  2
*D14
 70
               1
 10
0.0
 20
0.0
 30
0.0
  3
*D14
  1

  0
LINE
  5
DC
100
AcDbEntity
  8
DIMENTION
  6
CONTINUOUS
 62
               0
100
AcDbLine
 10
-1372.0
 20
672.0
 30
0.0
 11
-1520.0
 21
672.0
 31
0.0
  0
LINE
  5
DD
100
AcDbEntity
  8
DIMENTION
  6
CONTINUOUS
 62
               0
100
AcDbLine
 10
-1370.0
 20
712.0
 30
0.0
 11
-1520.0
 21
712.0
 31
0.0
  0
LINE
  5
DE
100
AcDbEntity
  8
DIMENTION
  6
CONTINUOUS
 62
               0
100
AcDbLine
 10
-1500.0
 20
712.0
 30
0.0
 11
-1500.0
 21
672.0
 31
0.0
  0
LINE
  5
DF
100
AcDbEntity
  8
DIMENTION
  6
CONTINUOUS
 62
               0
100
AcDbLine
 10
-1500.0
 20
672.0
 30
0.0
 11
-1500.0
 21
612.0
 31
0.0
  0
LINE
  5
E0
100
AcDbEntity
  8
DIMENTION
  6
CONTINUOUS
 62
               0
100
AcDbLine
 10
-1500.0
 20
672.0
 30
0.0
 11
-1491.492613140312
 21
640.25
 31
0.0
  0
LINE
  5
E1
100
AcDbEntity
  8
DIMENTION
  6
CONTINUOUS
 62
               0
100
AcDbLine
 10
-1500.0
 20
672.0
 30
0.0
 11
-1508.507386859688
 21
640.25
 31
0.0
  0
LINE
  5
E2
100
AcDbEntity
  8
DIMENTION
  6
CONTINUOUS
 62
               0
100
AcDbLine
 10
-1500.0
 20
712.0
 30
0.0
 11
-1500.0
 21
789.47178317440876
 31
0.0
  0
LINE
  5
E3
100
AcDbEntity
  8
DIMENTION
  6
CONTINUOUS
 62
               0
100
AcDbLine
 10
-1500.0
 20
712.0
 30
0.0
 11
-1508.507386859688
 21
743.75
 31
0.0
  0
LINE
  5
E4
100
AcDbEntity
  8
DIMENTION
  6
CONTINUOUS
 62
               0
100
AcDbLine
 10
-1500.0
 20
712.0
 30
0.0
 11
-1491.492613140312
 21
743.75
 31
0.0
  0
MTEXT
  5
E5
100
AcDbEntity
  8
DIMENTION
 62
               0
100
AcDbMText
 10
-1543.3333333333335
 20
747.13844984107538
 30
0.0
 40
33.866666666666667
 41
0.0
 71
               1
 72
               1
  1
40
  7
________
 11
0.0
 21
1.0
 31
0.0
  0
POINT
  5
E6
100
AcDbEntity
  8
DEFPOINTS
 62
               0
100
AcDbPoint
 10
-1360.0
 20
712.0
 30
0.0
  0
POINT
  5
E7
100
AcDbEntity
  8
DEFPOINTS
 62
               0
100
AcDbPoint
 10
-1362.0
 20
672.0
 30
0.0
  0
POINT
  5
E8
100
AcDbEntity
  8
DEFPOINTS
 62
               0
100
AcDbPoint
 10
-1500.0
 20
672.0
 30
0.0
  0
ENDBLK
  5
E9
100
AcDbEntity
  8
DIMENTION
100
AcDbBlockEnd
  0
BLOCK
  5
EA
100
AcDbEntity
  8
DIMENTION
100
AcDbBlockBegin
  2
*D15
 70
               1
 10
0.0
 20
0.0
 30
0.0
  3
*D15
  1

  0
LINE
  5
EB
100
AcDbEntity
  8
DIMENTION
  6
CONTINUOUS
 62
               0
100
AcDbLine
 10
-848.0
 20
402.0
 30
0.0
 11
-680.0
 21
402.0
 31
0.0
  0
LINE
  5
EC
100
AcDbEntity
  8
DIMENTION
  6
CONTINUOUS
 62
               0
100
AcDbLine
 10
-830.0
 20
712.0
 30
0.0
 11
-680.0
 21
712.0
 31
0.0
  0
LINE
  5
ED
100
AcDbEntity
  8
DIMENTION
  6
CONTINUOUS
 62
               0
100
AcDbLine
 10
-700.0
 20
402.0
 30
0.0
 11
-700.0
 21
712.0
 31
0.0
  0
LINE
  5
EE
100
AcDbEntity
  8
DIMENTION
  6
CONTINUOUS
 62
               0
100
AcDbLine
 10
-700.0
 20
402.0
 30
0.0
 11
-708.50738685968815
 21
433.75
 31
0.0
  0
LINE
  5
EF
100
AcDbEntity
  8
DIMENTION
  6
CONTINUOUS
 62
               0
100
AcDbLine
 10
-700.0
 20
402.0
 30
0.0
 11
-691.49261314031185
 21
433.75
 31
0.0
  0
LINE
  5
F0
100
AcDbEntity
  8
DIMENTION
  6
CONTINUOUS
 62
               0
100
AcDbLine
 10
-700.0
 20
712.0
 30
0.0
 11
-691.49261314031185
 21
680.25
 31
0.0
  0
LINE
  5
F1
100
AcDbEntity
  8
DIMENTION
  6
CONTINUOUS
 62
               0
100
AcDbLine
 10
-700.0
 20
712.0
 30
0.0
 11
-708.50738685968815
 21
680.25
 31
0.0
  0
MTEXT
  5
F2
100
AcDbEntity
  8
DIMENTION
 62
               0
100
AcDbMText
 10
-743.33333333333326
 20
525.25
 30
0.0
 40
33.866666666666667
 41
0.0
 71
               1
 72
               1
  1
310
  7
________
 11
0.0
 21
1.0
 31
0.0
  0
POINT
  5
F3
100
AcDbEntity
  8
DEFPOINTS
 62
               0
100
AcDbPoint
 10
-840.0
 20
712.0
 30
0.0
  0
POINT
  5
F4
100
AcDbEntity
  8
DEFPOINTS
 62
               0
100
AcDbPoint
 10
-858.0
 20
402.0
 30
0.0
  0
POINT
  5
F5
100
AcDbEntity
  8
DEFPOINTS
 62
               0
100
AcDbPoint
 10
-700.0
 20
402.0
 30
0.0
  0
ENDBLK
  5
F6
100
AcDbEntity
  8
DIMENTION
100
AcDbBlockEnd
  0
BLOCK
  5
F7
100
AcDbEntity
  8
DIMENTION
100
AcDbBlockBegin
  2
*D16
 70
               1
 10
0.0
 20
0.0
 30
0.0
  3
*D16
  1

  0
LINE
  5
F8
100
AcDbEntity
  8
DIMENTION
  6
CONTINUOUS
 62
               0
100
AcDbLine
 10
-1360.0
 20
410.0
 30
0.0
 11
-1360.0
 21
280.0
 31
0.0
  0
LINE
  5
F9
100
AcDbEntity
  8
DIMENTION
  6
CONTINUOUS
 62
               0
100
AcDbLine
 10
-840.0
 20
410.0
 30
0.0
 11
-840.0
 21
280.0
 31
0.0
  0
LINE
  5
FA
100
AcDbEntity
  8
DIMENTION
  6
CONTINUOUS
 62
               0
100
AcDbLine
 10
-1360.0
 20
300.0
 30
0.0
 11
-840.0
 21
300.0
 31
0.0
  0
LINE
  5
FB
100
AcDbEntity
  8
DIMENTION
  6
CONTINUOUS
 62
               0
100
AcDbLine
 10
-1360.0
 20
300.0
 30
0.0
 11
-1328.25
 21
308.50738685968815
 31
0.0
  0
LINE
  5
FC
100
AcDbEntity
  8
DIMENTION
  6
CONTINUOUS
 62
               0
100
AcDbLine
 10
-1360.0
 20
300.0
 30
0.0
 11
-1328.25
 21
291.49261314031185
 31
0.0
  0
LINE
  5
FD
100
AcDbEntity
  8
DIMENTION
  6
CONTINUOUS
 62
               0
100
AcDbLine
 10
-840.0
 20
300.0
 30
0.0
 11
-871.75
 21
291.49261314031185
 31
0.0
  0
LINE
  5
FE
100
AcDbEntity
  8
DIMENTION
  6
CONTINUOUS
 62
               0
100
AcDbLine
 10
-840.0
 20
300.0
 30
0.0
 11
-871.75
 21
308.50738685968815
 31
0.0
  0
MTEXT
  5
FF
100
AcDbEntity
  8
DIMENTION
 62
               0
100
AcDbMText
 10
-1193.133331987593
 20
343.33333333333331
 30
0.0
 40
33.866666666666667
 41
0.0
 71
               1
 72
               1
  1
518 (内寸)
  7
________
  0
POINT
  5
100
100
AcDbEntity
  8
DEFPOINTS
 62
               0
100
AcDbPoint
 10
-840.0
 20
420.0
 30
0.0
  0
POINT
  5
101
100
AcDbEntity
  8
DEFPOINTS
 62
               0
100
AcDbPoint
 10
-1360.0
 20
420.0
 30
0.0
  0
POINT
  5
102
100
AcDbEntity
  8
DEFPOINTS
 62
               0
100
AcDbPoint
 10
-1360.0
 20
300.0
 30
0.0
  0
ENDBLK
  5
103
100
AcDbEntity
  8
DIMENTION
100
AcDbBlockEnd
  0
BLOCK
  5
104
100
AcDbEntity
  8
DIMENTION
100
AcDbBlockBegin
  2
*D17
 70
               1
 10
0.0
 20
0.0
 30
0.0
  3
*D17
  1

  0
LINE
  5
105
100
AcDbEntity
  8
DIMENTION
  6
CONTINUOUS
 62
               0
100
AcDbLine
 10
-175.0
 20
680.0
 30
0.0
 11
-320.0
 21
680.0
 31
0.0
  0
LINE
  5
106
100
AcDbEntity
  8
DIMENTION
  6
CONTINUOUS
 62
               0
100
AcDbLine
 10
-165.0
 20
400.0
 30
0.0
 11
-320.0
 21
400.0
 31
0.0
  0
LINE
  5
107
100
AcDbEntity
  8
DIMENTION
  6
CONTINUOUS
 62
               0
100
AcDbLine
 10
-300.0
 20
680.0
 30
0.0
 11
-300.0
 21
400.0
 31
0.0
  0
LINE
  5
108
100
AcDbEntity
  8
DIMENTION
  6
CONTINUOUS
 62
               0
100
AcDbLine
 10
-300.0
 20
680.0
 30
0.0
 11
-291.49261314031185
 21
648.25
 31
0.0
  0
LINE
  5
109
100
AcDbEntity
  8
DIMENTION
  6
CONTINUOUS
 62
               0
100
AcDbLine
 10
-300.0
 20
680.0
 30
0.0
 11
-308.50738685968815
 21
648.25
 31
0.0
  0
LINE
  5
10A
100
AcDbEntity
  8
DIMENTION
  6
CONTINUOUS
 62
               0
100
AcDbLine
 10
-300.0
 20
400.0
 30
0.0
 11
-308.50738685968815
 21
431.75
 31
0.0
  0
LINE
  5
10B
100
AcDbEntity
  8
DIMENTION
  6
CONTINUOUS
 62
               0
100
AcDbLine
 10
-300.0
 20
400.0
 30
0.0
 11
-291.49261314031185
 21
431.75
 31
0.0
  0
MTEXT
  5
10C
100
AcDbEntity
  8
DIMENTION
 62
               0
100
AcDbMText
 10
-343.33333333333337
 20
508.25
 30
0.0
 40
33.866666666666667
 41
0.0
 71
               1
 72
               1
  1
280
  7
________
 11
0.0
 21
1.0
 31
0.0
  0
POINT
  5
10D
100
AcDbEntity
  8
DEFPOINTS
 62
               0
100
AcDbPoint
 10
-155.0
 20
400.0
 30
0.0
  0
POINT
  5
10E
100
AcDbEntity
  8
DEFPOINTS
 62
               0
100
AcDbPoint
 10
-165.0
 20
680.0
 30
0.0
  0
POINT
  5
10F
100
AcDbEntity
  8
DEFPOINTS
 62
               0
100
AcDbPoint
 10
-300.0
 20
680.0
 30
0.0
  0
ENDBLK
  5
110
100
AcDbEntity
  8
DIMENTION
100
AcDbBlockEnd
  0
BLOCK
  5
111
100
AcDbEntity
  8
DIMENTION
100
AcDbBlockBegin
  2
*D18
 70
               1
 10
0.0
 20
0.0
 30
0.0
  3
*D18
  1

  0
LINE
  5
112
100
AcDbEntity
  8
DIMENTION
  6
CONTINUOUS
 62
               0
100
AcDbLine
 10
-165.0
 20
690.0
 30
0.0
 11
-165.0
 21
820.0
 31
0.0
  0
LINE
  5
113
100
AcDbEntity
  8
DIMENTION
  6
CONTINUOUS
 62
               0
100
AcDbLine
 10
364.79800000000068
 20
682.0
 30
0.0
 11
364.79800000000068
 21
820.0
 31
0.0
  0
LINE
  5
114
100
AcDbEntity
  8
DIMENTION
  6
CONTINUOUS
 62
               0
100
AcDbLine
 10
-165.0
 20
800.0
 30
0.0
 11
364.79800000000068
 21
800.0
 31
0.0
  0
LINE
  5
115
100
AcDbEntity
  8
DIMENTION
  6
CONTINUOUS
 62
               0
100
AcDbLine
 10
-165.0
 20
800.0
 30
0.0
 11
-133.25
 21
808.50738685968815
 31
0.0
  0
LINE
  5
116
100
AcDbEntity
  8
DIMENTION
  6
CONTINUOUS
 62
               0
100
AcDbLine
 10
-165.0
 20
800.0
 30
0.0
 11
-133.25
 21
791.49261314031185
 31
0.0
  0
LINE
  5
117
100
AcDbEntity
  8
DIMENTION
  6
CONTINUOUS
 62
               0
100
AcDbLine
 10
364.79800000000068
 20
800.0
 30
0.0
 11
333.04800000000068
 21
791.49261314031185
 31
0.0
  0
LINE
  5
118
100
AcDbEntity
  8
DIMENTION
  6
CONTINUOUS
 62
               0
100
AcDbLine
 10
364.79800000000068
 20
800.0
 30
0.0
 11
333.04800000000068
 21
808.50738685968815
 31
0.0
  0
MTEXT
  5
119
100
AcDbEntity
  8
DIMENTION
 62
               0
100
AcDbMText
 10
68.149000000000342
 20
843.33333333333337
 30
0.0
 40
33.866666666666667
 41
0.0
 71
               1
 72
               1
  1
530
  7
________
  0
POINT
  5
11A
100
AcDbEntity
  8
DEFPOINTS
 62
               0
100
AcDbPoint
 10
364.79800000000068
 20
672.0
 30
0.0
  0
POINT
  5
11B
100
AcDbEntity
  8
DEFPOINTS
 62
               0
100
AcDbPoint
 10
-165.0
 20
680.0
 30
0.0
  0
POINT
  5
11C
100
AcDbEntity
  8
DEFPOINTS
 62
               0
100
AcDbPoint
 10
-165.0
 20
800.0
 30
0.0
  0
ENDBLK
  5
11D
100
AcDbEntity
  8
DIMENTION
100
AcDbBlockEnd
  0
BLOCK
  5
11E
100
AcDbEntity
  8
DIMENTION
100
AcDbBlockBegin
  2
*D19
 70
               1
 10
0.0
 20
0.0
 30
0.0
  3
*D19
  1

  0
LINE
  5
11F
100
AcDbEntity
  8
DIMENTION
  6
CONTINUOUS
 62
               0
100
AcDbLine
 10
-175.0
 20
300.0
 30
0.0
 11
-320.0
 21
300.0
 31
0.0
  0
LINE
  5
120
100
AcDbEntity
  8
DIMENTION
  6
CONTINUOUS
 62
               0
100
AcDbLine
 10
-175.0
 20
295.0
 30
0.0
 11
-320.0
 21
295.0
 31
0.0
  0
LINE
  5
121
100
AcDbEntity
  8
DIMENTION
  6
CONTINUOUS
 62
               0
100
AcDbLine
 10
-300.0
 20
295.0
 30
0.0
 11
-300.0
 21
300.0
 31
0.0
  0
LINE
  5
122
100
AcDbEntity
  8
DIMENTION
  6
CONTINUOUS
 62
               0
100
AcDbLine
 10
-300.0
 20
300.0
 30
0.0
 11
-300.0
 21
360.0
 31
0.0
  0
LINE
  5
123
100
AcDbEntity
  8
DIMENTION
  6
CONTINUOUS
 62
               0
100
AcDbLine
 10
-300.0
 20
300.0
 30
0.0
 11
-308.50738685968815
 21
331.75
 31
0.0
  0
LINE
  5
124
100
AcDbEntity
  8
DIMENTION
  6
CONTINUOUS
 62
               0
100
AcDbLine
 10
-300.0
 20
300.0
 30
0.0
 11
-291.49261314031185
 21
331.75
 31
0.0
  0
LINE
  5
125
100
AcDbEntity
  8
DIMENTION
  6
CONTINUOUS
 62
               0
100
AcDbLine
 10
-300.0
 20
295.0
 30
0.0
 11
-300.0
 21
228.83333333333334
 31
0.0
  0
LINE
  5
126
100
AcDbEntity
  8
DIMENTION
  6
CONTINUOUS
 62
               0
100
AcDbLine
 10
-300.0
 20
295.0
 30
0.0
 11
-291.49261314031185
 21
263.25
 31
0.0
  0
LINE
  5
127
100
AcDbEntity
  8
DIMENTION
  6
CONTINUOUS
 62
               0
100
AcDbLine
 10
-300.0
 20
295.0
 30
0.0
 11
-308.50738685968815
 21
263.25
 31
0.0
  0
MTEXT
  5
128
100
AcDbEntity
  8
DIMENTION
 62
               0
100
AcDbMText
 10
-343.33333333333331
 20
228.83333333333337
 30
0.0
 40
33.866666666666667
 41
0.0
 71
               1
 72
               1
  1
3
  7
________
 11
0.0
 21
1.0
 31
0.0
  0
POINT
  5
129
100
AcDbEntity
  8
DEFPOINTS
 62
               0
100
AcDbPoint
 10
-165.0
 20
295.0
 30
0.0
  0
POINT
  5
12A
100
AcDbEntity
  8
DEFPOINTS
 62
               0
100
AcDbPoint
 10
-165.0
 20
300.0
 30
0.0
  0
POINT
  5
12B
100
AcDbEntity
  8
DEFPOINTS
 62
               0
100
AcDbPoint
 10
-300.0
 20
300.0
 30
0.0
  0
ENDBLK
  5
12C
100
AcDbEntity
  8
DIMENTION
100
AcDbBlockEnd
  0
BLOCK
  5
12D
100
AcDbEntity
  8
DIMENTION
100
AcDbBlockBegin
  2
*D20
 70
               1
 10
0.0
 20
0.0
 30
0.0
  3
*D20
  1

  0
LINE
  5
12E
100
AcDbEntity
  8
DIMENTION
  6
CONTINUOUS
 62
               0
100
AcDbLine
 10
-840.0
 20
722.0
 30
0.0
 11
-840.0
 21
870.00000000000011
 31
0.0
  0
LINE
  5
12F
100
AcDbEntity
  8
DIMENTION
  6
CONTINUOUS
 62
               0
100
AcDbLine
 10
-1360.0
 20
722.0
 30
0.0
 11
-1360.0
 21
870.00000000000011
 31
0.0
  0
LINE
  5
130
100
AcDbEntity
  8
DIMENTION
  6
CONTINUOUS
 62
               0
100
AcDbLine
 10
-840.0
 20
850.00000000000011
 30
0.0
 11
-1360.0
 21
850.00000000000011
 31
0.0
  0
LINE
  5
131
100
AcDbEntity
  8
DIMENTION
  6
CONTINUOUS
 62
               0
100
AcDbLine
 10
-840.0
 20
850.00000000000011
 30
0.0
 11
-871.75
 21
841.49261314031196
 31
0.0
  0
LINE
  5
132
100
AcDbEntity
  8
DIMENTION
  6
CONTINUOUS
 62
               0
100
AcDbLine
 10
-840.0
 20
850.00000000000011
 30
0.0
 11
-871.75
 21
858.50738685968827
 31
0.0
  0
LINE
  5
133
100
AcDbEntity
  8
DIMENTION
  6
CONTINUOUS
 62
               0
100
AcDbLine
 10
-1360.0
 20
850.00000000000011
 30
0.0
 11
-1328.25
 21
858.50738685968827
 31
0.0
  0
LINE
  5
134
100
AcDbEntity
  8
DIMENTION
  6
CONTINUOUS
 62
               0
100
AcDbLine
 10
-1360.0
 20
850.00000000000011
 30
0.0
 11
-1328.25
 21
841.49261314031196
 31
0.0
  0
MTEXT
  5
135
100
AcDbEntity
  8
DIMENTION
 62
               0
100
AcDbMText
 10
-1131.75
 20
893.33333333333348
 30
0.0
 40
33.866666666666667
 41
0.0
 71
               1
 72
               1
  1
520
  7
________
  0
POINT
  5
136
100
AcDbEntity
  8
DEFPOINTS
 62
               0
100
AcDbPoint
 10
-1360.0
 20
712.0
 30
0.0
  0
POINT
  5
137
100
AcDbEntity
  8
DEFPOINTS
 62
               0
100
AcDbPoint
 10
-840.0
 20
712.0
 30
0.0
  0
POINT
  5
138
100
AcDbEntity
  8
DEFPOINTS
 62
               0
100
AcDbPoint
 10
-840.0
 20
850.00000000000011
 30
0.0
  0
ENDBLK
  5
139
100
AcDbEntity
  8
DIMENTION
100
AcDbBlockEnd
  0
BLOCK
  5
13A
100
AcDbEntity
  8
OBJECT
100
AcDbBlockBegin
  2
*U21
 70
               1
 10
0.0
 20
0.0
 30
0.0
  3
*U21
  1

  0
LINE
  5
13B
100
AcDbEntity
  8
OBJECT
  6
CONTINUOUS
 62
               0
100
AcDbLine
 10
-162.0
 20
280.0
 30
0.0
 11
-162.0
 21
296.5
 31
0.0
  0
LINE
  5
13C
100
AcDbEntity
  8
OBJECT
  6
CONTINUOUS
 62
               0
100
AcDbLine
 10
-132.0
 20
280.0
 30
0.0
 11
-162.0
 21
280.0
 31
0.0
  0
LINE
  5
13D
100
AcDbEntity
  8
OBJECT
  6
CONTINUOUS
 62
               0
100
AcDbLine
 10
-132.0
 20
280.0
 30
0.0
 11
-154.14589999999953
 21
299.5
 31
0.0
  0
ARC
  5
13E
100
AcDbEntity
  8
OBJECT
  6
CONTINUOUS
 62
               0
100
AcDbCircle
 10
-157.5
 20
296.5
 30
0.0
 40
4.4999985344445577
100
AcDbArc
 50
41.810331585825722
 51
180.0
  0
ENDBLK
  5
13F
100
AcDbEntity
  8
OBJECT
100
AcDbBlockEnd
  0
BLOCK
  5
140
100
AcDbEntity
  8
DIMENTION
100
AcDbBlockBegin
  2
*D22
 70
               1
 10
0.0
 20
0.0
 30
0.0
  3
*D22
  1

  0
LINE
  5
141
100
AcDbEntity
  8
DIMENTION
  6
CONTINUOUS
 62
               0
100
AcDbLine
 10
-810.0
 20
732.0
 30
0.0
 11
-680.0
 21
732.0
 31
0.0
  0
LINE
  5
142
100
AcDbEntity
  8
DIMENTION
  6
CONTINUOUS
 62
               0
100
AcDbLine
 10
-830.0
 20
712.0
 30
0.0
 11
-680.0
 21
712.0
 31
0.0
  0
LINE
  5
143
100
AcDbEntity
  8
DIMENTION
  6
CONTINUOUS
 62
               0
100
AcDbLine
 10
-700.0
 20
712.0
 30
0.0
 11
-700.0
 21
732.0
 31
0.0
  0
LINE
  5
144
100
AcDbEntity
  8
DIMENTION
  6
CONTINUOUS
 62
               0
100
AcDbLine
 10
-700.0
 20
732.0
 30
0.0
 11
-700.0
 21
812.33333333333348
 31
0.0
  0
LINE
  5
145
100
AcDbEntity
  8
DIMENTION
  6
CONTINUOUS
 62
               0
100
AcDbLine
 10
-700.0
 20
732.0
 30
0.0
 11
-708.50738685968815
 21
763.75
 31
0.0
  0
LINE
  5
146
100
AcDbEntity
  8
DIMENTION
  6
CONTINUOUS
 62
               0
100
AcDbLine
 10
-700.0
 20
732.0
 30
0.0
 11
-691.49261314031185
 21
763.75
 31
0.0
  0
LINE
  5
147
100
AcDbEntity
  8
DIMENTION
  6
CONTINUOUS
 62
               0
100
AcDbLine
 10
-700.0
 20
712.0
 30
0.0
 11
-700.0
 21
652.0
 31
0.0
  0
LINE
  5
148
100
AcDbEntity
  8
DIMENTION
  6
CONTINUOUS
 62
               0
100
AcDbLine
 10
-700.0
 20
712.0
 30
0.0
 11
-691.49261314031185
 21
680.25
 31
0.0
  0
LINE
  5
149
100
AcDbEntity
  8
DIMENTION
  6
CONTINUOUS
 62
               0
100
AcDbLine
 10
-700.0
 20
712.0
 30
0.0
 11
-708.50738685968815
 21
680.25
 31
0.0
  0
MTEXT
  5
14A
100
AcDbEntity
  8
DIMENTION
 62
               0
100
AcDbMText
 10
-743.33333333333326
 20
770.00000000000011
 30
0.0
 40
33.866666666666667
 41
0.0
 71
               1
 72
               1
  1
20
  7
________
 11
0.0
 21
1.0
 31
0.0
  0
POINT
  5
14B
100
AcDbEntity
  8
DEFPOINTS
 62
               0
100
AcDbPoint
 10
-840.0
 20
712.0
 30
0.0
  0
POINT
  5
14C
100
AcDbEntity
  8
DEFPOINTS
 62
               0
100
AcDbPoint
 10
-820.0
 20
732.0
 30
0.0
  0
POINT
  5
14D
100
AcDbEntity
  8
DEFPOINTS
 62
               0
100
AcDbPoint
 10
-700.0
 20
732.0
 30
0.0
  0
ENDBLK
  5
14E
100
AcDbEntity
  8
DIMENTION
100
AcDbBlockEnd
  0
BLOCK
  5
14F
100
AcDbEntity
  8
DIMENTION
100
AcDbBlockBegin
  2
*D23
 70
               1
 10
0.0
 20
0.0
 30
0.0
  3
*D23
  1

  0
LINE
  5
150
100
AcDbEntity
  8
DIMENTION
  6
CONTINUOUS
 62
               0
100
AcDbLine
 10
-840.0
 20
722.0
 30
0.0
 11
-840.0
 21
870.00000000000011
 31
0.0
  0
LINE
  5
151
100
AcDbEntity
  8
DIMENTION
  6
CONTINUOUS
 62
               0
100
AcDbLine
 10
-820.0
 20
742.0
 30
0.0
 11
-820.0
 21
870.00000000000011
 31
0.0
  0
LINE
  5
152
100
AcDbEntity
  8
DIMENTION
  6
CONTINUOUS
 62
               0
100
AcDbLine
 10
-820.0
 20
850.00000000000011
 30
0.0
 11
-840.0
 21
850.00000000000011
 31
0.0
  0
LINE
  5
153
100
AcDbEntity
  8
DIMENTION
  6
CONTINUOUS
 62
               0
100
AcDbLine
 10
-840.0
 20
850.00000000000011
 30
0.0
 11
-900.0
 21
850.00000000000011
 31
0.0
  0
LINE
  5
154
100
AcDbEntity
  8
DIMENTION
  6
CONTINUOUS
 62
               0
100
AcDbLine
 10
-840.0
 20
850.00000000000011
 30
0.0
 11
-871.75
 21
841.49261314031196
 31
0.0
  0
LINE
  5
155
100
AcDbEntity
  8
DIMENTION
  6
CONTINUOUS
 62
               0
100
AcDbLine
 10
-840.0
 20
850.00000000000011
 30
0.0
 11
-871.75
 21
858.50738685968827
 31
0.0
  0
LINE
  5
156
100
AcDbEntity
  8
DIMENTION
  6
CONTINUOUS
 62
               0
100
AcDbLine
 10
-820.0
 20
850.00000000000011
 30
0.0
 11
-737.66666666666663
 21
850.00000000000011
 31
0.0
  0
LINE
  5
157
100
AcDbEntity
  8
DIMENTION
  6
CONTINUOUS
 62
               0
100
AcDbLine
 10
-820.0
 20
850.00000000000011
 30
0.0
 11
-788.25
 21
858.50738685968827
 31
0.0
  0
LINE
  5
158
100
AcDbEntity
  8
DIMENTION
  6
CONTINUOUS
 62
               0
100
AcDbLine
 10
-820.0
 20
850.00000000000011
 30
0.0
 11
-788.25
 21
841.49261314031196
 31
0.0
  0
MTEXT
  5
159
100
AcDbEntity
  8
DIMENTION
 62
               0
100
AcDbMText
 10
-780.0
 20
893.33333333333348
 30
0.0
 40
33.866666666666667
 41
0.0
 71
               1
 72
               1
  1
20
  7
________
  0
POINT
  5
15A
100
AcDbEntity
  8
DEFPOINTS
 62
               0
100
AcDbPoint
 10
-820.0
 20
732.0
 30
0.0
  0
POINT
  5
15B
100
AcDbEntity
  8
DEFPOINTS
 62
               0
100
AcDbPoint
 10
-840.0
 20
712.0
 30
0.0
  0
POINT
  5
15C
100
AcDbEntity
  8
DEFPOINTS
 62
               0
100
AcDbPoint
 10
-840.0
 20
850.00000000000011
 30
0.0
  0
ENDBLK
  5
15D
100
AcDbEntity
  8
DIMENTION
100
AcDbBlockEnd
  0
BLOCK
  5
15E
100
AcDbEntity
  8
OBJECT
100
AcDbBlockBegin
  2
*U24
 70
               1
 10
0.0
 20
0.0
 30
0.0
  3
*U24
  1

  0
LINE
  5
15F
100
AcDbEntity
  8
OBJECT
  6
CONTINUOUS
 62
               0
100
AcDbLine
 10
-1362.0
 20
-84.0
 30
0.0
 11
-1362.0
 21
-67.5
 31
0.0
  0
LINE
  5
160
100
AcDbEntity
  8
OBJECT
  6
CONTINUOUS
 62
               0
100
AcDbLine
 10
-1332.0
 20
-84.0
 30
0.0
 11
-1362.0
 21
-84.0
 31
0.0
  0
LINE
  5
161
100
AcDbEntity
  8
OBJECT
  6
CONTINUOUS
 62
               0
100
AcDbLine
 10
-1332.0
 20
-84.0
 30
0.0
 11
-1354.1458999999995
 21
-64.5
 31
0.0
  0
ARC
  5
162
100
AcDbEntity
  8
OBJECT
  6
CONTINUOUS
 62
               0
100
AcDbCircle
 10
-1357.5
 20
-67.5
 30
0.0
 40
4.4999985344445577
100
AcDbArc
 50
41.810331585825722
 51
180.0
  0
ENDBLK
  5
163
100
AcDbEntity
  8
OBJECT
100
AcDbBlockEnd
  0
BLOCK
  5
164
100
AcDbEntity
  8
OBJECT
100
AcDbBlockBegin
  2
*U25
 70
               1
 10
0.0
 20
0.0
 30
0.0
  3
*U25
  1

  0
LWPOLYLINE
  5
165
100
AcDbEntity
  8
OBJECT
  6
CONTINUOUS
 62
               0
100
AcDbPolyline
 90
       10
 70
             129
 10
-1380.0
 20
-770.56155281280894
 42
-0.3441507314089657
 10
-1378.4850712500727
 20
-768.62126781251823
 10
-1360.0
 20
-764.0
 10
-1328.0
 20
-764.0
 42
-0.414213562373095
 10
-1323.0
 20
-769.0
 10
-1323.0
 20
-789.0
 42
-0.414213562373095
 10
-1328.0
 20
-794.0
 10
-1360.0
 20
-794.0
 10
-1378.4850712500727
 20
-789.37873218748177
 42
-0.3441507314089108
 10
-1380.0
 20
-787.43844718719106
  0
LWPOLYLINE
  5
166
100
AcDbEntity
  8
OBJECT
  6
CONTINUOUS
 62
               0
100
AcDbPolyline
 90
        5
 70
             129
 10
-1343.0
 20
-779.0
 42
-0.414213562373095
 10
-1338.0
 20
-774.0
 42
-0.414213562373095
 10
-1333.0
 20
-779.0
 42
-0.414213562373095
 10
-1338.0
 20
-784.0
 42
-0.414213562373095
 10
-1343.0
 20
-779.0
 42
-0.414213562373095
  0
LWPOLYLINE
  5
167
100
AcDbEntity
  8
OBJECT
  6
CONTINUOUS
 62
               0
100
AcDbPolyline
 90
        6
 70
             128
 10
-1376.0
 20
-769.0
 10
-1332.0
 20
-769.0
 42
-0.414213562373095
 10
-1328.0
 20
-773.0
 10
-1328.0
 20
-785.0
 42
-0.414213562373095
 10
-1332.0
 20
-789.0
 10
-1376.0
 20
-789.0
  0
ENDBLK
  5
168
100
AcDbEntity
  8
OBJECT
100
AcDbBlockEnd
  0
BLOCK
  5
169
100
AcDbEntity
  8
OBJECT
100
AcDbBlockBegin
  2
*U26
 70
               1
 10
0.0
 20
0.0
 30
0.0
  3
*U26
  1

  0
LWPOLYLINE
  5
16A
100
AcDbEntity
  8
OBJECT
  6
CONTINUOUS
 62
               0
100
AcDbPolyline
 90
       10
 70
             129
 10
-820.0
 20
-770.56155281280894
 42
0.3441507314089108
 10
-821.51492874992732
 20
-768.62126781251823
 10
-840.0
 20
-764.0
 10
-872.0
 20
-764.0
 42
0.414213562373095
 10
-877.0
 20
-769.0
 10
-877.0
 20
-789.0
 42
0.414213562373095
 10
-872.0
 20
-794.0
 10
-840.0
 20
-794.0
 10
-821.51492874992732
 20
-789.37873218748177
 42
0.3441507314088833
 10
-820.0
 20
-787.43844718719106
  0
LWPOLYLINE
  5
16B
100
AcDbEntity
  8
OBJECT
  6
CONTINUOUS
 62
               0
100
AcDbPolyline
 90
        5
 70
             129
 10
-867.0
 20
-779.0
 42
-0.414213562373095
 10
-862.0
 20
-774.0
 42
-0.414213562373095
 10
-857.0
 20
-779.0
 42
-0.414213562373095
 10
-862.0
 20
-784.0
 42
-0.414213562373095
 10
-867.0
 20
-779.0
 42
-0.414213562373095
  0
LWPOLYLINE
  5
16C
100
AcDbEntity
  8
OBJECT
  6
CONTINUOUS
 62
               0
100
AcDbPolyline
 90
        6
 70
             128
 10
-824.0
 20
-769.0
 10
-868.0
 20
-769.0
 42
0.414213562373095
 10
-872.0
 20
-773.0
 10
-872.0
 20
-785.0
 42
0.414213562373095
 10
-868.0
 20
-789.0
 10
-824.0
 20
-789.0
  0
ENDBLK
  5
16D
100
AcDbEntity
  8
OBJECT
100
AcDbBlockEnd
  0
BLOCK
  5
16E
100
AcDbEntity
  8
DIMENTION
100
AcDbBlockBegin
  2
*D27
 70
               1
 10
0.0
 20
0.0
 30
0.0
  3
*D27
  1

  0
LINE
  5
16F
100
AcDbEntity
  8
DIMENTION
 62
               0
100
AcDbLine
 10
-820.0
 20
727.0
 30
0.0
 11
-820.0
 21
970.0
 31
0.0
  0
LINE
  5
170
100
AcDbEntity
  8
DIMENTION
 62
               0
100
AcDbLine
 10
-1380.0
 20
727.0
 30
0.0
 11
-1380.0
 21
970.0
 31
0.0
  0
LINE
  5
171
100
AcDbEntity
  8
DIMENTION
 62
               0
100
AcDbLine
 10
-820.0
 20
950.0
 30
0.0
 11
-1380.0
 21
950.0
 31
0.0
  0
LINE
  5
172
100
AcDbEntity
  8
DIMENTION
 62
               0
100
AcDbLine
 10
-820.0
 20
950.0
 30
0.0
 11
-851.75
 21
941.49261314031185
 31
0.0
  0
LINE
  5
173
100
AcDbEntity
  8
DIMENTION
 62
               0
100
AcDbLine
 10
-820.0
 20
950.0
 30
0.0
 11
-851.75
 21
958.50738685968815
 31
0.0
  0
LINE
  5
174
100
AcDbEntity
  8
DIMENTION
 62
               0
100
AcDbLine
 10
-1380.0
 20
950.0
 30
0.0
 11
-1348.25
 21
958.50738685968815
 31
0.0
  0
LINE
  5
175
100
AcDbEntity
  8
DIMENTION
 62
               0
100
AcDbLine
 10
-1380.0
 20
950.0
 30
0.0
 11
-1348.25
 21
941.49261314031185
 31
0.0
  0
MTEXT
  5
176
100
AcDbEntity
  8
DIMENTION
 62
               0
100
AcDbMText
 10
-1131.75
 20
993.33333332960808
 30
0.0
 40
33.866666666666667
 41
0.0
 71
               1
 72
               1
  1
560
  7
________
  0
POINT
  5
177
100
AcDbEntity
  8
DEFPOINTS
 62
               0
100
AcDbPoint
 10
-1380.0
 20
717.0
 30
0.0
  0
POINT
  5
178
100
AcDbEntity
  8
DEFPOINTS
 62
               0
100
AcDbPoint
 10
-820.0
 20
717.0
 30
0.0
  0
POINT
  5
179
100
AcDbEntity
  8
DEFPOINTS
 62
               0
100
AcDbPoint
 10
-820.0
 20
950.0
 30
0.0
  0
ENDBLK
  5
17A
100
AcDbEntity
  8
DIMENTION
100
AcDbBlockEnd
  0
BLOCK
  5
17B
100
AcDbEntity
  8
DIMENTION
100
AcDbBlockBegin
  2
*D28
 70
               1
 10
0.0
 20
0.0
 30
0.0
  3
*D28
  1

  0
LINE
  5
17C
100
AcDbEntity
  8
DIMENTION
 62
               0
100
AcDbLine
 10
-825.0
 20
732.0
 30
0.0
 11
-580.0
 21
732.0
 31
0.0
  0
LINE
  5
17D
100
AcDbEntity
  8
DIMENTION
 62
               0
100
AcDbLine
 10
-825.0
 20
382.0
 30
0.0
 11
-580.0
 21
382.0
 31
0.0
  0
LINE
  5
17E
100
AcDbEntity
  8
DIMENTION
 62
               0
100
AcDbLine
 10
-600.0
 20
732.0
 30
0.0
 11
-600.0
 21
382.0
 31
0.0
  0
LINE
  5
17F
100
AcDbEntity
  8
DIMENTION
 62
               0
100
AcDbLine
 10
-600.0
 20
732.0
 30
0.0
 11
-591.49261314031185
 21
700.25
 31
0.0
  0
LINE
  5
180
100
AcDbEntity
  8
DIMENTION
 62
               0
100
AcDbLine
 10
-600.0
 20
732.0
 30
0.0
 11
-608.50738685968815
 21
700.25
 31
0.0
  0
LINE
  5
181
100
AcDbEntity
  8
DIMENTION
 62
               0
100
AcDbLine
 10
-600.0
 20
382.0
 30
0.0
 11
-608.50738685968815
 21
413.75
 31
0.0
  0
LINE
  5
182
100
AcDbEntity
  8
DIMENTION
 62
               0
100
AcDbLine
 10
-600.0
 20
382.0
 30
0.0
 11
-591.49261314031185
 21
413.75
 31
0.0
  0
MTEXT
  5
183
100
AcDbEntity
  8
DIMENTION
 62
               0
100
AcDbMText
 10
-643.33333332960797
 20
525.25
 30
0.0
 40
33.866666666666667
 41
0.0
 71
               1
 72
               1
  1
350
  7
________
 11
0.0
 21
1.0
 31
0.0
  0
POINT
  5
184
100
AcDbEntity
  8
DEFPOINTS
 62
               0
100
AcDbPoint
 10
-835.0
 20
382.0
 30
0.0
  0
POINT
  5
185
100
AcDbEntity
  8
DEFPOINTS
 62
               0
100
AcDbPoint
 10
-835.0
 20
732.0
 30
0.0
  0
POINT
  5
186
100
AcDbEntity
  8
DEFPOINTS
 62
               0
100
AcDbPoint
 10
-600.0
 20
732.0
 30
0.0
  0
ENDBLK
  5
187
100
AcDbEntity
  8
DIMENTION
100
AcDbBlockEnd
  0
ENDSEC
  0
SECTION
  2
ENTITIES
  0
LINE
  5
188
100
AcDbEntity
  8
FRAME
  6
CONTINUOUS
100
AcDbLine
 10
-2025.3999999999999
 20
-1388.9999999999998
 30
0.0
 11
-2025.3999999999999
 21
1330.9999999999998
 31
0.0
  0
LINE
  5
189
100
AcDbEntity
  8
FRAME
  6
CONTINUOUS
100
AcDbLine
 10
2024.5999999999999
 20
-1388.9999999999998
 30
0.0
 11
-2025.3999999999999
 21
-1388.9999999999998
 31
0.0
  0
LINE
  5
18A
100
AcDbEntity
  8
FRAME
  6
CONTINUOUS
100
AcDbLine
 10
2024.5999999999999
 20
1330.9999999999998
 30
0.0
 11
2024.5999999999999
 21
-1388.9999999999998
 31
0.0
  0
LINE
  5
18B
100
AcDbEntity
  8
FRAME
  6
CONTINUOUS
100
AcDbLine
 10
-2025.3999999999999
 20
1330.9999999999998
 30
0.0
 11
2024.5999999999999
 21
1330.9999999999998
 31
0.0
  0
LINE
  5
18C
100
AcDbEntity
  8
OBJECT
  6
CONTINUOUS
100
AcDbLine
 10
1264.3599999999999
 20
-1388.9999999999998
 30
0.0
 11
1264.3599999999999
 21
-1249.0
 31
0.0
  0
LINE
  5
18D
100
AcDbEntity
  8
OBJECT
  6
CONTINUOUS
100
AcDbLine
 10
1044.3599999999999
 20
-1388.9999999999998
 30
0.0
 11
1044.3599999999999
 21
-1249.0
 31
0.0
  0
LINE
  5
18E
100
AcDbEntity
  8
OBJECT
  6
CONTINUOUS
100
AcDbLine
 10
444.35999999999996
 20
-1388.9999999999998
 30
0.0
 11
444.35999999999996
 21
-1249.0
 31
0.0
  0
LINE
  5
18F
100
AcDbEntity
  8
OBJECT
  6
CONTINUOUS
100
AcDbLine
 10
-675.39999999999998
 20
-1388.9999999999998
 30
0.0
 11
-675.39999999999998
 21
-1249.0
 31
0.0
  0
MTEXT
  5
190
100
AcDbEntity
  8
DIMENTION
100
AcDbMText
 10
-650.63999999999999
 20
-1254.1299999999999
 30
0.0
 40
28.2224
 41
109.36099999999999
 71
               1
 72
               1
  1
品　名
  7
________
  0
MTEXT
  5
191
100
AcDbEntity
  8
DIMENTION
100
AcDbMText
 10
464.35999999999996
 20
-1259.1299999999999
 30
0.0
 40
28.2224
 41
0.0
 71
               1
 72
               1
  1
形　式
  7
________
  0
MTEXT
  5
192
100
AcDbEntity
  8
DIMENTION
100
AcDbMText
 10
1069.3599999999999
 20
-1259.1299999999999
 30
0.0
 40
28.2224
 41
0.0
 71
               1
 72
               1
  1
尺　度
  7
________
  0
MTEXT
  5
193
100
AcDbEntity
  8
DIMENTION
100
AcDbMText
 10
1289.3599999999999
 20
-1259.1299999999999
 30
0.0
 40
28.2224
 41
0.0
 71
               1
 72
               1
  1
図　番
  7
________
  0
LINE
  5
194
100
AcDbEntity
  8
OBJECT
  6
CONTINUOUS
100
AcDbLine
 10
-1095.3999999999999
 20
-1388.9999999999998
 30
0.0
 11
-1095.3999999999999
 21
-1249.0
 31
0.0
  0
MTEXT
  5
195
100
AcDbEntity
  8
TEXT
100
AcDbMText
 10
1115.3119999999999
 20
-1314.0139999999999
 30
0.0
 40
39.511200000000002
 41
0.0
 71
               1
 72
               1
  1
1/10
  7
________
  0
LINE
  5
196
100
AcDbEntity
  8
FRAME
  6
CONTINUOUS
100
AcDbLine
 10
-2025.3999999999999
 20
-1249.0
 30
0.0
 11
2024.5999999999999
 21
-1249.0
 31
0.0
  0
MTEXT
  5
197
100
AcDbEntity
  8
DIMENTION
100
AcDbMText
 10
-1085.6399999999999
 20
-1257.1088
 30
0.0
 40
28.2224
 41
0.0
 71
               1
 72
               1
  1
検  図
  7
________
  0
MTEXT
  5
198
100
AcDbEntity
  8
DIMENTION
100
AcDbMText
 10
-1085.6399999999999
 20
-1302.1899999999998
 30
0.0
 40
28.2224
 41
0.0
 71
               1
 72
               1
  1
担  当
  7
________
  0
MTEXT
  5
199
100
AcDbEntity
  8
DIMENTION
100
AcDbMText
 10
-1085.6399999999999
 20
-1347.0599999999999
 30
0.0
 40
28.2224
 41
0.0
 71
               1
 72
               1
  1
年月日
  7
________
  0
LINE
  5
19A
100
AcDbEntity
  8
OBJECT
  6
CONTINUOUS
100
AcDbLine
 10
-1095.3999999999999
 20
-1297.9399999999998
 30
0.0
 11
-675.39999999999998
 21
-1297.9399999999998
 31
0.0
  0
LINE
  5
19B
100
AcDbEntity
  8
OBJECT
  6
CONTINUOUS
100
AcDbLine
 10
-1095.3999999999999
 20
-1342.3299999999999
 30
0.0
 11
-675.39999999999998
 21
-1342.3299999999999
 31
0.0
  0
MTEXT
  5
19C
100
AcDbEntity
  8
TEXT
100
AcDbMText
 10
-44.165000000000077
 20
-1315.0347999999999
 30
0.0
 40
39.511200000000002
 41
0.0
 71
               1
 72
               1
  1
食器ディスペンサー
  7
________
  0
MTEXT
  5
19D
100
AcDbEntity
  8
TEXT
100
AcDbMText
 10
-930.0
 20
-1350.0
 30
0.0
 40
28.222222222222225
 41
0.0
 71
               1
 72
               1
  1
2019.09.04
  7
________
  0
MTEXT
  5
19E
100
AcDbEntity
  8
TEXT
100
AcDbMText
 10
-930.0
 20
-1302.0
 30
0.0
 40
28.222222222222225
 41
0.0
 71
               1
 72
               1
  1
月川
  7
________
  0
MTEXT
  5
19F
100
AcDbEntity
  8
TEXT
100
AcDbMText
 10
-930.0
 20
-1258.0
 30
0.0
 40
28.222222222222225
 41
0.0
 71
               1
 72
               1
  1
大谷
  7
________
  0
MTEXT
  5
1A0
100
AcDbEntity
  8
DIMENTION
100
AcDbMText
 10
1250.0
 20
-805.0
 30
0.0
 40
33.866666666666667
 41
0.0
 71
               1
 72
               1
  1
アース接続端子 M4
  7
________
  0
LINE
  5
1A1
100
AcDbEntity
  8
DIMENTION
  6
CONTINUOUS
100
AcDbLine
 10
1250.0
 20
-850.0
 30
0.0
 11
1163.4472240785926
 21
-761.50221787811165
 31
0.0
  0
LINE
  5
1A2
100
AcDbEntity
  8
DIMENTION
  6
CONTINUOUS
100
AcDbLine
 10
1163.4472240785926
 20
-761.50221787811165
 30
0.0
 11
1182.9689400538321
 21
-773.23204822347418
 31
0.0
  0
LINE
  5
1A3
100
AcDbEntity
  8
DIMENTION
  6
CONTINUOUS
100
AcDbLine
 10
1163.4472240785926
 20
-761.50221787811165
 30
0.0
 11
1174.4886108659332
 21
-781.42140692689691
 31
0.0
  0
LINE
  5
1A4
100
AcDbEntity
  8
DIMENTION
  6
CONTINUOUS
100
AcDbLine
 10
-525.0
 20
200.0
 30
0.0
 11
-900.0
 21
200.0
 31
0.0
  0
LINE
  5
1A5
100
AcDbEntity
  8
DIMENTION
  6
CONTINUOUS
100
AcDbLine
 10
-900.0
 20
200.0
 30
0.0
 11
-1045.0
 21
545.0
 31
0.0
  0
LINE
  5
1A6
100
AcDbEntity
  8
DIMENTION
  6
CONTINUOUS
100
AcDbLine
 10
-1045.0
 20
545.0
 30
0.0
 11
-1031.2938519213424
 21
526.81132716785487
 31
0.0
  0
LINE
  5
1A7
100
AcDbEntity
  8
DIMENTION
  6
CONTINUOUS
100
AcDbLine
 10
-1045.0
 20
545.0
 30
0.0
 11
-1042.2244639919238
 21
522.39507322690963
 31
0.0
  0
MTEXT
  5
1A8
100
AcDbEntity
  8
DIMENTION
100
AcDbMText
 10
-900.0
 20
245.0
 30
0.0
 40
33.866666666666667
 41
0.0
 71
               1
 72
               1
  1
450Wヒーターユニット
  7
________
  0
LINE
  5
1A9
100
AcDbEntity
  8
DIMENTION
  6
CONTINUOUS
100
AcDbLine
 10
-700.0
 20
-200.0
 30
0.0
 11
-840.0
 21
-300.0
 31
0.0
  0
LINE
  5
1AA
100
AcDbEntity
  8
DIMENTION
  6
CONTINUOUS
100
AcDbLine
 10
-840.0
 20
-300.0
 30
0.0
 11
-825.36071413547245
 21
-282.55357847793567
 31
0.0
  0
LINE
  5
1AB
100
AcDbEntity
  8
DIMENTION
  6
CONTINUOUS
100
AcDbLine
 10
-840.0
 20
-300.0
 30
0.0
 11
-818.59879578702453
 21
-292.21059868902449
 31
0.0
  0
MTEXT
  5
1AC
100
AcDbEntity
  8
DIMENTION
100
AcDbMText
 10
-695.0
 20
-155.0
 30
0.0
 40
33.866666666666667
 41
0.0
 71
               1
 72
               1
  1
胴体外板
  7
________
  0
LINE
  5
1AD
100
AcDbEntity
  8
DIMENTION
  6
CONTINUOUS
100
AcDbLine
 10
50.0
 20
-800.0
 30
0.0
 11
152.5658193780796
 21
-834.18860645935968
 31
0.0
  0
LINE
  5
1AE
100
AcDbEntity
  8
DIMENTION
  6
CONTINUOUS
100
AcDbLine
 10
152.5658193780796
 20
-834.18860645935968
 30
0.0
 11
129.84661154043778
 21
-832.59992468539133
 31
0.0
  0
LINE
  5
1AF
100
AcDbEntity
  8
DIMENTION
  6
CONTINUOUS
100
AcDbLine
 10
152.5658193780796
 20
-834.18860645935968
 30
0.0
 11
133.68474912380742
 21
-821.45316376575283
 31
0.0
  0
MTEXT
  5
1B0
100
AcDbEntity
  8
DIMENTION
100
AcDbMText
 10
-395.0
 20
-805.0
 30
0.0
 40
33.866666666666667
 41
441.50939999999997
 71
               1
 72
               1
  1
2個ストッパー付
  7
________
  0
LINE
  5
1B1
100
AcDbEntity
  8
DIMENTION
  6
CONTINUOUS
100
AcDbLine
 10
-700.0
 20
-700.0
 30
0.0
 11
-820.0
 21
-759.0
 31
0.0
  0
LINE
  5
1B2
100
AcDbEntity
  8
DIMENTION
  6
CONTINUOUS
100
AcDbLine
 10
-820.0
 20
-759.0
 30
0.0
 11
-802.81172641929641
 21
-744.0584617303374
 31
0.0
  0
LINE
  5
1B3
100
AcDbEntity
  8
DIMENTION
  6
CONTINUOUS
100
AcDbLine
 10
-820.0
 20
-759.0
 30
0.0
 11
-797.64374929708254
 21
-754.6543850772066
 31
0.0
  0
MTEXT
  5
1B4
100
AcDbEntity
  8
DIMENTION
100
AcDbMText
 10
-700.0
 20
-655.0
 30
0.0
 40
33.866666666666667
 41
0.0
 71
               1
 72
               1
  1
ダンパーゴム4個
  7
________
  0
LINE
  5
1B5
100
AcDbEntity
  8
DIMENTION
  6
CONTINUOUS
100
AcDbLine
 10
-655.0
 20
50.0
 30
0.0
 11
-900.0
 21
50.0
 31
0.0
  0
LINE
  5
1B6
100
AcDbEntity
  8
DIMENTION
  6
CONTINUOUS
100
AcDbLine
 10
-900.0
 20
50.0
 30
0.0
 11
-1000.0
 21
-64.0
 31
0.0
  0
LINE
  5
1B7
100
AcDbEntity
  8
DIMENTION
  6
CONTINUOUS
100
AcDbLine
 10
-1000.0
 20
-64.0
 30
0.0
 11
-989.66050899968661
 21
-43.707606341208972
 31
0.0
  0
LINE
  5
1B8
100
AcDbEntity
  8
DIMENTION
  6
CONTINUOUS
100
AcDbLine
 10
-1000.0
 20
-64.0
 30
0.0
 11
-980.89954130213255
 21
-51.596017088049422
 31
0.0
  0
MTEXT
  5
1B9
100
AcDbEntity
  8
DIMENTION
100
AcDbMText
 10
-900.0
 20
95.0
 30
0.0
 40
33.866666666666667
 41
0.0
 71
               1
 72
               1
  1
半透明カバー
  7
________
  0
MTEXT
  5
1BA
100
AcDbEntity
  8
DIMENTION
100
AcDbMText
 10
-690.0
 20
-205.0
 30
0.0
 40
33.866666666666667
 41
0.0
 71
               1
 72
               1
  1
SUS 430
  7
________
  0
MTEXT
  5
1BB
100
AcDbEntity
  8
DIMENTION
100
AcDbMText
 10
-690.0
 20
-255.0
 30
0.0
 40
33.866666666666667
 41
0.0
 71
               1
 72
               1
  1
緑色シート貼り
  7
________
  0
LINE
  5
1BC
100
AcDbEntity
  8
DIMENTION
100
AcDbLine
 10
-700.0
 20
-200.0
 30
0.0
 11
-430.0
 21
-200.0
 31
0.0
  0
LINE
  5
1BD
100
AcDbEntity
  8
DIMENTION
100
AcDbLine
 10
-700.0
 20
-200.0
 30
0.0
 11
-700.0
 21
-300.0
 31
0.0
  0
LINE
  5
1BE
100
AcDbEntity
  8
DIMENTION
100
AcDbLine
 10
-700.0
 20
-300.0
 30
0.0
 11
-430.0
 21
-300.0
 31
0.0
  0
LINE
  5
1BF
100
AcDbEntity
  8
DIMENTION
100
AcDbLine
 10
-700.0
 20
-250.0
 30
0.0
 11
-430.0
 21
-250.0
 31
0.0
  0
LINE
  5
1C0
100
AcDbEntity
  8
DIMENTION
100
AcDbLine
 10
-700.0
 20
-700.0
 30
0.0
 11
-400.0
 21
-700.0
 31
0.0
  0
MTEXT
  5
1C1
100
AcDbEntity
  8
DIMENTION
100
AcDbMText
 10
-405.0
 20
-755.0
 30
0.0
 40
33.866666666666667
 41
455.0
 71
               1
 72
               1
  1
φ100 ウレタンキャスター
  7
________
  0
LINE
  5
1C2
100
AcDbEntity
  8
DIMENTION
100
AcDbLine
 10
50.0
 20
-800.0
 30
0.0
 11
-395.0
 21
-800.0
 31
0.0
  0
LINE
  5
1C3
100
AcDbEntity
  8
DIMENTION
100
AcDbLine
 10
50.0
 20
-800.0
 30
0.0
 11
50.0
 21
-850.0
 31
0.0
  0
LINE
  5
1C4
100
AcDbEntity
  8
DIMENTION
100
AcDbLine
 10
50.0
 20
-850.0
 30
0.0
 11
-395.0
 21
-850.0
 31
0.0
  0
LINE
  5
1C5
100
AcDbEntity
  8
DIMENTION
100
AcDbLine
 10
1250.0
 20
-850.0
 30
0.0
 11
1600.0
 21
-850.0
 31
0.0
  0
MTEXT
  5
1C6
100
AcDbEntity
  8
TEXT
100
AcDbMText
 10
744.36000000000013
 20
-1339.7293
 30
0.0
 40
50.800000000000004
 41
0.0
 71
               5
 72
               1
  1
CL 5227 H
  7
________
  0
MTEXT
  5
1C7
100
AcDbEntity
  8
TEXT
100
AcDbMText
 10
1429.9999999999995
 20
-1270.0
 30
0.0
 40
79.02222222222224
 41
0.0
 71
               1
 72
               1
  1
A330-089D
  7
ARIAL
  0
INSERT
  5
1C8
100
AcDbEntity
  8
FRAME
100
AcDbBlockReference
  2
*U6
 10
0.0
 20
19.999999999999996
 30
0.0
  0
POLYLINE
  5
1C9
100
AcDbEntity
  8
OBJECT
  6
CONTINUOUS
100
AcDb2dPolyline
 66
               1
 10
0.0
 20
0.0
 30
0.0
 70
               1
 75
               5
  0
VERTEX
  5
1CA
100
AcDbEntity
  8
OBJECT
  6
CONTINUOUS
100
AcDbVertex
100
AcDb2dVertex
 10
700.0
 20
1200.0
 30
0.0
  0
VERTEX
  5
1CB
100
AcDbEntity
  8
OBJECT
  6
CONTINUOUS
100
AcDbVertex
100
AcDb2dVertex
 10
1800.0
 20
1200.0
 30
0.0
  0
VERTEX
  5
1CC
100
AcDbEntity
  8
OBJECT
  6
CONTINUOUS
100
AcDbVertex
100
AcDb2dVertex
 10
1800.0
 20
660.0
 30
0.0
  0
VERTEX
  5
1CD
100
AcDbEntity
  8
OBJECT
  6
CONTINUOUS
100
AcDbVertex
100
AcDb2dVertex
 10
700.0
 20
660.0
 30
0.0
  0
SEQEND
  5
1CE
100
AcDbEntity
  8
OBJECT
  6
CONTINUOUS
  0
LINE
  5
1CF
100
AcDbEntity
  8
OBJECT
  6
CONTINUOUS
100
AcDbLine
 10
1099.9999999999995
 20
1200.0
 30
0.0
 11
1099.9999999999995
 21
660.0
 31
0.0
  0
MTEXT
  5
1D0
100
AcDbEntity
  8
TEXT
100
AcDbMText
 10
700.0
 20
1170.0
 30
0.0
 40
33.866666666666667
 41
399.99999999999955
 71
               4
 72
               1
  1
　形　　　　　　　　式
  7
________
  0
LINE
  5
1D1
100
AcDbEntity
  8
OBJECT
100
AcDbLine
 10
1800.0
 20
1140.0
 30
0.0
 11
700.0
 21
1140.0
 31
0.0
  0
MTEXT
  5
1D2
100
AcDbEntity
  8
TEXT
100
AcDbMText
 10
1099.9999999999995
 20
1170.0
 30
0.0
 40
33.866666666666667
 41
700.00000000000045
 71
               4
 72
               1
  1
　CL 5227 H
  7
________
  0
LINE
  5
1D3
100
AcDbEntity
  8
OBJECT
100
AcDbLine
 10
1800.0
 20
1020.0
 30
0.0
 11
700.0
 21
1020.0
 31
0.0
  0
MTEXT
  5
1D4
100
AcDbEntity
  8
TEXT
100
AcDbMText
 10
700.0
 20
1080.0
 30
0.0
 40
33.866666666666667
 41
399.99999999999955
 71
               4
 72
               1
  1
　{\H0.976x;\l適　用　食　器\P　ストック数量の目安}
  7
________
  0
MTEXT
  5
1D5
100
AcDbEntity
  8
TEXT
100
AcDbMText
 10
1100.0
 20
1080.0
 30
0.0
 40
33.866666666666667
 41
700.0
 71
               4
 72
               1
  1
　{\H0.976x;\lハーフサイズラック5段\P　ラックにグラス90個, カップ60個}
  7
________
  0
LINE
  5
1D6
100
AcDbEntity
  8
OBJECT
100
AcDbLine
 10
1800.0
 20
960.0
 30
0.0
 11
700.0
 21
960.0
 31
0.0
  0
MTEXT
  5
1D7
100
AcDbEntity
  8
TEXT
100
AcDbMText
 10
700.0
 20
990.0
 30
0.0
 40
33.866666666666667
 41
399.99999999999955
 71
               4
 72
               1
  1
　ば ね 調 整 範 囲
  7
________
  0
MTEXT
  5
1D8
100
AcDbEntity
  8
TEXT
100
AcDbMText
 10
1099.9999999999995
 20
990.0
 30
0.0
 40
33.866666666666667
 41
700.00000000000045
 71
               4
 72
               1
  1
　10～20kg
  7
________
  0
LINE
  5
1D9
100
AcDbEntity
  8
OBJECT
100
AcDbLine
 10
1800.0
 20
780.0
 30
0.0
 11
700.0
 21
780.0
 31
0.0
  0
MTEXT
  5
1DA
100
AcDbEntity
  8
TEXT
100
AcDbMText
 10
700.0
 20
870.0
 30
0.0
 40
33.866666666666667
 41
399.99999999999955
 71
               4
 72
               1
  1
　保 　温　 機　 能
  7
________
  0
MTEXT
  5
1DB
100
AcDbEntity
  8
TEXT
100
AcDbMText
 10
1099.9999999999995
 20
870.0
 30
0.0
 40
33.866666666666667
 41
700.00000000000045
 71
               4
 72
               1
  1
　450Wヒーター\P　固定サーモスタット ・ 温度ヒューズ\P　半透明カバー付属
  7
________
  0
LINE
  5
1DC
100
AcDbEntity
  8
OBJECT
100
AcDbLine
 10
1800.0
 20
720.0
 30
0.0
 11
700.0
 21
720.0
 31
0.0
  0
MTEXT
  5
1DD
100
AcDbEntity
  8
TEXT
100
AcDbMText
 10
700.0
 20
750.0
 30
0.0
 40
33.866666666666667
 41
399.99999999999955
 71
               4
 72
               1
  1
　電　　　　　　　　源
  7
________
  0
MTEXT
  5
1DE
100
AcDbEntity
  8
TEXT
100
AcDbMText
 10
1099.9999999999995
 20
750.0
 30
0.0
 40
33.866666666666667
 41
700.00000000000045
 71
               4
 72
               1
  1
　単相 100 V　50/60 Hz
  7
________
  0
MTEXT
  5
1DF
100
AcDbEntity
  8
TEXT
100
AcDbMText
 10
700.0
 20
690.0
 30
0.0
 40
33.866666666666667
 41
399.99999999999955
 71
               4
 72
               1
  1
　質　　　　　　　　量
  7
________
  0
MTEXT
  5
1E0
100
AcDbEntity
  8
TEXT
100
AcDbMText
 10
1099.9999999999995
 20
690.0
 30
0.0
 40
33.866666666666667
 41
700.00000000000045
 71
               4
 72
               1
  1
　24kg
  7
________
  0
MTEXT
  5
1E1
100
AcDbEntity
  8
TEXT
100
AcDbMText
 10
950.0
 20
600.0
 30
0.0
 40
33.866666666666667
 41
855.0
 71
               4
 72
               1
  1
電気用品型式認可番号　JET1293-81037-1003
  7
________
  0
MTEXT
  5
1E2
100
AcDbEntity
  8
DIMENTION
100
AcDbMText
 10
655.0
 20
400.0
 30
0.0
 40
33.866666666666667
 41
1305.0
 71
               1
 72
               1
  1
使用する{\H0.9804x;\lラック}は外形寸法510×260(mm)を超えないようにしてください。\P超えてしまうとラックが収納できないまたは引っ掛かりが生じ、出し入れ\Pできない場合があります。
  7
________
  0
MTEXT
  5
1E3
100
AcDbEntity
  8
DIMENTION
100
AcDbMText
 10
600.0
 20
400.0
 30
0.0
 40
33.866666666666667
 41
50.0
 71
               1
 72
               1
  1
※
  7
________
  0
MTEXT
  5
1E4
100
AcDbEntity
  8
DIMENTION
100
AcDbMText
 10
600.0
 20
-154.99999999999977
 30
0.0
 40
33.866666666666667
 41
281.50939999999997
 71
               1
 72
               1
  1
電源コード2.5m
  7
________
  0
LINE
  5
1E5
100
AcDbEntity
  8
DIMENTION
100
AcDbLine
 10
510.08759999999893
 20
-282.49999999999977
 30
0.0
 11
600.0
 21
-199.99999999999977
 31
0.0
  0
LINE
  5
1E6
100
AcDbEntity
  8
DIMENTION
100
AcDbLine
 10
510.08759999999893
 20
-282.49999999999977
 30
0.0
 11
527.98989528095365
 21
-254.93288272499439
 31
0.0
  0
LINE
  5
1E7
100
AcDbEntity
  8
DIMENTION
100
AcDbLine
 10
510.08759999999893
 20
-282.49999999999977
 30
0.0
 11
539.37500113685871
 21
-267.57732377121766
 31
0.0
  0
LINE
  5
1E8
100
AcDbEntity
  8
DIMENTION
100
AcDbLine
 10
600.0
 20
-199.99999999999977
 30
0.0
 11
870.0
 21
-199.99999999999977
 31
0.0
  0
LINE
  5
1E9
100
AcDbEntity
  8
CENTER
  6
STYLE_03
100
AcDbLine
 10
-1100.0
 20
-950.0
 30
0.0
 11
-1100.0
 21
-0.0000000000000036
 31
0.0
  0
LINE
  5
1EA
100
AcDbEntity
  8
FRAME
  6
CONTINUOUS
100
AcDbLine
 10
-1400.0
 20
-900.0
 30
0.0
 11
-800.0
 21
-900.0
 31
0.0
  0
MTEXT
  5
1EB
100
AcDbEntity
  8
DIMENTION
100
AcDbMText
 10
100.0
 20
900.0
 30
0.0
 40
33.866666666666667
 41
0.0
 71
               2
 72
               1
  1
半透明カバー
  7
________
  0
LWPOLYLINE
  5
1EC
100
AcDbEntity
  8
OBJECT
  6
CONTINUOUS
100
AcDbPolyline
 90
        5
 70
             128
 10
1102.0
 20
-461.26130000000012
 10
1092.8252260812183
 20
-455.14478405414565
 42
0.3575107650276921
 10
1076.5
 20
-456.76130000000012
 42
-0.3575107650276858
 10
1060.1747739187817
 20
-458.37781594585459
 10
1051.0
 20
-452.26130000000012
  0
POLYLINE
  5
1ED
100
AcDbEntity
  8
OBJECT
  6
CONTINUOUS
100
AcDb2dPolyline
 66
               1
 10
0.0
 20
0.0
 30
0.0
 70
               1
 75
               5
  0
VERTEX
  5
1EE
100
AcDbEntity
  8
OBJECT
  6
CONTINUOUS
100
AcDbVertex
100
AcDb2dVertex
 10
1065.0
 20
-781.0
 30
0.0
  0
VERTEX
  5
1EF
100
AcDbEntity
  8
OBJECT
  6
CONTINUOUS
100
AcDbVertex
100
AcDb2dVertex
 10
1135.0
 20
-781.0
 30
0.0
  0
VERTEX
  5
1F0
100
AcDbEntity
  8
OBJECT
  6
CONTINUOUS
100
AcDbVertex
100
AcDb2dVertex
 10
1135.0
 20
-784.0
 30
0.0
  0
VERTEX
  5
1F1
100
AcDbEntity
  8
OBJECT
  6
CONTINUOUS
100
AcDbVertex
100
AcDb2dVertex
 10
1065.0
 20
-784.0
 30
0.0
  0
SEQEND
  5
1F2
100
AcDbEntity
  8
OBJECT
  6
CONTINUOUS
  0
POLYLINE
  5
1F3
100
AcDbEntity
  8
OBJECT
  6
CONTINUOUS
100
AcDb2dPolyline
 66
               1
 10
0.0
 20
0.0
 30
0.0
 70
               1
 75
               5
  0
VERTEX
  5
1F4
100
AcDbEntity
  8
OBJECT
  6
CONTINUOUS
100
AcDbVertex
100
AcDb2dVertex
 10
1073.5
 20
-784.0
 30
0.0
  0
VERTEX
  5
1F5
100
AcDbEntity
  8
OBJECT
  6
CONTINUOUS
100
AcDbVertex
100
AcDb2dVertex
 10
1126.5
 20
-784.0
 30
0.0
  0
VERTEX
  5
1F6
100
AcDbEntity
  8
OBJECT
  6
CONTINUOUS
100
AcDbVertex
100
AcDb2dVertex
 10
1122.5
 20
-787.5
 30
0.0
  0
VERTEX
  5
1F7
100
AcDbEntity
  8
OBJECT
  6
CONTINUOUS
100
AcDbVertex
100
AcDb2dVertex
 10
1122.5
 20
-791.0
 30
0.0
  0
VERTEX
  5
1F8
100
AcDbEntity
  8
OBJECT
  6
CONTINUOUS
100
AcDbVertex
100
AcDb2dVertex
 10
1077.5
 20
-791.0
 30
0.0
  0
VERTEX
  5
1F9
100
AcDbEntity
  8
OBJECT
  6
CONTINUOUS
100
AcDbVertex
100
AcDb2dVertex
 10
1077.5
 20
-787.5
 30
0.0
  0
SEQEND
  5
1FA
100
AcDbEntity
  8
OBJECT
  6
CONTINUOUS
  0
LINE
  5
1FB
100
AcDbEntity
  8
OBJECT
  6
CONTINUOUS
100
AcDbLine
 10
1077.5
 20
-787.5
 30
0.0
 11
1122.5
 21
-787.5
 31
0.0
  0
SPLINE
  5
1FC
100
AcDbEntity
  8
OBJECT
  6
CONTINUOUS
100
AcDbSpline
210
0.0
220
0.0
230
1.0
 70
               9
 71
               2
 72
              28
 73
              25
 74
               0
 42
0.000001
 43
0.000001
 40
0.0
 40
0.0
 40
0.0
 40
0.1364451216774349
 40
0.1364451216774349
 40
0.206088985866959
 40
0.206088985866959
 40
0.2868044973790079
 40
0.2868044973790079
 40
0.3351288113064328
 40
0.3351288113064328
 40
0.3436566314112725
 40
0.3436566314112725
 40
0.525583460314519
 40
0.525583460314519
 40
0.6108616613629158
 40
0.6108616613629158
 40
0.7927884902661623
 40
0.7927884902661623
 40
0.8013163103710019
 40
0.8013163103710019
 40
0.8496406242984268
 40
0.8496406242984268
 40
0.9303561358104757
 40
0.9303561358104757
 40
1.0
 40
1.0
 40
1.0
 10
1124.0
 20
-791.0
 30
0.0
 10
1100.0
 20
-791.0
 30
0.0
 10
1076.0
 20
-791.0
 30
0.0
 10
1076.0
 20
-803.25
 30
0.0
 10
1076.0
 20
-815.5
 30
0.0
 10
1076.0
 20
-830.5
 30
0.0
 10
1082.0
 20
-843.0
 30
0.0
 10
1082.0
 20
-851.5
 30
0.0
 10
1082.0
 20
-860.0
 30
0.0
 10
1083.5
 20
-860.0
 30
0.0
 10
1085.0
 20
-860.0
 30
0.0
 10
1085.0
 20
-828.0
 30
0.0
 10
1085.0
 20
-796.0
 30
0.0
 10
1100.0
 20
-796.0
 30
0.0
 10
1115.0
 20
-796.0
 30
0.0
 10
1115.0
 20
-828.0
 30
0.0
 10
1115.0
 20
-860.0
 30
0.0
 10
1116.5
 20
-860.0
 30
0.0
 10
1118.0
 20
-860.0
 30
0.0
 10
1118.0
 20
-851.5
 30
0.0
 10
1118.0
 20
-843.0
 30
0.0
 10
1124.0
 20
-830.5
 30
0.0
 10
1124.0
 20
-815.5
 30
0.0
 10
1124.0
 20
-803.25
 30
0.0
 10
1124.0
 20
-791.0
 30
0.0
  0
POLYLINE
  5
1FD
100
AcDbEntity
  8
OBJECT
  6
CONTINUOUS
100
AcDb2dPolyline
 66
               1
 10
0.0
 20
0.0
 30
0.0
 70
               1
 75
               5
  0
VERTEX
  5
1FE
100
AcDbEntity
  8
OBJECT
  6
CONTINUOUS
100
AcDbVertex
100
AcDb2dVertex
 10
1118.0
 20
-793.0
 30
0.0
  0
VERTEX
  5
1FF
100
AcDbEntity
  8
OBJECT
  6
CONTINUOUS
100
AcDbVertex
100
AcDb2dVertex
 10
1082.0
 20
-793.0
 30
0.0
  0
VERTEX
  5
200
100
AcDbEntity
  8
OBJECT
  6
CONTINUOUS
100
AcDbVertex
100
AcDb2dVertex
 10
1082.0
 20
-860.0
 30
0.0
  0
VERTEX
  5
201
100
AcDbEntity
  8
OBJECT
  6
CONTINUOUS
100
AcDbVertex
100
AcDb2dVertex
 10
1085.0
 20
-860.0
 30
0.0
  0
VERTEX
  5
202
100
AcDbEntity
  8
OBJECT
  6
CONTINUOUS
100
AcDbVertex
100
AcDb2dVertex
 10
1085.0
 20
-796.0
 30
0.0
  0
VERTEX
  5
203
100
AcDbEntity
  8
OBJECT
  6
CONTINUOUS
100
AcDbVertex
100
AcDb2dVertex
 10
1115.0
 20
-796.0
 30
0.0
  0
VERTEX
  5
204
100
AcDbEntity
  8
OBJECT
  6
CONTINUOUS
100
AcDbVertex
100
AcDb2dVertex
 10
1115.0
 20
-860.0
 30
0.0
  0
VERTEX
  5
205
100
AcDbEntity
  8
OBJECT
  6
CONTINUOUS
100
AcDbVertex
100
AcDb2dVertex
 10
1118.0
 20
-860.0
 30
0.0
  0
SEQEND
  5
206
100
AcDbEntity
  8
OBJECT
  6
CONTINUOUS
  0
SPLINE
  5
207
100
AcDbEntity
  8
OBJECT
  6
CONTINUOUS
100
AcDbSpline
210
0.0
220
0.0
230
1.0
 70
              13
 71
               2
 72
              28
 73
              25
 74
               0
 42
0.000001
 43
0.000001
 40
0.0
 40
0.0
 40
0.0
 40
0.0116664369471635
 40
0.0116664369471635
 40
0.0307673121208417
 40
0.0307673121208417
 40
0.0826383042797577
 40
0.0826383042797577
 40
0.101739179453436
 40
0.101739179453436
 40
0.1134056164006
 40
0.1134056164006
 40
0.4999999999999994
 40
0.4999999999999994
 40
0.5116664369471635
 40
0.5116664369471635
 40
0.5307673121208417
 40
0.5307673121208417
 40
0.5826383042797577
 40
0.5826383042797577
 40
0.6017391794534361
 40
0.6017391794534361
 40
0.6134056164006013
 40
0.6134056164006013
 40
1.0
 40
1.0
 40
1.0
 10
1112.5
 20
-803.20543822418745
 30
0.0
 41
1.0
 10
1112.5
 20
-801.5
 30
0.0
 41
0.7609173743274383
 10
1110.8159810022134
 20
-801.23055696035408
 30
0.0
 41
1.0
 10
1108.5329905011067
 20
-800.86527848017704
 30
0.0
 41
1.0
 10
1106.25
 20
-800.5
 30
0.0
 41
1.0
 10
1100.0
 20
-799.5
 30
0.0
 41
1.0
 10
1093.75
 20
-800.5
 30
0.0
 41
1.0
 10
1091.4670094988933
 20
-800.86527848017704
 30
0.0
 41
1.0
 10
1089.1840189977866
 20
-801.23055696035408
 30
0.0
 41
1.0
 10
1087.5
 20
-801.5
 30
0.0
 41
0.7609173743274383
 10
1087.5
 20
-803.20543822418745
 30
0.0
 41
1.0
 10
1087.5
 20
-850.0
 30
0.0
 41
1.0
 10
1087.5
 20
-896.79456177581255
 30
0.0
 41
1.0
 10
1087.5
 20
-898.50000000000023
 30
0.0
 41
0.760917374327402
 10
1089.1840189977866
 20
-898.76944303964592
 30
0.0
 41
1.0
 10
1091.4670094988933
 20
-899.13472151982296
 30
0.0
 41
1.0
 10
1093.75
 20
-899.5
 30
0.0
 41
1.0
 10
1100.0
 20
-900.5
 30
0.0
 41
1.0
 10
1106.25
 20
-899.5
 30
0.0
 41
1.0
 10
1108.5329905011067
 20
-899.13472151982285
 30
0.0
 41
1.0
 10
1110.8159810022134
 20
-898.76944303964569
 30
0.0
 41
1.0
 10
1112.5000000000002
 20
-898.49999999999989
 30
0.0
 41
0.7609173743273709
 10
1112.5
 20
-896.79456177581233
 30
0.0
 41
1.0
 10
1112.5
 20
-849.99999999999989
 30
0.0
 41
1.0
 10
1112.5
 20
-803.20543822418745
 30
0.0
 41
1.0
  0
POLYLINE
  5
208
100
AcDbEntity
  8
OBJECT
  6
CONTINUOUS
100
AcDb2dPolyline
 66
               1
 10
0.0
 20
0.0
 30
0.0
 70
               1
 75
               5
  0
VERTEX
  5
209
100
AcDbEntity
  8
OBJECT
  6
CONTINUOUS
100
AcDbVertex
100
AcDb2dVertex
 10
1085.0
 20
-841.75
 30
0.0
  0
VERTEX
  5
20A
100
AcDbEntity
  8
OBJECT
  6
CONTINUOUS
100
AcDbVertex
100
AcDb2dVertex
 10
1087.5
 20
-841.75
 30
0.0
  0
VERTEX
  5
20B
100
AcDbEntity
  8
OBJECT
  6
CONTINUOUS
100
AcDbVertex
100
AcDb2dVertex
 10
1087.5
 20
-858.25
 30
0.0
  0
VERTEX
  5
20C
100
AcDbEntity
  8
OBJECT
  6
CONTINUOUS
100
AcDbVertex
100
AcDb2dVertex
 10
1085.0
 20
-858.25
 30
0.0
  0
SEQEND
  5
20D
100
AcDbEntity
  8
OBJECT
  6
CONTINUOUS
  0
POLYLINE
  5
20E
100
AcDbEntity
  8
OBJECT
  6
CONTINUOUS
100
AcDb2dPolyline
 66
               1
 10
0.0
 20
0.0
 30
0.0
 70
               1
 75
               5
  0
VERTEX
  5
20F
100
AcDbEntity
  8
OBJECT
  6
CONTINUOUS
100
AcDbVertex
100
AcDb2dVertex
 10
1112.5
 20
-841.75
 30
0.0
  0
VERTEX
  5
210
100
AcDbEntity
  8
OBJECT
  6
CONTINUOUS
100
AcDbVertex
100
AcDb2dVertex
 10
1115.0
 20
-841.75
 30
0.0
  0
VERTEX
  5
211
100
AcDbEntity
  8
OBJECT
  6
CONTINUOUS
100
AcDbVertex
100
AcDb2dVertex
 10
1115.0
 20
-858.25
 30
0.0
  0
VERTEX
  5
212
100
AcDbEntity
  8
OBJECT
  6
CONTINUOUS
100
AcDbVertex
100
AcDb2dVertex
 10
1112.5
 20
-858.25
 30
0.0
  0
SEQEND
  5
213
100
AcDbEntity
  8
OBJECT
  6
CONTINUOUS
  0
POLYLINE
  5
214
100
AcDbEntity
  8
OBJECT
  6
CONTINUOUS
100
AcDb2dPolyline
 66
               1
 10
0.0
 20
0.0
 30
0.0
 70
               1
 75
               5
  0
VERTEX
  5
215
100
AcDbEntity
  8
OBJECT
  6
CONTINUOUS
100
AcDbVertex
100
AcDb2dVertex
 10
1118.0
 20
-844.5
 30
0.0
  0
VERTEX
  5
216
100
AcDbEntity
  8
OBJECT
  6
CONTINUOUS
100
AcDbVertex
100
AcDb2dVertex
 10
1120.5
 20
-844.5
 30
0.0
  0
VERTEX
  5
217
100
AcDbEntity
  8
OBJECT
  6
CONTINUOUS
100
AcDbVertex
100
AcDb2dVertex
 10
1120.5
 20
-855.5
 30
0.0
  0
VERTEX
  5
218
100
AcDbEntity
  8
OBJECT
  6
CONTINUOUS
100
AcDbVertex
100
AcDb2dVertex
 10
1118.0
 20
-855.5
 30
0.0
  0
SEQEND
  5
219
100
AcDbEntity
  8
OBJECT
  6
CONTINUOUS
  0
POLYLINE
  5
21A
100
AcDbEntity
  8
OBJECT
  6
CONTINUOUS
100
AcDb2dPolyline
 66
               1
 10
0.0
 20
0.0
 30
0.0
 70
               1
 75
               5
  0
VERTEX
  5
21B
100
AcDbEntity
  8
OBJECT
  6
CONTINUOUS
100
AcDbVertex
100
AcDb2dVertex
 10
1079.5
 20
-844.5
 30
0.0
  0
VERTEX
  5
21C
100
AcDbEntity
  8
OBJECT
  6
CONTINUOUS
100
AcDbVertex
100
AcDb2dVertex
 10
1082.0
 20
-844.5
 30
0.0
  0
VERTEX
  5
21D
100
AcDbEntity
  8
OBJECT
  6
CONTINUOUS
100
AcDbVertex
100
AcDb2dVertex
 10
1082.0
 20
-855.5
 30
0.0
  0
VERTEX
  5
21E
100
AcDbEntity
  8
OBJECT
  6
CONTINUOUS
100
AcDbVertex
100
AcDb2dVertex
 10
1079.5
 20
-855.5
 30
0.0
  0
SEQEND
  5
21F
100
AcDbEntity
  8
OBJECT
  6
CONTINUOUS
  0
LINE
  5
220
100
AcDbEntity
  8
FRAME
  6
CONTINUOUS
100
AcDbLine
 10
1000.0
 20
-900.0
 30
0.0
 11
1400.0
 21
-900.0
 31
0.0
  0
INSERT
  5
221
100
AcDbEntity
  8
OBJECT
100
AcDbBlockReference
  2
*U7
 10
0.0
 20
19.999999999999996
 30
0.0
  0
LWPOLYLINE
  5
222
100
AcDbEntity
  8
OBJECT
  6
CONTINUOUS
100
AcDbPolyline
 90
        5
 70
             129
 10
1157.5
 20
-759.0
 42
-0.414213562373095
 10
1161.0
 20
-755.5
 42
-0.414213562373095
 10
1164.5
 20
-759.0
 42
-0.414213562373095
 10
1161.0
 20
-762.5
 42
-0.414213562373095
 10
1157.5
 20
-759.0
 42
-0.414213562373095
  0
LINE
  5
223
100
AcDbEntity
  8
OBJECT
  6
CONTINUOUS
100
AcDbLine
 10
1158.5
 20
-759.0
 30
0.0
 11
1163.5
 21
-759.0
 31
0.0
  0
LINE
  5
224
100
AcDbEntity
  8
OBJECT
  6
CONTINUOUS
100
AcDbLine
 10
1161.0
 20
-761.5
 30
0.0
 11
1161.0
 21
-756.5
 31
0.0
  0
LINE
  5
225
100
AcDbEntity
  8
OBJECT
  6
CONTINUOUS
100
AcDbLine
 10
1074.0
 20
-728.5
 30
0.0
 11
1118.5
 21
-728.5
 31
0.0
  0
LINE
  5
226
100
AcDbEntity
  8
OBJECT
  6
CONTINUOUS
100
AcDbLine
 10
1123.5
 20
-728.5
 30
0.0
 11
1385.4716468007809
 21
-728.5
 31
0.0
  0
LINE
  5
227
100
AcDbEntity
  8
OBJECT
  6
CONTINUOUS
100
AcDbLine
 10
1074.0
 20
-717.5
 30
0.0
 11
1074.0
 21
-728.5
 31
0.0
  0
LINE
  5
228
100
AcDbEntity
  8
OBJECT
  6
CONTINUOUS
100
AcDbLine
 10
1072.0
 20
-717.5
 30
0.0
 11
1074.0
 21
-717.5
 31
0.0
  0
LINE
  5
229
100
AcDbEntity
  8
OBJECT
  6
CONTINUOUS
100
AcDbLine
 10
1072.0
 20
-459.68680697457467
 30
0.0
 11
1072.0
 21
-717.5
 31
0.0
  0
LINE
  5
22A
100
AcDbEntity
  8
OBJECT
  6
CONTINUOUS
100
AcDbLine
 10
1051.0
 20
-452.26130000000012
 30
0.0
 11
1051.0
 21
-744.0
 31
0.0
  0
LWPOLYLINE
  5
22B
100
AcDbEntity
  8
OBJECT
  6
CONTINUOUS
100
AcDbPolyline
 90
        5
 70
             128
 10
1402.8430000000008
 20
-699.5
 10
1390.0830905494226
 20
-713.19533460347179
 42
0.4525140883241139
 10
1392.7930000000015
 20
-740.25
 42
-0.4525140883241334
 10
1395.5029094505799
 20
-767.30466539652741
 10
1382.7430000000004
 20
-781.0
  0
LINE
  5
22C
100
AcDbEntity
  8
OBJECT
  6
CONTINUOUS
100
AcDbLine
 10
1382.7430000000004
 20
-781.0
 30
0.0
 11
1191.0
 21
-781.0
 31
0.0
  0
LINE
  5
22D
100
AcDbEntity
  8
OBJECT
  6
CONTINUOUS
100
AcDbLine
 10
1191.4868999999999
 20
-779.0
 30
0.0
 11
1384.6063950640892
 21
-779.0
 31
0.0
  0
POLYLINE
  5
22E
100
AcDbEntity
  8
OBJECT
  6
CONTINUOUS
100
AcDb2dPolyline
 66
               1
 10
0.0
 20
0.0
 30
0.0
 75
               5
  0
VERTEX
  5
22F
100
AcDbEntity
  8
OBJECT
  6
CONTINUOUS
100
AcDbVertex
100
AcDb2dVertex
 10
1191.4868999999999
 20
-779.0
 30
0.0
  0
VERTEX
  5
230
100
AcDbEntity
  8
OBJECT
  6
CONTINUOUS
100
AcDbVertex
100
AcDb2dVertex
 10
1053.0
 20
-779.0
 30
0.0
  0
VERTEX
  5
231
100
AcDbEntity
  8
OBJECT
  6
CONTINUOUS
100
AcDbVertex
100
AcDb2dVertex
 10
1053.0
 20
-781.0
 30
0.0
  0
VERTEX
  5
232
100
AcDbEntity
  8
OBJECT
  6
CONTINUOUS
100
AcDbVertex
100
AcDb2dVertex
 10
1191.0
 20
-781.0
 30
0.0
  0
SEQEND
  5
233
100
AcDbEntity
  8
OBJECT
  6
CONTINUOUS
  0
POLYLINE
  5
234
100
AcDbEntity
  8
OBJECT
  6
CONTINUOUS
100
AcDb2dPolyline
 66
               1
 10
0.0
 20
0.0
 30
0.0
 75
               5
  0
VERTEX
  5
235
100
AcDbEntity
  8
OBJECT
  6
CONTINUOUS
100
AcDbVertex
100
AcDb2dVertex
 10
1191.4868999999999
 20
-779.0
 30
0.0
  0
VERTEX
  5
236
100
AcDbEntity
  8
OBJECT
  6
CONTINUOUS
100
AcDbVertex
100
AcDb2dVertex
 10
1051.0
 20
-779.0
 30
0.0
  0
VERTEX
  5
237
100
AcDbEntity
  8
OBJECT
  6
CONTINUOUS
100
AcDbVertex
100
AcDb2dVertex
 10
1051.0
 20
-774.0
 30
0.0
  0
SEQEND
  5
238
100
AcDbEntity
  8
OBJECT
  6
CONTINUOUS
  0
DIMENSION
  5
239
100
AcDbEntity
  8
DIMENTION
  6
CONTINUOUS
100
AcDbDimension
  2
*D8
 10
-1500.0
 20
-69.0
 30
0.0
 11
-1500.0
 21
-484.5
 31
0.0
  1
830
  3
CAD
100
AcDbAlignedDimension
 13
-1400.0
 23
-900.0
 33
0.0
 14
-1312.0
 24
-69.0
 34
0.0
 50
90.0
100
AcDbRotatedDimension
1001
ACAD
1000
DSTYLE
1002
{
1070
             271
1070
               0
1070
             340
1005
3A
1070
             147
1040
0.9999999999999999
1002
}
  0
LINE
  5
23A
100
AcDbEntity
  8
FRAME
  6
CONTINUOUS
100
AcDbLine
 10
0.0
 20
-900.0
 30
0.0
 11
600.0
 21
-900.0
 31
0.0
  0
ARC
  5
23B
100
AcDbEntity
  8
OBJECT
100
AcDbCircle
 10
1121.0
 20
-724.0
 30
0.0
 40
2.5
100
AcDbArc
 50
0.0
 51
180.0
  0
LINE
  5
23C
100
AcDbEntity
  8
OBJECT
100
AcDbLine
 10
1123.5
 20
-724.0
 30
0.0
 11
1123.5
 21
-728.5
 31
0.0
  0
LINE
  5
23D
100
AcDbEntity
  8
OBJECT
100
AcDbLine
 10
1118.5
 20
-724.0
 30
0.0
 11
1118.5
 21
-728.5
 31
0.0
  0
LINE
  5
23E
100
AcDbEntity
  8
CENTER
  6
STYLE_03
100
AcDbLine
 10
-1100.0
 20
777.0
 30
0.0
 11
-1100.0
 21
377.0
 31
0.0
  0
POLYLINE
  5
23F
100
AcDbEntity
  8
OBJECT
  6
CONTINUOUS
100
AcDb2dPolyline
 66
               1
 10
0.0
 20
0.0
 30
0.0
 70
               1
 75
               5
  0
VERTEX
  5
240
100
AcDbEntity
  8
OBJECT
  6
CONTINUOUS
100
AcDbVertex
100
AcDb2dVertex
 10
420.95929410379176
 20
-780.99998343030256
 30
0.0
  0
VERTEX
  5
241
100
AcDbEntity
  8
OBJECT
  6
CONTINUOUS
100
AcDbVertex
100
AcDb2dVertex
 10
350.95929410379176
 20
-780.99998343030256
 30
0.0
  0
VERTEX
  5
242
100
AcDbEntity
  8
OBJECT
  6
CONTINUOUS
100
AcDbVertex
100
AcDb2dVertex
 10
350.95929410379176
 20
-783.99998343030256
 30
0.0
  0
VERTEX
  5
243
100
AcDbEntity
  8
OBJECT
  6
CONTINUOUS
100
AcDbVertex
100
AcDb2dVertex
 10
420.95929410379176
 20
-783.99998343030256
 30
0.0
  0
SEQEND
  5
244
100
AcDbEntity
  8
OBJECT
  6
CONTINUOUS
  0
LWPOLYLINE
  5
245
100
AcDbEntity
  8
OBJECT
  6
CONTINUOUS
100
AcDbPolyline
 90
        5
 70
             129
 10
408.95929410379176
 20
-849.99998343030256
 42
-0.414213562373095
 10
418.95929410379176
 20
-839.99998343030256
 42
-0.414213562373095
 10
428.95929410379176
 20
-849.99998343030256
 42
-0.414213562373095
 10
418.95929410379176
 20
-859.99998343030256
 42
-0.414213562373095
 10
408.95929410379176
 20
-849.99998343030256
 42
-0.414213562373095
  0
LWPOLYLINE
  5
246
100
AcDbEntity
  8
OBJECT
  6
CONTINUOUS
100
AcDbPolyline
 90
        5
 70
             128
 10
409.45929410379176
 20
-791.99998343030256
 42
0.414213562373095
 10
410.45929410379176
 20
-792.99998343030256
 10
418.45929410379176
 20
-792.99998343030256
 10
428.55929410379213
 20
-846.43768343030251
 10
428.75929410379104
 20
-848.25838343030273
  0
LWPOLYLINE
  5
247
100
AcDbEntity
  8
OBJECT
  6
CONTINUOUS
100
AcDbPolyline
 90
       10
 70
             128
 10
410.83169410379196
 20
-855.77718343030256
 10
410.18819410379183
 20
-854.8027834303025
 10
372.45929410379176
 20
-800.99998343030256
 10
362.45929410379176
 20
-800.99998343030256
 10
362.45929410379176
 20
-793.99998343030256
 10
362.45929410379176
 20
-793.99998343030256
 42
-0.414213562373095
 10
365.45929410379176
 20
-790.99998343030256
 10
408.45929410379176
 20
-790.99998343030256
 10
408.45929410379176
 20
-790.99998343030256
 42
-0.414213562373095
 10
409.45929410379176
 20
-791.99998343030256
 42
-0.414213562373095
  0
POLYLINE
  5
248
100
AcDbEntity
  8
OBJECT
  6
CONTINUOUS
100
AcDb2dPolyline
 66
               1
 10
0.0
 20
0.0
 30
0.0
 70
               1
 75
               5
  0
VERTEX
  5
249
100
AcDbEntity
  8
OBJECT
  6
CONTINUOUS
100
AcDbVertex
100
AcDb2dVertex
 10
412.45929410379176
 20
-783.99998343030256
 30
0.0
  0
VERTEX
  5
24A
100
AcDbEntity
  8
OBJECT
  6
CONTINUOUS
100
AcDbVertex
100
AcDb2dVertex
 10
359.45929410379176
 20
-783.99998343030256
 30
0.0
  0
VERTEX
  5
24B
100
AcDbEntity
  8
OBJECT
  6
CONTINUOUS
100
AcDbVertex
100
AcDb2dVertex
 10
363.45929410379176
 20
-787.49998343030256
 30
0.0
  0
VERTEX
  5
24C
100
AcDbEntity
  8
OBJECT
  6
CONTINUOUS
100
AcDbVertex
100
AcDb2dVertex
 10
363.45929410379176
 20
-790.99998343030256
 30
0.0
  0
VERTEX
  5
24D
100
AcDbEntity
  8
OBJECT
  6
CONTINUOUS
100
AcDbVertex
100
AcDb2dVertex
 10
408.45929410379176
 20
-790.99998343030256
 30
0.0
  0
VERTEX
  5
24E
100
AcDbEntity
  8
OBJECT
  6
CONTINUOUS
100
AcDbVertex
100
AcDb2dVertex
 10
408.45929410379176
 20
-787.49998343030256
 30
0.0
  0
SEQEND
  5
24F
100
AcDbEntity
  8
OBJECT
  6
CONTINUOUS
  0
LINE
  5
250
100
AcDbEntity
  8
OBJECT
  6
CONTINUOUS
100
AcDbLine
 10
408.45929410379176
 20
-787.49998343030256
 30
0.0
 11
363.45929410379176
 21
-787.49998343030256
 31
0.0
  0
LINE
  5
251
100
AcDbEntity
  8
OBJECT
  6
CONTINUOUS
100
AcDbLine
 10
403.45929410379176
 20
-792.99998343030256
 30
0.0
 11
403.45929410379176
 21
-842.99998343030256
 31
0.0
  0
LWPOLYLINE
  5
252
100
AcDbEntity
  8
OBJECT
  6
CONTINUOUS
100
AcDbPolyline
 90
        5
 70
             129
 10
413.45929410379176
 20
-849.99998343030256
 42
-0.414213562373095
 10
418.95929410379176
 20
-844.49998343030256
 42
-0.414213562373095
 10
424.45929410379176
 20
-849.99998343030256
 42
-0.414213562373095
 10
418.95929410379176
 20
-855.49998343030256
 42
-0.414213562373095
 10
413.45929410379176
 20
-849.99998343030256
 42
-0.414213562373095
  0
ARC
  5
253
100
AcDbEntity
  8
OBJECT
  6
CONTINUOUS
100
AcDbCircle
 10
418.95929410379176
 20
-849.99998343030256
 30
0.0
 40
40.000018056245324
100
AcDbArc
 50
139.42693516316874
 51
86.085507773715676
  0
ARC
  5
254
100
AcDbEntity
  8
OBJECT
  6
CONTINUOUS
100
AcDbCircle
 10
418.95929410379176
 20
-849.99998343030256
 30
0.0
 40
46.499974801391303
100
AcDbArc
 50
137.38144272174625
 51
88.1648678673657
  0
ARC
  5
255
100
AcDbEntity
  8
OBJECT
  6
CONTINUOUS
100
AcDbCircle
 10
418.95929410379176
 20
-849.99998343030256
 30
0.0
 40
50.000016569697138
100
AcDbArc
 50
136.50527645865799
 51
89.055378894867943
  0
POLYLINE
  5
256
100
AcDbEntity
  8
OBJECT
  6
CONTINUOUS
100
AcDb2dPolyline
 66
               1
 10
0.0
 20
0.0
 30
0.0
 75
               5
  0
VERTEX
  5
257
100
AcDbEntity
  8
OBJECT
  6
CONTINUOUS
100
AcDbVertex
100
AcDb2dVertex
 10
392.95929410379176
 20
-749.99998343030256
 30
0.0
  0
VERTEX
  5
258
100
AcDbEntity
  8
OBJECT
  6
CONTINUOUS
100
AcDbVertex
100
AcDb2dVertex
 10
392.95929410379176
 20
-778.99998343030256
 30
0.0
  0
VERTEX
  5
259
100
AcDbEntity
  8
OBJECT
  6
CONTINUOUS
100
AcDbVertex
100
AcDb2dVertex
 10
122.95929410379176
 20
-778.99998343030256
 30
0.0
  0
VERTEX
  5
25A
100
AcDbEntity
  8
OBJECT
  6
CONTINUOUS
100
AcDbVertex
100
AcDb2dVertex
 10
122.95929410379176
 20
-773.99998343030256
 30
0.0
  0
SEQEND
  5
25B
100
AcDbEntity
  8
OBJECT
  6
CONTINUOUS
  0
POLYLINE
  5
25C
100
AcDbEntity
  8
OBJECT
  6
CONTINUOUS
100
AcDb2dPolyline
 66
               1
 10
0.0
 20
0.0
 30
0.0
 70
               1
 75
               5
  0
VERTEX
  5
25D
100
AcDbEntity
  8
OBJECT
  6
CONTINUOUS
100
AcDbVertex
100
AcDb2dVertex
 10
196.95929410379176
 20
-780.99998343030256
 30
0.0
  0
VERTEX
  5
25E
100
AcDbEntity
  8
OBJECT
  6
CONTINUOUS
100
AcDbVertex
100
AcDb2dVertex
 10
136.95929410379176
 20
-780.99998343030256
 30
0.0
  0
VERTEX
  5
25F
100
AcDbEntity
  8
OBJECT
  6
CONTINUOUS
100
AcDbVertex
100
AcDb2dVertex
 10
136.95929410379176
 20
-783.99998343030256
 30
0.0
  0
VERTEX
  5
260
100
AcDbEntity
  8
OBJECT
  6
CONTINUOUS
100
AcDbVertex
100
AcDb2dVertex
 10
196.95929410379176
 20
-783.99998343030256
 30
0.0
  0
SEQEND
  5
261
100
AcDbEntity
  8
OBJECT
  6
CONTINUOUS
  0
LWPOLYLINE
  5
262
100
AcDbEntity
  8
OBJECT
  6
CONTINUOUS
100
AcDbPolyline
 90
        5
 70
             129
 10
189.95929410379176
 20
-849.99998343030256
 42
-0.414213562373095
 10
199.95929410379176
 20
-839.99998343030256
 42
-0.414213562373095
 10
209.95929410379176
 20
-849.99998343030256
 42
-0.414213562373095
 10
199.95929410379176
 20
-859.99998343030256
 42
-0.414213562373095
 10
189.95929410379176
 20
-849.99998343030256
 42
-0.414213562373095
  0
LWPOLYLINE
  5
263
100
AcDbEntity
  8
OBJECT
  6
CONTINUOUS
100
AcDbPolyline
 90
        5
 70
             128
 10
190.45929410379176
 20
-791.99998343030256
 42
0.414213562373095
 10
191.45929410379176
 20
-792.99998343030256
 10
199.45929410379176
 20
-792.99998343030256
 10
209.55929410379213
 20
-846.43768343030251
 10
209.75929410379104
 20
-848.25838343030273
  0
LWPOLYLINE
  5
264
100
AcDbEntity
  8
OBJECT
  6
CONTINUOUS
100
AcDbPolyline
 90
       10
 70
             128
 10
191.83169410379196
 20
-855.77718343030256
 10
191.18819410379183
 20
-854.8027834303025
 10
153.45929410379176
 20
-800.99998343030256
 10
143.45929410379176
 20
-800.99998343030256
 10
143.45929410379176
 20
-793.99998343030256
 10
143.45929410379176
 20
-793.99998343030256
 42
-0.414213562373095
 10
146.45929410379176
 20
-790.99998343030256
 10
189.45929410379176
 20
-790.99998343030256
 10
189.45929410379176
 20
-790.99998343030256
 42
-0.414213562373095
 10
190.45929410379176
 20
-791.99998343030256
 42
-0.414213562373095
  0
POLYLINE
  5
265
100
AcDbEntity
  8
OBJECT
  6
CONTINUOUS
100
AcDb2dPolyline
 66
               1
 10
0.0
 20
0.0
 30
0.0
 70
               1
 75
               5
  0
VERTEX
  5
266
100
AcDbEntity
  8
OBJECT
  6
CONTINUOUS
100
AcDbVertex
100
AcDb2dVertex
 10
193.45929410379176
 20
-783.99998343030256
 30
0.0
  0
VERTEX
  5
267
100
AcDbEntity
  8
OBJECT
  6
CONTINUOUS
100
AcDbVertex
100
AcDb2dVertex
 10
140.45929410379176
 20
-783.99998343030256
 30
0.0
  0
VERTEX
  5
268
100
AcDbEntity
  8
OBJECT
  6
CONTINUOUS
100
AcDbVertex
100
AcDb2dVertex
 10
144.45929410379176
 20
-787.49998343030256
 30
0.0
  0
VERTEX
  5
269
100
AcDbEntity
  8
OBJECT
  6
CONTINUOUS
100
AcDbVertex
100
AcDb2dVertex
 10
144.45929410379176
 20
-790.99998343030256
 30
0.0
  0
VERTEX
  5
26A
100
AcDbEntity
  8
OBJECT
  6
CONTINUOUS
100
AcDbVertex
100
AcDb2dVertex
 10
189.45929410379176
 20
-790.99998343030256
 30
0.0
  0
VERTEX
  5
26B
100
AcDbEntity
  8
OBJECT
  6
CONTINUOUS
100
AcDbVertex
100
AcDb2dVertex
 10
189.45929410379176
 20
-787.49998343030256
 30
0.0
  0
SEQEND
  5
26C
100
AcDbEntity
  8
OBJECT
  6
CONTINUOUS
  0
LINE
  5
26D
100
AcDbEntity
  8
OBJECT
  6
CONTINUOUS
100
AcDbLine
 10
189.45929410379176
 20
-787.49998343030256
 30
0.0
 11
144.45929410379176
 21
-787.49998343030256
 31
0.0
  0
LINE
  5
26E
100
AcDbEntity
  8
OBJECT
  6
CONTINUOUS
100
AcDbLine
 10
184.45929410379176
 20
-792.99998343030256
 30
0.0
 11
184.45929410379176
 21
-842.99998343030256
 31
0.0
  0
LWPOLYLINE
  5
26F
100
AcDbEntity
  8
OBJECT
  6
CONTINUOUS
100
AcDbPolyline
 90
        5
 70
             129
 10
194.45929410379176
 20
-849.99998343030256
 42
-0.414213562373095
 10
199.95929410379176
 20
-844.49998343030256
 42
-0.414213562373095
 10
205.45929410379176
 20
-849.99998343030256
 42
-0.414213562373095
 10
199.95929410379176
 20
-855.49998343030256
 42
-0.414213562373095
 10
194.45929410379176
 20
-849.99998343030256
 42
-0.414213562373095
  0
ARC
  5
270
100
AcDbEntity
  8
OBJECT
  6
CONTINUOUS
100
AcDbCircle
 10
199.95929410379176
 20
-849.99998343030256
 30
0.0
 40
40.000018056245324
100
AcDbArc
 50
139.42693516316874
 51
86.085507773715676
  0
ARC
  5
271
100
AcDbEntity
  8
OBJECT
  6
CONTINUOUS
100
AcDbCircle
 10
199.95929410379176
 20
-849.99998343030256
 30
0.0
 40
46.499974801391303
100
AcDbArc
 50
137.38144272174625
 51
88.1648678673657
  0
ARC
  5
272
100
AcDbEntity
  8
OBJECT
  6
CONTINUOUS
100
AcDbCircle
 10
199.95929410379176
 20
-849.99998343030256
 30
0.0
 40
50.000016569697138
100
AcDbArc
 50
136.50527645865799
 51
89.055378894867943
  0
LWPOLYLINE
  5
273
100
AcDbEntity
  8
OBJECT
  6
CONTINUOUS
100
AcDbPolyline
 90
       10
 70
             129
 10
-1333.5
 20
-845.5
 42
-0.414213562373095
 10
-1331.5
 20
-847.5
 10
-1331.5
 20
-860.5
 42
-0.414213562373095
 10
-1333.5
 20
-862.5
 10
-1334.5
 20
-862.5
 10
-1334.5
 20
-855.5
 10
-1349.5
 20
-855.5
 42
-0.414213562373095
 10
-1351.5
 20
-853.5
 10
-1351.5
 20
-847.5
 42
-0.414213562373095
 10
-1349.5
 20
-845.5
  0
POLYLINE
  5
274
100
AcDbEntity
  8
OBJECT
  6
CONTINUOUS
100
AcDb2dPolyline
 66
               1
 10
0.0
 20
0.0
 30
0.0
 70
               1
 75
               5
  0
VERTEX
  5
275
100
AcDbEntity
  8
OBJECT
  6
CONTINUOUS
100
AcDbVertex
100
AcDb2dVertex
 10
-1346.0
 20
-781.0
 30
0.0
  0
VERTEX
  5
276
100
AcDbEntity
  8
OBJECT
  6
CONTINUOUS
100
AcDbVertex
100
AcDb2dVertex
 10
-1276.0
 20
-781.0
 30
0.0
  0
VERTEX
  5
277
100
AcDbEntity
  8
OBJECT
  6
CONTINUOUS
100
AcDbVertex
100
AcDb2dVertex
 10
-1276.0
 20
-784.0
 30
0.0
  0
VERTEX
  5
278
100
AcDbEntity
  8
OBJECT
  6
CONTINUOUS
100
AcDbVertex
100
AcDb2dVertex
 10
-1346.0
 20
-784.0
 30
0.0
  0
SEQEND
  5
279
100
AcDbEntity
  8
OBJECT
  6
CONTINUOUS
  0
POLYLINE
  5
27A
100
AcDbEntity
  8
OBJECT
  6
CONTINUOUS
100
AcDb2dPolyline
 66
               1
 10
0.0
 20
0.0
 30
0.0
 70
               1
 75
               5
  0
VERTEX
  5
27B
100
AcDbEntity
  8
OBJECT
  6
CONTINUOUS
100
AcDbVertex
100
AcDb2dVertex
 10
-1337.5
 20
-784.0
 30
0.0
  0
VERTEX
  5
27C
100
AcDbEntity
  8
OBJECT
  6
CONTINUOUS
100
AcDbVertex
100
AcDb2dVertex
 10
-1284.5
 20
-784.0
 30
0.0
  0
VERTEX
  5
27D
100
AcDbEntity
  8
OBJECT
  6
CONTINUOUS
100
AcDbVertex
100
AcDb2dVertex
 10
-1288.5
 20
-787.5
 30
0.0
  0
VERTEX
  5
27E
100
AcDbEntity
  8
OBJECT
  6
CONTINUOUS
100
AcDbVertex
100
AcDb2dVertex
 10
-1288.5
 20
-791.0
 30
0.0
  0
VERTEX
  5
27F
100
AcDbEntity
  8
OBJECT
  6
CONTINUOUS
100
AcDbVertex
100
AcDb2dVertex
 10
-1333.5
 20
-791.0
 30
0.0
  0
VERTEX
  5
280
100
AcDbEntity
  8
OBJECT
  6
CONTINUOUS
100
AcDbVertex
100
AcDb2dVertex
 10
-1333.5
 20
-787.5
 30
0.0
  0
SEQEND
  5
281
100
AcDbEntity
  8
OBJECT
  6
CONTINUOUS
  0
LINE
  5
282
100
AcDbEntity
  8
OBJECT
  6
CONTINUOUS
100
AcDbLine
 10
-1333.5
 20
-787.5
 30
0.0
 11
-1288.5
 21
-787.5
 31
0.0
  0
SPLINE
  5
283
100
AcDbEntity
  8
OBJECT
  6
CONTINUOUS
100
AcDbSpline
210
0.0
220
0.0
230
1.0
 70
               9
 71
               2
 72
              28
 73
              25
 74
               0
 42
0.000001
 43
0.000001
 40
0.0
 40
0.0
 40
0.0
 40
0.1364451216774349
 40
0.1364451216774349
 40
0.206088985866959
 40
0.206088985866959
 40
0.2868044973790079
 40
0.2868044973790079
 40
0.3351288113064328
 40
0.3351288113064328
 40
0.3436566314112725
 40
0.3436566314112725
 40
0.525583460314519
 40
0.525583460314519
 40
0.6108616613629158
 40
0.6108616613629158
 40
0.7927884902661623
 40
0.7927884902661623
 40
0.8013163103710019
 40
0.8013163103710019
 40
0.8496406242984268
 40
0.8496406242984268
 40
0.9303561358104757
 40
0.9303561358104757
 40
1.0
 40
1.0
 40
1.0
 10
-1287.0
 20
-791.0
 30
0.0
 10
-1311.0
 20
-791.0
 30
0.0
 10
-1335.0
 20
-791.0
 30
0.0
 10
-1335.0
 20
-803.25
 30
0.0
 10
-1335.0
 20
-815.5
 30
0.0
 10
-1335.0
 20
-830.5
 30
0.0
 10
-1329.0
 20
-843.0
 30
0.0
 10
-1329.0
 20
-851.5
 30
0.0
 10
-1329.0
 20
-860.0
 30
0.0
 10
-1327.5
 20
-860.0
 30
0.0
 10
-1326.0
 20
-860.0
 30
0.0
 10
-1326.0
 20
-828.0
 30
0.0
 10
-1326.0
 20
-796.0
 30
0.0
 10
-1311.0
 20
-796.0
 30
0.0
 10
-1296.0
 20
-796.0
 30
0.0
 10
-1296.0
 20
-828.0
 30
0.0
 10
-1296.0
 20
-860.0
 30
0.0
 10
-1294.5
 20
-860.0
 30
0.0
 10
-1293.0
 20
-860.0
 30
0.0
 10
-1293.0
 20
-851.5
 30
0.0
 10
-1293.0
 20
-843.0
 30
0.0
 10
-1287.0
 20
-830.5
 30
0.0
 10
-1287.0
 20
-815.5
 30
0.0
 10
-1287.0
 20
-803.25
 30
0.0
 10
-1287.0
 20
-791.0
 30
0.0
  0
POLYLINE
  5
284
100
AcDbEntity
  8
OBJECT
  6
CONTINUOUS
100
AcDb2dPolyline
 66
               1
 10
0.0
 20
0.0
 30
0.0
 70
               1
 75
               5
  0
VERTEX
  5
285
100
AcDbEntity
  8
OBJECT
  6
CONTINUOUS
100
AcDbVertex
100
AcDb2dVertex
 10
-1293.0
 20
-793.0
 30
0.0
  0
VERTEX
  5
286
100
AcDbEntity
  8
OBJECT
  6
CONTINUOUS
100
AcDbVertex
100
AcDb2dVertex
 10
-1329.0
 20
-793.0
 30
0.0
  0
VERTEX
  5
287
100
AcDbEntity
  8
OBJECT
  6
CONTINUOUS
100
AcDbVertex
100
AcDb2dVertex
 10
-1329.0
 20
-860.0
 30
0.0
  0
VERTEX
  5
288
100
AcDbEntity
  8
OBJECT
  6
CONTINUOUS
100
AcDbVertex
100
AcDb2dVertex
 10
-1326.0
 20
-860.0
 30
0.0
  0
VERTEX
  5
289
100
AcDbEntity
  8
OBJECT
  6
CONTINUOUS
100
AcDbVertex
100
AcDb2dVertex
 10
-1326.0
 20
-796.0
 30
0.0
  0
VERTEX
  5
28A
100
AcDbEntity
  8
OBJECT
  6
CONTINUOUS
100
AcDbVertex
100
AcDb2dVertex
 10
-1296.0
 20
-796.0
 30
0.0
  0
VERTEX
  5
28B
100
AcDbEntity
  8
OBJECT
  6
CONTINUOUS
100
AcDbVertex
100
AcDb2dVertex
 10
-1296.0
 20
-860.0
 30
0.0
  0
VERTEX
  5
28C
100
AcDbEntity
  8
OBJECT
  6
CONTINUOUS
100
AcDbVertex
100
AcDb2dVertex
 10
-1293.0
 20
-860.0
 30
0.0
  0
SEQEND
  5
28D
100
AcDbEntity
  8
OBJECT
  6
CONTINUOUS
  0
SPLINE
  5
28E
100
AcDbEntity
  8
OBJECT
  6
CONTINUOUS
100
AcDbSpline
210
0.0
220
0.0
230
1.0
 70
              13
 71
               2
 72
              28
 73
              25
 74
               0
 42
0.000001
 43
0.000001
 40
0.0
 40
0.0
 40
0.0
 40
0.0116664369471643
 40
0.0116664369471643
 40
0.0307673121208426
 40
0.0307673121208426
 40
0.0826383042797586
 40
0.0826383042797586
 40
0.1017391794534369
 40
0.1017391794534369
 40
0.1134056164006014
 40
0.1134056164006014
 40
0.5000000000000001
 40
0.5000000000000001
 40
0.5116664369471645
 40
0.5116664369471645
 40
0.5307673121208429
 40
0.5307673121208429
 40
0.5826383042797589
 40
0.5826383042797589
 40
0.6017391794534373
 40
0.6017391794534373
 40
0.6134056164006007
 40
0.6134056164006007
 40
1.0
 40
1.0
 40
1.0
 10
-1298.5
 20
-803.20543822418756
 30
0.0
 41
1.0
 10
-1298.5
 20
-801.50000000000011
 30
0.0
 41
0.7609173743274383
 10
-1300.1840189977866
 20
-801.23055696035419
 30
0.0
 41
1.0
 10
-1302.4670094988933
 20
-800.86527848017704
 30
0.0
 41
1.0
 10
-1304.75
 20
-800.5
 30
0.0
 41
1.0
 10
-1311.0
 20
-799.5
 30
0.0
 41
1.0
 10
-1317.25
 20
-800.5
 30
0.0
 41
1.0
 10
-1319.5329905011067
 20
-800.86527848017704
 30
0.0
 41
1.0
 10
-1321.8159810022134
 20
-801.23055696035408
 30
0.0
 41
1.0
 10
-1323.5
 20
-801.5
 30
0.0
 41
0.7609173743274383
 10
-1323.5
 20
-803.20543822418745
 30
0.0
 41
1.0
 10
-1323.5
 20
-849.99999999999989
 30
0.0
 41
1.0
 10
-1323.5
 20
-896.79456177581233
 30
0.0
 41
1.0
 10
-1323.5
 20
-898.49999999999966
 30
0.0
 41
0.7609173743274748
 10
-1321.8159810022134
 20
-898.76944303964569
 30
0.0
 41
1.0
 10
-1319.5329905011067
 20
-899.13472151982285
 30
0.0
 41
1.0
 10
-1317.25
 20
-899.5
 30
0.0
 41
1.0
 10
-1311.0
 20
-900.5
 30
0.0
 41
1.0
 10
-1304.75
 20
-899.5
 30
0.0
 41
1.0
 10
-1302.4670094988933
 20
-899.13472151982296
 30
0.0
 41
1.0
 10
-1300.1840189977866
 20
-898.76944303964592
 30
0.0
 41
1.0
 10
-1298.5000000000002
 20
-898.49999999999989
 30
0.0
 41
0.760917374327506
 10
-1298.5
 20
-896.79456177581255
 30
0.0
 41
1.0
 10
-1298.5
 20
-850.0
 30
0.0
 41
1.0
 10
-1298.5
 20
-803.20543822418756
 30
0.0
 41
1.0
  0
POLYLINE
  5
28F
100
AcDbEntity
  8
OBJECT
  6
CONTINUOUS
100
AcDb2dPolyline
 66
               1
 10
0.0
 20
0.0
 30
0.0
 70
               1
 75
               5
  0
VERTEX
  5
290
100
AcDbEntity
  8
OBJECT
  6
CONTINUOUS
100
AcDbVertex
100
AcDb2dVertex
 10
-1326.0
 20
-841.75
 30
0.0
  0
VERTEX
  5
291
100
AcDbEntity
  8
OBJECT
  6
CONTINUOUS
100
AcDbVertex
100
AcDb2dVertex
 10
-1323.5
 20
-841.75
 30
0.0
  0
VERTEX
  5
292
100
AcDbEntity
  8
OBJECT
  6
CONTINUOUS
100
AcDbVertex
100
AcDb2dVertex
 10
-1323.5
 20
-858.25
 30
0.0
  0
VERTEX
  5
293
100
AcDbEntity
  8
OBJECT
  6
CONTINUOUS
100
AcDbVertex
100
AcDb2dVertex
 10
-1326.0
 20
-858.25
 30
0.0
  0
SEQEND
  5
294
100
AcDbEntity
  8
OBJECT
  6
CONTINUOUS
  0
POLYLINE
  5
295
100
AcDbEntity
  8
OBJECT
  6
CONTINUOUS
100
AcDb2dPolyline
 66
               1
 10
0.0
 20
0.0
 30
0.0
 70
               1
 75
               5
  0
VERTEX
  5
296
100
AcDbEntity
  8
OBJECT
  6
CONTINUOUS
100
AcDbVertex
100
AcDb2dVertex
 10
-1298.5
 20
-841.75
 30
0.0
  0
VERTEX
  5
297
100
AcDbEntity
  8
OBJECT
  6
CONTINUOUS
100
AcDbVertex
100
AcDb2dVertex
 10
-1296.0
 20
-841.75
 30
0.0
  0
VERTEX
  5
298
100
AcDbEntity
  8
OBJECT
  6
CONTINUOUS
100
AcDbVertex
100
AcDb2dVertex
 10
-1296.0
 20
-858.25
 30
0.0
  0
VERTEX
  5
299
100
AcDbEntity
  8
OBJECT
  6
CONTINUOUS
100
AcDbVertex
100
AcDb2dVertex
 10
-1298.5
 20
-858.25
 30
0.0
  0
SEQEND
  5
29A
100
AcDbEntity
  8
OBJECT
  6
CONTINUOUS
  0
POLYLINE
  5
29B
100
AcDbEntity
  8
OBJECT
  6
CONTINUOUS
100
AcDb2dPolyline
 66
               1
 10
0.0
 20
0.0
 30
0.0
 70
               1
 75
               5
  0
VERTEX
  5
29C
100
AcDbEntity
  8
OBJECT
  6
CONTINUOUS
100
AcDbVertex
100
AcDb2dVertex
 10
-1293.0
 20
-844.5
 30
0.0
  0
VERTEX
  5
29D
100
AcDbEntity
  8
OBJECT
  6
CONTINUOUS
100
AcDbVertex
100
AcDb2dVertex
 10
-1290.5
 20
-844.5
 30
0.0
  0
VERTEX
  5
29E
100
AcDbEntity
  8
OBJECT
  6
CONTINUOUS
100
AcDbVertex
100
AcDb2dVertex
 10
-1290.5
 20
-855.5
 30
0.0
  0
VERTEX
  5
29F
100
AcDbEntity
  8
OBJECT
  6
CONTINUOUS
100
AcDbVertex
100
AcDb2dVertex
 10
-1293.0
 20
-855.5
 30
0.0
  0
SEQEND
  5
2A0
100
AcDbEntity
  8
OBJECT
  6
CONTINUOUS
  0
POLYLINE
  5
2A1
100
AcDbEntity
  8
OBJECT
  6
CONTINUOUS
100
AcDb2dPolyline
 66
               1
 10
0.0
 20
0.0
 30
0.0
 70
               1
 75
               5
  0
VERTEX
  5
2A2
100
AcDbEntity
  8
OBJECT
  6
CONTINUOUS
100
AcDbVertex
100
AcDb2dVertex
 10
-1331.5
 20
-844.5
 30
0.0
  0
VERTEX
  5
2A3
100
AcDbEntity
  8
OBJECT
  6
CONTINUOUS
100
AcDbVertex
100
AcDb2dVertex
 10
-1329.0
 20
-844.5
 30
0.0
  0
VERTEX
  5
2A4
100
AcDbEntity
  8
OBJECT
  6
CONTINUOUS
100
AcDbVertex
100
AcDb2dVertex
 10
-1329.0
 20
-855.5
 30
0.0
  0
VERTEX
  5
2A5
100
AcDbEntity
  8
OBJECT
  6
CONTINUOUS
100
AcDbVertex
100
AcDb2dVertex
 10
-1331.5
 20
-855.5
 30
0.0
  0
SEQEND
  5
2A6
100
AcDbEntity
  8
OBJECT
  6
CONTINUOUS
  0
POLYLINE
  5
2A7
100
AcDbEntity
  8
OBJECT
  6
CONTINUOUS
100
AcDb2dPolyline
 66
               1
 10
0.0
 20
0.0
 30
0.0
 70
               1
 75
               5
  0
VERTEX
  5
2A8
100
AcDbEntity
  8
OBJECT
  6
CONTINUOUS
100
AcDbVertex
100
AcDb2dVertex
 10
-1331.5
 20
-837.5
 30
0.0
  0
VERTEX
  5
2A9
100
AcDbEntity
  8
OBJECT
  6
CONTINUOUS
100
AcDbVertex
100
AcDb2dVertex
 10
-1331.5
 20
-862.5
 30
0.0
  0
VERTEX
  5
2AA
100
AcDbEntity
  8
OBJECT
  6
CONTINUOUS
100
AcDbVertex
100
AcDb2dVertex
 10
-1334.5
 20
-862.5
 30
0.0
  0
VERTEX
  5
2AB
100
AcDbEntity
  8
OBJECT
  6
CONTINUOUS
100
AcDbVertex
100
AcDb2dVertex
 10
-1334.5
 20
-840.5
 30
0.0
  0
VERTEX
  5
2AC
100
AcDbEntity
  8
OBJECT
  6
CONTINUOUS
100
AcDbVertex
100
AcDb2dVertex
 10
-1351.5
 20
-840.5
 30
0.0
  0
VERTEX
  5
2AD
100
AcDbEntity
  8
OBJECT
  6
CONTINUOUS
100
AcDbVertex
100
AcDb2dVertex
 10
-1351.5
 20
-837.5
 30
0.0
  0
SEQEND
  5
2AE
100
AcDbEntity
  8
OBJECT
  6
CONTINUOUS
  0
LINE
  5
2AF
100
AcDbEntity
  8
OBJECT
  6
CONTINUOUS
100
AcDbLine
 10
-1349.5
 20
-848.5
 30
0.0
 11
-1334.5
 21
-848.5
 31
0.0
  0
ARC
  5
2B0
100
AcDbEntity
  8
OBJECT
  6
CONTINUOUS
100
AcDbCircle
 10
-1349.5
 20
-850.5
 30
0.0
 40
2.0
100
AcDbArc
 50
90.0
 51
180.0
  0
POLYLINE
  5
2B1
100
AcDbEntity
  8
OBJECT
  6
CONTINUOUS
100
AcDb2dPolyline
 66
               1
 10
0.0
 20
0.0
 30
0.0
 75
               5
  0
VERTEX
  5
2B2
100
AcDbEntity
  8
OBJECT
  6
CONTINUOUS
100
AcDbVertex
100
AcDb2dVertex
 10
-840.0
 20
-774.0
 30
0.0
  0
VERTEX
  5
2B3
100
AcDbEntity
  8
OBJECT
  6
CONTINUOUS
100
AcDbVertex
100
AcDb2dVertex
 10
-840.0
 20
-779.0
 30
0.0
  0
VERTEX
  5
2B4
100
AcDbEntity
  8
OBJECT
  6
CONTINUOUS
100
AcDbVertex
100
AcDb2dVertex
 10
-1360.0
 20
-779.0
 30
0.0
  0
VERTEX
  5
2B5
100
AcDbEntity
  8
OBJECT
  6
CONTINUOUS
100
AcDbVertex
100
AcDb2dVertex
 10
-1360.0
 20
-774.0
 30
0.0
  0
SEQEND
  5
2B6
100
AcDbEntity
  8
OBJECT
  6
CONTINUOUS
  0
LWPOLYLINE
  5
2B7
100
AcDbEntity
  8
OBJECT
  6
CONTINUOUS
100
AcDbPolyline
 90
       10
 70
             129
 10
-911.5
 20
-845.5
 42
-0.414213562373095
 10
-909.5
 20
-847.5
 10
-909.5
 20
-860.5
 42
-0.414213562373095
 10
-911.5
 20
-862.5
 10
-912.5
 20
-862.5
 10
-912.5
 20
-855.5
 10
-927.5
 20
-855.5
 42
-0.414213562373095
 10
-929.5
 20
-853.5
 10
-929.5
 20
-847.5
 42
-0.414213562373095
 10
-927.5
 20
-845.5
  0
POLYLINE
  5
2B8
100
AcDbEntity
  8
OBJECT
  6
CONTINUOUS
100
AcDb2dPolyline
 66
               1
 10
0.0
 20
0.0
 30
0.0
 70
               1
 75
               5
  0
VERTEX
  5
2B9
100
AcDbEntity
  8
OBJECT
  6
CONTINUOUS
100
AcDbVertex
100
AcDb2dVertex
 10
-924.0
 20
-781.0
 30
0.0
  0
VERTEX
  5
2BA
100
AcDbEntity
  8
OBJECT
  6
CONTINUOUS
100
AcDbVertex
100
AcDb2dVertex
 10
-854.0
 20
-781.0
 30
0.0
  0
VERTEX
  5
2BB
100
AcDbEntity
  8
OBJECT
  6
CONTINUOUS
100
AcDbVertex
100
AcDb2dVertex
 10
-854.0
 20
-784.0
 30
0.0
  0
VERTEX
  5
2BC
100
AcDbEntity
  8
OBJECT
  6
CONTINUOUS
100
AcDbVertex
100
AcDb2dVertex
 10
-924.0
 20
-784.0
 30
0.0
  0
SEQEND
  5
2BD
100
AcDbEntity
  8
OBJECT
  6
CONTINUOUS
  0
POLYLINE
  5
2BE
100
AcDbEntity
  8
OBJECT
  6
CONTINUOUS
100
AcDb2dPolyline
 66
               1
 10
0.0
 20
0.0
 30
0.0
 70
               1
 75
               5
  0
VERTEX
  5
2BF
100
AcDbEntity
  8
OBJECT
  6
CONTINUOUS
100
AcDbVertex
100
AcDb2dVertex
 10
-915.5
 20
-784.0
 30
0.0
  0
VERTEX
  5
2C0
100
AcDbEntity
  8
OBJECT
  6
CONTINUOUS
100
AcDbVertex
100
AcDb2dVertex
 10
-862.5
 20
-784.0
 30
0.0
  0
VERTEX
  5
2C1
100
AcDbEntity
  8
OBJECT
  6
CONTINUOUS
100
AcDbVertex
100
AcDb2dVertex
 10
-866.5
 20
-787.5
 30
0.0
  0
VERTEX
  5
2C2
100
AcDbEntity
  8
OBJECT
  6
CONTINUOUS
100
AcDbVertex
100
AcDb2dVertex
 10
-866.5
 20
-791.0
 30
0.0
  0
VERTEX
  5
2C3
100
AcDbEntity
  8
OBJECT
  6
CONTINUOUS
100
AcDbVertex
100
AcDb2dVertex
 10
-911.5
 20
-791.0
 30
0.0
  0
VERTEX
  5
2C4
100
AcDbEntity
  8
OBJECT
  6
CONTINUOUS
100
AcDbVertex
100
AcDb2dVertex
 10
-911.5
 20
-787.5
 30
0.0
  0
SEQEND
  5
2C5
100
AcDbEntity
  8
OBJECT
  6
CONTINUOUS
  0
LINE
  5
2C6
100
AcDbEntity
  8
OBJECT
  6
CONTINUOUS
100
AcDbLine
 10
-911.5
 20
-787.5
 30
0.0
 11
-866.5
 21
-787.5
 31
0.0
  0
SPLINE
  5
2C7
100
AcDbEntity
  8
OBJECT
  6
CONTINUOUS
100
AcDbSpline
210
0.0
220
0.0
230
1.0
 70
               9
 71
               2
 72
              28
 73
              25
 74
               0
 42
0.000001
 43
0.000001
 40
0.0
 40
0.0
 40
0.0
 40
0.1364451216774349
 40
0.1364451216774349
 40
0.206088985866959
 40
0.206088985866959
 40
0.2868044973790079
 40
0.2868044973790079
 40
0.3351288113064328
 40
0.3351288113064328
 40
0.3436566314112725
 40
0.3436566314112725
 40
0.525583460314519
 40
0.525583460314519
 40
0.6108616613629158
 40
0.6108616613629158
 40
0.7927884902661623
 40
0.7927884902661623
 40
0.8013163103710019
 40
0.8013163103710019
 40
0.8496406242984268
 40
0.8496406242984268
 40
0.9303561358104757
 40
0.9303561358104757
 40
1.0
 40
1.0
 40
1.0
 10
-865.0
 20
-791.0
 30
0.0
 10
-889.0
 20
-791.0
 30
0.0
 10
-913.0
 20
-791.0
 30
0.0
 10
-913.0
 20
-803.25
 30
0.0
 10
-913.0
 20
-815.5
 30
0.0
 10
-913.0
 20
-830.5
 30
0.0
 10
-907.0
 20
-843.0
 30
0.0
 10
-907.0
 20
-851.5
 30
0.0
 10
-907.0
 20
-860.0
 30
0.0
 10
-905.5
 20
-860.0
 30
0.0
 10
-904.0
 20
-860.0
 30
0.0
 10
-904.0
 20
-828.0
 30
0.0
 10
-904.0
 20
-796.0
 30
0.0
 10
-889.0
 20
-796.0
 30
0.0
 10
-874.0
 20
-796.0
 30
0.0
 10
-874.0
 20
-828.0
 30
0.0
 10
-874.0
 20
-860.0
 30
0.0
 10
-872.5
 20
-860.0
 30
0.0
 10
-871.0
 20
-860.0
 30
0.0
 10
-871.0
 20
-851.5
 30
0.0
 10
-871.0
 20
-843.0
 30
0.0
 10
-865.0
 20
-830.5
 30
0.0
 10
-865.0
 20
-815.5
 30
0.0
 10
-865.0
 20
-803.25
 30
0.0
 10
-865.0
 20
-791.0
 30
0.0
  0
POLYLINE
  5
2C8
100
AcDbEntity
  8
OBJECT
  6
CONTINUOUS
100
AcDb2dPolyline
 66
               1
 10
0.0
 20
0.0
 30
0.0
 70
               1
 75
               5
  0
VERTEX
  5
2C9
100
AcDbEntity
  8
OBJECT
  6
CONTINUOUS
100
AcDbVertex
100
AcDb2dVertex
 10
-871.0
 20
-793.0
 30
0.0
  0
VERTEX
  5
2CA
100
AcDbEntity
  8
OBJECT
  6
CONTINUOUS
100
AcDbVertex
100
AcDb2dVertex
 10
-907.0
 20
-793.0
 30
0.0
  0
VERTEX
  5
2CB
100
AcDbEntity
  8
OBJECT
  6
CONTINUOUS
100
AcDbVertex
100
AcDb2dVertex
 10
-907.0
 20
-860.0
 30
0.0
  0
VERTEX
  5
2CC
100
AcDbEntity
  8
OBJECT
  6
CONTINUOUS
100
AcDbVertex
100
AcDb2dVertex
 10
-904.0
 20
-860.0
 30
0.0
  0
VERTEX
  5
2CD
100
AcDbEntity
  8
OBJECT
  6
CONTINUOUS
100
AcDbVertex
100
AcDb2dVertex
 10
-904.0
 20
-796.0
 30
0.0
  0
VERTEX
  5
2CE
100
AcDbEntity
  8
OBJECT
  6
CONTINUOUS
100
AcDbVertex
100
AcDb2dVertex
 10
-874.0
 20
-796.0
 30
0.0
  0
VERTEX
  5
2CF
100
AcDbEntity
  8
OBJECT
  6
CONTINUOUS
100
AcDbVertex
100
AcDb2dVertex
 10
-874.0
 20
-860.0
 30
0.0
  0
VERTEX
  5
2D0
100
AcDbEntity
  8
OBJECT
  6
CONTINUOUS
100
AcDbVertex
100
AcDb2dVertex
 10
-871.0
 20
-860.0
 30
0.0
  0
SEQEND
  5
2D1
100
AcDbEntity
  8
OBJECT
  6
CONTINUOUS
  0
SPLINE
  5
2D2
100
AcDbEntity
  8
OBJECT
  6
CONTINUOUS
100
AcDbSpline
210
0.0
220
0.0
230
1.0
 70
              13
 71
               2
 72
              28
 73
              25
 74
               0
 42
0.000001
 43
0.000001
 40
0.0
 40
0.0
 40
0.0
 40
0.0116664369471639
 40
0.0116664369471639
 40
0.0307673121208418
 40
0.0307673121208418
 40
0.0826383042797579
 40
0.0826383042797579
 40
0.1017391794534357
 40
0.1017391794534357
 40
0.1134056164005998
 40
0.1134056164005998
 40
0.499999999999999
 40
0.499999999999999
 40
0.5116664369471629
 40
0.5116664369471629
 40
0.5307673121208408
 40
0.5307673121208408
 40
0.5826383042797569
 40
0.5826383042797569
 40
0.6017391794534348
 40
0.6017391794534348
 40
0.6134056164005999
 40
0.6134056164005999
 40
1.0
 40
1.0
 40
1.0
 10
-876.5
 20
-803.20543822418745
 30
0.0
 41
1.0
 10
-876.5
 20
-801.49999999999977
 30
0.0
 41
0.7609173743274019
 10
-878.18401899778667
 20
-801.23055696035408
 30
0.0
 41
1.0
 10
-880.46700949889328
 20
-800.86527848017704
 30
0.0
 41
1.0
 10
-882.75
 20
-800.5
 30
0.0
 41
1.0
 10
-889.0
 20
-799.5
 30
0.0
 41
1.0
 10
-895.25
 20
-800.5
 30
0.0
 41
1.0
 10
-897.53299050110672
 20
-800.86527848017704
 30
0.0
 41
1.0
 10
-899.81598100221333
 20
-801.23055696035408
 30
0.0
 41
1.0
 10
-901.49999999999977
 20
-801.49999999999977
 30
0.0
 41
0.7609173743274513
 10
-901.5
 20
-803.20543822418745
 30
0.0
 41
1.0
 10
-901.5
 20
-849.99999999999989
 30
0.0
 41
1.0
 10
-901.5
 20
-896.79456177581233
 30
0.0
 41
1.0
 10
-901.5
 20
-898.49999999999977
 30
0.0
 41
0.7609173743274019
 10
-899.81598100221333
 20
-898.76944303964569
 30
0.0
 41
1.0
 10
-897.53299050110672
 20
-899.13472151982285
 30
0.0
 41
1.0
 10
-895.25
 20
-899.5
 30
0.0
 41
1.0
 10
-889.0
 20
-900.5
 30
0.0
 41
1.0
 10
-882.75
 20
-899.5
 30
0.0
 41
1.0
 10
-880.46700949889328
 20
-899.13472151982296
 30
0.0
 41
1.0
 10
-878.18401899778667
 20
-898.76944303964592
 30
0.0
 41
1.0
 10
-876.50000000000023
 20
-898.50000000000011
 30
0.0
 41
0.7609173743274694
 10
-876.5
 20
-896.79456177581255
 30
0.0
 41
1.0
 10
-876.5
 20
-850.0
 30
0.0
 41
1.0
 10
-876.5
 20
-803.20543822418745
 30
0.0
 41
1.0
  0
POLYLINE
  5
2D3
100
AcDbEntity
  8
OBJECT
  6
CONTINUOUS
100
AcDb2dPolyline
 66
               1
 10
0.0
 20
0.0
 30
0.0
 70
               1
 75
               5
  0
VERTEX
  5
2D4
100
AcDbEntity
  8
OBJECT
  6
CONTINUOUS
100
AcDbVertex
100
AcDb2dVertex
 10
-904.0
 20
-841.75
 30
0.0
  0
VERTEX
  5
2D5
100
AcDbEntity
  8
OBJECT
  6
CONTINUOUS
100
AcDbVertex
100
AcDb2dVertex
 10
-901.5
 20
-841.75
 30
0.0
  0
VERTEX
  5
2D6
100
AcDbEntity
  8
OBJECT
  6
CONTINUOUS
100
AcDbVertex
100
AcDb2dVertex
 10
-901.5
 20
-858.25
 30
0.0
  0
VERTEX
  5
2D7
100
AcDbEntity
  8
OBJECT
  6
CONTINUOUS
100
AcDbVertex
100
AcDb2dVertex
 10
-904.0
 20
-858.25
 30
0.0
  0
SEQEND
  5
2D8
100
AcDbEntity
  8
OBJECT
  6
CONTINUOUS
  0
POLYLINE
  5
2D9
100
AcDbEntity
  8
OBJECT
  6
CONTINUOUS
100
AcDb2dPolyline
 66
               1
 10
0.0
 20
0.0
 30
0.0
 70
               1
 75
               5
  0
VERTEX
  5
2DA
100
AcDbEntity
  8
OBJECT
  6
CONTINUOUS
100
AcDbVertex
100
AcDb2dVertex
 10
-876.5
 20
-841.75
 30
0.0
  0
VERTEX
  5
2DB
100
AcDbEntity
  8
OBJECT
  6
CONTINUOUS
100
AcDbVertex
100
AcDb2dVertex
 10
-874.0
 20
-841.75
 30
0.0
  0
VERTEX
  5
2DC
100
AcDbEntity
  8
OBJECT
  6
CONTINUOUS
100
AcDbVertex
100
AcDb2dVertex
 10
-874.0
 20
-858.25
 30
0.0
  0
VERTEX
  5
2DD
100
AcDbEntity
  8
OBJECT
  6
CONTINUOUS
100
AcDbVertex
100
AcDb2dVertex
 10
-876.5
 20
-858.25
 30
0.0
  0
SEQEND
  5
2DE
100
AcDbEntity
  8
OBJECT
  6
CONTINUOUS
  0
POLYLINE
  5
2DF
100
AcDbEntity
  8
OBJECT
  6
CONTINUOUS
100
AcDb2dPolyline
 66
               1
 10
0.0
 20
0.0
 30
0.0
 70
               1
 75
               5
  0
VERTEX
  5
2E0
100
AcDbEntity
  8
OBJECT
  6
CONTINUOUS
100
AcDbVertex
100
AcDb2dVertex
 10
-871.0
 20
-844.5
 30
0.0
  0
VERTEX
  5
2E1
100
AcDbEntity
  8
OBJECT
  6
CONTINUOUS
100
AcDbVertex
100
AcDb2dVertex
 10
-868.5
 20
-844.5
 30
0.0
  0
VERTEX
  5
2E2
100
AcDbEntity
  8
OBJECT
  6
CONTINUOUS
100
AcDbVertex
100
AcDb2dVertex
 10
-868.5
 20
-855.5
 30
0.0
  0
VERTEX
  5
2E3
100
AcDbEntity
  8
OBJECT
  6
CONTINUOUS
100
AcDbVertex
100
AcDb2dVertex
 10
-871.0
 20
-855.5
 30
0.0
  0
SEQEND
  5
2E4
100
AcDbEntity
  8
OBJECT
  6
CONTINUOUS
  0
POLYLINE
  5
2E5
100
AcDbEntity
  8
OBJECT
  6
CONTINUOUS
100
AcDb2dPolyline
 66
               1
 10
0.0
 20
0.0
 30
0.0
 70
               1
 75
               5
  0
VERTEX
  5
2E6
100
AcDbEntity
  8
OBJECT
  6
CONTINUOUS
100
AcDbVertex
100
AcDb2dVertex
 10
-909.5
 20
-844.5
 30
0.0
  0
VERTEX
  5
2E7
100
AcDbEntity
  8
OBJECT
  6
CONTINUOUS
100
AcDbVertex
100
AcDb2dVertex
 10
-907.0
 20
-844.5
 30
0.0
  0
VERTEX
  5
2E8
100
AcDbEntity
  8
OBJECT
  6
CONTINUOUS
100
AcDbVertex
100
AcDb2dVertex
 10
-907.0
 20
-855.5
 30
0.0
  0
VERTEX
  5
2E9
100
AcDbEntity
  8
OBJECT
  6
CONTINUOUS
100
AcDbVertex
100
AcDb2dVertex
 10
-909.5
 20
-855.5
 30
0.0
  0
SEQEND
  5
2EA
100
AcDbEntity
  8
OBJECT
  6
CONTINUOUS
  0
POLYLINE
  5
2EB
100
AcDbEntity
  8
OBJECT
  6
CONTINUOUS
100
AcDb2dPolyline
 66
               1
 10
0.0
 20
0.0
 30
0.0
 70
               1
 75
               5
  0
VERTEX
  5
2EC
100
AcDbEntity
  8
OBJECT
  6
CONTINUOUS
100
AcDbVertex
100
AcDb2dVertex
 10
-909.5
 20
-837.5
 30
0.0
  0
VERTEX
  5
2ED
100
AcDbEntity
  8
OBJECT
  6
CONTINUOUS
100
AcDbVertex
100
AcDb2dVertex
 10
-909.5
 20
-862.5
 30
0.0
  0
VERTEX
  5
2EE
100
AcDbEntity
  8
OBJECT
  6
CONTINUOUS
100
AcDbVertex
100
AcDb2dVertex
 10
-912.5
 20
-862.5
 30
0.0
  0
VERTEX
  5
2EF
100
AcDbEntity
  8
OBJECT
  6
CONTINUOUS
100
AcDbVertex
100
AcDb2dVertex
 10
-912.5
 20
-840.5
 30
0.0
  0
VERTEX
  5
2F0
100
AcDbEntity
  8
OBJECT
  6
CONTINUOUS
100
AcDbVertex
100
AcDb2dVertex
 10
-929.5
 20
-840.5
 30
0.0
  0
VERTEX
  5
2F1
100
AcDbEntity
  8
OBJECT
  6
CONTINUOUS
100
AcDbVertex
100
AcDb2dVertex
 10
-929.5
 20
-837.5
 30
0.0
  0
SEQEND
  5
2F2
100
AcDbEntity
  8
OBJECT
  6
CONTINUOUS
  0
LINE
  5
2F3
100
AcDbEntity
  8
OBJECT
  6
CONTINUOUS
100
AcDbLine
 10
-927.5
 20
-848.5
 30
0.0
 11
-912.5
 21
-848.5
 31
0.0
  0
ARC
  5
2F4
100
AcDbEntity
  8
OBJECT
  6
CONTINUOUS
100
AcDbCircle
 10
-927.5
 20
-850.5
 30
0.0
 40
2.0
100
AcDbArc
 50
90.0
 51
180.0
  0
POLYLINE
  5
2F5
100
AcDbEntity
  8
OBJECT
  6
CONTINUOUS
100
AcDb2dPolyline
 66
               1
 10
0.0
 20
0.0
 30
0.0
 70
               1
 75
               5
  0
VERTEX
  5
2F6
100
AcDbEntity
  8
OBJECT
  6
CONTINUOUS
100
AcDbVertex
100
AcDb2dVertex
 10
-1358.0
 20
-779.0
 30
0.0
  0
VERTEX
  5
2F7
100
AcDbEntity
  8
OBJECT
  6
CONTINUOUS
100
AcDbVertex
100
AcDb2dVertex
 10
-842.0
 20
-779.0
 30
0.0
  0
VERTEX
  5
2F8
100
AcDbEntity
  8
OBJECT
  6
CONTINUOUS
100
AcDbVertex
100
AcDb2dVertex
 10
-842.0
 20
-781.0
 30
0.0
  0
VERTEX
  5
2F9
100
AcDbEntity
  8
OBJECT
  6
CONTINUOUS
100
AcDbVertex
100
AcDb2dVertex
 10
-1358.0
 20
-781.0
 30
0.0
  0
SEQEND
  5
2FA
100
AcDbEntity
  8
OBJECT
  6
CONTINUOUS
  0
POLYLINE
  5
2FB
100
AcDbEntity
  8
OBJECT
  6
CONTINUOUS
100
AcDb2dPolyline
 66
               1
 10
0.0
 20
0.0
 30
0.0
 70
               1
 75
               5
  0
VERTEX
  5
2FC
100
AcDbEntity
  8
OBJECT
  6
CONTINUOUS
100
AcDbVertex
100
AcDb2dVertex
 10
-1362.0
 20
-69.0
 30
0.0
  0
VERTEX
  5
2FD
100
AcDbEntity
  8
OBJECT
  6
CONTINUOUS
100
AcDbVertex
100
AcDb2dVertex
 10
-838.0
 20
-69.0
 30
0.0
  0
VERTEX
  5
2FE
100
AcDbEntity
  8
OBJECT
  6
CONTINUOUS
100
AcDbVertex
100
AcDb2dVertex
 10
-838.0
 20
-99.0
 30
0.0
  0
VERTEX
  5
2FF
100
AcDbEntity
  8
OBJECT
  6
CONTINUOUS
100
AcDbVertex
100
AcDb2dVertex
 10
-1362.0
 20
-99.0
 30
0.0
  0
SEQEND
  5
300
100
AcDbEntity
  8
OBJECT
  6
CONTINUOUS
  0
LINE
  5
301
100
AcDbEntity
  8
OBJECT
  6
CONTINUOUS
100
AcDbLine
 10
-1360.0
 20
-99.0
 30
0.0
 11
-1360.0
 21
-744.0
 31
0.0
  0
LINE
  5
302
100
AcDbEntity
  8
OBJECT
  6
CONTINUOUS
100
AcDbLine
 10
-840.0
 20
-99.0
 30
0.0
 11
-840.0
 21
-744.0
 31
0.0
  0
POLYLINE
  5
303
100
AcDbEntity
  8
OBJECT
  6
CONTINUOUS
100
AcDb2dPolyline
 66
               1
 10
0.0
 20
0.0
 30
0.0
 70
               1
 75
               5
  0
VERTEX
  5
304
100
AcDbEntity
  8
OBJECT
  6
CONTINUOUS
100
AcDbVertex
100
AcDb2dVertex
 10
-1365.0
 20
-64.0
 30
0.0
  0
VERTEX
  5
305
100
AcDbEntity
  8
OBJECT
  6
CONTINUOUS
100
AcDbVertex
100
AcDb2dVertex
 10
-835.0
 20
-64.0
 30
0.0
  0
VERTEX
  5
306
100
AcDbEntity
  8
OBJECT
  6
CONTINUOUS
100
AcDbVertex
100
AcDb2dVertex
 10
-835.0
 20
-69.0
 30
0.0
  0
VERTEX
  5
307
100
AcDbEntity
  8
OBJECT
  6
CONTINUOUS
100
AcDbVertex
100
AcDb2dVertex
 10
-1365.0
 20
-69.0
 30
0.0
  0
SEQEND
  5
308
100
AcDbEntity
  8
OBJECT
  6
CONTINUOUS
  0
POLYLINE
  5
309
100
AcDbEntity
  8
OBJECT
  6
CONTINUOUS
100
AcDb2dPolyline
 66
               1
 10
0.0
 20
0.0
 30
0.0
 70
               1
 75
               5
  0
VERTEX
  5
30A
100
AcDbEntity
  8
OBJECT
  6
CONTINUOUS
100
AcDbVertex
100
AcDb2dVertex
 10
221.95929410379176
 20
-42.999983430302564
 30
0.0
  0
VERTEX
  5
30B
100
AcDbEntity
  8
OBJECT
  6
CONTINUOUS
100
AcDbVertex
100
AcDb2dVertex
 10
221.95929410379176
 20
-63.999983430302564
 30
0.0
  0
VERTEX
  5
30C
100
AcDbEntity
  8
OBJECT
  6
CONTINUOUS
100
AcDbVertex
100
AcDb2dVertex
 10
231.95929410379176
 20
-63.999983430302564
 30
0.0
  0
VERTEX
  5
30D
100
AcDbEntity
  8
OBJECT
  6
CONTINUOUS
100
AcDbVertex
100
AcDb2dVertex
 10
231.95929410379176
 20
-51.999983430302564
 30
0.0
  0
VERTEX
  5
30E
100
AcDbEntity
  8
OBJECT
  6
CONTINUOUS
100
AcDbVertex
100
AcDb2dVertex
 10
281.95929410379176
 20
-51.999983430302564
 30
0.0
  0
VERTEX
  5
30F
100
AcDbEntity
  8
OBJECT
  6
CONTINUOUS
100
AcDbVertex
100
AcDb2dVertex
 10
281.95929410379176
 20
-63.999983430302564
 30
0.0
  0
VERTEX
  5
310
100
AcDbEntity
  8
OBJECT
  6
CONTINUOUS
100
AcDbVertex
100
AcDb2dVertex
 10
291.95929410379176
 20
-63.999983430302564
 30
0.0
  0
VERTEX
  5
311
100
AcDbEntity
  8
OBJECT
  6
CONTINUOUS
100
AcDbVertex
100
AcDb2dVertex
 10
291.95929410379176
 20
-42.999983430302564
 30
0.0
  0
SEQEND
  5
312
100
AcDbEntity
  8
OBJECT
  6
CONTINUOUS
  0
POLYLINE
  5
313
100
AcDbEntity
  8
OBJECT
  6
CONTINUOUS
100
AcDb2dPolyline
 66
               1
 10
0.0
 20
0.0
 30
0.0
 70
               1
 75
               5
  0
VERTEX
  5
314
100
AcDbEntity
  8
OBJECT
  6
CONTINUOUS
100
AcDbVertex
100
AcDb2dVertex
 10
124.95929410379176
 20
-778.99998343030256
 30
0.0
  0
VERTEX
  5
315
100
AcDbEntity
  8
OBJECT
  6
CONTINUOUS
100
AcDbVertex
100
AcDb2dVertex
 10
432.95929410379176
 20
-778.99998343030256
 30
0.0
  0
VERTEX
  5
316
100
AcDbEntity
  8
OBJECT
  6
CONTINUOUS
100
AcDbVertex
100
AcDb2dVertex
 10
432.95929410379176
 20
-780.99998343030256
 30
0.0
  0
VERTEX
  5
317
100
AcDbEntity
  8
OBJECT
  6
CONTINUOUS
100
AcDbVertex
100
AcDb2dVertex
 10
124.95929410379176
 20
-780.99998343030256
 30
0.0
  0
SEQEND
  5
318
100
AcDbEntity
  8
OBJECT
  6
CONTINUOUS
  0
POLYLINE
  5
319
100
AcDbEntity
  8
OBJECT
  6
CONTINUOUS
100
AcDb2dPolyline
 66
               1
 10
0.0
 20
0.0
 30
0.0
 70
               1
 75
               5
  0
VERTEX
  5
31A
100
AcDbEntity
  8
OBJECT
  6
CONTINUOUS
100
AcDbVertex
100
AcDb2dVertex
 10
120.95929410379176
 20
-68.999983430302564
 30
0.0
  0
VERTEX
  5
31B
100
AcDbEntity
  8
OBJECT
  6
CONTINUOUS
100
AcDbVertex
100
AcDb2dVertex
 10
392.95929410379176
 20
-68.999983430302564
 30
0.0
  0
VERTEX
  5
31C
100
AcDbEntity
  8
OBJECT
  6
CONTINUOUS
100
AcDbVertex
100
AcDb2dVertex
 10
392.95929410379176
 20
-98.999983430302564
 30
0.0
  0
VERTEX
  5
31D
100
AcDbEntity
  8
OBJECT
  6
CONTINUOUS
100
AcDbVertex
100
AcDb2dVertex
 10
120.95929410379176
 20
-98.999983430302564
 30
0.0
  0
SEQEND
  5
31E
100
AcDbEntity
  8
OBJECT
  6
CONTINUOUS
  0
POLYLINE
  5
31F
100
AcDbEntity
  8
OBJECT
  6
CONTINUOUS
100
AcDb2dPolyline
 66
               1
 10
0.0
 20
0.0
 30
0.0
 75
               5
  0
VERTEX
  5
320
100
AcDbEntity
  8
OBJECT
  6
CONTINUOUS
100
AcDbVertex
100
AcDb2dVertex
 10
392.95929410379176
 20
-74.999983430302564
 30
0.0
  0
VERTEX
  5
321
100
AcDbEntity
  8
OBJECT
  6
CONTINUOUS
100
AcDbVertex
100
AcDb2dVertex
 10
392.95929410379176
 20
-74.999983430302564
 30
0.0
  0
VERTEX
  5
322
100
AcDbEntity
  8
OBJECT
  6
CONTINUOUS
100
AcDbVertex
100
AcDb2dVertex
 10
392.95929410379176
 20
-749.99998343030256
 30
0.0
  0
SEQEND
  5
323
100
AcDbEntity
  8
OBJECT
  6
CONTINUOUS
  0
LINE
  5
324
100
AcDbEntity
  8
OBJECT
  6
CONTINUOUS
100
AcDbLine
 10
122.95929410379176
 20
-743.99998343030256
 30
0.0
 11
122.95929410379176
 21
-98.999983430302564
 31
0.0
  0
POLYLINE
  5
325
100
AcDbEntity
  8
OBJECT
  6
CONTINUOUS
100
AcDb2dPolyline
 66
               1
 10
0.0
 20
0.0
 30
0.0
 75
               5
  0
VERTEX
  5
326
100
AcDbEntity
  8
OBJECT
  6
CONTINUOUS
100
AcDbVertex
100
AcDb2dVertex
 10
432.95929410379176
 20
-773.99998343030256
 30
0.0
  0
VERTEX
  5
327
100
AcDbEntity
  8
OBJECT
  6
CONTINUOUS
100
AcDbVertex
100
AcDb2dVertex
 10
432.95929410379176
 20
-778.99998343030256
 30
0.0
  0
VERTEX
  5
328
100
AcDbEntity
  8
OBJECT
  6
CONTINUOUS
100
AcDbVertex
100
AcDb2dVertex
 10
392.95929410379176
 20
-778.99998343030256
 30
0.0
  0
VERTEX
  5
329
100
AcDbEntity
  8
OBJECT
  6
CONTINUOUS
100
AcDbVertex
100
AcDb2dVertex
 10
392.95929410379176
 20
-68.999983430302564
 30
0.0
  0
VERTEX
  5
32A
100
AcDbEntity
  8
OBJECT
  6
CONTINUOUS
100
AcDbVertex
100
AcDb2dVertex
 10
432.95929410379176
 20
-68.999983430302564
 30
0.0
  0
VERTEX
  5
32B
100
AcDbEntity
  8
OBJECT
  6
CONTINUOUS
100
AcDbVertex
100
AcDb2dVertex
 10
432.95929410379176
 20
-743.99998343030256
 30
0.0
  0
SEQEND
  5
32C
100
AcDbEntity
  8
OBJECT
  6
CONTINUOUS
  0
POLYLINE
  5
32D
100
AcDbEntity
  8
OBJECT
  6
CONTINUOUS
100
AcDb2dPolyline
 66
               1
 10
0.0
 20
0.0
 30
0.0
 70
               1
 75
               5
  0
VERTEX
  5
32E
100
AcDbEntity
  8
OBJECT
  6
CONTINUOUS
100
AcDbVertex
100
AcDb2dVertex
 10
116.95929410379176
 20
-63.999983430302564
 30
0.0
  0
VERTEX
  5
32F
100
AcDbEntity
  8
OBJECT
  6
CONTINUOUS
100
AcDbVertex
100
AcDb2dVertex
 10
396.95929410379176
 20
-63.999983430302564
 30
0.0
  0
VERTEX
  5
330
100
AcDbEntity
  8
OBJECT
  6
CONTINUOUS
100
AcDbVertex
100
AcDb2dVertex
 10
396.95929410379176
 20
-68.999983430302564
 30
0.0
  0
VERTEX
  5
331
100
AcDbEntity
  8
OBJECT
  6
CONTINUOUS
100
AcDbVertex
100
AcDb2dVertex
 10
116.95929410379176
 20
-68.999983430302564
 30
0.0
  0
SEQEND
  5
332
100
AcDbEntity
  8
OBJECT
  6
CONTINUOUS
  0
POLYLINE
  5
333
100
AcDbEntity
  8
OBJECT
  6
CONTINUOUS
100
AcDb2dPolyline
 66
               1
 10
0.0
 20
0.0
 30
0.0
 70
               1
 75
               5
  0
VERTEX
  5
334
100
AcDbEntity
  8
OBJECT
  6
CONTINUOUS
100
AcDbVertex
100
AcDb2dVertex
 10
476.04689410379251
 20
-146.99998343030256
 30
0.0
  0
VERTEX
  5
335
100
AcDbEntity
  8
OBJECT
  6
CONTINUOUS
100
AcDbVertex
100
AcDb2dVertex
 10
463.04689410379251
 20
-146.99998343030256
 30
0.0
  0
VERTEX
  5
336
100
AcDbEntity
  8
OBJECT
  6
CONTINUOUS
100
AcDbVertex
100
AcDb2dVertex
 10
463.04689410379251
 20
-190.99998343030256
 30
0.0
  0
VERTEX
  5
337
100
AcDbEntity
  8
OBJECT
  6
CONTINUOUS
100
AcDbVertex
100
AcDb2dVertex
 10
476.04689410379251
 20
-190.99998343030256
 30
0.0
  0
SEQEND
  5
338
100
AcDbEntity
  8
OBJECT
  6
CONTINUOUS
  0
LWPOLYLINE
  5
339
100
AcDbEntity
  8
OBJECT
  6
CONTINUOUS
100
AcDbPolyline
 90
        6
 70
             129
 10
520.04689410379251
 20
-282.49998343030256
 10
520.04689410379251
 20
-312.49998343030256
 10
495.04689410379251
 20
-312.49998343030256
 42
-0.414213562373095
 10
485.04689410379251
 20
-302.49998343030256
 10
485.04689410379251
 20
-292.49998343030256
 42
-0.414213562373095
 10
495.04689410379251
 20
-282.49998343030256
  0
POLYLINE
  5
33A
100
AcDbEntity
  8
OBJECT
  6
CONTINUOUS
100
AcDb2dPolyline
 66
               1
 10
0.0
 20
0.0
 30
0.0
 70
               1
 75
               5
  0
VERTEX
  5
33B
100
AcDbEntity
  8
OBJECT
  6
CONTINUOUS
100
AcDbVertex
100
AcDb2dVertex
 10
541.04689410379251
 20
-285.99998343030256
 30
0.0
  0
VERTEX
  5
33C
100
AcDbEntity
  8
OBJECT
  6
CONTINUOUS
100
AcDbVertex
100
AcDb2dVertex
 10
541.04689410379251
 20
-288.99998343030256
 30
0.0
  0
VERTEX
  5
33D
100
AcDbEntity
  8
OBJECT
  6
CONTINUOUS
100
AcDbVertex
100
AcDb2dVertex
 10
520.04689410379251
 20
-288.99998343030256
 30
0.0
  0
VERTEX
  5
33E
100
AcDbEntity
  8
OBJECT
  6
CONTINUOUS
100
AcDbVertex
100
AcDb2dVertex
 10
520.04689410379251
 20
-285.99998343030256
 30
0.0
  0
SEQEND
  5
33F
100
AcDbEntity
  8
OBJECT
  6
CONTINUOUS
  0
POLYLINE
  5
340
100
AcDbEntity
  8
OBJECT
  6
CONTINUOUS
100
AcDb2dPolyline
 66
               1
 10
0.0
 20
0.0
 30
0.0
 70
               1
 75
               5
  0
VERTEX
  5
341
100
AcDbEntity
  8
OBJECT
  6
CONTINUOUS
100
AcDbVertex
100
AcDb2dVertex
 10
541.04689410379251
 20
-305.99998343030256
 30
0.0
  0
VERTEX
  5
342
100
AcDbEntity
  8
OBJECT
  6
CONTINUOUS
100
AcDbVertex
100
AcDb2dVertex
 10
541.04689410379251
 20
-308.99998343030256
 30
0.0
  0
VERTEX
  5
343
100
AcDbEntity
  8
OBJECT
  6
CONTINUOUS
100
AcDbVertex
100
AcDb2dVertex
 10
520.04689410379251
 20
-308.99998343030256
 30
0.0
  0
VERTEX
  5
344
100
AcDbEntity
  8
OBJECT
  6
CONTINUOUS
100
AcDbVertex
100
AcDb2dVertex
 10
520.04689410379251
 20
-305.99998343030256
 30
0.0
  0
SEQEND
  5
345
100
AcDbEntity
  8
OBJECT
  6
CONTINUOUS
  0
POLYLINE
  5
346
100
AcDbEntity
  8
OBJECT
  6
CONTINUOUS
100
AcDb2dPolyline
 66
               1
 10
0.0
 20
0.0
 30
0.0
 75
               5
  0
VERTEX
  5
347
100
AcDbEntity
  8
OBJECT
  6
CONTINUOUS
100
AcDbVertex
100
AcDb2dVertex
 10
455.71039410379126
 20
-163.99998343030256
 30
0.0
  0
VERTEX
  5
348
100
AcDbEntity
  8
OBJECT
  6
CONTINUOUS
100
AcDbVertex
100
AcDb2dVertex
 10
463.04689410379251
 20
-163.99998343030256
 30
0.0
  0
VERTEX
  5
349
100
AcDbEntity
  8
OBJECT
  6
CONTINUOUS
100
AcDbVertex
100
AcDb2dVertex
 10
463.04689410379251
 20
-173.99998343030256
 30
0.0
  0
VERTEX
  5
34A
100
AcDbEntity
  8
OBJECT
  6
CONTINUOUS
100
AcDbVertex
100
AcDb2dVertex
 10
455.94919410379225
 20
-173.99998343030256
 30
0.0
  0
SEQEND
  5
34B
100
AcDbEntity
  8
OBJECT
  6
CONTINUOUS
  0
POLYLINE
  5
34C
100
AcDbEntity
  8
OBJECT
  6
CONTINUOUS
100
AcDb2dPolyline
 66
               1
 10
0.0
 20
0.0
 30
0.0
 75
               5
  0
VERTEX
  5
34D
100
AcDbEntity
  8
OBJECT
  6
CONTINUOUS
100
AcDbVertex
100
AcDb2dVertex
 10
432.75929410379104
 20
-163.99998343030256
 30
0.0
  0
VERTEX
  5
34E
100
AcDbEntity
  8
OBJECT
  6
CONTINUOUS
100
AcDbVertex
100
AcDb2dVertex
 10
445.04689410379251
 20
-163.99998343030256
 30
0.0
  0
VERTEX
  5
34F
100
AcDbEntity
  8
OBJECT
  6
CONTINUOUS
100
AcDbVertex
100
AcDb2dVertex
 10
445.04689410379251
 20
-173.99998343030256
 30
0.0
  0
VERTEX
  5
350
100
AcDbEntity
  8
OBJECT
  6
CONTINUOUS
100
AcDbVertex
100
AcDb2dVertex
 10
433.15929410379249
 20
-173.99998343030256
 30
0.0
  0
SEQEND
  5
351
100
AcDbEntity
  8
OBJECT
  6
CONTINUOUS
  0
LWPOLYLINE
  5
352
100
AcDbEntity
  8
OBJECT
  6
CONTINUOUS
100
AcDbPolyline
 90
        6
 70
             128
 10
485.06669410379254
 20
-291.86918343030266
 42
-0.3784005756993751
 10
458.06799410379244
 20
-262.73498343030224
 10
455.44769410379195
 20
-152.99688343030266
 10
455.44769410379195
 20
-152.99688343030266
 10
455.44769410379195
 20
-152.99688343030266
 42
0.110664322160818
 10
454.91899410379119
 20
-150.87568343030262
 42
0.110664322160818
  0
ARC
  5
353
100
AcDbEntity
  8
OBJECT
  6
CONTINUOUS
100
AcDbCircle
 10
488.05959410379182
 20
-262.01868343030264
 30
0.0
 40
40.000023694117438
100
AcDbArc
 50
214.3793554385056
 51
265.68053639885522
  0
LWPOLYLINE
  5
354
100
AcDbEntity
  8
OBJECT
  6
CONTINUOUS
100
AcDbPolyline
 90
       23
 70
             128
 10
445.04689410379251
 20
-770.97808343030238
 10
445.04689410379251
 20
-770.99998343030256
 10
445.04689410379251
 20
-770.99998343030256
 10
445.04689410379251
 20
-770.99998343030256
 42
-0.414213562373095
 10
435.04689410379251
 20
-780.99998343030256
 10
283.45929410379176
 20
-780.99998343030256
 10
273.45929410379176
 20
-780.99998343030256
 10
273.45929410379176
 20
-783.99998343030256
 10
273.45929410379176
 20
-783.99998343030256
 10
273.45929410379176
 20
-783.99998343030256
 42
0.414213562373095
 10
280.45929410379176
 20
-790.99998343030256
 10
435.04689410379251
 20
-790.99998343030256
 10
435.04689410379251
 20
-790.99998343030256
 10
435.04689410379251
 20
-790.99998343030256
 42
0.414213562373095
 10
455.04689410379251
 20
-770.99998343030256
 10
455.04689410379251
 20
-151.99998343030256
 10
455.04689410379251
 20
-151.99998343030256
 10
455.04689410379251
 20
-151.99998343030256
 42
0.414213562373095
 10
450.04689410379251
 20
-146.99998343030256
 10
450.04689410379251
 20
-146.99998343030256
 10
450.04689410379251
 20
-146.99998343030256
 42
0.414213562373095
 10
445.04689410379251
 20
-151.99998343030256
 10
445.04689410379251
 20
-747.02188343030275
  0
LWPOLYLINE
  5
355
100
AcDbEntity
  8
HIDDEN
  6
STYLE_16
100
AcDbPolyline
 90
        5
 70
             129
 10
392.95929410379176
 20
-93.999983430302564
 42
-0.414213562373095
 10
403.95929410379176
 20
-82.999983430302564
 42
-0.414213562373095
 10
414.95929410379176
 20
-93.999983430302564
 42
-0.414213562373095
 10
403.95929410379176
 20
-104.99998343030256
 42
-0.414213562373095
 10
392.95929410379176
 20
-93.999983430302564
 42
-0.414213562373095
  0
LWPOLYLINE
  5
356
100
AcDbEntity
  8
HIDDEN
  6
STYLE_16
100
AcDbPolyline
 90
        5
 70
             129
 10
369.45929410379176
 20
-262.99998343030256
 42
-0.414213562373095
 10
380.45929410379176
 20
-251.99998343030256
 42
-0.414213562373095
 10
391.45929410379176
 20
-262.99998343030256
 42
-0.414213562373095
 10
380.45929410379176
 20
-273.99998343030256
 42
-0.414213562373095
 10
369.45929410379176
 20
-262.99998343030256
 42
-0.414213562373095
  0
POLYLINE
  5
357
100
AcDbEntity
  8
HIDDEN
  6
STYLE_16
100
AcDb2dPolyline
 66
               1
 10
0.0
 20
0.0
 30
0.0
 75
               5
  0
VERTEX
  5
358
100
AcDbEntity
  8
HIDDEN
  6
STYLE_16
100
AcDbVertex
100
AcDb2dVertex
 10
375.95929410379176
 20
-273.03738343030273
 30
0.0
  0
VERTEX
  5
359
100
AcDbEntity
  8
HIDDEN
  6
STYLE_16
100
AcDbVertex
100
AcDb2dVertex
 10
375.95929410379176
 20
-273.99998343030256
 30
0.0
  0
VERTEX
  5
35A
100
AcDbEntity
  8
HIDDEN
  6
STYLE_16
100
AcDbVertex
100
AcDb2dVertex
 10
225.95929410379176
 20
-273.99998343030256
 30
0.0
  0
VERTEX
  5
35B
100
AcDbEntity
  8
HIDDEN
  6
STYLE_16
100
AcDbVertex
100
AcDb2dVertex
 10
155.95929410379176
 20
-188.99998343030256
 30
0.0
  0
VERTEX
  5
35C
100
AcDbEntity
  8
HIDDEN
  6
STYLE_16
100
AcDbVertex
100
AcDb2dVertex
 10
155.95929410379176
 20
-88.999983430302564
 30
0.0
  0
VERTEX
  5
35D
100
AcDbEntity
  8
HIDDEN
  6
STYLE_16
100
AcDbVertex
100
AcDb2dVertex
 10
375.95929410379176
 20
-88.999983430302564
 30
0.0
  0
VERTEX
  5
35E
100
AcDbEntity
  8
HIDDEN
  6
STYLE_16
100
AcDbVertex
100
AcDb2dVertex
 10
375.95929410379176
 20
-88.999983430302564
 30
0.0
  0
SEQEND
  5
35F
100
AcDbEntity
  8
HIDDEN
  6
STYLE_16
  0
POLYLINE
  5
360
100
AcDbEntity
  8
HIDDEN
  6
STYLE_16
100
AcDb2dPolyline
 66
               1
 10
0.0
 20
0.0
 30
0.0
 75
               5
  0
VERTEX
  5
361
100
AcDbEntity
  8
HIDDEN
  6
STYLE_16
100
AcDbVertex
100
AcDb2dVertex
 10
413.75729410379245
 20
-88.999983430302564
 30
0.0
  0
VERTEX
  5
362
100
AcDbEntity
  8
HIDDEN
  6
STYLE_16
100
AcDbVertex
100
AcDb2dVertex
 10
420.95929410379176
 20
-88.999983430302564
 30
0.0
  0
VERTEX
  5
363
100
AcDbEntity
  8
HIDDEN
  6
STYLE_16
100
AcDbVertex
100
AcDb2dVertex
 10
420.95929410379176
 20
-268.99998343030256
 30
0.0
  0
VERTEX
  5
364
100
AcDbEntity
  8
HIDDEN
  6
STYLE_16
100
AcDbVertex
100
AcDb2dVertex
 10
389.67879410379101
 20
-268.99998343030256
 30
0.0
  0
SEQEND
  5
365
100
AcDbEntity
  8
HIDDEN
  6
STYLE_16
  0
POLYLINE
  5
366
100
AcDbEntity
  8
HIDDEN
  6
STYLE_16
100
AcDb2dPolyline
 66
               1
 10
0.0
 20
0.0
 30
0.0
 75
               5
  0
VERTEX
  5
367
100
AcDbEntity
  8
HIDDEN
  6
STYLE_16
100
AcDbVertex
100
AcDb2dVertex
 10
394.16129410379108
 20
-88.999983430302564
 30
0.0
  0
VERTEX
  5
368
100
AcDbEntity
  8
HIDDEN
  6
STYLE_16
100
AcDbVertex
100
AcDb2dVertex
 10
360.95929410379176
 20
-88.999983430302564
 30
0.0
  0
VERTEX
  5
369
100
AcDbEntity
  8
HIDDEN
  6
STYLE_16
100
AcDbVertex
100
AcDb2dVertex
 10
360.95929410379176
 20
-268.99998343030256
 30
0.0
  0
VERTEX
  5
36A
100
AcDbEntity
  8
HIDDEN
  6
STYLE_16
100
AcDbVertex
100
AcDb2dVertex
 10
371.23979410379252
 20
-268.99998343030256
 30
0.0
  0
SEQEND
  5
36B
100
AcDbEntity
  8
HIDDEN
  6
STYLE_16
  0
LWPOLYLINE
  5
36C
100
AcDbEntity
  8
HIDDEN
  6
STYLE_16
100
AcDbPolyline
 90
        5
 70
             129
 10
392.95929410379176
 20
-593.99998343030256
 42
-0.414213562373095
 10
403.95929410379176
 20
-582.99998343030256
 42
-0.414213562373095
 10
414.95929410379176
 20
-593.99998343030256
 42
-0.414213562373095
 10
403.95929410379176
 20
-604.99998343030256
 42
-0.414213562373095
 10
392.95929410379176
 20
-593.99998343030256
 42
-0.414213562373095
  0
LWPOLYLINE
  5
36D
100
AcDbEntity
  8
HIDDEN
  6
STYLE_16
100
AcDbPolyline
 90
        5
 70
             129
 10
369.45929410379176
 20
-762.99998343030256
 42
-0.414213562373095
 10
380.45929410379176
 20
-751.99998343030256
 42
-0.414213562373095
 10
391.45929410379176
 20
-762.99998343030256
 42
-0.414213562373095
 10
380.45929410379176
 20
-773.99998343030256
 42
-0.414213562373095
 10
369.45929410379176
 20
-762.99998343030256
 42
-0.414213562373095
  0
POLYLINE
  5
36E
100
AcDbEntity
  8
HIDDEN
  6
STYLE_16
100
AcDb2dPolyline
 66
               1
 10
0.0
 20
0.0
 30
0.0
 75
               5
  0
VERTEX
  5
36F
100
AcDbEntity
  8
HIDDEN
  6
STYLE_16
100
AcDbVertex
100
AcDb2dVertex
 10
375.95929410379176
 20
-773.03738343030227
 30
0.0
  0
VERTEX
  5
370
100
AcDbEntity
  8
HIDDEN
  6
STYLE_16
100
AcDbVertex
100
AcDb2dVertex
 10
375.95929410379176
 20
-773.99998343030256
 30
0.0
  0
VERTEX
  5
371
100
AcDbEntity
  8
HIDDEN
  6
STYLE_16
100
AcDbVertex
100
AcDb2dVertex
 10
225.95929410379176
 20
-773.99998343030256
 30
0.0
  0
VERTEX
  5
372
100
AcDbEntity
  8
HIDDEN
  6
STYLE_16
100
AcDbVertex
100
AcDb2dVertex
 10
155.95929410379176
 20
-688.99998343030256
 30
0.0
  0
VERTEX
  5
373
100
AcDbEntity
  8
HIDDEN
  6
STYLE_16
100
AcDbVertex
100
AcDb2dVertex
 10
155.95929410379176
 20
-588.99998343030256
 30
0.0
  0
VERTEX
  5
374
100
AcDbEntity
  8
HIDDEN
  6
STYLE_16
100
AcDbVertex
100
AcDb2dVertex
 10
375.95929410379176
 20
-588.99998343030256
 30
0.0
  0
VERTEX
  5
375
100
AcDbEntity
  8
HIDDEN
  6
STYLE_16
100
AcDbVertex
100
AcDb2dVertex
 10
375.95929410379176
 20
-588.99998343030256
 30
0.0
  0
SEQEND
  5
376
100
AcDbEntity
  8
HIDDEN
  6
STYLE_16
  0
POLYLINE
  5
377
100
AcDbEntity
  8
HIDDEN
  6
STYLE_16
100
AcDb2dPolyline
 66
               1
 10
0.0
 20
0.0
 30
0.0
 75
               5
  0
VERTEX
  5
378
100
AcDbEntity
  8
HIDDEN
  6
STYLE_16
100
AcDbVertex
100
AcDb2dVertex
 10
413.75729410379245
 20
-588.99998343030256
 30
0.0
  0
VERTEX
  5
379
100
AcDbEntity
  8
HIDDEN
  6
STYLE_16
100
AcDbVertex
100
AcDb2dVertex
 10
420.95929410379176
 20
-588.99998343030256
 30
0.0
  0
VERTEX
  5
37A
100
AcDbEntity
  8
HIDDEN
  6
STYLE_16
100
AcDbVertex
100
AcDb2dVertex
 10
420.95929410379176
 20
-768.99998343030256
 30
0.0
  0
VERTEX
  5
37B
100
AcDbEntity
  8
HIDDEN
  6
STYLE_16
100
AcDbVertex
100
AcDb2dVertex
 10
389.67879410379101
 20
-768.99998343030256
 30
0.0
  0
SEQEND
  5
37C
100
AcDbEntity
  8
HIDDEN
  6
STYLE_16
  0
POLYLINE
  5
37D
100
AcDbEntity
  8
HIDDEN
  6
STYLE_16
100
AcDb2dPolyline
 66
               1
 10
0.0
 20
0.0
 30
0.0
 75
               5
  0
VERTEX
  5
37E
100
AcDbEntity
  8
HIDDEN
  6
STYLE_16
100
AcDbVertex
100
AcDb2dVertex
 10
394.16129410379108
 20
-588.99998343030256
 30
0.0
  0
VERTEX
  5
37F
100
AcDbEntity
  8
HIDDEN
  6
STYLE_16
100
AcDbVertex
100
AcDb2dVertex
 10
360.95929410379176
 20
-588.99998343030256
 30
0.0
  0
VERTEX
  5
380
100
AcDbEntity
  8
HIDDEN
  6
STYLE_16
100
AcDbVertex
100
AcDb2dVertex
 10
360.95929410379176
 20
-768.99998343030256
 30
0.0
  0
VERTEX
  5
381
100
AcDbEntity
  8
HIDDEN
  6
STYLE_16
100
AcDbVertex
100
AcDb2dVertex
 10
371.23979410379252
 20
-768.99998343030256
 30
0.0
  0
SEQEND
  5
382
100
AcDbEntity
  8
HIDDEN
  6
STYLE_16
  0
POLYLINE
  5
383
100
AcDbEntity
  8
OBJECT
  6
CONTINUOUS
100
AcDb2dPolyline
 66
               1
 10
0.0
 20
0.0
 30
0.0
 70
               1
 75
               5
  0
VERTEX
  5
384
100
AcDbEntity
  8
OBJECT
  6
CONTINUOUS
100
AcDbVertex
100
AcDb2dVertex
 10
-1360.0
 20
712.0
 30
0.0
  0
VERTEX
  5
385
100
AcDbEntity
  8
OBJECT
  6
CONTINUOUS
100
AcDbVertex
100
AcDb2dVertex
 10
-840.0
 20
712.0
 30
0.0
  0
VERTEX
  5
386
100
AcDbEntity
  8
OBJECT
  6
CONTINUOUS
100
AcDbVertex
100
AcDb2dVertex
 10
-840.0
 20
672.0
 30
0.0
  0
VERTEX
  5
387
100
AcDbEntity
  8
OBJECT
  6
CONTINUOUS
100
AcDbVertex
100
AcDb2dVertex
 10
-1360.0
 20
672.0
 30
0.0
  0
SEQEND
  5
388
100
AcDbEntity
  8
OBJECT
  6
CONTINUOUS
  0
LWPOLYLINE
  5
389
100
AcDbEntity
  8
OBJECT
  6
CONTINUOUS
100
AcDbPolyline
 90
        6
 70
             129
 10
-1360.0
 20
672.0
 10
-840.0
 20
672.0
 10
-840.0
 20
420.0
 42
-0.414213562373095
 10
-858.0
 20
402.0
 10
-1342.0
 20
402.0
 42
-0.414213562373095
 10
-1360.0
 20
420.0
  0
LWPOLYLINE
  5
38A
100
AcDbEntity
  8
OBJECT
  6
CONTINUOUS
100
AcDbPolyline
 90
        6
 70
             129
 10
-1362.0
 20
672.0
 10
-838.0
 20
672.0
 10
-838.0
 20
420.0
 42
-0.414213562373095
 10
-858.0
 20
400.0
 10
-1342.0
 20
400.0
 42
-0.414213562373095
 10
-1362.0
 20
420.0
  0
POLYLINE
  5
38B
100
AcDbEntity
  8
OBJECT
  6
CONTINUOUS
100
AcDb2dPolyline
 66
               1
 10
0.0
 20
0.0
 30
0.0
 70
               1
 75
               5
  0
VERTEX
  5
38C
100
AcDbEntity
  8
OBJECT
  6
CONTINUOUS
100
AcDbVertex
100
AcDb2dVertex
 10
-1337.0
 20
636.0
 30
0.0
  0
VERTEX
  5
38D
100
AcDbEntity
  8
OBJECT
  6
CONTINUOUS
100
AcDbVertex
100
AcDb2dVertex
 10
-1317.0
 20
656.0
 30
0.0
  0
VERTEX
  5
38E
100
AcDbEntity
  8
OBJECT
  6
CONTINUOUS
100
AcDbVertex
100
AcDb2dVertex
 10
-883.0
 20
656.0
 30
0.0
  0
VERTEX
  5
38F
100
AcDbEntity
  8
OBJECT
  6
CONTINUOUS
100
AcDbVertex
100
AcDb2dVertex
 10
-863.0
 20
636.0
 30
0.0
  0
VERTEX
  5
390
100
AcDbEntity
  8
OBJECT
  6
CONTINUOUS
100
AcDbVertex
100
AcDb2dVertex
 10
-863.0
 20
452.0
 30
0.0
  0
VERTEX
  5
391
100
AcDbEntity
  8
OBJECT
  6
CONTINUOUS
100
AcDbVertex
100
AcDb2dVertex
 10
-883.0
 20
432.0
 30
0.0
  0
VERTEX
  5
392
100
AcDbEntity
  8
OBJECT
  6
CONTINUOUS
100
AcDbVertex
100
AcDb2dVertex
 10
-1317.0
 20
432.0
 30
0.0
  0
VERTEX
  5
393
100
AcDbEntity
  8
OBJECT
  6
CONTINUOUS
100
AcDbVertex
100
AcDb2dVertex
 10
-1337.0
 20
452.0
 30
0.0
  0
SEQEND
  5
394
100
AcDbEntity
  8
OBJECT
  6
CONTINUOUS
  0
POLYLINE
  5
395
100
AcDbEntity
  8
OBJECT
  6
CONTINUOUS
100
AcDb2dPolyline
 66
               1
 10
0.0
 20
0.0
 30
0.0
 75
               5
  0
VERTEX
  5
396
100
AcDbEntity
  8
OBJECT
  6
CONTINUOUS
100
AcDbVertex
100
AcDb2dVertex
 10
-1337.0
 20
622.0
 30
0.0
  0
VERTEX
  5
397
100
AcDbEntity
  8
OBJECT
  6
CONTINUOUS
100
AcDbVertex
100
AcDb2dVertex
 10
-1337.0
 20
622.0
 30
0.0
  0
VERTEX
  5
398
100
AcDbEntity
  8
OBJECT
  6
CONTINUOUS
100
AcDbVertex
100
AcDb2dVertex
 10
-1337.0
 20
672.0
 30
0.0
  0
VERTEX
  5
399
100
AcDbEntity
  8
OBJECT
  6
CONTINUOUS
100
AcDbVertex
100
AcDb2dVertex
 10
-1335.0
 20
672.0
 30
0.0
  0
VERTEX
  5
39A
100
AcDbEntity
  8
OBJECT
  6
CONTINUOUS
100
AcDbVertex
100
AcDb2dVertex
 10
-1335.0
 20
638.0
 30
0.0
  0
SEQEND
  5
39B
100
AcDbEntity
  8
OBJECT
  6
CONTINUOUS
  0
POLYLINE
  5
39C
100
AcDbEntity
  8
OBJECT
  6
CONTINUOUS
100
AcDb2dPolyline
 66
               1
 10
0.0
 20
0.0
 30
0.0
 75
               5
  0
VERTEX
  5
39D
100
AcDbEntity
  8
OBJECT
  6
CONTINUOUS
100
AcDbVertex
100
AcDb2dVertex
 10
-865.0
 20
638.0
 30
0.0
  0
VERTEX
  5
39E
100
AcDbEntity
  8
OBJECT
  6
CONTINUOUS
100
AcDbVertex
100
AcDb2dVertex
 10
-865.0
 20
672.0
 30
0.0
  0
VERTEX
  5
39F
100
AcDbEntity
  8
OBJECT
  6
CONTINUOUS
100
AcDbVertex
100
AcDb2dVertex
 10
-863.0
 20
672.0
 30
0.0
  0
VERTEX
  5
3A0
100
AcDbEntity
  8
OBJECT
  6
CONTINUOUS
100
AcDbVertex
100
AcDb2dVertex
 10
-863.0
 20
622.0
 30
0.0
  0
VERTEX
  5
3A1
100
AcDbEntity
  8
OBJECT
  6
CONTINUOUS
100
AcDbVertex
100
AcDb2dVertex
 10
-863.0
 20
622.0
 30
0.0
  0
SEQEND
  5
3A2
100
AcDbEntity
  8
OBJECT
  6
CONTINUOUS
  0
POLYLINE
  5
3A3
100
AcDbEntity
  8
HIDDEN
  6
STYLE_16
100
AcDb2dPolyline
 66
               1
 10
0.0
 20
0.0
 30
0.0
 70
               1
 75
               5
  0
VERTEX
  5
3A4
100
AcDbEntity
  8
HIDDEN
  6
STYLE_16
100
AcDbVertex
100
AcDb2dVertex
 10
-1215.0
 20
645.0
 30
0.0
  0
VERTEX
  5
3A5
100
AcDbEntity
  8
HIDDEN
  6
STYLE_16
100
AcDbVertex
100
AcDb2dVertex
 10
-985.0
 20
645.0
 30
0.0
  0
VERTEX
  5
3A6
100
AcDbEntity
  8
HIDDEN
  6
STYLE_16
100
AcDbVertex
100
AcDb2dVertex
 10
-985.0
 20
445.0
 30
0.0
  0
VERTEX
  5
3A7
100
AcDbEntity
  8
HIDDEN
  6
STYLE_16
100
AcDbVertex
100
AcDb2dVertex
 10
-1215.0
 20
445.0
 30
0.0
  0
SEQEND
  5
3A8
100
AcDbEntity
  8
HIDDEN
  6
STYLE_16
  0
LWPOLYLINE
  5
3A9
100
AcDbEntity
  8
OBJECT
  6
CONTINUOUS
100
AcDbPolyline
 90
        5
 70
             129
 10
-1105.0
 20
-781.0
 10
-1095.0
 20
-781.0
 10
-1095.0
 20
-786.0
 42
-0.414213562373095
 10
-1100.0
 20
-791.0
 42
-0.414213562373095
 10
-1105.0
 20
-786.0
  0
POLYLINE
  5
3AA
100
AcDbEntity
  8
OBJECT
  6
CONTINUOUS
100
AcDb2dPolyline
 66
               1
 10
0.0
 20
0.0
 30
0.0
 70
               1
 75
               5
  0
VERTEX
  5
3AB
100
AcDbEntity
  8
OBJECT
  6
CONTINUOUS
100
AcDbVertex
100
AcDb2dVertex
 10
-1122.0
 20
755.28759999999966
 30
0.0
  0
VERTEX
  5
3AC
100
AcDbEntity
  8
OBJECT
  6
CONTINUOUS
100
AcDbVertex
100
AcDb2dVertex
 10
-1122.0
 20
742.28759999999966
 30
0.0
  0
VERTEX
  5
3AD
100
AcDbEntity
  8
OBJECT
  6
CONTINUOUS
100
AcDbVertex
100
AcDb2dVertex
 10
-1078.0
 20
742.28759999999966
 30
0.0
  0
VERTEX
  5
3AE
100
AcDbEntity
  8
OBJECT
  6
CONTINUOUS
100
AcDbVertex
100
AcDb2dVertex
 10
-1078.0
 20
755.28759999999966
 30
0.0
  0
SEQEND
  5
3AF
100
AcDbEntity
  8
OBJECT
  6
CONTINUOUS
  0
POLYLINE
  5
3B0
100
AcDbEntity
  8
OBJECT
  6
CONTINUOUS
100
AcDb2dPolyline
 66
               1
 10
0.0
 20
0.0
 30
0.0
 75
               5
  0
VERTEX
  5
3B1
100
AcDbEntity
  8
OBJECT
  6
CONTINUOUS
100
AcDbVertex
100
AcDb2dVertex
 10
-1105.0
 20
736.5
 30
0.0
  0
VERTEX
  5
3B2
100
AcDbEntity
  8
OBJECT
  6
CONTINUOUS
100
AcDbVertex
100
AcDb2dVertex
 10
-1105.0
 20
742.28759999999966
 30
0.0
  0
VERTEX
  5
3B3
100
AcDbEntity
  8
OBJECT
  6
CONTINUOUS
100
AcDbVertex
100
AcDb2dVertex
 10
-1095.0
 20
742.28759999999966
 30
0.0
  0
VERTEX
  5
3B4
100
AcDbEntity
  8
OBJECT
  6
CONTINUOUS
100
AcDbVertex
100
AcDb2dVertex
 10
-1095.0
 20
736.6884
 30
0.0
  0
SEQEND
  5
3B5
100
AcDbEntity
  8
OBJECT
  6
CONTINUOUS
  0
POLYLINE
  5
3B6
100
AcDbEntity
  8
OBJECT
  6
CONTINUOUS
100
AcDb2dPolyline
 66
               1
 10
0.0
 20
0.0
 30
0.0
 75
               5
  0
VERTEX
  5
3B7
100
AcDbEntity
  8
OBJECT
  6
CONTINUOUS
100
AcDbVertex
100
AcDb2dVertex
 10
-1105.0
 20
712.0
 30
0.0
  0
VERTEX
  5
3B8
100
AcDbEntity
  8
OBJECT
  6
CONTINUOUS
100
AcDbVertex
100
AcDb2dVertex
 10
-1105.0
 20
716.5
 30
0.0
  0
VERTEX
  5
3B9
100
AcDbEntity
  8
OBJECT
  6
CONTINUOUS
100
AcDbVertex
100
AcDb2dVertex
 10
-1096.0
 20
716.5
 30
0.0
  0
VERTEX
  5
3BA
100
AcDbEntity
  8
OBJECT
  6
CONTINUOUS
100
AcDbVertex
100
AcDb2dVertex
 10
-1096.0
 20
712.14649999999983
 30
0.0
  0
SEQEND
  5
3BB
100
AcDbEntity
  8
OBJECT
  6
CONTINUOUS
  0
LWPOLYLINE
  5
3BC
100
AcDbEntity
  8
OBJECT
  6
CONTINUOUS
100
AcDbPolyline
 90
        7
 70
             129
 10
-1176.0
 20
721.5
 42
-0.414213562373095
 10
-1171.0
 20
726.5
 10
-1031.0
 20
726.5
 42
-0.414213562373095
 10
-1026.0
 20
721.5
 42
-0.414213562373095
 10
-1031.0
 20
716.5
 10
-1171.0
 20
716.5
 42
-0.414213562373095
 10
-1176.0
 20
721.5
 42
-0.414213562373095
  0
LWPOLYLINE
  5
3BD
100
AcDbEntity
  8
OBJECT
  6
CONTINUOUS
100
AcDbPolyline
 90
        7
 70
             129
 10
-1176.0
 20
731.5
 42
-0.414213562373095
 10
-1171.0
 20
736.5
 10
-1031.0
 20
736.5
 42
-0.414213562373095
 10
-1026.0
 20
731.5
 42
-0.414213562373095
 10
-1031.0
 20
726.5
 10
-1171.0
 20
726.5
 42
-0.414213562373095
 10
-1176.0
 20
731.5
 42
-0.414213562373095
  0
INSERT
  5
3BE
100
AcDbEntity
  8
OBJECT
100
AcDbBlockReference
  2
*U9
 10
0.0
 20
19.999999999999996
 30
0.0
  0
INSERT
  5
3BF
100
AcDbEntity
  8
OBJECT
100
AcDbBlockReference
  2
*U10
 10
0.0
 20
19.999999999999996
 30
0.0
  0
POLYLINE
  5
3C0
100
AcDbEntity
  8
HIDDEN
  6
STYLE_16
100
AcDb2dPolyline
 66
               1
 10
0.0
 20
0.0
 30
0.0
 70
               1
 75
               5
  0
VERTEX
  5
3C1
100
AcDbEntity
  8
HIDDEN
  6
STYLE_16
100
AcDbVertex
100
AcDb2dVertex
 10
165.95929410379176
 20
-723.99998343030256
 30
0.0
  0
VERTEX
  5
3C2
100
AcDbEntity
  8
HIDDEN
  6
STYLE_16
100
AcDbVertex
100
AcDb2dVertex
 10
365.95929410379176
 20
-723.99998343030256
 30
0.0
  0
VERTEX
  5
3C3
100
AcDbEntity
  8
HIDDEN
  6
STYLE_16
100
AcDbVertex
100
AcDb2dVertex
 10
365.95929410379176
 20
-778.99998343030256
 30
0.0
  0
VERTEX
  5
3C4
100
AcDbEntity
  8
HIDDEN
  6
STYLE_16
100
AcDbVertex
100
AcDb2dVertex
 10
165.95929410379176
 20
-778.99998343030256
 30
0.0
  0
SEQEND
  5
3C5
100
AcDbEntity
  8
HIDDEN
  6
STYLE_16
  0
LINE
  5
3C6
100
AcDbEntity
  8
HIDDEN
  6
STYLE_04
100
AcDbLine
 10
165.95929410379176
 20
-743.99998343030256
 30
0.0
 11
365.95929410379176
 21
-743.99998343030256
 31
0.0
  0
LWPOLYLINE
  5
3C7
100
AcDbEntity
  8
OBJECT
  6
CONTINUOUS
100
AcDbPolyline
 90
        5
 70
             129
 10
-157.0
 20
413.0
 42
-0.414213562373095
 10
-152.0
 20
418.0
 42
-0.414213562373095
 10
-147.0
 20
413.0
 42
-0.414213562373095
 10
-152.0
 20
408.0
 42
-0.414213562373095
 10
-157.0
 20
413.0
 42
-0.414213562373095
  0
LWPOLYLINE
  5
3C8
100
AcDbEntity
  8
OBJECT
  6
CONTINUOUS
100
AcDbPolyline
 90
        5
 70
             129
 10
347.0
 20
413.0
 42
-0.414213562373095
 10
352.0
 20
418.0
 42
-0.414213562373095
 10
357.0
 20
413.0
 42
-0.414213562373095
 10
352.0
 20
408.0
 42
-0.414213562373095
 10
347.0
 20
413.0
 42
-0.414213562373095
  0
POLYLINE
  5
3C9
100
AcDbEntity
  8
OBJECT
  6
CONTINUOUS
100
AcDb2dPolyline
 66
               1
 10
0.0
 20
0.0
 30
0.0
 70
               1
 75
               5
  0
VERTEX
  5
3CA
100
AcDbEntity
  8
OBJECT
  6
CONTINUOUS
100
AcDbVertex
100
AcDb2dVertex
 10
-132.0
 20
505.0
 30
0.0
  0
VERTEX
  5
3CB
100
AcDbEntity
  8
OBJECT
  6
CONTINUOUS
100
AcDbVertex
100
AcDb2dVertex
 10
-132.0
 20
515.0
 30
0.0
  0
VERTEX
  5
3CC
100
AcDbEntity
  8
OBJECT
  6
CONTINUOUS
100
AcDbVertex
100
AcDb2dVertex
 10
-153.0
 20
515.0
 30
0.0
  0
VERTEX
  5
3CD
100
AcDbEntity
  8
OBJECT
  6
CONTINUOUS
100
AcDbVertex
100
AcDb2dVertex
 10
-153.0
 20
565.0
 30
0.0
  0
VERTEX
  5
3CE
100
AcDbEntity
  8
OBJECT
  6
CONTINUOUS
100
AcDbVertex
100
AcDb2dVertex
 10
-132.0
 20
565.0
 30
0.0
  0
VERTEX
  5
3CF
100
AcDbEntity
  8
OBJECT
  6
CONTINUOUS
100
AcDbVertex
100
AcDb2dVertex
 10
-132.0
 20
575.0
 30
0.0
  0
VERTEX
  5
3D0
100
AcDbEntity
  8
OBJECT
  6
CONTINUOUS
100
AcDbVertex
100
AcDb2dVertex
 10
-162.0
 20
575.0
 30
0.0
  0
VERTEX
  5
3D1
100
AcDbEntity
  8
OBJECT
  6
CONTINUOUS
100
AcDbVertex
100
AcDb2dVertex
 10
-162.0
 20
505.0
 30
0.0
  0
SEQEND
  5
3D2
100
AcDbEntity
  8
OBJECT
  6
CONTINUOUS
  0
LINE
  5
3D3
100
AcDbEntity
  8
CENTER
  6
STYLE_03
100
AcDbLine
 10
100.0
 20
725.0
 30
0.0
 11
100.0
 21
355.0
 31
0.0
  0
POLYLINE
  5
3D4
100
AcDbEntity
  8
OBJECT
  6
CONTINUOUS
100
AcDb2dPolyline
 66
               1
 10
0.0
 20
0.0
 30
0.0
 70
               1
 75
               5
  0
VERTEX
  5
3D5
100
AcDbEntity
  8
OBJECT
  6
CONTINUOUS
100
AcDbVertex
100
AcDb2dVertex
 10
-165.0
 20
300.0
 30
0.0
  0
VERTEX
  5
3D6
100
AcDbEntity
  8
OBJECT
  6
CONTINUOUS
100
AcDbVertex
100
AcDb2dVertex
 10
365.0
 20
300.0
 30
0.0
  0
VERTEX
  5
3D7
100
AcDbEntity
  8
OBJECT
  6
CONTINUOUS
100
AcDbVertex
100
AcDb2dVertex
 10
365.0
 20
295.0
 30
0.0
  0
VERTEX
  5
3D8
100
AcDbEntity
  8
OBJECT
  6
CONTINUOUS
100
AcDbVertex
100
AcDb2dVertex
 10
-165.0
 20
295.0
 30
0.0
  0
SEQEND
  5
3D9
100
AcDbEntity
  8
OBJECT
  6
CONTINUOUS
  0
POLYLINE
  5
3DA
100
AcDbEntity
  8
OBJECT
  6
CONTINUOUS
100
AcDb2dPolyline
 66
               1
 10
0.0
 20
0.0
 30
0.0
 70
               1
 75
               5
  0
VERTEX
  5
3DB
100
AcDbEntity
  8
OBJECT
  6
CONTINUOUS
100
AcDbVertex
100
AcDb2dVertex
 10
-157.0
 20
295.0
 30
0.0
  0
VERTEX
  5
3DC
100
AcDbEntity
  8
OBJECT
  6
CONTINUOUS
100
AcDbVertex
100
AcDb2dVertex
 10
-147.0
 20
295.0
 30
0.0
  0
VERTEX
  5
3DD
100
AcDbEntity
  8
OBJECT
  6
CONTINUOUS
100
AcDbVertex
100
AcDb2dVertex
 10
-147.0
 20
287.0
 30
0.0
  0
VERTEX
  5
3DE
100
AcDbEntity
  8
OBJECT
  6
CONTINUOUS
100
AcDbVertex
100
AcDb2dVertex
 10
-149.0
 20
285.0
 30
0.0
  0
VERTEX
  5
3DF
100
AcDbEntity
  8
OBJECT
  6
CONTINUOUS
100
AcDbVertex
100
AcDb2dVertex
 10
-155.0
 20
285.0
 30
0.0
  0
VERTEX
  5
3E0
100
AcDbEntity
  8
OBJECT
  6
CONTINUOUS
100
AcDbVertex
100
AcDb2dVertex
 10
-157.0
 20
287.0
 30
0.0
  0
SEQEND
  5
3E1
100
AcDbEntity
  8
OBJECT
  6
CONTINUOUS
  0
LWPOLYLINE
  5
3E2
100
AcDbEntity
  8
OBJECT
  6
CONTINUOUS
100
AcDbPolyline
 90
        9
 70
             129
 10
365.0
 20
410.0
 10
365.0
 20
410.0
 42
-0.414213562373095
 10
355.0
 20
400.0
 10
-155.0
 20
400.0
 42
-0.414213562373095
 10
-165.0
 20
410.0
 10
-165.0
 20
670.0
 42
-0.414213562373095
 10
-155.0
 20
680.0
 10
355.0
 20
680.0
 42
-0.414213562373095
 10
365.0
 20
670.0
  0
LWPOLYLINE
  5
3E3
100
AcDbEntity
  8
OBJECT
  6
CONTINUOUS
100
AcDbPolyline
 90
        5
 70
             129
 10
-157.0
 20
667.0
 42
-0.414213562373095
 10
-152.0
 20
672.0
 42
-0.414213562373095
 10
-147.0
 20
667.0
 42
-0.414213562373095
 10
-152.0
 20
662.0
 42
-0.414213562373095
 10
-157.0
 20
667.0
 42
-0.414213562373095
  0
LWPOLYLINE
  5
3E4
100
AcDbEntity
  8
OBJECT
  6
CONTINUOUS
100
AcDbPolyline
 90
        5
 70
             129
 10
347.0
 20
667.0
 42
-0.414213562373095
 10
352.0
 20
672.0
 42
-0.414213562373095
 10
357.0
 20
667.0
 42
-0.414213562373095
 10
352.0
 20
662.0
 42
-0.414213562373095
 10
347.0
 20
667.0
 42
-0.414213562373095
  0
POLYLINE
  5
3E5
100
AcDbEntity
  8
OBJECT
  6
CONTINUOUS
100
AcDb2dPolyline
 66
               1
 10
0.0
 20
0.0
 30
0.0
 70
               1
 75
               5
  0
VERTEX
  5
3E6
100
AcDbEntity
  8
OBJECT
  6
CONTINUOUS
100
AcDbVertex
100
AcDb2dVertex
 10
357.0
 20
295.0
 30
0.0
  0
VERTEX
  5
3E7
100
AcDbEntity
  8
OBJECT
  6
CONTINUOUS
100
AcDbVertex
100
AcDb2dVertex
 10
347.0
 20
295.0
 30
0.0
  0
VERTEX
  5
3E8
100
AcDbEntity
  8
OBJECT
  6
CONTINUOUS
100
AcDbVertex
100
AcDb2dVertex
 10
347.0
 20
287.0
 30
0.0
  0
VERTEX
  5
3E9
100
AcDbEntity
  8
OBJECT
  6
CONTINUOUS
100
AcDbVertex
100
AcDb2dVertex
 10
349.0
 20
285.0
 30
0.0
  0
VERTEX
  5
3EA
100
AcDbEntity
  8
OBJECT
  6
CONTINUOUS
100
AcDbVertex
100
AcDb2dVertex
 10
355.0
 20
285.0
 30
0.0
  0
VERTEX
  5
3EB
100
AcDbEntity
  8
OBJECT
  6
CONTINUOUS
100
AcDbVertex
100
AcDb2dVertex
 10
357.0
 20
287.0
 30
0.0
  0
SEQEND
  5
3EC
100
AcDbEntity
  8
OBJECT
  6
CONTINUOUS
  0
LINE
  5
3ED
100
AcDbEntity
  8
CENTER
  6
STYLE_03
100
AcDbLine
 10
100.0
 20
328.0
 30
0.0
 11
100.0
 21
278.0
 31
0.0
  0
LWPOLYLINE
  5
3EE
100
AcDbEntity
  8
OBJECT
  6
CONTINUOUS
100
AcDbPolyline
 90
        9
 70
             129
 10
-820.0
 20
681.56155281280894
 42
-0.3441507314088833
 10
-821.51492874992732
 20
679.62126781251823
 10
-840.0
 20
675.0
 10
-840.0
 20
712.0
 10
-920.0
 20
712.0
 10
-915.37873218748177
 20
730.48507125007268
 42
-0.3441507314088954
 10
-913.43844718719106
 20
732.0
 10
-835.0
 20
732.0
 42
-0.414213562373095
 10
-820.0
 20
717.0
  0
LWPOLYLINE
  5
3EF
100
AcDbEntity
  8
OBJECT
  6
CONTINUOUS
100
AcDbPolyline
 90
        9
 70
             129
 10
-1380.0
 20
681.56155281280894
 42
0.3441507314089108
 10
-1378.4850712500727
 20
679.62126781251823
 10
-1360.0
 20
675.0
 10
-1360.0
 20
712.0
 10
-1280.0
 20
712.0
 10
-1284.6212678125182
 20
730.48507125007268
 42
0.3441507314089262
 10
-1286.5615528128089
 20
732.0
 10
-1365.0
 20
732.0
 42
0.414213562373095
 10
-1380.0
 20
717.0
  0
LWPOLYLINE
  5
3F0
100
AcDbEntity
  8
OBJECT
  6
CONTINUOUS
100
AcDbPolyline
 90
       14
 70
             128
 10
-1362.0
 20
481.5
 10
-1378.4850999999999
 20
477.37870000000021
 10
-1378.4850999999999
 20
477.37870000000021
 10
-1378.4850999999999
 20
477.37870000000021
 42
0.3441753471598028
 10
-1380.0
 20
475.4384
 10
-1380.0
 20
397.0
 10
-1380.0
 20
397.0
 10
-1380.0
 20
397.0
 42
0.414213562373095
 10
-1365.0
 20
382.0
 10
-1329.5616
 20
382.0
 10
-1329.5616
 20
382.0
 10
-1329.5616
 20
382.0
 42
0.3441434864435375
 10
-1327.6212999999998
 20
383.51490000000013
 10
-1323.5
 20
400.0
  0
LWPOLYLINE
  5
3F1
100
AcDbEntity
  8
OBJECT
  6
CONTINUOUS
100
AcDbPolyline
 90
       14
 70
             128
 10
-838.0
 20
481.5
 10
-821.51490000000013
 20
477.37870000000021
 10
-821.51490000000013
 20
477.37870000000021
 10
-821.51490000000013
 20
477.37870000000021
 42
-0.3441434864435221
 10
-820.0
 20
475.4384
 10
-820.0
 20
397.0
 10
-820.0
 20
397.0
 10
-820.0
 20
397.0
 42
-0.414213562373095
 10
-835.0
 20
382.0
 10
-870.43839999999909
 20
382.0
 10
-870.43839999999909
 20
382.0
 10
-870.43839999999909
 20
382.0
 42
-0.3441753471601236
 10
-872.3786999999993
 20
383.51490000000013
 10
-876.5
 20
400.0
  0
DIMENSION
  5
3F2
100
AcDbEntity
  8
DIMENTION
  6
CONTINUOUS
100
AcDbDimension
  2
*D11
 10
0.0
 20
-88.999983430302564
 30
0.0
 11
0.0
 21
-338.99998343030256
 31
0.0
  3
CAD
100
AcDbAlignedDimension
 13
155.95929410379176
 23
-588.99998343030256
 33
0.0
 14
155.95929410379176
 24
-88.999983430302564
 34
0.0
 50
90.0
100
AcDbRotatedDimension
1001
ACAD
1000
DSTYLE
1002
{
1070
             271
1070
               0
1070
             340
1005
3A
1070
               3
1000
<>（可動範囲
1070
             147
1040
0.9999999999999999
1002
}
  0
DIMENSION
  5
3F3
100
AcDbEntity
  8
DIMENTION
  6
CONTINUOUS
100
AcDbDimension
  2
*D12
 10
0.0
 20
-88.999983430302564
 30
0.0
 11
-0.9999999999999999
 21
-30.000000000000004
 31
0.0
 70
             128
  3
CAD
100
AcDbAlignedDimension
 13
116.95929410379176
 23
-68.999983430302564
 33
0.0
 14
155.95929410379176
 24
-88.999983430302564
 34
0.0
 50
90.0
100
AcDbRotatedDimension
1001
ACAD
1000
DSTYLE
1002
{
1070
             271
1070
               0
1070
             340
1005
3A
1070
             174
1070
               0
1070
             147
1040
0.9999999999999999
1002
}
  0
DIMENSION
  5
3F4
100
AcDbEntity
  8
DIMENTION
  6
CONTINUOUS
100
AcDbDimension
  2
*D13
 10
-1500.0
 20
672.0
 30
0.0
 11
-1501.0
 21
537.0
 31
0.0
 70
             128
  1
269 (内寸)
  3
CAD
100
AcDbAlignedDimension
 13
-1342.0
 23
402.0
 33
0.0
 14
-1362.0
 24
672.0
 34
0.0
 50
90.0
100
AcDbRotatedDimension
1001
ACAD
1000
DSTYLE
1002
{
1070
             271
1070
               0
1070
             340
1005
3A
1070
             147
1040
0.9999999999999999
1002
}
  0
DIMENSION
  5
3F5
100
AcDbEntity
  8
DIMENTION
  6
CONTINUOUS
100
AcDbDimension
  2
*D14
 10
-1500.0
 20
672.0
 30
0.0
 11
-1501.0
 21
747.13844984107538
 31
0.0
 70
             128
  3
CAD
100
AcDbAlignedDimension
 13
-1360.0
 23
712.0
 33
0.0
 14
-1362.0
 24
672.0
 34
0.0
 50
90.0
100
AcDbRotatedDimension
1001
ACAD
1000
DSTYLE
1002
{
1070
             271
1070
               0
1070
             340
1005
3A
1070
             174
1070
               0
1070
             147
1040
0.9999999999999999
1002
}
  0
DIMENSION
  5
3F6
100
AcDbEntity
  8
DIMENTION
  6
CONTINUOUS
100
AcDbDimension
  2
*D15
 10
-700.0
 20
402.0
 30
0.0
 11
-700.0
 21
557.0
 31
0.0
  3
CAD
100
AcDbAlignedDimension
 13
-840.0
 23
712.0
 33
0.0
 14
-858.0
 24
402.0
 34
0.0
 50
90.0
100
AcDbRotatedDimension
1001
ACAD
1000
DSTYLE
1002
{
1070
             271
1070
               0
1070
             340
1005
3A
1070
             147
1040
0.9999999999999999
1002
}
  0
DIMENSION
  5
3F7
100
AcDbEntity
  8
DIMENTION
  6
CONTINUOUS
100
AcDbDimension
  2
*D16
 10
-1360.0
 20
300.0
 30
0.0
 11
-1100.0
 21
300.0
 31
0.0
  1
518 (内寸)
  3
CAD
100
AcDbAlignedDimension
 13
-840.0
 23
420.0
 33
0.0
 14
-1360.0
 24
420.0
 34
0.0
100
AcDbRotatedDimension
1001
ACAD
1000
DSTYLE
1002
{
1070
             271
1070
               0
1070
             340
1005
3A
1070
             147
1040
0.9999999999999999
1002
}
  0
DIMENSION
  5
3F8
100
AcDbEntity
  8
DIMENTION
  6
CONTINUOUS
100
AcDbDimension
  2
*D17
 10
-300.0
 20
680.0
 30
0.0
 11
-300.0
 21
540.0
 31
0.0
  3
CAD
100
AcDbAlignedDimension
 13
-155.0
 23
400.0
 33
0.0
 14
-165.0
 24
680.0
 34
0.0
 50
90.0
100
AcDbRotatedDimension
1001
ACAD
1000
DSTYLE
1002
{
1070
             271
1070
               0
1070
             340
1005
3A
1070
             147
1040
0.9999999999999999
1002
}
  0
DIMENSION
  5
3F9
100
AcDbEntity
  8
DIMENTION
  6
CONTINUOUS
100
AcDbDimension
  2
*D18
 10
-165.0
 20
800.0
 30
0.0
 11
99.899000000000342
 21
800.0
 31
0.0
  3
CAD
100
AcDbAlignedDimension
 13
364.79800000000068
 23
672.0
 33
0.0
 14
-165.0
 24
680.0
 34
0.0
100
AcDbRotatedDimension
1001
ACAD
1000
DSTYLE
1002
{
1070
             271
1070
               0
1070
             340
1005
3A
1070
             147
1040
0.9999999999999999
1002
}
  0
DIMENSION
  5
3FA
100
AcDbEntity
  8
DIMENTION
  6
CONTINUOUS
100
AcDbDimension
  2
*D19
 10
-300.0
 20
300.0
 30
0.0
 11
-301.0
 21
250.0
 31
0.0
 70
             128
  1
3
  3
CAD
100
AcDbAlignedDimension
 13
-165.0
 23
295.0
 33
0.0
 14
-165.0
 24
300.0
 34
0.0
 50
90.0
100
AcDbRotatedDimension
1001
ACAD
1000
DSTYLE
1002
{
1070
             271
1070
               0
1070
             340
1005
3A
1070
             174
1070
               0
1070
             147
1040
0.9999999999999999
1002
}
  0
DIMENSION
  5
3FB
100
AcDbEntity
  8
DIMENTION
  6
CONTINUOUS
100
AcDbDimension
  2
*D20
 10
-840.0
 20
850.00000000000011
 30
0.0
 11
-1100.0
 21
850.00000000000011
 31
0.0
  3
CAD
100
AcDbAlignedDimension
 13
-1360.0
 23
712.0
 33
0.0
 14
-840.0
 24
712.0
 34
0.0
100
AcDbRotatedDimension
1001
ACAD
1000
DSTYLE
1002
{
1070
             271
1070
               0
1070
             340
1005
3A
1070
             147
1040
0.9999999999999999
1002
}
  0
INSERT
  5
3FC
100
AcDbEntity
  8
OBJECT
100
AcDbBlockReference
  2
*U21
 10
0.0
 20
19.999999999999996
 30
0.0
  0
DIMENSION
  5
3FD
100
AcDbEntity
  8
DIMENTION
  6
CONTINUOUS
100
AcDbDimension
  2
*D22
 10
-700.0
 20
732.0
 30
0.0
 11
-699.0
 21
770.00000000000011
 31
0.0
 70
             128
  3
CAD
100
AcDbAlignedDimension
 13
-840.0
 23
712.0
 33
0.0
 14
-820.0
 24
732.0
 34
0.0
 50
90.0
100
AcDbRotatedDimension
1001
ACAD
1000
DSTYLE
1002
{
1070
             271
1070
               0
1070
             340
1005
3A
1070
             174
1070
               0
1070
             147
1040
0.9999999999999999
1002
}
  0
DIMENSION
  5
3FE
100
AcDbEntity
  8
DIMENTION
  6
CONTINUOUS
100
AcDbDimension
  2
*D23
 10
-840.0
 20
850.00000000000011
 30
0.0
 11
-780.0
 21
851.00000000000011
 31
0.0
 70
             128
  3
CAD
100
AcDbAlignedDimension
 13
-820.0
 23
732.0
 33
0.0
 14
-840.0
 24
712.0
 34
0.0
100
AcDbRotatedDimension
1001
ACAD
1000
DSTYLE
1002
{
1070
             271
1070
               0
1070
             340
1005
3A
1070
             174
1070
               0
1070
             147
1040
0.9999999999999999
1002
}
  0
INSERT
  5
3FF
100
AcDbEntity
  8
OBJECT
100
AcDbBlockReference
  2
*U24
 10
0.0
 20
19.999999999999996
 30
0.0
  0
INSERT
  5
400
100
AcDbEntity
  8
OBJECT
100
AcDbBlockReference
  2
*U25
 10
0.0
 20
19.999999999999996
 30
0.0
  0
INSERT
  5
401
100
AcDbEntity
  8
OBJECT
100
AcDbBlockReference
  2
*U26
 10
0.0
 20
19.999999999999996
 30
0.0
  0
MTEXT
  5
402
100
AcDbEntity
  8
DIMENTION
100
AcDbMText
 10
1300.0
 20
-1100.0
 30
0.0
 40
33.866666666666667
 41
0.0
 71
               1
 72
               1
  1
注）指示なき寸法公差は±5とする
  7
________
  0
DIMENSION
  5
403
100
AcDbEntity
  8
DIMENTION
100
AcDbDimension
  2
*D27
 10
-820.0
 20
950.0
 30
0.0
 11
-1100.0
 21
950.0
 31
0.0
  3
CAD
100
AcDbAlignedDimension
 13
-1380.0
 23
717.0
 33
0.0
 14
-820.0
 24
717.0
 34
0.0
100
AcDbRotatedDimension
1001
ACAD
1000
DSTYLE
1002
{
1070
             340
1005
3A
1070
             147
1040
0.9999999962747097
1002
}
  0
DIMENSION
  5
404
100
AcDbEntity
  8
DIMENTION
100
AcDbDimension
  2
*D28
 10
-600.0
 20
732.0
 30
0.0
 11
-600.0
 21
557.0
 31
0.0
  3
CAD
100
AcDbAlignedDimension
 13
-835.0
 23
382.0
 33
0.0
 14
-835.0
 24
732.0
 34
0.0
 50
90.0
100
AcDbRotatedDimension
1001
ACAD
1000
DSTYLE
1002
{
1070
             340
1005
3A
1070
             147
1040
0.9999999962747097
1002
}
  0
ENDSEC
  0
SECTION
  2
OBJECTS
  0
DICTIONARY
  5
19
100
AcDbDictionary
  3
ACAD_GROUP
350
1A
  3
ACAD_MLINESTYLE
350
1B
  0
DICTIONARY
  5
1A
102
{ACAD_REACTORS
330
19
102
}
100
AcDbDictionary
  0
DICTIONARY
  5
1B
102
{ACAD_REACTORS
330
19
102
}
100
AcDbDictionary
  3
STANDARD
350
1C
  0
MLINESTYLE
  5
1C
102
{ACAD_REACTORS
330
1B
102
}
100
AcDbMlineStyle
  2
STANDARD
 70
               0
  3

 62
               0
 51
90.0
 52
90.0
 71
               2
 49
0.5
 62
             256
  6
BYLAYER
 49
-0.5
 62
             256
  6
BYLAYER
  0
ENDSEC
  0
EOF
