  0
SECTION
  2
HEADER
  9
$ACADVER
  1
AC1014
  9
$ACADMAINTVER
 70
               0
  9
$DWGCODEPAGE
  3
ANSI_932
  9
$INSBASE
 10
0.0
 20
0.0
 30
0.0
  9
$EXTMIN
 10
-2025.3999999999999
 20
-1388.9999999999998
 30
0.0
  9
$EXTMAX
 10
2024.5999999999999
 20
1330.9999999999998
 30
0.0
  9
$LIMMIN
 10
0.0
 20
0.0
  9
$LIMMAX
 10
0.0
 20
0.0
  9
$ORTHOMODE
 70
               0
  9
$REGENMODE
 70
               1
  9
$FILLMODE
 70
               1
  9
$QTEXTMODE
 70
               0
  9
$MIRRTEXT
 70
               1
  9
$DRAGMODE
 70
               2
  9
$LTSCALE
 40
254.0
  9
$OSMODE
 70
               0
  9
$ATTMODE
 70
               1
  9
$TEXTSIZE
 40
0.2
  9
$TRACEWID
 40
1.0
  9
$TEXTSTYLE
  7
STANDARD
  9
$CLAYER
  8
0
  9
$CELTYPE
  6
CONTINUOUS
  9
$CECOLOR
 62
             256
  9
$CELTSCALE
 40
1.0
  9
$DELOBJ
 70
               1
  9
$DISPSILH
 70
               0
  9
$DIMSCALE
 40
1.0
  9
$DIMASZ
 40
31.75
  9
$DIMEXO
 40
9.9999999999999982
  9
$DIMDLI
 40
7.9999999999999991
  9
$DIMRND
 40
0.0
  9
$DIMDLE
 40
0.0
  9
$DIMEXE
 40
19.999999999999996
  9
$DIMTP
 40
0.0
  9
$DIMTM
 40
0.0
  9
$DIMTXT
 40
33.866666666666667
  9
$DIMCEN
 40
0.0
  9
$DIMTSZ
 40
0.0
  9
$DIMTOL
 70
               0
  9
$DIMLIM
 70
               0
  9
$DIMTIH
 70
               0
  9
$DIMTOH
 70
               0
  9
$DIMSE1
 70
               0
  9
$DIMSE2
 70
               0
  9
$DIMTAD
 70
               1
  9
$DIMZIN
 70
              11
  9
$DIMBLK
  1
VW_OPENARROW
  9
$DIMASO
 70
               1
  9
$DIMSHO
 70
               1
  9
$DIMPOST
  1
<>
  9
$DIMAPOST
  1
[]
  9
$DIMALT
 70
               0
  9
$DIMALTD
 70
               1
  9
$DIMALTF
 40
1.0
  9
$DIMLFAC
 40
1.0
  9
$DIMTOFL
 70
               1
  9
$DIMTVP
 40
0.0
  9
$DIMTIX
 70
               1
  9
$DIMSOXD
 70
               0
  9
$DIMSAH
 70
               0
  9
$DIMBLK1
  1

  9
$DIMBLK2
  1

  9
$DIMSTYLE
  2
CAD
  9
$DIMCLRD
 70
               0
  9
$DIMCLRE
 70
               0
  9
$DIMCLRT
 70
               0
  9
$DIMTFAC
 40
0.7
  9
$DIMGAP
 40
0.099999999627471
  9
$DIMJUST
 70
               0
  9
$DIMSD1
 70
               0
  9
$DIMSD2
 70
               0
  9
$DIMTOLJ
 70
               1
  9
$DIMTZIN
 70
              11
  9
$DIMALTZ
 70
              11
  9
$DIMALTTZ
 70
              11
  9
$DIMFIT
 70
               0
  9
$DIMUPT
 70
               0
  9
$DIMUNIT
 70
               2
  9
$DIMDEC
 70
               4
  9
$DIMTDEC
 70
               4
  9
$DIMALTU
 70
               2
  9
$DIMALTTD
 70
               2
  9
$DIMTXSTY
  7
________
  9
$DIMAUNIT
 70
               0
  9
$LUNITS
 70
               2
  9
$LUPREC
 70
               4
  9
$SKETCHINC
 40
0.1
  9
$FILLETRAD
 40
0.0
  9
$AUNITS
 70
               0
  9
$AUPREC
 70
               0
  9
$MENU
  1
acad
  9
$ELEVATION
 40
0.0
  9
$PELEVATION
 40
0.0
  9
$THICKNESS
 40
0.0
  9
$LIMCHECK
 70
               0
  9
$BLIPMODE
 70
               0
  9
$CHAMFERA
 40
0.0
  9
$CHAMFERB
 40
0.0
  9
$CHAMFERC
 40
0.0
  9
$CHAMFERD
 40
0.0
  9
$SKPOLY
 70
               0
  9
$TDCREATE
 40
2458753.564074074
  9
$TDUPDATE
 40
2458753.564074074
  9
$TDINDWG
 40
0.0000000000
  9
$TDUSRTIMER
 40
0.0000000000
  9
$USRTIMER
 70
               1
  9
$ANGBASE
 50
0.0
  9
$ANGDIR
 70
               0
  9
$PDMODE
 70
               1
  9
$PDSIZE
 40
-2.0
  9
$PLINEWID
 40
0.0
  9
$COORDS
 70
               0
  9
$SPLFRAME
 70
               0
  9
$SPLINETYPE
 70
               6
  9
$SPLINESEGS
 70
               8
  9
$ATTDIA
 70
               0
  9
$ATTREQ
 70
               1
  9
$HANDLING
 70
               1
  9
$HANDSEED
  5
2AC
  9
$SURFTAB1
 70
               6
  9
$SURFTAB2
 70
               6
  9
$SURFTYPE
 70
               6
  9
$SURFU
 70
               6
  9
$SURFV
 70
               6
  9
$UCSNAME
  2

  9
$UCSORG
 10
0.0
 20
0.0
 30
0.0
  9
$UCSXDIR
 10
1.0
 20
0.0
 30
0.0
  9
$UCSYDIR
 10
0.0
 20
1.0
 30
0.0
  9
$PUCSNAME
  2

  9
$PUCSORG
 10
0.0
 20
0.0
 30
0.0
  9
$PUCSXDIR
 10
1.0
 20
0.0
 30
0.0
  9
$PUCSYDIR
 10
0.0
 20
1.0
 30
0.0
  9
$USERI1
 70
               0
  9
$USERI2
 70
               0
  9
$USERI3
 70
               0
  9
$USERI4
 70
               0
  9
$USERI5
 70
               0
  9
$USERR1
 40
0.0
  9
$USERR2
 40
0.0
  9
$USERR3
 40
0.0
  9
$USERR4
 40
0.0
  9
$USERR5
 40
0.0
  9
$WORLDVIEW
 70
               1
  9
$SHADEDGE
 70
               3
  9
$SHADEDIF
 70
              70
  9
$TILEMODE
 70
               1
  9
$MAXACTVP
 70
              16
  9
$PINSBASE
 10
0.0
 20
0.0
 30
0.0
  9
$PLIMCHECK
 70
               0
  9
$PEXTMIN
 10
1.0000000000000000E+20
 20
1.0000000000000000E+20
 30
1.0000000000000000E+20
  9
$PEXTMAX
 10
-1.0000000000000000E+20
 20
-1.0000000000000000E+20
 30
-1.0000000000000000E+20
  9
$PLIMMIN
 10
0.0
 20
0.0
  9
$PLIMMAX
 10
12.0
 20
9.0
  9
$UNITMODE
 70
               0
  9
$VISRETAIN
 70
               0
  9
$PLINEGEN
 70
               1
  9
$PSLTSCALE
 70
               0
  9
$TREEDEPTH
 70
            3020
  9
$PICKSTYLE
 70
               1
  9
$CMLSTYLE
  2
STANDARD
  9
$CMLJUST
 70
               0
  9
$CMLSCALE
 40
1.0
  9
$PROXYGRAPHICS
 70
               0
  9
$MEASUREMENT
 70
               1
  0
ENDSEC
  0
SECTION
  2
CLASSES
  0
CLASS
  1
LWPOLYLINE
  2
AcDbPolyline
  3
"AutoCAD"
 90
        0
280
               0
281
               1
  0
CLASS
  1
IMAGE
  2
AcDbRasterImage
  3
ISM
 90
      127
280
               0
281
               1
  0
CLASS
  1
OLE2FRAME
  2
AcDbOle2Frame
  3
""
 90
        0
280
               0
281
               1
  0
CLASS
  1
HATCH
  2
AcDbHatch
  3
"ACAD_SEDONA"
 90
        0
280
               0
281
               1
  0
CLASS
  1
DICTIONARYVAR
  2
AcDbDictionaryVar
  3
"AutoCAD"
 90
        0
280
               0
281
               0
  0
CLASS
  1
RASTERVARIABLES
  2
AcDbRasterVariables
  3
ISM
 90
        0
280
               0
281
               0
  0
CLASS
  1
IMAGEDEF
  2
AcDbRasterImageDef
  3
ISM
 90
        0
280
               0
281
               0
  0
CLASS
  1
IMAGEDEF_REACTOR
  2
AcDbRasterImageDefReactor
  3
ISM
 90
        1
280
               0
281
               0
  0
CLASS
  1
IDBUFFER
  2
AcDbIdBuffer
  3
"Acad"
 90
        0
280
               0
281
               0
  0
CLASS
  1
SPATIAL_FILTER
  2
AcDbSpatialFilter
  3
"Acad"
 90
        0
280
               0
281
               0
  0
CLASS
  1
XRECORD
  2
AcDbXrecord
  3
"<Built In>"
 90
        0
280
               0
281
               0
  0
CLASS
  1
SORTENTSTABLE
  2
AcDbSortentsTable
  3
"AutoCAD"
 90
        0
280
               0
281
               0
  0
CLASS
  1
LAYER_INDEX
  2
AcDbLayerIndex
  3
"Acad"
 90
        0
280
               0
281
               0
  0
CLASS
  1
SPATIAL_INDEX
  2
AcDbSpatialIndex
  3
"Acad"
 90
        0
280
               0
281
               0
  0
CLASS
  1
OBJECT_PTR
  2
CAseDLPNTableRecord
  3
"ASE-LPNTableRecord"
 90
        1
280
               0
281
               0
  0
CLASS
  1
LAYOUT
  2
AcDbLayout
  3
"AutoCAD 2000"
 90
        1
280
               0
281
               0
  0
CLASS
  1
PLOTSETTINGS
  2
AcDbPlotSettings
  3
"AutoCAD 2000"
 90
        1
280
               0
281
               0
  0
CLASS
  1
ACDBDICTIONARYWDFLT
  2
AcDbDictionaryWithDefault
  3
"AutoCAD 2000"
 90
        1
280
               0
281
               0
  0
CLASS
  1
ACDBPLACEHOLDER
  2
AcDbPlaceHolder
  3
"AutoCAD 2000"
 90
        1
280
               0
281
               0
  0
ENDSEC
  0
SECTION
  2
TABLES
  0
TABLE
  2
VPORT
  5
7
100
AcDbSymbolTable
 70
               1
  0
VPORT
  5
15
100
AcDbSymbolTableRecord
100
AcDbViewportTableRecord
  2
*ACTIVE
 70
               0
 10
0.0
 20
0.0
 11
1.0
 21
1.0
 12
-0.3999999999998636
 22
-29.0
 13
0.0
 23
0.0
 14
1.0
 24
1.0
 15
0.0
 25
0.0
 16
0.0
 26
0.0
 36
1.0
 17
0.0
 27
0.0
 37
0.0
 40
2719.9999999999995
 41
0.688564
 42
50.0
 43
0.0
 44
0.0
 50
0.0
 51
0.0
 71
               0
 72
             100
 73
               1
 74
               1
 75
               0
 76
               0
 77
               0
 78
               0
  0
ENDTAB
  0
TABLE
  2
LTYPE
  5
4
100
AcDbSymbolTable
 70
              21
  0
LTYPE
  5
11
100
AcDbSymbolTableRecord
100
AcDbLinetypeTableRecord
  2
BYBLOCK
 70
              64
  3

 72
              65
 73
               0
 40
0.0
  0
LTYPE
  5
12
100
AcDbSymbolTableRecord
100
AcDbLinetypeTableRecord
  2
BYLAYER
 70
              64
  3

 72
              65
 73
               0
 40
0.0
  0
LTYPE
  5
13
100
AcDbSymbolTableRecord
100
AcDbLinetypeTableRecord
  2
CONTINUOUS
 70
              64
  3
Solid line
 72
              65
 73
               0
 40
0.0
  0
LTYPE
  5
35
100
AcDbSymbolTableRecord
100
AcDbLinetypeTableRecord
  2
STYLE_01
 70
               0
  3

 72
              65
 73
               2
 40
0.0375109361329834
 49
0.0236220472440945
 74
               0
 49
-0.0138888888888889
 74
               0
  0
LTYPE
  5
36
100
AcDbSymbolTableRecord
100
AcDbLinetypeTableRecord
  2
STYLE_02
 70
               0
  3

 72
              65
 73
               6
 40
0.6527777777777778
 49
0.4027777777777778
 74
               0
 49
-0.0555555555555555
 74
               0
 49
0.0416666666666667
 74
               0
 49
-0.0555555555555556
 74
               0
 49
0.0416666666666666
 74
               0
 49
-0.0555555555555556
 74
               0
  0
LTYPE
  5
37
100
AcDbSymbolTableRecord
100
AcDbLinetypeTableRecord
  2
STYLE_03
 70
               0
  3

 72
              65
 73
               4
 40
0.5277777777777778
 49
0.4027777777777778
 74
               0
 49
-0.0416666666666666
 74
               0
 49
0.0416666666666667
 74
               0
 49
-0.0416666666666667
 74
               0
  0
LTYPE
  5
38
100
AcDbSymbolTableRecord
100
AcDbLinetypeTableRecord
  2
STYLE_04
 70
               0
  3

 72
              65
 73
               2
 40
0.1388888888888889
 49
0.0694444444444444
 74
               0
 49
-0.0694444444444444
 74
               0
  0
LTYPE
  5
39
100
AcDbSymbolTableRecord
100
AcDbLinetypeTableRecord
  2
STYLE_05
 70
               0
  3

 72
              65
 73
               2
 40
0.047244094488189
 49
0.0236220472440945
 74
               0
 49
-0.0236220472440945
 74
               0
  0
LTYPE
  5
3A
100
AcDbSymbolTableRecord
100
AcDbLinetypeTableRecord
  2
STYLE_06
 70
               0
  3

 72
              65
 73
               2
 40
0.047244094488189
 49
0.0236220472440945
 74
               0
 49
-0.0236220472440945
 74
               0
  0
LTYPE
  5
3B
100
AcDbSymbolTableRecord
100
AcDbLinetypeTableRecord
  2
STYLE_07
 70
               0
  3

 72
              65
 73
               2
 40
0.047244094488189
 49
0.0236220472440945
 74
               0
 49
-0.0236220472440945
 74
               0
  0
LTYPE
  5
3C
100
AcDbSymbolTableRecord
100
AcDbLinetypeTableRecord
  2
STYLE_08
 70
               0
  3

 72
              65
 73
               2
 40
0.047244094488189
 49
0.0236220472440945
 74
               0
 49
-0.0236220472440945
 74
               0
  0
LTYPE
  5
3D
100
AcDbSymbolTableRecord
100
AcDbLinetypeTableRecord
  2
STYLE_09
 70
               0
  3

 72
              65
 73
               6
 40
1.5157480314960627
 49
1.1811023622047243
 74
               0
 49
-0.0590551181102361
 74
               0
 49
0.078740157480315
 74
               0
 49
-0.0590551181102361
 74
               0
 49
0.078740157480315
 74
               0
 49
-0.0590551181102361
 74
               0
  0
LTYPE
  5
3E
100
AcDbSymbolTableRecord
100
AcDbLinetypeTableRecord
  2
STYLE_10
 70
               0
  3

 72
              65
 73
               6
 40
1.1875
 49
0.75
 74
               0
 49
-0.0555572509765625
 74
               0
 49
0.138885498046875
 74
               0
 49
-0.0555572509765625
 74
               0
 49
0.125
 74
               0
 49
-0.0625
 74
               0
  0
LTYPE
  5
3F
100
AcDbSymbolTableRecord
100
AcDbLinetypeTableRecord
  2
STYLE_11
 70
               0
  3

 72
              65
 73
               4
 40
1.5
 49
0.0833282470703125
 74
               0
 49
-0.0555572509765625
 74
               0
 49
1.3055572509765625
 74
               0
 49
-0.0555572509765625
 74
               0
  0
LTYPE
  5
40
100
AcDbSymbolTableRecord
100
AcDbLinetypeTableRecord
  2
STYLE_12
 70
               0
  3

 72
              65
 73
               4
 40
1.111114501953125
 49
0.7916717529296875
 74
               0
 49
-0.0833282470703125
 74
               0
 49
0.125
 74
               0
 49
-0.111114501953125
 74
               0
  0
LTYPE
  5
41
100
AcDbSymbolTableRecord
100
AcDbLinetypeTableRecord
  2
STYLE_13
 70
               0
  3

 72
              65
 73
               4
 40
2.1944427490234375
 49
1.875
 74
               0
 49
-0.0833282470703125
 74
               0
 49
0.125
 74
               0
 49
-0.111114501953125
 74
               0
  0
LTYPE
  5
42
100
AcDbSymbolTableRecord
100
AcDbLinetypeTableRecord
  2
STYLE_14
 70
               0
  3

 72
              65
 73
               2
 40
0.138885498046875
 49
0.0972137451171875
 74
               0
 49
-0.0416717529296875
 74
               0
  0
LTYPE
  5
43
100
AcDbSymbolTableRecord
100
AcDbLinetypeTableRecord
  2
STYLE_15
 70
               0
  3

 72
              65
 73
               2
 40
0.25
 49
0.2083282470703125
 74
               0
 49
-0.0416717529296875
 74
               0
  0
LTYPE
  5
44
100
AcDbSymbolTableRecord
100
AcDbLinetypeTableRecord
  2
STYLE_16
 70
               0
  3

 72
              65
 73
               2
 40
0.078740157480315
 49
0.0393700787401575
 74
               0
 49
-0.0393700787401575
 74
               0
  0
LTYPE
  5
45
100
AcDbSymbolTableRecord
100
AcDbLinetypeTableRecord
  2
STYLE_17
 70
               0
  3

 72
              65
 73
               4
 40
0.5118110236220472
 49
0.3937007874015748
 74
               0
 49
-0.0393700787401575
 74
               0
 49
0.0393700787401575
 74
               0
 49
-0.0393700787401575
 74
               0
  0
LTYPE
  5
46
100
AcDbSymbolTableRecord
100
AcDbLinetypeTableRecord
  2
STYLE_18
 70
               0
  3

 72
              65
 73
               6
 40
0.5905511811023623
 49
0.3937007874015748
 74
               0
 49
-0.0393700787401575
 74
               0
 49
0.0393700787401575
 74
               0
 49
-0.0393700787401575
 74
               0
 49
0.0393700787401575
 74
               0
 49
-0.0393700787401575
 74
               0
  0
ENDTAB
  0
TABLE
  2
LAYER
  5
2
100
AcDbSymbolTable
 70
               9
  0
LAYER
  5
14
100
AcDbSymbolTableRecord
100
AcDbLayerTableRecord
  2
0
 70
               0
 62
               7
  6
CONTINUOUS
  0
LAYER
  5
4E
100
AcDbSymbolTableRecord
100
AcDbLayerTableRecord
  2
DEFPOINTS
 70
               0
 62
               7
  6
CONTINUOUS
  0
LAYER
  5
4F
100
AcDbSymbolTableRecord
100
AcDbLayerTableRecord
  2
OBJECT
 70
               0
 62
               7
  6
CONTINUOUS
  0
LAYER
  5
50
100
AcDbSymbolTableRecord
100
AcDbLayerTableRecord
  2
DIMENTION
 70
               0
 62
               7
  6
CONTINUOUS
  0
LAYER
  5
51
100
AcDbSymbolTableRecord
100
AcDbLayerTableRecord
  2
CENTER
 70
               0
 62
               7
  6
STYLE_17
  0
LAYER
  5
52
100
AcDbSymbolTableRecord
100
AcDbLayerTableRecord
  2
HIDDEN
 70
               0
 62
               7
  6
STYLE_16
  0
LAYER
  5
53
100
AcDbSymbolTableRecord
100
AcDbLayerTableRecord
  2
FRAME
 70
               0
 62
               7
  6
CONTINUOUS
  0
LAYER
  5
54
100
AcDbSymbolTableRecord
100
AcDbLayerTableRecord
  2
OUTLINE
 70
               0
 62
               7
  6
STYLE_18
  0
LAYER
  5
55
100
AcDbSymbolTableRecord
100
AcDbLayerTableRecord
  2
TEXT
 70
               0
 62
               7
  6
CONTINUOUS
  0
ENDTAB
  0
TABLE
  2
STYLE
  5
3
100
AcDbSymbolTable
 70
               3
  0
STYLE
  5
17
100
AcDbSymbolTableRecord
100
AcDbTextStyleTableRecord
  2
STANDARD
 70
               0
 40
0.0
 41
1.0
 50
0.0
 71
               0
 42
0.0
  3
txt
  4
BIGFONT.SHX
  0
STYLE
  5
33
100
AcDbSymbolTableRecord
100
AcDbTextStyleTableRecord
  2
ARIAL
 70
               0
 40
0.0
 41
1.0
 50
0.0
 71
               0
 42
0.0
  3
Arial
  4

1001
ACAD
1000
Arial
1071
        0
  0
STYLE
  5
34
100
AcDbSymbolTableRecord
100
AcDbTextStyleTableRecord
  2
________
 70
               0
 40
0.0
 41
1.0
 50
0.0
 71
               0
 42
0.0
  3
ＭＳ Ｐゴシック
  4

1001
ACAD
1000
ＭＳ Ｐゴシック
1071
        0
  0
ENDTAB
  0
TABLE
  2
VIEW
  5
5
100
AcDbSymbolTable
 70
               0
  0
ENDTAB
  0
TABLE
  2
UCS
  5
6
100
AcDbSymbolTable
 70
               0
  0
ENDTAB
  0
TABLE
  2
APPID
  5
8
100
AcDbSymbolTable
 70
               1
  0
APPID
  5
16
100
AcDbSymbolTableRecord
100
AcDbRegAppTableRecord
  2
ACAD
 70
               0
  0
ENDTAB
  0
TABLE
  2
DIMSTYLE
  5
9
100
AcDbSymbolTable
 70
               2
  0
DIMSTYLE
105
18
100
AcDbSymbolTableRecord
100
AcDbDimStyleTableRecord
  2
STANDARD
 70
               0
  3

  4

  5

  6

  7

 40
1.0
 41
0.18
 42
0.0625
 43
0.38
 44
0.18
 45
0.0
 46
0.0
 47
0.0
 48
0.0
 71
               0
 72
               0
 73
               1
 74
               1
 75
               0
 76
               0
 77
               0
 78
               0
140
0.18
141
0.09
142
0.0
143
25.399999999999999
144
1.0
145
0.0
146
1.0
147
0.09
170
               0
171
               2
172
               0
173
               0
174
               0
175
               0
176
               0
177
               0
178
               0
270
               2
271
               4
272
               4
273
               2
274
               2
275
               0
280
               0
281
               0
282
               0
283
               1
284
               0
285
               0
286
               0
287
               0
288
               0
340
17
  0
DIMSTYLE
105
4D
100
AcDbSymbolTableRecord
100
AcDbDimStyleTableRecord
  2
CAD
 70
               0
  3
<>
  4
[]
  5
VW_OPENARROW
  6

  7

 40
1.0
 41
31.75
 42
9.9999999999999982
 43
7.9999999999999991
 44
19.999999999999996
 45
0.0
 46
0.0
 47
0.0
 48
0.0
 71
               0
 72
               0
 73
               0
 74
               0
 75
               0
 76
               0
 77
               1
 78
              11
140
33.866666666666667
141
0.0
142
0.0
143
1.0
144
1.0
145
0.0
146
0.7
147
0.099999999627471
170
               0
171
               1
172
               1
173
               0
174
               1
175
               0
176
               0
177
               0
178
               0
270
               2
271
               4
272
               4
273
               2
274
               2
275
               0
280
               0
281
               0
282
               0
283
               1
284
              11
285
              11
286
              11
287
               0
288
               0
340
34
  0
ENDTAB
  0
TABLE
  2
BLOCK_RECORD
  5
1
100
AcDbSymbolTable
 70
              23
  0
BLOCK_RECORD
  5
A
100
AcDbSymbolTableRecord
100
AcDbBlockTableRecord
  2
*MODEL_SPACE
  0
BLOCK_RECORD
  5
B
100
AcDbSymbolTableRecord
100
AcDbBlockTableRecord
  2
*PAPER_SPACE
  0
BLOCK_RECORD
  5
47
100
AcDbSymbolTableRecord
100
AcDbBlockTableRecord
  2
VW_OPENARROW
  0
BLOCK_RECORD
  5
1D
100
AcDbSymbolTableRecord
100
AcDbBlockTableRecord
  2
*U1
  0
BLOCK_RECORD
  5
1E
100
AcDbSymbolTableRecord
100
AcDbBlockTableRecord
  2
*U2
  0
BLOCK_RECORD
  5
1F
100
AcDbSymbolTableRecord
100
AcDbBlockTableRecord
  2
*U3
  0
BLOCK_RECORD
  5
20
100
AcDbSymbolTableRecord
100
AcDbBlockTableRecord
  2
*U4
  0
BLOCK_RECORD
  5
21
100
AcDbSymbolTableRecord
100
AcDbBlockTableRecord
  2
*U5
  0
BLOCK_RECORD
  5
22
100
AcDbSymbolTableRecord
100
AcDbBlockTableRecord
  2
*U6
  0
BLOCK_RECORD
  5
23
100
AcDbSymbolTableRecord
100
AcDbBlockTableRecord
  2
*D7
  0
BLOCK_RECORD
  5
24
100
AcDbSymbolTableRecord
100
AcDbBlockTableRecord
  2
*U8
  0
BLOCK_RECORD
  5
25
100
AcDbSymbolTableRecord
100
AcDbBlockTableRecord
  2
*U9
  0
BLOCK_RECORD
  5
26
100
AcDbSymbolTableRecord
100
AcDbBlockTableRecord
  2
*U10
  0
BLOCK_RECORD
  5
27
100
AcDbSymbolTableRecord
100
AcDbBlockTableRecord
  2
*U11
  0
BLOCK_RECORD
  5
28
100
AcDbSymbolTableRecord
100
AcDbBlockTableRecord
  2
*D12
  0
BLOCK_RECORD
  5
29
100
AcDbSymbolTableRecord
100
AcDbBlockTableRecord
  2
*D13
  0
BLOCK_RECORD
  5
2A
100
AcDbSymbolTableRecord
100
AcDbBlockTableRecord
  2
*D14
  0
BLOCK_RECORD
  5
2B
100
AcDbSymbolTableRecord
100
AcDbBlockTableRecord
  2
*D15
  0
BLOCK_RECORD
  5
2C
100
AcDbSymbolTableRecord
100
AcDbBlockTableRecord
  2
*D16
  0
BLOCK_RECORD
  5
2D
100
AcDbSymbolTableRecord
100
AcDbBlockTableRecord
  2
*D17
  0
BLOCK_RECORD
  5
2E
100
AcDbSymbolTableRecord
100
AcDbBlockTableRecord
  2
*D18
  0
BLOCK_RECORD
  5
2F
100
AcDbSymbolTableRecord
100
AcDbBlockTableRecord
  2
*D19
  0
BLOCK_RECORD
  5
30
100
AcDbSymbolTableRecord
100
AcDbBlockTableRecord
  2
*D20
  0
BLOCK_RECORD
  5
31
100
AcDbSymbolTableRecord
100
AcDbBlockTableRecord
  2
*D21
  0
BLOCK_RECORD
  5
32
100
AcDbSymbolTableRecord
100
AcDbBlockTableRecord
  2
*D22
  0
ENDTAB
  0
ENDSEC
  0
SECTION
  2
BLOCKS
  0
BLOCK
  5
D
100
AcDbEntity
  8
0
100
AcDbBlockBegin
  2
*MODEL_SPACE
 70
               0
 10
0.0
 20
0.0
 30
0.0
  3
*MODEL_SPACE
  1

  0
ENDBLK
  5
E
100
AcDbEntity
  8
0
100
AcDbBlockEnd
  0
BLOCK
  5
F
100
AcDbEntity
 67
               1
  8
0
100
AcDbBlockBegin
  2
*PAPER_SPACE
 70
               0
 10
0.0
 20
0.0
 30
0.0
  3
*PAPER_SPACE
  1

  0
ENDBLK
  5
10
100
AcDbEntity
 67
               1
  8
0
100
AcDbBlockEnd
  0
BLOCK
  5
48
100
AcDbEntity
  8
0
  6
BYBLOCK
 62
               0
100
AcDbBlockBegin
  2
VW_OPENARROW
 70
               0
 10
0.0
 20
0.0
 30
0.0
  3
VW_OPENARROW
  1

  0
LINE
  5
49
100
AcDbEntity
  8
0
  6
BYBLOCK
 62
               0
100
AcDbLine
 10
0.0
 20
0.0
 30
0.0
 11
-1.0
 21
0.0
 31
0.0
  0
LINE
  5
4A
100
AcDbEntity
  8
0
  6
BYBLOCK
 62
               0
100
AcDbLine
 10
0.0
 20
0.0
 30
0.0
 11
-0.9921874999999999
 21
-0.2658558393652545
 31
0.0
  0
LINE
  5
4B
100
AcDbEntity
  8
0
  6
BYBLOCK
 62
               0
100
AcDbLine
 10
0.0
 20
0.0
 30
0.0
 11
-0.9921874999999999
 21
0.2658558393652548
 31
0.0
  0
ENDBLK
  5
4C
100
AcDbEntity
  8
0
100
AcDbBlockEnd
  0
BLOCK
  5
56
100
AcDbEntity
  8
FRAME
100
AcDbBlockBegin
  2
*U1
 70
               1
 10
0.0
 20
0.0
 30
0.0
  3
*U1
  1

  0
ENDBLK
  5
57
100
AcDbEntity
  8
FRAME
100
AcDbBlockEnd
  0
BLOCK
  5
58
100
AcDbEntity
  8
FRAME
100
AcDbBlockBegin
  2
*U2
 70
               1
 10
0.0
 20
0.0
 30
0.0
  3
*U2
  1

  0
ENDBLK
  5
59
100
AcDbEntity
  8
FRAME
100
AcDbBlockEnd
  0
BLOCK
  5
5A
100
AcDbEntity
  8
FRAME
100
AcDbBlockBegin
  2
*U3
 70
               1
 10
0.0
 20
0.0
 30
0.0
  3
*U3
  1

  0
ENDBLK
  5
5B
100
AcDbEntity
  8
FRAME
100
AcDbBlockEnd
  0
BLOCK
  5
5C
100
AcDbEntity
  8
FRAME
100
AcDbBlockBegin
  2
*U4
 70
               1
 10
0.0
 20
0.0
 30
0.0
  3
*U4
  1

  0
ENDBLK
  5
5D
100
AcDbEntity
  8
FRAME
100
AcDbBlockEnd
  0
BLOCK
  5
5E
100
AcDbEntity
  8
FRAME
100
AcDbBlockBegin
  2
*U5
 70
               1
 10
0.0
 20
0.0
 30
0.0
  3
*U5
  1

  0
ENDBLK
  5
5F
100
AcDbEntity
  8
FRAME
100
AcDbBlockEnd
  0
BLOCK
  5
60
100
AcDbEntity
  8
FRAME
100
AcDbBlockBegin
  2
*U6
 70
               1
 10
0.0
 20
0.0
 30
0.0
  3
*U6
  1

  0
INSERT
  5
61
100
AcDbEntity
  8
FRAME
 62
               0
100
AcDbBlockReference
  2
*U1
 10
0.0
 20
0.0
 30
0.0
  0
INSERT
  5
62
100
AcDbEntity
  8
FRAME
 62
               0
100
AcDbBlockReference
  2
*U2
 10
0.0
 20
0.0
 30
0.0
  0
INSERT
  5
63
100
AcDbEntity
  8
FRAME
 62
               0
100
AcDbBlockReference
  2
*U3
 10
0.0
 20
0.0
 30
0.0
  0
INSERT
  5
64
100
AcDbEntity
  8
FRAME
 62
               0
100
AcDbBlockReference
  2
*U4
 10
0.0
 20
0.0
 30
0.0
  0
INSERT
  5
65
100
AcDbEntity
  8
FRAME
 62
               0
100
AcDbBlockReference
  2
*U5
 10
0.0
 20
0.0
 30
0.0
  0
ENDBLK
  5
66
100
AcDbEntity
  8
FRAME
100
AcDbBlockEnd
  0
BLOCK
  5
67
100
AcDbEntity
  8
DIMENTION
100
AcDbBlockBegin
  2
*D7
 70
               1
 10
0.0
 20
0.0
 30
0.0
  3
*D7
  1

  0
LINE
  5
68
100
AcDbEntity
  8
DIMENTION
  6
CONTINUOUS
 62
               0
100
AcDbLine
 10
-1022.0
 20
-69.0
 30
0.0
 11
-1220.0
 21
-69.0
 31
0.0
  0
LINE
  5
69
100
AcDbEntity
  8
DIMENTION
  6
CONTINUOUS
 62
               0
100
AcDbLine
 10
-1110.0
 20
-900.0
 30
0.0
 11
-1220.0
 21
-900.0
 31
0.0
  0
LINE
  5
6A
100
AcDbEntity
  8
DIMENTION
  6
CONTINUOUS
 62
               0
100
AcDbLine
 10
-1200.0
 20
-69.0
 30
0.0
 11
-1200.0
 21
-900.0
 31
0.0
  0
LINE
  5
6B
100
AcDbEntity
  8
DIMENTION
  6
CONTINUOUS
 62
               0
100
AcDbLine
 10
-1200.0
 20
-69.0
 30
0.0
 11
-1191.492613140312
 21
-100.75
 31
0.0
  0
LINE
  5
6C
100
AcDbEntity
  8
DIMENTION
  6
CONTINUOUS
 62
               0
100
AcDbLine
 10
-1200.0
 20
-69.0
 30
0.0
 11
-1208.507386859688
 21
-100.75
 31
0.0
  0
LINE
  5
6D
100
AcDbEntity
  8
DIMENTION
  6
CONTINUOUS
 62
               0
100
AcDbLine
 10
-1200.0
 20
-900.0
 30
0.0
 11
-1208.507386859688
 21
-868.25
 31
0.0
  0
LINE
  5
6E
100
AcDbEntity
  8
DIMENTION
  6
CONTINUOUS
 62
               0
100
AcDbLine
 10
-1200.0
 20
-900.0
 30
0.0
 11
-1191.492613140312
 21
-868.25
 31
0.0
  0
MTEXT
  5
6F
100
AcDbEntity
  8
DIMENTION
 62
               0
100
AcDbMText
 10
-1243.3333333333335
 20
-516.25
 30
0.0
 40
33.866666666666667
 41
0.0
 71
               1
 72
               1
  1
830
  7
________
 11
0.0
 21
1.0
 31
0.0
  0
POINT
  5
70
100
AcDbEntity
  8
DEFPOINTS
 62
               0
100
AcDbPoint
 10
-1100.0
 20
-900.0
 30
0.0
  0
POINT
  5
71
100
AcDbEntity
  8
DEFPOINTS
 62
               0
100
AcDbPoint
 10
-1012.0
 20
-69.0
 30
0.0
  0
POINT
  5
72
100
AcDbEntity
  8
DEFPOINTS
 62
               0
100
AcDbPoint
 10
-1200.0
 20
-69.0
 30
0.0
  0
ENDBLK
  5
73
100
AcDbEntity
  8
DIMENTION
100
AcDbBlockEnd
  0
BLOCK
  5
74
100
AcDbEntity
  8
OBJECT
100
AcDbBlockBegin
  2
*U8
 70
               1
 10
0.0
 20
0.0
 30
0.0
  3
*U8
  1

  0
LWPOLYLINE
  5
75
100
AcDbEntity
  8
OBJECT
  6
CONTINUOUS
 62
               0
100
AcDbPolyline
 90
       10
 70
             129
 10
-520.0
 20
-770.56155281280894
 42
0.3441507314089108
 10
-521.51492874992732
 20
-768.62126781251823
 10
-540.0
 20
-764.0
 10
-572.0
 20
-764.0
 42
0.414213562373095
 10
-577.0
 20
-769.0
 10
-577.0
 20
-789.0
 42
0.414213562373095
 10
-572.0
 20
-794.0
 10
-540.0
 20
-794.0
 10
-521.51492874992732
 20
-789.37873218748177
 42
0.3441507314089229
 10
-520.0
 20
-787.43844718719106
  0
LWPOLYLINE
  5
76
100
AcDbEntity
  8
OBJECT
  6
CONTINUOUS
 62
               0
100
AcDbPolyline
 90
        5
 70
             129
 10
-567.0
 20
-779.0
 42
-0.414213562373095
 10
-562.0
 20
-774.0
 42
-0.414213562373095
 10
-557.0
 20
-779.0
 42
-0.414213562373095
 10
-562.0
 20
-784.0
 42
-0.414213562373095
 10
-567.0
 20
-779.0
 42
-0.414213562373095
  0
LWPOLYLINE
  5
77
100
AcDbEntity
  8
OBJECT
  6
CONTINUOUS
 62
               0
100
AcDbPolyline
 90
        6
 70
             128
 10
-524.0
 20
-769.0
 10
-568.0
 20
-769.0
 42
0.414213562373095
 10
-572.0
 20
-773.0
 10
-572.0
 20
-785.0
 42
0.414213562373095
 10
-568.0
 20
-789.0
 10
-524.0
 20
-789.0
  0
ENDBLK
  5
78
100
AcDbEntity
  8
OBJECT
100
AcDbBlockEnd
  0
BLOCK
  5
79
100
AcDbEntity
  8
OBJECT
100
AcDbBlockBegin
  2
*U9
 70
               1
 10
0.0
 20
0.0
 30
0.0
  3
*U9
  1

  0
LWPOLYLINE
  5
7A
100
AcDbEntity
  8
OBJECT
  6
CONTINUOUS
 62
               0
100
AcDbPolyline
 90
       10
 70
             129
 10
-1080.0
 20
-770.56155281280894
 42
-0.3441507314089778
 10
-1078.4850712500727
 20
-768.62126781251823
 10
-1060.0
 20
-764.0
 10
-1028.0
 20
-764.0
 42
-0.414213562373095
 10
-1023.0
 20
-769.0
 10
-1023.0
 20
-789.0
 42
-0.414213562373095
 10
-1028.0
 20
-794.0
 10
-1060.0
 20
-794.0
 10
-1078.4850712500727
 20
-789.37873218748177
 42
-0.3441507314089108
 10
-1080.0
 20
-787.43844718719106
  0
LWPOLYLINE
  5
7B
100
AcDbEntity
  8
OBJECT
  6
CONTINUOUS
 62
               0
100
AcDbPolyline
 90
        5
 70
             129
 10
-1043.0
 20
-779.0
 42
-0.414213562373095
 10
-1038.0
 20
-774.0
 42
-0.414213562373095
 10
-1033.0
 20
-779.0
 42
-0.414213562373095
 10
-1038.0
 20
-784.0
 42
-0.414213562373095
 10
-1043.0
 20
-779.0
 42
-0.414213562373095
  0
LWPOLYLINE
  5
7C
100
AcDbEntity
  8
OBJECT
  6
CONTINUOUS
 62
               0
100
AcDbPolyline
 90
        6
 70
             128
 10
-1076.0
 20
-769.0
 10
-1032.0
 20
-769.0
 42
-0.414213562373095
 10
-1028.0
 20
-773.0
 10
-1028.0
 20
-785.0
 42
-0.414213562373095
 10
-1032.0
 20
-789.0
 10
-1076.0
 20
-789.0
  0
ENDBLK
  5
7D
100
AcDbEntity
  8
OBJECT
100
AcDbBlockEnd
  0
BLOCK
  5
7E
100
AcDbEntity
  8
OBJECT
100
AcDbBlockBegin
  2
*U10
 70
               1
 10
0.0
 20
0.0
 30
0.0
  3
*U10
  1

  0
LWPOLYLINE
  5
7F
100
AcDbEntity
  8
OBJECT
  6
CONTINUOUS
 62
               0
100
AcDbPolyline
 90
       10
 70
             129
 10
403.0
 20
-770.56151967341407
 42
-0.344150731408958
 10
404.51492874992732
 20
-768.62123467312335
 10
423.0
 20
-763.99996686060513
 10
498.0
 20
-763.99996686060513
 42
-0.414213562373095
 10
503.0
 20
-768.99996686060513
 10
503.0
 20
-788.99996686060513
 42
-0.414213562373095
 10
498.0
 20
-793.99996686060513
 10
423.0
 20
-793.99996686060513
 10
404.51492874992732
 20
-789.3786990480869
 42
-0.3441507314089186
 10
403.0
 20
-787.43841404779619
  0
LWPOLYLINE
  5
80
100
AcDbEntity
  8
OBJECT
  6
CONTINUOUS
 62
               0
100
AcDbPolyline
 90
        5
 70
             129
 10
433.0
 20
-778.99996686060513
 42
-0.414213562373095
 10
438.0
 20
-773.99996686060513
 42
-0.414213562373095
 10
443.0
 20
-778.99996686060513
 42
-0.414213562373095
 10
438.0
 20
-783.99996686060513
 42
-0.414213562373095
 10
433.0
 20
-778.99996686060513
 42
-0.414213562373095
  0
LWPOLYLINE
  5
81
100
AcDbEntity
  8
OBJECT
  6
CONTINUOUS
 62
               0
100
AcDbPolyline
 90
        5
 70
             129
 10
483.0
 20
-778.99996686060513
 42
-0.414213562373095
 10
488.0
 20
-773.99996686060513
 42
-0.414213562373095
 10
493.0
 20
-778.99996686060513
 42
-0.414213562373095
 10
488.0
 20
-783.99996686060513
 42
-0.414213562373095
 10
483.0
 20
-778.99996686060513
 42
-0.414213562373095
  0
LWPOLYLINE
  5
82
100
AcDbEntity
  8
OBJECT
  6
CONTINUOUS
 62
               0
100
AcDbPolyline
 90
        6
 70
             128
 10
407.0
 20
-768.99996686060513
 10
494.0
 20
-768.99996686060513
 42
-0.414213562373095
 10
498.0
 20
-772.99996686060513
 10
498.0
 20
-784.99996686060513
 42
-0.414213562373095
 10
494.0
 20
-788.99996686060513
 10
407.0
 20
-788.99996686060513
  0
ENDBLK
  5
83
100
AcDbEntity
  8
OBJECT
100
AcDbBlockEnd
  0
BLOCK
  5
84
100
AcDbEntity
  8
OBJECT
100
AcDbBlockBegin
  2
*U11
 70
               1
 10
0.0
 20
0.0
 30
0.0
  3
*U11
  1

  0
LWPOLYLINE
  5
85
100
AcDbEntity
  8
OBJECT
  6
CONTINUOUS
 62
               0
100
AcDbPolyline
 90
       10
 70
             129
 10
1003.0
 20
-770.56151967341407
 42
0.34415073140888
 10
1001.4850712500727
 20
-768.62123467312335
 10
983.0
 20
-763.99996686060513
 10
951.0
 20
-763.99996686060513
 42
0.414213562373095
 10
946.0
 20
-768.99996686060513
 10
946.0
 20
-788.99996686060513
 42
0.414213562373095
 10
951.0
 20
-793.99996686060513
 10
983.0
 20
-793.99996686060513
 10
1001.4850712500727
 20
-789.3786990480869
 42
0.3441507314089657
 10
1003.0
 20
-787.43841404779619
  0
LWPOLYLINE
  5
86
100
AcDbEntity
  8
OBJECT
  6
CONTINUOUS
 62
               0
100
AcDbPolyline
 90
        5
 70
             129
 10
956.0
 20
-778.99996686060513
 42
-0.414213562373095
 10
961.0
 20
-773.99996686060513
 42
-0.414213562373095
 10
966.0
 20
-778.99996686060513
 42
-0.414213562373095
 10
961.0
 20
-783.99996686060513
 42
-0.414213562373095
 10
956.0
 20
-778.99996686060513
 42
-0.414213562373095
  0
LWPOLYLINE
  5
87
100
AcDbEntity
  8
OBJECT
  6
CONTINUOUS
 62
               0
100
AcDbPolyline
 90
        6
 70
             128
 10
999.0
 20
-768.99996686060513
 10
955.0
 20
-768.99996686060513
 42
0.414213562373095
 10
951.0
 20
-772.99996686060513
 10
951.0
 20
-784.99996686060513
 42
0.414213562373095
 10
955.0
 20
-788.99996686060513
 10
999.0
 20
-788.99996686060513
  0
ENDBLK
  5
88
100
AcDbEntity
  8
OBJECT
100
AcDbBlockEnd
  0
BLOCK
  5
89
100
AcDbEntity
  8
DIMENTION
100
AcDbBlockBegin
  2
*D12
 70
               1
 10
0.0
 20
0.0
 30
0.0
  3
*D12
  1

  0
LINE
  5
8A
100
AcDbEntity
  8
DIMENTION
  6
CONTINUOUS
 62
               0
100
AcDbLine
 10
446.0
 20
-88.999966860605127
 30
0.0
 11
280.0
 21
-88.999966860605127
 31
0.0
  0
LINE
  5
8B
100
AcDbEntity
  8
DIMENTION
  6
CONTINUOUS
 62
               0
100
AcDbLine
 10
446.0
 20
-588.99996686060513
 30
0.0
 11
280.0
 21
-588.99996686060513
 31
0.0
  0
LINE
  5
8C
100
AcDbEntity
  8
DIMENTION
  6
CONTINUOUS
 62
               0
100
AcDbLine
 10
300.0
 20
-88.999966860605127
 30
0.0
 11
300.0
 21
-588.99996686060513
 31
0.0
  0
LINE
  5
8D
100
AcDbEntity
  8
DIMENTION
  6
CONTINUOUS
 62
               0
100
AcDbLine
 10
300.0
 20
-88.999966860605127
 30
0.0
 11
308.50738685968815
 21
-120.74996686060513
 31
0.0
  0
LINE
  5
8E
100
AcDbEntity
  8
DIMENTION
  6
CONTINUOUS
 62
               0
100
AcDbLine
 10
300.0
 20
-88.999966860605127
 30
0.0
 11
291.49261314031185
 21
-120.74996686060513
 31
0.0
  0
LINE
  5
8F
100
AcDbEntity
  8
DIMENTION
  6
CONTINUOUS
 62
               0
100
AcDbLine
 10
300.0
 20
-588.99996686060513
 30
0.0
 11
291.49261314031185
 21
-557.24996686060513
 31
0.0
  0
LINE
  5
90
100
AcDbEntity
  8
DIMENTION
  6
CONTINUOUS
 62
               0
100
AcDbLine
 10
300.0
 20
-588.99996686060513
 30
0.0
 11
308.50738685968815
 21
-557.24996686060513
 31
0.0
  0
MTEXT
  5
91
100
AcDbEntity
  8
DIMENTION
 62
               0
100
AcDbMText
 10
256.66666666666663
 20
-476.58330019393844
 30
0.0
 40
33.866666666666667
 41
0.0
 71
               1
 72
               1
  1
500（可動範囲）
  7
________
 11
0.0
 21
1.0
 31
0.0
  0
POINT
  5
92
100
AcDbEntity
  8
DEFPOINTS
 62
               0
100
AcDbPoint
 10
456.0
 20
-588.99996686060513
 30
0.0
  0
POINT
  5
93
100
AcDbEntity
  8
DEFPOINTS
 62
               0
100
AcDbPoint
 10
456.0
 20
-88.999966860605127
 30
0.0
  0
POINT
  5
94
100
AcDbEntity
  8
DEFPOINTS
 62
               0
100
AcDbPoint
 10
300.0
 20
-88.999966860605127
 30
0.0
  0
ENDBLK
  5
95
100
AcDbEntity
  8
DIMENTION
100
AcDbBlockEnd
  0
BLOCK
  5
96
100
AcDbEntity
  8
DIMENTION
100
AcDbBlockBegin
  2
*D13
 70
               1
 10
0.0
 20
0.0
 30
0.0
  3
*D13
  1

  0
LINE
  5
97
100
AcDbEntity
  8
DIMENTION
  6
CONTINUOUS
 62
               0
100
AcDbLine
 10
446.0
 20
-88.999966860605127
 30
0.0
 11
280.0
 21
-88.999966860605127
 31
0.0
  0
LINE
  5
98
100
AcDbEntity
  8
DIMENTION
  6
CONTINUOUS
 62
               0
100
AcDbLine
 10
400.0
 20
-68.999966860605127
 30
0.0
 11
280.0
 21
-68.999966860605127
 31
0.0
  0
LINE
  5
99
100
AcDbEntity
  8
DIMENTION
  6
CONTINUOUS
 62
               0
100
AcDbLine
 10
300.0
 20
-68.999966860605127
 30
0.0
 11
300.0
 21
-88.999966860605127
 31
0.0
  0
LINE
  5
9A
100
AcDbEntity
  8
DIMENTION
  6
CONTINUOUS
 62
               0
100
AcDbLine
 10
300.0
 20
-88.999966860605127
 30
0.0
 11
300.0
 21
-148.99996686060513
 31
0.0
  0
LINE
  5
9B
100
AcDbEntity
  8
DIMENTION
  6
CONTINUOUS
 62
               0
100
AcDbLine
 10
300.0
 20
-88.999966860605127
 30
0.0
 11
308.50738685968815
 21
-120.74996686060513
 31
0.0
  0
LINE
  5
9C
100
AcDbEntity
  8
DIMENTION
  6
CONTINUOUS
 62
               0
100
AcDbLine
 10
300.0
 20
-88.999966860605127
 30
0.0
 11
291.49261314031185
 21
-120.74996686060513
 31
0.0
  0
LINE
  5
9D
100
AcDbEntity
  8
DIMENTION
  6
CONTINUOUS
 62
               0
100
AcDbLine
 10
300.0
 20
-68.999966860605127
 30
0.0
 11
300.0
 21
12.333333333333325
 31
0.0
  0
LINE
  5
9E
100
AcDbEntity
  8
DIMENTION
  6
CONTINUOUS
 62
               0
100
AcDbLine
 10
300.0
 20
-68.999966860605127
 30
0.0
 11
291.49261314031185
 21
-37.249966860605127
 31
0.0
  0
LINE
  5
9F
100
AcDbEntity
  8
DIMENTION
  6
CONTINUOUS
 62
               0
100
AcDbLine
 10
300.0
 20
-68.999966860605127
 30
0.0
 11
308.50738685968815
 21
-37.249966860605127
 31
0.0
  0
MTEXT
  5
A0
100
AcDbEntity
  8
DIMENTION
 62
               0
100
AcDbMText
 10
256.66666666666663
 20
-30.000000000000004
 30
0.0
 40
33.866666666666667
 41
0.0
 71
               1
 72
               1
  1
20
  7
________
 11
0.0
 21
1.0
 31
0.0
  0
POINT
  5
A1
100
AcDbEntity
  8
DEFPOINTS
 62
               0
100
AcDbPoint
 10
410.0
 20
-68.999966860605127
 30
0.0
  0
POINT
  5
A2
100
AcDbEntity
  8
DEFPOINTS
 62
               0
100
AcDbPoint
 10
456.0
 20
-88.999966860605127
 30
0.0
  0
POINT
  5
A3
100
AcDbEntity
  8
DEFPOINTS
 62
               0
100
AcDbPoint
 10
300.0
 20
-88.999966860605127
 30
0.0
  0
ENDBLK
  5
A4
100
AcDbEntity
  8
DIMENTION
100
AcDbBlockEnd
  0
BLOCK
  5
A5
100
AcDbEntity
  8
DIMENTION
100
AcDbBlockBegin
  2
*D14
 70
               1
 10
0.0
 20
0.0
 30
0.0
  3
*D14
  1

  0
LINE
  5
A6
100
AcDbEntity
  8
DIMENTION
  6
CONTINUOUS
 62
               0
100
AcDbLine
 10
-1072.0
 20
822.0
 30
0.0
 11
-1220.0
 21
822.0
 31
0.0
  0
LINE
  5
A7
100
AcDbEntity
  8
DIMENTION
  6
CONTINUOUS
 62
               0
100
AcDbLine
 10
-1052.0
 20
302.0
 30
0.0
 11
-1220.0
 21
302.0
 31
0.0
  0
LINE
  5
A8
100
AcDbEntity
  8
DIMENTION
  6
CONTINUOUS
 62
               0
100
AcDbLine
 10
-1200.0
 20
822.0
 30
0.0
 11
-1200.0
 21
302.0
 31
0.0
  0
LINE
  5
A9
100
AcDbEntity
  8
DIMENTION
  6
CONTINUOUS
 62
               0
100
AcDbLine
 10
-1200.0
 20
822.0
 30
0.0
 11
-1191.492613140312
 21
790.25
 31
0.0
  0
LINE
  5
AA
100
AcDbEntity
  8
DIMENTION
  6
CONTINUOUS
 62
               0
100
AcDbLine
 10
-1200.0
 20
822.0
 30
0.0
 11
-1208.507386859688
 21
790.25
 31
0.0
  0
LINE
  5
AB
100
AcDbEntity
  8
DIMENTION
  6
CONTINUOUS
 62
               0
100
AcDbLine
 10
-1200.0
 20
302.0
 30
0.0
 11
-1208.507386859688
 21
333.75
 31
0.0
  0
LINE
  5
AC
100
AcDbEntity
  8
DIMENTION
  6
CONTINUOUS
 62
               0
100
AcDbLine
 10
-1200.0
 20
302.0
 30
0.0
 11
-1191.492613140312
 21
333.75
 31
0.0
  0
MTEXT
  5
AD
100
AcDbEntity
  8
DIMENTION
 62
               0
100
AcDbMText
 10
-1243.3333333333335
 20
468.8666680124071
 30
0.0
 40
33.866666666666667
 41
0.0
 71
               1
 72
               1
  1
519 (内寸)
  7
________
 11
0.0
 21
1.0
 31
0.0
  0
POINT
  5
AE
100
AcDbEntity
  8
DEFPOINTS
 62
               0
100
AcDbPoint
 10
-1042.0
 20
302.0
 30
0.0
  0
POINT
  5
AF
100
AcDbEntity
  8
DEFPOINTS
 62
               0
100
AcDbPoint
 10
-1062.0
 20
822.0
 30
0.0
  0
POINT
  5
B0
100
AcDbEntity
  8
DEFPOINTS
 62
               0
100
AcDbPoint
 10
-1200.0
 20
822.0
 30
0.0
  0
ENDBLK
  5
B1
100
AcDbEntity
  8
DIMENTION
100
AcDbBlockEnd
  0
BLOCK
  5
B2
100
AcDbEntity
  8
DIMENTION
100
AcDbBlockBegin
  2
*D15
 70
               1
 10
0.0
 20
0.0
 30
0.0
  3
*D15
  1

  0
LINE
  5
B3
100
AcDbEntity
  8
DIMENTION
  6
CONTINUOUS
 62
               0
100
AcDbLine
 10
-1072.0
 20
822.0
 30
0.0
 11
-1220.0
 21
822.0
 31
0.0
  0
LINE
  5
B4
100
AcDbEntity
  8
DIMENTION
  6
CONTINUOUS
 62
               0
100
AcDbLine
 10
-1070.0
 20
862.0
 30
0.0
 11
-1220.0
 21
862.0
 31
0.0
  0
LINE
  5
B5
100
AcDbEntity
  8
DIMENTION
  6
CONTINUOUS
 62
               0
100
AcDbLine
 10
-1200.0
 20
862.0
 30
0.0
 11
-1200.0
 21
822.0
 31
0.0
  0
LINE
  5
B6
100
AcDbEntity
  8
DIMENTION
  6
CONTINUOUS
 62
               0
100
AcDbLine
 10
-1200.0
 20
822.0
 30
0.0
 11
-1200.0
 21
762.0
 31
0.0
  0
LINE
  5
B7
100
AcDbEntity
  8
DIMENTION
  6
CONTINUOUS
 62
               0
100
AcDbLine
 10
-1200.0
 20
822.0
 30
0.0
 11
-1191.492613140312
 21
790.25
 31
0.0
  0
LINE
  5
B8
100
AcDbEntity
  8
DIMENTION
  6
CONTINUOUS
 62
               0
100
AcDbLine
 10
-1200.0
 20
822.0
 30
0.0
 11
-1208.507386859688
 21
790.25
 31
0.0
  0
LINE
  5
B9
100
AcDbEntity
  8
DIMENTION
  6
CONTINUOUS
 62
               0
100
AcDbLine
 10
-1200.0
 20
862.0
 30
0.0
 11
-1200.0
 21
942.33333333333348
 31
0.0
  0
LINE
  5
BA
100
AcDbEntity
  8
DIMENTION
  6
CONTINUOUS
 62
               0
100
AcDbLine
 10
-1200.0
 20
862.0
 30
0.0
 11
-1208.507386859688
 21
893.75
 31
0.0
  0
LINE
  5
BB
100
AcDbEntity
  8
DIMENTION
  6
CONTINUOUS
 62
               0
100
AcDbLine
 10
-1200.0
 20
862.0
 30
0.0
 11
-1191.492613140312
 21
893.75
 31
0.0
  0
MTEXT
  5
BC
100
AcDbEntity
  8
DIMENTION
 62
               0
100
AcDbMText
 10
-1243.3333333333335
 20
900.00000000000011
 30
0.0
 40
33.866666666666667
 41
0.0
 71
               1
 72
               1
  1
40
  7
________
 11
0.0
 21
1.0
 31
0.0
  0
POINT
  5
BD
100
AcDbEntity
  8
DEFPOINTS
 62
               0
100
AcDbPoint
 10
-1060.0
 20
862.0
 30
0.0
  0
POINT
  5
BE
100
AcDbEntity
  8
DEFPOINTS
 62
               0
100
AcDbPoint
 10
-1062.0
 20
822.0
 30
0.0
  0
POINT
  5
BF
100
AcDbEntity
  8
DEFPOINTS
 62
               0
100
AcDbPoint
 10
-1200.0
 20
822.0
 30
0.0
  0
ENDBLK
  5
C0
100
AcDbEntity
  8
DIMENTION
100
AcDbBlockEnd
  0
BLOCK
  5
C1
100
AcDbEntity
  8
DIMENTION
100
AcDbBlockBegin
  2
*D16
 70
               1
 10
0.0
 20
0.0
 30
0.0
  3
*D16
  1

  0
LINE
  5
C2
100
AcDbEntity
  8
DIMENTION
  6
CONTINUOUS
 62
               0
100
AcDbLine
 10
-548.0
 20
302.0
 30
0.0
 11
-380.0
 21
302.0
 31
0.0
  0
LINE
  5
C3
100
AcDbEntity
  8
DIMENTION
  6
CONTINUOUS
 62
               0
100
AcDbLine
 10
-530.0
 20
862.0
 30
0.0
 11
-380.0
 21
862.0
 31
0.0
  0
LINE
  5
C4
100
AcDbEntity
  8
DIMENTION
  6
CONTINUOUS
 62
               0
100
AcDbLine
 10
-400.0
 20
302.0
 30
0.0
 11
-400.0
 21
862.0
 31
0.0
  0
LINE
  5
C5
100
AcDbEntity
  8
DIMENTION
  6
CONTINUOUS
 62
               0
100
AcDbLine
 10
-400.0
 20
302.0
 30
0.0
 11
-408.50738685968815
 21
333.75
 31
0.0
  0
LINE
  5
C6
100
AcDbEntity
  8
DIMENTION
  6
CONTINUOUS
 62
               0
100
AcDbLine
 10
-400.0
 20
302.0
 30
0.0
 11
-391.49261314031185
 21
333.75
 31
0.0
  0
LINE
  5
C7
100
AcDbEntity
  8
DIMENTION
  6
CONTINUOUS
 62
               0
100
AcDbLine
 10
-400.0
 20
862.0
 30
0.0
 11
-391.49261314031185
 21
830.25
 31
0.0
  0
LINE
  5
C8
100
AcDbEntity
  8
DIMENTION
  6
CONTINUOUS
 62
               0
100
AcDbLine
 10
-400.0
 20
862.0
 30
0.0
 11
-408.50738685968815
 21
830.25
 31
0.0
  0
MTEXT
  5
C9
100
AcDbEntity
  8
DIMENTION
 62
               0
100
AcDbMText
 10
-443.33333333333337
 20
550.25
 30
0.0
 40
33.866666666666667
 41
0.0
 71
               1
 72
               1
  1
560
  7
________
 11
0.0
 21
1.0
 31
0.0
  0
POINT
  5
CA
100
AcDbEntity
  8
DEFPOINTS
 62
               0
100
AcDbPoint
 10
-540.0
 20
862.0
 30
0.0
  0
POINT
  5
CB
100
AcDbEntity
  8
DEFPOINTS
 62
               0
100
AcDbPoint
 10
-558.0
 20
302.0
 30
0.0
  0
POINT
  5
CC
100
AcDbEntity
  8
DEFPOINTS
 62
               0
100
AcDbPoint
 10
-400.0
 20
302.0
 30
0.0
  0
ENDBLK
  5
CD
100
AcDbEntity
  8
DIMENTION
100
AcDbBlockEnd
  0
BLOCK
  5
CE
100
AcDbEntity
  8
DIMENTION
100
AcDbBlockBegin
  2
*D17
 70
               1
 10
0.0
 20
0.0
 30
0.0
  3
*D17
  1

  0
LINE
  5
CF
100
AcDbEntity
  8
DIMENTION
  6
CONTINUOUS
 62
               0
100
AcDbLine
 10
-1060.0
 20
310.0
 30
0.0
 11
-1060.0
 21
180.0
 31
0.0
  0
LINE
  5
D0
100
AcDbEntity
  8
DIMENTION
  6
CONTINUOUS
 62
               0
100
AcDbLine
 10
-540.0
 20
310.0
 30
0.0
 11
-540.0
 21
180.0
 31
0.0
  0
LINE
  5
D1
100
AcDbEntity
  8
DIMENTION
  6
CONTINUOUS
 62
               0
100
AcDbLine
 10
-1060.0
 20
200.0
 30
0.0
 11
-540.0
 21
200.0
 31
0.0
  0
LINE
  5
D2
100
AcDbEntity
  8
DIMENTION
  6
CONTINUOUS
 62
               0
100
AcDbLine
 10
-1060.0
 20
200.0
 30
0.0
 11
-1028.25
 21
208.50738685968815
 31
0.0
  0
LINE
  5
D3
100
AcDbEntity
  8
DIMENTION
  6
CONTINUOUS
 62
               0
100
AcDbLine
 10
-1060.0
 20
200.0
 30
0.0
 11
-1028.25
 21
191.49261314031185
 31
0.0
  0
LINE
  5
D4
100
AcDbEntity
  8
DIMENTION
  6
CONTINUOUS
 62
               0
100
AcDbLine
 10
-540.0
 20
200.0
 30
0.0
 11
-571.75
 21
191.49261314031185
 31
0.0
  0
LINE
  5
D5
100
AcDbEntity
  8
DIMENTION
  6
CONTINUOUS
 62
               0
100
AcDbLine
 10
-540.0
 20
200.0
 30
0.0
 11
-571.75
 21
208.50738685968815
 31
0.0
  0
MTEXT
  5
D6
100
AcDbEntity
  8
DIMENTION
 62
               0
100
AcDbMText
 10
-893.1333319875929
 20
243.33333333333334
 30
0.0
 40
33.866666666666667
 41
0.0
 71
               1
 72
               1
  1
518 (内寸)
  7
________
  0
POINT
  5
D7
100
AcDbEntity
  8
DEFPOINTS
 62
               0
100
AcDbPoint
 10
-540.0
 20
320.0
 30
0.0
  0
POINT
  5
D8
100
AcDbEntity
  8
DEFPOINTS
 62
               0
100
AcDbPoint
 10
-1060.0
 20
320.0
 30
0.0
  0
POINT
  5
D9
100
AcDbEntity
  8
DEFPOINTS
 62
               0
100
AcDbPoint
 10
-1060.0
 20
200.0
 30
0.0
  0
ENDBLK
  5
DA
100
AcDbEntity
  8
DIMENTION
100
AcDbBlockEnd
  0
BLOCK
  5
DB
100
AcDbEntity
  8
DIMENTION
100
AcDbBlockBegin
  2
*D18
 70
               1
 10
0.0
 20
0.0
 30
0.0
  3
*D18
  1

  0
LINE
  5
DC
100
AcDbEntity
  8
DIMENTION
  6
CONTINUOUS
 62
               0
100
AcDbLine
 10
-540.0
 20
872.0
 30
0.0
 11
-540.0
 21
1020.0000000000001
 31
0.0
  0
LINE
  5
DD
100
AcDbEntity
  8
DIMENTION
  6
CONTINUOUS
 62
               0
100
AcDbLine
 10
-1060.0
 20
872.0
 30
0.0
 11
-1060.0
 21
1020.0000000000001
 31
0.0
  0
LINE
  5
DE
100
AcDbEntity
  8
DIMENTION
  6
CONTINUOUS
 62
               0
100
AcDbLine
 10
-540.0
 20
1000.0000000000001
 30
0.0
 11
-1060.0
 21
1000.0000000000001
 31
0.0
  0
LINE
  5
DF
100
AcDbEntity
  8
DIMENTION
  6
CONTINUOUS
 62
               0
100
AcDbLine
 10
-540.0
 20
1000.0000000000001
 30
0.0
 11
-571.75
 21
991.49261314031196
 31
0.0
  0
LINE
  5
E0
100
AcDbEntity
  8
DIMENTION
  6
CONTINUOUS
 62
               0
100
AcDbLine
 10
-540.0
 20
1000.0000000000001
 30
0.0
 11
-571.75
 21
1008.5073868596883
 31
0.0
  0
LINE
  5
E1
100
AcDbEntity
  8
DIMENTION
  6
CONTINUOUS
 62
               0
100
AcDbLine
 10
-1060.0
 20
1000.0000000000001
 30
0.0
 11
-1028.25
 21
1008.5073868596883
 31
0.0
  0
LINE
  5
E2
100
AcDbEntity
  8
DIMENTION
  6
CONTINUOUS
 62
               0
100
AcDbLine
 10
-1060.0
 20
1000.0000000000001
 30
0.0
 11
-1028.25
 21
991.49261314031196
 31
0.0
  0
MTEXT
  5
E3
100
AcDbEntity
  8
DIMENTION
 62
               0
100
AcDbMText
 10
-831.75
 20
1043.3333333333335
 30
0.0
 40
33.866666666666667
 41
0.0
 71
               1
 72
               1
  1
520
  7
________
  0
POINT
  5
E4
100
AcDbEntity
  8
DEFPOINTS
 62
               0
100
AcDbPoint
 10
-1060.0
 20
862.0
 30
0.0
  0
POINT
  5
E5
100
AcDbEntity
  8
DEFPOINTS
 62
               0
100
AcDbPoint
 10
-540.0
 20
862.0
 30
0.0
  0
POINT
  5
E6
100
AcDbEntity
  8
DEFPOINTS
 62
               0
100
AcDbPoint
 10
-540.0
 20
1000.0000000000001
 30
0.0
  0
ENDBLK
  5
E7
100
AcDbEntity
  8
DIMENTION
100
AcDbBlockEnd
  0
BLOCK
  5
E8
100
AcDbEntity
  8
DIMENTION
100
AcDbBlockBegin
  2
*D19
 70
               1
 10
0.0
 20
0.0
 30
0.0
  3
*D19
  1

  0
LINE
  5
E9
100
AcDbEntity
  8
DIMENTION
  6
CONTINUOUS
 62
               0
100
AcDbLine
 10
-510.0
 20
882.0
 30
0.0
 11
-380.0
 21
882.0
 31
0.0
  0
LINE
  5
EA
100
AcDbEntity
  8
DIMENTION
  6
CONTINUOUS
 62
               0
100
AcDbLine
 10
-530.0
 20
862.0
 30
0.0
 11
-380.0
 21
862.0
 31
0.0
  0
LINE
  5
EB
100
AcDbEntity
  8
DIMENTION
  6
CONTINUOUS
 62
               0
100
AcDbLine
 10
-400.0
 20
862.0
 30
0.0
 11
-400.0
 21
882.0
 31
0.0
  0
LINE
  5
EC
100
AcDbEntity
  8
DIMENTION
  6
CONTINUOUS
 62
               0
100
AcDbLine
 10
-400.0
 20
882.0
 30
0.0
 11
-400.0
 21
962.33333333333348
 31
0.0
  0
LINE
  5
ED
100
AcDbEntity
  8
DIMENTION
  6
CONTINUOUS
 62
               0
100
AcDbLine
 10
-400.0
 20
882.0
 30
0.0
 11
-408.50738685968815
 21
913.75
 31
0.0
  0
LINE
  5
EE
100
AcDbEntity
  8
DIMENTION
  6
CONTINUOUS
 62
               0
100
AcDbLine
 10
-400.0
 20
882.0
 30
0.0
 11
-391.49261314031185
 21
913.75
 31
0.0
  0
LINE
  5
EF
100
AcDbEntity
  8
DIMENTION
  6
CONTINUOUS
 62
               0
100
AcDbLine
 10
-400.0
 20
862.0
 30
0.0
 11
-400.0
 21
802.0
 31
0.0
  0
LINE
  5
F0
100
AcDbEntity
  8
DIMENTION
  6
CONTINUOUS
 62
               0
100
AcDbLine
 10
-400.0
 20
862.0
 30
0.0
 11
-391.49261314031185
 21
830.25
 31
0.0
  0
LINE
  5
F1
100
AcDbEntity
  8
DIMENTION
  6
CONTINUOUS
 62
               0
100
AcDbLine
 10
-400.0
 20
862.0
 30
0.0
 11
-408.50738685968815
 21
830.25
 31
0.0
  0
MTEXT
  5
F2
100
AcDbEntity
  8
DIMENTION
 62
               0
100
AcDbMText
 10
-443.33333333333337
 20
920.00000000000011
 30
0.0
 40
33.866666666666667
 41
0.0
 71
               1
 72
               1
  1
20
  7
________
 11
0.0
 21
1.0
 31
0.0
  0
POINT
  5
F3
100
AcDbEntity
  8
DEFPOINTS
 62
               0
100
AcDbPoint
 10
-540.0
 20
862.0
 30
0.0
  0
POINT
  5
F4
100
AcDbEntity
  8
DEFPOINTS
 62
               0
100
AcDbPoint
 10
-520.0
 20
882.0
 30
0.0
  0
POINT
  5
F5
100
AcDbEntity
  8
DEFPOINTS
 62
               0
100
AcDbPoint
 10
-400.0
 20
882.0
 30
0.0
  0
ENDBLK
  5
F6
100
AcDbEntity
  8
DIMENTION
100
AcDbBlockEnd
  0
BLOCK
  5
F7
100
AcDbEntity
  8
DIMENTION
100
AcDbBlockBegin
  2
*D20
 70
               1
 10
0.0
 20
0.0
 30
0.0
  3
*D20
  1

  0
LINE
  5
F8
100
AcDbEntity
  8
DIMENTION
  6
CONTINUOUS
 62
               0
100
AcDbLine
 10
-540.0
 20
872.0
 30
0.0
 11
-540.0
 21
1020.0000000000001
 31
0.0
  0
LINE
  5
F9
100
AcDbEntity
  8
DIMENTION
  6
CONTINUOUS
 62
               0
100
AcDbLine
 10
-520.0
 20
892.0
 30
0.0
 11
-520.0
 21
1020.0000000000001
 31
0.0
  0
LINE
  5
FA
100
AcDbEntity
  8
DIMENTION
  6
CONTINUOUS
 62
               0
100
AcDbLine
 10
-520.0
 20
1000.0000000000001
 30
0.0
 11
-540.0
 21
1000.0000000000001
 31
0.0
  0
LINE
  5
FB
100
AcDbEntity
  8
DIMENTION
  6
CONTINUOUS
 62
               0
100
AcDbLine
 10
-540.0
 20
1000.0000000000001
 30
0.0
 11
-600.0
 21
1000.0000000000001
 31
0.0
  0
LINE
  5
FC
100
AcDbEntity
  8
DIMENTION
  6
CONTINUOUS
 62
               0
100
AcDbLine
 10
-540.0
 20
1000.0000000000001
 30
0.0
 11
-571.75
 21
991.49261314031196
 31
0.0
  0
LINE
  5
FD
100
AcDbEntity
  8
DIMENTION
  6
CONTINUOUS
 62
               0
100
AcDbLine
 10
-540.0
 20
1000.0000000000001
 30
0.0
 11
-571.75
 21
1008.5073868596883
 31
0.0
  0
LINE
  5
FE
100
AcDbEntity
  8
DIMENTION
  6
CONTINUOUS
 62
               0
100
AcDbLine
 10
-520.0
 20
1000.0000000000001
 30
0.0
 11
-437.66666666666669
 21
1000.0000000000001
 31
0.0
  0
LINE
  5
FF
100
AcDbEntity
  8
DIMENTION
  6
CONTINUOUS
 62
               0
100
AcDbLine
 10
-520.0
 20
1000.0000000000001
 30
0.0
 11
-488.25
 21
1008.5073868596883
 31
0.0
  0
LINE
  5
100
100
AcDbEntity
  8
DIMENTION
  6
CONTINUOUS
 62
               0
100
AcDbLine
 10
-520.0
 20
1000.0000000000001
 30
0.0
 11
-488.25
 21
991.49261314031196
 31
0.0
  0
MTEXT
  5
101
100
AcDbEntity
  8
DIMENTION
 62
               0
100
AcDbMText
 10
-480.0
 20
1043.3333333333335
 30
0.0
 40
33.866666666666667
 41
0.0
 71
               1
 72
               1
  1
20
  7
________
  0
POINT
  5
102
100
AcDbEntity
  8
DEFPOINTS
 62
               0
100
AcDbPoint
 10
-520.0
 20
882.0
 30
0.0
  0
POINT
  5
103
100
AcDbEntity
  8
DEFPOINTS
 62
               0
100
AcDbPoint
 10
-540.0
 20
862.0
 30
0.0
  0
POINT
  5
104
100
AcDbEntity
  8
DEFPOINTS
 62
               0
100
AcDbPoint
 10
-540.0
 20
1000.0000000000001
 30
0.0
  0
ENDBLK
  5
105
100
AcDbEntity
  8
DIMENTION
100
AcDbBlockEnd
  0
BLOCK
  5
106
100
AcDbEntity
  8
DIMENTION
100
AcDbBlockBegin
  2
*D21
 70
               1
 10
0.0
 20
0.0
 30
0.0
  3
*D21
  1

  0
LINE
  5
107
100
AcDbEntity
  8
DIMENTION
 62
               0
100
AcDbLine
 10
-1080.0
 20
877.0
 30
0.0
 11
-1080.0
 21
1120.0
 31
0.0
  0
LINE
  5
108
100
AcDbEntity
  8
DIMENTION
 62
               0
100
AcDbLine
 10
-520.0
 20
877.0
 30
0.0
 11
-520.0
 21
1120.0
 31
0.0
  0
LINE
  5
109
100
AcDbEntity
  8
DIMENTION
 62
               0
100
AcDbLine
 10
-1080.0
 20
1100.0
 30
0.0
 11
-520.0
 21
1100.0
 31
0.0
  0
LINE
  5
10A
100
AcDbEntity
  8
DIMENTION
 62
               0
100
AcDbLine
 10
-1080.0
 20
1100.0
 30
0.0
 11
-1048.25
 21
1108.507386859688
 31
0.0
  0
LINE
  5
10B
100
AcDbEntity
  8
DIMENTION
 62
               0
100
AcDbLine
 10
-1080.0
 20
1100.0
 30
0.0
 11
-1048.25
 21
1091.492613140312
 31
0.0
  0
LINE
  5
10C
100
AcDbEntity
  8
DIMENTION
 62
               0
100
AcDbLine
 10
-520.0
 20
1100.0
 30
0.0
 11
-551.75
 21
1091.492613140312
 31
0.0
  0
LINE
  5
10D
100
AcDbEntity
  8
DIMENTION
 62
               0
100
AcDbLine
 10
-520.0
 20
1100.0
 30
0.0
 11
-551.75
 21
1108.5073868596883
 31
0.0
  0
MTEXT
  5
10E
100
AcDbEntity
  8
DIMENTION
 62
               0
100
AcDbMText
 10
-831.75
 20
1143.333333329608
 30
0.0
 40
33.866666666666667
 41
0.0
 71
               1
 72
               1
  1
560
  7
________
  0
POINT
  5
10F
100
AcDbEntity
  8
DEFPOINTS
 62
               0
100
AcDbPoint
 10
-520.0
 20
867.0
 30
0.0
  0
POINT
  5
110
100
AcDbEntity
  8
DEFPOINTS
 62
               0
100
AcDbPoint
 10
-1080.0
 20
867.0
 30
0.0
  0
POINT
  5
111
100
AcDbEntity
  8
DEFPOINTS
 62
               0
100
AcDbPoint
 10
-1080.0
 20
1100.0
 30
0.0
  0
ENDBLK
  5
112
100
AcDbEntity
  8
DIMENTION
100
AcDbBlockEnd
  0
BLOCK
  5
113
100
AcDbEntity
  8
DIMENTION
100
AcDbBlockBegin
  2
*D22
 70
               1
 10
0.0
 20
0.0
 30
0.0
  3
*D22
  1

  0
LINE
  5
114
100
AcDbEntity
  8
DIMENTION
 62
               0
100
AcDbLine
 10
-525.0
 20
882.0
 30
0.0
 11
-280.0
 21
882.0
 31
0.0
  0
LINE
  5
115
100
AcDbEntity
  8
DIMENTION
 62
               0
100
AcDbLine
 10
-525.0
 20
282.0
 30
0.0
 11
-280.0
 21
282.0
 31
0.0
  0
LINE
  5
116
100
AcDbEntity
  8
DIMENTION
 62
               0
100
AcDbLine
 10
-300.0
 20
882.0
 30
0.0
 11
-300.0
 21
282.0
 31
0.0
  0
LINE
  5
117
100
AcDbEntity
  8
DIMENTION
 62
               0
100
AcDbLine
 10
-300.0
 20
882.0
 30
0.0
 11
-291.49261314031185
 21
850.25
 31
0.0
  0
LINE
  5
118
100
AcDbEntity
  8
DIMENTION
 62
               0
100
AcDbLine
 10
-300.0
 20
882.0
 30
0.0
 11
-308.50738685968815
 21
850.25
 31
0.0
  0
LINE
  5
119
100
AcDbEntity
  8
DIMENTION
 62
               0
100
AcDbLine
 10
-300.0
 20
282.0
 30
0.0
 11
-308.50738685968815
 21
313.75
 31
0.0
  0
LINE
  5
11A
100
AcDbEntity
  8
DIMENTION
 62
               0
100
AcDbLine
 10
-300.0
 20
282.0
 30
0.0
 11
-291.49261314031185
 21
313.75
 31
0.0
  0
MTEXT
  5
11B
100
AcDbEntity
  8
DIMENTION
 62
               0
100
AcDbMText
 10
-343.33333332960808
 20
550.25
 30
0.0
 40
33.866666666666667
 41
0.0
 71
               1
 72
               1
  1
600
  7
________
 11
0.0
 21
1.0
 31
0.0
  0
POINT
  5
11C
100
AcDbEntity
  8
DEFPOINTS
 62
               0
100
AcDbPoint
 10
-535.0
 20
282.0
 30
0.0
  0
POINT
  5
11D
100
AcDbEntity
  8
DEFPOINTS
 62
               0
100
AcDbPoint
 10
-535.0
 20
882.0
 30
0.0
  0
POINT
  5
11E
100
AcDbEntity
  8
DEFPOINTS
 62
               0
100
AcDbPoint
 10
-300.0
 20
882.0
 30
0.0
  0
ENDBLK
  5
11F
100
AcDbEntity
  8
DIMENTION
100
AcDbBlockEnd
  0
ENDSEC
  0
SECTION
  2
ENTITIES
  0
LINE
  5
120
100
AcDbEntity
  8
FRAME
  6
CONTINUOUS
100
AcDbLine
 10
-2025.3999999999999
 20
-1388.9999999999998
 30
0.0
 11
-2025.3999999999999
 21
1330.9999999999998
 31
0.0
  0
LINE
  5
121
100
AcDbEntity
  8
FRAME
  6
CONTINUOUS
100
AcDbLine
 10
2024.5999999999999
 20
-1388.9999999999998
 30
0.0
 11
-2025.3999999999999
 21
-1388.9999999999998
 31
0.0
  0
LINE
  5
122
100
AcDbEntity
  8
FRAME
  6
CONTINUOUS
100
AcDbLine
 10
2024.5999999999999
 20
1330.9999999999998
 30
0.0
 11
2024.5999999999999
 21
-1388.9999999999998
 31
0.0
  0
LINE
  5
123
100
AcDbEntity
  8
FRAME
  6
CONTINUOUS
100
AcDbLine
 10
-2025.3999999999999
 20
1330.9999999999998
 30
0.0
 11
2024.5999999999999
 21
1330.9999999999998
 31
0.0
  0
LINE
  5
124
100
AcDbEntity
  8
OBJECT
  6
CONTINUOUS
100
AcDbLine
 10
1264.3599999999999
 20
-1388.9999999999998
 30
0.0
 11
1264.3599999999999
 21
-1249.0
 31
0.0
  0
LINE
  5
125
100
AcDbEntity
  8
OBJECT
  6
CONTINUOUS
100
AcDbLine
 10
1044.3599999999999
 20
-1388.9999999999998
 30
0.0
 11
1044.3599999999999
 21
-1249.0
 31
0.0
  0
LINE
  5
126
100
AcDbEntity
  8
OBJECT
  6
CONTINUOUS
100
AcDbLine
 10
444.35999999999996
 20
-1388.9999999999998
 30
0.0
 11
444.35999999999996
 21
-1249.0
 31
0.0
  0
LINE
  5
127
100
AcDbEntity
  8
OBJECT
  6
CONTINUOUS
100
AcDbLine
 10
-675.39999999999998
 20
-1388.9999999999998
 30
0.0
 11
-675.39999999999998
 21
-1249.0
 31
0.0
  0
MTEXT
  5
128
100
AcDbEntity
  8
DIMENTION
100
AcDbMText
 10
-650.63999999999999
 20
-1254.1299999999999
 30
0.0
 40
28.2224
 41
109.36099999999999
 71
               1
 72
               1
  1
品　名
  7
________
  0
MTEXT
  5
129
100
AcDbEntity
  8
DIMENTION
100
AcDbMText
 10
464.35999999999996
 20
-1259.1299999999999
 30
0.0
 40
28.2224
 41
0.0
 71
               1
 72
               1
  1
形　式
  7
________
  0
MTEXT
  5
12A
100
AcDbEntity
  8
DIMENTION
100
AcDbMText
 10
1069.3599999999999
 20
-1259.1299999999999
 30
0.0
 40
28.2224
 41
0.0
 71
               1
 72
               1
  1
尺　度
  7
________
  0
MTEXT
  5
12B
100
AcDbEntity
  8
DIMENTION
100
AcDbMText
 10
1289.3599999999999
 20
-1259.1299999999999
 30
0.0
 40
28.2224
 41
0.0
 71
               1
 72
               1
  1
図　番
  7
________
  0
LINE
  5
12C
100
AcDbEntity
  8
OBJECT
  6
CONTINUOUS
100
AcDbLine
 10
-1095.3999999999999
 20
-1388.9999999999998
 30
0.0
 11
-1095.3999999999999
 21
-1249.0
 31
0.0
  0
MTEXT
  5
12D
100
AcDbEntity
  8
TEXT
100
AcDbMText
 10
1115.3119999999999
 20
-1314.0139999999999
 30
0.0
 40
39.511200000000002
 41
0.0
 71
               1
 72
               1
  1
1/10
  7
________
  0
LINE
  5
12E
100
AcDbEntity
  8
FRAME
  6
CONTINUOUS
100
AcDbLine
 10
-2025.3999999999999
 20
-1249.0
 30
0.0
 11
2024.5999999999999
 21
-1249.0
 31
0.0
  0
MTEXT
  5
12F
100
AcDbEntity
  8
DIMENTION
100
AcDbMText
 10
-1085.6399999999999
 20
-1257.1088
 30
0.0
 40
28.2224
 41
0.0
 71
               1
 72
               1
  1
検  図
  7
________
  0
MTEXT
  5
130
100
AcDbEntity
  8
DIMENTION
100
AcDbMText
 10
-1085.6399999999999
 20
-1302.1899999999998
 30
0.0
 40
28.2224
 41
0.0
 71
               1
 72
               1
  1
担  当
  7
________
  0
MTEXT
  5
131
100
AcDbEntity
  8
DIMENTION
100
AcDbMText
 10
-1085.6399999999999
 20
-1347.0599999999999
 30
0.0
 40
28.2224
 41
0.0
 71
               1
 72
               1
  1
年月日
  7
________
  0
LINE
  5
132
100
AcDbEntity
  8
OBJECT
  6
CONTINUOUS
100
AcDbLine
 10
-1095.3999999999999
 20
-1297.9399999999998
 30
0.0
 11
-675.39999999999998
 21
-1297.9399999999998
 31
0.0
  0
LINE
  5
133
100
AcDbEntity
  8
OBJECT
  6
CONTINUOUS
100
AcDbLine
 10
-1095.3999999999999
 20
-1342.3299999999999
 30
0.0
 11
-675.39999999999998
 21
-1342.3299999999999
 31
0.0
  0
MTEXT
  5
134
100
AcDbEntity
  8
TEXT
100
AcDbMText
 10
-44.165000000000077
 20
-1315.0347999999999
 30
0.0
 40
39.511200000000002
 41
0.0
 71
               1
 72
               1
  1
食器ディスペンサー
  7
________
  0
MTEXT
  5
135
100
AcDbEntity
  8
TEXT
100
AcDbMText
 10
-930.0
 20
-1350.0
 30
0.0
 40
28.222222222222225
 41
0.0
 71
               1
 72
               1
  1
2019.09.04
  7
________
  0
MTEXT
  5
136
100
AcDbEntity
  8
TEXT
100
AcDbMText
 10
-930.0
 20
-1302.0
 30
0.0
 40
28.222222222222225
 41
0.0
 71
               1
 72
               1
  1
月川
  7
________
  0
MTEXT
  5
137
100
AcDbEntity
  8
TEXT
100
AcDbMText
 10
-930.0
 20
-1258.0
 30
0.0
 40
28.222222222222225
 41
0.0
 71
               1
 72
               1
  1
大谷
  7
________
  0
MTEXT
  5
138
100
AcDbEntity
  8
DIMENTION
100
AcDbMText
 10
-395.00000000000045
 20
-155.0
 30
0.0
 40
33.866666666666667
 41
0.0
 71
               1
 72
               1
  1
胴体外板
  7
________
  0
MTEXT
  5
139
100
AcDbEntity
  8
DIMENTION
100
AcDbMText
 10
-400.00000000000045
 20
-655.00000000000023
 30
0.0
 40
33.866666666666667
 41
0.0
 71
               1
 72
               1
  1
ダンパーゴム4個
  7
________
  0
MTEXT
  5
13A
100
AcDbEntity
  8
DIMENTION
100
AcDbMText
 10
-390.00000000000045
 20
-205.0
 30
0.0
 40
33.866666666666667
 41
0.0
 71
               1
 72
               1
  1
SUS 430
  7
________
  0
MTEXT
  5
13B
100
AcDbEntity
  8
DIMENTION
100
AcDbMText
 10
-390.00000000000045
 20
-255.0
 30
0.0
 40
33.866666666666667
 41
0.0
 71
               1
 72
               1
  1
緑色シート貼り
  7
________
  0
LINE
  5
13C
100
AcDbEntity
  8
DIMENTION
100
AcDbLine
 10
-400.00000000000045
 20
-200.0
 30
0.0
 11
-130.0
 21
-200.0
 31
0.0
  0
LINE
  5
13D
100
AcDbEntity
  8
DIMENTION
100
AcDbLine
 10
-400.00000000000045
 20
-200.0
 30
0.0
 11
-400.00000000000045
 21
-300.0
 31
0.0
  0
LINE
  5
13E
100
AcDbEntity
  8
DIMENTION
100
AcDbLine
 10
-400.00000000000045
 20
-300.0
 30
0.0
 11
-130.0
 21
-300.0
 31
0.0
  0
LINE
  5
13F
100
AcDbEntity
  8
DIMENTION
100
AcDbLine
 10
-400.00000000000045
 20
-250.0
 30
0.0
 11
-130.0
 21
-250.0
 31
0.0
  0
LINE
  5
140
100
AcDbEntity
  8
DIMENTION
100
AcDbLine
 10
-400.00000000000045
 20
-700.00000000000023
 30
0.0
 11
-100.0
 21
-700.00000000000023
 31
0.0
  0
MTEXT
  5
141
100
AcDbEntity
  8
TEXT
100
AcDbMText
 10
744.36000000000013
 20
-1339.7293
 30
0.0
 40
50.800000000000004
 41
0.0
 71
               5
 72
               1
  1
CL 5252
  7
________
  0
MTEXT
  5
142
100
AcDbEntity
  8
TEXT
100
AcDbMText
 10
1429.9999999999995
 20
-1270.0
 30
0.0
 40
79.02222222222224
 41
0.0
 71
               1
 72
               1
  1
A330-090B
  7
ARIAL
  0
INSERT
  5
143
100
AcDbEntity
  8
FRAME
100
AcDbBlockReference
  2
*U6
 10
0.0
 20
19.999999999999996
 30
0.0
  0
POLYLINE
  5
144
100
AcDbEntity
  8
OBJECT
  6
CONTINUOUS
100
AcDb2dPolyline
 66
               1
 10
0.0
 20
0.0
 30
0.0
 70
               1
 75
               5
  0
VERTEX
  5
145
100
AcDbEntity
  8
OBJECT
  6
CONTINUOUS
100
AcDbVertex
100
AcDb2dVertex
 10
700.0
 20
1200.0
 30
0.0
  0
VERTEX
  5
146
100
AcDbEntity
  8
OBJECT
  6
CONTINUOUS
100
AcDbVertex
100
AcDb2dVertex
 10
1800.0
 20
1200.0
 30
0.0
  0
VERTEX
  5
147
100
AcDbEntity
  8
OBJECT
  6
CONTINUOUS
100
AcDbVertex
100
AcDb2dVertex
 10
1800.0
 20
900.0
 30
0.0
  0
VERTEX
  5
148
100
AcDbEntity
  8
OBJECT
  6
CONTINUOUS
100
AcDbVertex
100
AcDb2dVertex
 10
700.0
 20
900.0
 30
0.0
  0
SEQEND
  5
149
100
AcDbEntity
  8
OBJECT
  6
CONTINUOUS
  0
LINE
  5
14A
100
AcDbEntity
  8
OBJECT
  6
CONTINUOUS
100
AcDbLine
 10
1099.9999999999995
 20
1200.0
 30
0.0
 11
1099.9999999999995
 21
900.0
 31
0.0
  0
MTEXT
  5
14B
100
AcDbEntity
  8
TEXT
100
AcDbMText
 10
700.0
 20
1170.0
 30
0.0
 40
33.866666666666667
 41
399.99999999999955
 71
               4
 72
               1
  1
　形　　　　　　　　式
  7
________
  0
LINE
  5
14C
100
AcDbEntity
  8
OBJECT
100
AcDbLine
 10
1800.0
 20
1140.0
 30
0.0
 11
700.0
 21
1140.0
 31
0.0
  0
MTEXT
  5
14D
100
AcDbEntity
  8
TEXT
100
AcDbMText
 10
1099.9999999999995
 20
1170.0
 30
0.0
 40
33.866666666666667
 41
700.00000000000045
 71
               4
 72
               1
  1
　CL 5252
  7
________
  0
LINE
  5
14E
100
AcDbEntity
  8
OBJECT
100
AcDbLine
 10
1800.0
 20
1020.0
 30
0.0
 11
700.0
 21
1020.0
 31
0.0
  0
MTEXT
  5
14F
100
AcDbEntity
  8
TEXT
100
AcDbMText
 10
700.0
 20
1080.0
 30
0.0
 40
33.866666666666667
 41
399.99999999999955
 71
               4
 72
               1
  1
　{\H0.976x;\l適　用　食　器\P　ストック数量の目安}
  7
________
  0
MTEXT
  5
150
100
AcDbEntity
  8
TEXT
100
AcDbMText
 10
1100.0
 20
1080.0
 30
0.0
 40
33.866666666666667
 41
700.0
 71
               4
 72
               1
  1
　{\H0.976x;\lフルサイズラック 5段\P　ラックにグラス180個, カップ125個}
  7
________
  0
LINE
  5
151
100
AcDbEntity
  8
OBJECT
100
AcDbLine
 10
1800.0
 20
960.0
 30
0.0
 11
700.0
 21
960.0
 31
0.0
  0
MTEXT
  5
152
100
AcDbEntity
  8
TEXT
100
AcDbMText
 10
700.0
 20
990.0
 30
0.0
 40
33.866666666666667
 41
399.99999999999955
 71
               4
 72
               1
  1
　ば ね 調 整 範 囲
  7
________
  0
MTEXT
  5
153
100
AcDbEntity
  8
TEXT
100
AcDbMText
 10
1099.9999999999995
 20
990.0
 30
0.0
 40
33.866666666666667
 41
700.00000000000045
 71
               4
 72
               1
  1
　20～40kg
  7
________
  0
MTEXT
  5
154
100
AcDbEntity
  8
TEXT
100
AcDbMText
 10
700.0
 20
930.0
 30
0.0
 40
33.866666666666667
 41
399.99999999999955
 71
               4
 72
               1
  1
　質　　　　　　　　量
  7
________
  0
MTEXT
  5
155
100
AcDbEntity
  8
TEXT
100
AcDbMText
 10
1099.9999999999995
 20
930.0
 30
0.0
 40
33.866666666666667
 41
700.00000000000045
 71
               4
 72
               1
  1
　29kg
  7
________
  0
MTEXT
  5
156
100
AcDbEntity
  8
DIMENTION
100
AcDbMText
 10
655.0
 20
800.0
 30
0.0
 40
33.866666666666667
 41
1305.0
 71
               1
 72
               1
  1
使用するラックは外形寸法510×510(mm)を超えないようにしてください。\P超えてしまうとラックが収納できないまたは引っ掛かりが生じ、出し入れ\Pできない場合があります。
  7
________
  0
MTEXT
  5
157
100
AcDbEntity
  8
DIMENTION
100
AcDbMText
 10
600.0
 20
800.0
 30
0.0
 40
33.866666666666667
 41
50.0
 71
               1
 72
               1
  1
※
  7
________
  0
LINE
  5
158
100
AcDbEntity
  8
DIMENTION
  6
CONTINUOUS
100
AcDbLine
 10
-400.00000000000045
 20
-200.0
 30
0.0
 11
-540.0
 21
-300.0
 31
0.0
  0
LINE
  5
159
100
AcDbEntity
  8
DIMENTION
  6
CONTINUOUS
100
AcDbLine
 10
-540.0
 20
-300.0
 30
0.0
 11
-525.36071413547245
 21
-282.55357847793567
 31
0.0
  0
LINE
  5
15A
100
AcDbEntity
  8
DIMENTION
  6
CONTINUOUS
100
AcDbLine
 10
-540.0
 20
-300.0
 30
0.0
 11
-518.59879578702453
 21
-292.21059868902449
 31
0.0
  0
LINE
  5
15B
100
AcDbEntity
  8
DIMENTION
  6
CONTINUOUS
100
AcDbLine
 10
-400.00000000000045
 20
-700.00000000000023
 30
0.0
 11
-520.0
 21
-759.0
 31
0.0
  0
LINE
  5
15C
100
AcDbEntity
  8
DIMENTION
  6
CONTINUOUS
100
AcDbLine
 10
-520.0
 20
-759.0
 30
0.0
 11
-502.81172641929646
 21
-744.0584617303374
 31
0.0
  0
LINE
  5
15D
100
AcDbEntity
  8
DIMENTION
  6
CONTINUOUS
100
AcDbLine
 10
-520.0
 20
-759.0
 30
0.0
 11
-497.64374929708248
 21
-754.6543850772066
 31
0.0
  0
LINE
  5
15E
100
AcDbEntity
  8
DIMENTION
100
AcDbLine
 10
1010.9346357444045
 20
-822.7696899256606
 30
0.0
 11
1199.9999999999995
 21
-700.00000000000023
 31
0.0
  0
LINE
  5
15F
100
AcDbEntity
  8
DIMENTION
100
AcDbLine
 10
1010.9346357444045
 20
-822.7696899256606
 30
0.0
 11
1033.3519346121379
 21
-798.73008005663166
 31
0.0
  0
LINE
  5
160
100
AcDbEntity
  8
DIMENTION
100
AcDbLine
 10
1010.9346357444045
 20
-822.7696899256606
 30
0.0
 11
1042.3683909826043
 21
-813.15942651588102
 31
0.0
  0
MTEXT
  5
161
100
AcDbEntity
  8
DIMENTION
100
AcDbMText
 10
1209.9999999999995
 20
-705.00000000000023
 30
0.0
 40
33.866666666666667
 41
441.50939999999997
 71
               1
 72
               1
  1
2個ストッパー付
  7
________
  0
MTEXT
  5
162
100
AcDbEntity
  8
DIMENTION
100
AcDbMText
 10
1199.9999999999995
 20
-655.00000000000023
 30
0.0
 40
33.866666666666667
 41
455.0
 71
               1
 72
               1
  1
φ100 ウレタンキャスター
  7
________
  0
LINE
  5
163
100
AcDbEntity
  8
DIMENTION
100
AcDbLine
 10
1644.9999999999995
 20
-700.00000000000023
 30
0.0
 11
1199.9999999999995
 21
-700.00000000000023
 31
0.0
  0
LINE
  5
164
100
AcDbEntity
  8
DIMENTION
100
AcDbLine
 10
1644.9999999999995
 20
-750.00000000000023
 30
0.0
 11
1199.9999999999995
 21
-750.00000000000023
 31
0.0
  0
LINE
  5
165
100
AcDbEntity
  8
DIMENTION
100
AcDbLine
 10
1199.9999999999995
 20
-700.00000000000023
 30
0.0
 11
1199.9999999999995
 21
-750.00000000000023
 31
0.0
  0
LINE
  5
166
100
AcDbEntity
  8
CENTER
  6
STYLE_03
100
AcDbLine
 10
-800.0
 20
-950.0
 30
0.0
 11
-800.0
 21
-30.000000000000004
 31
0.0
  0
LINE
  5
167
100
AcDbEntity
  8
FRAME
  6
CONTINUOUS
100
AcDbLine
 10
-1100.0
 20
-900.0
 30
0.0
 11
-500.0
 21
-900.0
 31
0.0
  0
DIMENSION
  5
168
100
AcDbEntity
  8
DIMENTION
  6
CONTINUOUS
100
AcDbDimension
  2
*D7
 10
-1200.0
 20
-69.0
 30
0.0
 11
-1200.0
 21
-484.5
 31
0.0
  1
830
  3
CAD
100
AcDbAlignedDimension
 13
-1100.0
 23
-900.0
 33
0.0
 14
-1012.0
 24
-69.0
 34
0.0
 50
90.0
100
AcDbRotatedDimension
1001
ACAD
1000
DSTYLE
1002
{
1070
             271
1070
               0
1070
             340
1005
34
1070
             147
1040
0.9999999999999999
1002
}
  0
LINE
  5
169
100
AcDbEntity
  8
FRAME
  6
CONTINUOUS
100
AcDbLine
 10
300.0
 20
-900.0
 30
0.0
 11
1200.0
 21
-900.0
 31
0.0
  0
LINE
  5
16A
100
AcDbEntity
  8
CENTER
  6
STYLE_03
100
AcDbLine
 10
-800.0
 20
910.0
 30
0.0
 11
-800.0
 21
260.0
 31
0.0
  0
POLYLINE
  5
16B
100
AcDbEntity
  8
OBJECT
  6
CONTINUOUS
100
AcDb2dPolyline
 66
               1
 10
0.0
 20
0.0
 30
0.0
 70
               1
 75
               5
  0
VERTEX
  5
16C
100
AcDbEntity
  8
OBJECT
  6
CONTINUOUS
100
AcDbVertex
100
AcDb2dVertex
 10
971.0
 20
-780.99996686060513
 30
0.0
  0
VERTEX
  5
16D
100
AcDbEntity
  8
OBJECT
  6
CONTINUOUS
100
AcDbVertex
100
AcDb2dVertex
 10
901.0
 20
-780.99996686060513
 30
0.0
  0
VERTEX
  5
16E
100
AcDbEntity
  8
OBJECT
  6
CONTINUOUS
100
AcDbVertex
100
AcDb2dVertex
 10
901.0
 20
-783.99996686060513
 30
0.0
  0
VERTEX
  5
16F
100
AcDbEntity
  8
OBJECT
  6
CONTINUOUS
100
AcDbVertex
100
AcDb2dVertex
 10
971.0
 20
-783.99996686060513
 30
0.0
  0
SEQEND
  5
170
100
AcDbEntity
  8
OBJECT
  6
CONTINUOUS
  0
LWPOLYLINE
  5
171
100
AcDbEntity
  8
OBJECT
  6
CONTINUOUS
100
AcDbPolyline
 90
        5
 70
             129
 10
959.0
 20
-849.99996686060513
 42
-0.414213562373095
 10
969.0
 20
-839.99996686060513
 42
-0.414213562373095
 10
979.0
 20
-849.99996686060513
 42
-0.414213562373095
 10
969.0
 20
-859.99996686060513
 42
-0.414213562373095
 10
959.0
 20
-849.99996686060513
 42
-0.414213562373095
  0
LWPOLYLINE
  5
172
100
AcDbEntity
  8
OBJECT
  6
CONTINUOUS
100
AcDbPolyline
 90
        5
 70
             128
 10
959.5
 20
-791.99996686060513
 42
0.414213562373095
 10
960.5
 20
-792.99996686060513
 10
968.5
 20
-792.99996686060513
 10
978.60000000000036
 20
-846.43766686060508
 10
978.80000000000018
 20
-848.25836686060484
  0
LWPOLYLINE
  5
173
100
AcDbEntity
  8
OBJECT
  6
CONTINUOUS
100
AcDbPolyline
 90
       10
 70
             128
 10
960.8724000000002
 20
-855.77716686060512
 10
960.22890000000007
 20
-854.80276686060506
 10
922.5
 20
-800.99996686060513
 10
912.5
 20
-800.99996686060513
 10
912.5
 20
-793.99996686060513
 10
912.5
 20
-793.99996686060513
 42
-0.414213562373095
 10
915.5
 20
-790.99996686060513
 10
958.5
 20
-790.99996686060513
 10
958.5
 20
-790.99996686060513
 42
-0.414213562373095
 10
959.5
 20
-791.99996686060513
 42
-0.414213562373095
  0
POLYLINE
  5
174
100
AcDbEntity
  8
OBJECT
  6
CONTINUOUS
100
AcDb2dPolyline
 66
               1
 10
0.0
 20
0.0
 30
0.0
 70
               1
 75
               5
  0
VERTEX
  5
175
100
AcDbEntity
  8
OBJECT
  6
CONTINUOUS
100
AcDbVertex
100
AcDb2dVertex
 10
962.5
 20
-783.99996686060513
 30
0.0
  0
VERTEX
  5
176
100
AcDbEntity
  8
OBJECT
  6
CONTINUOUS
100
AcDbVertex
100
AcDb2dVertex
 10
909.5
 20
-783.99996686060513
 30
0.0
  0
VERTEX
  5
177
100
AcDbEntity
  8
OBJECT
  6
CONTINUOUS
100
AcDbVertex
100
AcDb2dVertex
 10
913.5
 20
-787.49996686060513
 30
0.0
  0
VERTEX
  5
178
100
AcDbEntity
  8
OBJECT
  6
CONTINUOUS
100
AcDbVertex
100
AcDb2dVertex
 10
913.5
 20
-790.99996686060513
 30
0.0
  0
VERTEX
  5
179
100
AcDbEntity
  8
OBJECT
  6
CONTINUOUS
100
AcDbVertex
100
AcDb2dVertex
 10
958.5
 20
-790.99996686060513
 30
0.0
  0
VERTEX
  5
17A
100
AcDbEntity
  8
OBJECT
  6
CONTINUOUS
100
AcDbVertex
100
AcDb2dVertex
 10
958.5
 20
-787.49996686060513
 30
0.0
  0
SEQEND
  5
17B
100
AcDbEntity
  8
OBJECT
  6
CONTINUOUS
  0
LINE
  5
17C
100
AcDbEntity
  8
OBJECT
  6
CONTINUOUS
100
AcDbLine
 10
958.5
 20
-787.49996686060513
 30
0.0
 11
913.5
 21
-787.49996686060513
 31
0.0
  0
LINE
  5
17D
100
AcDbEntity
  8
OBJECT
  6
CONTINUOUS
100
AcDbLine
 10
953.5
 20
-792.99996686060513
 30
0.0
 11
953.5
 21
-842.99996686060513
 31
0.0
  0
LWPOLYLINE
  5
17E
100
AcDbEntity
  8
OBJECT
  6
CONTINUOUS
100
AcDbPolyline
 90
        5
 70
             129
 10
963.5
 20
-849.99996686060513
 42
-0.414213562373095
 10
969.0
 20
-844.49996686060513
 42
-0.414213562373095
 10
974.5
 20
-849.99996686060513
 42
-0.414213562373095
 10
969.0
 20
-855.49996686060513
 42
-0.414213562373095
 10
963.5
 20
-849.99996686060513
 42
-0.414213562373095
  0
ARC
  5
17F
100
AcDbEntity
  8
OBJECT
  6
CONTINUOUS
100
AcDbCircle
 10
969.0
 20
-849.99996686060513
 30
0.0
 40
40.00001805624602
100
AcDbArc
 50
139.42693516316959
 51
86.085507773715676
  0
ARC
  5
180
100
AcDbEntity
  8
OBJECT
  6
CONTINUOUS
100
AcDbCircle
 10
969.0
 20
-849.99996686060513
 30
0.0
 40
46.499974801391609
100
AcDbArc
 50
137.38144272174583
 51
88.1648678673657
  0
ARC
  5
181
100
AcDbEntity
  8
OBJECT
  6
CONTINUOUS
100
AcDbCircle
 10
969.0
 20
-849.99996686060513
 30
0.0
 40
50.000016569697138
100
AcDbArc
 50
136.50527645865799
 51
89.055378894868994
  0
POLYLINE
  5
182
100
AcDbEntity
  8
OBJECT
  6
CONTINUOUS
100
AcDb2dPolyline
 66
               1
 10
0.0
 20
0.0
 30
0.0
 75
               5
  0
VERTEX
  5
183
100
AcDbEntity
  8
OBJECT
  6
CONTINUOUS
100
AcDbVertex
100
AcDb2dVertex
 10
943.0
 20
-749.99996686060513
 30
0.0
  0
VERTEX
  5
184
100
AcDbEntity
  8
OBJECT
  6
CONTINUOUS
100
AcDbVertex
100
AcDb2dVertex
 10
943.0
 20
-778.99996686060513
 30
0.0
  0
VERTEX
  5
185
100
AcDbEntity
  8
OBJECT
  6
CONTINUOUS
100
AcDbVertex
100
AcDb2dVertex
 10
423.0
 20
-778.99996686060513
 30
0.0
  0
VERTEX
  5
186
100
AcDbEntity
  8
OBJECT
  6
CONTINUOUS
100
AcDbVertex
100
AcDb2dVertex
 10
423.0
 20
-773.99996686060513
 30
0.0
  0
SEQEND
  5
187
100
AcDbEntity
  8
OBJECT
  6
CONTINUOUS
  0
POLYLINE
  5
188
100
AcDbEntity
  8
OBJECT
  6
CONTINUOUS
100
AcDb2dPolyline
 66
               1
 10
0.0
 20
0.0
 30
0.0
 70
               1
 75
               5
  0
VERTEX
  5
189
100
AcDbEntity
  8
OBJECT
  6
CONTINUOUS
100
AcDbVertex
100
AcDb2dVertex
 10
497.0
 20
-780.99996686060513
 30
0.0
  0
VERTEX
  5
18A
100
AcDbEntity
  8
OBJECT
  6
CONTINUOUS
100
AcDbVertex
100
AcDb2dVertex
 10
437.0
 20
-780.99996686060513
 30
0.0
  0
VERTEX
  5
18B
100
AcDbEntity
  8
OBJECT
  6
CONTINUOUS
100
AcDbVertex
100
AcDb2dVertex
 10
437.0
 20
-783.99996686060513
 30
0.0
  0
VERTEX
  5
18C
100
AcDbEntity
  8
OBJECT
  6
CONTINUOUS
100
AcDbVertex
100
AcDb2dVertex
 10
497.0
 20
-783.99996686060513
 30
0.0
  0
SEQEND
  5
18D
100
AcDbEntity
  8
OBJECT
  6
CONTINUOUS
  0
LWPOLYLINE
  5
18E
100
AcDbEntity
  8
OBJECT
  6
CONTINUOUS
100
AcDbPolyline
 90
        5
 70
             129
 10
490.0
 20
-849.99996686060513
 42
-0.414213562373095
 10
500.0
 20
-839.99996686060513
 42
-0.414213562373095
 10
510.0
 20
-849.99996686060513
 42
-0.414213562373095
 10
500.0
 20
-859.99996686060513
 42
-0.414213562373095
 10
490.0
 20
-849.99996686060513
 42
-0.414213562373095
  0
LWPOLYLINE
  5
18F
100
AcDbEntity
  8
OBJECT
  6
CONTINUOUS
100
AcDbPolyline
 90
        5
 70
             128
 10
490.5
 20
-791.99996686060513
 42
0.414213562373095
 10
491.5
 20
-792.99996686060513
 10
499.5
 20
-792.99996686060513
 10
509.60000000000036
 20
-846.43766686060508
 10
509.80000000000018
 20
-848.25836686060484
  0
LWPOLYLINE
  5
190
100
AcDbEntity
  8
OBJECT
  6
CONTINUOUS
100
AcDbPolyline
 90
       10
 70
             128
 10
491.8724000000002
 20
-855.77716686060512
 10
491.22890000000007
 20
-854.80276686060506
 10
453.5
 20
-800.99996686060513
 10
443.5
 20
-800.99996686060513
 10
443.5
 20
-793.99996686060513
 10
443.5
 20
-793.99996686060513
 42
-0.414213562373095
 10
446.5
 20
-790.99996686060513
 10
489.5
 20
-790.99996686060513
 10
489.5
 20
-790.99996686060513
 42
-0.414213562373095
 10
490.5
 20
-791.99996686060513
 42
-0.414213562373095
  0
POLYLINE
  5
191
100
AcDbEntity
  8
OBJECT
  6
CONTINUOUS
100
AcDb2dPolyline
 66
               1
 10
0.0
 20
0.0
 30
0.0
 70
               1
 75
               5
  0
VERTEX
  5
192
100
AcDbEntity
  8
OBJECT
  6
CONTINUOUS
100
AcDbVertex
100
AcDb2dVertex
 10
493.5
 20
-783.99996686060513
 30
0.0
  0
VERTEX
  5
193
100
AcDbEntity
  8
OBJECT
  6
CONTINUOUS
100
AcDbVertex
100
AcDb2dVertex
 10
440.5
 20
-783.99996686060513
 30
0.0
  0
VERTEX
  5
194
100
AcDbEntity
  8
OBJECT
  6
CONTINUOUS
100
AcDbVertex
100
AcDb2dVertex
 10
444.5
 20
-787.49996686060513
 30
0.0
  0
VERTEX
  5
195
100
AcDbEntity
  8
OBJECT
  6
CONTINUOUS
100
AcDbVertex
100
AcDb2dVertex
 10
444.5
 20
-790.99996686060513
 30
0.0
  0
VERTEX
  5
196
100
AcDbEntity
  8
OBJECT
  6
CONTINUOUS
100
AcDbVertex
100
AcDb2dVertex
 10
489.5
 20
-790.99996686060513
 30
0.0
  0
VERTEX
  5
197
100
AcDbEntity
  8
OBJECT
  6
CONTINUOUS
100
AcDbVertex
100
AcDb2dVertex
 10
489.5
 20
-787.49996686060513
 30
0.0
  0
SEQEND
  5
198
100
AcDbEntity
  8
OBJECT
  6
CONTINUOUS
  0
LINE
  5
199
100
AcDbEntity
  8
OBJECT
  6
CONTINUOUS
100
AcDbLine
 10
489.5
 20
-787.49996686060513
 30
0.0
 11
444.5
 21
-787.49996686060513
 31
0.0
  0
LINE
  5
19A
100
AcDbEntity
  8
OBJECT
  6
CONTINUOUS
100
AcDbLine
 10
484.5
 20
-792.99996686060513
 30
0.0
 11
484.5
 21
-842.99996686060513
 31
0.0
  0
LWPOLYLINE
  5
19B
100
AcDbEntity
  8
OBJECT
  6
CONTINUOUS
100
AcDbPolyline
 90
        5
 70
             129
 10
494.5
 20
-849.99996686060513
 42
-0.414213562373095
 10
500.0
 20
-844.49996686060513
 42
-0.414213562373095
 10
505.5
 20
-849.99996686060513
 42
-0.414213562373095
 10
500.0
 20
-855.49996686060513
 42
-0.414213562373095
 10
494.5
 20
-849.99996686060513
 42
-0.414213562373095
  0
ARC
  5
19C
100
AcDbEntity
  8
OBJECT
  6
CONTINUOUS
100
AcDbCircle
 10
500.0
 20
-849.99996686060513
 30
0.0
 40
40.00001805624602
100
AcDbArc
 50
139.42693516316959
 51
86.085507773715676
  0
ARC
  5
19D
100
AcDbEntity
  8
OBJECT
  6
CONTINUOUS
100
AcDbCircle
 10
500.0
 20
-849.99996686060513
 30
0.0
 40
46.499974801391609
100
AcDbArc
 50
137.38144272174583
 51
88.1648678673657
  0
ARC
  5
19E
100
AcDbEntity
  8
OBJECT
  6
CONTINUOUS
100
AcDbCircle
 10
500.0
 20
-849.99996686060513
 30
0.0
 40
50.000016569697138
100
AcDbArc
 50
136.50527645865799
 51
89.055378894868994
  0
LWPOLYLINE
  5
19F
100
AcDbEntity
  8
OBJECT
  6
CONTINUOUS
100
AcDbPolyline
 90
       10
 70
             129
 10
-1033.5
 20
-845.5
 42
-0.414213562373095
 10
-1031.5
 20
-847.5
 10
-1031.5
 20
-860.5
 42
-0.414213562373095
 10
-1033.5
 20
-862.5
 10
-1034.5
 20
-862.5
 10
-1034.5
 20
-855.5
 10
-1049.5
 20
-855.5
 42
-0.414213562373095
 10
-1051.5
 20
-853.5
 10
-1051.5
 20
-847.5
 42
-0.414213562373095
 10
-1049.5
 20
-845.5
  0
POLYLINE
  5
1A0
100
AcDbEntity
  8
OBJECT
  6
CONTINUOUS
100
AcDb2dPolyline
 66
               1
 10
0.0
 20
0.0
 30
0.0
 70
               1
 75
               5
  0
VERTEX
  5
1A1
100
AcDbEntity
  8
OBJECT
  6
CONTINUOUS
100
AcDbVertex
100
AcDb2dVertex
 10
-1046.0
 20
-781.0
 30
0.0
  0
VERTEX
  5
1A2
100
AcDbEntity
  8
OBJECT
  6
CONTINUOUS
100
AcDbVertex
100
AcDb2dVertex
 10
-976.0
 20
-781.0
 30
0.0
  0
VERTEX
  5
1A3
100
AcDbEntity
  8
OBJECT
  6
CONTINUOUS
100
AcDbVertex
100
AcDb2dVertex
 10
-976.0
 20
-784.0
 30
0.0
  0
VERTEX
  5
1A4
100
AcDbEntity
  8
OBJECT
  6
CONTINUOUS
100
AcDbVertex
100
AcDb2dVertex
 10
-1046.0
 20
-784.0
 30
0.0
  0
SEQEND
  5
1A5
100
AcDbEntity
  8
OBJECT
  6
CONTINUOUS
  0
POLYLINE
  5
1A6
100
AcDbEntity
  8
OBJECT
  6
CONTINUOUS
100
AcDb2dPolyline
 66
               1
 10
0.0
 20
0.0
 30
0.0
 70
               1
 75
               5
  0
VERTEX
  5
1A7
100
AcDbEntity
  8
OBJECT
  6
CONTINUOUS
100
AcDbVertex
100
AcDb2dVertex
 10
-1037.5
 20
-784.0
 30
0.0
  0
VERTEX
  5
1A8
100
AcDbEntity
  8
OBJECT
  6
CONTINUOUS
100
AcDbVertex
100
AcDb2dVertex
 10
-984.5
 20
-784.0
 30
0.0
  0
VERTEX
  5
1A9
100
AcDbEntity
  8
OBJECT
  6
CONTINUOUS
100
AcDbVertex
100
AcDb2dVertex
 10
-988.5
 20
-787.5
 30
0.0
  0
VERTEX
  5
1AA
100
AcDbEntity
  8
OBJECT
  6
CONTINUOUS
100
AcDbVertex
100
AcDb2dVertex
 10
-988.5
 20
-791.0
 30
0.0
  0
VERTEX
  5
1AB
100
AcDbEntity
  8
OBJECT
  6
CONTINUOUS
100
AcDbVertex
100
AcDb2dVertex
 10
-1033.5
 20
-791.0
 30
0.0
  0
VERTEX
  5
1AC
100
AcDbEntity
  8
OBJECT
  6
CONTINUOUS
100
AcDbVertex
100
AcDb2dVertex
 10
-1033.5
 20
-787.5
 30
0.0
  0
SEQEND
  5
1AD
100
AcDbEntity
  8
OBJECT
  6
CONTINUOUS
  0
LINE
  5
1AE
100
AcDbEntity
  8
OBJECT
  6
CONTINUOUS
100
AcDbLine
 10
-1033.5
 20
-787.5
 30
0.0
 11
-988.5
 21
-787.5
 31
0.0
  0
SPLINE
  5
1AF
100
AcDbEntity
  8
OBJECT
  6
CONTINUOUS
100
AcDbSpline
210
0.0
220
0.0
230
1.0
 70
               9
 71
               2
 72
              28
 73
              25
 74
               0
 42
0.000001
 43
0.000001
 40
0.0
 40
0.0
 40
0.0
 40
0.1364451216774349
 40
0.1364451216774349
 40
0.206088985866959
 40
0.206088985866959
 40
0.2868044973790079
 40
0.2868044973790079
 40
0.3351288113064328
 40
0.3351288113064328
 40
0.3436566314112725
 40
0.3436566314112725
 40
0.525583460314519
 40
0.525583460314519
 40
0.6108616613629158
 40
0.6108616613629158
 40
0.7927884902661623
 40
0.7927884902661623
 40
0.8013163103710019
 40
0.8013163103710019
 40
0.8496406242984268
 40
0.8496406242984268
 40
0.9303561358104757
 40
0.9303561358104757
 40
1.0
 40
1.0
 40
1.0
 10
-987.0
 20
-791.0
 30
0.0
 10
-1011.0
 20
-791.0
 30
0.0
 10
-1035.0
 20
-791.0
 30
0.0
 10
-1035.0
 20
-803.25
 30
0.0
 10
-1035.0
 20
-815.5
 30
0.0
 10
-1035.0
 20
-830.5
 30
0.0
 10
-1029.0
 20
-843.0
 30
0.0
 10
-1029.0
 20
-851.5
 30
0.0
 10
-1029.0
 20
-860.0
 30
0.0
 10
-1027.5
 20
-860.0
 30
0.0
 10
-1026.0
 20
-860.0
 30
0.0
 10
-1026.0
 20
-828.0
 30
0.0
 10
-1026.0
 20
-796.0
 30
0.0
 10
-1011.0
 20
-796.0
 30
0.0
 10
-996.0
 20
-796.0
 30
0.0
 10
-996.0
 20
-828.0
 30
0.0
 10
-996.0
 20
-860.0
 30
0.0
 10
-994.5
 20
-860.0
 30
0.0
 10
-993.0
 20
-860.0
 30
0.0
 10
-993.0
 20
-851.5
 30
0.0
 10
-993.0
 20
-843.0
 30
0.0
 10
-987.0
 20
-830.5
 30
0.0
 10
-987.0
 20
-815.5
 30
0.0
 10
-987.0
 20
-803.25
 30
0.0
 10
-987.0
 20
-791.0
 30
0.0
  0
POLYLINE
  5
1B0
100
AcDbEntity
  8
OBJECT
  6
CONTINUOUS
100
AcDb2dPolyline
 66
               1
 10
0.0
 20
0.0
 30
0.0
 70
               1
 75
               5
  0
VERTEX
  5
1B1
100
AcDbEntity
  8
OBJECT
  6
CONTINUOUS
100
AcDbVertex
100
AcDb2dVertex
 10
-993.0
 20
-793.0
 30
0.0
  0
VERTEX
  5
1B2
100
AcDbEntity
  8
OBJECT
  6
CONTINUOUS
100
AcDbVertex
100
AcDb2dVertex
 10
-1029.0
 20
-793.0
 30
0.0
  0
VERTEX
  5
1B3
100
AcDbEntity
  8
OBJECT
  6
CONTINUOUS
100
AcDbVertex
100
AcDb2dVertex
 10
-1029.0
 20
-860.0
 30
0.0
  0
VERTEX
  5
1B4
100
AcDbEntity
  8
OBJECT
  6
CONTINUOUS
100
AcDbVertex
100
AcDb2dVertex
 10
-1026.0
 20
-860.0
 30
0.0
  0
VERTEX
  5
1B5
100
AcDbEntity
  8
OBJECT
  6
CONTINUOUS
100
AcDbVertex
100
AcDb2dVertex
 10
-1026.0
 20
-796.0
 30
0.0
  0
VERTEX
  5
1B6
100
AcDbEntity
  8
OBJECT
  6
CONTINUOUS
100
AcDbVertex
100
AcDb2dVertex
 10
-996.0
 20
-796.0
 30
0.0
  0
VERTEX
  5
1B7
100
AcDbEntity
  8
OBJECT
  6
CONTINUOUS
100
AcDbVertex
100
AcDb2dVertex
 10
-996.0
 20
-860.0
 30
0.0
  0
VERTEX
  5
1B8
100
AcDbEntity
  8
OBJECT
  6
CONTINUOUS
100
AcDbVertex
100
AcDb2dVertex
 10
-993.0
 20
-860.0
 30
0.0
  0
SEQEND
  5
1B9
100
AcDbEntity
  8
OBJECT
  6
CONTINUOUS
  0
SPLINE
  5
1BA
100
AcDbEntity
  8
OBJECT
  6
CONTINUOUS
100
AcDbSpline
210
0.0
220
0.0
230
1.0
 70
              13
 71
               2
 72
              28
 73
              25
 74
               0
 42
0.000001
 43
0.000001
 40
0.0
 40
0.0
 40
0.0
 40
0.0116664369471646
 40
0.0116664369471646
 40
0.0307673121208424
 40
0.0307673121208424
 40
0.0826383042797584
 40
0.0826383042797584
 40
0.1017391794534362
 40
0.1017391794534362
 40
0.1134056164006015
 40
0.1134056164006015
 40
0.5
 40
0.5
 40
0.511666436947164
 40
0.511666436947164
 40
0.5307673121208419
 40
0.5307673121208419
 40
0.5826383042797579
 40
0.5826383042797579
 40
0.6017391794534357
 40
0.6017391794534357
 40
0.6134056164006005
 40
0.6134056164006005
 40
1.0
 40
1.0
 40
1.0
 10
-998.5
 20
-803.20543822418745
 30
0.0
 41
1.0
 10
-998.5
 20
-801.49999999999977
 30
0.0
 41
0.7609173743274019
 10
-1000.1840189977867
 20
-801.23055696035408
 30
0.0
 41
1.0
 10
-1002.4670094988933
 20
-800.86527848017704
 30
0.0
 41
1.0
 10
-1004.75
 20
-800.5
 30
0.0
 41
1.0
 10
-1011.0
 20
-799.5
 30
0.0
 41
1.0
 10
-1017.25
 20
-800.5
 30
0.0
 41
1.0
 10
-1019.5329905011067
 20
-800.86527848017704
 30
0.0
 41
1.0
 10
-1021.8159810022133
 20
-801.23055696035408
 30
0.0
 41
1.0
 10
-1023.5000000000001
 20
-801.49999999999989
 30
0.0
 41
0.7609173743273865
 10
-1023.5
 20
-803.20543822418745
 30
0.0
 41
1.0
 10
-1023.5
 20
-849.99999999999989
 30
0.0
 41
1.0
 10
-1023.5
 20
-896.79456177581233
 30
0.0
 41
1.0
 10
-1023.5
 20
-898.49999999999977
 30
0.0
 41
0.7609173743274019
 10
-1021.8159810022133
 20
-898.76944303964569
 30
0.0
 41
1.0
 10
-1019.5329905011067
 20
-899.13472151982285
 30
0.0
 41
1.0
 10
-1017.25
 20
-899.5
 30
0.0
 41
1.0
 10
-1011.0
 20
-900.5
 30
0.0
 41
1.0
 10
-1004.75
 20
-899.5
 30
0.0
 41
1.0
 10
-1002.4670094988933
 20
-899.13472151982296
 30
0.0
 41
1.0
 10
-1000.1840189977867
 20
-898.76944303964592
 30
0.0
 41
1.0
 10
-998.50000000000011
 20
-898.50000000000023
 30
0.0
 41
0.7609173743274358
 10
-998.5
 20
-896.79456177581255
 30
0.0
 41
1.0
 10
-998.5
 20
-850.0
 30
0.0
 41
1.0
 10
-998.5
 20
-803.20543822418745
 30
0.0
 41
1.0
  0
POLYLINE
  5
1BB
100
AcDbEntity
  8
OBJECT
  6
CONTINUOUS
100
AcDb2dPolyline
 66
               1
 10
0.0
 20
0.0
 30
0.0
 70
               1
 75
               5
  0
VERTEX
  5
1BC
100
AcDbEntity
  8
OBJECT
  6
CONTINUOUS
100
AcDbVertex
100
AcDb2dVertex
 10
-1026.0
 20
-841.75
 30
0.0
  0
VERTEX
  5
1BD
100
AcDbEntity
  8
OBJECT
  6
CONTINUOUS
100
AcDbVertex
100
AcDb2dVertex
 10
-1023.5
 20
-841.75
 30
0.0
  0
VERTEX
  5
1BE
100
AcDbEntity
  8
OBJECT
  6
CONTINUOUS
100
AcDbVertex
100
AcDb2dVertex
 10
-1023.5
 20
-858.25
 30
0.0
  0
VERTEX
  5
1BF
100
AcDbEntity
  8
OBJECT
  6
CONTINUOUS
100
AcDbVertex
100
AcDb2dVertex
 10
-1026.0
 20
-858.25
 30
0.0
  0
SEQEND
  5
1C0
100
AcDbEntity
  8
OBJECT
  6
CONTINUOUS
  0
POLYLINE
  5
1C1
100
AcDbEntity
  8
OBJECT
  6
CONTINUOUS
100
AcDb2dPolyline
 66
               1
 10
0.0
 20
0.0
 30
0.0
 70
               1
 75
               5
  0
VERTEX
  5
1C2
100
AcDbEntity
  8
OBJECT
  6
CONTINUOUS
100
AcDbVertex
100
AcDb2dVertex
 10
-998.5
 20
-841.75
 30
0.0
  0
VERTEX
  5
1C3
100
AcDbEntity
  8
OBJECT
  6
CONTINUOUS
100
AcDbVertex
100
AcDb2dVertex
 10
-996.0
 20
-841.75
 30
0.0
  0
VERTEX
  5
1C4
100
AcDbEntity
  8
OBJECT
  6
CONTINUOUS
100
AcDbVertex
100
AcDb2dVertex
 10
-996.0
 20
-858.25
 30
0.0
  0
VERTEX
  5
1C5
100
AcDbEntity
  8
OBJECT
  6
CONTINUOUS
100
AcDbVertex
100
AcDb2dVertex
 10
-998.5
 20
-858.25
 30
0.0
  0
SEQEND
  5
1C6
100
AcDbEntity
  8
OBJECT
  6
CONTINUOUS
  0
POLYLINE
  5
1C7
100
AcDbEntity
  8
OBJECT
  6
CONTINUOUS
100
AcDb2dPolyline
 66
               1
 10
0.0
 20
0.0
 30
0.0
 70
               1
 75
               5
  0
VERTEX
  5
1C8
100
AcDbEntity
  8
OBJECT
  6
CONTINUOUS
100
AcDbVertex
100
AcDb2dVertex
 10
-993.0
 20
-844.5
 30
0.0
  0
VERTEX
  5
1C9
100
AcDbEntity
  8
OBJECT
  6
CONTINUOUS
100
AcDbVertex
100
AcDb2dVertex
 10
-990.5
 20
-844.5
 30
0.0
  0
VERTEX
  5
1CA
100
AcDbEntity
  8
OBJECT
  6
CONTINUOUS
100
AcDbVertex
100
AcDb2dVertex
 10
-990.5
 20
-855.5
 30
0.0
  0
VERTEX
  5
1CB
100
AcDbEntity
  8
OBJECT
  6
CONTINUOUS
100
AcDbVertex
100
AcDb2dVertex
 10
-993.0
 20
-855.5
 30
0.0
  0
SEQEND
  5
1CC
100
AcDbEntity
  8
OBJECT
  6
CONTINUOUS
  0
POLYLINE
  5
1CD
100
AcDbEntity
  8
OBJECT
  6
CONTINUOUS
100
AcDb2dPolyline
 66
               1
 10
0.0
 20
0.0
 30
0.0
 70
               1
 75
               5
  0
VERTEX
  5
1CE
100
AcDbEntity
  8
OBJECT
  6
CONTINUOUS
100
AcDbVertex
100
AcDb2dVertex
 10
-1031.5
 20
-844.5
 30
0.0
  0
VERTEX
  5
1CF
100
AcDbEntity
  8
OBJECT
  6
CONTINUOUS
100
AcDbVertex
100
AcDb2dVertex
 10
-1029.0
 20
-844.5
 30
0.0
  0
VERTEX
  5
1D0
100
AcDbEntity
  8
OBJECT
  6
CONTINUOUS
100
AcDbVertex
100
AcDb2dVertex
 10
-1029.0
 20
-855.5
 30
0.0
  0
VERTEX
  5
1D1
100
AcDbEntity
  8
OBJECT
  6
CONTINUOUS
100
AcDbVertex
100
AcDb2dVertex
 10
-1031.5
 20
-855.5
 30
0.0
  0
SEQEND
  5
1D2
100
AcDbEntity
  8
OBJECT
  6
CONTINUOUS
  0
POLYLINE
  5
1D3
100
AcDbEntity
  8
OBJECT
  6
CONTINUOUS
100
AcDb2dPolyline
 66
               1
 10
0.0
 20
0.0
 30
0.0
 70
               1
 75
               5
  0
VERTEX
  5
1D4
100
AcDbEntity
  8
OBJECT
  6
CONTINUOUS
100
AcDbVertex
100
AcDb2dVertex
 10
-1031.5
 20
-837.5
 30
0.0
  0
VERTEX
  5
1D5
100
AcDbEntity
  8
OBJECT
  6
CONTINUOUS
100
AcDbVertex
100
AcDb2dVertex
 10
-1031.5
 20
-862.5
 30
0.0
  0
VERTEX
  5
1D6
100
AcDbEntity
  8
OBJECT
  6
CONTINUOUS
100
AcDbVertex
100
AcDb2dVertex
 10
-1034.5
 20
-862.5
 30
0.0
  0
VERTEX
  5
1D7
100
AcDbEntity
  8
OBJECT
  6
CONTINUOUS
100
AcDbVertex
100
AcDb2dVertex
 10
-1034.5
 20
-840.5
 30
0.0
  0
VERTEX
  5
1D8
100
AcDbEntity
  8
OBJECT
  6
CONTINUOUS
100
AcDbVertex
100
AcDb2dVertex
 10
-1051.5
 20
-840.5
 30
0.0
  0
VERTEX
  5
1D9
100
AcDbEntity
  8
OBJECT
  6
CONTINUOUS
100
AcDbVertex
100
AcDb2dVertex
 10
-1051.5
 20
-837.5
 30
0.0
  0
SEQEND
  5
1DA
100
AcDbEntity
  8
OBJECT
  6
CONTINUOUS
  0
LINE
  5
1DB
100
AcDbEntity
  8
OBJECT
  6
CONTINUOUS
100
AcDbLine
 10
-1049.5
 20
-848.5
 30
0.0
 11
-1034.5
 21
-848.5
 31
0.0
  0
ARC
  5
1DC
100
AcDbEntity
  8
OBJECT
  6
CONTINUOUS
100
AcDbCircle
 10
-1049.5
 20
-850.5
 30
0.0
 40
2.0
100
AcDbArc
 50
90.0
 51
180.0
  0
POLYLINE
  5
1DD
100
AcDbEntity
  8
OBJECT
  6
CONTINUOUS
100
AcDb2dPolyline
 66
               1
 10
0.0
 20
0.0
 30
0.0
 75
               5
  0
VERTEX
  5
1DE
100
AcDbEntity
  8
OBJECT
  6
CONTINUOUS
100
AcDbVertex
100
AcDb2dVertex
 10
-540.0
 20
-774.0
 30
0.0
  0
VERTEX
  5
1DF
100
AcDbEntity
  8
OBJECT
  6
CONTINUOUS
100
AcDbVertex
100
AcDb2dVertex
 10
-540.0
 20
-779.0
 30
0.0
  0
VERTEX
  5
1E0
100
AcDbEntity
  8
OBJECT
  6
CONTINUOUS
100
AcDbVertex
100
AcDb2dVertex
 10
-1060.0
 20
-779.0
 30
0.0
  0
VERTEX
  5
1E1
100
AcDbEntity
  8
OBJECT
  6
CONTINUOUS
100
AcDbVertex
100
AcDb2dVertex
 10
-1060.0
 20
-774.0
 30
0.0
  0
SEQEND
  5
1E2
100
AcDbEntity
  8
OBJECT
  6
CONTINUOUS
  0
LWPOLYLINE
  5
1E3
100
AcDbEntity
  8
OBJECT
  6
CONTINUOUS
100
AcDbPolyline
 90
       10
 70
             129
 10
-611.5
 20
-845.5
 42
-0.414213562373095
 10
-609.5
 20
-847.5
 10
-609.5
 20
-860.5
 42
-0.414213562373095
 10
-611.5
 20
-862.5
 10
-612.5
 20
-862.5
 10
-612.5
 20
-855.5
 10
-627.5
 20
-855.5
 42
-0.414213562373095
 10
-629.5
 20
-853.5
 10
-629.5
 20
-847.5
 42
-0.414213562373095
 10
-627.5
 20
-845.5
  0
POLYLINE
  5
1E4
100
AcDbEntity
  8
OBJECT
  6
CONTINUOUS
100
AcDb2dPolyline
 66
               1
 10
0.0
 20
0.0
 30
0.0
 70
               1
 75
               5
  0
VERTEX
  5
1E5
100
AcDbEntity
  8
OBJECT
  6
CONTINUOUS
100
AcDbVertex
100
AcDb2dVertex
 10
-624.0
 20
-781.0
 30
0.0
  0
VERTEX
  5
1E6
100
AcDbEntity
  8
OBJECT
  6
CONTINUOUS
100
AcDbVertex
100
AcDb2dVertex
 10
-554.0
 20
-781.0
 30
0.0
  0
VERTEX
  5
1E7
100
AcDbEntity
  8
OBJECT
  6
CONTINUOUS
100
AcDbVertex
100
AcDb2dVertex
 10
-554.0
 20
-784.0
 30
0.0
  0
VERTEX
  5
1E8
100
AcDbEntity
  8
OBJECT
  6
CONTINUOUS
100
AcDbVertex
100
AcDb2dVertex
 10
-624.0
 20
-784.0
 30
0.0
  0
SEQEND
  5
1E9
100
AcDbEntity
  8
OBJECT
  6
CONTINUOUS
  0
POLYLINE
  5
1EA
100
AcDbEntity
  8
OBJECT
  6
CONTINUOUS
100
AcDb2dPolyline
 66
               1
 10
0.0
 20
0.0
 30
0.0
 70
               1
 75
               5
  0
VERTEX
  5
1EB
100
AcDbEntity
  8
OBJECT
  6
CONTINUOUS
100
AcDbVertex
100
AcDb2dVertex
 10
-615.5
 20
-784.0
 30
0.0
  0
VERTEX
  5
1EC
100
AcDbEntity
  8
OBJECT
  6
CONTINUOUS
100
AcDbVertex
100
AcDb2dVertex
 10
-562.5
 20
-784.0
 30
0.0
  0
VERTEX
  5
1ED
100
AcDbEntity
  8
OBJECT
  6
CONTINUOUS
100
AcDbVertex
100
AcDb2dVertex
 10
-566.5
 20
-787.5
 30
0.0
  0
VERTEX
  5
1EE
100
AcDbEntity
  8
OBJECT
  6
CONTINUOUS
100
AcDbVertex
100
AcDb2dVertex
 10
-566.5
 20
-791.0
 30
0.0
  0
VERTEX
  5
1EF
100
AcDbEntity
  8
OBJECT
  6
CONTINUOUS
100
AcDbVertex
100
AcDb2dVertex
 10
-611.5
 20
-791.0
 30
0.0
  0
VERTEX
  5
1F0
100
AcDbEntity
  8
OBJECT
  6
CONTINUOUS
100
AcDbVertex
100
AcDb2dVertex
 10
-611.5
 20
-787.5
 30
0.0
  0
SEQEND
  5
1F1
100
AcDbEntity
  8
OBJECT
  6
CONTINUOUS
  0
LINE
  5
1F2
100
AcDbEntity
  8
OBJECT
  6
CONTINUOUS
100
AcDbLine
 10
-611.5
 20
-787.5
 30
0.0
 11
-566.5
 21
-787.5
 31
0.0
  0
SPLINE
  5
1F3
100
AcDbEntity
  8
OBJECT
  6
CONTINUOUS
100
AcDbSpline
210
0.0
220
0.0
230
1.0
 70
               9
 71
               2
 72
              28
 73
              25
 74
               0
 42
0.000001
 43
0.000001
 40
0.0
 40
0.0
 40
0.0
 40
0.1364451216774349
 40
0.1364451216774349
 40
0.206088985866959
 40
0.206088985866959
 40
0.2868044973790079
 40
0.2868044973790079
 40
0.3351288113064328
 40
0.3351288113064328
 40
0.3436566314112725
 40
0.3436566314112725
 40
0.525583460314519
 40
0.525583460314519
 40
0.6108616613629158
 40
0.6108616613629158
 40
0.7927884902661623
 40
0.7927884902661623
 40
0.8013163103710019
 40
0.8013163103710019
 40
0.8496406242984268
 40
0.8496406242984268
 40
0.9303561358104757
 40
0.9303561358104757
 40
1.0
 40
1.0
 40
1.0
 10
-565.0
 20
-791.0
 30
0.0
 10
-589.0
 20
-791.0
 30
0.0
 10
-613.0
 20
-791.0
 30
0.0
 10
-613.0
 20
-803.25
 30
0.0
 10
-613.0
 20
-815.5
 30
0.0
 10
-613.0
 20
-830.5
 30
0.0
 10
-607.0
 20
-843.0
 30
0.0
 10
-607.0
 20
-851.5
 30
0.0
 10
-607.0
 20
-860.0
 30
0.0
 10
-605.5
 20
-860.0
 30
0.0
 10
-604.0
 20
-860.0
 30
0.0
 10
-604.0
 20
-828.0
 30
0.0
 10
-604.0
 20
-796.0
 30
0.0
 10
-589.0
 20
-796.0
 30
0.0
 10
-574.0
 20
-796.0
 30
0.0
 10
-574.0
 20
-828.0
 30
0.0
 10
-574.0
 20
-860.0
 30
0.0
 10
-572.5
 20
-860.0
 30
0.0
 10
-571.0
 20
-860.0
 30
0.0
 10
-571.0
 20
-851.5
 30
0.0
 10
-571.0
 20
-843.0
 30
0.0
 10
-565.0
 20
-830.5
 30
0.0
 10
-565.0
 20
-815.5
 30
0.0
 10
-565.0
 20
-803.25
 30
0.0
 10
-565.0
 20
-791.0
 30
0.0
  0
POLYLINE
  5
1F4
100
AcDbEntity
  8
OBJECT
  6
CONTINUOUS
100
AcDb2dPolyline
 66
               1
 10
0.0
 20
0.0
 30
0.0
 70
               1
 75
               5
  0
VERTEX
  5
1F5
100
AcDbEntity
  8
OBJECT
  6
CONTINUOUS
100
AcDbVertex
100
AcDb2dVertex
 10
-571.0
 20
-793.0
 30
0.0
  0
VERTEX
  5
1F6
100
AcDbEntity
  8
OBJECT
  6
CONTINUOUS
100
AcDbVertex
100
AcDb2dVertex
 10
-607.0
 20
-793.0
 30
0.0
  0
VERTEX
  5
1F7
100
AcDbEntity
  8
OBJECT
  6
CONTINUOUS
100
AcDbVertex
100
AcDb2dVertex
 10
-607.0
 20
-860.0
 30
0.0
  0
VERTEX
  5
1F8
100
AcDbEntity
  8
OBJECT
  6
CONTINUOUS
100
AcDbVertex
100
AcDb2dVertex
 10
-604.0
 20
-860.0
 30
0.0
  0
VERTEX
  5
1F9
100
AcDbEntity
  8
OBJECT
  6
CONTINUOUS
100
AcDbVertex
100
AcDb2dVertex
 10
-604.0
 20
-796.0
 30
0.0
  0
VERTEX
  5
1FA
100
AcDbEntity
  8
OBJECT
  6
CONTINUOUS
100
AcDbVertex
100
AcDb2dVertex
 10
-574.0
 20
-796.0
 30
0.0
  0
VERTEX
  5
1FB
100
AcDbEntity
  8
OBJECT
  6
CONTINUOUS
100
AcDbVertex
100
AcDb2dVertex
 10
-574.0
 20
-860.0
 30
0.0
  0
VERTEX
  5
1FC
100
AcDbEntity
  8
OBJECT
  6
CONTINUOUS
100
AcDbVertex
100
AcDb2dVertex
 10
-571.0
 20
-860.0
 30
0.0
  0
SEQEND
  5
1FD
100
AcDbEntity
  8
OBJECT
  6
CONTINUOUS
  0
SPLINE
  5
1FE
100
AcDbEntity
  8
OBJECT
  6
CONTINUOUS
100
AcDbSpline
210
0.0
220
0.0
230
1.0
 70
              13
 71
               2
 72
              28
 73
              25
 74
               0
 42
0.000001
 43
0.000001
 40
0.0
 40
0.0
 40
0.0
 40
0.0116664369471642
 40
0.0116664369471642
 40
0.030767312120842
 40
0.030767312120842
 40
0.082638304279758
 40
0.082638304279758
 40
0.1017391794534358
 40
0.1017391794534358
 40
0.1134056164005999
 40
0.1134056164005999
 40
0.4999999999999997
 40
0.4999999999999997
 40
0.5116664369471641
 40
0.5116664369471641
 40
0.5307673121208418
 40
0.5307673121208418
 40
0.5826383042797578
 40
0.5826383042797578
 40
0.6017391794534356
 40
0.6017391794534356
 40
0.6134056164006001
 40
0.6134056164006001
 40
1.0
 40
1.0
 40
1.0
 10
-576.5
 20
-803.20543822418745
 30
0.0
 41
1.0
 10
-576.5
 20
-801.49999999999977
 30
0.0
 41
0.7609173743274019
 10
-578.18401899778667
 20
-801.23055696035408
 30
0.0
 41
1.0
 10
-580.46700949889328
 20
-800.86527848017704
 30
0.0
 41
1.0
 10
-582.75
 20
-800.5
 30
0.0
 41
1.0
 10
-589.0
 20
-799.5
 30
0.0
 41
1.0
 10
-595.25
 20
-800.5
 30
0.0
 41
1.0
 10
-597.53299050110672
 20
-800.86527848017704
 30
0.0
 41
1.0
 10
-599.81598100221333
 20
-801.23055696035408
 30
0.0
 41
1.0
 10
-601.49999999999977
 20
-801.5
 30
0.0
 41
0.7609173743274694
 10
-601.5
 20
-803.20543822418745
 30
0.0
 41
1.0
 10
-601.5
 20
-850.0
 30
0.0
 41
1.0
 10
-601.5
 20
-896.79456177581255
 30
0.0
 41
1.0
 10
-601.5
 20
-898.50000000000011
 30
0.0
 41
0.7609173743274019
 10
-599.81598100221333
 20
-898.76944303964592
 30
0.0
 41
1.0
 10
-597.53299050110672
 20
-899.13472151982296
 30
0.0
 41
1.0
 10
-595.25
 20
-899.5
 30
0.0
 41
1.0
 10
-589.0
 20
-900.5
 30
0.0
 41
1.0
 10
-582.75
 20
-899.5
 30
0.0
 41
1.0
 10
-580.46700949889328
 20
-899.13472151982296
 30
0.0
 41
1.0
 10
-578.18401899778667
 20
-898.76944303964592
 30
0.0
 41
1.0
 10
-576.50000000000034
 20
-898.5
 30
0.0
 41
0.7609173743275032
 10
-576.5
 20
-896.79456177581255
 30
0.0
 41
1.0
 10
-576.5
 20
-850.0
 30
0.0
 41
1.0
 10
-576.5
 20
-803.20543822418745
 30
0.0
 41
1.0
  0
POLYLINE
  5
1FF
100
AcDbEntity
  8
OBJECT
  6
CONTINUOUS
100
AcDb2dPolyline
 66
               1
 10
0.0
 20
0.0
 30
0.0
 70
               1
 75
               5
  0
VERTEX
  5
200
100
AcDbEntity
  8
OBJECT
  6
CONTINUOUS
100
AcDbVertex
100
AcDb2dVertex
 10
-604.0
 20
-841.75
 30
0.0
  0
VERTEX
  5
201
100
AcDbEntity
  8
OBJECT
  6
CONTINUOUS
100
AcDbVertex
100
AcDb2dVertex
 10
-601.5
 20
-841.75
 30
0.0
  0
VERTEX
  5
202
100
AcDbEntity
  8
OBJECT
  6
CONTINUOUS
100
AcDbVertex
100
AcDb2dVertex
 10
-601.5
 20
-858.25
 30
0.0
  0
VERTEX
  5
203
100
AcDbEntity
  8
OBJECT
  6
CONTINUOUS
100
AcDbVertex
100
AcDb2dVertex
 10
-604.0
 20
-858.25
 30
0.0
  0
SEQEND
  5
204
100
AcDbEntity
  8
OBJECT
  6
CONTINUOUS
  0
POLYLINE
  5
205
100
AcDbEntity
  8
OBJECT
  6
CONTINUOUS
100
AcDb2dPolyline
 66
               1
 10
0.0
 20
0.0
 30
0.0
 70
               1
 75
               5
  0
VERTEX
  5
206
100
AcDbEntity
  8
OBJECT
  6
CONTINUOUS
100
AcDbVertex
100
AcDb2dVertex
 10
-576.5
 20
-841.75
 30
0.0
  0
VERTEX
  5
207
100
AcDbEntity
  8
OBJECT
  6
CONTINUOUS
100
AcDbVertex
100
AcDb2dVertex
 10
-574.0
 20
-841.75
 30
0.0
  0
VERTEX
  5
208
100
AcDbEntity
  8
OBJECT
  6
CONTINUOUS
100
AcDbVertex
100
AcDb2dVertex
 10
-574.0
 20
-858.25
 30
0.0
  0
VERTEX
  5
209
100
AcDbEntity
  8
OBJECT
  6
CONTINUOUS
100
AcDbVertex
100
AcDb2dVertex
 10
-576.5
 20
-858.25
 30
0.0
  0
SEQEND
  5
20A
100
AcDbEntity
  8
OBJECT
  6
CONTINUOUS
  0
POLYLINE
  5
20B
100
AcDbEntity
  8
OBJECT
  6
CONTINUOUS
100
AcDb2dPolyline
 66
               1
 10
0.0
 20
0.0
 30
0.0
 70
               1
 75
               5
  0
VERTEX
  5
20C
100
AcDbEntity
  8
OBJECT
  6
CONTINUOUS
100
AcDbVertex
100
AcDb2dVertex
 10
-571.0
 20
-844.5
 30
0.0
  0
VERTEX
  5
20D
100
AcDbEntity
  8
OBJECT
  6
CONTINUOUS
100
AcDbVertex
100
AcDb2dVertex
 10
-568.5
 20
-844.5
 30
0.0
  0
VERTEX
  5
20E
100
AcDbEntity
  8
OBJECT
  6
CONTINUOUS
100
AcDbVertex
100
AcDb2dVertex
 10
-568.5
 20
-855.5
 30
0.0
  0
VERTEX
  5
20F
100
AcDbEntity
  8
OBJECT
  6
CONTINUOUS
100
AcDbVertex
100
AcDb2dVertex
 10
-571.0
 20
-855.5
 30
0.0
  0
SEQEND
  5
210
100
AcDbEntity
  8
OBJECT
  6
CONTINUOUS
  0
POLYLINE
  5
211
100
AcDbEntity
  8
OBJECT
  6
CONTINUOUS
100
AcDb2dPolyline
 66
               1
 10
0.0
 20
0.0
 30
0.0
 70
               1
 75
               5
  0
VERTEX
  5
212
100
AcDbEntity
  8
OBJECT
  6
CONTINUOUS
100
AcDbVertex
100
AcDb2dVertex
 10
-609.5
 20
-844.5
 30
0.0
  0
VERTEX
  5
213
100
AcDbEntity
  8
OBJECT
  6
CONTINUOUS
100
AcDbVertex
100
AcDb2dVertex
 10
-607.0
 20
-844.5
 30
0.0
  0
VERTEX
  5
214
100
AcDbEntity
  8
OBJECT
  6
CONTINUOUS
100
AcDbVertex
100
AcDb2dVertex
 10
-607.0
 20
-855.5
 30
0.0
  0
VERTEX
  5
215
100
AcDbEntity
  8
OBJECT
  6
CONTINUOUS
100
AcDbVertex
100
AcDb2dVertex
 10
-609.5
 20
-855.5
 30
0.0
  0
SEQEND
  5
216
100
AcDbEntity
  8
OBJECT
  6
CONTINUOUS
  0
POLYLINE
  5
217
100
AcDbEntity
  8
OBJECT
  6
CONTINUOUS
100
AcDb2dPolyline
 66
               1
 10
0.0
 20
0.0
 30
0.0
 70
               1
 75
               5
  0
VERTEX
  5
218
100
AcDbEntity
  8
OBJECT
  6
CONTINUOUS
100
AcDbVertex
100
AcDb2dVertex
 10
-609.5
 20
-837.5
 30
0.0
  0
VERTEX
  5
219
100
AcDbEntity
  8
OBJECT
  6
CONTINUOUS
100
AcDbVertex
100
AcDb2dVertex
 10
-609.5
 20
-862.5
 30
0.0
  0
VERTEX
  5
21A
100
AcDbEntity
  8
OBJECT
  6
CONTINUOUS
100
AcDbVertex
100
AcDb2dVertex
 10
-612.5
 20
-862.5
 30
0.0
  0
VERTEX
  5
21B
100
AcDbEntity
  8
OBJECT
  6
CONTINUOUS
100
AcDbVertex
100
AcDb2dVertex
 10
-612.5
 20
-840.5
 30
0.0
  0
VERTEX
  5
21C
100
AcDbEntity
  8
OBJECT
  6
CONTINUOUS
100
AcDbVertex
100
AcDb2dVertex
 10
-629.5
 20
-840.5
 30
0.0
  0
VERTEX
  5
21D
100
AcDbEntity
  8
OBJECT
  6
CONTINUOUS
100
AcDbVertex
100
AcDb2dVertex
 10
-629.5
 20
-837.5
 30
0.0
  0
SEQEND
  5
21E
100
AcDbEntity
  8
OBJECT
  6
CONTINUOUS
  0
LINE
  5
21F
100
AcDbEntity
  8
OBJECT
  6
CONTINUOUS
100
AcDbLine
 10
-627.5
 20
-848.5
 30
0.0
 11
-612.5
 21
-848.5
 31
0.0
  0
ARC
  5
220
100
AcDbEntity
  8
OBJECT
  6
CONTINUOUS
100
AcDbCircle
 10
-627.5
 20
-850.5
 30
0.0
 40
2.0
100
AcDbArc
 50
90.0
 51
180.0
  0
POLYLINE
  5
221
100
AcDbEntity
  8
OBJECT
  6
CONTINUOUS
100
AcDb2dPolyline
 66
               1
 10
0.0
 20
0.0
 30
0.0
 70
               1
 75
               5
  0
VERTEX
  5
222
100
AcDbEntity
  8
OBJECT
  6
CONTINUOUS
100
AcDbVertex
100
AcDb2dVertex
 10
-1058.0
 20
-779.0
 30
0.0
  0
VERTEX
  5
223
100
AcDbEntity
  8
OBJECT
  6
CONTINUOUS
100
AcDbVertex
100
AcDb2dVertex
 10
-542.0
 20
-779.0
 30
0.0
  0
VERTEX
  5
224
100
AcDbEntity
  8
OBJECT
  6
CONTINUOUS
100
AcDbVertex
100
AcDb2dVertex
 10
-542.0
 20
-781.0
 30
0.0
  0
VERTEX
  5
225
100
AcDbEntity
  8
OBJECT
  6
CONTINUOUS
100
AcDbVertex
100
AcDb2dVertex
 10
-1058.0
 20
-781.0
 30
0.0
  0
SEQEND
  5
226
100
AcDbEntity
  8
OBJECT
  6
CONTINUOUS
  0
POLYLINE
  5
227
100
AcDbEntity
  8
OBJECT
  6
CONTINUOUS
100
AcDb2dPolyline
 66
               1
 10
0.0
 20
0.0
 30
0.0
 70
               1
 75
               5
  0
VERTEX
  5
228
100
AcDbEntity
  8
OBJECT
  6
CONTINUOUS
100
AcDbVertex
100
AcDb2dVertex
 10
-1062.0
 20
-69.0
 30
0.0
  0
VERTEX
  5
229
100
AcDbEntity
  8
OBJECT
  6
CONTINUOUS
100
AcDbVertex
100
AcDb2dVertex
 10
-538.0
 20
-69.0
 30
0.0
  0
VERTEX
  5
22A
100
AcDbEntity
  8
OBJECT
  6
CONTINUOUS
100
AcDbVertex
100
AcDb2dVertex
 10
-538.0
 20
-99.0
 30
0.0
  0
VERTEX
  5
22B
100
AcDbEntity
  8
OBJECT
  6
CONTINUOUS
100
AcDbVertex
100
AcDb2dVertex
 10
-1062.0
 20
-99.0
 30
0.0
  0
SEQEND
  5
22C
100
AcDbEntity
  8
OBJECT
  6
CONTINUOUS
  0
LINE
  5
22D
100
AcDbEntity
  8
OBJECT
  6
CONTINUOUS
100
AcDbLine
 10
-1060.0
 20
-99.0
 30
0.0
 11
-1060.0
 21
-744.0
 31
0.0
  0
LINE
  5
22E
100
AcDbEntity
  8
OBJECT
  6
CONTINUOUS
100
AcDbLine
 10
-540.0
 20
-99.0
 30
0.0
 11
-540.0
 21
-744.0
 31
0.0
  0
POLYLINE
  5
22F
100
AcDbEntity
  8
OBJECT
  6
CONTINUOUS
100
AcDb2dPolyline
 66
               1
 10
0.0
 20
0.0
 30
0.0
 70
               1
 75
               5
  0
VERTEX
  5
230
100
AcDbEntity
  8
OBJECT
  6
CONTINUOUS
100
AcDbVertex
100
AcDb2dVertex
 10
425.0
 20
-778.99996686060513
 30
0.0
  0
VERTEX
  5
231
100
AcDbEntity
  8
OBJECT
  6
CONTINUOUS
100
AcDbVertex
100
AcDb2dVertex
 10
983.0
 20
-778.99996686060513
 30
0.0
  0
VERTEX
  5
232
100
AcDbEntity
  8
OBJECT
  6
CONTINUOUS
100
AcDbVertex
100
AcDb2dVertex
 10
983.0
 20
-780.99996686060513
 30
0.0
  0
VERTEX
  5
233
100
AcDbEntity
  8
OBJECT
  6
CONTINUOUS
100
AcDbVertex
100
AcDb2dVertex
 10
425.0
 20
-780.99996686060513
 30
0.0
  0
SEQEND
  5
234
100
AcDbEntity
  8
OBJECT
  6
CONTINUOUS
  0
POLYLINE
  5
235
100
AcDbEntity
  8
OBJECT
  6
CONTINUOUS
100
AcDb2dPolyline
 66
               1
 10
0.0
 20
0.0
 30
0.0
 70
               1
 75
               5
  0
VERTEX
  5
236
100
AcDbEntity
  8
OBJECT
  6
CONTINUOUS
100
AcDbVertex
100
AcDb2dVertex
 10
421.0
 20
-68.999966860605127
 30
0.0
  0
VERTEX
  5
237
100
AcDbEntity
  8
OBJECT
  6
CONTINUOUS
100
AcDbVertex
100
AcDb2dVertex
 10
943.0
 20
-68.999966860605127
 30
0.0
  0
VERTEX
  5
238
100
AcDbEntity
  8
OBJECT
  6
CONTINUOUS
100
AcDbVertex
100
AcDb2dVertex
 10
943.0
 20
-98.999966860605127
 30
0.0
  0
VERTEX
  5
239
100
AcDbEntity
  8
OBJECT
  6
CONTINUOUS
100
AcDbVertex
100
AcDb2dVertex
 10
421.0
 20
-98.999966860605127
 30
0.0
  0
SEQEND
  5
23A
100
AcDbEntity
  8
OBJECT
  6
CONTINUOUS
  0
POLYLINE
  5
23B
100
AcDbEntity
  8
OBJECT
  6
CONTINUOUS
100
AcDb2dPolyline
 66
               1
 10
0.0
 20
0.0
 30
0.0
 75
               5
  0
VERTEX
  5
23C
100
AcDbEntity
  8
OBJECT
  6
CONTINUOUS
100
AcDbVertex
100
AcDb2dVertex
 10
943.0
 20
-74.999966860605127
 30
0.0
  0
VERTEX
  5
23D
100
AcDbEntity
  8
OBJECT
  6
CONTINUOUS
100
AcDbVertex
100
AcDb2dVertex
 10
943.0
 20
-74.999966860605127
 30
0.0
  0
VERTEX
  5
23E
100
AcDbEntity
  8
OBJECT
  6
CONTINUOUS
100
AcDbVertex
100
AcDb2dVertex
 10
943.0
 20
-749.99996686060513
 30
0.0
  0
SEQEND
  5
23F
100
AcDbEntity
  8
OBJECT
  6
CONTINUOUS
  0
LINE
  5
240
100
AcDbEntity
  8
OBJECT
  6
CONTINUOUS
100
AcDbLine
 10
423.0
 20
-743.99996686060513
 30
0.0
 11
423.0
 21
-98.999966860605127
 31
0.0
  0
POLYLINE
  5
241
100
AcDbEntity
  8
OBJECT
  6
CONTINUOUS
100
AcDb2dPolyline
 66
               1
 10
0.0
 20
0.0
 30
0.0
 75
               5
  0
VERTEX
  5
242
100
AcDbEntity
  8
OBJECT
  6
CONTINUOUS
100
AcDbVertex
100
AcDb2dVertex
 10
983.0
 20
-773.99996686060513
 30
0.0
  0
VERTEX
  5
243
100
AcDbEntity
  8
OBJECT
  6
CONTINUOUS
100
AcDbVertex
100
AcDb2dVertex
 10
983.0
 20
-778.99996686060513
 30
0.0
  0
VERTEX
  5
244
100
AcDbEntity
  8
OBJECT
  6
CONTINUOUS
100
AcDbVertex
100
AcDb2dVertex
 10
943.0
 20
-778.99996686060513
 30
0.0
  0
VERTEX
  5
245
100
AcDbEntity
  8
OBJECT
  6
CONTINUOUS
100
AcDbVertex
100
AcDb2dVertex
 10
943.0
 20
-68.999966860605127
 30
0.0
  0
VERTEX
  5
246
100
AcDbEntity
  8
OBJECT
  6
CONTINUOUS
100
AcDbVertex
100
AcDb2dVertex
 10
983.0
 20
-68.999966860605127
 30
0.0
  0
VERTEX
  5
247
100
AcDbEntity
  8
OBJECT
  6
CONTINUOUS
100
AcDbVertex
100
AcDb2dVertex
 10
983.0
 20
-743.99996686060513
 30
0.0
  0
SEQEND
  5
248
100
AcDbEntity
  8
OBJECT
  6
CONTINUOUS
  0
LWPOLYLINE
  5
249
100
AcDbEntity
  8
HIDDEN
  6
STYLE_16
100
AcDbPolyline
 90
        5
 70
             129
 10
943.0
 20
-93.999966860605127
 42
-0.414213562373095
 10
954.0
 20
-82.999966860605127
 42
-0.414213562373095
 10
965.0
 20
-93.999966860605127
 42
-0.414213562373095
 10
954.0
 20
-104.99996686060513
 42
-0.414213562373095
 10
943.0
 20
-93.999966860605127
 42
-0.414213562373095
  0
LWPOLYLINE
  5
24A
100
AcDbEntity
  8
HIDDEN
  6
STYLE_16
100
AcDbPolyline
 90
        5
 70
             129
 10
919.5
 20
-262.99996686060513
 42
-0.414213562373095
 10
930.5
 20
-251.99996686060513
 42
-0.414213562373095
 10
941.5
 20
-262.99996686060513
 42
-0.414213562373095
 10
930.5
 20
-273.99996686060513
 42
-0.414213562373095
 10
919.5
 20
-262.99996686060513
 42
-0.414213562373095
  0
POLYLINE
  5
24B
100
AcDbEntity
  8
HIDDEN
  6
STYLE_16
100
AcDb2dPolyline
 66
               1
 10
0.0
 20
0.0
 30
0.0
 75
               5
  0
VERTEX
  5
24C
100
AcDbEntity
  8
HIDDEN
  6
STYLE_16
100
AcDbVertex
100
AcDb2dVertex
 10
926.0
 20
-273.03736686060483
 30
0.0
  0
VERTEX
  5
24D
100
AcDbEntity
  8
HIDDEN
  6
STYLE_16
100
AcDbVertex
100
AcDb2dVertex
 10
926.0
 20
-273.99996686060513
 30
0.0
  0
VERTEX
  5
24E
100
AcDbEntity
  8
HIDDEN
  6
STYLE_16
100
AcDbVertex
100
AcDb2dVertex
 10
646.0
 20
-273.99996686060513
 30
0.0
  0
VERTEX
  5
24F
100
AcDbEntity
  8
HIDDEN
  6
STYLE_16
100
AcDbVertex
100
AcDb2dVertex
 10
456.0
 20
-188.99996686060513
 30
0.0
  0
VERTEX
  5
250
100
AcDbEntity
  8
HIDDEN
  6
STYLE_16
100
AcDbVertex
100
AcDb2dVertex
 10
456.0
 20
-88.999966860605127
 30
0.0
  0
VERTEX
  5
251
100
AcDbEntity
  8
HIDDEN
  6
STYLE_16
100
AcDbVertex
100
AcDb2dVertex
 10
926.0
 20
-88.999966860605127
 30
0.0
  0
VERTEX
  5
252
100
AcDbEntity
  8
HIDDEN
  6
STYLE_16
100
AcDbVertex
100
AcDb2dVertex
 10
926.0
 20
-88.999966860605127
 30
0.0
  0
SEQEND
  5
253
100
AcDbEntity
  8
HIDDEN
  6
STYLE_16
  0
POLYLINE
  5
254
100
AcDbEntity
  8
HIDDEN
  6
STYLE_16
100
AcDb2dPolyline
 66
               1
 10
0.0
 20
0.0
 30
0.0
 75
               5
  0
VERTEX
  5
255
100
AcDbEntity
  8
HIDDEN
  6
STYLE_16
100
AcDbVertex
100
AcDb2dVertex
 10
963.79799999999977
 20
-88.999966860605127
 30
0.0
  0
VERTEX
  5
256
100
AcDbEntity
  8
HIDDEN
  6
STYLE_16
100
AcDbVertex
100
AcDb2dVertex
 10
971.0
 20
-88.999966860605127
 30
0.0
  0
VERTEX
  5
257
100
AcDbEntity
  8
HIDDEN
  6
STYLE_16
100
AcDbVertex
100
AcDb2dVertex
 10
971.0
 20
-268.99996686060513
 30
0.0
  0
VERTEX
  5
258
100
AcDbEntity
  8
HIDDEN
  6
STYLE_16
100
AcDbVertex
100
AcDb2dVertex
 10
939.71950000000015
 20
-268.99996686060513
 30
0.0
  0
SEQEND
  5
259
100
AcDbEntity
  8
HIDDEN
  6
STYLE_16
  0
POLYLINE
  5
25A
100
AcDbEntity
  8
HIDDEN
  6
STYLE_16
100
AcDb2dPolyline
 66
               1
 10
0.0
 20
0.0
 30
0.0
 75
               5
  0
VERTEX
  5
25B
100
AcDbEntity
  8
HIDDEN
  6
STYLE_16
100
AcDbVertex
100
AcDb2dVertex
 10
944.20200000000023
 20
-88.999966860605127
 30
0.0
  0
VERTEX
  5
25C
100
AcDbEntity
  8
HIDDEN
  6
STYLE_16
100
AcDbVertex
100
AcDb2dVertex
 10
911.0
 20
-88.999966860605127
 30
0.0
  0
VERTEX
  5
25D
100
AcDbEntity
  8
HIDDEN
  6
STYLE_16
100
AcDbVertex
100
AcDb2dVertex
 10
911.0
 20
-268.99996686060513
 30
0.0
  0
VERTEX
  5
25E
100
AcDbEntity
  8
HIDDEN
  6
STYLE_16
100
AcDbVertex
100
AcDb2dVertex
 10
921.28049999999985
 20
-268.99996686060513
 30
0.0
  0
SEQEND
  5
25F
100
AcDbEntity
  8
HIDDEN
  6
STYLE_16
  0
LWPOLYLINE
  5
260
100
AcDbEntity
  8
HIDDEN
  6
STYLE_16
100
AcDbPolyline
 90
        5
 70
             129
 10
943.0
 20
-593.99996686060513
 42
-0.414213562373095
 10
954.0
 20
-582.99996686060513
 42
-0.414213562373095
 10
965.0
 20
-593.99996686060513
 42
-0.414213562373095
 10
954.0
 20
-604.99996686060513
 42
-0.414213562373095
 10
943.0
 20
-593.99996686060513
 42
-0.414213562373095
  0
LWPOLYLINE
  5
261
100
AcDbEntity
  8
HIDDEN
  6
STYLE_16
100
AcDbPolyline
 90
        5
 70
             129
 10
919.5
 20
-762.99996686060513
 42
-0.414213562373095
 10
930.5
 20
-751.99996686060513
 42
-0.414213562373095
 10
941.5
 20
-762.99996686060513
 42
-0.414213562373095
 10
930.5
 20
-773.99996686060513
 42
-0.414213562373095
 10
919.5
 20
-762.99996686060513
 42
-0.414213562373095
  0
POLYLINE
  5
262
100
AcDbEntity
  8
HIDDEN
  6
STYLE_16
100
AcDb2dPolyline
 66
               1
 10
0.0
 20
0.0
 30
0.0
 75
               5
  0
VERTEX
  5
263
100
AcDbEntity
  8
HIDDEN
  6
STYLE_16
100
AcDbVertex
100
AcDb2dVertex
 10
926.0
 20
-773.03736686060483
 30
0.0
  0
VERTEX
  5
264
100
AcDbEntity
  8
HIDDEN
  6
STYLE_16
100
AcDbVertex
100
AcDb2dVertex
 10
926.0
 20
-773.99996686060513
 30
0.0
  0
VERTEX
  5
265
100
AcDbEntity
  8
HIDDEN
  6
STYLE_16
100
AcDbVertex
100
AcDb2dVertex
 10
646.0
 20
-773.99996686060513
 30
0.0
  0
VERTEX
  5
266
100
AcDbEntity
  8
HIDDEN
  6
STYLE_16
100
AcDbVertex
100
AcDb2dVertex
 10
456.0
 20
-688.99996686060513
 30
0.0
  0
VERTEX
  5
267
100
AcDbEntity
  8
HIDDEN
  6
STYLE_16
100
AcDbVertex
100
AcDb2dVertex
 10
456.0
 20
-588.99996686060513
 30
0.0
  0
VERTEX
  5
268
100
AcDbEntity
  8
HIDDEN
  6
STYLE_16
100
AcDbVertex
100
AcDb2dVertex
 10
926.0
 20
-588.99996686060513
 30
0.0
  0
VERTEX
  5
269
100
AcDbEntity
  8
HIDDEN
  6
STYLE_16
100
AcDbVertex
100
AcDb2dVertex
 10
926.0
 20
-588.99996686060513
 30
0.0
  0
SEQEND
  5
26A
100
AcDbEntity
  8
HIDDEN
  6
STYLE_16
  0
POLYLINE
  5
26B
100
AcDbEntity
  8
HIDDEN
  6
STYLE_16
100
AcDb2dPolyline
 66
               1
 10
0.0
 20
0.0
 30
0.0
 75
               5
  0
VERTEX
  5
26C
100
AcDbEntity
  8
HIDDEN
  6
STYLE_16
100
AcDbVertex
100
AcDb2dVertex
 10
963.79799999999977
 20
-588.99996686060513
 30
0.0
  0
VERTEX
  5
26D
100
AcDbEntity
  8
HIDDEN
  6
STYLE_16
100
AcDbVertex
100
AcDb2dVertex
 10
971.0
 20
-588.99996686060513
 30
0.0
  0
VERTEX
  5
26E
100
AcDbEntity
  8
HIDDEN
  6
STYLE_16
100
AcDbVertex
100
AcDb2dVertex
 10
971.0
 20
-768.99996686060513
 30
0.0
  0
VERTEX
  5
26F
100
AcDbEntity
  8
HIDDEN
  6
STYLE_16
100
AcDbVertex
100
AcDb2dVertex
 10
939.71950000000015
 20
-768.99996686060513
 30
0.0
  0
SEQEND
  5
270
100
AcDbEntity
  8
HIDDEN
  6
STYLE_16
  0
POLYLINE
  5
271
100
AcDbEntity
  8
HIDDEN
  6
STYLE_16
100
AcDb2dPolyline
 66
               1
 10
0.0
 20
0.0
 30
0.0
 75
               5
  0
VERTEX
  5
272
100
AcDbEntity
  8
HIDDEN
  6
STYLE_16
100
AcDbVertex
100
AcDb2dVertex
 10
944.20200000000023
 20
-588.99996686060513
 30
0.0
  0
VERTEX
  5
273
100
AcDbEntity
  8
HIDDEN
  6
STYLE_16
100
AcDbVertex
100
AcDb2dVertex
 10
911.0
 20
-588.99996686060513
 30
0.0
  0
VERTEX
  5
274
100
AcDbEntity
  8
HIDDEN
  6
STYLE_16
100
AcDbVertex
100
AcDb2dVertex
 10
911.0
 20
-768.99996686060513
 30
0.0
  0
VERTEX
  5
275
100
AcDbEntity
  8
HIDDEN
  6
STYLE_16
100
AcDbVertex
100
AcDb2dVertex
 10
921.28049999999985
 20
-768.99996686060513
 30
0.0
  0
SEQEND
  5
276
100
AcDbEntity
  8
HIDDEN
  6
STYLE_16
  0
POLYLINE
  5
277
100
AcDbEntity
  8
OBJECT
  6
CONTINUOUS
100
AcDb2dPolyline
 66
               1
 10
0.0
 20
0.0
 30
0.0
 70
               1
 75
               5
  0
VERTEX
  5
278
100
AcDbEntity
  8
OBJECT
  6
CONTINUOUS
100
AcDbVertex
100
AcDb2dVertex
 10
-1060.0
 20
862.0
 30
0.0
  0
VERTEX
  5
279
100
AcDbEntity
  8
OBJECT
  6
CONTINUOUS
100
AcDbVertex
100
AcDb2dVertex
 10
-540.0
 20
862.0
 30
0.0
  0
VERTEX
  5
27A
100
AcDbEntity
  8
OBJECT
  6
CONTINUOUS
100
AcDbVertex
100
AcDb2dVertex
 10
-540.0
 20
822.0
 30
0.0
  0
VERTEX
  5
27B
100
AcDbEntity
  8
OBJECT
  6
CONTINUOUS
100
AcDbVertex
100
AcDb2dVertex
 10
-1060.0
 20
822.0
 30
0.0
  0
SEQEND
  5
27C
100
AcDbEntity
  8
OBJECT
  6
CONTINUOUS
  0
LWPOLYLINE
  5
27D
100
AcDbEntity
  8
OBJECT
  6
CONTINUOUS
100
AcDbPolyline
 90
        6
 70
             129
 10
-1060.0
 20
822.0
 10
-540.0
 20
822.0
 10
-540.0
 20
320.0
 42
-0.414213562373095
 10
-558.0
 20
302.0
 10
-1042.0
 20
302.0
 42
-0.414213562373095
 10
-1060.0
 20
320.0
  0
LWPOLYLINE
  5
27E
100
AcDbEntity
  8
OBJECT
  6
CONTINUOUS
100
AcDbPolyline
 90
        6
 70
             129
 10
-1062.0
 20
822.0
 10
-538.0
 20
822.0
 10
-538.0
 20
320.0
 42
-0.414213562373095
 10
-558.0
 20
300.0
 10
-1042.0
 20
300.0
 42
-0.414213562373095
 10
-1062.0
 20
320.0
  0
POLYLINE
  5
27F
100
AcDbEntity
  8
OBJECT
  6
CONTINUOUS
100
AcDb2dPolyline
 66
               1
 10
0.0
 20
0.0
 30
0.0
 70
               1
 75
               5
  0
VERTEX
  5
280
100
AcDbEntity
  8
OBJECT
  6
CONTINUOUS
100
AcDbVertex
100
AcDb2dVertex
 10
-1037.0
 20
786.0
 30
0.0
  0
VERTEX
  5
281
100
AcDbEntity
  8
OBJECT
  6
CONTINUOUS
100
AcDbVertex
100
AcDb2dVertex
 10
-1017.0
 20
806.0
 30
0.0
  0
VERTEX
  5
282
100
AcDbEntity
  8
OBJECT
  6
CONTINUOUS
100
AcDbVertex
100
AcDb2dVertex
 10
-583.0
 20
806.0
 30
0.0
  0
VERTEX
  5
283
100
AcDbEntity
  8
OBJECT
  6
CONTINUOUS
100
AcDbVertex
100
AcDb2dVertex
 10
-563.0
 20
786.0
 30
0.0
  0
VERTEX
  5
284
100
AcDbEntity
  8
OBJECT
  6
CONTINUOUS
100
AcDbVertex
100
AcDb2dVertex
 10
-563.0
 20
352.0
 30
0.0
  0
VERTEX
  5
285
100
AcDbEntity
  8
OBJECT
  6
CONTINUOUS
100
AcDbVertex
100
AcDb2dVertex
 10
-583.0
 20
332.0
 30
0.0
  0
VERTEX
  5
286
100
AcDbEntity
  8
OBJECT
  6
CONTINUOUS
100
AcDbVertex
100
AcDb2dVertex
 10
-1017.0
 20
332.0
 30
0.0
  0
VERTEX
  5
287
100
AcDbEntity
  8
OBJECT
  6
CONTINUOUS
100
AcDbVertex
100
AcDb2dVertex
 10
-1037.0
 20
352.0
 30
0.0
  0
SEQEND
  5
288
100
AcDbEntity
  8
OBJECT
  6
CONTINUOUS
  0
POLYLINE
  5
289
100
AcDbEntity
  8
OBJECT
  6
CONTINUOUS
100
AcDb2dPolyline
 66
               1
 10
0.0
 20
0.0
 30
0.0
 75
               5
  0
VERTEX
  5
28A
100
AcDbEntity
  8
OBJECT
  6
CONTINUOUS
100
AcDbVertex
100
AcDb2dVertex
 10
-1037.0
 20
772.0
 30
0.0
  0
VERTEX
  5
28B
100
AcDbEntity
  8
OBJECT
  6
CONTINUOUS
100
AcDbVertex
100
AcDb2dVertex
 10
-1037.0
 20
772.0
 30
0.0
  0
VERTEX
  5
28C
100
AcDbEntity
  8
OBJECT
  6
CONTINUOUS
100
AcDbVertex
100
AcDb2dVertex
 10
-1037.0
 20
822.0
 30
0.0
  0
VERTEX
  5
28D
100
AcDbEntity
  8
OBJECT
  6
CONTINUOUS
100
AcDbVertex
100
AcDb2dVertex
 10
-1035.0
 20
822.0
 30
0.0
  0
VERTEX
  5
28E
100
AcDbEntity
  8
OBJECT
  6
CONTINUOUS
100
AcDbVertex
100
AcDb2dVertex
 10
-1035.0
 20
788.0
 30
0.0
  0
SEQEND
  5
28F
100
AcDbEntity
  8
OBJECT
  6
CONTINUOUS
  0
POLYLINE
  5
290
100
AcDbEntity
  8
OBJECT
  6
CONTINUOUS
100
AcDb2dPolyline
 66
               1
 10
0.0
 20
0.0
 30
0.0
 75
               5
  0
VERTEX
  5
291
100
AcDbEntity
  8
OBJECT
  6
CONTINUOUS
100
AcDbVertex
100
AcDb2dVertex
 10
-565.0
 20
788.0
 30
0.0
  0
VERTEX
  5
292
100
AcDbEntity
  8
OBJECT
  6
CONTINUOUS
100
AcDbVertex
100
AcDb2dVertex
 10
-565.0
 20
822.0
 30
0.0
  0
VERTEX
  5
293
100
AcDbEntity
  8
OBJECT
  6
CONTINUOUS
100
AcDbVertex
100
AcDb2dVertex
 10
-563.0
 20
822.0
 30
0.0
  0
VERTEX
  5
294
100
AcDbEntity
  8
OBJECT
  6
CONTINUOUS
100
AcDbVertex
100
AcDb2dVertex
 10
-563.0
 20
772.0
 30
0.0
  0
VERTEX
  5
295
100
AcDbEntity
  8
OBJECT
  6
CONTINUOUS
100
AcDbVertex
100
AcDb2dVertex
 10
-563.0
 20
772.0
 30
0.0
  0
SEQEND
  5
296
100
AcDbEntity
  8
OBJECT
  6
CONTINUOUS
  0
INSERT
  5
297
100
AcDbEntity
  8
OBJECT
100
AcDbBlockReference
  2
*U8
 10
0.0
 20
19.999999999999996
 30
0.0
  0
INSERT
  5
298
100
AcDbEntity
  8
OBJECT
100
AcDbBlockReference
  2
*U9
 10
0.0
 20
19.999999999999996
 30
0.0
  0
INSERT
  5
299
100
AcDbEntity
  8
OBJECT
100
AcDbBlockReference
  2
*U10
 10
0.0
 20
19.999999999999996
 30
0.0
  0
INSERT
  5
29A
100
AcDbEntity
  8
OBJECT
100
AcDbBlockReference
  2
*U11
 10
0.0
 20
19.999999999999996
 30
0.0
  0
LWPOLYLINE
  5
29B
100
AcDbEntity
  8
OBJECT
  6
CONTINUOUS
100
AcDbPolyline
 90
        9
 70
             129
 10
-520.0
 20
831.56155281280894
 42
-0.3441507314089108
 10
-521.51492874992732
 20
829.62126781251823
 10
-540.0
 20
825.0
 10
-540.0
 20
862.0
 10
-620.0
 20
862.0
 10
-615.37873218748177
 20
880.48507125007268
 42
-0.3441507314088954
 10
-613.43844718719106
 20
882.0
 10
-535.0
 20
882.0
 42
-0.414213562373095
 10
-520.0
 20
867.0
  0
LWPOLYLINE
  5
29C
100
AcDbEntity
  8
OBJECT
  6
CONTINUOUS
100
AcDbPolyline
 90
        9
 70
             129
 10
-1080.0
 20
831.56155281280894
 42
0.34415073140888
 10
-1078.4850712500727
 20
829.62126781251823
 10
-1060.0
 20
825.0
 10
-1060.0
 20
862.0
 10
-980.0
 20
862.0
 10
-984.62126781251823
 20
880.48507125007268
 42
0.3441507314089229
 10
-986.56155281280894
 20
882.0
 10
-1065.0
 20
882.0
 42
0.414213562373095
 10
-1080.0
 20
867.0
  0
LWPOLYLINE
  5
29D
100
AcDbEntity
  8
OBJECT
  6
CONTINUOUS
100
AcDbPolyline
 90
       14
 70
             128
 10
-1062.0
 20
381.5
 10
-1078.4850999999999
 20
377.37870000000021
 10
-1078.4850999999999
 20
377.37870000000021
 10
-1078.4850999999999
 20
377.37870000000021
 42
0.3441753471598577
 10
-1080.0
 20
375.4384
 10
-1080.0
 20
297.0
 10
-1080.0
 20
297.0
 10
-1080.0
 20
297.0
 42
0.414213562373095
 10
-1065.0
 20
282.0
 10
-1029.5616
 20
282.0
 10
-1029.5616
 20
282.0
 10
-1029.5616
 20
282.0
 42
0.3441434864435067
 10
-1027.6212999999998
 20
283.51490000000013
 10
-1023.5
 20
300.0
  0
LWPOLYLINE
  5
29E
100
AcDbEntity
  8
OBJECT
  6
CONTINUOUS
100
AcDbPolyline
 90
       14
 70
             128
 10
-538.0
 20
381.5
 10
-521.51490000000013
 20
377.37870000000021
 10
-521.51490000000013
 20
377.37870000000021
 10
-521.51490000000013
 20
377.37870000000021
 42
-0.3441434864435067
 10
-520.0
 20
375.4384
 10
-520.0
 20
297.0
 10
-520.0
 20
297.0
 10
-520.0
 20
297.0
 42
-0.414213562373095
 10
-535.0
 20
282.0
 10
-570.4384
 20
282.0
 10
-570.4384
 20
282.0
 10
-570.4384
 20
282.0
 42
-0.3441753471598302
 10
-572.37870000000021
 20
283.51490000000013
 10
-576.5
 20
300.0
  0
DIMENSION
  5
29F
100
AcDbEntity
  8
DIMENTION
  6
CONTINUOUS
100
AcDbDimension
  2
*D12
 10
300.0
 20
-88.999966860605127
 30
0.0
 11
300.0
 21
-338.99996686060513
 31
0.0
  3
CAD
100
AcDbAlignedDimension
 13
456.0
 23
-588.99996686060513
 33
0.0
 14
456.0
 24
-88.999966860605127
 34
0.0
 50
90.0
100
AcDbRotatedDimension
1001
ACAD
1000
DSTYLE
1002
{
1070
             271
1070
               0
1070
             340
1005
34
1070
               3
1000
<>（可動範囲
1070
             147
1040
0.9999999999999999
1002
}
  0
DIMENSION
  5
2A0
100
AcDbEntity
  8
DIMENTION
  6
CONTINUOUS
100
AcDbDimension
  2
*D13
 10
300.0
 20
-88.999966860605127
 30
0.0
 11
299.0
 21
-30.000000000000004
 31
0.0
 70
             128
  3
CAD
100
AcDbAlignedDimension
 13
410.0
 23
-68.999966860605127
 33
0.0
 14
456.0
 24
-88.999966860605127
 34
0.0
 50
90.0
100
AcDbRotatedDimension
1001
ACAD
1000
DSTYLE
1002
{
1070
             271
1070
               0
1070
             340
1005
34
1070
             174
1070
               0
1070
             147
1040
0.9999999999999999
1002
}
  0
DIMENSION
  5
2A1
100
AcDbEntity
  8
DIMENTION
  6
CONTINUOUS
100
AcDbDimension
  2
*D14
 10
-1200.0
 20
822.0
 30
0.0
 11
-1201.0
 21
562.0
 31
0.0
 70
             128
  1
519 (内寸)
  3
CAD
100
AcDbAlignedDimension
 13
-1042.0
 23
302.0
 33
0.0
 14
-1062.0
 24
822.0
 34
0.0
 50
90.0
100
AcDbRotatedDimension
1001
ACAD
1000
DSTYLE
1002
{
1070
             271
1070
               0
1070
             340
1005
34
1070
             147
1040
0.9999999999999999
1002
}
  0
DIMENSION
  5
2A2
100
AcDbEntity
  8
DIMENTION
  6
CONTINUOUS
100
AcDbDimension
  2
*D15
 10
-1200.0
 20
822.0
 30
0.0
 11
-1201.0
 21
900.00000000000011
 31
0.0
 70
             128
  3
CAD
100
AcDbAlignedDimension
 13
-1060.0
 23
862.0
 33
0.0
 14
-1062.0
 24
822.0
 34
0.0
 50
90.0
100
AcDbRotatedDimension
1001
ACAD
1000
DSTYLE
1002
{
1070
             271
1070
               0
1070
             340
1005
34
1070
             174
1070
               0
1070
             147
1040
0.9999999999999999
1002
}
  0
DIMENSION
  5
2A3
100
AcDbEntity
  8
DIMENTION
  6
CONTINUOUS
100
AcDbDimension
  2
*D16
 10
-400.0
 20
302.0
 30
0.0
 11
-400.0
 21
582.0
 31
0.0
  3
CAD
100
AcDbAlignedDimension
 13
-540.0
 23
862.0
 33
0.0
 14
-558.0
 24
302.0
 34
0.0
 50
90.0
100
AcDbRotatedDimension
1001
ACAD
1000
DSTYLE
1002
{
1070
             271
1070
               0
1070
             340
1005
34
1070
             147
1040
0.9999999999999999
1002
}
  0
DIMENSION
  5
2A4
100
AcDbEntity
  8
DIMENTION
  6
CONTINUOUS
100
AcDbDimension
  2
*D17
 10
-1060.0
 20
200.0
 30
0.0
 11
-800.0
 21
200.0
 31
0.0
  1
518 (内寸)
  3
CAD
100
AcDbAlignedDimension
 13
-540.0
 23
320.0
 33
0.0
 14
-1060.0
 24
320.0
 34
0.0
100
AcDbRotatedDimension
1001
ACAD
1000
DSTYLE
1002
{
1070
             271
1070
               0
1070
             340
1005
34
1070
             147
1040
0.9999999999999999
1002
}
  0
DIMENSION
  5
2A5
100
AcDbEntity
  8
DIMENTION
  6
CONTINUOUS
100
AcDbDimension
  2
*D18
 10
-540.0
 20
1000.0000000000001
 30
0.0
 11
-800.0
 21
1000.0000000000001
 31
0.0
  3
CAD
100
AcDbAlignedDimension
 13
-1060.0
 23
862.0
 33
0.0
 14
-540.0
 24
862.0
 34
0.0
100
AcDbRotatedDimension
1001
ACAD
1000
DSTYLE
1002
{
1070
             271
1070
               0
1070
             340
1005
34
1070
             147
1040
0.9999999999999999
1002
}
  0
DIMENSION
  5
2A6
100
AcDbEntity
  8
DIMENTION
  6
CONTINUOUS
100
AcDbDimension
  2
*D19
 10
-400.0
 20
882.0
 30
0.0
 11
-399.0
 21
920.00000000000011
 31
0.0
 70
             128
  3
CAD
100
AcDbAlignedDimension
 13
-540.0
 23
862.0
 33
0.0
 14
-520.0
 24
882.0
 34
0.0
 50
90.0
100
AcDbRotatedDimension
1001
ACAD
1000
DSTYLE
1002
{
1070
             271
1070
               0
1070
             340
1005
34
1070
             174
1070
               0
1070
             147
1040
0.9999999999999999
1002
}
  0
DIMENSION
  5
2A7
100
AcDbEntity
  8
DIMENTION
  6
CONTINUOUS
100
AcDbDimension
  2
*D20
 10
-540.0
 20
1000.0000000000001
 30
0.0
 11
-480.0
 21
1001.0000000000001
 31
0.0
 70
             128
  3
CAD
100
AcDbAlignedDimension
 13
-520.0
 23
882.0
 33
0.0
 14
-540.0
 24
862.0
 34
0.0
100
AcDbRotatedDimension
1001
ACAD
1000
DSTYLE
1002
{
1070
             271
1070
               0
1070
             340
1005
34
1070
             174
1070
               0
1070
             147
1040
0.9999999999999999
1002
}
  0
POINT
  5
2A8
100
AcDbEntity
  8
DIMENTION
  6
CONTINUOUS
100
AcDbPoint
 10
969.0
 20
-849.99996686060513
 30
0.0
  0
MTEXT
  5
2A9
100
AcDbEntity
  8
DIMENTION
100
AcDbMText
 10
1300.0
 20
-1100.0
 30
0.0
 40
33.866666666666667
 41
0.0
 71
               1
 72
               1
  1
注）指示なき寸法公差は±5とする
  7
________
  0
DIMENSION
  5
2AA
100
AcDbEntity
  8
DIMENTION
100
AcDbDimension
  2
*D21
 10
-1080.0
 20
1100.0
 30
0.0
 11
-800.0
 21
1100.0
 31
0.0
  3
CAD
100
AcDbAlignedDimension
 13
-520.0
 23
867.0
 33
0.0
 14
-1080.0
 24
867.0
 34
0.0
100
AcDbRotatedDimension
1001
ACAD
1000
DSTYLE
1002
{
1070
             340
1005
34
1070
             147
1040
0.9999999962747097
1002
}
  0
DIMENSION
  5
2AB
100
AcDbEntity
  8
DIMENTION
100
AcDbDimension
  2
*D22
 10
-300.0
 20
882.0
 30
0.0
 11
-300.0
 21
582.0
 31
0.0
  3
CAD
100
AcDbAlignedDimension
 13
-535.0
 23
282.0
 33
0.0
 14
-535.0
 24
882.0
 34
0.0
 50
90.0
100
AcDbRotatedDimension
1001
ACAD
1000
DSTYLE
1002
{
1070
             340
1005
34
1070
             147
1040
0.9999999962747097
1002
}
  0
ENDSEC
  0
SECTION
  2
OBJECTS
  0
DICTIONARY
  5
19
100
AcDbDictionary
  3
ACAD_GROUP
350
1A
  3
ACAD_MLINESTYLE
350
1B
  0
DICTIONARY
  5
1A
102
{ACAD_REACTORS
330
19
102
}
100
AcDbDictionary
  0
DICTIONARY
  5
1B
102
{ACAD_REACTORS
330
19
102
}
100
AcDbDictionary
  3
STANDARD
350
1C
  0
MLINESTYLE
  5
1C
102
{ACAD_REACTORS
330
1B
102
}
100
AcDbMlineStyle
  2
STANDARD
 70
               0
  3

 62
               0
 51
90.0
 52
90.0
 71
               2
 49
0.5
 62
             256
  6
BYLAYER
 49
-0.5
 62
             256
  6
BYLAYER
  0
ENDSEC
  0
EOF
