  0
SECTION
  2
HEADER
  9
$ACADVER
  1
AC1009
  9
$DWGCODEPAGE
  3
dos932
  9
$INSBASE
 10
0.0
 20
0.0
 30
0.0
  9
$EXTMIN
 10
-2025.3999999999999
 20
-1388.9999999999998
 30
0.0
  9
$EXTMAX
 10
2024.5999999999999
 20
1330.9999999999998
 30
0.0
  9
$LIMMIN
 10
0.0
 20
0.0
  9
$LIMMAX
 10
0.0
 20
0.0
  9
$ORTHOMODE
 70
               0
  9
$REGENMODE
 70
               1
  9
$FILLMODE
 70
               1
  9
$QTEXTMODE
 70
               0
  9
$MIRRTEXT
 70
               1
  9
$DRAGMODE
 70
               2
  9
$LTSCALE
 40
254.0
  9
$OSMODE
 70
               0
  9
$ATTMODE
 70
               1
  9
$TEXTSIZE
 40
0.2
  9
$TRACEWID
 40
1.0
  9
$TEXTSTYLE
  7
STANDARD
  9
$CLAYER
  8
OBJECT
  9
$CELTYPE
  6
CONTINUOUS
  9
$CECOLOR
 62
             256
  9
$DIMSCALE
 40
1.0
  9
$DIMASZ
 40
31.75
  9
$DIMEXO
 40
9.9999999999999982
  9
$DIMDLI
 40
7.9999999999999991
  9
$DIMRND
 40
0.0
  9
$DIMDLE
 40
0.0
  9
$DIMEXE
 40
19.999999999999996
  9
$DIMTP
 40
0.0
  9
$DIMTM
 40
0.0
  9
$DIMTXT
 40
29.104166666666664
  9
$DIMCEN
 40
0.0
  9
$DIMTSZ
 40
0.0
  9
$DIMTOL
 70
               0
  9
$DIMLIM
 70
               0
  9
$DIMTIH
 70
               0
  9
$DIMTOH
 70
               0
  9
$DIMSE1
 70
               0
  9
$DIMSE2
 70
               0
  9
$DIMTAD
 70
               1
  9
$DIMZIN
 70
              11
  9
$DIMBLK
  1
VW_OPENARROW
  9
$DIMASO
 70
               1
  9
$DIMSHO
 70
               1
  9
$DIMPOST
  1
<>
  9
$DIMAPOST
  1
[]
  9
$DIMALT
 70
               0
  9
$DIMALTD
 70
               1
  9
$DIMALTF
 40
1.0
  9
$DIMLFAC
 40
1.0
  9
$DIMTOFL
 70
               1
  9
$DIMTVP
 40
0.0
  9
$DIMTIX
 70
               1
  9
$DIMSOXD
 70
               0
  9
$DIMSAH
 70
               0
  9
$DIMBLK1
  1

  9
$DIMBLK2
  1

  9
$DIMSTYLE
  2
CAD
  9
$DIMCLRD
 70
               0
  9
$DIMCLRE
 70
               0
  9
$DIMCLRT
 70
               0
  9
$DIMTFAC
 40
0.7
  9
$DIMGAP
 40
0.099999999627471
  9
$LUNITS
 70
               2
  9
$LUPREC
 70
               4
  9
$AXISMODE
 70
               0
  9
$AXISUNIT
 10
0.0
 20
0.0
  9
$SKETCHINC
 40
0.1
  9
$FILLETRAD
 40
0.0
  9
$AUNITS
 70
               0
  9
$AUPREC
 70
               0
  9
$MENU
  1
acad
  9
$ELEVATION
 40
0.0
  9
$PELEVATION
 40
0.0
  9
$THICKNESS
 40
0.0
  9
$LIMCHECK
 70
               0
  9
$BLIPMODE
 70
               0
  9
$CHAMFERA
 40
0.0
  9
$CHAMFERB
 40
0.0
  9
$SKPOLY
 70
               0
  9
$TDCREATE
 40
2456380.715925926
  9
$TDUPDATE
 40
2456380.715925926
  9
$TDINDWG
 40
0.0000000000
  9
$TDUSRTIMER
 40
0.0000000000
  9
$USRTIMER
 70
               1
  9
$ANGBASE
 50
0.0
  9
$ANGDIR
 70
               0
  9
$PDMODE
 70
               1
  9
$PDSIZE
 40
-2.0
  9
$PLINEWID
 40
0.0
  9
$COORDS
 70
               0
  9
$SPLFRAME
 70
               0
  9
$SPLINETYPE
 70
               6
  9
$SPLINESEGS
 70
               8
  9
$ATTDIA
 70
               0
  9
$ATTREQ
 70
               1
  9
$HANDLING
 70
               1
  9
$HANDSEED
  5
59F
  9
$SURFTAB1
 70
               6
  9
$SURFTAB2
 70
               6
  9
$SURFTYPE
 70
               6
  9
$SURFU
 70
               6
  9
$SURFV
 70
               6
  9
$UCSNAME
  2

  9
$UCSORG
 10
0.0
 20
0.0
 30
0.0
  9
$UCSXDIR
 10
1.0
 20
0.0
 30
0.0
  9
$UCSYDIR
 10
0.0
 20
1.0
 30
0.0
  9
$PUCSNAME
  2

  9
$PUCSORG
 10
0.0
 20
0.0
 30
0.0
  9
$PUCSXDIR
 10
1.0
 20
0.0
 30
0.0
  9
$PUCSYDIR
 10
0.0
 20
1.0
 30
0.0
  9
$USERI1
 70
               0
  9
$USERI2
 70
               0
  9
$USERI3
 70
               0
  9
$USERI4
 70
               0
  9
$USERI5
 70
               0
  9
$USERR1
 40
0.0
  9
$USERR2
 40
0.0
  9
$USERR3
 40
0.0
  9
$USERR4
 40
0.0
  9
$USERR5
 40
0.0
  9
$WORLDVIEW
 70
               1
  9
$SHADEDGE
 70
               3
  9
$SHADEDIF
 70
              70
  9
$TILEMODE
 70
               1
  9
$MAXACTVP
 70
              16
  9
$PINSBASE
 10
0.0
 20
0.0
 30
0.0
  9
$PLIMCHECK
 70
               0
  9
$PEXTMIN
 10
1.0000000000000000E+20
 20
1.0000000000000000E+20
 30
1.0000000000000000E+20
  9
$PEXTMAX
 10
-1.0000000000000000E+20
 20
-1.0000000000000000E+20
 30
-1.0000000000000000E+20
  9
$PLIMMIN
 10
0.0
 20
0.0
  9
$PLIMMAX
 10
12.0
 20
9.0
  9
$UNITMODE
 70
               0
  9
$VISRETAIN
 70
               0
  9
$PLINEGEN
 70
               1
  9
$PSLTSCALE
 70
               0
  9
$TREEDEPTH
 70
            3020
  9
$DWGCODEPAGE
  3
dos932
  0
ENDSEC
  0
SECTION
  2
TABLES
  0
TABLE
  2
VPORT
 70
               1
  0
VPORT
  2
*ACTIVE
 70
               0
 10
0.0
 20
0.0
 11
1.0
 21
1.0
 12
-0.3999999999998636
 22
-29.0
 13
0.0
 23
0.0
 14
1.0
 24
1.0
 15
0.0
 25
0.0
 16
0.0
 26
0.0
 36
1.0
 17
0.0
 27
0.0
 37
0.0
 40
2719.9999999999995
 41
0.688564
 42
50.0
 43
0.0
 44
0.0
 50
0.0
 51
0.0
 71
               0
 72
             100
 73
               1
 74
               1
 75
               0
 76
               0
 77
               0
 78
               0
  0
ENDTAB
  0
TABLE
  2
LTYPE
 70
              17
  0
LTYPE
  2
CONTINUOUS
 70
              64
  3
Solid line
 72
              65
 73
               0
 40
0.0
  0
LTYPE
  2
STYLE_01
 70
               0
  3

 72
              65
 73
               2
 40
0.0375109361329834
 49
0.0236220472440945
 49
-0.0138888888888889
  0
LTYPE
  2
STYLE_02
 70
               0
  3

 72
              65
 73
               6
 40
0.6527777777777778
 49
0.4027777777777778
 49
-0.0555555555555555
 49
0.0416666666666667
 49
-0.0555555555555556
 49
0.0416666666666666
 49
-0.0555555555555556
  0
LTYPE
  2
STYLE_03
 70
               0
  3

 72
              65
 73
               4
 40
0.5277777777777778
 49
0.4027777777777778
 49
-0.0416666666666666
 49
0.0416666666666667
 49
-0.0416666666666667
  0
LTYPE
  2
STYLE_04
 70
               0
  3

 72
              65
 73
               2
 40
0.1388888888888889
 49
0.0694444444444444
 49
-0.0694444444444444
  0
LTYPE
  2
STYLE_05
 70
               0
  3

 72
              65
 73
               2
 40
0.047244094488189
 49
0.0236220472440945
 49
-0.0236220472440945
  0
LTYPE
  2
STYLE_06
 70
               0
  3

 72
              65
 73
               2
 40
0.047244094488189
 49
0.0236220472440945
 49
-0.0236220472440945
  0
LTYPE
  2
STYLE_07
 70
               0
  3

 72
              65
 73
               2
 40
0.047244094488189
 49
0.0236220472440945
 49
-0.0236220472440945
  0
LTYPE
  2
STYLE_08
 70
               0
  3

 72
              65
 73
               2
 40
0.047244094488189
 49
0.0236220472440945
 49
-0.0236220472440945
  0
LTYPE
  2
STYLE_09
 70
               0
  3

 72
              65
 73
               6
 40
1.5157480314960627
 49
1.1811023622047243
 49
-0.0590551181102361
 49
0.078740157480315
 49
-0.0590551181102361
 49
0.078740157480315
 49
-0.0590551181102361
  0
LTYPE
  2
STYLE_10
 70
               0
  3

 72
              65
 73
               6
 40
1.1875
 49
0.75
 49
-0.0555572509765625
 49
0.138885498046875
 49
-0.0555572509765625
 49
0.125
 49
-0.0625
  0
LTYPE
  2
STYLE_11
 70
               0
  3

 72
              65
 73
               4
 40
1.5
 49
0.0833282470703125
 49
-0.0555572509765625
 49
1.3055572509765625
 49
-0.0555572509765625
  0
LTYPE
  2
STYLE_12
 70
               0
  3

 72
              65
 73
               4
 40
1.111114501953125
 49
0.7916717529296875
 49
-0.0833282470703125
 49
0.125
 49
-0.111114501953125
  0
LTYPE
  2
STYLE_13
 70
               0
  3

 72
              65
 73
               4
 40
2.1944427490234375
 49
1.875
 49
-0.0833282470703125
 49
0.125
 49
-0.111114501953125
  0
LTYPE
  2
STYLE_14
 70
               0
  3

 72
              65
 73
               2
 40
0.138885498046875
 49
0.0972137451171875
 49
-0.0416717529296875
  0
LTYPE
  2
STYLE_15
 70
               0
  3

 72
              65
 73
               2
 40
0.25
 49
0.2083282470703125
 49
-0.0416717529296875
  0
LTYPE
  2
STYLE_16
 70
               0
  3

 72
              65
 73
               6
 40
1.1944427490234375
 49
0.65277099609375
 49
-0.083343505859375
 49
0.125
 49
-0.111114501953125
 49
0.125
 49
-0.0972137451171875
  0
ENDTAB
  0
TABLE
  2
LAYER
 70
               9
  0
LAYER
  2
0
 70
               0
 62
               7
  6
CONTINUOUS
  0
LAYER
  2
DEFPOINTS
 70
               0
 62
               7
  6
CONTINUOUS
  0
LAYER
  2
OBJECT
 70
               0
 62
               7
  6
CONTINUOUS
  0
LAYER
  2
DIMENTION
 70
               0
 62
               7
  6
CONTINUOUS
  0
LAYER
  2
CENTER
 70
               0
 62
               7
  6
STYLE_03
  0
LAYER
  2
HIDDEN
 70
               0
 62
               7
  6
STYLE_04
  0
LAYER
  2
FRAME
 70
               0
 62
               7
  6
CONTINUOUS
  0
LAYER
  2
OUTLINE
 70
               0
 62
               7
  6
STYLE_02
  0
LAYER
  2
TEXT
 70
               0
 62
               7
  6
CONTINUOUS
  0
ENDTAB
  0
TABLE
  2
STYLE
 70
               3
  0
STYLE
  2
STANDARD
 70
               0
 40
0.0
 41
1.0
 50
0.0
 71
               0
 42
0.0
  3
txt
  4
BIGFONT.SHX
  0
STYLE
  2
ARIAL
 70
               0
 40
0.0
 41
1.0
 50
0.0
 71
               0
 42
0.0
  3
Arial
  4

  0
STYLE
  2
________
 70
               0
 40
0.0
 41
1.0
 50
0.0
 71
               0
 42
0.0
  3
ＭＳ Ｐゴシック
  4

  0
ENDTAB
  0
TABLE
  2
VIEW
 70
               0
  0
ENDTAB
  0
TABLE
  2
UCS
 70
               0
  0
ENDTAB
  0
TABLE
  2
APPID
 70
               1
  0
APPID
  2
ACAD
 70
               0
  0
ENDTAB
  0
TABLE
  2
DIMSTYLE
 70
               2
  0
DIMSTYLE
  2
STANDARD
 70
               0
  3

  4

  5

  6

  7

 40
1.0
 41
0.18
 42
0.0625
 43
0.38
 44
0.18
 45
0.0
 46
0.0
 47
0.0
 48
0.0
 71
               0
 72
               0
 73
               1
 74
               1
 75
               0
 76
               0
 77
               0
 78
               0
140
0.18
141
0.09
142
0.0
143
25.399999999999999
144
1.0
145
0.0
146
1.0
147
0.09
170
               0
171
               2
172
               0
173
               0
174
               0
175
               0
176
               0
177
               0
178
               0
  0
DIMSTYLE
  2
CAD
 70
               0
  3
<>
  4
[]
  5
VW_OPENARROW
  6

  7

 40
1.0
 41
31.75
 42
9.9999999999999982
 43
7.9999999999999991
 44
19.999999999999996
 45
0.0
 46
0.0
 47
0.0
 48
0.0
 71
               0
 72
               0
 73
               0
 74
               0
 75
               0
 76
               0
 77
               1
 78
              11
140
29.104166666666664
141
0.0
142
0.0
143
1.0
144
1.0
145
0.0
146
0.7
147
0.099999999627471
170
               0
171
               1
172
               1
173
               0
174
               1
175
               0
176
               0
177
               0
178
               0
  0
ENDTAB
  0
ENDSEC
  0
SECTION
  2
BLOCKS
  0
BLOCK
  8
0
  6
BYBLOCK
 62
               0
  5
4D
  2
VW_OPENARROW
 70
               0
 10
0.0
 20
0.0
 30
0.0
  3
VW_OPENARROW
  0
LINE
  8
0
  6
BYBLOCK
 62
               0
  5
4E
 10
0.0
 20
0.0
 30
0.0
 11
-1.0
 21
0.0
 31
0.0
  0
LINE
  8
0
  6
BYBLOCK
 62
               0
  5
4F
 10
0.0
 20
0.0
 30
0.0
 11
-0.9921874999999999
 21
-0.2658558393652545
 31
0.0
  0
LINE
  8
0
  6
BYBLOCK
 62
               0
  5
50
 10
0.0
 20
0.0
 30
0.0
 11
-0.9921874999999999
 21
0.2658558393652548
 31
0.0
  0
ENDBLK
  8
0
  5
51
  0
BLOCK
  8
OBJECT
  5
53
  2
*U1
 70
               1
 10
0.0
 20
0.0
 30
0.0
  3
*U1
  0
POLYLINE
  8
OBJECT
  6
CONTINUOUS
 62
               0
  5
54
 66
               1
 10
0.0
 20
0.0
 30
0.0
 70
             129
  0
VERTEX
  8
OBJECT
  6
CONTINUOUS
 62
               0
  5
55
 10
-460.0
 20
-872.56155281280894
 30
0.0
 42
0.3441507314089031
 70
               2
  0
VERTEX
  8
OBJECT
  6
CONTINUOUS
 62
               0
  5
56
 10
-461.51492874992732
 20
-870.62126781251823
 30
0.0
  0
VERTEX
  8
OBJECT
  6
CONTINUOUS
 62
               0
  5
57
 10
-480.0
 20
-866.0
 30
0.0
  0
VERTEX
  8
OBJECT
  6
CONTINUOUS
 62
               0
  5
58
 10
-512.0
 20
-866.0
 30
0.0
 42
0.414213562373095
 70
               2
 50
9.3574199307792870E+17
  0
VERTEX
  8
OBJECT
  6
CONTINUOUS
 62
               0
  5
59
 10
-517.0
 20
-871.0
 30
0.0
  0
VERTEX
  8
OBJECT
  6
CONTINUOUS
 62
               0
  5
5A
 10
-517.0
 20
-891.0
 30
0.0
 42
0.414213562373095
 70
               2
  0
VERTEX
  8
OBJECT
  6
CONTINUOUS
 62
               0
  5
5B
 10
-512.0
 20
-896.0
 30
0.0
  0
VERTEX
  8
OBJECT
  6
CONTINUOUS
 62
               0
  5
5C
 10
-480.0
 20
-896.0
 30
0.0
  0
VERTEX
  8
OBJECT
  6
CONTINUOUS
 62
               0
  5
5D
 10
-461.51492874992732
 20
-891.37873218748177
 30
0.0
 42
0.3441507314089186
 70
               2
 50
-229.18311805235621
  0
VERTEX
  8
OBJECT
  6
CONTINUOUS
 62
               0
  5
5E
 10
-460.0
 20
-889.43844718719106
 30
0.0
  0
SEQEND
  8
OBJECT
  6
CONTINUOUS
 62
               0
  5
5F
  0
POLYLINE
  8
OBJECT
  6
CONTINUOUS
 62
               0
  5
60
 66
               1
 10
0.0
 20
0.0
 30
0.0
 70
             129
  0
VERTEX
  8
OBJECT
  6
CONTINUOUS
 62
               0
  5
61
 10
-507.0
 20
-881.0
 30
0.0
 42
-0.414213562373095
 70
               2
  0
VERTEX
  8
OBJECT
  6
CONTINUOUS
 62
               0
  5
62
 10
-502.0
 20
-876.0
 30
0.0
 42
-0.414213562373095
 70
               2
 50
1.8714839861558573E+17
  0
VERTEX
  8
OBJECT
  6
CONTINUOUS
 62
               0
  5
63
 10
-497.0
 20
-881.0
 30
0.0
 42
-0.414213562373095
 70
               2
  0
VERTEX
  8
OBJECT
  6
CONTINUOUS
 62
               0
  5
64
 10
-502.0
 20
-886.0
 30
0.0
 42
-0.414213562373095
 70
               2
 50
3.1191399769264294E+17
  0
VERTEX
  8
OBJECT
  6
CONTINUOUS
 62
               0
  5
65
 10
-507.0
 20
-881.0
 30
0.0
  0
SEQEND
  8
OBJECT
  6
CONTINUOUS
 62
               0
  5
66
  0
POLYLINE
  8
OBJECT
  6
CONTINUOUS
 62
               0
  5
67
 66
               1
 10
0.0
 20
0.0
 30
0.0
 70
             128
  0
VERTEX
  8
OBJECT
  6
CONTINUOUS
 62
               0
  5
68
 10
-464.0
 20
-871.0
 30
0.0
  0
VERTEX
  8
OBJECT
  6
CONTINUOUS
 62
               0
  5
69
 10
-508.0
 20
-871.0
 30
0.0
 42
0.414213562373095
 70
               2
 50
9.3574199307792870E+17
  0
VERTEX
  8
OBJECT
  6
CONTINUOUS
 62
               0
  5
6A
 10
-512.0
 20
-875.0
 30
0.0
  0
VERTEX
  8
OBJECT
  6
CONTINUOUS
 62
               0
  5
6B
 10
-512.0
 20
-887.0
 30
0.0
 42
0.414213562373095
 70
               2
  0
VERTEX
  8
OBJECT
  6
CONTINUOUS
 62
               0
  5
6C
 10
-508.0
 20
-891.0
 30
0.0
  0
VERTEX
  8
OBJECT
  6
CONTINUOUS
 62
               0
  5
6D
 10
-464.0
 20
-891.0
 30
0.0
  0
SEQEND
  8
OBJECT
  6
CONTINUOUS
 62
               0
  5
6E
  0
ENDBLK
  8
OBJECT
  5
6F
  0
BLOCK
  8
OBJECT
  5
70
  2
*U2
 70
               1
 10
0.0
 20
0.0
 30
0.0
  3
*U2
  0
POLYLINE
  8
OBJECT
  6
CONTINUOUS
 62
               0
  5
71
 66
               1
 10
0.0
 20
0.0
 30
0.0
 70
             129
  0
VERTEX
  8
OBJECT
  6
CONTINUOUS
 62
               0
  5
72
 10
-1340.0
 20
-872.56155281280894
 30
0.0
 42
-0.3441507314089417
 70
               2
  0
VERTEX
  8
OBJECT
  6
CONTINUOUS
 62
               0
  5
73
 10
-1338.4850712500727
 20
-870.62126781251823
 30
0.0
  0
VERTEX
  8
OBJECT
  6
CONTINUOUS
 62
               0
  5
74
 10
-1320.0
 20
-866.0
 30
0.0
  0
VERTEX
  8
OBJECT
  6
CONTINUOUS
 62
               0
  5
75
 10
-1288.0
 20
-866.0
 30
0.0
 42
-0.414213562373095
 70
               2
 50
1.8714839861558573E+17
  0
VERTEX
  8
OBJECT
  6
CONTINUOUS
 62
               0
  5
76
 10
-1283.0
 20
-871.0
 30
0.0
  0
VERTEX
  8
OBJECT
  6
CONTINUOUS
 62
               0
  5
77
 10
-1283.0
 20
-891.0
 30
0.0
 42
-0.414213562373095
 70
               2
  0
VERTEX
  8
OBJECT
  6
CONTINUOUS
 62
               0
  5
78
 10
-1288.0
 20
-896.0
 30
0.0
  0
VERTEX
  8
OBJECT
  6
CONTINUOUS
 62
               0
  5
79
 10
-1320.0
 20
-896.0
 30
0.0
  0
VERTEX
  8
OBJECT
  6
CONTINUOUS
 62
               0
  5
7A
 10
-1338.4850712500727
 20
-891.37873218748177
 30
0.0
 42
-0.3441507314089417
 70
               2
 50
229.1831180524363
  0
VERTEX
  8
OBJECT
  6
CONTINUOUS
 62
               0
  5
7B
 10
-1340.0
 20
-889.43844718719106
 30
0.0
  0
SEQEND
  8
OBJECT
  6
CONTINUOUS
 62
               0
  5
7C
  0
POLYLINE
  8
OBJECT
  6
CONTINUOUS
 62
               0
  5
7D
 66
               1
 10
0.0
 20
0.0
 30
0.0
 70
             129
  0
VERTEX
  8
OBJECT
  6
CONTINUOUS
 62
               0
  5
7E
 10
-1303.0
 20
-881.0
 30
0.0
 42
-0.414213562373095
 70
               2
  0
VERTEX
  8
OBJECT
  6
CONTINUOUS
 62
               0
  5
7F
 10
-1298.0
 20
-876.0
 30
0.0
 42
-0.414213562373095
 70
               2
 50
1.8714839861558573E+17
  0
VERTEX
  8
OBJECT
  6
CONTINUOUS
 62
               0
  5
80
 10
-1293.0
 20
-881.0
 30
0.0
 42
-0.414213562373095
 70
               2
  0
VERTEX
  8
OBJECT
  6
CONTINUOUS
 62
               0
  5
81
 10
-1298.0
 20
-886.0
 30
0.0
 42
-0.414213562373095
 70
               2
 50
3.1191399769264294E+17
  0
VERTEX
  8
OBJECT
  6
CONTINUOUS
 62
               0
  5
82
 10
-1303.0
 20
-881.0
 30
0.0
  0
SEQEND
  8
OBJECT
  6
CONTINUOUS
 62
               0
  5
83
  0
POLYLINE
  8
OBJECT
  6
CONTINUOUS
 62
               0
  5
84
 66
               1
 10
0.0
 20
0.0
 30
0.0
 70
             128
  0
VERTEX
  8
OBJECT
  6
CONTINUOUS
 62
               0
  5
85
 10
-1336.0
 20
-871.0
 30
0.0
  0
VERTEX
  8
OBJECT
  6
CONTINUOUS
 62
               0
  5
86
 10
-1292.0
 20
-871.0
 30
0.0
 42
-0.414213562373095
 70
               2
 50
1.8714839861558573E+17
  0
VERTEX
  8
OBJECT
  6
CONTINUOUS
 62
               0
  5
87
 10
-1288.0
 20
-875.0
 30
0.0
  0
VERTEX
  8
OBJECT
  6
CONTINUOUS
 62
               0
  5
88
 10
-1288.0
 20
-887.0
 30
0.0
 42
-0.414213562373095
 70
               2
  0
VERTEX
  8
OBJECT
  6
CONTINUOUS
 62
               0
  5
89
 10
-1292.0
 20
-891.0
 30
0.0
  0
VERTEX
  8
OBJECT
  6
CONTINUOUS
 62
               0
  5
8A
 10
-1336.0
 20
-891.0
 30
0.0
  0
SEQEND
  8
OBJECT
  6
CONTINUOUS
 62
               0
  5
8B
  0
ENDBLK
  8
OBJECT
  5
8C
  0
BLOCK
  8
DIMENTION
  5
8D
  2
*D3
 70
               1
 10
0.0
 20
0.0
 30
0.0
  3
*D3
  0
LINE
  8
DIMENTION
  6
CONTINUOUS
 62
               0
  5
8E
 10
-1000.0
 20
511.0
 30
0.0
 11
-1000.0
 21
961.0
 31
0.0
  0
LINE
  8
DIMENTION
  6
CONTINUOUS
 62
               0
  5
8F
 10
-1000.0
 20
511.0
 30
0.0
 11
-1008.5073868596882
 21
542.75
 31
0.0
  0
LINE
  8
DIMENTION
  6
CONTINUOUS
 62
               0
  5
90
 10
-1000.0
 20
511.0
 30
0.0
 11
-991.49261314031185
 21
542.75
 31
0.0
  0
LINE
  8
DIMENTION
  6
CONTINUOUS
 62
               0
  5
91
 10
-1000.0
 20
961.0
 30
0.0
 11
-991.49261314031185
 21
929.25
 31
0.0
  0
LINE
  8
DIMENTION
  6
CONTINUOUS
 62
               0
  5
92
 10
-1000.0
 20
961.0
 30
0.0
 11
-1008.5073868596882
 21
929.25
 31
0.0
  0
TEXT
  8
DIMENTION
 62
               0
  5
93
 10
-1000.9999999999999
 20
704.25
 30
0.0
 40
29.104166666666664
  1
450
 50
90.0
  7
________
 11
-1036.0308333333332
 21
704.25
 31
0.0
 73
               3
  0
POINT
  8
DEFPOINTS
 62
               0
  5
94
 10
-1149.0
 20
961.0
 30
0.0
  0
POINT
  8
DEFPOINTS
 62
               0
  5
95
 10
-1299.0
 20
511.0
 30
0.0
  0
POINT
  8
DEFPOINTS
 62
               0
  5
96
 10
-1000.0
 20
511.0
 30
0.0
  0
ENDBLK
  8
DIMENTION
  5
97
  0
BLOCK
  8
DIMENTION
  5
98
  2
*D4
 70
               1
 10
0.0
 20
0.0
 30
0.0
  3
*D4
  0
LINE
  8
DIMENTION
  6
CONTINUOUS
 62
               0
  5
99
 10
-1320.0
 20
490.0
 30
0.0
 11
-1320.0
 21
330.0
 31
0.0
  0
LINE
  8
DIMENTION
  6
CONTINUOUS
 62
               0
  5
9A
 10
-480.0
 20
490.0
 30
0.0
 11
-480.0
 21
330.0
 31
0.0
  0
LINE
  8
DIMENTION
  6
CONTINUOUS
 62
               0
  5
9B
 10
-1320.0
 20
350.0
 30
0.0
 11
-480.0
 21
350.0
 31
0.0
  0
LINE
  8
DIMENTION
  6
CONTINUOUS
 62
               0
  5
9C
 10
-1320.0
 20
350.0
 30
0.0
 11
-1288.25
 21
358.50738685968815
 31
0.0
  0
LINE
  8
DIMENTION
  6
CONTINUOUS
 62
               0
  5
9D
 10
-1320.0
 20
350.0
 30
0.0
 11
-1288.25
 21
341.49261314031185
 31
0.0
  0
LINE
  8
DIMENTION
  6
CONTINUOUS
 62
               0
  5
9E
 10
-480.0
 20
350.0
 30
0.0
 11
-511.75
 21
341.49261314031185
 31
0.0
  0
LINE
  8
DIMENTION
  6
CONTINUOUS
 62
               0
  5
9F
 10
-480.0
 20
350.0
 30
0.0
 11
-511.75
 21
358.50738685968815
 31
0.0
  0
TEXT
  8
DIMENTION
 62
               0
  5
A0
 10
-931.75
 20
351.0
 30
0.0
 40
29.104166666666664
  1
840
  7
________
 11
-931.75
 21
386.03083333333331
 31
0.0
 73
               3
  0
POINT
  8
DEFPOINTS
 62
               0
  5
A1
 10
-480.0
 20
500.0
 30
0.0
  0
POINT
  8
DEFPOINTS
 62
               0
  5
A2
 10
-1320.0
 20
500.0
 30
0.0
  0
POINT
  8
DEFPOINTS
 62
               0
  5
A3
 10
-1320.0
 20
350.0
 30
0.0
  0
ENDBLK
  8
DIMENTION
  5
A4
  0
BLOCK
  8
DIMENTION
  5
A5
  2
*D5
 70
               1
 10
0.0
 20
0.0
 30
0.0
  3
*D5
  0
LINE
  8
DIMENTION
 62
               0
  5
A6
 10
-915.0
 20
600.0
 30
0.0
 11
-1305.0
 21
600.0
 31
0.0
  0
LINE
  8
DIMENTION
 62
               0
  5
A7
 10
-915.0
 20
600.0
 30
0.0
 11
-946.75
 21
591.49261314031185
 31
0.0
  0
LINE
  8
DIMENTION
 62
               0
  5
A8
 10
-915.0
 20
600.0
 30
0.0
 11
-946.75
 21
608.50738685968815
 31
0.0
  0
LINE
  8
DIMENTION
 62
               0
  5
A9
 10
-1305.0
 20
600.0
 30
0.0
 11
-1273.25
 21
608.50738685968815
 31
0.0
  0
LINE
  8
DIMENTION
 62
               0
  5
AA
 10
-1305.0
 20
600.0
 30
0.0
 11
-1273.25
 21
591.49261314031185
 31
0.0
  0
TEXT
  8
DIMENTION
 62
               0
  5
AB
 10
-1141.75
 20
600.99999999627471
 30
0.0
 40
29.104166666666664
  1
400
  7
________
 11
-1141.75
 21
636.03083332960807
 31
0.0
 73
               3
  0
POINT
  8
DEFPOINTS
 62
               0
  5
AC
 10
-1305.0
 20
517.0
 30
0.0
  0
POINT
  8
DEFPOINTS
 62
               0
  5
AD
 10
-915.0
 20
517.0
 30
0.0
  0
POINT
  8
DEFPOINTS
 62
               0
  5
AE
 10
-915.0
 20
600.0
 30
0.0
  0
ENDBLK
  8
DIMENTION
  5
AF
  0
BLOCK
  8
FRAME
  5
B0
  2
*U6
 70
               1
 10
0.0
 20
0.0
 30
0.0
  3
*U6
  0
ENDBLK
  8
FRAME
  5
B1
  0
BLOCK
  8
FRAME
  5
B2
  2
*U7
 70
               1
 10
0.0
 20
0.0
 30
0.0
  3
*U7
  0
ENDBLK
  8
FRAME
  5
B3
  0
BLOCK
  8
FRAME
  5
B4
  2
*U8
 70
               1
 10
0.0
 20
0.0
 30
0.0
  3
*U8
  0
ENDBLK
  8
FRAME
  5
B5
  0
BLOCK
  8
FRAME
  5
B6
  2
*U9
 70
               1
 10
0.0
 20
0.0
 30
0.0
  3
*U9
  0
ENDBLK
  8
FRAME
  5
B7
  0
BLOCK
  8
FRAME
  5
B8
  2
*U10
 70
               1
 10
0.0
 20
0.0
 30
0.0
  3
*U10
  0
ENDBLK
  8
FRAME
  5
B9
  0
BLOCK
  8
FRAME
  5
BA
  2
*U11
 70
               1
 10
0.0
 20
0.0
 30
0.0
  3
*U11
  0
INSERT
  8
FRAME
 62
               0
  5
BB
  2
*U6
 10
0.0
 20
0.0
 30
0.0
  0
INSERT
  8
FRAME
 62
               0
  5
BC
  2
*U7
 10
0.0
 20
0.0
 30
0.0
  0
INSERT
  8
FRAME
 62
               0
  5
BD
  2
*U8
 10
0.0
 20
0.0
 30
0.0
  0
INSERT
  8
FRAME
 62
               0
  5
BE
  2
*U9
 10
0.0
 20
0.0
 30
0.0
  0
INSERT
  8
FRAME
 62
               0
  5
BF
  2
*U10
 10
0.0
 20
0.0
 30
0.0
  0
POLYLINE
  8
FRAME
 62
               0
  5
C0
 66
               1
 10
0.0
 20
0.0
 30
0.0
 70
             129
  0
VERTEX
  8
FRAME
 62
               0
  5
C1
 10
-1764.1907763312156
 20
-1322.9350934336762
 30
0.0
  0
VERTEX
  8
FRAME
 62
               0
  5
C2
 10
-1777.5863647674851
 20
-1322.9350934336762
 30
0.0
  0
VERTEX
  8
FRAME
 62
               0
  5
C3
 10
-1811.9158566897349
 20
-1322.9350934336762
 30
0.0
  0
VERTEX
  8
FRAME
 62
               0
  5
C4
 10
-1825.1305305537462
 20
-1322.9350934336762
 30
0.0
  0
VERTEX
  8
FRAME
 62
               0
  5
C5
 10
-1826.7361911451244
 20
-1322.9350934336762
 30
0.0
  0
VERTEX
  8
FRAME
 62
               0
  5
C6
 10
-1826.7361911451244
 20
-1382.4802540657963
 30
0.0
  0
VERTEX
  8
FRAME
 62
               0
  5
C7
 10
-1811.9158566897349
 20
-1382.4802540657963
 30
0.0
  0
VERTEX
  8
FRAME
 62
               0
  5
C8
 10
-1811.9158566897349
 20
-1379.4875379911846
 30
0.0
  0
VERTEX
  8
FRAME
 62
               0
  5
C9
 10
-1777.5863647674851
 20
-1379.4875379911846
 30
0.0
  0
VERTEX
  8
FRAME
 62
               0
  5
CA
 10
-1777.5863647674851
 20
-1382.4802540657963
 30
0.0
  0
VERTEX
  8
FRAME
 62
               0
  5
CB
 10
-1762.7698048360089
 20
-1382.4802540657963
 30
0.0
  0
VERTEX
  8
FRAME
 62
               0
  5
CC
 10
-1762.7698048360089
 20
-1322.9350934336762
 30
0.0
  0
SEQEND
  8
FRAME
 62
               0
  5
CD
  0
ENDBLK
  8
FRAME
  5
CE
  0
BLOCK
  8
DIMENTION
  5
CF
  2
*D12
 70
               1
 10
0.0
 20
0.0
 30
0.0
  3
*D12
  0
LINE
  8
DIMENTION
 62
               0
  5
D0
 10
-1330.0
 20
1010.0
 30
0.0
 11
-1470.0
 21
1010.0
 31
0.0
  0
LINE
  8
DIMENTION
 62
               0
  5
D1
 10
-1330.0
 20
500.0
 30
0.0
 11
-1470.0
 21
500.0
 31
0.0
  0
LINE
  8
DIMENTION
 62
               0
  5
D2
 10
-1450.0
 20
1010.0
 30
0.0
 11
-1450.0
 21
500.0
 31
0.0
  0
LINE
  8
DIMENTION
 62
               0
  5
D3
 10
-1450.0
 20
1010.0
 30
0.0
 11
-1441.492613140312
 21
978.25
 31
0.0
  0
LINE
  8
DIMENTION
 62
               0
  5
D4
 10
-1450.0
 20
1010.0
 30
0.0
 11
-1458.507386859688
 21
978.25
 31
0.0
  0
LINE
  8
DIMENTION
 62
               0
  5
D5
 10
-1450.0
 20
500.0
 30
0.0
 11
-1458.507386859688
 21
531.75
 31
0.0
  0
LINE
  8
DIMENTION
 62
               0
  5
D6
 10
-1450.0
 20
500.0
 30
0.0
 11
-1441.492613140312
 21
531.75
 31
0.0
  0
TEXT
  8
DIMENTION
 62
               0
  5
D7
 10
-1450.9999999962749
 20
723.25
 30
0.0
 40
29.104166666666668
  1
510
 50
90.0
  7
________
 11
-1486.0308333296082
 21
723.25
 31
0.0
 73
               3
  0
POINT
  8
DEFPOINTS
 62
               0
  5
D8
 10
-1320.0
 20
500.0
 30
0.0
  0
POINT
  8
DEFPOINTS
 62
               0
  5
D9
 10
-1320.0
 20
1010.0
 30
0.0
  0
POINT
  8
DEFPOINTS
 62
               0
  5
DA
 10
-1450.0
 20
1010.0
 30
0.0
  0
ENDBLK
  8
DIMENTION
  5
DB
  0
BLOCK
  8
DIMENTION
  5
DC
  2
*D13
 70
               1
 10
0.0
 20
0.0
 30
0.0
  3
*D13
  0
LINE
  8
DIMENTION
 62
               0
  5
DD
 10
-1330.0
 20
500.0
 30
0.0
 11
-1470.0
 21
500.0
 31
0.0
  0
LINE
  8
DIMENTION
 62
               0
  5
DE
 10
-1335.0
 20
480.0
 30
0.0
 11
-1470.0
 21
480.0
 31
0.0
  0
LINE
  8
DIMENTION
 62
               0
  5
DF
 10
-1450.0
 20
480.0
 30
0.0
 11
-1450.0
 21
500.0
 31
0.0
  0
LINE
  8
DIMENTION
 62
               0
  5
E0
 10
-1450.0
 20
500.0
 30
0.0
 11
-1450.0
 21
560.0
 31
0.0
  0
LINE
  8
DIMENTION
 62
               0
  5
E1
 10
-1450.0
 20
500.0
 30
0.0
 11
-1458.507386859688
 21
531.75
 31
0.0
  0
LINE
  8
DIMENTION
 62
               0
  5
E2
 10
-1450.0
 20
500.0
 30
0.0
 11
-1441.492613140312
 21
531.75
 31
0.0
  0
LINE
  8
DIMENTION
 62
               0
  5
E3
 10
-1450.0
 20
480.0
 30
0.0
 11
-1450.0
 21
397.66666666666669
 31
0.0
  0
LINE
  8
DIMENTION
 62
               0
  5
E4
 10
-1450.0
 20
480.0
 30
0.0
 11
-1441.492613140312
 21
448.25
 31
0.0
  0
LINE
  8
DIMENTION
 62
               0
  5
E5
 10
-1450.0
 20
480.0
 30
0.0
 11
-1458.507386859688
 21
448.25
 31
0.0
  0
TEXT
  8
DIMENTION
 62
               0
  5
E6
 10
-1450.9999999962749
 20
397.66666666666663
 30
0.0
 40
29.104166666666668
  1
20
 50
90.0
  7
________
 11
-1486.0308333296082
 21
397.66666666666663
 31
0.0
 73
               3
  0
POINT
  8
DEFPOINTS
 62
               0
  5
E7
 10
-1325.0
 20
480.0
 30
0.0
  0
POINT
  8
DEFPOINTS
 62
               0
  5
E8
 10
-1320.0
 20
500.0
 30
0.0
  0
POINT
  8
DEFPOINTS
 62
               0
  5
E9
 10
-1450.0
 20
500.0
 30
0.0
  0
ENDBLK
  8
DIMENTION
  5
EA
  0
BLOCK
  8
DIMENTION
  5
EB
  2
*D14
 70
               1
 10
0.0
 20
0.0
 30
0.0
  3
*D14
  0
LINE
  8
DIMENTION
 62
               0
  5
EC
 10
-1320.0
 20
490.0
 30
0.0
 11
-1320.0
 21
330.0
 31
0.0
  0
LINE
  8
DIMENTION
 62
               0
  5
ED
 10
-1340.0
 20
485.0
 30
0.0
 11
-1340.0
 21
330.0
 31
0.0
  0
LINE
  8
DIMENTION
 62
               0
  5
EE
 10
-1340.0
 20
350.0
 30
0.0
 11
-1320.0
 21
350.0
 31
0.0
  0
LINE
  8
DIMENTION
 62
               0
  5
EF
 10
-1320.0
 20
350.0
 30
0.0
 11
-1260.0
 21
350.0
 31
0.0
  0
LINE
  8
DIMENTION
 62
               0
  5
F0
 10
-1320.0
 20
350.0
 30
0.0
 11
-1288.25
 21
358.50738685968815
 31
0.0
  0
LINE
  8
DIMENTION
 62
               0
  5
F1
 10
-1320.0
 20
350.0
 30
0.0
 11
-1288.25
 21
341.49261314031185
 31
0.0
  0
LINE
  8
DIMENTION
 62
               0
  5
F2
 10
-1340.0
 20
350.0
 30
0.0
 11
-1422.3333333333333
 21
350.0
 31
0.0
  0
LINE
  8
DIMENTION
 62
               0
  5
F3
 10
-1340.0
 20
350.0
 30
0.0
 11
-1371.75
 21
341.49261314031185
 31
0.0
  0
LINE
  8
DIMENTION
 62
               0
  5
F4
 10
-1340.0
 20
350.0
 30
0.0
 11
-1371.75
 21
358.50738685968815
 31
0.0
  0
TEXT
  8
DIMENTION
 62
               0
  5
F5
 10
-1422.3333333333335
 20
350.99999999627471
 30
0.0
 40
29.104166666666668
  1
20
  7
________
 11
-1422.3333333333335
 21
386.03083332960801
 31
0.0
 73
               3
  0
POINT
  8
DEFPOINTS
 62
               0
  5
F6
 10
-1340.0
 20
495.0
 30
0.0
  0
POINT
  8
DEFPOINTS
 62
               0
  5
F7
 10
-1320.0
 20
500.0
 30
0.0
  0
POINT
  8
DEFPOINTS
 62
               0
  5
F8
 10
-1320.0
 20
350.0
 30
0.0
  0
ENDBLK
  8
DIMENTION
  5
F9
  0
BLOCK
  8
OBJECT
  5
FA
  2
*U15
 70
               1
 10
0.0
 20
0.0
 30
0.0
  3
*U15
  0
POLYLINE
  8
OBJECT
  6
CONTINUOUS
 62
               0
  5
FB
 66
               1
 10
0.0
 20
0.0
 30
0.0
 70
             129
  0
VERTEX
  8
OBJECT
  6
CONTINUOUS
 62
               0
  5
FC
 10
614.95929395457006
 20
-872.5615362431115
 30
0.0
 42
-0.3441507314089503
 70
               2
  0
VERTEX
  8
OBJECT
  6
CONTINUOUS
 62
               0
  5
FD
 10
616.47422270449738
 20
-870.62125124282079
 30
0.0
  0
VERTEX
  8
OBJECT
  6
CONTINUOUS
 62
               0
  5
FE
 10
634.95929395457006
 20
-865.99998343030256
 30
0.0
  0
VERTEX
  8
OBJECT
  6
CONTINUOUS
 62
               0
  5
FF
 10
709.95929395457006
 20
-865.99998343030256
 30
0.0
 42
-0.414213562373095
 70
               2
 50
1.8714839861558573E+17
  0
VERTEX
  8
OBJECT
  6
CONTINUOUS
 62
               0
  5
100
 10
714.95929395457006
 20
-870.99998343030256
 30
0.0
  0
VERTEX
  8
OBJECT
  6
CONTINUOUS
 62
               0
  5
101
 10
714.95929395457006
 20
-890.99998343030256
 30
0.0
 42
-0.414213562373095
 70
               2
  0
VERTEX
  8
OBJECT
  6
CONTINUOUS
 62
               0
  5
102
 10
709.95929395457006
 20
-895.99998343030256
 30
0.0
  0
VERTEX
  8
OBJECT
  6
CONTINUOUS
 62
               0
  5
103
 10
634.95929395457006
 20
-895.99998343030256
 30
0.0
  0
VERTEX
  8
OBJECT
  6
CONTINUOUS
 62
               0
  5
104
 10
616.47422270449738
 20
-891.37871561778434
 30
0.0
 42
-0.3441507314088954
 70
               2
 50
229.1831180522754
  0
VERTEX
  8
OBJECT
  6
CONTINUOUS
 62
               0
  5
105
 10
614.95929395457006
 20
-889.43843061749362
 30
0.0
  0
SEQEND
  8
OBJECT
  6
CONTINUOUS
 62
               0
  5
106
  0
POLYLINE
  8
OBJECT
  6
CONTINUOUS
 62
               0
  5
107
 66
               1
 10
0.0
 20
0.0
 30
0.0
 70
             129
  0
VERTEX
  8
OBJECT
  6
CONTINUOUS
 62
               0
  5
108
 10
644.95929395457006
 20
-880.99998343030256
 30
0.0
 42
-0.414213562373095
 70
               2
  0
VERTEX
  8
OBJECT
  6
CONTINUOUS
 62
               0
  5
109
 10
649.95929395457006
 20
-875.99998343030256
 30
0.0
 42
-0.414213562373095
 70
               2
 50
1.8714839861558573E+17
  0
VERTEX
  8
OBJECT
  6
CONTINUOUS
 62
               0
  5
10A
 10
654.95929395457006
 20
-880.99998343030256
 30
0.0
 42
-0.414213562373095
 70
               2
  0
VERTEX
  8
OBJECT
  6
CONTINUOUS
 62
               0
  5
10B
 10
649.95929395457006
 20
-885.99998343030256
 30
0.0
 42
-0.414213562373095
 70
               2
 50
3.1191399769264294E+17
  0
VERTEX
  8
OBJECT
  6
CONTINUOUS
 62
               0
  5
10C
 10
644.95929395457006
 20
-880.99998343030256
 30
0.0
  0
SEQEND
  8
OBJECT
  6
CONTINUOUS
 62
               0
  5
10D
  0
POLYLINE
  8
OBJECT
  6
CONTINUOUS
 62
               0
  5
10E
 66
               1
 10
0.0
 20
0.0
 30
0.0
 70
             129
  0
VERTEX
  8
OBJECT
  6
CONTINUOUS
 62
               0
  5
10F
 10
694.95929395457006
 20
-880.99998343030256
 30
0.0
 42
-0.414213562373095
 70
               2
  0
VERTEX
  8
OBJECT
  6
CONTINUOUS
 62
               0
  5
110
 10
699.95929395457006
 20
-875.99998343030256
 30
0.0
 42
-0.414213562373095
 70
               2
 50
1.8714839861558573E+17
  0
VERTEX
  8
OBJECT
  6
CONTINUOUS
 62
               0
  5
111
 10
704.95929395457006
 20
-880.99998343030256
 30
0.0
 42
-0.414213562373095
 70
               2
  0
VERTEX
  8
OBJECT
  6
CONTINUOUS
 62
               0
  5
112
 10
699.95929395457006
 20
-885.99998343030256
 30
0.0
 42
-0.414213562373095
 70
               2
 50
3.1191399769264294E+17
  0
VERTEX
  8
OBJECT
  6
CONTINUOUS
 62
               0
  5
113
 10
694.95929395457006
 20
-880.99998343030256
 30
0.0
  0
SEQEND
  8
OBJECT
  6
CONTINUOUS
 62
               0
  5
114
  0
POLYLINE
  8
OBJECT
  6
CONTINUOUS
 62
               0
  5
115
 66
               1
 10
0.0
 20
0.0
 30
0.0
 70
             128
  0
VERTEX
  8
OBJECT
  6
CONTINUOUS
 62
               0
  5
116
 10
618.95929395457006
 20
-870.99998343030256
 30
0.0
  0
VERTEX
  8
OBJECT
  6
CONTINUOUS
 62
               0
  5
117
 10
705.95929395457006
 20
-870.99998343030256
 30
0.0
 42
-0.414213562373095
 70
               2
 50
1.8714839861558573E+17
  0
VERTEX
  8
OBJECT
  6
CONTINUOUS
 62
               0
  5
118
 10
709.95929395457006
 20
-874.99998343030256
 30
0.0
  0
VERTEX
  8
OBJECT
  6
CONTINUOUS
 62
               0
  5
119
 10
709.95929395457006
 20
-886.99998343030256
 30
0.0
 42
-0.414213562373095
 70
               2
  0
VERTEX
  8
OBJECT
  6
CONTINUOUS
 62
               0
  5
11A
 10
705.95929395457006
 20
-890.99998343030256
 30
0.0
  0
VERTEX
  8
OBJECT
  6
CONTINUOUS
 62
               0
  5
11B
 10
618.95929395457006
 20
-890.99998343030256
 30
0.0
  0
SEQEND
  8
OBJECT
  6
CONTINUOUS
 62
               0
  5
11C
  0
ENDBLK
  8
OBJECT
  5
11D
  0
BLOCK
  8
OBJECT
  5
11E
  2
*U16
 70
               1
 10
0.0
 20
0.0
 30
0.0
  3
*U16
  0
POLYLINE
  8
OBJECT
  6
CONTINUOUS
 62
               0
  5
11F
 66
               1
 10
0.0
 20
0.0
 30
0.0
 70
             129
  0
VERTEX
  8
OBJECT
  6
CONTINUOUS
 62
               0
  5
120
 10
1164.9592939545701
 20
-872.5615362431115
 30
0.0
 42
0.3441507314089417
 70
               2
  0
VERTEX
  8
OBJECT
  6
CONTINUOUS
 62
               0
  5
121
 10
1163.4443652046427
 20
-870.62125124282079
 30
0.0
  0
VERTEX
  8
OBJECT
  6
CONTINUOUS
 62
               0
  5
122
 10
1144.9592939545701
 20
-865.99998343030256
 30
0.0
  0
VERTEX
  8
OBJECT
  6
CONTINUOUS
 62
               0
  5
123
 10
1069.9592939545701
 20
-865.99998343030256
 30
0.0
 42
0.414213562373095
 70
               2
 50
9.3574199307792870E+17
  0
VERTEX
  8
OBJECT
  6
CONTINUOUS
 62
               0
  5
124
 10
1064.9592939545701
 20
-870.99998343030256
 30
0.0
  0
VERTEX
  8
OBJECT
  6
CONTINUOUS
 62
               0
  5
125
 10
1064.9592939545701
 20
-890.99998343030256
 30
0.0
 42
0.414213562373095
 70
               2
  0
VERTEX
  8
OBJECT
  6
CONTINUOUS
 62
               0
  5
126
 10
1069.9592939545701
 20
-895.99998343030256
 30
0.0
  0
VERTEX
  8
OBJECT
  6
CONTINUOUS
 62
               0
  5
127
 10
1144.9592939545701
 20
-895.99998343030256
 30
0.0
  0
VERTEX
  8
OBJECT
  6
CONTINUOUS
 62
               0
  5
128
 10
1163.4443652046427
 20
-891.37871561778434
 30
0.0
 42
0.3441507314089108
 70
               2
 50
-229.18311805232941
  0
VERTEX
  8
OBJECT
  6
CONTINUOUS
 62
               0
  5
129
 10
1164.9592939545701
 20
-889.43843061749362
 30
0.0
  0
SEQEND
  8
OBJECT
  6
CONTINUOUS
 62
               0
  5
12A
  0
POLYLINE
  8
OBJECT
  6
CONTINUOUS
 62
               0
  5
12B
 66
               1
 10
0.0
 20
0.0
 30
0.0
 70
             129
  0
VERTEX
  8
OBJECT
  6
CONTINUOUS
 62
               0
  5
12C
 10
1124.9592939545701
 20
-880.99998343030256
 30
0.0
 42
-0.414213562373095
 70
               2
  0
VERTEX
  8
OBJECT
  6
CONTINUOUS
 62
               0
  5
12D
 10
1129.9592939545701
 20
-875.99998343030256
 30
0.0
 42
-0.414213562373095
 70
               2
 50
1.8714839861558573E+17
  0
VERTEX
  8
OBJECT
  6
CONTINUOUS
 62
               0
  5
12E
 10
1134.9592939545701
 20
-880.99998343030256
 30
0.0
 42
-0.414213562373095
 70
               2
  0
VERTEX
  8
OBJECT
  6
CONTINUOUS
 62
               0
  5
12F
 10
1129.9592939545701
 20
-885.99998343030256
 30
0.0
 42
-0.414213562373095
 70
               2
 50
3.1191399769264294E+17
  0
VERTEX
  8
OBJECT
  6
CONTINUOUS
 62
               0
  5
130
 10
1124.9592939545701
 20
-880.99998343030256
 30
0.0
  0
SEQEND
  8
OBJECT
  6
CONTINUOUS
 62
               0
  5
131
  0
POLYLINE
  8
OBJECT
  6
CONTINUOUS
 62
               0
  5
132
 66
               1
 10
0.0
 20
0.0
 30
0.0
 70
             129
  0
VERTEX
  8
OBJECT
  6
CONTINUOUS
 62
               0
  5
133
 10
1074.9592939545701
 20
-880.99998343030256
 30
0.0
 42
-0.414213562373095
 70
               2
  0
VERTEX
  8
OBJECT
  6
CONTINUOUS
 62
               0
  5
134
 10
1079.9592939545701
 20
-875.99998343030256
 30
0.0
 42
-0.414213562373095
 70
               2
 50
1.8714839861558573E+17
  0
VERTEX
  8
OBJECT
  6
CONTINUOUS
 62
               0
  5
135
 10
1084.9592939545701
 20
-880.99998343030256
 30
0.0
 42
-0.414213562373095
 70
               2
  0
VERTEX
  8
OBJECT
  6
CONTINUOUS
 62
               0
  5
136
 10
1079.9592939545701
 20
-885.99998343030256
 30
0.0
 42
-0.414213562373095
 70
               2
 50
3.1191399769264294E+17
  0
VERTEX
  8
OBJECT
  6
CONTINUOUS
 62
               0
  5
137
 10
1074.9592939545701
 20
-880.99998343030256
 30
0.0
  0
SEQEND
  8
OBJECT
  6
CONTINUOUS
 62
               0
  5
138
  0
POLYLINE
  8
OBJECT
  6
CONTINUOUS
 62
               0
  5
139
 66
               1
 10
0.0
 20
0.0
 30
0.0
 70
             128
  0
VERTEX
  8
OBJECT
  6
CONTINUOUS
 62
               0
  5
13A
 10
1160.9592939545701
 20
-870.99998343030256
 30
0.0
  0
VERTEX
  8
OBJECT
  6
CONTINUOUS
 62
               0
  5
13B
 10
1073.9592939545701
 20
-870.99998343030256
 30
0.0
 42
0.414213562373095
 70
               2
 50
9.3574199307792870E+17
  0
VERTEX
  8
OBJECT
  6
CONTINUOUS
 62
               0
  5
13C
 10
1069.9592939545701
 20
-874.99998343030256
 30
0.0
  0
VERTEX
  8
OBJECT
  6
CONTINUOUS
 62
               0
  5
13D
 10
1069.9592939545701
 20
-886.99998343030256
 30
0.0
 42
0.414213562373095
 70
               2
  0
VERTEX
  8
OBJECT
  6
CONTINUOUS
 62
               0
  5
13E
 10
1073.9592939545701
 20
-890.99998343030256
 30
0.0
  0
VERTEX
  8
OBJECT
  6
CONTINUOUS
 62
               0
  5
13F
 10
1160.9592939545701
 20
-890.99998343030256
 30
0.0
  0
SEQEND
  8
OBJECT
  6
CONTINUOUS
 62
               0
  5
140
  0
ENDBLK
  8
OBJECT
  5
141
  0
BLOCK
  8
DIMENTION
  5
142
  2
*D17
 70
               1
 10
0.0
 20
0.0
 30
0.0
  3
*D17
  0
LINE
  8
DIMENTION
  6
CONTINUOUS
 62
               0
  5
143
 10
633.95929395457006
 20
-650.99998343030256
 30
0.0
 11
480.0
 21
-650.99998343030256
 31
0.0
  0
LINE
  8
DIMENTION
  6
CONTINUOUS
 62
               0
  5
144
 10
633.95929395457006
 20
-150.99998343030256
 30
0.0
 11
480.0
 21
-150.99998343030256
 31
0.0
  0
LINE
  8
DIMENTION
  6
CONTINUOUS
 62
               0
  5
145
 10
500.0
 20
-650.99998343030256
 30
0.0
 11
500.0
 21
-150.99998343030256
 31
0.0
  0
LINE
  8
DIMENTION
  6
CONTINUOUS
 62
               0
  5
146
 10
500.0
 20
-650.99998343030256
 30
0.0
 11
491.49261314031185
 21
-619.24998343030256
 31
0.0
  0
LINE
  8
DIMENTION
  6
CONTINUOUS
 62
               0
  5
147
 10
500.0
 20
-650.99998343030256
 30
0.0
 11
508.50738685968815
 21
-619.24998343030256
 31
0.0
  0
LINE
  8
DIMENTION
  6
CONTINUOUS
 62
               0
  5
148
 10
500.0
 20
-150.99998343030256
 30
0.0
 11
508.50738685968815
 21
-182.74998343030256
 31
0.0
  0
LINE
  8
DIMENTION
  6
CONTINUOUS
 62
               0
  5
149
 10
500.0
 20
-150.99998343030256
 30
0.0
 11
491.49261314031185
 21
-182.74998343030256
 31
0.0
  0
TEXT
  8
DIMENTION
 62
               0
  5
14A
 10
498.99999999999994
 20
-538.58331676363593
 30
0.0
 40
29.104166666666664
  1
500（可動範囲）
 50
90.0
  7
________
 11
463.96916666666664
 21
-538.58331676363593
 31
0.0
 73
               3
  0
POINT
  8
DEFPOINTS
 62
               0
  5
14B
 10
643.95929395457006
 20
-150.99998343030256
 30
0.0
  0
POINT
  8
DEFPOINTS
 62
               0
  5
14C
 10
643.95929395457006
 20
-650.99998343030256
 30
0.0
  0
POINT
  8
DEFPOINTS
 62
               0
  5
14D
 10
500.0
 20
-650.99998343030256
 30
0.0
  0
ENDBLK
  8
DIMENTION
  5
14E
  0
BLOCK
  8
DIMENTION
  5
14F
  2
*D18
 70
               1
 10
0.0
 20
0.0
 30
0.0
  3
*D18
  0
LINE
  8
DIMENTION
  6
CONTINUOUS
 62
               0
  5
150
 10
1154.9592939545701
 20
-130.99998343030256
 30
0.0
 11
1420.0
 21
-130.99998343030256
 31
0.0
  0
LINE
  8
DIMENTION
  6
CONTINUOUS
 62
               0
  5
151
 10
1308.4592939545701
 20
-999.99998343030256
 30
0.0
 11
1420.0
 21
-999.99998343030256
 31
0.0
  0
LINE
  8
DIMENTION
  6
CONTINUOUS
 62
               0
  5
152
 10
1400.0
 20
-130.99998343030256
 30
0.0
 11
1400.0
 21
-999.99998343030256
 31
0.0
  0
LINE
  8
DIMENTION
  6
CONTINUOUS
 62
               0
  5
153
 10
1400.0
 20
-130.99998343030256
 30
0.0
 11
1408.507386859688
 21
-162.74998343030256
 31
0.0
  0
LINE
  8
DIMENTION
  6
CONTINUOUS
 62
               0
  5
154
 10
1400.0
 20
-130.99998343030256
 30
0.0
 11
1391.492613140312
 21
-162.74998343030256
 31
0.0
  0
LINE
  8
DIMENTION
  6
CONTINUOUS
 62
               0
  5
155
 10
1400.0
 20
-999.99998343030256
 30
0.0
 11
1391.492613140312
 21
-968.24998343030256
 31
0.0
  0
LINE
  8
DIMENTION
  6
CONTINUOUS
 62
               0
  5
156
 10
1400.0
 20
-999.99998343030256
 30
0.0
 11
1408.507386859688
 21
-968.24998343030256
 31
0.0
  0
TEXT
  8
DIMENTION
 62
               0
  5
157
 10
1398.9999999999998
 20
-597.24998343030256
 30
0.0
 40
29.104166666666664
  1
870
 50
90.0
  7
________
 11
1363.9691666666665
 21
-597.24998343030256
 31
0.0
 73
               3
  0
POINT
  8
DEFPOINTS
 62
               0
  5
158
 10
1298.4592939545701
 20
-999.99998343030256
 30
0.0
  0
POINT
  8
DEFPOINTS
 62
               0
  5
159
 10
1144.9592939545701
 20
-130.99998343030256
 30
0.0
  0
POINT
  8
DEFPOINTS
 62
               0
  5
15A
 10
1400.0
 20
-130.99998343030256
 30
0.0
  0
ENDBLK
  8
DIMENTION
  5
15B
  0
BLOCK
  8
DIMENTION
  5
15C
  2
*D19
 70
               1
 10
0.0
 20
0.0
 30
0.0
  3
*D19
  0
LINE
  8
DIMENTION
  6
CONTINUOUS
 62
               0
  5
15D
 10
1104.9592939545701
 20
-445.96848343030251
 30
0.0
 11
1104.9592939545701
 21
-520.0
 31
0.0
  0
LINE
  8
DIMENTION
  6
CONTINUOUS
 62
               0
  5
15E
 10
1144.9592939545701
 20
-446.49998343030256
 30
0.0
 11
1144.9592939545701
 21
-520.0
 31
0.0
  0
LINE
  8
DIMENTION
  6
CONTINUOUS
 62
               0
  5
15F
 10
1144.9592939545701
 20
-500.0
 30
0.0
 11
1104.9592939545701
 21
-500.0
 31
0.0
  0
LINE
  8
DIMENTION
  6
CONTINUOUS
 62
               0
  5
160
 10
1104.9592939545701
 20
-500.0
 30
0.0
 11
1044.9592939545701
 21
-500.0
 31
0.0
  0
LINE
  8
DIMENTION
  6
CONTINUOUS
 62
               0
  5
161
 10
1104.9592939545701
 20
-500.0
 30
0.0
 11
1073.2092939545701
 21
-508.50738685968815
 31
0.0
  0
LINE
  8
DIMENTION
  6
CONTINUOUS
 62
               0
  5
162
 10
1104.9592939545701
 20
-500.0
 30
0.0
 11
1073.2092939545701
 21
-491.49261314031185
 31
0.0
  0
LINE
  8
DIMENTION
  6
CONTINUOUS
 62
               0
  5
163
 10
1144.9592939545701
 20
-500.0
 30
0.0
 11
1232.3333333333333
 21
-500.0
 31
0.0
  0
LINE
  8
DIMENTION
  6
CONTINUOUS
 62
               0
  5
164
 10
1144.9592939545701
 20
-500.0
 30
0.0
 11
1176.7092939545701
 21
-491.49261314031185
 31
0.0
  0
LINE
  8
DIMENTION
  6
CONTINUOUS
 62
               0
  5
165
 10
1144.9592939545701
 20
-500.0
 30
0.0
 11
1176.7092939545701
 21
-508.50738685968815
 31
0.0
  0
TEXT
  8
DIMENTION
 62
               0
  5
166
 10
1190.0
 20
-499.0
 30
0.0
 40
29.104166666666664
  1
40
  7
________
 11
1190.0
 21
-463.96916666666669
 31
0.0
 73
               3
  0
POINT
  8
DEFPOINTS
 62
               0
  5
167
 10
1144.9592939545701
 20
-436.49998343030256
 30
0.0
  0
POINT
  8
DEFPOINTS
 62
               0
  5
168
 10
1104.9592939545701
 20
-435.96848343030251
 30
0.0
  0
POINT
  8
DEFPOINTS
 62
               0
  5
169
 10
1104.9592939545701
 20
-500.0
 30
0.0
  0
ENDBLK
  8
DIMENTION
  5
16A
  0
BLOCK
  8
DIMENTION
  5
16B
  2
*D20
 70
               1
 10
0.0
 20
0.0
 30
0.0
  3
*D20
  0
LINE
  8
DIMENTION
  6
CONTINUOUS
 62
               0
  5
16C
 10
1094.9592939545701
 20
-130.99998343030256
 30
0.0
 11
480.0
 21
-130.99998343030256
 31
0.0
  0
LINE
  8
DIMENTION
  6
CONTINUOUS
 62
               0
  5
16D
 10
573.95929395457006
 20
-150.99998343030256
 30
0.0
 11
480.0
 21
-150.99998343030256
 31
0.0
  0
LINE
  8
DIMENTION
  6
CONTINUOUS
 62
               0
  5
16E
 10
500.0
 20
-150.99998343030256
 30
0.0
 11
500.0
 21
-130.99998343030256
 31
0.0
  0
LINE
  8
DIMENTION
  6
CONTINUOUS
 62
               0
  5
16F
 10
500.0
 20
-130.99998343030256
 30
0.0
 11
500.0
 21
-47.666666666666671
 31
0.0
  0
LINE
  8
DIMENTION
  6
CONTINUOUS
 62
               0
  5
170
 10
500.0
 20
-130.99998343030256
 30
0.0
 11
491.49261314031185
 21
-99.249983430302564
 31
0.0
  0
LINE
  8
DIMENTION
  6
CONTINUOUS
 62
               0
  5
171
 10
500.0
 20
-130.99998343030256
 30
0.0
 11
508.50738685968815
 21
-99.249983430302564
 31
0.0
  0
LINE
  8
DIMENTION
  6
CONTINUOUS
 62
               0
  5
172
 10
500.0
 20
-150.99998343030256
 30
0.0
 11
500.0
 21
-210.99998343030256
 31
0.0
  0
LINE
  8
DIMENTION
  6
CONTINUOUS
 62
               0
  5
173
 10
500.0
 20
-150.99998343030256
 30
0.0
 11
508.50738685968815
 21
-182.74998343030256
 31
0.0
  0
LINE
  8
DIMENTION
  6
CONTINUOUS
 62
               0
  5
174
 10
500.0
 20
-150.99998343030256
 30
0.0
 11
491.49261314031185
 21
-182.74998343030256
 31
0.0
  0
TEXT
  8
DIMENTION
 62
               0
  5
175
 10
498.99999999999994
 20
-90.0
 30
0.0
 40
29.104166666666664
  1
20
 50
90.0
  7
________
 11
463.96916666666664
 21
-90.0
 31
0.0
 73
               3
  0
POINT
  8
DEFPOINTS
 62
               0
  5
176
 10
583.95929395457006
 20
-150.99998343030256
 30
0.0
  0
POINT
  8
DEFPOINTS
 62
               0
  5
177
 10
1104.9592939545701
 20
-130.99998343030256
 30
0.0
  0
POINT
  8
DEFPOINTS
 62
               0
  5
178
 10
500.0
 20
-130.99998343030256
 30
0.0
  0
ENDBLK
  8
DIMENTION
  5
179
  0
BLOCK
  8
DIMENTION
  5
17A
  2
*D21
 70
               1
 10
0.0
 20
0.0
 30
0.0
  3
*D21
  0
LINE
  8
DIMENTION
 62
               0
  5
17B
 10
1134.9592939545701
 20
-80.999983430302564
 30
0.0
 11
1520.0
 21
-80.999983430302564
 31
0.0
  0
LINE
  8
DIMENTION
 62
               0
  5
17C
 10
1310.0
 20
-999.99998339371814
 30
0.0
 11
1520.0
 21
-999.99998339371814
 31
0.0
  0
LINE
  8
DIMENTION
 62
               0
  5
17D
 10
1500.0
 20
-80.999983430302564
 30
0.0
 11
1500.0
 21
-999.99998339371814
 31
0.0
  0
LINE
  8
DIMENTION
 62
               0
  5
17E
 10
1500.0
 20
-80.999983430302564
 30
0.0
 11
1508.507386859688
 21
-112.74998343030256
 31
0.0
  0
LINE
  8
DIMENTION
 62
               0
  5
17F
 10
1500.0
 20
-80.999983430302564
 30
0.0
 11
1491.492613140312
 21
-112.74998343030256
 31
0.0
  0
LINE
  8
DIMENTION
 62
               0
  5
180
 10
1500.0
 20
-999.99998339371814
 30
0.0
 11
1491.492613140312
 21
-968.24998339371814
 31
0.0
  0
LINE
  8
DIMENTION
 62
               0
  5
181
 10
1500.0
 20
-999.99998339371814
 30
0.0
 11
1508.507386859688
 21
-968.24998339371814
 31
0.0
  0
TEXT
  8
DIMENTION
 62
               0
  5
182
 10
1499.0000000037251
 20
-572.24998341201035
 30
0.0
 40
29.104166666666664
  1
920
 50
90.0
  7
________
 11
1463.9691666703918
 21
-572.24998341201035
 31
0.0
 73
               3
  0
POINT
  8
DEFPOINTS
 62
               0
  5
183
 10
1300.0
 20
-999.99998339371814
 30
0.0
  0
POINT
  8
DEFPOINTS
 62
               0
  5
184
 10
1124.9592939545701
 20
-80.999983430302564
 30
0.0
  0
POINT
  8
DEFPOINTS
 62
               0
  5
185
 10
1500.0
 20
-80.999983430302564
 30
0.0
  0
ENDBLK
  8
DIMENTION
  5
186
  0
ENDSEC
  0
SECTION
  2
ENTITIES
  0
LINE
  8
FRAME
  6
CONTINUOUS
  5
187
 10
-2025.3999999999999
 20
-1388.9999999999998
 30
0.0
 11
-2025.3999999999999
 21
1330.9999999999998
 31
0.0
  0
LINE
  8
FRAME
  6
CONTINUOUS
  5
188
 10
2024.5999999999999
 20
-1388.9999999999998
 30
0.0
 11
-2025.3999999999999
 21
-1388.9999999999998
 31
0.0
  0
LINE
  8
FRAME
  6
CONTINUOUS
  5
189
 10
2024.5999999999999
 20
1330.9999999999998
 30
0.0
 11
2024.5999999999999
 21
-1388.9999999999998
 31
0.0
  0
LINE
  8
FRAME
  6
CONTINUOUS
  5
18A
 10
-2025.3999999999999
 20
1330.9999999999998
 30
0.0
 11
2024.5999999999999
 21
1330.9999999999998
 31
0.0
  0
LINE
  8
OBJECT
  6
CONTINUOUS
  5
18B
 10
1264.3599999999999
 20
-1388.9999999999998
 30
0.0
 11
1264.3599999999999
 21
-1249.0
 31
0.0
  0
LINE
  8
OBJECT
  6
CONTINUOUS
  5
18C
 10
1044.3599999999999
 20
-1388.9999999999998
 30
0.0
 11
1044.3599999999999
 21
-1249.0
 31
0.0
  0
LINE
  8
OBJECT
  6
CONTINUOUS
  5
18D
 10
444.35999999999996
 20
-1388.9999999999998
 30
0.0
 11
444.35999999999996
 21
-1249.0
 31
0.0
  0
LINE
  8
OBJECT
  6
CONTINUOUS
  5
18E
 10
-675.39999999999998
 20
-1388.9999999999998
 30
0.0
 11
-675.39999999999998
 21
-1249.0
 31
0.0
  0
TEXT
  8
OBJECT
  5
18F
 10
-650.63999999999999
 20
-1289.4079999999999
 30
0.0
 40
24.253625
  1
品　名
  7
________
 11
-650.63999999999999
 21
-1260.2154549999998
 31
0.0
 73
               3
  0
TEXT
  8
OBJECT
  5
190
 10
464.35999999999996
 20
-1294.4079999999999
 30
0.0
 40
24.253625
  1
形　式
  7
________
 11
464.35999999999996
 21
-1265.2154549999998
 31
0.0
 73
               3
  0
TEXT
  8
OBJECT
  5
191
 10
1069.3599999999999
 20
-1294.4079999999999
 30
0.0
 40
24.253625
  1
尺　度
  7
________
 11
1069.3599999999999
 21
-1265.2154549999998
 31
0.0
 73
               3
  0
TEXT
  8
OBJECT
  5
192
 10
1289.3599999999999
 20
-1294.4079999999999
 30
0.0
 40
24.253625
  1
図　番
  7
________
 11
1289.3599999999999
 21
-1265.2154549999998
 31
0.0
 73
               3
  0
LINE
  8
OBJECT
  6
CONTINUOUS
  5
193
 10
-1095.3999999999999
 20
-1388.9999999999998
 30
0.0
 11
-1095.3999999999999
 21
-1249.0
 31
0.0
  0
TEXT
  8
OBJECT
  5
194
 10
1115.3119999999999
 20
-1363.4029999999998
 30
0.0
 40
33.954937499999993
  1
1/10
  7
________
 11
1115.3119999999999
 21
-1322.5336024999999
 31
0.0
 73
               3
  0
LINE
  8
FRAME
  6
CONTINUOUS
  5
195
 10
-2025.3999999999999
 20
-1249.0
 30
0.0
 11
2024.5999999999999
 21
-1249.0
 31
0.0
  0
TEXT
  8
OBJECT
  5
196
 10
-1085.6399999999999
 20
-1292.3868
 30
0.0
 40
24.253625
  1
検  図
  7
________
 11
-1085.6399999999999
 21
-1263.1942549999999
 31
0.0
 73
               3
  0
TEXT
  8
OBJECT
  5
197
 10
-1085.6399999999999
 20
-1337.4679999999998
 30
0.0
 40
24.253625
  1
担  当
  7
________
 11
-1085.6399999999999
 21
-1308.2754549999997
 31
0.0
 73
               3
  0
TEXT
  8
OBJECT
  5
198
 10
-1085.6399999999999
 20
-1382.338
 30
0.0
 40
24.253625
  1
年月日
  7
________
 11
-1085.6399999999999
 21
-1353.1454549999999
 31
0.0
 73
               3
  0
LINE
  8
OBJECT
  6
CONTINUOUS
  5
199
 10
-1095.3999999999999
 20
-1297.9399999999998
 30
0.0
 11
-675.39999999999998
 21
-1297.9399999999998
 31
0.0
  0
LINE
  8
OBJECT
  6
CONTINUOUS
  5
19A
 10
-1095.3999999999999
 20
-1342.3299999999999
 30
0.0
 11
-675.39999999999998
 21
-1342.3299999999999
 31
0.0
  0
TEXT
  8
TEXT
  5
19B
 10
-44.165000000000077
 20
-1364.4237999999998
 30
0.0
 40
33.954937499999993
  1
食器ディスペンサー
  7
________
 11
-44.165000000000077
 21
-1323.5544024999999
 31
0.0
 73
               3
  0
TEXT
  8
TEXT
  5
19C
 10
-930.0
 20
-1385.2777777777778
 30
0.0
 40
24.253472222222221
  1
2013.03.28
  7
________
 11
-930.0
 21
-1356.0854166666666
 31
0.0
 73
               3
  0
TEXT
  8
TEXT
  5
19D
 10
-930.0
 20
-1337.2777777777778
 30
0.0
 40
24.253472222222221
  1
月川
  7
________
 11
-930.0
 21
-1308.0854166666666
 31
0.0
 73
               3
  0
TEXT
  8
TEXT
  5
19E
 10
-930.0
 20
-1293.2777777777778
 30
0.0
 40
24.253472222222221
  1
大谷
  7
________
 11
-930.0
 21
-1264.0854166666666
 31
0.0
 73
               3
  0
TEXT
  8
TEXT
  5
19F
 10
1430.0
 20
-1383.5944444444444
 30
0.0
 40
70.739293981481481
  1
A330-107B
  7
ARIAL
 11
1430.0
 21
-1288.1607060185186
 31
0.0
 73
               3
  0
LINE
  8
CENTER
  6
STYLE_03
  5
1A0
 10
-900.0
 20
-1050.0
 30
0.0
 11
-900.0
 21
-65.500000000000057
 31
0.0
  0
LINE
  8
OBJECT
  6
CONTINUOUS
  5
1A1
 10
-1400.0
 20
-1000.0
 30
0.0
 11
-400.0
 21
-1000.0
 31
0.0
  0
POLYLINE
  8
OBJECT
  6
CONTINUOUS
  5
1A2
 66
               1
 10
0.0
 20
0.0
 30
0.0
 70
             129
  0
VERTEX
  8
OBJECT
  6
CONTINUOUS
  5
1A3
 10
-1300.5
 20
-945.5
 30
0.0
 42
-0.414213562373095
 70
               2
 50
1.8714839861558573E+17
  0
VERTEX
  8
OBJECT
  6
CONTINUOUS
  5
1A4
 10
-1298.5
 20
-947.5
 30
0.0
  0
VERTEX
  8
OBJECT
  6
CONTINUOUS
  5
1A5
 10
-1298.5
 20
-960.5
 30
0.0
 42
-0.414213562373095
 70
               2
  0
VERTEX
  8
OBJECT
  6
CONTINUOUS
  5
1A6
 10
-1300.5
 20
-962.5
 30
0.0
  0
VERTEX
  8
OBJECT
  6
CONTINUOUS
  5
1A7
 10
-1301.5
 20
-962.5
 30
0.0
  0
VERTEX
  8
OBJECT
  6
CONTINUOUS
  5
1A8
 10
-1301.5
 20
-955.5
 30
0.0
  0
VERTEX
  8
OBJECT
  6
CONTINUOUS
  5
1A9
 10
-1316.5
 20
-955.5
 30
0.0
 42
-0.414213562373095
 70
               2
 50
3.1191399769264294E+17
  0
VERTEX
  8
OBJECT
  6
CONTINUOUS
  5
1AA
 10
-1318.5
 20
-953.5
 30
0.0
  0
VERTEX
  8
OBJECT
  6
CONTINUOUS
  5
1AB
 10
-1318.5
 20
-947.5
 30
0.0
 42
-0.414213562373095
 70
               2
  0
VERTEX
  8
OBJECT
  6
CONTINUOUS
  5
1AC
 10
-1316.5
 20
-945.5
 30
0.0
  0
SEQEND
  8
OBJECT
  6
CONTINUOUS
  5
1AD
  0
POLYLINE
  8
OBJECT
  6
CONTINUOUS
  5
1AE
 66
               1
 10
0.0
 20
0.0
 30
0.0
 70
               1
 75
               5
  0
VERTEX
  8
OBJECT
  6
CONTINUOUS
  5
1AF
 10
-1313.0
 20
-881.0
 30
0.0
  0
VERTEX
  8
OBJECT
  6
CONTINUOUS
  5
1B0
 10
-1243.0
 20
-881.0
 30
0.0
  0
VERTEX
  8
OBJECT
  6
CONTINUOUS
  5
1B1
 10
-1243.0
 20
-884.0
 30
0.0
  0
VERTEX
  8
OBJECT
  6
CONTINUOUS
  5
1B2
 10
-1313.0
 20
-884.0
 30
0.0
  0
SEQEND
  8
OBJECT
  6
CONTINUOUS
  5
1B3
  0
POLYLINE
  8
OBJECT
  6
CONTINUOUS
  5
1B4
 66
               1
 10
0.0
 20
0.0
 30
0.0
 70
               1
 75
               5
  0
VERTEX
  8
OBJECT
  6
CONTINUOUS
  5
1B5
 10
-1304.5
 20
-884.0
 30
0.0
  0
VERTEX
  8
OBJECT
  6
CONTINUOUS
  5
1B6
 10
-1251.5
 20
-884.0
 30
0.0
  0
VERTEX
  8
OBJECT
  6
CONTINUOUS
  5
1B7
 10
-1255.5
 20
-887.5
 30
0.0
  0
VERTEX
  8
OBJECT
  6
CONTINUOUS
  5
1B8
 10
-1255.5
 20
-891.0
 30
0.0
  0
VERTEX
  8
OBJECT
  6
CONTINUOUS
  5
1B9
 10
-1300.5
 20
-891.0
 30
0.0
  0
VERTEX
  8
OBJECT
  6
CONTINUOUS
  5
1BA
 10
-1300.5
 20
-887.5
 30
0.0
  0
SEQEND
  8
OBJECT
  6
CONTINUOUS
  5
1BB
  0
LINE
  8
OBJECT
  6
CONTINUOUS
  5
1BC
 10
-1300.5
 20
-887.5
 30
0.0
 11
-1255.5
 21
-887.5
 31
0.0
  0
POLYLINE
  8
OBJECT
  6
CONTINUOUS
  5
1BD
 66
               1
 10
0.0
 20
0.0
 30
0.0
 70
             129
  0
VERTEX
  8
OBJECT
  6
CONTINUOUS
  5
1BE
 10
-1254.0
 20
-891.0
 30
0.0
  0
VERTEX
  8
OBJECT
  6
CONTINUOUS
  5
1BF
 10
-1302.0
 20
-891.0
 30
0.0
  0
VERTEX
  8
OBJECT
  6
CONTINUOUS
  5
1C0
 10
-1302.0
 20
-915.5
 30
0.0
  0
VERTEX
  8
OBJECT
  6
CONTINUOUS
  5
1C1
 10
-1301.90625
 20
-919.2109375
 30
0.0
  0
VERTEX
  8
OBJECT
  6
CONTINUOUS
  5
1C2
 10
-1301.625
 20
-922.84375
 30
0.0
  0
VERTEX
  8
OBJECT
  6
CONTINUOUS
  5
1C3
 10
-1301.15625
 20
-926.3984375
 30
0.0
  0
VERTEX
  8
OBJECT
  6
CONTINUOUS
  5
1C4
 10
-1300.5
 20
-929.875
 30
0.0
  0
VERTEX
  8
OBJECT
  6
CONTINUOUS
  5
1C5
 10
-1299.65625
 20
-933.2734375
 30
0.0
  0
VERTEX
  8
OBJECT
  6
CONTINUOUS
  5
1C6
 10
-1298.625
 20
-936.59375
 30
0.0
  0
VERTEX
  8
OBJECT
  6
CONTINUOUS
  5
1C7
 10
-1297.40625
 20
-939.8359375
 30
0.0
  0
VERTEX
  8
OBJECT
  6
CONTINUOUS
  5
1C8
 10
-1296.0
 20
-943.0
 30
0.0
  0
VERTEX
  8
OBJECT
  6
CONTINUOUS
  5
1C9
 10
-1296.0
 20
-943.0
 30
0.0
  0
VERTEX
  8
OBJECT
  6
CONTINUOUS
  5
1CA
 10
-1296.0
 20
-960.0
 30
0.0
  0
VERTEX
  8
OBJECT
  6
CONTINUOUS
  5
1CB
 10
-1293.0
 20
-960.0
 30
0.0
  0
VERTEX
  8
OBJECT
  6
CONTINUOUS
  5
1CC
 10
-1293.0
 20
-896.0
 30
0.0
  0
VERTEX
  8
OBJECT
  6
CONTINUOUS
  5
1CD
 10
-1263.0
 20
-896.0
 30
0.0
  0
VERTEX
  8
OBJECT
  6
CONTINUOUS
  5
1CE
 10
-1263.0
 20
-960.0
 30
0.0
  0
VERTEX
  8
OBJECT
  6
CONTINUOUS
  5
1CF
 10
-1260.0
 20
-960.0
 30
0.0
  0
VERTEX
  8
OBJECT
  6
CONTINUOUS
  5
1D0
 10
-1260.0
 20
-943.0
 30
0.0
  0
VERTEX
  8
OBJECT
  6
CONTINUOUS
  5
1D1
 10
-1258.59375
 20
-939.8359375
 30
0.0
  0
VERTEX
  8
OBJECT
  6
CONTINUOUS
  5
1D2
 10
-1257.375
 20
-936.59375
 30
0.0
  0
VERTEX
  8
OBJECT
  6
CONTINUOUS
  5
1D3
 10
-1256.34375
 20
-933.2734375
 30
0.0
  0
VERTEX
  8
OBJECT
  6
CONTINUOUS
  5
1D4
 10
-1255.5
 20
-929.875
 30
0.0
  0
VERTEX
  8
OBJECT
  6
CONTINUOUS
  5
1D5
 10
-1254.84375
 20
-926.3984375
 30
0.0
  0
VERTEX
  8
OBJECT
  6
CONTINUOUS
  5
1D6
 10
-1254.375
 20
-922.84375
 30
0.0
  0
VERTEX
  8
OBJECT
  6
CONTINUOUS
  5
1D7
 10
-1254.09375
 20
-919.2109375
 30
0.0
  0
VERTEX
  8
OBJECT
  6
CONTINUOUS
  5
1D8
 10
-1254.0
 20
-915.5
 30
0.0
  0
VERTEX
  8
OBJECT
  6
CONTINUOUS
  5
1D9
 10
-1254.0
 20
-915.5
 30
0.0
  0
VERTEX
  8
OBJECT
  6
CONTINUOUS
  5
1DA
 10
-1254.0
 20
-891.0
 30
0.0
  0
SEQEND
  8
OBJECT
  6
CONTINUOUS
  5
1DB
  0
POLYLINE
  8
OBJECT
  6
CONTINUOUS
  5
1DC
 66
               1
 10
0.0
 20
0.0
 30
0.0
 70
               1
 75
               5
  0
VERTEX
  8
OBJECT
  6
CONTINUOUS
  5
1DD
 10
-1260.0
 20
-893.0
 30
0.0
  0
VERTEX
  8
OBJECT
  6
CONTINUOUS
  5
1DE
 10
-1296.0
 20
-893.0
 30
0.0
  0
VERTEX
  8
OBJECT
  6
CONTINUOUS
  5
1DF
 10
-1296.0
 20
-960.0
 30
0.0
  0
VERTEX
  8
OBJECT
  6
CONTINUOUS
  5
1E0
 10
-1293.0
 20
-960.0
 30
0.0
  0
VERTEX
  8
OBJECT
  6
CONTINUOUS
  5
1E1
 10
-1293.0
 20
-896.0
 30
0.0
  0
VERTEX
  8
OBJECT
  6
CONTINUOUS
  5
1E2
 10
-1263.0
 20
-896.0
 30
0.0
  0
VERTEX
  8
OBJECT
  6
CONTINUOUS
  5
1E3
 10
-1263.0
 20
-960.0
 30
0.0
  0
VERTEX
  8
OBJECT
  6
CONTINUOUS
  5
1E4
 10
-1260.0
 20
-960.0
 30
0.0
  0
SEQEND
  8
OBJECT
  6
CONTINUOUS
  5
1E5
  0
POLYLINE
  8
OBJECT
  6
CONTINUOUS
  5
1E6
 66
               1
 10
0.0
 20
0.0
 30
0.0
 70
             129
  0
VERTEX
  8
OBJECT
  6
CONTINUOUS
  5
1E7
 10
-1265.5
 20
-950.0
 30
0.0
  0
VERTEX
  8
OBJECT
  6
CONTINUOUS
  5
1E8
 10
-1265.5
 20
-950.0
 30
0.0
  0
VERTEX
  8
OBJECT
  6
CONTINUOUS
  5
1E9
 10
-1265.5
 20
-903.21218971442909
 30
0.0
 42
0.369580529676695
 70
               2
  0
VERTEX
  8
OBJECT
  6
CONTINUOUS
  5
1EA
 10
-1267.1917284997785
 20
-901.23609035403467
 30
0.0
  0
VERTEX
  8
OBJECT
  6
CONTINUOUS
  5
1EB
 10
-1273.3125
 20
-900.28125
 30
0.0
  0
VERTEX
  8
OBJECT
  6
CONTINUOUS
  5
1EC
 10
-1274.875
 20
-900.125
 30
0.0
  0
VERTEX
  8
OBJECT
  6
CONTINUOUS
  5
1ED
 10
-1276.4375
 20
-900.03125
 30
0.0
  0
VERTEX
  8
OBJECT
  6
CONTINUOUS
  5
1EE
 10
-1278.0
 20
-900.0
 30
0.0
  0
VERTEX
  8
OBJECT
  6
CONTINUOUS
  5
1EF
 10
-1279.5625
 20
-900.03125
 30
0.0
  0
VERTEX
  8
OBJECT
  6
CONTINUOUS
  5
1F0
 10
-1281.125
 20
-900.125
 30
0.0
  0
VERTEX
  8
OBJECT
  6
CONTINUOUS
  5
1F1
 10
-1282.6875
 20
-900.28125
 30
0.0
  0
VERTEX
  8
OBJECT
  6
CONTINUOUS
  5
1F2
 10
-1284.25
 20
-900.5
 30
0.0
  0
VERTEX
  8
OBJECT
  6
CONTINUOUS
  5
1F3
 10
-1284.25
 20
-900.5
 30
0.0
  0
VERTEX
  8
OBJECT
  6
CONTINUOUS
  5
1F4
 10
-1288.8159810022134
 20
-901.23055696035408
 30
0.0
 42
0.3684720233173343
 70
               2
 50
-358.09862195642449
  0
VERTEX
  8
OBJECT
  6
CONTINUOUS
  5
1F5
 10
-1290.5
 20
-903.20543822418745
 30
0.0
  0
VERTEX
  8
OBJECT
  6
CONTINUOUS
  5
1F6
 10
-1290.5
 20
-950.0
 30
0.0
  0
VERTEX
  8
OBJECT
  6
CONTINUOUS
  5
1F7
 10
-1290.5
 20
-996.78781028557103
 30
0.0
 42
0.369580529676695
 70
               2
  0
VERTEX
  8
OBJECT
  6
CONTINUOUS
  5
1F8
 10
-1288.8082715002215
 20
-998.76390964596544
 30
0.0
  0
VERTEX
  8
OBJECT
  6
CONTINUOUS
  5
1F9
 10
-1282.6875
 20
-999.71875
 30
0.0
  0
VERTEX
  8
OBJECT
  6
CONTINUOUS
  5
1FA
 10
-1281.125
 20
-999.875
 30
0.0
  0
VERTEX
  8
OBJECT
  6
CONTINUOUS
  5
1FB
 10
-1279.5625
 20
-999.96875
 30
0.0
  0
VERTEX
  8
OBJECT
  6
CONTINUOUS
  5
1FC
 10
-1278.0
 20
-1000.0
 30
0.0
  0
VERTEX
  8
OBJECT
  6
CONTINUOUS
  5
1FD
 10
-1276.4375
 20
-999.96875
 30
0.0
  0
VERTEX
  8
OBJECT
  6
CONTINUOUS
  5
1FE
 10
-1274.875
 20
-999.875
 30
0.0
  0
VERTEX
  8
OBJECT
  6
CONTINUOUS
  5
1FF
 10
-1273.3125
 20
-999.71875
 30
0.0
  0
VERTEX
  8
OBJECT
  6
CONTINUOUS
  5
200
 10
-1271.75
 20
-999.5
 30
0.0
  0
VERTEX
  8
OBJECT
  6
CONTINUOUS
  5
201
 10
-1271.75
 20
-999.5
 30
0.0
  0
VERTEX
  8
OBJECT
  6
CONTINUOUS
  5
202
 10
-1267.1840189977866
 20
-998.76944303964592
 30
0.0
 42
0.3684720233173662
 70
               2
 50
-358.09862195668222
  0
VERTEX
  8
OBJECT
  6
CONTINUOUS
  5
203
 10
-1265.5
 20
-996.79456177581255
 30
0.0
  0
VERTEX
  8
OBJECT
  6
CONTINUOUS
  5
204
 10
-1265.5
 20
-950.0
 30
0.0
  0
SEQEND
  8
OBJECT
  6
CONTINUOUS
  5
205
  0
POLYLINE
  8
OBJECT
  6
CONTINUOUS
  5
206
 66
               1
 10
0.0
 20
0.0
 30
0.0
 70
               1
 75
               5
  0
VERTEX
  8
OBJECT
  6
CONTINUOUS
  5
207
 10
-1293.0
 20
-941.75
 30
0.0
  0
VERTEX
  8
OBJECT
  6
CONTINUOUS
  5
208
 10
-1290.5
 20
-941.75
 30
0.0
  0
VERTEX
  8
OBJECT
  6
CONTINUOUS
  5
209
 10
-1290.5
 20
-958.25
 30
0.0
  0
VERTEX
  8
OBJECT
  6
CONTINUOUS
  5
20A
 10
-1293.0
 20
-958.25
 30
0.0
  0
SEQEND
  8
OBJECT
  6
CONTINUOUS
  5
20B
  0
POLYLINE
  8
OBJECT
  6
CONTINUOUS
  5
20C
 66
               1
 10
0.0
 20
0.0
 30
0.0
 70
               1
 75
               5
  0
VERTEX
  8
OBJECT
  6
CONTINUOUS
  5
20D
 10
-1265.5
 20
-941.75
 30
0.0
  0
VERTEX
  8
OBJECT
  6
CONTINUOUS
  5
20E
 10
-1263.0
 20
-941.75
 30
0.0
  0
VERTEX
  8
OBJECT
  6
CONTINUOUS
  5
20F
 10
-1263.0
 20
-958.25
 30
0.0
  0
VERTEX
  8
OBJECT
  6
CONTINUOUS
  5
210
 10
-1265.5
 20
-958.25
 30
0.0
  0
SEQEND
  8
OBJECT
  6
CONTINUOUS
  5
211
  0
POLYLINE
  8
OBJECT
  6
CONTINUOUS
  5
212
 66
               1
 10
0.0
 20
0.0
 30
0.0
 70
               1
 75
               5
  0
VERTEX
  8
OBJECT
  6
CONTINUOUS
  5
213
 10
-1260.0
 20
-944.5
 30
0.0
  0
VERTEX
  8
OBJECT
  6
CONTINUOUS
  5
214
 10
-1257.5
 20
-944.5
 30
0.0
  0
VERTEX
  8
OBJECT
  6
CONTINUOUS
  5
215
 10
-1257.5
 20
-955.5
 30
0.0
  0
VERTEX
  8
OBJECT
  6
CONTINUOUS
  5
216
 10
-1260.0
 20
-955.5
 30
0.0
  0
SEQEND
  8
OBJECT
  6
CONTINUOUS
  5
217
  0
POLYLINE
  8
OBJECT
  6
CONTINUOUS
  5
218
 66
               1
 10
0.0
 20
0.0
 30
0.0
 70
               1
 75
               5
  0
VERTEX
  8
OBJECT
  6
CONTINUOUS
  5
219
 10
-1298.5
 20
-944.5
 30
0.0
  0
VERTEX
  8
OBJECT
  6
CONTINUOUS
  5
21A
 10
-1296.0
 20
-944.5
 30
0.0
  0
VERTEX
  8
OBJECT
  6
CONTINUOUS
  5
21B
 10
-1296.0
 20
-955.5
 30
0.0
  0
VERTEX
  8
OBJECT
  6
CONTINUOUS
  5
21C
 10
-1298.5
 20
-955.5
 30
0.0
  0
SEQEND
  8
OBJECT
  6
CONTINUOUS
  5
21D
  0
POLYLINE
  8
OBJECT
  6
CONTINUOUS
  5
21E
 66
               1
 10
0.0
 20
0.0
 30
0.0
 70
               1
 75
               5
  0
VERTEX
  8
OBJECT
  6
CONTINUOUS
  5
21F
 10
-1298.5
 20
-937.5
 30
0.0
  0
VERTEX
  8
OBJECT
  6
CONTINUOUS
  5
220
 10
-1298.5
 20
-962.5
 30
0.0
  0
VERTEX
  8
OBJECT
  6
CONTINUOUS
  5
221
 10
-1301.5
 20
-962.5
 30
0.0
  0
VERTEX
  8
OBJECT
  6
CONTINUOUS
  5
222
 10
-1301.5
 20
-940.5
 30
0.0
  0
VERTEX
  8
OBJECT
  6
CONTINUOUS
  5
223
 10
-1318.5
 20
-940.5
 30
0.0
  0
VERTEX
  8
OBJECT
  6
CONTINUOUS
  5
224
 10
-1318.5
 20
-937.5
 30
0.0
  0
SEQEND
  8
OBJECT
  6
CONTINUOUS
  5
225
  0
LINE
  8
OBJECT
  6
CONTINUOUS
  5
226
 10
-1316.5
 20
-948.5
 30
0.0
 11
-1301.5
 21
-948.5
 31
0.0
  0
ARC
  8
OBJECT
  6
CONTINUOUS
  5
227
 10
-1316.5
 20
-950.5
 30
0.0
 40
2.0
 50
90.0
 51
180.0
  0
POLYLINE
  8
OBJECT
  6
CONTINUOUS
  5
228
 66
               1
 10
0.0
 20
0.0
 30
0.0
 70
             129
  0
VERTEX
  8
OBJECT
  6
CONTINUOUS
  5
229
 10
-544.5
 20
-945.5
 30
0.0
 42
-0.414213562373095
 70
               2
 50
1.8714839861558573E+17
  0
VERTEX
  8
OBJECT
  6
CONTINUOUS
  5
22A
 10
-542.5
 20
-947.5
 30
0.0
  0
VERTEX
  8
OBJECT
  6
CONTINUOUS
  5
22B
 10
-542.5
 20
-960.5
 30
0.0
 42
-0.414213562373095
 70
               2
  0
VERTEX
  8
OBJECT
  6
CONTINUOUS
  5
22C
 10
-544.5
 20
-962.5
 30
0.0
  0
VERTEX
  8
OBJECT
  6
CONTINUOUS
  5
22D
 10
-545.5
 20
-962.5
 30
0.0
  0
VERTEX
  8
OBJECT
  6
CONTINUOUS
  5
22E
 10
-545.5
 20
-955.5
 30
0.0
  0
VERTEX
  8
OBJECT
  6
CONTINUOUS
  5
22F
 10
-560.5
 20
-955.5
 30
0.0
 42
-0.414213562373095
 70
               2
 50
3.1191399769264294E+17
  0
VERTEX
  8
OBJECT
  6
CONTINUOUS
  5
230
 10
-562.5
 20
-953.5
 30
0.0
  0
VERTEX
  8
OBJECT
  6
CONTINUOUS
  5
231
 10
-562.5
 20
-947.5
 30
0.0
 42
-0.414213562373095
 70
               2
  0
VERTEX
  8
OBJECT
  6
CONTINUOUS
  5
232
 10
-560.5
 20
-945.5
 30
0.0
  0
SEQEND
  8
OBJECT
  6
CONTINUOUS
  5
233
  0
POLYLINE
  8
OBJECT
  6
CONTINUOUS
  5
234
 66
               1
 10
0.0
 20
0.0
 30
0.0
 70
               1
 75
               5
  0
VERTEX
  8
OBJECT
  6
CONTINUOUS
  5
235
 10
-557.0
 20
-881.0
 30
0.0
  0
VERTEX
  8
OBJECT
  6
CONTINUOUS
  5
236
 10
-487.0
 20
-881.0
 30
0.0
  0
VERTEX
  8
OBJECT
  6
CONTINUOUS
  5
237
 10
-487.0
 20
-884.0
 30
0.0
  0
VERTEX
  8
OBJECT
  6
CONTINUOUS
  5
238
 10
-557.0
 20
-884.0
 30
0.0
  0
SEQEND
  8
OBJECT
  6
CONTINUOUS
  5
239
  0
POLYLINE
  8
OBJECT
  6
CONTINUOUS
  5
23A
 66
               1
 10
0.0
 20
0.0
 30
0.0
 70
               1
 75
               5
  0
VERTEX
  8
OBJECT
  6
CONTINUOUS
  5
23B
 10
-548.5
 20
-884.0
 30
0.0
  0
VERTEX
  8
OBJECT
  6
CONTINUOUS
  5
23C
 10
-495.5
 20
-884.0
 30
0.0
  0
VERTEX
  8
OBJECT
  6
CONTINUOUS
  5
23D
 10
-499.5
 20
-887.5
 30
0.0
  0
VERTEX
  8
OBJECT
  6
CONTINUOUS
  5
23E
 10
-499.5
 20
-891.0
 30
0.0
  0
VERTEX
  8
OBJECT
  6
CONTINUOUS
  5
23F
 10
-544.5
 20
-891.0
 30
0.0
  0
VERTEX
  8
OBJECT
  6
CONTINUOUS
  5
240
 10
-544.5
 20
-887.5
 30
0.0
  0
SEQEND
  8
OBJECT
  6
CONTINUOUS
  5
241
  0
LINE
  8
OBJECT
  6
CONTINUOUS
  5
242
 10
-544.5
 20
-887.5
 30
0.0
 11
-499.5
 21
-887.5
 31
0.0
  0
POLYLINE
  8
OBJECT
  6
CONTINUOUS
  5
243
 66
               1
 10
0.0
 20
0.0
 30
0.0
 70
             129
  0
VERTEX
  8
OBJECT
  6
CONTINUOUS
  5
244
 10
-498.0
 20
-891.0
 30
0.0
  0
VERTEX
  8
OBJECT
  6
CONTINUOUS
  5
245
 10
-546.0
 20
-891.0
 30
0.0
  0
VERTEX
  8
OBJECT
  6
CONTINUOUS
  5
246
 10
-546.0
 20
-915.5
 30
0.0
  0
VERTEX
  8
OBJECT
  6
CONTINUOUS
  5
247
 10
-545.90625
 20
-919.2109375
 30
0.0
  0
VERTEX
  8
OBJECT
  6
CONTINUOUS
  5
248
 10
-545.625
 20
-922.84375
 30
0.0
  0
VERTEX
  8
OBJECT
  6
CONTINUOUS
  5
249
 10
-545.15625
 20
-926.3984375
 30
0.0
  0
VERTEX
  8
OBJECT
  6
CONTINUOUS
  5
24A
 10
-544.5
 20
-929.875
 30
0.0
  0
VERTEX
  8
OBJECT
  6
CONTINUOUS
  5
24B
 10
-543.65625
 20
-933.2734375
 30
0.0
  0
VERTEX
  8
OBJECT
  6
CONTINUOUS
  5
24C
 10
-542.625
 20
-936.59375
 30
0.0
  0
VERTEX
  8
OBJECT
  6
CONTINUOUS
  5
24D
 10
-541.40625
 20
-939.8359375
 30
0.0
  0
VERTEX
  8
OBJECT
  6
CONTINUOUS
  5
24E
 10
-540.0
 20
-943.0
 30
0.0
  0
VERTEX
  8
OBJECT
  6
CONTINUOUS
  5
24F
 10
-540.0
 20
-943.0
 30
0.0
  0
VERTEX
  8
OBJECT
  6
CONTINUOUS
  5
250
 10
-540.0
 20
-960.0
 30
0.0
  0
VERTEX
  8
OBJECT
  6
CONTINUOUS
  5
251
 10
-537.0
 20
-960.0
 30
0.0
  0
VERTEX
  8
OBJECT
  6
CONTINUOUS
  5
252
 10
-537.0
 20
-896.0
 30
0.0
  0
VERTEX
  8
OBJECT
  6
CONTINUOUS
  5
253
 10
-507.0
 20
-896.0
 30
0.0
  0
VERTEX
  8
OBJECT
  6
CONTINUOUS
  5
254
 10
-507.0
 20
-960.0
 30
0.0
  0
VERTEX
  8
OBJECT
  6
CONTINUOUS
  5
255
 10
-504.0
 20
-960.0
 30
0.0
  0
VERTEX
  8
OBJECT
  6
CONTINUOUS
  5
256
 10
-504.0
 20
-943.0
 30
0.0
  0
VERTEX
  8
OBJECT
  6
CONTINUOUS
  5
257
 10
-502.59375
 20
-939.8359375
 30
0.0
  0
VERTEX
  8
OBJECT
  6
CONTINUOUS
  5
258
 10
-501.375
 20
-936.59375
 30
0.0
  0
VERTEX
  8
OBJECT
  6
CONTINUOUS
  5
259
 10
-500.34375
 20
-933.2734375
 30
0.0
  0
VERTEX
  8
OBJECT
  6
CONTINUOUS
  5
25A
 10
-499.5
 20
-929.875
 30
0.0
  0
VERTEX
  8
OBJECT
  6
CONTINUOUS
  5
25B
 10
-498.84375
 20
-926.3984375
 30
0.0
  0
VERTEX
  8
OBJECT
  6
CONTINUOUS
  5
25C
 10
-498.375
 20
-922.84375
 30
0.0
  0
VERTEX
  8
OBJECT
  6
CONTINUOUS
  5
25D
 10
-498.09375
 20
-919.2109375
 30
0.0
  0
VERTEX
  8
OBJECT
  6
CONTINUOUS
  5
25E
 10
-498.0
 20
-915.5
 30
0.0
  0
VERTEX
  8
OBJECT
  6
CONTINUOUS
  5
25F
 10
-498.0
 20
-915.5
 30
0.0
  0
VERTEX
  8
OBJECT
  6
CONTINUOUS
  5
260
 10
-498.0
 20
-891.0
 30
0.0
  0
SEQEND
  8
OBJECT
  6
CONTINUOUS
  5
261
  0
POLYLINE
  8
OBJECT
  6
CONTINUOUS
  5
262
 66
               1
 10
0.0
 20
0.0
 30
0.0
 70
               1
 75
               5
  0
VERTEX
  8
OBJECT
  6
CONTINUOUS
  5
263
 10
-504.0
 20
-893.0
 30
0.0
  0
VERTEX
  8
OBJECT
  6
CONTINUOUS
  5
264
 10
-540.0
 20
-893.0
 30
0.0
  0
VERTEX
  8
OBJECT
  6
CONTINUOUS
  5
265
 10
-540.0
 20
-960.0
 30
0.0
  0
VERTEX
  8
OBJECT
  6
CONTINUOUS
  5
266
 10
-537.0
 20
-960.0
 30
0.0
  0
VERTEX
  8
OBJECT
  6
CONTINUOUS
  5
267
 10
-537.0
 20
-896.0
 30
0.0
  0
VERTEX
  8
OBJECT
  6
CONTINUOUS
  5
268
 10
-507.0
 20
-896.0
 30
0.0
  0
VERTEX
  8
OBJECT
  6
CONTINUOUS
  5
269
 10
-507.0
 20
-960.0
 30
0.0
  0
VERTEX
  8
OBJECT
  6
CONTINUOUS
  5
26A
 10
-504.0
 20
-960.0
 30
0.0
  0
SEQEND
  8
OBJECT
  6
CONTINUOUS
  5
26B
  0
POLYLINE
  8
OBJECT
  6
CONTINUOUS
  5
26C
 66
               1
 10
0.0
 20
0.0
 30
0.0
 70
             129
  0
VERTEX
  8
OBJECT
  6
CONTINUOUS
  5
26D
 10
-509.5
 20
-950.0
 30
0.0
  0
VERTEX
  8
OBJECT
  6
CONTINUOUS
  5
26E
 10
-509.5
 20
-950.0
 30
0.0
  0
VERTEX
  8
OBJECT
  6
CONTINUOUS
  5
26F
 10
-509.5
 20
-903.21218971442897
 30
0.0
 42
0.369580529676703
 70
               2
  0
VERTEX
  8
OBJECT
  6
CONTINUOUS
  5
270
 10
-511.19172849977849
 20
-901.23609035403456
 30
0.0
  0
VERTEX
  8
OBJECT
  6
CONTINUOUS
  5
271
 10
-517.3125
 20
-900.28125
 30
0.0
  0
VERTEX
  8
OBJECT
  6
CONTINUOUS
  5
272
 10
-518.875
 20
-900.125
 30
0.0
  0
VERTEX
  8
OBJECT
  6
CONTINUOUS
  5
273
 10
-520.4375
 20
-900.03125
 30
0.0
  0
VERTEX
  8
OBJECT
  6
CONTINUOUS
  5
274
 10
-522.0
 20
-900.0
 30
0.0
  0
VERTEX
  8
OBJECT
  6
CONTINUOUS
  5
275
 10
-523.5625
 20
-900.03125
 30
0.0
  0
VERTEX
  8
OBJECT
  6
CONTINUOUS
  5
276
 10
-525.125
 20
-900.125
 30
0.0
  0
VERTEX
  8
OBJECT
  6
CONTINUOUS
  5
277
 10
-526.6875
 20
-900.28125
 30
0.0
  0
VERTEX
  8
OBJECT
  6
CONTINUOUS
  5
278
 10
-528.25
 20
-900.5
 30
0.0
  0
VERTEX
  8
OBJECT
  6
CONTINUOUS
  5
279
 10
-528.25
 20
-900.5
 30
0.0
  0
VERTEX
  8
OBJECT
  6
CONTINUOUS
  5
27A
 10
-532.81598100221333
 20
-901.23055696035419
 30
0.0
 42
0.3684720233173957
 70
               2
 50
-358.09862195679051
  0
VERTEX
  8
OBJECT
  6
CONTINUOUS
  5
27B
 10
-534.5
 20
-903.20543822418756
 30
0.0
  0
VERTEX
  8
OBJECT
  6
CONTINUOUS
  5
27C
 10
-534.5
 20
-950.0
 30
0.0
  0
VERTEX
  8
OBJECT
  6
CONTINUOUS
  5
27D
 10
-534.5
 20
-996.78781028557114
 30
0.0
 42
0.369580529676695
 70
               2
  0
VERTEX
  8
OBJECT
  6
CONTINUOUS
  5
27E
 10
-532.80827150022151
 20
-998.76390964596555
 30
0.0
  0
VERTEX
  8
OBJECT
  6
CONTINUOUS
  5
27F
 10
-526.6875
 20
-999.71875
 30
0.0
  0
VERTEX
  8
OBJECT
  6
CONTINUOUS
  5
280
 10
-525.125
 20
-999.875
 30
0.0
  0
VERTEX
  8
OBJECT
  6
CONTINUOUS
  5
281
 10
-523.5625
 20
-999.96875
 30
0.0
  0
VERTEX
  8
OBJECT
  6
CONTINUOUS
  5
282
 10
-522.0
 20
-1000.0
 30
0.0
  0
VERTEX
  8
OBJECT
  6
CONTINUOUS
  5
283
 10
-520.4375
 20
-999.96875
 30
0.0
  0
VERTEX
  8
OBJECT
  6
CONTINUOUS
  5
284
 10
-518.875
 20
-999.875
 30
0.0
  0
VERTEX
  8
OBJECT
  6
CONTINUOUS
  5
285
 10
-517.3125
 20
-999.71875
 30
0.0
  0
VERTEX
  8
OBJECT
  6
CONTINUOUS
  5
286
 10
-515.75
 20
-999.5
 30
0.0
  0
VERTEX
  8
OBJECT
  6
CONTINUOUS
  5
287
 10
-515.75
 20
-999.5
 30
0.0
  0
VERTEX
  8
OBJECT
  6
CONTINUOUS
  5
288
 10
-511.18401899778667
 20
-998.76944303964592
 30
0.0
 42
0.3684720233173742
 70
               2
 50
-358.09862195674742
  0
VERTEX
  8
OBJECT
  6
CONTINUOUS
  5
289
 10
-509.5
 20
-996.79456177581255
 30
0.0
  0
VERTEX
  8
OBJECT
  6
CONTINUOUS
  5
28A
 10
-509.5
 20
-950.0
 30
0.0
  0
SEQEND
  8
OBJECT
  6
CONTINUOUS
  5
28B
  0
POLYLINE
  8
OBJECT
  6
CONTINUOUS
  5
28C
 66
               1
 10
0.0
 20
0.0
 30
0.0
 70
               1
 75
               5
  0
VERTEX
  8
OBJECT
  6
CONTINUOUS
  5
28D
 10
-537.0
 20
-941.75
 30
0.0
  0
VERTEX
  8
OBJECT
  6
CONTINUOUS
  5
28E
 10
-534.5
 20
-941.75
 30
0.0
  0
VERTEX
  8
OBJECT
  6
CONTINUOUS
  5
28F
 10
-534.5
 20
-958.25
 30
0.0
  0
VERTEX
  8
OBJECT
  6
CONTINUOUS
  5
290
 10
-537.0
 20
-958.25
 30
0.0
  0
SEQEND
  8
OBJECT
  6
CONTINUOUS
  5
291
  0
POLYLINE
  8
OBJECT
  6
CONTINUOUS
  5
292
 66
               1
 10
0.0
 20
0.0
 30
0.0
 70
               1
 75
               5
  0
VERTEX
  8
OBJECT
  6
CONTINUOUS
  5
293
 10
-509.5
 20
-941.75
 30
0.0
  0
VERTEX
  8
OBJECT
  6
CONTINUOUS
  5
294
 10
-507.0
 20
-941.75
 30
0.0
  0
VERTEX
  8
OBJECT
  6
CONTINUOUS
  5
295
 10
-507.0
 20
-958.25
 30
0.0
  0
VERTEX
  8
OBJECT
  6
CONTINUOUS
  5
296
 10
-509.5
 20
-958.25
 30
0.0
  0
SEQEND
  8
OBJECT
  6
CONTINUOUS
  5
297
  0
POLYLINE
  8
OBJECT
  6
CONTINUOUS
  5
298
 66
               1
 10
0.0
 20
0.0
 30
0.0
 70
               1
 75
               5
  0
VERTEX
  8
OBJECT
  6
CONTINUOUS
  5
299
 10
-504.0
 20
-944.5
 30
0.0
  0
VERTEX
  8
OBJECT
  6
CONTINUOUS
  5
29A
 10
-501.5
 20
-944.5
 30
0.0
  0
VERTEX
  8
OBJECT
  6
CONTINUOUS
  5
29B
 10
-501.5
 20
-955.5
 30
0.0
  0
VERTEX
  8
OBJECT
  6
CONTINUOUS
  5
29C
 10
-504.0
 20
-955.5
 30
0.0
  0
SEQEND
  8
OBJECT
  6
CONTINUOUS
  5
29D
  0
POLYLINE
  8
OBJECT
  6
CONTINUOUS
  5
29E
 66
               1
 10
0.0
 20
0.0
 30
0.0
 70
               1
 75
               5
  0
VERTEX
  8
OBJECT
  6
CONTINUOUS
  5
29F
 10
-542.5
 20
-944.5
 30
0.0
  0
VERTEX
  8
OBJECT
  6
CONTINUOUS
  5
2A0
 10
-540.0
 20
-944.5
 30
0.0
  0
VERTEX
  8
OBJECT
  6
CONTINUOUS
  5
2A1
 10
-540.0
 20
-955.5
 30
0.0
  0
VERTEX
  8
OBJECT
  6
CONTINUOUS
  5
2A2
 10
-542.5
 20
-955.5
 30
0.0
  0
SEQEND
  8
OBJECT
  6
CONTINUOUS
  5
2A3
  0
POLYLINE
  8
OBJECT
  6
CONTINUOUS
  5
2A4
 66
               1
 10
0.0
 20
0.0
 30
0.0
 70
               1
 75
               5
  0
VERTEX
  8
OBJECT
  6
CONTINUOUS
  5
2A5
 10
-542.5
 20
-937.5
 30
0.0
  0
VERTEX
  8
OBJECT
  6
CONTINUOUS
  5
2A6
 10
-542.5
 20
-962.5
 30
0.0
  0
VERTEX
  8
OBJECT
  6
CONTINUOUS
  5
2A7
 10
-545.5
 20
-962.5
 30
0.0
  0
VERTEX
  8
OBJECT
  6
CONTINUOUS
  5
2A8
 10
-545.5
 20
-940.5
 30
0.0
  0
VERTEX
  8
OBJECT
  6
CONTINUOUS
  5
2A9
 10
-562.5
 20
-940.5
 30
0.0
  0
VERTEX
  8
OBJECT
  6
CONTINUOUS
  5
2AA
 10
-562.5
 20
-937.5
 30
0.0
  0
SEQEND
  8
OBJECT
  6
CONTINUOUS
  5
2AB
  0
LINE
  8
OBJECT
  6
CONTINUOUS
  5
2AC
 10
-560.5
 20
-948.5
 30
0.0
 11
-545.5
 21
-948.5
 31
0.0
  0
ARC
  8
OBJECT
  6
CONTINUOUS
  5
2AD
 10
-560.5
 20
-950.5
 30
0.0
 40
2.0
 50
90.0
 51
180.0
  0
INSERT
  8
OBJECT
  5
2AE
  2
*U1
 10
0.0
 20
19.999999999999996
 30
0.0
  0
INSERT
  8
OBJECT
  5
2AF
  2
*U2
 10
0.0
 20
19.999999999999996
 30
0.0
  0
POLYLINE
  8
OBJECT
  6
CONTINUOUS
  5
2B0
 66
               1
 10
0.0
 20
0.0
 30
0.0
 75
               5
  0
VERTEX
  8
OBJECT
  6
CONTINUOUS
  5
2B1
 10
-480.0
 20
-846.0
 30
0.0
  0
VERTEX
  8
OBJECT
  6
CONTINUOUS
  5
2B2
 10
-480.0
 20
-841.0
 30
0.0
  0
VERTEX
  8
OBJECT
  6
CONTINUOUS
  5
2B3
 10
-1320.0
 20
-841.0
 30
0.0
  0
VERTEX
  8
OBJECT
  6
CONTINUOUS
  5
2B4
 10
-1320.0
 20
-846.0
 30
0.0
  0
SEQEND
  8
OBJECT
  6
CONTINUOUS
  5
2B5
  0
POLYLINE
  8
OBJECT
  6
CONTINUOUS
  5
2B6
 66
               1
 10
0.0
 20
0.0
 30
0.0
 75
               5
  0
VERTEX
  8
OBJECT
  6
CONTINUOUS
  5
2B7
 10
-480.0
 20
-876.0
 30
0.0
  0
VERTEX
  8
OBJECT
  6
CONTINUOUS
  5
2B8
 10
-480.0
 20
-881.0
 30
0.0
  0
VERTEX
  8
OBJECT
  6
CONTINUOUS
  5
2B9
 10
-1320.0
 20
-881.0
 30
0.0
  0
VERTEX
  8
OBJECT
  6
CONTINUOUS
  5
2BA
 10
-1320.0
 20
-876.0
 30
0.0
  0
SEQEND
  8
OBJECT
  6
CONTINUOUS
  5
2BB
  0
POLYLINE
  8
OBJECT
  6
CONTINUOUS
  5
2BC
 66
               1
 10
0.0
 20
0.0
 30
0.0
 70
               1
 75
               5
  0
VERTEX
  8
OBJECT
  6
CONTINUOUS
  5
2BD
 10
-1320.0
 20
-131.00000000000023
 30
0.0
  0
VERTEX
  8
OBJECT
  6
CONTINUOUS
  5
2BE
 10
-900.0
 20
-131.00000000000023
 30
0.0
  0
VERTEX
  8
OBJECT
  6
CONTINUOUS
  5
2BF
 10
-900.0
 20
-841.0
 30
0.0
  0
VERTEX
  8
OBJECT
  6
CONTINUOUS
  5
2C0
 10
-1320.0
 20
-841.0
 30
0.0
  0
SEQEND
  8
OBJECT
  6
CONTINUOUS
  5
2C1
  0
POLYLINE
  8
OBJECT
  6
CONTINUOUS
  5
2C2
 66
               1
 10
0.0
 20
0.0
 30
0.0
 70
               1
 75
               5
  0
VERTEX
  8
OBJECT
  6
CONTINUOUS
  5
2C3
 10
-1297.0
 20
-151.00000000000023
 30
0.0
  0
VERTEX
  8
OBJECT
  6
CONTINUOUS
  5
2C4
 10
-1295.0
 20
-151.00000000000023
 30
0.0
  0
VERTEX
  8
OBJECT
  6
CONTINUOUS
  5
2C5
 10
-1295.0
 20
-331.00000000000023
 30
0.0
  0
VERTEX
  8
OBJECT
  6
CONTINUOUS
  5
2C6
 10
-1297.0
 20
-331.00000000000023
 30
0.0
  0
SEQEND
  8
OBJECT
  6
CONTINUOUS
  5
2C7
  0
POLYLINE
  8
OBJECT
  6
CONTINUOUS
  5
2C8
 66
               1
 10
0.0
 20
0.0
 30
0.0
 70
               1
 75
               5
  0
VERTEX
  8
OBJECT
  6
CONTINUOUS
  5
2C9
 10
-925.0
 20
-151.00000000000023
 30
0.0
  0
VERTEX
  8
OBJECT
  6
CONTINUOUS
  5
2CA
 10
-923.0
 20
-151.00000000000023
 30
0.0
  0
VERTEX
  8
OBJECT
  6
CONTINUOUS
  5
2CB
 10
-923.0
 20
-331.00000000000023
 30
0.0
  0
VERTEX
  8
OBJECT
  6
CONTINUOUS
  5
2CC
 10
-925.0
 20
-331.00000000000023
 30
0.0
  0
SEQEND
  8
OBJECT
  6
CONTINUOUS
  5
2CD
  0
POLYLINE
  8
OBJECT
  6
CONTINUOUS
  5
2CE
 66
               1
 10
0.0
 20
0.0
 30
0.0
 75
               5
  0
VERTEX
  8
OBJECT
  6
CONTINUOUS
  5
2CF
 10
-929.0
 20
-343.00000000000023
 30
0.0
  0
VERTEX
  8
OBJECT
  6
CONTINUOUS
  5
2D0
 10
-929.0
 20
-841.0
 30
0.0
  0
VERTEX
  8
OBJECT
  6
CONTINUOUS
  5
2D1
 10
-1291.0
 20
-841.0
 30
0.0
  0
VERTEX
  8
OBJECT
  6
CONTINUOUS
  5
2D2
 10
-1291.0
 20
-343.00000000000023
 30
0.0
  0
SEQEND
  8
OBJECT
  6
CONTINUOUS
  5
2D3
  0
POLYLINE
  8
OBJECT
  6
CONTINUOUS
  5
2D4
 66
               1
 10
0.0
 20
0.0
 30
0.0
 70
               1
 75
               5
  0
VERTEX
  8
OBJECT
  6
CONTINUOUS
  5
2D5
 10
-1302.0
 20
-151.00000000000023
 30
0.0
  0
VERTEX
  8
OBJECT
  6
CONTINUOUS
  5
2D6
 10
-1287.0
 20
-136.00000000000023
 30
0.0
  0
VERTEX
  8
OBJECT
  6
CONTINUOUS
  5
2D7
 10
-933.0
 20
-136.00000000000023
 30
0.0
  0
VERTEX
  8
OBJECT
  6
CONTINUOUS
  5
2D8
 10
-918.0
 20
-151.00000000000023
 30
0.0
  0
VERTEX
  8
OBJECT
  6
CONTINUOUS
  5
2D9
 10
-918.0
 20
-151.00000000000023
 30
0.0
  0
VERTEX
  8
OBJECT
  6
CONTINUOUS
  5
2DA
 10
-918.0
 20
-151.00000000000023
 30
0.0
  0
VERTEX
  8
OBJECT
  6
CONTINUOUS
  5
2DB
 10
-1302.0
 20
-151.00000000000023
 30
0.0
  0
SEQEND
  8
OBJECT
  6
CONTINUOUS
  5
2DC
  0
POLYLINE
  8
OBJECT
  6
CONTINUOUS
  5
2DD
 66
               1
 10
0.0
 20
0.0
 30
0.0
 75
               5
  0
VERTEX
  8
OBJECT
  6
CONTINUOUS
  5
2DE
 10
-1301.0
 20
-150.00000000000023
 30
0.0
  0
VERTEX
  8
OBJECT
  6
CONTINUOUS
  5
2DF
 10
-1310.0
 20
-150.00000000000023
 30
0.0
  0
VERTEX
  8
OBJECT
  6
CONTINUOUS
  5
2E0
 10
-1310.0
 20
-136.00000000000023
 30
0.0
  0
VERTEX
  8
OBJECT
  6
CONTINUOUS
  5
2E1
 10
-1312.0
 20
-136.00000000000023
 30
0.0
  0
VERTEX
  8
OBJECT
  6
CONTINUOUS
  5
2E2
 10
-1312.0
 20
-151.00000000000023
 30
0.0
  0
VERTEX
  8
OBJECT
  6
CONTINUOUS
  5
2E3
 10
-908.0
 20
-151.00000000000023
 30
0.0
  0
VERTEX
  8
OBJECT
  6
CONTINUOUS
  5
2E4
 10
-908.0
 20
-136.00000000000023
 30
0.0
  0
VERTEX
  8
OBJECT
  6
CONTINUOUS
  5
2E5
 10
-910.0
 20
-136.00000000000023
 30
0.0
  0
VERTEX
  8
OBJECT
  6
CONTINUOUS
  5
2E6
 10
-910.0
 20
-150.00000000000023
 30
0.0
  0
VERTEX
  8
OBJECT
  6
CONTINUOUS
  5
2E7
 10
-919.0
 20
-150.00000000000023
 30
0.0
  0
SEQEND
  8
OBJECT
  6
CONTINUOUS
  5
2E8
  0
POLYLINE
  8
OBJECT
  6
CONTINUOUS
  5
2E9
 66
               1
 10
0.0
 20
0.0
 30
0.0
 70
               1
 75
               5
  0
VERTEX
  8
OBJECT
  6
CONTINUOUS
  5
2EA
 10
-1302.5
 20
-321.00000000000023
 30
0.0
  0
VERTEX
  8
OBJECT
  6
CONTINUOUS
  5
2EB
 10
-1297.0
 20
-321.00000000000023
 30
0.0
  0
VERTEX
  8
OBJECT
  6
CONTINUOUS
  5
2EC
 10
-1297.0
 20
-329.00000000000023
 30
0.0
  0
VERTEX
  8
OBJECT
  6
CONTINUOUS
  5
2ED
 10
-1302.5
 20
-329.00000000000023
 30
0.0
  0
SEQEND
  8
OBJECT
  6
CONTINUOUS
  5
2EE
  0
POLYLINE
  8
OBJECT
  6
CONTINUOUS
  5
2EF
 66
               1
 10
0.0
 20
0.0
 30
0.0
 70
               1
 75
               5
  0
VERTEX
  8
OBJECT
  6
CONTINUOUS
  5
2F0
 10
-1309.5
 20
-314.00000000000023
 30
0.0
  0
VERTEX
  8
OBJECT
  6
CONTINUOUS
  5
2F1
 10
-1302.5
 20
-314.00000000000023
 30
0.0
  0
VERTEX
  8
OBJECT
  6
CONTINUOUS
  5
2F2
 10
-1302.5
 20
-336.00000000000023
 30
0.0
  0
VERTEX
  8
OBJECT
  6
CONTINUOUS
  5
2F3
 10
-1309.5
 20
-336.00000000000023
 30
0.0
  0
SEQEND
  8
OBJECT
  6
CONTINUOUS
  5
2F4
  0
POLYLINE
  8
OBJECT
  6
CONTINUOUS
  5
2F5
 66
               1
 10
0.0
 20
0.0
 30
0.0
 70
               1
 75
               5
  0
VERTEX
  8
OBJECT
  6
CONTINUOUS
  5
2F6
 10
-1311.5
 20
-321.00000000000023
 30
0.0
  0
VERTEX
  8
OBJECT
  6
CONTINUOUS
  5
2F7
 10
-1309.5
 20
-321.00000000000023
 30
0.0
  0
VERTEX
  8
OBJECT
  6
CONTINUOUS
  5
2F8
 10
-1309.5
 20
-329.00000000000023
 30
0.0
  0
VERTEX
  8
OBJECT
  6
CONTINUOUS
  5
2F9
 10
-1311.5
 20
-329.00000000000023
 30
0.0
  0
SEQEND
  8
OBJECT
  6
CONTINUOUS
  5
2FA
  0
POLYLINE
  8
OBJECT
  6
CONTINUOUS
  5
2FB
 66
               1
 10
0.0
 20
0.0
 30
0.0
 70
               1
 75
               5
  0
VERTEX
  8
OBJECT
  6
CONTINUOUS
  5
2FC
 10
-923.0
 20
-321.00000000000023
 30
0.0
  0
VERTEX
  8
OBJECT
  6
CONTINUOUS
  5
2FD
 10
-917.5
 20
-321.00000000000023
 30
0.0
  0
VERTEX
  8
OBJECT
  6
CONTINUOUS
  5
2FE
 10
-917.5
 20
-329.00000000000023
 30
0.0
  0
VERTEX
  8
OBJECT
  6
CONTINUOUS
  5
2FF
 10
-923.0
 20
-329.00000000000023
 30
0.0
  0
SEQEND
  8
OBJECT
  6
CONTINUOUS
  5
300
  0
POLYLINE
  8
OBJECT
  6
CONTINUOUS
  5
301
 66
               1
 10
0.0
 20
0.0
 30
0.0
 70
               1
 75
               5
  0
VERTEX
  8
OBJECT
  6
CONTINUOUS
  5
302
 10
-917.5
 20
-314.00000000000023
 30
0.0
  0
VERTEX
  8
OBJECT
  6
CONTINUOUS
  5
303
 10
-910.5
 20
-314.00000000000023
 30
0.0
  0
VERTEX
  8
OBJECT
  6
CONTINUOUS
  5
304
 10
-910.5
 20
-336.00000000000023
 30
0.0
  0
VERTEX
  8
OBJECT
  6
CONTINUOUS
  5
305
 10
-917.5
 20
-336.00000000000023
 30
0.0
  0
SEQEND
  8
OBJECT
  6
CONTINUOUS
  5
306
  0
POLYLINE
  8
OBJECT
  6
CONTINUOUS
  5
307
 66
               1
 10
0.0
 20
0.0
 30
0.0
 70
               1
 75
               5
  0
VERTEX
  8
OBJECT
  6
CONTINUOUS
  5
308
 10
-910.5
 20
-321.00000000000023
 30
0.0
  0
VERTEX
  8
OBJECT
  6
CONTINUOUS
  5
309
 10
-908.5
 20
-321.00000000000023
 30
0.0
  0
VERTEX
  8
OBJECT
  6
CONTINUOUS
  5
30A
 10
-908.5
 20
-329.00000000000023
 30
0.0
  0
VERTEX
  8
OBJECT
  6
CONTINUOUS
  5
30B
 10
-910.5
 20
-329.00000000000023
 30
0.0
  0
SEQEND
  8
OBJECT
  6
CONTINUOUS
  5
30C
  0
POLYLINE
  8
OBJECT
  6
CONTINUOUS
  5
30D
 66
               1
 10
0.0
 20
0.0
 30
0.0
 75
               5
  0
VERTEX
  8
OBJECT
  6
CONTINUOUS
  5
30E
 10
-920.0
 20
-329.00000000000023
 30
0.0
  0
VERTEX
  8
OBJECT
  6
CONTINUOUS
  5
30F
 10
-920.0
 20
-841.0
 30
0.0
  0
VERTEX
  8
OBJECT
  6
CONTINUOUS
  5
310
 10
-1300.0
 20
-841.0
 30
0.0
  0
VERTEX
  8
OBJECT
  6
CONTINUOUS
  5
311
 10
-1300.0
 20
-329.00000000000023
 30
0.0
  0
SEQEND
  8
OBJECT
  6
CONTINUOUS
  5
312
  0
POLYLINE
  8
OBJECT
  6
CONTINUOUS
  5
313
 66
               1
 10
0.0
 20
0.0
 30
0.0
 75
               5
  0
VERTEX
  8
OBJECT
  6
CONTINUOUS
  5
314
 10
-920.0
 20
-321.00000000000023
 30
0.0
  0
VERTEX
  8
OBJECT
  6
CONTINUOUS
  5
315
 10
-920.0
 20
-151.00000000000023
 30
0.0
  0
VERTEX
  8
OBJECT
  6
CONTINUOUS
  5
316
 10
-1300.0
 20
-151.00000000000023
 30
0.0
  0
VERTEX
  8
OBJECT
  6
CONTINUOUS
  5
317
 10
-1300.0
 20
-321.00000000000023
 30
0.0
  0
SEQEND
  8
OBJECT
  6
CONTINUOUS
  5
318
  0
POLYLINE
  8
OBJECT
  6
CONTINUOUS
  5
319
 66
               1
 10
0.0
 20
0.0
 30
0.0
 70
               1
 75
               5
  0
VERTEX
  8
OBJECT
  6
CONTINUOUS
  5
31A
 10
-1320.0
 20
1010.0
 30
0.0
  0
VERTEX
  8
OBJECT
  6
CONTINUOUS
  5
31B
 10
-480.0
 20
1010.0
 30
0.0
  0
VERTEX
  8
OBJECT
  6
CONTINUOUS
  5
31C
 10
-480.0
 20
500.0
 30
0.0
  0
VERTEX
  8
OBJECT
  6
CONTINUOUS
  5
31D
 10
-1320.0
 20
500.0
 30
0.0
  0
SEQEND
  8
OBJECT
  6
CONTINUOUS
  5
31E
  0
POLYLINE
  8
OBJECT
  6
CONTINUOUS
  5
31F
 66
               1
 10
0.0
 20
0.0
 30
0.0
 70
               1
 75
               5
  0
VERTEX
  8
OBJECT
  6
CONTINUOUS
  5
320
 10
-1320.0
 20
1010.0
 30
0.0
  0
VERTEX
  8
OBJECT
  6
CONTINUOUS
  5
321
 10
-900.0
 20
1010.0
 30
0.0
  0
VERTEX
  8
OBJECT
  6
CONTINUOUS
  5
322
 10
-900.0
 20
970.0
 30
0.0
  0
VERTEX
  8
OBJECT
  6
CONTINUOUS
  5
323
 10
-1320.0
 20
970.0
 30
0.0
  0
SEQEND
  8
OBJECT
  6
CONTINUOUS
  5
324
  0
POLYLINE
  8
OBJECT
  6
CONTINUOUS
  5
325
 66
               1
 10
0.0
 20
0.0
 30
0.0
 70
               1
 75
               5
  0
VERTEX
  8
OBJECT
  6
CONTINUOUS
  5
326
 10
-480.0
 20
1005.0
 30
0.0
  0
VERTEX
  8
OBJECT
  6
CONTINUOUS
  5
327
 10
-476.0
 20
1005.0
 30
0.0
  0
VERTEX
  8
OBJECT
  6
CONTINUOUS
  5
328
 10
-476.0
 20
856.44359999999995
 30
0.0
  0
VERTEX
  8
OBJECT
  6
CONTINUOUS
  5
329
 10
-480.0
 20
856.44359999999995
 30
0.0
  0
SEQEND
  8
OBJECT
  6
CONTINUOUS
  5
32A
  0
POLYLINE
  8
OBJECT
  6
CONTINUOUS
  5
32B
 66
               1
 10
0.0
 20
0.0
 30
0.0
 70
               1
 75
               5
  0
VERTEX
  8
OBJECT
  6
CONTINUOUS
  5
32C
 10
-1324.0
 20
1005.0
 30
0.0
  0
VERTEX
  8
OBJECT
  6
CONTINUOUS
  5
32D
 10
-1320.0
 20
1005.0
 30
0.0
  0
VERTEX
  8
OBJECT
  6
CONTINUOUS
  5
32E
 10
-1320.0
 20
856.44359999999995
 30
0.0
  0
VERTEX
  8
OBJECT
  6
CONTINUOUS
  5
32F
 10
-1324.0
 20
856.44359999999995
 30
0.0
  0
SEQEND
  8
OBJECT
  6
CONTINUOUS
  5
330
  0
ARC
  8
OBJECT
  6
CONTINUOUS
  5
331
 10
-1324.0
 20
990.0
 30
0.0
 40
8.5
 50
90.0
 51
270.0
  0
ARC
  8
OBJECT
  6
CONTINUOUS
  5
332
 10
-1324.0
 20
871.44359999999995
 30
0.0
 40
8.5
 50
90.0
 51
270.0
  0
ARC
  8
OBJECT
  6
CONTINUOUS
  5
333
 10
-476.0
 20
990.0
 30
0.0
 40
8.5
 50
270.0
 51
90.0
  0
ARC
  8
OBJECT
  6
CONTINUOUS
  5
334
 10
-476.0
 20
871.44359999999995
 30
0.0
 40
8.5
 50
270.0
 51
90.0
  0
POLYLINE
  8
OBJECT
  6
CONTINUOUS
  5
335
 66
               1
 10
0.0
 20
0.0
 30
0.0
 70
               1
 75
               5
  0
VERTEX
  8
OBJECT
  6
CONTINUOUS
  5
336
 10
-1307.0
 20
953.0
 30
0.0
  0
VERTEX
  8
OBJECT
  6
CONTINUOUS
  5
337
 10
-1297.0
 20
963.0
 30
0.0
  0
VERTEX
  8
OBJECT
  6
CONTINUOUS
  5
338
 10
-923.0
 20
963.0
 30
0.0
  0
VERTEX
  8
OBJECT
  6
CONTINUOUS
  5
339
 10
-913.0
 20
953.0
 30
0.0
  0
VERTEX
  8
OBJECT
  6
CONTINUOUS
  5
33A
 10
-913.0
 20
519.0
 30
0.0
  0
VERTEX
  8
OBJECT
  6
CONTINUOUS
  5
33B
 10
-923.0
 20
509.0
 30
0.0
  0
VERTEX
  8
OBJECT
  6
CONTINUOUS
  5
33C
 10
-1297.0
 20
509.0
 30
0.0
  0
VERTEX
  8
OBJECT
  6
CONTINUOUS
  5
33D
 10
-1307.0
 20
519.0
 30
0.0
  0
SEQEND
  8
OBJECT
  6
CONTINUOUS
  5
33E
  0
POLYLINE
  8
OBJECT
  6
CONTINUOUS
  5
33F
 66
               1
 10
0.0
 20
0.0
 30
0.0
 70
               1
 75
               5
  0
VERTEX
  8
OBJECT
  6
CONTINUOUS
  5
340
 10
-1305.0
 20
955.0
 30
0.0
  0
VERTEX
  8
OBJECT
  6
CONTINUOUS
  5
341
 10
-1299.0
 20
961.0
 30
0.0
  0
VERTEX
  8
OBJECT
  6
CONTINUOUS
  5
342
 10
-921.0
 20
961.0
 30
0.0
  0
VERTEX
  8
OBJECT
  6
CONTINUOUS
  5
343
 10
-915.0
 20
955.0
 30
0.0
  0
VERTEX
  8
OBJECT
  6
CONTINUOUS
  5
344
 10
-915.0
 20
517.0
 30
0.0
  0
VERTEX
  8
OBJECT
  6
CONTINUOUS
  5
345
 10
-921.0
 20
511.0
 30
0.0
  0
VERTEX
  8
OBJECT
  6
CONTINUOUS
  5
346
 10
-1299.0
 20
511.0
 30
0.0
  0
VERTEX
  8
OBJECT
  6
CONTINUOUS
  5
347
 10
-1305.0
 20
517.0
 30
0.0
  0
SEQEND
  8
OBJECT
  6
CONTINUOUS
  5
348
  0
POLYLINE
  8
OBJECT
  6
CONTINUOUS
  5
349
 66
               1
 10
0.0
 20
0.0
 30
0.0
 75
               5
  0
VERTEX
  8
OBJECT
  6
CONTINUOUS
  5
34A
 10
-1297.0
 20
963.0
 30
0.0
  0
VERTEX
  8
OBJECT
  6
CONTINUOUS
  5
34B
 10
-1297.0
 20
970.0
 30
0.0
  0
VERTEX
  8
OBJECT
  6
CONTINUOUS
  5
34C
 10
-1295.0
 20
970.0
 30
0.0
  0
VERTEX
  8
OBJECT
  6
CONTINUOUS
  5
34D
 10
-1295.0
 20
963.0
 30
0.0
  0
SEQEND
  8
OBJECT
  6
CONTINUOUS
  5
34E
  0
POLYLINE
  8
OBJECT
  6
CONTINUOUS
  5
34F
 66
               1
 10
0.0
 20
0.0
 30
0.0
 75
               5
  0
VERTEX
  8
OBJECT
  6
CONTINUOUS
  5
350
 10
-925.0
 20
963.0
 30
0.0
  0
VERTEX
  8
OBJECT
  6
CONTINUOUS
  5
351
 10
-925.0
 20
970.0
 30
0.0
  0
VERTEX
  8
OBJECT
  6
CONTINUOUS
  5
352
 10
-923.0
 20
970.0
 30
0.0
  0
VERTEX
  8
OBJECT
  6
CONTINUOUS
  5
353
 10
-923.0
 20
963.0
 30
0.0
  0
SEQEND
  8
OBJECT
  6
CONTINUOUS
  5
354
  0
POLYLINE
  8
OBJECT
  6
CONTINUOUS
  5
355
 66
               1
 10
0.0
 20
0.0
 30
0.0
 75
               5
  0
VERTEX
  8
OBJECT
  6
CONTINUOUS
  5
356
 10
-480.0
 20
-846.0
 30
0.0
  0
VERTEX
  8
OBJECT
  6
CONTINUOUS
  5
357
 10
-480.0
 20
-719.82430000000022
 30
0.0
  0
VERTEX
  8
OBJECT
  6
CONTINUOUS
  5
358
 10
-476.0
 20
-719.82430000000022
 30
0.0
  0
VERTEX
  8
OBJECT
  6
CONTINUOUS
  5
359
 10
-476.0
 20
-846.5
 30
0.0
  0
SEQEND
  8
OBJECT
  6
CONTINUOUS
  5
35A
  0
ARC
  8
OBJECT
  6
CONTINUOUS
  5
35B
 10
-476.0
 20
-741.0
 30
0.0
 40
8.5
 50
270.0
 51
90.0
  0
POLYLINE
  8
OBJECT
  6
CONTINUOUS
  5
35C
 66
               1
 10
0.0
 20
0.0
 30
0.0
 75
               5
  0
VERTEX
  8
OBJECT
  6
CONTINUOUS
  5
35D
 10
-1320.0
 20
-846.0
 30
0.0
  0
VERTEX
  8
OBJECT
  6
CONTINUOUS
  5
35E
 10
-1320.0
 20
-719.82430000000022
 30
0.0
  0
VERTEX
  8
OBJECT
  6
CONTINUOUS
  5
35F
 10
-1324.0
 20
-719.82430000000022
 30
0.0
  0
VERTEX
  8
OBJECT
  6
CONTINUOUS
  5
360
 10
-1324.0
 20
-846.5
 30
0.0
  0
SEQEND
  8
OBJECT
  6
CONTINUOUS
  5
361
  0
ARC
  8
OBJECT
  6
CONTINUOUS
  5
362
 10
-1324.0
 20
-741.0
 30
0.0
 40
8.5
 50
90.0
 51
270.0
  0
POLYLINE
  8
OBJECT
  6
CONTINUOUS
  5
363
 66
               1
 10
0.0
 20
0.0
 30
0.0
 70
               1
 75
               5
  0
VERTEX
  8
OBJECT
  6
CONTINUOUS
  5
364
 10
-900.0
 20
-131.00000000000023
 30
0.0
  0
VERTEX
  8
OBJECT
  6
CONTINUOUS
  5
365
 10
-480.0
 20
-131.00000000000023
 30
0.0
  0
VERTEX
  8
OBJECT
  6
CONTINUOUS
  5
366
 10
-480.0
 20
-841.0
 30
0.0
  0
VERTEX
  8
OBJECT
  6
CONTINUOUS
  5
367
 10
-900.0
 20
-841.0
 30
0.0
  0
SEQEND
  8
OBJECT
  6
CONTINUOUS
  5
368
  0
POLYLINE
  8
OBJECT
  6
CONTINUOUS
  5
369
 66
               1
 10
0.0
 20
0.0
 30
0.0
 70
               1
 75
               5
  0
VERTEX
  8
OBJECT
  6
CONTINUOUS
  5
36A
 10
-877.0
 20
-151.00000000000023
 30
0.0
  0
VERTEX
  8
OBJECT
  6
CONTINUOUS
  5
36B
 10
-875.0
 20
-151.00000000000023
 30
0.0
  0
VERTEX
  8
OBJECT
  6
CONTINUOUS
  5
36C
 10
-875.0
 20
-331.00000000000023
 30
0.0
  0
VERTEX
  8
OBJECT
  6
CONTINUOUS
  5
36D
 10
-877.0
 20
-331.00000000000023
 30
0.0
  0
SEQEND
  8
OBJECT
  6
CONTINUOUS
  5
36E
  0
POLYLINE
  8
OBJECT
  6
CONTINUOUS
  5
36F
 66
               1
 10
0.0
 20
0.0
 30
0.0
 70
               1
 75
               5
  0
VERTEX
  8
OBJECT
  6
CONTINUOUS
  5
370
 10
-505.0
 20
-151.00000000000023
 30
0.0
  0
VERTEX
  8
OBJECT
  6
CONTINUOUS
  5
371
 10
-503.0
 20
-151.00000000000023
 30
0.0
  0
VERTEX
  8
OBJECT
  6
CONTINUOUS
  5
372
 10
-503.0
 20
-331.00000000000023
 30
0.0
  0
VERTEX
  8
OBJECT
  6
CONTINUOUS
  5
373
 10
-505.0
 20
-331.00000000000023
 30
0.0
  0
SEQEND
  8
OBJECT
  6
CONTINUOUS
  5
374
  0
POLYLINE
  8
OBJECT
  6
CONTINUOUS
  5
375
 66
               1
 10
0.0
 20
0.0
 30
0.0
 75
               5
  0
VERTEX
  8
OBJECT
  6
CONTINUOUS
  5
376
 10
-509.0
 20
-343.00000000000023
 30
0.0
  0
VERTEX
  8
OBJECT
  6
CONTINUOUS
  5
377
 10
-509.0
 20
-841.0
 30
0.0
  0
VERTEX
  8
OBJECT
  6
CONTINUOUS
  5
378
 10
-871.0
 20
-841.0
 30
0.0
  0
VERTEX
  8
OBJECT
  6
CONTINUOUS
  5
379
 10
-871.0
 20
-343.00000000000023
 30
0.0
  0
SEQEND
  8
OBJECT
  6
CONTINUOUS
  5
37A
  0
POLYLINE
  8
OBJECT
  6
CONTINUOUS
  5
37B
 66
               1
 10
0.0
 20
0.0
 30
0.0
 70
               1
 75
               5
  0
VERTEX
  8
OBJECT
  6
CONTINUOUS
  5
37C
 10
-882.0
 20
-151.00000000000023
 30
0.0
  0
VERTEX
  8
OBJECT
  6
CONTINUOUS
  5
37D
 10
-867.0
 20
-136.00000000000023
 30
0.0
  0
VERTEX
  8
OBJECT
  6
CONTINUOUS
  5
37E
 10
-513.0
 20
-136.00000000000023
 30
0.0
  0
VERTEX
  8
OBJECT
  6
CONTINUOUS
  5
37F
 10
-498.0
 20
-151.00000000000023
 30
0.0
  0
VERTEX
  8
OBJECT
  6
CONTINUOUS
  5
380
 10
-498.0
 20
-151.00000000000023
 30
0.0
  0
VERTEX
  8
OBJECT
  6
CONTINUOUS
  5
381
 10
-498.0
 20
-151.00000000000023
 30
0.0
  0
VERTEX
  8
OBJECT
  6
CONTINUOUS
  5
382
 10
-882.0
 20
-151.00000000000023
 30
0.0
  0
SEQEND
  8
OBJECT
  6
CONTINUOUS
  5
383
  0
POLYLINE
  8
OBJECT
  6
CONTINUOUS
  5
384
 66
               1
 10
0.0
 20
0.0
 30
0.0
 75
               5
  0
VERTEX
  8
OBJECT
  6
CONTINUOUS
  5
385
 10
-881.0
 20
-150.00000000000023
 30
0.0
  0
VERTEX
  8
OBJECT
  6
CONTINUOUS
  5
386
 10
-890.0
 20
-150.00000000000023
 30
0.0
  0
VERTEX
  8
OBJECT
  6
CONTINUOUS
  5
387
 10
-890.0
 20
-136.00000000000023
 30
0.0
  0
VERTEX
  8
OBJECT
  6
CONTINUOUS
  5
388
 10
-892.0
 20
-136.00000000000023
 30
0.0
  0
VERTEX
  8
OBJECT
  6
CONTINUOUS
  5
389
 10
-892.0
 20
-151.00000000000023
 30
0.0
  0
VERTEX
  8
OBJECT
  6
CONTINUOUS
  5
38A
 10
-488.0
 20
-151.00000000000023
 30
0.0
  0
VERTEX
  8
OBJECT
  6
CONTINUOUS
  5
38B
 10
-488.0
 20
-136.00000000000023
 30
0.0
  0
VERTEX
  8
OBJECT
  6
CONTINUOUS
  5
38C
 10
-490.0
 20
-136.00000000000023
 30
0.0
  0
VERTEX
  8
OBJECT
  6
CONTINUOUS
  5
38D
 10
-490.0
 20
-150.00000000000023
 30
0.0
  0
VERTEX
  8
OBJECT
  6
CONTINUOUS
  5
38E
 10
-499.0
 20
-150.00000000000023
 30
0.0
  0
SEQEND
  8
OBJECT
  6
CONTINUOUS
  5
38F
  0
POLYLINE
  8
OBJECT
  6
CONTINUOUS
  5
390
 66
               1
 10
0.0
 20
0.0
 30
0.0
 70
               1
 75
               5
  0
VERTEX
  8
OBJECT
  6
CONTINUOUS
  5
391
 10
-882.5
 20
-321.00000000000023
 30
0.0
  0
VERTEX
  8
OBJECT
  6
CONTINUOUS
  5
392
 10
-877.0
 20
-321.00000000000023
 30
0.0
  0
VERTEX
  8
OBJECT
  6
CONTINUOUS
  5
393
 10
-877.0
 20
-329.00000000000023
 30
0.0
  0
VERTEX
  8
OBJECT
  6
CONTINUOUS
  5
394
 10
-882.5
 20
-329.00000000000023
 30
0.0
  0
SEQEND
  8
OBJECT
  6
CONTINUOUS
  5
395
  0
POLYLINE
  8
OBJECT
  6
CONTINUOUS
  5
396
 66
               1
 10
0.0
 20
0.0
 30
0.0
 70
               1
 75
               5
  0
VERTEX
  8
OBJECT
  6
CONTINUOUS
  5
397
 10
-889.5
 20
-314.00000000000023
 30
0.0
  0
VERTEX
  8
OBJECT
  6
CONTINUOUS
  5
398
 10
-882.5
 20
-314.00000000000023
 30
0.0
  0
VERTEX
  8
OBJECT
  6
CONTINUOUS
  5
399
 10
-882.5
 20
-336.00000000000023
 30
0.0
  0
VERTEX
  8
OBJECT
  6
CONTINUOUS
  5
39A
 10
-889.5
 20
-336.00000000000023
 30
0.0
  0
SEQEND
  8
OBJECT
  6
CONTINUOUS
  5
39B
  0
POLYLINE
  8
OBJECT
  6
CONTINUOUS
  5
39C
 66
               1
 10
0.0
 20
0.0
 30
0.0
 70
               1
 75
               5
  0
VERTEX
  8
OBJECT
  6
CONTINUOUS
  5
39D
 10
-891.5
 20
-321.00000000000023
 30
0.0
  0
VERTEX
  8
OBJECT
  6
CONTINUOUS
  5
39E
 10
-889.5
 20
-321.00000000000023
 30
0.0
  0
VERTEX
  8
OBJECT
  6
CONTINUOUS
  5
39F
 10
-889.5
 20
-329.00000000000023
 30
0.0
  0
VERTEX
  8
OBJECT
  6
CONTINUOUS
  5
3A0
 10
-891.5
 20
-329.00000000000023
 30
0.0
  0
SEQEND
  8
OBJECT
  6
CONTINUOUS
  5
3A1
  0
POLYLINE
  8
OBJECT
  6
CONTINUOUS
  5
3A2
 66
               1
 10
0.0
 20
0.0
 30
0.0
 70
               1
 75
               5
  0
VERTEX
  8
OBJECT
  6
CONTINUOUS
  5
3A3
 10
-503.0
 20
-321.00000000000023
 30
0.0
  0
VERTEX
  8
OBJECT
  6
CONTINUOUS
  5
3A4
 10
-497.5
 20
-321.00000000000023
 30
0.0
  0
VERTEX
  8
OBJECT
  6
CONTINUOUS
  5
3A5
 10
-497.5
 20
-329.00000000000023
 30
0.0
  0
VERTEX
  8
OBJECT
  6
CONTINUOUS
  5
3A6
 10
-503.0
 20
-329.00000000000023
 30
0.0
  0
SEQEND
  8
OBJECT
  6
CONTINUOUS
  5
3A7
  0
POLYLINE
  8
OBJECT
  6
CONTINUOUS
  5
3A8
 66
               1
 10
0.0
 20
0.0
 30
0.0
 70
               1
 75
               5
  0
VERTEX
  8
OBJECT
  6
CONTINUOUS
  5
3A9
 10
-497.5
 20
-314.00000000000023
 30
0.0
  0
VERTEX
  8
OBJECT
  6
CONTINUOUS
  5
3AA
 10
-490.5
 20
-314.00000000000023
 30
0.0
  0
VERTEX
  8
OBJECT
  6
CONTINUOUS
  5
3AB
 10
-490.5
 20
-336.00000000000023
 30
0.0
  0
VERTEX
  8
OBJECT
  6
CONTINUOUS
  5
3AC
 10
-497.5
 20
-336.00000000000023
 30
0.0
  0
SEQEND
  8
OBJECT
  6
CONTINUOUS
  5
3AD
  0
POLYLINE
  8
OBJECT
  6
CONTINUOUS
  5
3AE
 66
               1
 10
0.0
 20
0.0
 30
0.0
 70
               1
 75
               5
  0
VERTEX
  8
OBJECT
  6
CONTINUOUS
  5
3AF
 10
-490.5
 20
-321.00000000000023
 30
0.0
  0
VERTEX
  8
OBJECT
  6
CONTINUOUS
  5
3B0
 10
-488.5
 20
-321.00000000000023
 30
0.0
  0
VERTEX
  8
OBJECT
  6
CONTINUOUS
  5
3B1
 10
-488.5
 20
-329.00000000000023
 30
0.0
  0
VERTEX
  8
OBJECT
  6
CONTINUOUS
  5
3B2
 10
-490.5
 20
-329.00000000000023
 30
0.0
  0
SEQEND
  8
OBJECT
  6
CONTINUOUS
  5
3B3
  0
POLYLINE
  8
OBJECT
  6
CONTINUOUS
  5
3B4
 66
               1
 10
0.0
 20
0.0
 30
0.0
 75
               5
  0
VERTEX
  8
OBJECT
  6
CONTINUOUS
  5
3B5
 10
-500.0
 20
-329.00000000000023
 30
0.0
  0
VERTEX
  8
OBJECT
  6
CONTINUOUS
  5
3B6
 10
-500.0
 20
-841.0
 30
0.0
  0
VERTEX
  8
OBJECT
  6
CONTINUOUS
  5
3B7
 10
-880.0
 20
-841.0
 30
0.0
  0
VERTEX
  8
OBJECT
  6
CONTINUOUS
  5
3B8
 10
-880.0
 20
-329.00000000000023
 30
0.0
  0
SEQEND
  8
OBJECT
  6
CONTINUOUS
  5
3B9
  0
POLYLINE
  8
OBJECT
  6
CONTINUOUS
  5
3BA
 66
               1
 10
0.0
 20
0.0
 30
0.0
 75
               5
  0
VERTEX
  8
OBJECT
  6
CONTINUOUS
  5
3BB
 10
-500.0
 20
-321.00000000000023
 30
0.0
  0
VERTEX
  8
OBJECT
  6
CONTINUOUS
  5
3BC
 10
-500.0
 20
-151.00000000000023
 30
0.0
  0
VERTEX
  8
OBJECT
  6
CONTINUOUS
  5
3BD
 10
-880.0
 20
-151.00000000000023
 30
0.0
  0
VERTEX
  8
OBJECT
  6
CONTINUOUS
  5
3BE
 10
-880.0
 20
-321.00000000000023
 30
0.0
  0
SEQEND
  8
OBJECT
  6
CONTINUOUS
  5
3BF
  0
POLYLINE
  8
OBJECT
  6
CONTINUOUS
  5
3C0
 66
               1
 10
0.0
 20
0.0
 30
0.0
 70
               1
 75
               5
  0
VERTEX
  8
OBJECT
  6
CONTINUOUS
  5
3C1
 10
-900.0
 20
1010.0
 30
0.0
  0
VERTEX
  8
OBJECT
  6
CONTINUOUS
  5
3C2
 10
-480.0
 20
1010.0
 30
0.0
  0
VERTEX
  8
OBJECT
  6
CONTINUOUS
  5
3C3
 10
-480.0
 20
970.0
 30
0.0
  0
VERTEX
  8
OBJECT
  6
CONTINUOUS
  5
3C4
 10
-900.0
 20
970.0
 30
0.0
  0
SEQEND
  8
OBJECT
  6
CONTINUOUS
  5
3C5
  0
POLYLINE
  8
OBJECT
  6
CONTINUOUS
  5
3C6
 66
               1
 10
0.0
 20
0.0
 30
0.0
 70
               1
 75
               5
  0
VERTEX
  8
OBJECT
  6
CONTINUOUS
  5
3C7
 10
-887.0
 20
953.0
 30
0.0
  0
VERTEX
  8
OBJECT
  6
CONTINUOUS
  5
3C8
 10
-877.0
 20
963.0
 30
0.0
  0
VERTEX
  8
OBJECT
  6
CONTINUOUS
  5
3C9
 10
-503.0
 20
963.0
 30
0.0
  0
VERTEX
  8
OBJECT
  6
CONTINUOUS
  5
3CA
 10
-493.0
 20
953.0
 30
0.0
  0
VERTEX
  8
OBJECT
  6
CONTINUOUS
  5
3CB
 10
-493.0
 20
519.0
 30
0.0
  0
VERTEX
  8
OBJECT
  6
CONTINUOUS
  5
3CC
 10
-503.0
 20
509.0
 30
0.0
  0
VERTEX
  8
OBJECT
  6
CONTINUOUS
  5
3CD
 10
-877.0
 20
509.0
 30
0.0
  0
VERTEX
  8
OBJECT
  6
CONTINUOUS
  5
3CE
 10
-887.0
 20
519.0
 30
0.0
  0
SEQEND
  8
OBJECT
  6
CONTINUOUS
  5
3CF
  0
POLYLINE
  8
OBJECT
  6
CONTINUOUS
  5
3D0
 66
               1
 10
0.0
 20
0.0
 30
0.0
 70
               1
 75
               5
  0
VERTEX
  8
OBJECT
  6
CONTINUOUS
  5
3D1
 10
-885.0
 20
955.0
 30
0.0
  0
VERTEX
  8
OBJECT
  6
CONTINUOUS
  5
3D2
 10
-879.0
 20
961.0
 30
0.0
  0
VERTEX
  8
OBJECT
  6
CONTINUOUS
  5
3D3
 10
-501.0
 20
961.0
 30
0.0
  0
VERTEX
  8
OBJECT
  6
CONTINUOUS
  5
3D4
 10
-495.0
 20
955.0
 30
0.0
  0
VERTEX
  8
OBJECT
  6
CONTINUOUS
  5
3D5
 10
-495.0
 20
517.0
 30
0.0
  0
VERTEX
  8
OBJECT
  6
CONTINUOUS
  5
3D6
 10
-501.0
 20
511.0
 30
0.0
  0
VERTEX
  8
OBJECT
  6
CONTINUOUS
  5
3D7
 10
-879.0
 20
511.0
 30
0.0
  0
VERTEX
  8
OBJECT
  6
CONTINUOUS
  5
3D8
 10
-885.0
 20
517.0
 30
0.0
  0
SEQEND
  8
OBJECT
  6
CONTINUOUS
  5
3D9
  0
POLYLINE
  8
OBJECT
  6
CONTINUOUS
  5
3DA
 66
               1
 10
0.0
 20
0.0
 30
0.0
 75
               5
  0
VERTEX
  8
OBJECT
  6
CONTINUOUS
  5
3DB
 10
-877.0
 20
963.0
 30
0.0
  0
VERTEX
  8
OBJECT
  6
CONTINUOUS
  5
3DC
 10
-877.0
 20
970.0
 30
0.0
  0
VERTEX
  8
OBJECT
  6
CONTINUOUS
  5
3DD
 10
-875.0
 20
970.0
 30
0.0
  0
VERTEX
  8
OBJECT
  6
CONTINUOUS
  5
3DE
 10
-875.0
 20
963.0
 30
0.0
  0
SEQEND
  8
OBJECT
  6
CONTINUOUS
  5
3DF
  0
POLYLINE
  8
OBJECT
  6
CONTINUOUS
  5
3E0
 66
               1
 10
0.0
 20
0.0
 30
0.0
 75
               5
  0
VERTEX
  8
OBJECT
  6
CONTINUOUS
  5
3E1
 10
-505.0
 20
963.0
 30
0.0
  0
VERTEX
  8
OBJECT
  6
CONTINUOUS
  5
3E2
 10
-505.0
 20
970.0
 30
0.0
  0
VERTEX
  8
OBJECT
  6
CONTINUOUS
  5
3E3
 10
-503.0
 20
970.0
 30
0.0
  0
VERTEX
  8
OBJECT
  6
CONTINUOUS
  5
3E4
 10
-503.0
 20
963.0
 30
0.0
  0
SEQEND
  8
OBJECT
  6
CONTINUOUS
  5
3E5
  0
LINE
  8
CENTER
  6
STYLE_03
  5
3E6
 10
-900.0
 20
1050.0
 30
0.0
 11
-900.0
 21
450.0
 31
0.0
  0
POLYLINE
  8
OBJECT
  6
CONTINUOUS
  5
3E7
 66
               1
 10
0.0
 20
0.0
 30
0.0
 70
             129
  0
VERTEX
  8
OBJECT
  6
CONTINUOUS
  5
3E8
 10
-460.0
 20
573.43844718719106
 30
0.0
 42
0.3441507314089108
 70
               2
  0
VERTEX
  8
OBJECT
  6
CONTINUOUS
  5
3E9
 10
-461.51492874992732
 20
575.37873218748177
 30
0.0
  0
VERTEX
  8
OBJECT
  6
CONTINUOUS
  5
3EA
 10
-480.0
 20
579.99999999999989
 30
0.0
  0
VERTEX
  8
OBJECT
  6
CONTINUOUS
  5
3EB
 10
-480.0
 20
500.0
 30
0.0
  0
VERTEX
  8
OBJECT
  6
CONTINUOUS
  5
3EC
 10
-517.0
 20
500.0
 30
0.0
  0
VERTEX
  8
OBJECT
  6
CONTINUOUS
  5
3ED
 10
-512.37873218748189
 20
481.51492874992732
 30
0.0
 42
0.3441507314088954
 70
               2
 50
14.323944878273931
  0
VERTEX
  8
OBJECT
  6
CONTINUOUS
  5
3EE
 10
-510.43844718719117
 20
480.0
 30
0.0
  0
VERTEX
  8
OBJECT
  6
CONTINUOUS
  5
3EF
 10
-475.0
 20
480.0
 30
0.0
 42
0.414213562373095
 70
               2
 50
3.1191399769264294E+17
  0
VERTEX
  8
OBJECT
  6
CONTINUOUS
  5
3F0
 10
-460.0
 20
495.0
 30
0.0
  0
SEQEND
  8
OBJECT
  6
CONTINUOUS
  5
3F1
  0
POLYLINE
  8
OBJECT
  6
CONTINUOUS
  5
3F2
 66
               1
 10
0.0
 20
0.0
 30
0.0
 70
             129
  0
VERTEX
  8
OBJECT
  6
CONTINUOUS
  5
3F3
 10
-1340.0
 20
573.43844718719106
 30
0.0
 42
-0.3441507314089417
 70
               2
  0
VERTEX
  8
OBJECT
  6
CONTINUOUS
  5
3F4
 10
-1338.4850712500727
 20
575.37873218748177
 30
0.0
  0
VERTEX
  8
OBJECT
  6
CONTINUOUS
  5
3F5
 10
-1320.0
 20
579.99999999999989
 30
0.0
  0
VERTEX
  8
OBJECT
  6
CONTINUOUS
  5
3F6
 10
-1320.0
 20
500.0
 30
0.0
  0
VERTEX
  8
OBJECT
  6
CONTINUOUS
  5
3F7
 10
-1283.0
 20
500.0
 30
0.0
  0
VERTEX
  8
OBJECT
  6
CONTINUOUS
  5
3F8
 10
-1287.6212678125182
 20
481.51492874992732
 30
0.0
 42
-0.3441507314089108
 70
               2
 50
-14.323944878270598
  0
VERTEX
  8
OBJECT
  6
CONTINUOUS
  5
3F9
 10
-1289.5615528128089
 20
480.0
 30
0.0
  0
VERTEX
  8
OBJECT
  6
CONTINUOUS
  5
3FA
 10
-1325.0
 20
480.0
 30
0.0
 42
-0.414213562373095
 70
               2
 50
3.1191399769264294E+17
  0
VERTEX
  8
OBJECT
  6
CONTINUOUS
  5
3FB
 10
-1340.0
 20
495.0
 30
0.0
  0
SEQEND
  8
OBJECT
  6
CONTINUOUS
  5
3FC
  0
POLYLINE
  8
OBJECT
  6
CONTINUOUS
  5
3FD
 66
               1
 10
0.0
 20
0.0
 30
0.0
 70
             128
  0
VERTEX
  8
OBJECT
  6
CONTINUOUS
  5
3FE
 10
-1320.0
 20
929.99999999999989
 30
0.0
  0
VERTEX
  8
OBJECT
  6
CONTINUOUS
  5
3FF
 10
-1320.0
 20
1010.0
 30
0.0
  0
VERTEX
  8
OBJECT
  6
CONTINUOUS
  5
400
 10
-1283.0
 20
1010.0
 30
0.0
  0
VERTEX
  8
OBJECT
  6
CONTINUOUS
  5
401
 10
-1287.6212999999998
 20
1028.4850999999999
 30
0.0
  0
VERTEX
  8
OBJECT
  6
CONTINUOUS
  5
402
 10
-1287.6212999999998
 20
1028.4850999999999
 30
0.0
  0
VERTEX
  8
OBJECT
  6
CONTINUOUS
  5
403
 10
-1287.6212999999998
 20
1028.4850999999999
 30
0.0
 42
0.3441753471598422
 70
               2
 50
14.322053928457784
  0
VERTEX
  8
OBJECT
  6
CONTINUOUS
  5
404
 10
-1289.5616
 20
1030.0
 30
0.0
  0
VERTEX
  8
OBJECT
  6
CONTINUOUS
  5
405
 10
-1325.0
 20
1030.0
 30
0.0
  0
VERTEX
  8
OBJECT
  6
CONTINUOUS
  5
406
 10
-1325.0
 20
1030.0
 30
0.0
  0
VERTEX
  8
OBJECT
  6
CONTINUOUS
  5
407
 10
-1325.0
 20
1030.0
 30
0.0
 42
0.414213562373095
 70
               2
 50
9.3574199307792870E+17
  0
VERTEX
  8
OBJECT
  6
CONTINUOUS
  5
408
 10
-1340.0
 20
1015.0
 30
0.0
  0
VERTEX
  8
OBJECT
  6
CONTINUOUS
  5
409
 10
-1340.0
 20
936.56159999999988
 30
0.0
  0
VERTEX
  8
OBJECT
  6
CONTINUOUS
  5
40A
 10
-1340.0
 20
936.56159999999988
 30
0.0
  0
VERTEX
  8
OBJECT
  6
CONTINUOUS
  5
40B
 10
-1340.0
 20
936.56159999999988
 30
0.0
 42
0.3441434864435607
 70
               2
  0
VERTEX
  8
OBJECT
  6
CONTINUOUS
  5
40C
 10
-1338.4850999999999
 20
934.62129999999991
 30
0.0
  0
VERTEX
  8
OBJECT
  6
CONTINUOUS
  5
40D
 10
-1324.0
 20
930.99999999999989
 30
0.0
  0
SEQEND
  8
OBJECT
  6
CONTINUOUS
  5
40E
  0
POLYLINE
  8
OBJECT
  6
CONTINUOUS
  5
40F
 66
               1
 10
0.0
 20
0.0
 30
0.0
 70
             128
  0
VERTEX
  8
OBJECT
  6
CONTINUOUS
  5
410
 10
-480.0
 20
929.99999999999989
 30
0.0
  0
VERTEX
  8
OBJECT
  6
CONTINUOUS
  5
411
 10
-480.0
 20
1010.0
 30
0.0
  0
VERTEX
  8
OBJECT
  6
CONTINUOUS
  5
412
 10
-517.0
 20
1010.0
 30
0.0
  0
VERTEX
  8
OBJECT
  6
CONTINUOUS
  5
413
 10
-512.37870000000021
 20
1028.4850999999999
 30
0.0
  0
VERTEX
  8
OBJECT
  6
CONTINUOUS
  5
414
 10
-512.37870000000021
 20
1028.4850999999999
 30
0.0
  0
VERTEX
  8
OBJECT
  6
CONTINUOUS
  5
415
 10
-512.37870000000021
 20
1028.4850999999999
 30
0.0
 42
-0.3441434864435221
 70
               2
 50
-14.325522268239343
  0
VERTEX
  8
OBJECT
  6
CONTINUOUS
  5
416
 10
-510.4384
 20
1030.0
 30
0.0
  0
VERTEX
  8
OBJECT
  6
CONTINUOUS
  5
417
 10
-475.0
 20
1030.0
 30
0.0
  0
VERTEX
  8
OBJECT
  6
CONTINUOUS
  5
418
 10
-475.0
 20
1030.0
 30
0.0
  0
VERTEX
  8
OBJECT
  6
CONTINUOUS
  5
419
 10
-475.0
 20
1030.0
 30
0.0
 42
-0.414213562373095
 70
               2
 50
1.8714839861558573E+17
  0
VERTEX
  8
OBJECT
  6
CONTINUOUS
  5
41A
 10
-460.0
 20
1015.0
 30
0.0
  0
VERTEX
  8
OBJECT
  6
CONTINUOUS
  5
41B
 10
-460.0
 20
936.56159999999988
 30
0.0
  0
VERTEX
  8
OBJECT
  6
CONTINUOUS
  5
41C
 10
-460.0
 20
936.56159999999988
 30
0.0
  0
VERTEX
  8
OBJECT
  6
CONTINUOUS
  5
41D
 10
-460.0
 20
936.56159999999988
 30
0.0
 42
-0.3441753471598688
 70
               2
 50
0.0032643240028376
  0
VERTEX
  8
OBJECT
  6
CONTINUOUS
  5
41E
 10
-461.51490000000013
 20
934.62129999999991
 30
0.0
  0
VERTEX
  8
OBJECT
  6
CONTINUOUS
  5
41F
 10
-476.0
 20
930.99999999999989
 30
0.0
  0
SEQEND
  8
OBJECT
  6
CONTINUOUS
  5
420
  0
DIMENSION
  8
DIMENTION
  6
CONTINUOUS
  5
421
  2
*D3
 10
-1000.0
 20
511.0
 30
0.0
 11
-1000.0
 21
736.0
 31
0.0
 13
-1149.0
 23
961.0
 33
0.0
 14
-1299.0
 24
511.0
 34
0.0
 50
90.0
  3
CAD
  0
DIMENSION
  8
DIMENTION
  6
CONTINUOUS
  5
422
  2
*D4
 10
-1320.0
 20
350.0
 30
0.0
 11
-900.0
 21
350.0
 31
0.0
 13
-480.0
 23
500.0
 33
0.0
 14
-1320.0
 24
500.0
 34
0.0
  3
CAD
  0
DIMENSION
  8
DIMENTION
  5
423
  2
*D5
 10
-915.0
 20
600.0
 30
0.0
 11
-1110.0
 21
600.0
 31
0.0
 13
-1305.0
 23
517.0
 33
0.0
 14
-915.0
 24
517.0
 34
0.0
  3
CAD
  0
TEXT
  8
TEXT
  5
424
 10
608.46999333858503
 20
-1371.4793000000002
 30
0.0
 40
43.65625
  1
KN 4245W
  7
________
 72
               1
 11
744.36000000000013
 21
-1339.7293000000002
 31
0.0
 73
               2
  0
POINT
  8
DIMENTION
  6
CONTINUOUS
  5
425
 10
2024.5999999999999
 20
-1388.9999999999998
 30
0.0
  0
POLYLINE
  8
TEXT
  6
CONTINUOUS
  5
426
 66
               1
 10
0.0
 20
0.0
 30
0.0
 70
               1
 75
               5
  0
VERTEX
  8
TEXT
  6
CONTINUOUS
  5
427
 10
500.0
 20
1200.0
 30
0.0
  0
VERTEX
  8
TEXT
  6
CONTINUOUS
  5
428
 10
1499.9999999999995
 20
1200.0
 30
0.0
  0
VERTEX
  8
TEXT
  6
CONTINUOUS
  5
429
 10
1499.9999999999995
 20
950.0
 30
0.0
  0
VERTEX
  8
TEXT
  6
CONTINUOUS
  5
42A
 10
500.0
 20
950.0
 30
0.0
  0
SEQEND
  8
TEXT
  6
CONTINUOUS
  5
42B
  0
LINE
  8
TEXT
  6
CONTINUOUS
  5
42C
 10
500.0
 20
1050.0
 30
0.0
 11
1499.9999999999995
 21
1050.0
 31
0.0
  0
LINE
  8
TEXT
  6
CONTINUOUS
  5
42D
 10
500.0
 20
1000.0
 30
0.0
 11
1499.9999999999995
 21
1000.0
 31
0.0
  0
LINE
  8
TEXT
  6
CONTINUOUS
  5
42E
 10
899.99999999999955
 20
1200.0
 30
0.0
 11
899.99999999999955
 21
950.0
 31
0.0
  0
LINE
  8
TEXT
  6
CONTINUOUS
  5
42F
 10
500.0
 20
1150.0
 30
0.0
 11
1499.9999999999995
 21
1150.0
 31
0.0
  0
TEXT
  8
TEXT
  5
430
 10
525.0
 20
1153.8333333333333
 30
0.0
 40
29.104166666666664
  1
形　　　　　　　　　式
  7
________
 11
525.0
 21
1175.0
 31
0.0
 73
               2
  0
TEXT
  8
TEXT
  5
431
 10
525.0
 20
1103.8333333333333
 30
0.0
 40
29.104166666666664
  1
適　　用　　食　　器
  7
________
 11
525.0
 21
1125.0
 31
0.0
 73
               2
  0
TEXT
  8
TEXT
  5
432
 10
525.0
 20
1053.8333333333333
 30
0.0
 40
29.104166666666664
  1
ストック数量の目安
  7
________
 11
525.0
 21
1075.0
 31
0.0
 73
               2
  0
TEXT
  8
TEXT
  5
433
 10
525.0
 20
1003.8333333333334
 30
0.0
 40
29.104166666666664
  1
ば ね 調 整 範 囲
  7
________
 11
525.0
 21
1025.0
 31
0.0
 73
               2
  0
TEXT
  8
TEXT
  5
434
 10
525.0
 20
953.83333333333337
 30
0.0
 40
29.104166666666664
  1
質                    量
  7
________
 11
525.0
 21
975.0
 31
0.0
 73
               2
  0
TEXT
  8
TEXT
  5
435
 10
949.99999999999955
 20
1153.8333333333333
 30
0.0
 40
29.104166666666664
  1
KN4245W
  7
________
 11
949.99999999999955
 21
1175.0
 31
0.0
 73
               2
  0
TEXT
  8
TEXT
  5
436
 10
949.99999999999955
 20
1103.8333333333333
 30
0.0
 40
29.104166666666664
  1
トレー独立2列用
  7
________
 11
949.99999999999955
 21
1125.0
 31
0.0
 73
               2
  0
TEXT
  8
TEXT
  5
437
 10
949.99999999999955
 20
1053.8333333333333
 30
0.0
 40
29.104166666666664
  1
160 ～ 200枚
  7
________
 11
949.99999999999955
 21
1075.0
 31
0.0
 73
               2
  0
TEXT
  8
TEXT
  5
438
 10
949.99999999999955
 20
1003.8333333333334
 30
0.0
 40
29.104166666666664
  1
20 ～ 40kg×2
  7
________
 11
949.99999999999955
 21
1025.0
 31
0.0
 73
               2
  0
TEXT
  8
TEXT
  5
439
 10
949.99999999999955
 20
953.83333333333337
 30
0.0
 40
29.104166666666664
  1
38kg
  7
________
 11
949.99999999999955
 21
975.0
 31
0.0
 73
               2
  0
LINE
  8
OBJECT
  5
43A
 10
-1229.0
 20
996.0
 30
0.0
 11
-991.0
 21
996.0
 31
0.0
  0
LINE
  8
OBJECT
  5
43B
 10
-1229.0
 20
984.0
 30
0.0
 11
-991.0
 21
984.0
 31
0.0
  0
ARC
  8
OBJECT
  5
43C
 10
-1229.0
 20
990.0
 30
0.0
 40
6.0
 50
90.0
 51
270.0
  0
ARC
  8
OBJECT
  5
43D
 10
-991.0
 20
990.0
 30
0.0
 40
6.0
 50
270.0
 51
90.0
  0
LINE
  8
OBJECT
  5
43E
 10
-1209.0
 20
-81.000000000000227
 30
0.0
 11
-1011.0
 21
-81.000000000000227
 31
0.0
  0
LINE
  8
OBJECT
  5
43F
 10
-1209.0
 20
-93.000000000000227
 30
0.0
 11
-1011.0
 21
-93.000000000000227
 31
0.0
  0
LINE
  8
OBJECT
  6
CONTINUOUS
  5
440
 10
-1235.0
 20
-131.00000000000023
 30
0.0
 11
-1235.0
 21
-107.00000000000023
 31
0.0
  0
LINE
  8
OBJECT
  6
CONTINUOUS
  5
441
 10
-1223.0
 20
-131.00000000000023
 30
0.0
 11
-1223.0
 21
-107.00000000000023
 31
0.0
  0
LINE
  8
OBJECT
  6
CONTINUOUS
  5
442
 10
-997.0
 20
-131.00000000000023
 30
0.0
 11
-997.0
 21
-107.00000000000023
 31
0.0
  0
LINE
  8
OBJECT
  6
CONTINUOUS
  5
443
 10
-985.0
 20
-131.00000000000023
 30
0.0
 11
-985.0
 21
-107.00000000000023
 31
0.0
  0
LINE
  8
OBJECT
  5
444
 10
-505.0
 20
-336.00000000000023
 30
0.0
 11
-505.0
 21
-343.00000000000023
 31
0.0
  0
LINE
  8
OBJECT
  5
445
 10
-505.0
 20
-343.00000000000023
 30
0.0
 11
-510.0
 21
-343.00000000000023
 31
0.0
  0
LINE
  8
OBJECT
  5
446
 10
-510.0
 20
-343.00000000000023
 30
0.0
 11
-510.0
 21
-326.00000000000023
 31
0.0
  0
LINE
  8
OBJECT
  5
447
 10
-510.0
 20
-326.00000000000023
 30
0.0
 11
-507.0
 21
-326.00000000000023
 31
0.0
  0
LINE
  8
OBJECT
  5
448
 10
-507.0
 20
-336.00000000000023
 30
0.0
 11
-505.0
 21
-336.00000000000023
 31
0.0
  0
LINE
  8
OBJECT
  5
449
 10
-875.0
 20
-336.00000000000023
 30
0.0
 11
-875.0
 21
-343.00000000000023
 31
0.0
  0
LINE
  8
OBJECT
  5
44A
 10
-875.0
 20
-343.00000000000023
 30
0.0
 11
-870.0
 21
-343.00000000000023
 31
0.0
  0
LINE
  8
OBJECT
  5
44B
 10
-870.0
 20
-343.00000000000023
 30
0.0
 11
-870.0
 21
-326.00000000000023
 31
0.0
  0
LINE
  8
OBJECT
  5
44C
 10
-870.0
 20
-326.00000000000023
 30
0.0
 11
-873.0
 21
-326.00000000000023
 31
0.0
  0
LINE
  8
OBJECT
  5
44D
 10
-873.0
 20
-336.00000000000023
 30
0.0
 11
-875.0
 21
-336.00000000000023
 31
0.0
  0
INSERT
  8
FRAME
  5
44E
  2
*U11
 10
0.0
 20
19.999999999999996
 30
0.0
  0
LINE
  8
OBJECT
  5
44F
 10
-789.0
 20
-81.000000000000227
 30
0.0
 11
-591.0
 21
-81.000000000000227
 31
0.0
  0
LINE
  8
OBJECT
  5
450
 10
-789.0
 20
-93.000000000000227
 30
0.0
 11
-591.0
 21
-93.000000000000227
 31
0.0
  0
LINE
  8
OBJECT
  6
CONTINUOUS
  5
451
 10
-815.0
 20
-131.00000000000023
 30
0.0
 11
-815.0
 21
-107.00000000000023
 31
0.0
  0
LINE
  8
OBJECT
  6
CONTINUOUS
  5
452
 10
-803.0
 20
-131.00000000000023
 30
0.0
 11
-803.0
 21
-107.00000000000023
 31
0.0
  0
LINE
  8
OBJECT
  6
CONTINUOUS
  5
453
 10
-577.0
 20
-131.00000000000023
 30
0.0
 11
-577.0
 21
-107.00000000000023
 31
0.0
  0
LINE
  8
OBJECT
  6
CONTINUOUS
  5
454
 10
-565.0
 20
-131.00000000000023
 30
0.0
 11
-565.0
 21
-107.00000000000023
 31
0.0
  0
LINE
  8
OBJECT
  5
455
 10
-809.0
 20
996.0
 30
0.0
 11
-571.0
 21
996.0
 31
0.0
  0
LINE
  8
OBJECT
  5
456
 10
-809.0
 20
984.0
 30
0.0
 11
-571.0
 21
984.0
 31
0.0
  0
ARC
  8
OBJECT
  5
457
 10
-809.0
 20
990.0
 30
0.0
 40
6.0
 50
90.0
 51
270.0
  0
ARC
  8
OBJECT
  5
458
 10
-571.0
 20
990.0
 30
0.0
 40
6.0
 50
270.0
 51
90.0
  0
LINE
  8
OBJECT
  5
459
 10
-873.0
 20
-336.00000000000023
 30
0.0
 11
-873.0
 21
-251.00000000000023
 31
0.0
  0
LINE
  8
OBJECT
  5
45A
 10
-507.0
 20
-336.00000000000023
 30
0.0
 11
-507.0
 21
-251.00000000000023
 31
0.0
  0
LINE
  8
OBJECT
  5
45B
 10
-873.0
 20
-251.00000000000023
 30
0.0
 11
-507.0
 21
-251.00000000000023
 31
0.0
  0
LINE
  8
OBJECT
  5
45C
 10
-505.0
 20
-336.00000000000023
 30
0.0
 11
-505.0
 21
-151.00000000000023
 31
0.0
  0
LINE
  8
OBJECT
  5
45D
 10
-875.0
 20
-336.00000000000023
 30
0.0
 11
-875.0
 21
-151.00000000000023
 31
0.0
  0
LINE
  8
OBJECT
  5
45E
 10
-870.0
 20
-336.00000000000023
 30
0.0
 11
-510.0
 21
-336.00000000000023
 31
0.0
  0
LINE
  8
OBJECT
  5
45F
 10
-925.0
 20
-336.00000000000023
 30
0.0
 11
-925.0
 21
-343.00000000000023
 31
0.0
  0
LINE
  8
OBJECT
  5
460
 10
-925.0
 20
-343.00000000000023
 30
0.0
 11
-930.0
 21
-343.00000000000023
 31
0.0
  0
LINE
  8
OBJECT
  5
461
 10
-930.0
 20
-343.00000000000023
 30
0.0
 11
-930.0
 21
-326.00000000000023
 31
0.0
  0
LINE
  8
OBJECT
  5
462
 10
-930.0
 20
-326.00000000000023
 30
0.0
 11
-927.0
 21
-326.00000000000023
 31
0.0
  0
LINE
  8
OBJECT
  5
463
 10
-927.0
 20
-336.00000000000023
 30
0.0
 11
-925.0
 21
-336.00000000000023
 31
0.0
  0
LINE
  8
OBJECT
  5
464
 10
-1295.0
 20
-336.00000000000023
 30
0.0
 11
-1295.0
 21
-343.00000000000023
 31
0.0
  0
LINE
  8
OBJECT
  5
465
 10
-1295.0
 20
-343.00000000000023
 30
0.0
 11
-1290.0
 21
-343.00000000000023
 31
0.0
  0
LINE
  8
OBJECT
  5
466
 10
-1290.0
 20
-343.00000000000023
 30
0.0
 11
-1290.0
 21
-326.00000000000023
 31
0.0
  0
LINE
  8
OBJECT
  5
467
 10
-1290.0
 20
-326.00000000000023
 30
0.0
 11
-1293.0
 21
-326.00000000000023
 31
0.0
  0
LINE
  8
OBJECT
  5
468
 10
-1293.0
 20
-336.00000000000023
 30
0.0
 11
-1295.0
 21
-336.00000000000023
 31
0.0
  0
LINE
  8
OBJECT
  5
469
 10
-1293.0
 20
-336.00000000000023
 30
0.0
 11
-1293.0
 21
-251.00000000000023
 31
0.0
  0
LINE
  8
OBJECT
  5
46A
 10
-927.0
 20
-336.00000000000023
 30
0.0
 11
-927.0
 21
-251.00000000000023
 31
0.0
  0
LINE
  8
OBJECT
  5
46B
 10
-1293.0
 20
-251.00000000000023
 30
0.0
 11
-927.0
 21
-251.00000000000023
 31
0.0
  0
LINE
  8
OBJECT
  5
46C
 10
-1290.0
 20
-336.00000000000023
 30
0.0
 11
-930.0
 21
-336.00000000000023
 31
0.0
  0
LINE
  8
OBJECT
  5
46D
 10
-925.0
 20
-336.00000000000023
 30
0.0
 11
-925.0
 21
-151.00000000000023
 31
0.0
  0
LINE
  8
OBJECT
  5
46E
 10
-1295.0
 20
-336.00000000000023
 30
0.0
 11
-1295.0
 21
-151.00000000000023
 31
0.0
  0
DIMENSION
  8
DIMENTION
  5
46F
  2
*D12
 10
-1450.0
 20
1010.0
 30
0.0
 11
-1450.0
 21
755.0
 31
0.0
 13
-1320.0
 23
500.0
 33
0.0
 14
-1320.0
 24
1010.0
 34
0.0
 50
90.0
  3
CAD
  0
DIMENSION
  8
DIMENTION
  5
470
  2
*D13
 10
-1450.0
 20
500.0
 30
0.0
 11
-1450.9999999962747
 21
440.0
 31
0.0
 70
             128
 13
-1325.0
 23
480.0
 33
0.0
 14
-1320.0
 24
500.0
 34
0.0
 50
90.0
  3
CAD
  0
DIMENSION
  8
DIMENTION
  5
471
  2
*D14
 10
-1320.0
 20
350.0
 30
0.0
 11
-1380.0
 21
350.99999999627471
 31
0.0
 70
             128
 13
-1340.0
 23
495.0
 33
0.0
 14
-1320.0
 24
500.0
 34
0.0
  3
CAD
  0
LINE
  8
DIMENTION
  6
CONTINUOUS
  5
472
 10
-300.0
 20
-800.0
 30
0.0
 11
-460.09762678508116
 21
-851.94432015721861
 31
0.0
  0
LINE
  8
DIMENTION
  6
CONTINUOUS
  5
473
 10
-460.09762678508116
 20
-851.94432015721861
 30
0.0
 11
-440.78359782836804
 21
-839.87557540027933
 31
0.0
  0
LINE
  8
DIMENTION
  6
CONTINUOUS
  5
474
 10
-460.09762678508116
 20
-851.94432015721861
 30
0.0
 11
-437.33681468066965
 21
-851.14949508427549
 31
0.0
  0
TEXT
  8
TEXT
  5
475
 10
-300.0
 20
-797.33333333333337
 30
0.0
 40
29.104166666666664
  1
ダンパーゴム4個
  7
________
 11
-300.0
 21
-762.30250000000001
 31
0.0
 73
               3
  0
LINE
  8
DIMENTION
  5
476
 10
-300.0
 20
-800.0
 30
0.0
 11
0.0
 21
-800.0
 31
0.0
  0
LINE
  8
OBJECT
  6
CONTINUOUS
  5
477
 10
500.0
 20
-1000.000002372326
 30
0.0
 11
1300.0
 21
-999.99998339371814
 31
0.0
  0
POLYLINE
  8
OBJECT
  6
CONTINUOUS
  5
478
 66
               1
 10
0.0
 20
0.0
 30
0.0
 70
               1
 75
               5
  0
VERTEX
  8
OBJECT
  6
CONTINUOUS
  5
479
 10
1142.9592939545701
 20
-880.99998343030256
 30
0.0
  0
VERTEX
  8
OBJECT
  6
CONTINUOUS
  5
47A
 10
1072.9592939545701
 20
-880.99998343030256
 30
0.0
  0
VERTEX
  8
OBJECT
  6
CONTINUOUS
  5
47B
 10
1072.9592939545701
 20
-883.99998343030256
 30
0.0
  0
VERTEX
  8
OBJECT
  6
CONTINUOUS
  5
47C
 10
1142.9592939545701
 20
-883.99998343030256
 30
0.0
  0
SEQEND
  8
OBJECT
  6
CONTINUOUS
  5
47D
  0
POLYLINE
  8
OBJECT
  6
CONTINUOUS
  5
47E
 66
               1
 10
0.0
 20
0.0
 30
0.0
 70
             129
  0
VERTEX
  8
OBJECT
  6
CONTINUOUS
  5
47F
 10
1130.9592939545701
 20
-949.99998343030256
 30
0.0
 42
-0.414213562373095
 70
               2
  0
VERTEX
  8
OBJECT
  6
CONTINUOUS
  5
480
 10
1140.9592939545701
 20
-939.99998343030256
 30
0.0
 42
-0.414213562373095
 70
               2
 50
1.8714839861558573E+17
  0
VERTEX
  8
OBJECT
  6
CONTINUOUS
  5
481
 10
1150.9592939545701
 20
-949.99998343030256
 30
0.0
 42
-0.414213562373095
 70
               2
  0
VERTEX
  8
OBJECT
  6
CONTINUOUS
  5
482
 10
1140.9592939545701
 20
-959.99998343030256
 30
0.0
 42
-0.414213562373095
 70
               2
 50
3.1191399769264294E+17
  0
VERTEX
  8
OBJECT
  6
CONTINUOUS
  5
483
 10
1130.9592939545701
 20
-949.99998343030256
 30
0.0
  0
SEQEND
  8
OBJECT
  6
CONTINUOUS
  5
484
  0
POLYLINE
  8
OBJECT
  6
CONTINUOUS
  5
485
 66
               1
 10
0.0
 20
0.0
 30
0.0
 70
             128
  0
VERTEX
  8
OBJECT
  6
CONTINUOUS
  5
486
 10
1131.4592939545701
 20
-891.99998343030256
 30
0.0
 42
0.414213562373095
 70
               2
  0
VERTEX
  8
OBJECT
  6
CONTINUOUS
  5
487
 10
1132.4592939545701
 20
-892.99998343030256
 30
0.0
  0
VERTEX
  8
OBJECT
  6
CONTINUOUS
  5
488
 10
1140.4592939545701
 20
-892.99998343030256
 30
0.0
  0
VERTEX
  8
OBJECT
  6
CONTINUOUS
  5
489
 10
1150.5592939545704
 20
-946.43768343030251
 30
0.0
  0
VERTEX
  8
OBJECT
  6
CONTINUOUS
  5
48A
 10
1150.7592939545702
 20
-948.25838343030273
 30
0.0
  0
SEQEND
  8
OBJECT
  6
CONTINUOUS
  5
48B
  0
POLYLINE
  8
OBJECT
  6
CONTINUOUS
  5
48C
 66
               1
 10
0.0
 20
0.0
 30
0.0
 70
             128
  0
VERTEX
  8
OBJECT
  6
CONTINUOUS
  5
48D
 10
1132.8316939545703
 20
-955.77718343030256
 30
0.0
  0
VERTEX
  8
OBJECT
  6
CONTINUOUS
  5
48E
 10
1132.1881939545701
 20
-954.8027834303025
 30
0.0
  0
VERTEX
  8
OBJECT
  6
CONTINUOUS
  5
48F
 10
1094.4592939545701
 20
-900.99998343030256
 30
0.0
  0
VERTEX
  8
OBJECT
  6
CONTINUOUS
  5
490
 10
1084.4592939545701
 20
-900.99998343030256
 30
0.0
  0
VERTEX
  8
OBJECT
  6
CONTINUOUS
  5
491
 10
1084.4592939545701
 20
-893.99998343030256
 30
0.0
  0
VERTEX
  8
OBJECT
  6
CONTINUOUS
  5
492
 10
1084.4592939545701
 20
-893.99998343030256
 30
0.0
 42
-0.414213562373095
 70
               2
  0
VERTEX
  8
OBJECT
  6
CONTINUOUS
  5
493
 10
1087.4592939545701
 20
-890.99998343030256
 30
0.0
  0
VERTEX
  8
OBJECT
  6
CONTINUOUS
  5
494
 10
1130.4592939545701
 20
-890.99998343030256
 30
0.0
  0
VERTEX
  8
OBJECT
  6
CONTINUOUS
  5
495
 10
1130.4592939545701
 20
-890.99998343030256
 30
0.0
 42
-0.414213562373095
 70
               2
 50
1.8714839861558573E+17
  0
VERTEX
  8
OBJECT
  6
CONTINUOUS
  5
496
 10
1131.4592939545701
 20
-891.99998343030256
 30
0.0
  0
SEQEND
  8
OBJECT
  6
CONTINUOUS
  5
497
  0
POLYLINE
  8
OBJECT
  6
CONTINUOUS
  5
498
 66
               1
 10
0.0
 20
0.0
 30
0.0
 70
               1
 75
               5
  0
VERTEX
  8
OBJECT
  6
CONTINUOUS
  5
499
 10
1134.4592939545701
 20
-883.99998343030256
 30
0.0
  0
VERTEX
  8
OBJECT
  6
CONTINUOUS
  5
49A
 10
1081.4592939545701
 20
-883.99998343030256
 30
0.0
  0
VERTEX
  8
OBJECT
  6
CONTINUOUS
  5
49B
 10
1085.4592939545701
 20
-887.49998343030256
 30
0.0
  0
VERTEX
  8
OBJECT
  6
CONTINUOUS
  5
49C
 10
1085.4592939545701
 20
-890.99998343030256
 30
0.0
  0
VERTEX
  8
OBJECT
  6
CONTINUOUS
  5
49D
 10
1130.4592939545701
 20
-890.99998343030256
 30
0.0
  0
VERTEX
  8
OBJECT
  6
CONTINUOUS
  5
49E
 10
1130.4592939545701
 20
-887.49998343030256
 30
0.0
  0
SEQEND
  8
OBJECT
  6
CONTINUOUS
  5
49F
  0
LINE
  8
OBJECT
  6
CONTINUOUS
  5
4A0
 10
1130.4592939545701
 20
-887.49998343030256
 30
0.0
 11
1085.4592939545701
 21
-887.49998343030256
 31
0.0
  0
LINE
  8
OBJECT
  6
CONTINUOUS
  5
4A1
 10
1125.4592939545701
 20
-892.99998343030256
 30
0.0
 11
1125.4592939545701
 21
-942.99998343030256
 31
0.0
  0
POLYLINE
  8
OBJECT
  6
CONTINUOUS
  5
4A2
 66
               1
 10
0.0
 20
0.0
 30
0.0
 70
             129
  0
VERTEX
  8
OBJECT
  6
CONTINUOUS
  5
4A3
 10
1135.4592939545701
 20
-949.99998343030256
 30
0.0
 42
-0.414213562373095
 70
               2
  0
VERTEX
  8
OBJECT
  6
CONTINUOUS
  5
4A4
 10
1140.9592939545701
 20
-944.49998343030256
 30
0.0
 42
-0.414213562373095
 70
               2
 50
1.8714839861558573E+17
  0
VERTEX
  8
OBJECT
  6
CONTINUOUS
  5
4A5
 10
1146.4592939545701
 20
-949.99998343030256
 30
0.0
 42
-0.414213562373095
 70
               2
  0
VERTEX
  8
OBJECT
  6
CONTINUOUS
  5
4A6
 10
1140.9592939545701
 20
-955.49998343030256
 30
0.0
 42
-0.414213562373095
 70
               2
 50
3.1191399769264294E+17
  0
VERTEX
  8
OBJECT
  6
CONTINUOUS
  5
4A7
 10
1135.4592939545701
 20
-949.99998343030256
 30
0.0
  0
SEQEND
  8
OBJECT
  6
CONTINUOUS
  5
4A8
  0
ARC
  8
OBJECT
  6
CONTINUOUS
  5
4A9
 10
1140.9592939545701
 20
-949.99998343030256
 30
0.0
 40
40.00001805624602
 50
139.42693516316959
 51
86.085507773715676
  0
ARC
  8
OBJECT
  6
CONTINUOUS
  5
4AA
 10
1140.9592939545701
 20
-949.99998343030256
 30
0.0
 40
46.499974801391303
 50
137.38144272174625
 51
88.1648678673657
  0
ARC
  8
OBJECT
  6
CONTINUOUS
  5
4AB
 10
1140.9592939545701
 20
-949.99998343030256
 30
0.0
 40
50.000016569697138
 50
136.50527645865799
 51
89.055378894867943
  0
POLYLINE
  8
OBJECT
  6
CONTINUOUS
  5
4AC
 66
               1
 10
0.0
 20
0.0
 30
0.0
 70
               1
 75
               5
  0
VERTEX
  8
OBJECT
  6
CONTINUOUS
  5
4AD
 10
696.95929395457006
 20
-880.99998343030256
 30
0.0
  0
VERTEX
  8
OBJECT
  6
CONTINUOUS
  5
4AE
 10
636.95929395457006
 20
-880.99998343030256
 30
0.0
  0
VERTEX
  8
OBJECT
  6
CONTINUOUS
  5
4AF
 10
636.95929395457006
 20
-883.99998343030256
 30
0.0
  0
VERTEX
  8
OBJECT
  6
CONTINUOUS
  5
4B0
 10
696.95929395457006
 20
-883.99998343030256
 30
0.0
  0
SEQEND
  8
OBJECT
  6
CONTINUOUS
  5
4B1
  0
POLYLINE
  8
OBJECT
  6
CONTINUOUS
  5
4B2
 66
               1
 10
0.0
 20
0.0
 30
0.0
 70
             129
  0
VERTEX
  8
OBJECT
  6
CONTINUOUS
  5
4B3
 10
689.95929395457006
 20
-949.99998343030256
 30
0.0
 42
-0.414213562373095
 70
               2
  0
VERTEX
  8
OBJECT
  6
CONTINUOUS
  5
4B4
 10
699.95929395457006
 20
-939.99998343030256
 30
0.0
 42
-0.414213562373095
 70
               2
 50
1.8714839861558573E+17
  0
VERTEX
  8
OBJECT
  6
CONTINUOUS
  5
4B5
 10
709.95929395457006
 20
-949.99998343030256
 30
0.0
 42
-0.414213562373095
 70
               2
  0
VERTEX
  8
OBJECT
  6
CONTINUOUS
  5
4B6
 10
699.95929395457006
 20
-959.99998343030256
 30
0.0
 42
-0.414213562373095
 70
               2
 50
3.1191399769264294E+17
  0
VERTEX
  8
OBJECT
  6
CONTINUOUS
  5
4B7
 10
689.95929395457006
 20
-949.99998343030256
 30
0.0
  0
SEQEND
  8
OBJECT
  6
CONTINUOUS
  5
4B8
  0
POLYLINE
  8
OBJECT
  6
CONTINUOUS
  5
4B9
 66
               1
 10
0.0
 20
0.0
 30
0.0
 70
             128
  0
VERTEX
  8
OBJECT
  6
CONTINUOUS
  5
4BA
 10
690.45929395457006
 20
-891.99998343030256
 30
0.0
 42
0.414213562373095
 70
               2
  0
VERTEX
  8
OBJECT
  6
CONTINUOUS
  5
4BB
 10
691.45929395457006
 20
-892.99998343030256
 30
0.0
  0
VERTEX
  8
OBJECT
  6
CONTINUOUS
  5
4BC
 10
699.45929395457006
 20
-892.99998343030256
 30
0.0
  0
VERTEX
  8
OBJECT
  6
CONTINUOUS
  5
4BD
 10
709.55929395457042
 20
-946.43768343030251
 30
0.0
  0
VERTEX
  8
OBJECT
  6
CONTINUOUS
  5
4BE
 10
709.75929395457024
 20
-948.25838343030273
 30
0.0
  0
SEQEND
  8
OBJECT
  6
CONTINUOUS
  5
4BF
  0
POLYLINE
  8
OBJECT
  6
CONTINUOUS
  5
4C0
 66
               1
 10
0.0
 20
0.0
 30
0.0
 70
             128
  0
VERTEX
  8
OBJECT
  6
CONTINUOUS
  5
4C1
 10
691.83169395457026
 20
-955.77718343030256
 30
0.0
  0
VERTEX
  8
OBJECT
  6
CONTINUOUS
  5
4C2
 10
691.18819395457012
 20
-954.8027834303025
 30
0.0
  0
VERTEX
  8
OBJECT
  6
CONTINUOUS
  5
4C3
 10
653.45929395457006
 20
-900.99998343030256
 30
0.0
  0
VERTEX
  8
OBJECT
  6
CONTINUOUS
  5
4C4
 10
643.45929395457006
 20
-900.99998343030256
 30
0.0
  0
VERTEX
  8
OBJECT
  6
CONTINUOUS
  5
4C5
 10
643.45929395457006
 20
-893.99998343030256
 30
0.0
  0
VERTEX
  8
OBJECT
  6
CONTINUOUS
  5
4C6
 10
643.45929395457006
 20
-893.99998343030256
 30
0.0
 42
-0.414213562373095
 70
               2
  0
VERTEX
  8
OBJECT
  6
CONTINUOUS
  5
4C7
 10
646.45929395457006
 20
-890.99998343030256
 30
0.0
  0
VERTEX
  8
OBJECT
  6
CONTINUOUS
  5
4C8
 10
689.45929395457006
 20
-890.99998343030256
 30
0.0
  0
VERTEX
  8
OBJECT
  6
CONTINUOUS
  5
4C9
 10
689.45929395457006
 20
-890.99998343030256
 30
0.0
 42
-0.414213562373095
 70
               2
 50
1.8714839861558573E+17
  0
VERTEX
  8
OBJECT
  6
CONTINUOUS
  5
4CA
 10
690.45929395457006
 20
-891.99998343030256
 30
0.0
  0
SEQEND
  8
OBJECT
  6
CONTINUOUS
  5
4CB
  0
POLYLINE
  8
OBJECT
  6
CONTINUOUS
  5
4CC
 66
               1
 10
0.0
 20
0.0
 30
0.0
 70
               1
 75
               5
  0
VERTEX
  8
OBJECT
  6
CONTINUOUS
  5
4CD
 10
693.45929395457006
 20
-883.99998343030256
 30
0.0
  0
VERTEX
  8
OBJECT
  6
CONTINUOUS
  5
4CE
 10
640.45929395457006
 20
-883.99998343030256
 30
0.0
  0
VERTEX
  8
OBJECT
  6
CONTINUOUS
  5
4CF
 10
644.45929395457006
 20
-887.49998343030256
 30
0.0
  0
VERTEX
  8
OBJECT
  6
CONTINUOUS
  5
4D0
 10
644.45929395457006
 20
-890.99998343030256
 30
0.0
  0
VERTEX
  8
OBJECT
  6
CONTINUOUS
  5
4D1
 10
689.45929395457006
 20
-890.99998343030256
 30
0.0
  0
VERTEX
  8
OBJECT
  6
CONTINUOUS
  5
4D2
 10
689.45929395457006
 20
-887.49998343030256
 30
0.0
  0
SEQEND
  8
OBJECT
  6
CONTINUOUS
  5
4D3
  0
LINE
  8
OBJECT
  6
CONTINUOUS
  5
4D4
 10
689.45929395457006
 20
-887.49998343030256
 30
0.0
 11
644.45929395457006
 21
-887.49998343030256
 31
0.0
  0
LINE
  8
OBJECT
  6
CONTINUOUS
  5
4D5
 10
684.45929395457006
 20
-892.99998343030256
 30
0.0
 11
684.45929395457006
 21
-942.99998343030256
 31
0.0
  0
POLYLINE
  8
OBJECT
  6
CONTINUOUS
  5
4D6
 66
               1
 10
0.0
 20
0.0
 30
0.0
 70
             129
  0
VERTEX
  8
OBJECT
  6
CONTINUOUS
  5
4D7
 10
694.45929395457006
 20
-949.99998343030256
 30
0.0
 42
-0.414213562373095
 70
               2
  0
VERTEX
  8
OBJECT
  6
CONTINUOUS
  5
4D8
 10
699.95929395457006
 20
-944.49998343030256
 30
0.0
 42
-0.414213562373095
 70
               2
 50
1.8714839861558573E+17
  0
VERTEX
  8
OBJECT
  6
CONTINUOUS
  5
4D9
 10
705.45929395457006
 20
-949.99998343030256
 30
0.0
 42
-0.414213562373095
 70
               2
  0
VERTEX
  8
OBJECT
  6
CONTINUOUS
  5
4DA
 10
699.95929395457006
 20
-955.49998343030256
 30
0.0
 42
-0.414213562373095
 70
               2
 50
3.1191399769264294E+17
  0
VERTEX
  8
OBJECT
  6
CONTINUOUS
  5
4DB
 10
694.45929395457006
 20
-949.99998343030256
 30
0.0
  0
SEQEND
  8
OBJECT
  6
CONTINUOUS
  5
4DC
  0
ARC
  8
OBJECT
  6
CONTINUOUS
  5
4DD
 10
699.95929395457006
 20
-949.99998343030256
 30
0.0
 40
40.00001805624602
 50
139.42693516316959
 51
86.085507773715676
  0
ARC
  8
OBJECT
  6
CONTINUOUS
  5
4DE
 10
699.95929395457006
 20
-949.99998343030256
 30
0.0
 40
46.499974801391303
 50
137.38144272174625
 51
88.1648678673657
  0
ARC
  8
OBJECT
  6
CONTINUOUS
  5
4DF
 10
699.95929395457006
 20
-949.99998343030256
 30
0.0
 40
50.000016569697138
 50
136.50527645865799
 51
89.055378894868994
  0
INSERT
  8
OBJECT
  5
4E0
  2
*U15
 10
0.0
 20
19.999999999999996
 30
0.0
  0
INSERT
  8
OBJECT
  5
4E1
  2
*U16
 10
0.0
 20
19.999999999999996
 30
0.0
  0
POLYLINE
  8
OBJECT
  6
CONTINUOUS
  5
4E2
 66
               1
 10
0.0
 20
0.0
 30
0.0
 75
               5
  0
VERTEX
  8
OBJECT
  6
CONTINUOUS
  5
4E3
 10
634.95929395457006
 20
-875.99998343030256
 30
0.0
  0
VERTEX
  8
OBJECT
  6
CONTINUOUS
  5
4E4
 10
634.95929395457006
 20
-880.99998343030256
 30
0.0
  0
VERTEX
  8
OBJECT
  6
CONTINUOUS
  5
4E5
 10
1144.9592939545701
 20
-880.99998343030256
 30
0.0
  0
VERTEX
  8
OBJECT
  6
CONTINUOUS
  5
4E6
 10
1144.9592939545701
 20
-875.99998343030256
 30
0.0
  0
SEQEND
  8
OBJECT
  6
CONTINUOUS
  5
4E7
  0
POLYLINE
  8
HIDDEN
  6
STYLE_04
  5
4E8
 66
               1
 10
0.0
 20
0.0
 30
0.0
 70
             129
  0
VERTEX
  8
HIDDEN
  6
STYLE_04
  5
4E9
 10
1104.9592939545701
 20
-155.99998343030256
 30
0.0
 42
-0.414213562373095
 70
               2
  0
VERTEX
  8
HIDDEN
  6
STYLE_04
  5
4EA
 10
1115.9592939545701
 20
-144.99998343030256
 30
0.0
 42
-0.414213562373095
 70
               2
 50
1.8714839861558573E+17
  0
VERTEX
  8
HIDDEN
  6
STYLE_04
  5
4EB
 10
1126.9592939545701
 20
-155.99998343030256
 30
0.0
 42
-0.414213562373095
 70
               2
  0
VERTEX
  8
HIDDEN
  6
STYLE_04
  5
4EC
 10
1115.9592939545701
 20
-166.99998343030256
 30
0.0
 42
-0.414213562373095
 70
               2
 50
3.1191399769264294E+17
  0
VERTEX
  8
HIDDEN
  6
STYLE_04
  5
4ED
 10
1104.9592939545701
 20
-155.99998343030256
 30
0.0
  0
SEQEND
  8
HIDDEN
  6
STYLE_04
  5
4EE
  0
POLYLINE
  8
OBJECT
  6
CONTINUOUS
  5
4EF
 66
               1
 10
0.0
 20
0.0
 30
0.0
 70
             129
  0
VERTEX
  8
OBJECT
  6
CONTINUOUS
  5
4F0
 10
1081.4592939545701
 20
-324.99998343030256
 30
0.0
 42
-0.414213562373095
 70
               2
  0
VERTEX
  8
OBJECT
  6
CONTINUOUS
  5
4F1
 10
1092.4592939545701
 20
-313.99998343030256
 30
0.0
 42
-0.414213562373095
 70
               2
 50
1.8714839861558573E+17
  0
VERTEX
  8
OBJECT
  6
CONTINUOUS
  5
4F2
 10
1103.4592939545701
 20
-324.99998343030256
 30
0.0
 42
-0.414213562373095
 70
               2
  0
VERTEX
  8
OBJECT
  6
CONTINUOUS
  5
4F3
 10
1092.4592939545701
 20
-335.99998343030256
 30
0.0
 42
-0.414213562373095
 70
               2
 50
3.1191399769264294E+17
  0
VERTEX
  8
OBJECT
  6
CONTINUOUS
  5
4F4
 10
1081.4592939545701
 20
-324.99998343030256
 30
0.0
  0
SEQEND
  8
OBJECT
  6
CONTINUOUS
  5
4F5
  0
LINE
  8
OBJECT
  6
CONTINUOUS
  5
4F6
 10
677.95929395457006
 20
-150.99998343030256
 30
0.0
 11
1087.9592939545701
 21
-150.99998343030256
 31
0.0
  0
LINE
  8
OBJECT
  6
CONTINUOUS
  5
4F7
 10
677.95929395457006
 20
-250.99998343030256
 30
0.0
 11
677.95929395457006
 21
-150.99998343030256
 31
0.0
  0
LINE
  8
OBJECT
  6
CONTINUOUS
  5
4F8
 10
867.95929395457006
 20
-335.99998343030256
 30
0.0
 11
677.95929395457006
 21
-250.99998343030256
 31
0.0
  0
LINE
  8
OBJECT
  6
CONTINUOUS
  5
4F9
 10
1087.9592939545701
 20
-335.99998343030256
 30
0.0
 11
867.95929395457006
 21
-335.99998343030256
 31
0.0
  0
LINE
  8
OBJECT
  6
CONTINUOUS
  5
4FA
 10
1087.9592939545701
 20
-335.03738343030273
 30
0.0
 11
1087.9592939545701
 21
-335.99998343030256
 31
0.0
  0
POLYLINE
  8
HIDDEN
  6
STYLE_04
  5
4FB
 66
               1
 10
0.0
 20
0.0
 30
0.0
 75
               5
  0
VERTEX
  8
HIDDEN
  6
STYLE_04
  5
4FC
 10
1125.7572939545698
 20
-150.99998343030256
 30
0.0
  0
VERTEX
  8
HIDDEN
  6
STYLE_04
  5
4FD
 10
1132.9592939545701
 20
-150.99998343030256
 30
0.0
  0
VERTEX
  8
HIDDEN
  6
STYLE_04
  5
4FE
 10
1132.9592939545701
 20
-330.99998343030256
 30
0.0
  0
VERTEX
  8
HIDDEN
  6
STYLE_04
  5
4FF
 10
1101.6787939545702
 20
-330.99998343030256
 30
0.0
  0
SEQEND
  8
HIDDEN
  6
STYLE_04
  5
500
  0
POLYLINE
  8
OBJECT
  6
CONTINUOUS
  5
501
 66
               1
 10
0.0
 20
0.0
 30
0.0
 75
               5
  0
VERTEX
  8
OBJECT
  6
CONTINUOUS
  5
502
 10
1106.1612939545703
 20
-150.99998343030256
 30
0.0
  0
VERTEX
  8
OBJECT
  6
CONTINUOUS
  5
503
 10
1072.9592939545701
 20
-150.99998343030256
 30
0.0
  0
VERTEX
  8
OBJECT
  6
CONTINUOUS
  5
504
 10
1072.9592939545701
 20
-330.99998343030256
 30
0.0
  0
VERTEX
  8
OBJECT
  6
CONTINUOUS
  5
505
 10
1083.2397939545699
 20
-330.99998343030256
 30
0.0
  0
SEQEND
  8
OBJECT
  6
CONTINUOUS
  5
506
  0
POLYLINE
  8
OBJECT
  6
CONTINUOUS
  5
507
 66
               1
 10
0.0
 20
0.0
 30
0.0
 70
               1
 75
               5
  0
VERTEX
  8
OBJECT
  6
CONTINUOUS
  5
508
 10
653.95929395457006
 20
-150.99998343030256
 30
0.0
  0
VERTEX
  8
OBJECT
  6
CONTINUOUS
  5
509
 10
668.95929395457006
 20
-135.99998343030256
 30
0.0
  0
VERTEX
  8
OBJECT
  6
CONTINUOUS
  5
50A
 10
1072.9592939545701
 20
-135.99998343030256
 30
0.0
  0
VERTEX
  8
OBJECT
  6
CONTINUOUS
  5
50B
 10
1087.9592939545701
 20
-150.99998343030256
 30
0.0
  0
VERTEX
  8
OBJECT
  6
CONTINUOUS
  5
50C
 10
1087.9592939545701
 20
-150.99998343030256
 30
0.0
  0
VERTEX
  8
OBJECT
  6
CONTINUOUS
  5
50D
 10
1087.9592939545701
 20
-150.99998343030256
 30
0.0
  0
VERTEX
  8
OBJECT
  6
CONTINUOUS
  5
50E
 10
653.95929395457006
 20
-150.99998343030256
 30
0.0
  0
SEQEND
  8
OBJECT
  6
CONTINUOUS
  5
50F
  0
POLYLINE
  8
OBJECT
  6
CONTINUOUS
  5
510
 66
               1
 10
0.0
 20
0.0
 30
0.0
 75
               5
  0
VERTEX
  8
OBJECT
  6
CONTINUOUS
  5
511
 10
654.95929395457006
 20
-149.99998343030256
 30
0.0
  0
VERTEX
  8
OBJECT
  6
CONTINUOUS
  5
512
 10
645.95929395457006
 20
-149.99998343030256
 30
0.0
  0
VERTEX
  8
OBJECT
  6
CONTINUOUS
  5
513
 10
645.95929395457006
 20
-135.99998343030256
 30
0.0
  0
VERTEX
  8
OBJECT
  6
CONTINUOUS
  5
514
 10
643.95929395457006
 20
-135.99998343030256
 30
0.0
  0
VERTEX
  8
OBJECT
  6
CONTINUOUS
  5
515
 10
643.95929395457006
 20
-150.99998343030256
 30
0.0
  0
VERTEX
  8
OBJECT
  6
CONTINUOUS
  5
516
 10
1097.9592939545701
 20
-150.99998343030256
 30
0.0
  0
VERTEX
  8
OBJECT
  6
CONTINUOUS
  5
517
 10
1097.9592939545701
 20
-135.99998343030256
 30
0.0
  0
VERTEX
  8
OBJECT
  6
CONTINUOUS
  5
518
 10
1095.9592939545701
 20
-135.99998343030256
 30
0.0
  0
VERTEX
  8
OBJECT
  6
CONTINUOUS
  5
519
 10
1095.9592939545701
 20
-149.99998343030256
 30
0.0
  0
VERTEX
  8
OBJECT
  6
CONTINUOUS
  5
51A
 10
1086.9592939545701
 20
-149.99998343030256
 30
0.0
  0
SEQEND
  8
OBJECT
  6
CONTINUOUS
  5
51B
  0
POLYLINE
  8
OUTLINE
  6
STYLE_02
  5
51C
 66
               1
 10
0.0
 20
0.0
 30
0.0
 70
               1
 75
               5
  0
VERTEX
  8
OUTLINE
  6
STYLE_02
  5
51D
 10
653.95929395457006
 20
-650.99998343030256
 30
0.0
  0
VERTEX
  8
OUTLINE
  6
STYLE_02
  5
51E
 10
668.95929395457006
 20
-635.99998343030256
 30
0.0
  0
VERTEX
  8
OUTLINE
  6
STYLE_02
  5
51F
 10
1072.9592939545701
 20
-635.99998343030256
 30
0.0
  0
VERTEX
  8
OUTLINE
  6
STYLE_02
  5
520
 10
1087.9592939545701
 20
-650.99998343030256
 30
0.0
  0
VERTEX
  8
OUTLINE
  6
STYLE_02
  5
521
 10
1087.9592939545701
 20
-650.99998343030256
 30
0.0
  0
VERTEX
  8
OUTLINE
  6
STYLE_02
  5
522
 10
1087.9592939545701
 20
-650.99998343030256
 30
0.0
  0
VERTEX
  8
OUTLINE
  6
STYLE_02
  5
523
 10
653.95929395457006
 20
-650.99998343030256
 30
0.0
  0
SEQEND
  8
OUTLINE
  6
STYLE_02
  5
524
  0
POLYLINE
  8
OUTLINE
  6
STYLE_02
  5
525
 66
               1
 10
0.0
 20
0.0
 30
0.0
 75
               5
  0
VERTEX
  8
OUTLINE
  6
STYLE_02
  5
526
 10
1087.9592939545701
 20
-650.99998343030256
 30
0.0
  0
VERTEX
  8
OUTLINE
  6
STYLE_02
  5
527
 10
1097.9592939545701
 20
-650.99998343030256
 30
0.0
  0
VERTEX
  8
OUTLINE
  6
STYLE_02
  5
528
 10
1097.9592939545701
 20
-635.99998343030256
 30
0.0
  0
VERTEX
  8
OUTLINE
  6
STYLE_02
  5
529
 10
1095.9592939545701
 20
-635.99998343030256
 30
0.0
  0
VERTEX
  8
OUTLINE
  6
STYLE_02
  5
52A
 10
1095.9592939545701
 20
-649.99998343030256
 30
0.0
  0
VERTEX
  8
OUTLINE
  6
STYLE_02
  5
52B
 10
1086.9592939545701
 20
-649.99998343030256
 30
0.0
  0
SEQEND
  8
OUTLINE
  6
STYLE_02
  5
52C
  0
POLYLINE
  8
OUTLINE
  6
STYLE_02
  5
52D
 66
               1
 10
0.0
 20
0.0
 30
0.0
 75
               5
  0
VERTEX
  8
OUTLINE
  6
STYLE_02
  5
52E
 10
653.95929395457006
 20
-650.99998343030256
 30
0.0
  0
VERTEX
  8
OUTLINE
  6
STYLE_02
  5
52F
 10
643.95929395457006
 20
-650.99998343030256
 30
0.0
  0
VERTEX
  8
OUTLINE
  6
STYLE_02
  5
530
 10
643.95929395457006
 20
-635.99998343030256
 30
0.0
  0
VERTEX
  8
OUTLINE
  6
STYLE_02
  5
531
 10
645.95929395457006
 20
-635.99998343030256
 30
0.0
  0
VERTEX
  8
OUTLINE
  6
STYLE_02
  5
532
 10
645.95929395457006
 20
-649.99998343030256
 30
0.0
  0
VERTEX
  8
OUTLINE
  6
STYLE_02
  5
533
 10
654.95929395457006
 20
-649.99998343030256
 30
0.0
  0
SEQEND
  8
OUTLINE
  6
STYLE_02
  5
534
  0
POLYLINE
  8
OBJECT
  6
CONTINUOUS
  5
535
 66
               1
 10
0.0
 20
0.0
 30
0.0
 70
             129
  0
VERTEX
  8
OBJECT
  6
CONTINUOUS
  5
536
 10
1116.4592939545701
 20
-810.99998343030256
 30
0.0
 42
-0.414213562373095
 70
               2
  0
VERTEX
  8
OBJECT
  6
CONTINUOUS
  5
537
 10
1124.9592939545701
 20
-802.49998343030256
 30
0.0
 42
-0.414213562373095
 70
               2
 50
1.8714839861558573E+17
  0
VERTEX
  8
OBJECT
  6
CONTINUOUS
  5
538
 10
1133.4592939545701
 20
-810.99998343030256
 30
0.0
 42
-0.414213562373095
 70
               2
  0
VERTEX
  8
OBJECT
  6
CONTINUOUS
  5
539
 10
1124.9592939545701
 20
-819.49998343030256
 30
0.0
 42
-0.414213562373095
 70
               2
 50
3.1191399769264294E+17
  0
VERTEX
  8
OBJECT
  6
CONTINUOUS
  5
53A
 10
1116.4592939545701
 20
-810.99998343030256
 30
0.0
  0
SEQEND
  8
OBJECT
  6
CONTINUOUS
  5
53B
  0
POLYLINE
  8
OBJECT
  6
CONTINUOUS
  5
53C
 66
               1
 10
0.0
 20
0.0
 30
0.0
 70
             129
  0
VERTEX
  8
OBJECT
  6
CONTINUOUS
  5
53D
 10
1116.4592939545701
 20
-740.99998343030256
 30
0.0
 42
-0.414213562373095
 70
               2
  0
VERTEX
  8
OBJECT
  6
CONTINUOUS
  5
53E
 10
1124.9592939545701
 20
-732.49998343030256
 30
0.0
 42
-0.414213562373095
 70
               2
 50
1.8714839861558573E+17
  0
VERTEX
  8
OBJECT
  6
CONTINUOUS
  5
53F
 10
1133.4592939545701
 20
-740.99998343030256
 30
0.0
 42
-0.414213562373095
 70
               2
  0
VERTEX
  8
OBJECT
  6
CONTINUOUS
  5
540
 10
1124.9592939545701
 20
-749.49998343030256
 30
0.0
 42
-0.414213562373095
 70
               2
 50
3.1191399769264294E+17
  0
VERTEX
  8
OBJECT
  6
CONTINUOUS
  5
541
 10
1116.4592939545701
 20
-740.99998343030256
 30
0.0
  0
SEQEND
  8
OBJECT
  6
CONTINUOUS
  5
542
  0
POLYLINE
  8
OBJECT
  6
CONTINUOUS
  5
543
 66
               1
 10
0.0
 20
0.0
 30
0.0
 70
             129
  0
VERTEX
  8
OBJECT
  6
CONTINUOUS
  5
544
 10
1010.2538939545702
 20
-860.66808343030243
 30
0.0
 42
-0.414213562373095
 70
               2
  0
VERTEX
  8
OBJECT
  6
CONTINUOUS
  5
545
 10
1018.7538939545702
 20
-852.16808343030243
 30
0.0
 42
-0.414213562373095
 70
               2
 50
1.8714839861558573E+17
  0
VERTEX
  8
OBJECT
  6
CONTINUOUS
  5
546
 10
1027.2538939545702
 20
-860.66808343030243
 30
0.0
 42
-0.414213562373095
 70
               2
  0
VERTEX
  8
OBJECT
  6
CONTINUOUS
  5
547
 10
1018.7538939545702
 20
-869.16808343030243
 30
0.0
 42
-0.414213562373095
 70
               2
 50
3.1191399769264294E+17
  0
VERTEX
  8
OBJECT
  6
CONTINUOUS
  5
548
 10
1010.2538939545702
 20
-860.66808343030243
 30
0.0
  0
SEQEND
  8
OBJECT
  6
CONTINUOUS
  5
549
  0
POLYLINE
  8
OBJECT
  6
CONTINUOUS
  5
54A
 66
               1
 10
0.0
 20
0.0
 30
0.0
 70
             129
  0
VERTEX
  8
OBJECT
  6
CONTINUOUS
  5
54B
 10
1008.7971711124104
 20
-871.88691315793403
 30
0.0
 42
-0.4142133485946385
 70
               2
 50
64.558778796228296
  0
VERTEX
  8
OBJECT
  6
CONTINUOUS
  5
54C
 10
1007.5350154937045
 20
-850.71129900519338
 30
0.0
  0
VERTEX
  8
OBJECT
  6
CONTINUOUS
  5
54D
 10
1113.7400799111422
 20
-731.04315940951244
 30
0.0
 42
-0.4142131280961534
 70
               2
 50
-50.849808266376911
  0
VERTEX
  8
OBJECT
  6
CONTINUOUS
  5
54E
 10
1134.9156846967317
 20
-729.78098083933048
 30
0.0
  0
VERTEX
  8
OBJECT
  6
CONTINUOUS
  5
54F
 10
1134.9157655272584
 20
-729.78105257593211
 30
0.0
 42
-0.4142141119462753
 70
               2
 50
64.559066519525828
  0
VERTEX
  8
OBJECT
  6
CONTINUOUS
  5
550
 10
1136.1779420494706
 20
-750.95669317518445
 30
0.0
  0
VERTEX
  8
OBJECT
  6
CONTINUOUS
  5
551
 10
1029.9728305250899
 20
-870.6247909638729
 30
0.0
 42
-0.4142136608554998
 70
               2
 50
-50.849848585446892
  0
VERTEX
  8
OBJECT
  6
CONTINUOUS
  5
552
 10
1008.7972048359942
 20
-871.88694308754327
 30
0.0
  0
SEQEND
  8
OBJECT
  6
CONTINUOUS
  5
553
  0
POLYLINE
  8
OBJECT
  6
CONTINUOUS
  5
554
 66
               1
 10
0.0
 20
0.0
 30
0.0
 75
               5
  0
VERTEX
  8
OBJECT
  6
CONTINUOUS
  5
555
 10
1056.2646939545702
 20
-840.99998343030256
 30
0.0
  0
VERTEX
  8
OBJECT
  6
CONTINUOUS
  5
556
 10
1144.9592939545701
 20
-840.99998343030256
 30
0.0
  0
VERTEX
  8
OBJECT
  6
CONTINUOUS
  5
557
 10
1144.9592939545701
 20
-845.99998343030256
 30
0.0
  0
SEQEND
  8
OBJECT
  6
CONTINUOUS
  5
558
  0
POLYLINE
  8
OBJECT
  6
CONTINUOUS
  5
559
 66
               1
 10
0.0
 20
0.0
 30
0.0
 75
               5
  0
VERTEX
  8
OBJECT
  6
CONTINUOUS
  5
55A
 10
1016.1537939545697
 20
-840.99998343030256
 30
0.0
  0
VERTEX
  8
OBJECT
  6
CONTINUOUS
  5
55B
 10
634.95929395457006
 20
-840.99998343030256
 30
0.0
  0
VERTEX
  8
OBJECT
  6
CONTINUOUS
  5
55C
 10
634.95929395457006
 20
-845.99998343030256
 30
0.0
  0
SEQEND
  8
OBJECT
  6
CONTINUOUS
  5
55D
  0
POLYLINE
  8
OBJECT
  6
CONTINUOUS
  5
55E
 66
               1
 10
0.0
 20
0.0
 30
0.0
 75
               5
  0
VERTEX
  8
OBJECT
  6
CONTINUOUS
  5
55F
 10
1104.9592939545701
 20
-740.93708343030266
 30
0.0
  0
VERTEX
  8
OBJECT
  6
CONTINUOUS
  5
560
 10
1104.9592939545701
 20
-130.99998343030256
 30
0.0
  0
VERTEX
  8
OBJECT
  6
CONTINUOUS
  5
561
 10
1144.9592939545701
 20
-130.99998343030256
 30
0.0
  0
VERTEX
  8
OBJECT
  6
CONTINUOUS
  5
562
 10
1144.9592939545701
 20
-840.99998343030256
 30
0.0
  0
VERTEX
  8
OBJECT
  6
CONTINUOUS
  5
563
 10
1104.9592939545701
 20
-840.99998343030256
 30
0.0
  0
VERTEX
  8
OBJECT
  6
CONTINUOUS
  5
564
 10
1104.9592939545701
 20
-786.13268343030222
 30
0.0
  0
SEQEND
  8
OBJECT
  6
CONTINUOUS
  5
565
  0
DIMENSION
  8
DIMENTION
  6
CONTINUOUS
  5
566
  2
*D17
 10
500.0
 20
-650.99998343030256
 30
0.0
 11
500.0
 21
-400.99998343030256
 31
0.0
 13
643.95929395457006
 23
-150.99998343030256
 33
0.0
 14
643.95929395457006
 24
-650.99998343030256
 34
0.0
 50
90.0
  3
CAD
  0
DIMENSION
  8
DIMENTION
  6
CONTINUOUS
  5
567
  2
*D18
 10
1400.0
 20
-130.99998343030256
 30
0.0
 11
1400.0
 21
-565.49998343030256
 31
0.0
 13
1298.4592939545701
 23
-999.99998343030256
 33
0.0
 14
1144.9592939545701
 24
-130.99998343030256
 34
0.0
 50
90.0
  3
CAD
  0
DIMENSION
  8
DIMENTION
  6
CONTINUOUS
  5
568
  2
*D19
 10
1104.9592939545701
 20
-500.0
 30
0.0
 11
1190.0
 21
-499.0
 31
0.0
 70
             128
 13
1144.9592939545701
 23
-436.49998343030256
 33
0.0
 14
1104.9592939545701
 24
-435.96848343030251
 34
0.0
  3
CAD
  0
LINE
  8
DIMENTION
  6
CONTINUOUS
  5
569
 10
1640.0
 20
-0.0000000000000036
 30
0.0
 11
1300.0
 21
-0.0000000000000036
 31
0.0
  0
LINE
  8
DIMENTION
  6
CONTINUOUS
  5
56A
 10
1300.0
 20
-0.0000000000000036
 30
0.0
 11
1124.3503970330912
 21
-148.88736161234419
 31
0.0
  0
LINE
  8
DIMENTION
  6
CONTINUOUS
  5
56B
 10
1124.3503970330912
 20
-148.88736161234419
 30
0.0
 11
1137.4134201691388
 21
-130.23143115857181
 31
0.0
  0
LINE
  8
DIMENTION
  6
CONTINUOUS
  5
56C
 10
1124.3503970330912
 20
-148.88736161234419
 30
0.0
 11
1144.9912721460184
 21
-139.26236347616532
 31
0.0
  0
TEXT
  8
TEXT
  5
56D
 10
1300.0
 20
2.6666666666666679
 30
0.0
 40
29.104166666666664
  1
リフトベアリング4個
  7
________
 11
1300.0
 21
37.697499999999991
 31
0.0
 73
               3
  0
LINE
  8
DIMENTION
  6
CONTINUOUS
  5
56E
 10
1300.0
 20
-0.0000000000000036
 30
0.0
 11
1098.3795871592565
 21
-315.72905422278382
 31
0.0
  0
LINE
  8
DIMENTION
  6
CONTINUOUS
  5
56F
 10
1098.3795871592565
 20
-315.72905422278382
 30
0.0
 11
1105.4173521215557
 21
-294.06904085980688
 31
0.0
  0
LINE
  8
DIMENTION
  6
CONTINUOUS
  5
570
 10
1098.3795871592565
 20
-315.72905422278382
 30
0.0
 11
1115.3044770839601
 21
-300.489814885285
 31
0.0
  0
DIMENSION
  8
DIMENTION
  6
CONTINUOUS
  5
571
  2
*D20
 10
500.0
 20
-130.99998343030256
 30
0.0
 11
499.0
 21
-90.0
 31
0.0
 70
             128
 13
583.95929395457006
 23
-150.99998343030256
 33
0.0
 14
1104.9592939545701
 24
-130.99998343030256
 34
0.0
 50
90.0
  3
CAD
  0
LINE
  8
DIMENTION
  6
CONTINUOUS
  5
572
 10
499.95929410421104
 20
-899.99998343030256
 30
0.0
 11
651.45215302197721
 21
-937.87319815974433
 31
0.0
  0
LINE
  8
DIMENTION
  6
CONTINUOUS
  5
573
 10
651.45215302197721
 20
-937.87319815974433
 30
0.0
 11
628.67746719431091
 21
-937.87319815974433
 31
0.0
  0
LINE
  8
DIMENTION
  6
CONTINUOUS
  5
574
 10
651.45215302197721
 20
-937.87319815974433
 30
0.0
 11
631.72869653200883
 21
-926.48585524591124
 31
0.0
  0
TEXT
  8
TEXT
  5
575
 10
49.95929410421104
 20
-947.33333333333337
 30
0.0
 40
29.104166666666664
  1
2個ストッパー付
  7
________
 11
49.95929410421104
 21
-912.30250000000001
 31
0.0
 73
               3
  0
TEXT
  8
TEXT
  5
576
 10
49.95929410421104
 20
-897.33331676363593
 30
0.0
 40
29.104166666666664
  1
φ100 ウレタンキャスター
  7
________
 11
49.95929410421104
 21
-862.30248343030257
 31
0.0
 73
               3
  0
LINE
  8
DIMENTION
  5
577
 10
499.95929410421104
 20
-899.99998343030256
 30
0.0
 11
50.0
 21
-899.99998343030256
 31
0.0
  0
LINE
  8
DIMENTION
  5
578
 10
499.95929410421104
 20
-899.99998343030256
 30
0.0
 11
499.95929410421104
 21
-949.99998343030256
 31
0.0
  0
LINE
  8
DIMENTION
  5
579
 10
499.95929410421104
 20
-949.99998343030256
 30
0.0
 11
50.0
 21
-949.99998343030256
 31
0.0
  0
POINT
  8
DIMENTION
  6
CONTINUOUS
  5
57A
 10
699.95929395457006
 20
-949.99998343030256
 30
0.0
  0
ARC
  8
OBJECT
  5
57B
 10
1124.9592939545701
 20
-86.999983430302564
 30
0.0
 40
6.0
 50
0.0
 51
180.0
  0
LINE
  8
OBJECT
  5
57C
 10
1118.9592939545701
 20
-86.999983430302564
 30
0.0
 11
1118.9592939545701
 21
-130.99998343030256
 31
0.0
  0
LINE
  8
OBJECT
  5
57D
 10
1130.9592939545701
 20
-86.999983430302564
 30
0.0
 11
1130.9592939545701
 21
-130.99998343030256
 31
0.0
  0
LINE
  8
OBJECT
  5
57E
 10
867.95929395457006
 20
-335.99998343030256
 30
0.0
 11
867.95929395457006
 21
-342.99998343030256
 31
0.0
  0
LINE
  8
OBJECT
  5
57F
 10
867.95929395457006
 20
-342.99998343030256
 30
0.0
 11
967.95929395457006
 21
-342.99998343030256
 31
0.0
  0
LINE
  8
OBJECT
  5
580
 10
967.95929395457006
 20
-342.99998343030256
 30
0.0
 11
967.95929395457006
 21
-335.99998343030256
 31
0.0
  0
DIMENSION
  8
DIMENTION
  5
581
  2
*D21
 10
1500.0
 20
-80.999983430302564
 30
0.0
 11
1500.0
 21
-540.49998341201035
 31
0.0
 13
1300.0
 23
-999.99998339371814
 33
0.0
 14
1124.9592939545701
 24
-80.999983430302564
 34
0.0
 50
90.0
  3
CAD
  0
LINE
  8
DIMENTION
  5
582
 10
-480.0
 20
-500.0
 30
0.0
 11
-300.0
 21
-400.0
 31
0.0
  0
LINE
  8
DIMENTION
  5
583
 10
-480.0
 20
-500.0
 30
0.0
 11
-456.35528729105829
 21
-477.16656635343679
 31
0.0
  0
LINE
  8
DIMENTION
  5
584
 10
-480.0
 20
-500.0
 30
0.0
 11
-448.1063613055901
 21
-492.04802276092084
 31
0.0
  0
TEXT
  8
TEXT
  5
585
 10
-300.0
 20
-397.33333333333331
 30
0.0
 40
29.104166666666664
  1
胴体外板
  7
________
 11
-300.0
 21
-362.30250000000001
 31
0.0
 73
               3
  0
LINE
  8
DIMENTION
  5
586
 10
-300.0
 20
-400.0
 30
0.0
 11
-130.0
 21
-400.0
 31
0.0
  0
TEXT
  8
TEXT
  5
587
 10
-300.0
 20
-447.33333333333331
 30
0.0
 40
29.104166666666664
  1
SUS430
  7
________
 11
-300.0
 21
-412.30250000000001
 31
0.0
 73
               3
  0
POINT
  8
DIMENTION
  6
CONTINUOUS
  5
588
 10
1144.9592939545701
 20
-130.99998343030256
 30
0.0
  0
LINE
  8
DIMENTION
  5
589
 10
-1100.0
 20
509.0
 30
0.0
 11
-1200.0
 21
200.0
 31
0.0
  0
LINE
  8
DIMENTION
  5
58A
 10
-1100.0
 20
509.0
 30
0.0
 11
-1101.7202838618543
 21
476.17502849026312
 31
0.0
  0
LINE
  8
DIMENTION
  5
58B
 10
-1100.0
 20
509.0
 30
0.0
 11
-1117.9022952809548
 21
481.43288272499461
 31
0.0
  0
TEXT
  8
TEXT
  5
58C
 10
-1430.0
 20
202.66666666666669
 30
0.0
 40
29.104166666666664
  1
トレー受け台
  7
________
 11
-1430.0
 21
237.69749999999999
 31
0.0
 73
               3
  0
LINE
  8
DIMENTION
  5
58D
 10
-1430.0
 20
200.0
 30
0.0
 11
-1200.0
 21
200.0
 31
0.0
  0
TEXT
  8
TEXT
  5
58E
 10
-1430.0
 20
152.66666666666669
 30
0.0
 40
29.104166666666664
  1
SUS304
  7
________
 11
-1430.0
 21
187.69749999999999
 31
0.0
 73
               3
  0
TEXT
  8
TEXT
  5
58F
 10
-600.0
 20
102.66666666666667
 30
0.0
 40
29.104166666666664
  1
ハンドル
  7
________
 11
-600.0
 21
137.69749999999999
 31
0.0
 73
               3
  0
LINE
  8
DIMENTION
  5
590
 10
-600.0
 20
100.0
 30
0.0
 11
-450.0
 21
100.0
 31
0.0
  0
TEXT
  8
TEXT
  5
591
 10
-600.0
 20
52.666666666666671
 30
0.0
 40
29.104166666666664
  1
SUS304
  7
________
 11
-600.0
 21
87.697499999999991
 31
0.0
 73
               3
  0
LINE
  8
DIMENTION
  5
592
 10
-700.0
 20
-81.000000000000227
 30
0.0
 11
-600.0
 21
100.0
 31
0.0
  0
LINE
  8
DIMENTION
  5
593
 10
-700.0
 20
-81.000000000000227
 30
0.0
 11
-692.04802276092084
 21
-49.106361305590326
 31
0.0
  0
LINE
  8
DIMENTION
  5
594
 10
-700.0
 20
-81.000000000000227
 30
0.0
 11
-677.16656635343679
 21
-57.355287291058502
 31
0.0
  0
ARC
  8
OBJECT
  6
CONTINUOUS
  5
595
 10
-1209.0
 20
-107.00000000000023
 30
0.0
 40
14.0
 50
90.0
 51
180.0
  0
ARC
  8
OBJECT
  6
CONTINUOUS
  5
596
 10
-1011.0
 20
-107.00000000000023
 30
0.0
 40
14.0
 50
0.0
 51
90.0
  0
ARC
  8
OBJECT
  6
CONTINUOUS
  5
597
 10
-789.0
 20
-107.00000000000023
 30
0.0
 40
14.0
 50
90.0
 51
180.0
  0
ARC
  8
OBJECT
  6
CONTINUOUS
  5
598
 10
-591.0
 20
-107.00000000000023
 30
0.0
 40
14.0
 50
0.0
 51
90.0
  0
ARC
  8
OBJECT
  6
CONTINUOUS
  5
599
 10
-1209.0
 20
-107.00000000000023
 30
0.0
 40
26.0
 50
90.0
 51
180.0
  0
ARC
  8
OBJECT
  6
CONTINUOUS
  5
59A
 10
-789.0
 20
-107.00000000000023
 30
0.0
 40
26.0
 50
90.0
 51
180.0
  0
ARC
  8
OBJECT
  6
CONTINUOUS
  5
59B
 10
-591.0
 20
-107.00000000000023
 30
0.0
 40
26.0
 50
0.0
 51
90.0
  0
ARC
  8
OBJECT
  6
CONTINUOUS
  5
59C
 10
-1011.0
 20
-107.00000000000023
 30
0.0
 40
26.0
 50
0.0
 51
90.0
  0
ENDSEC
  0
EOF
