  0
SECTION
  2
HEADER
  9
$ACADVER
  1
AC1015
  9
$ACADMAINTVER
 70
    13
  9
$DWGCODEPAGE
  3
ANSI_932
  9
$INSBASE
 10
0.0
 20
0.0
 30
0.0
  9
$EXTMIN
 10
-2025.4
 20
-1389.0
 30
0.0
  9
$EXTMAX
 10
2024.599999999999
 20
1330.999999999999
 30
0.0
  9
$LIMMIN
 10
0.0
 20
0.0
  9
$LIMMAX
 10
0.0
 20
0.0
  9
$ORTHOMODE
 70
     0
  9
$REGENMODE
 70
     1
  9
$FILLMODE
 70
     1
  9
$QTEXTMODE
 70
     0
  9
$MIRRTEXT
 70
     1
  9
$LTSCALE
 40
254.0
  9
$ATTMODE
 70
     1
  9
$TEXTSIZE
 40
0.0
  9
$TRACEWID
 40
1.0
  9
$TEXTSTYLE
  7
STANDARD
  9
$CLAYER
  8
0
  9
$CELTYPE
  6
CONTINUOUS
  9
$CECOLOR
 62
   256
  9
$CELTSCALE
 40
1.0
  9
$DISPSILH
 70
     0
  9
$DIMSCALE
 40
1.0
  9
$DIMASZ
 40
31.75
  9
$DIMEXO
 40
9.999999999999998
  9
$DIMDLI
 40
7.999999999999998
  9
$DIMRND
 40
0.0
  9
$DIMDLE
 40
0.0
  9
$DIMEXE
 40
20.0
  9
$DIMTP
 40
0.0
  9
$DIMTM
 40
0.0
  9
$DIMTXT
 40
28.22222222222222
  9
$DIMCEN
 40
0.0
  9
$DIMTSZ
 40
0.0
  9
$DIMTOL
 70
     0
  9
$DIMLIM
 70
     0
  9
$DIMTIH
 70
     0
  9
$DIMTOH
 70
     0
  9
$DIMSE1
 70
     0
  9
$DIMSE2
 70
     0
  9
$DIMTAD
 70
     1
  9
$DIMZIN
 70
    11
  9
$DIMBLK
  1
VW_OPENARROW
  9
$DIMASO
 70
     1
  9
$DIMSHO
 70
     1
  9
$DIMPOST
  1
<>
  9
$DIMAPOST
  1
[]
  9
$DIMALT
 70
     0
  9
$DIMALTD
 70
     1
  9
$DIMALTF
 40
1.0
  9
$DIMLFAC
 40
1.0
  9
$DIMTOFL
 70
     1
  9
$DIMTVP
 40
0.0
  9
$DIMTIX
 70
     1
  9
$DIMSOXD
 70
     0
  9
$DIMSAH
 70
     0
  9
$DIMBLK1
  1

  9
$DIMBLK2
  1

  9
$DIMSTYLE
  2
CAD
  9
$DIMCLRD
 70
     0
  9
$DIMCLRE
 70
     0
  9
$DIMCLRT
 70
     0
  9
$DIMTFAC
 40
0.7
  9
$DIMGAP
 40
0.099999999627471
  9
$DIMJUST
 70
     0
  9
$DIMSD1
 70
     0
  9
$DIMSD2
 70
     0
  9
$DIMTOLJ
 70
     1
  9
$DIMTZIN
 70
     0
  9
$DIMALTZ
 70
     0
  9
$DIMALTTZ
 70
     0
  9
$DIMUPT
 70
     0
  9
$DIMDEC
 70
     4
  9
$DIMTDEC
 70
     4
  9
$DIMALTU
 70
     2
  9
$DIMALTTD
 70
     2
  9
$DIMTXSTY
  7
STANDARD
  9
$DIMAUNIT
 70
     0
  9
$DIMADEC
 70
     0
  9
$DIMALTRND
 40
0.0
  9
$DIMAZIN
 70
     0
  9
$DIMDSEP
 70
    46
  9
$DIMATFIT
 70
     3
  9
$DIMFRAC
 70
     0
  9
$DIMLDRBLK
  1
VW_OPENARROW
  9
$DIMLUNIT
 70
     2
  9
$DIMLWD
 70
    -2
  9
$DIMLWE
 70
    -2
  9
$DIMTMOVE
 70
     0
  9
$LUNITS
 70
     2
  9
$LUPREC
 70
     4
  9
$SKETCHINC
 40
0.1
  9
$FILLETRAD
 40
0.0
  9
$AUNITS
 70
     0
  9
$AUPREC
 70
     0
  9
$MENU
  1
acad
  9
$ELEVATION
 40
0.0
  9
$PELEVATION
 40
0.0
  9
$THICKNESS
 40
0.0
  9
$LIMCHECK
 70
     0
  9
$CHAMFERA
 40
0.0
  9
$CHAMFERB
 40
0.0
  9
$CHAMFERC
 40
0.0
  9
$CHAMFERD
 40
0.0
  9
$SKPOLY
 70
     0
  9
$TDCREATE
 40
2454285.586388889
  9
$TDUCREATE
 40
2454285.211388889
  9
$TDUPDATE
 40
2454285.684661273
  9
$TDUUPDATE
 40
2454285.309661273
  9
$TDINDWG
 40
0.0002412500
  9
$TDUSRTIMER
 40
0.0002412500
  9
$USRTIMER
 70
     1
  9
$ANGBASE
 50
0.0
  9
$ANGDIR
 70
     0
  9
$PDMODE
 70
     1
  9
$PDSIZE
 40
-2.0
  9
$PLINEWID
 40
0.0
  9
$SPLFRAME
 70
     0
  9
$SPLINETYPE
 70
     6
  9
$SPLINESEGS
 70
     8
  9
$HANDSEED
  5
D47
  9
$SURFTAB1
 70
     6
  9
$SURFTAB2
 70
     6
  9
$SURFTYPE
 70
     6
  9
$SURFU
 70
     6
  9
$SURFV
 70
     6
  9
$UCSBASE
  2

  9
$UCSNAME
  2

  9
$UCSORG
 10
0.0
 20
0.0
 30
0.0
  9
$UCSXDIR
 10
1.0
 20
0.0
 30
0.0
  9
$UCSYDIR
 10
0.0
 20
1.0
 30
0.0
  9
$UCSORTHOREF
  2

  9
$UCSORTHOVIEW
 70
     0
  9
$UCSORGTOP
 10
0.0
 20
0.0
 30
0.0
  9
$UCSORGBOTTOM
 10
0.0
 20
0.0
 30
0.0
  9
$UCSORGLEFT
 10
0.0
 20
0.0
 30
0.0
  9
$UCSORGRIGHT
 10
0.0
 20
0.0
 30
0.0
  9
$UCSORGFRONT
 10
0.0
 20
0.0
 30
0.0
  9
$UCSORGBACK
 10
0.0
 20
0.0
 30
0.0
  9
$PUCSBASE
  2

  9
$PUCSNAME
  2

  9
$PUCSORG
 10
0.0
 20
0.0
 30
0.0
  9
$PUCSXDIR
 10
1.0
 20
0.0
 30
0.0
  9
$PUCSYDIR
 10
0.0
 20
1.0
 30
0.0
  9
$PUCSORTHOREF
  2

  9
$PUCSORTHOVIEW
 70
     0
  9
$PUCSORGTOP
 10
0.0
 20
0.0
 30
0.0
  9
$PUCSORGBOTTOM
 10
0.0
 20
0.0
 30
0.0
  9
$PUCSORGLEFT
 10
0.0
 20
0.0
 30
0.0
  9
$PUCSORGRIGHT
 10
0.0
 20
0.0
 30
0.0
  9
$PUCSORGFRONT
 10
0.0
 20
0.0
 30
0.0
  9
$PUCSORGBACK
 10
0.0
 20
0.0
 30
0.0
  9
$USERI1
 70
     0
  9
$USERI2
 70
     0
  9
$USERI3
 70
     0
  9
$USERI4
 70
     0
  9
$USERI5
 70
     0
  9
$USERR1
 40
0.0
  9
$USERR2
 40
0.0
  9
$USERR3
 40
0.0
  9
$USERR4
 40
0.0
  9
$USERR5
 40
0.0
  9
$WORLDVIEW
 70
     1
  9
$SHADEDGE
 70
     3
  9
$SHADEDIF
 70
    70
  9
$TILEMODE
 70
     1
  9
$MAXACTVP
 70
    16
  9
$PINSBASE
 10
0.0
 20
0.0
 30
0.0
  9
$PLIMCHECK
 70
     0
  9
$PEXTMIN
 10
1.000000000000000E+20
 20
1.000000000000000E+20
 30
1.000000000000000E+20
  9
$PEXTMAX
 10
-1.000000000000000E+20
 20
-1.000000000000000E+20
 30
-1.000000000000000E+20
  9
$PLIMMIN
 10
0.0
 20
0.0
  9
$PLIMMAX
 10
12.0
 20
9.0
  9
$UNITMODE
 70
     0
  9
$VISRETAIN
 70
     0
  9
$PLINEGEN
 70
     1
  9
$PSLTSCALE
 70
     0
  9
$TREEDEPTH
 70
  3020
  9
$CMLSTYLE
  2
Standard
  9
$CMLJUST
 70
     0
  9
$CMLSCALE
 40
1.0
  9
$PROXYGRAPHICS
 70
     1
  9
$MEASUREMENT
 70
     0
  9
$CELWEIGHT
370
    -1
  9
$ENDCAPS
280
     0
  9
$JOINSTYLE
280
     0
  9
$LWDISPLAY
290
     0
  9
$INSUNITS
 70
     0
  9
$HYPERLINKBASE
  1

  9
$STYLESHEET
  1

  9
$XEDIT
290
     1
  9
$CEPSNTYPE
380
     0
  9
$PSTYLEMODE
290
     1
  9
$FINGERPRINTGUID
  2
{6BB4B991-39A9-46B1-8678-58922CE23E43}
  9
$VERSIONGUID
  2
{541939E1-1012-42FA-BB16-F307CC491258}
  9
$EXTNAMES
290
     1
  9
$PSVPSCALE
 40
0.0
  9
$OLESTARTUP
290
     0
  0
ENDSEC
  0
SECTION
  2
CLASSES
  0
CLASS
  1
ACDBDICTIONARYWDFLT
  2
AcDbDictionaryWithDefault
  3
AutoCAD 2000
 90
        0
280
     0
281
     0
  0
CLASS
  1
ACDBPLACEHOLDER
  2
AcDbPlaceHolder
  3
AutoCAD 2000
 90
        0
280
     0
281
     0
  0
CLASS
  1
LAYOUT
  2
AcDbLayout
  3
AutoCAD 2000
 90
        0
280
     0
281
     0
  0
CLASS
  1
DICTIONARYVAR
  2
AcDbDictionaryVar
  3
AutoCAD 2000
 90
        0
280
     0
281
     0
  0
ENDSEC
  0
SECTION
  2
TABLES
  0
TABLE
  2
VPORT
  5
6A2
330
0
100
AcDbSymbolTable
 70
     2
  0
VPORT
  5
D46
330
6A2
100
AcDbSymbolTableRecord
100
AcDbViewportTableRecord
  2
*Active
 70
     0
 10
0.0
 20
0.0
 11
1.0
 21
1.0
 12
-0.3999905703585682
 22
-28.99999366700649
 13
0.0
 23
0.0
 14
1.0
 24
1.0
 15
0.0
 25
0.0
 16
0.0
 26
0.0
 36
1.0
 17
0.0
 27
0.0
 37
0.0
 40
2741.927343750194
 41
1.662216288384512
 42
50.0
 43
0.0
 44
0.0
 50
0.0
 51
0.0
 71
     0
 72
   100
 73
     1
 74
     1
 75
     0
 76
     0
 77
     0
 78
     0
281
     0
 65
     1
110
0.0
120
0.0
130
0.0
111
1.0
121
0.0
131
0.0
112
0.0
122
1.0
132
0.0
 79
     0
146
0.0
  0
ENDTAB
  0
TABLE
  2
LTYPE
  5
69F
330
0
100
AcDbSymbolTable
 70
    19
  0
LTYPE
  5
6AD
330
69F
100
AcDbSymbolTableRecord
100
AcDbLinetypeTableRecord
  2
ByBlock
 70
     0
  3

 72
    65
 73
     0
 40
0.0
  0
LTYPE
  5
6AE
330
69F
100
AcDbSymbolTableRecord
100
AcDbLinetypeTableRecord
  2
ByLayer
 70
     0
  3

 72
    65
 73
     0
 40
0.0
  0
LTYPE
  5
6AF
330
69F
100
AcDbSymbolTableRecord
100
AcDbLinetypeTableRecord
  2
CONTINUOUS
 70
     0
  3
Solid line
 72
    65
 73
     0
 40
0.0
  0
LTYPE
  5
6BD
330
69F
100
AcDbSymbolTableRecord
100
AcDbLinetypeTableRecord
  2
STYLE_01
 70
     0
  3

 72
    65
 73
     2
 40
0.0375109361329834
 49
0.0236220472440945
 74
     0
 49
-0.0138888888888889
 74
     0
  0
LTYPE
  5
6BE
330
69F
100
AcDbSymbolTableRecord
100
AcDbLinetypeTableRecord
  2
STYLE_02
 70
     0
  3

 72
    65
 73
     6
 40
0.6527777777777778
 49
0.4027777777777778
 74
     0
 49
-0.0555555555555555
 74
     0
 49
0.0416666666666667
 74
     0
 49
-0.0555555555555556
 74
     0
 49
0.0416666666666666
 74
     0
 49
-0.0555555555555556
 74
     0
  0
LTYPE
  5
6BF
330
69F
100
AcDbSymbolTableRecord
100
AcDbLinetypeTableRecord
  2
STYLE_03
 70
     0
  3

 72
    65
 73
     4
 40
0.5277777777777778
 49
0.4027777777777778
 74
     0
 49
-0.0416666666666666
 74
     0
 49
0.0416666666666667
 74
     0
 49
-0.0416666666666667
 74
     0
  0
LTYPE
  5
6C0
330
69F
100
AcDbSymbolTableRecord
100
AcDbLinetypeTableRecord
  2
STYLE_04
 70
     0
  3

 72
    65
 73
     2
 40
0.1388888888888889
 49
0.0694444444444444
 74
     0
 49
-0.0694444444444444
 74
     0
  0
LTYPE
  5
6C1
330
69F
100
AcDbSymbolTableRecord
100
AcDbLinetypeTableRecord
  2
STYLE_05
 70
     0
  3

 72
    65
 73
     2
 40
0.047244094488189
 49
0.0236220472440945
 74
     0
 49
-0.0236220472440945
 74
     0
  0
LTYPE
  5
6C2
330
69F
100
AcDbSymbolTableRecord
100
AcDbLinetypeTableRecord
  2
STYLE_06
 70
     0
  3

 72
    65
 73
     2
 40
0.047244094488189
 49
0.0236220472440945
 74
     0
 49
-0.0236220472440945
 74
     0
  0
LTYPE
  5
6C3
330
69F
100
AcDbSymbolTableRecord
100
AcDbLinetypeTableRecord
  2
STYLE_07
 70
     0
  3

 72
    65
 73
     2
 40
0.047244094488189
 49
0.0236220472440945
 74
     0
 49
-0.0236220472440945
 74
     0
  0
LTYPE
  5
6C4
330
69F
100
AcDbSymbolTableRecord
100
AcDbLinetypeTableRecord
  2
STYLE_08
 70
     0
  3

 72
    65
 73
     2
 40
0.047244094488189
 49
0.0236220472440945
 74
     0
 49
-0.0236220472440945
 74
     0
  0
LTYPE
  5
6C5
330
69F
100
AcDbSymbolTableRecord
100
AcDbLinetypeTableRecord
  2
STYLE_09
 70
     0
  3

 72
    65
 73
     6
 40
1.515748031496062
 49
1.181102362204724
 74
     0
 49
-0.0590551181102361
 74
     0
 49
0.078740157480315
 74
     0
 49
-0.0590551181102361
 74
     0
 49
0.078740157480315
 74
     0
 49
-0.0590551181102361
 74
     0
  0
LTYPE
  5
6C6
330
69F
100
AcDbSymbolTableRecord
100
AcDbLinetypeTableRecord
  2
STYLE_10
 70
     0
  3

 72
    65
 73
     6
 40
1.1875
 49
0.75
 74
     0
 49
-0.0555572509765625
 74
     0
 49
0.138885498046875
 74
     0
 49
-0.0555572509765625
 74
     0
 49
0.125
 74
     0
 49
-0.0625
 74
     0
  0
LTYPE
  5
6C7
330
69F
100
AcDbSymbolTableRecord
100
AcDbLinetypeTableRecord
  2
STYLE_11
 70
     0
  3

 72
    65
 73
     4
 40
1.5
 49
0.0833282470703125
 74
     0
 49
-0.0555572509765625
 74
     0
 49
1.305557250976562
 74
     0
 49
-0.0555572509765625
 74
     0
  0
LTYPE
  5
6C8
330
69F
100
AcDbSymbolTableRecord
100
AcDbLinetypeTableRecord
  2
STYLE_12
 70
     0
  3

 72
    65
 73
     4
 40
1.111114501953125
 49
0.7916717529296875
 74
     0
 49
-0.0833282470703125
 74
     0
 49
0.125
 74
     0
 49
-0.111114501953125
 74
     0
  0
LTYPE
  5
6C9
330
69F
100
AcDbSymbolTableRecord
100
AcDbLinetypeTableRecord
  2
STYLE_13
 70
     0
  3

 72
    65
 73
     4
 40
2.194442749023437
 49
1.875
 74
     0
 49
-0.0833282470703125
 74
     0
 49
0.125
 74
     0
 49
-0.111114501953125
 74
     0
  0
LTYPE
  5
6CA
330
69F
100
AcDbSymbolTableRecord
100
AcDbLinetypeTableRecord
  2
STYLE_14
 70
     0
  3

 72
    65
 73
     2
 40
0.138885498046875
 49
0.0972137451171875
 74
     0
 49
-0.0416717529296875
 74
     0
  0
LTYPE
  5
6CB
330
69F
100
AcDbSymbolTableRecord
100
AcDbLinetypeTableRecord
  2
STYLE_15
 70
     0
  3

 72
    65
 73
     2
 40
0.25
 49
0.2083282470703125
 74
     0
 49
-0.0416717529296875
 74
     0
  0
LTYPE
  5
6CC
330
69F
100
AcDbSymbolTableRecord
100
AcDbLinetypeTableRecord
  2
STYLE_16
 70
     0
  3

 72
    65
 73
     2
 40
0.0833282470703125
 49
0.041656494140625
 74
     0
 49
-0.0416717529296875
 74
     0
  0
LTYPE
  5
6CD
330
69F
100
AcDbSymbolTableRecord
100
AcDbLinetypeTableRecord
  2
STYLE_17
 70
     0
  3

 72
    65
 73
     2
 40
0.041656494140625
 49
0.02777099609375
 74
     0
 49
-0.013885498046875
 74
     0
  0
LTYPE
  5
6CE
330
69F
100
AcDbSymbolTableRecord
100
AcDbLinetypeTableRecord
  2
STYLE_18
 70
     0
  3

 72
    65
 73
     4
 40
0.6111111111111112
 49
0.4027777777777778
 74
     0
 49
-0.0694444444444444
 74
     0
 49
0.0694444444444444
 74
     0
 49
-0.0694444444444445
 74
     0
  0
ENDTAB
  0
TABLE
  2
LAYER
  5
69C
330
0
100
AcDbSymbolTable
 70
     9
  0
LAYER
  5
6AA
330
69C
100
AcDbSymbolTableRecord
100
AcDbLayerTableRecord
  2
0
 70
     0
 62
     7
  6
CONTINUOUS
370
    -3
390
6A9
  0
LAYER
  5
6CF
330
69C
100
AcDbSymbolTableRecord
100
AcDbLayerTableRecord
  2
DEFPOINTS
 70
     0
 62
     7
  6
CONTINUOUS
290
     0
370
    -3
390
6A9
  0
LAYER
  5
6D0
330
69C
100
AcDbSymbolTableRecord
100
AcDbLayerTableRecord
  2
OBJECT
 70
     0
 62
     7
  6
CONTINUOUS
370
    -3
390
6A9
  0
LAYER
  5
6D1
330
69C
100
AcDbSymbolTableRecord
100
AcDbLayerTableRecord
  2
DIMENTION
 70
     0
 62
     7
  6
CONTINUOUS
370
    -3
390
6A9
  0
LAYER
  5
6D2
330
69C
100
AcDbSymbolTableRecord
100
AcDbLayerTableRecord
  2
CENTER
 70
     0
 62
     7
  6
STYLE_03
370
    -3
390
6A9
  0
LAYER
  5
6D3
330
69C
100
AcDbSymbolTableRecord
100
AcDbLayerTableRecord
  2
HIDDEN
 70
     0
 62
     7
  6
STYLE_04
370
    -3
390
6A9
  0
LAYER
  5
6D4
330
69C
100
AcDbSymbolTableRecord
100
AcDbLayerTableRecord
  2
FRAME
 70
     0
 62
     7
  6
CONTINUOUS
370
    -3
390
6A9
  0
LAYER
  5
6D5
330
69C
100
AcDbSymbolTableRecord
100
AcDbLayerTableRecord
  2
OUTLINE
 70
     0
 62
     7
  6
STYLE_02
370
    -3
390
6A9
  0
LAYER
  5
6D6
330
69C
100
AcDbSymbolTableRecord
100
AcDbLayerTableRecord
  2
TEXT
 70
     0
 62
     7
  6
CONTINUOUS
370
    -3
390
6A9
  0
ENDTAB
  0
TABLE
  2
STYLE
  5
69D
330
0
100
AcDbSymbolTable
 70
     2
  0
STYLE
  5
6AB
330
69D
100
AcDbSymbolTableRecord
100
AcDbTextStyleTableRecord
  2
STANDARD
 70
     0
 40
0.0
 41
1.0
 50
0.0
 71
     0
 42
0.0
  3
txt
  4
BIGFONT.SHX
  0
STYLE
  5
6D7
330
69D
100
AcDbSymbolTableRecord
100
AcDbTextStyleTableRecord
  2
________
 70
     0
 40
0.0
 41
1.0
 50
0.0
 71
     0
 42
0.0
  3
ＭＳ Ｐゴシック
  4

  0
ENDTAB
  0
TABLE
  2
VIEW
  5
6A0
330
0
100
AcDbSymbolTable
 70
     0
  0
ENDTAB
  0
TABLE
  2
UCS
  5
6A1
330
0
100
AcDbSymbolTable
 70
     0
  0
ENDTAB
  0
TABLE
  2
APPID
  5
6A3
330
0
100
AcDbSymbolTable
 70
     1
  0
APPID
  5
6AC
330
6A3
100
AcDbSymbolTableRecord
100
AcDbRegAppTableRecord
  2
ACAD
 70
     0
  0
ENDTAB
  0
TABLE
  2
DIMSTYLE
  5
6A4
330
0
100
AcDbSymbolTable
 70
     2
100
AcDbDimStyleTable
 71
     0
  0
DIMSTYLE
105
6D8
330
6A4
100
AcDbSymbolTableRecord
100
AcDbDimStyleTableRecord
  2
STANDARD
 70
     0
274
     1
279
     2
284
    11
285
    11
286
    11
340
6AB
  0
DIMSTYLE
105
6D9
102
{ACAD_REACTORS
330
A6A
330
A6B
330
A70
330
A9F
330
AA0
330
AFC
330
AFD
330
CBD
330
CBE
330
CBF
330
CC0
330
CD9
330
CDA
330
CDF
330
D0B
330
D39
102
}
330
6A4
100
AcDbSymbolTableRecord
100
AcDbDimStyleTableRecord
  2
CAD
 70
     0
  3
<>
  4
[]
 41
31.75
 42
9.999999999999998
 43
7.999999999999998
 44
20.0
 73
     0
 74
     0
 77
     1
 78
    11
140
28.22222222222222
141
0.0
143
1.0
146
0.7
147
0.099999999627471
171
     1
172
     1
174
     1
274
     1
279
     2
284
    11
285
    11
286
    11
340
6AB
  0
ENDTAB
  0
TABLE
  2
BLOCK_RECORD
  5
69B
330
0
100
AcDbSymbolTable
 70
    25
  0
BLOCK_RECORD
  5
6B8
330
69B
100
AcDbSymbolTableRecord
100
AcDbBlockTableRecord
  2
*Model_Space
340
6BB
  0
BLOCK_RECORD
  5
6B4
330
69B
100
AcDbSymbolTableRecord
100
AcDbBlockTableRecord
  2
*Paper_Space
340
6B7
  0
BLOCK_RECORD
  5
6DD
330
69B
100
AcDbSymbolTableRecord
100
AcDbBlockTableRecord
  2
VW_OPENARROW
340
0
  0
BLOCK_RECORD
  5
6E3
330
69B
100
AcDbSymbolTableRecord
100
AcDbBlockTableRecord
  2
*D1
340
0
  0
BLOCK_RECORD
  5
6F1
330
69B
100
AcDbSymbolTableRecord
100
AcDbBlockTableRecord
  2
*D2
340
0
  0
BLOCK_RECORD
  5
6FF
330
69B
100
AcDbSymbolTableRecord
100
AcDbBlockTableRecord
  2
*D3
340
0
  0
BLOCK_RECORD
  5
70F
330
69B
100
AcDbSymbolTableRecord
100
AcDbBlockTableRecord
  2
*D4
340
0
  0
BLOCK_RECORD
  5
71F
330
69B
100
AcDbSymbolTableRecord
100
AcDbBlockTableRecord
  2
*D5
340
0
  0
BLOCK_RECORD
  5
72D
330
69B
100
AcDbSymbolTableRecord
100
AcDbBlockTableRecord
  2
*U6
340
0
102
{BLKREFS
331
AA1
102
}
  0
BLOCK_RECORD
  5
7BE
330
69B
100
AcDbSymbolTableRecord
100
AcDbBlockTableRecord
  2
*D7
340
0
  0
BLOCK_RECORD
  5
7CE
330
69B
100
AcDbSymbolTableRecord
100
AcDbBlockTableRecord
  2
*D8
340
0
  0
BLOCK_RECORD
  5
7DC
330
69B
100
AcDbSymbolTableRecord
100
AcDbBlockTableRecord
  2
*U9
340
0
102
{BLKREFS
331
B29
102
}
  0
BLOCK_RECORD
  5
7E1
330
69B
100
AcDbSymbolTableRecord
100
AcDbBlockTableRecord
  2
*U10
340
0
102
{BLKREFS
331
B2A
102
}
  0
BLOCK_RECORD
  5
7E6
330
69B
100
AcDbSymbolTableRecord
100
AcDbBlockTableRecord
  2
*U11
340
0
102
{BLKREFS
331
C59
102
}
  0
BLOCK_RECORD
  5
7F5
330
69B
100
AcDbSymbolTableRecord
100
AcDbBlockTableRecord
  2
*U12
340
0
102
{BLKREFS
331
C72
102
}
  0
BLOCK_RECORD
  5
7FC
330
69B
100
AcDbSymbolTableRecord
100
AcDbBlockTableRecord
  2
*D13
340
0
  0
BLOCK_RECORD
  5
80A
330
69B
100
AcDbSymbolTableRecord
100
AcDbBlockTableRecord
  2
*D14
340
0
  0
BLOCK_RECORD
  5
818
330
69B
100
AcDbSymbolTableRecord
100
AcDbBlockTableRecord
  2
*D15
340
0
  0
BLOCK_RECORD
  5
826
330
69B
100
AcDbSymbolTableRecord
100
AcDbBlockTableRecord
  2
*D16
340
0
  0
BLOCK_RECORD
  5
834
330
69B
100
AcDbSymbolTableRecord
100
AcDbBlockTableRecord
  2
*U17
340
0
102
{BLKREFS
331
CC1
102
}
  0
BLOCK_RECORD
  5
8C5
330
69B
100
AcDbSymbolTableRecord
100
AcDbBlockTableRecord
  2
*U18
340
0
102
{BLKREFS
331
CC2
102
}
  0
BLOCK_RECORD
  5
956
330
69B
100
AcDbSymbolTableRecord
100
AcDbBlockTableRecord
  2
*U19
340
0
102
{BLKREFS
331
CC3
102
}
  0
BLOCK_RECORD
  5
9E7
330
69B
100
AcDbSymbolTableRecord
100
AcDbBlockTableRecord
  2
*D20
340
0
  0
BLOCK_RECORD
  5
9F5
330
69B
100
AcDbSymbolTableRecord
100
AcDbBlockTableRecord
  2
*D21
340
0
  0
BLOCK_RECORD
  5
A03
330
69B
100
AcDbSymbolTableRecord
100
AcDbBlockTableRecord
  2
*D22
340
0
  0
BLOCK_RECORD
  5
A13
330
69B
100
AcDbSymbolTableRecord
100
AcDbBlockTableRecord
  2
*D23
340
0
  0
BLOCK_RECORD
  5
A21
330
69B
100
AcDbSymbolTableRecord
100
AcDbBlockTableRecord
  2
*D24
340
0
  0
ENDTAB
  0
ENDSEC
  0
SECTION
  2
BLOCKS
  0
BLOCK
  5
6B9
330
6B8
100
AcDbEntity
  8
0
100
AcDbBlockBegin
  2
*Model_Space
 70
     0
 10
0.0
 20
0.0
 30
0.0
  3
*Model_Space
  1

  0
ENDBLK
  5
6BA
330
6B8
100
AcDbEntity
  8
0
100
AcDbBlockEnd
  0
BLOCK
  5
6B5
330
6B4
100
AcDbEntity
 67
     1
  8
0
100
AcDbBlockBegin
  2
*Paper_Space
 70
     0
 10
0.0
 20
0.0
 30
0.0
  3
*Paper_Space
  1

  0
ENDBLK
  5
6B6
330
6B4
100
AcDbEntity
 67
     1
  8
0
100
AcDbBlockEnd
  0
BLOCK
  5
6DE
330
6DD
100
AcDbEntity
  8
0
  6
ByBlock
 62
     0
100
AcDbBlockBegin
  2
VW_OPENARROW
 70
     0
 10
0.0
 20
0.0
 30
0.0
  3
VW_OPENARROW
  1

  0
LINE
  5
6DF
330
6DD
100
AcDbEntity
  8
0
  6
ByBlock
 62
     0
100
AcDbLine
 10
0.0
 20
0.0
 30
0.0
 11
-1.0
 21
0.0
 31
0.0
  0
LINE
  5
6E0
330
6DD
100
AcDbEntity
  8
0
  6
ByBlock
 62
     0
100
AcDbLine
 10
0.0
 20
0.0
 30
0.0
 11
-0.9921875
 21
-0.2658558393652544
 31
0.0
  0
LINE
  5
6E1
330
6DD
100
AcDbEntity
  8
0
  6
ByBlock
 62
     0
100
AcDbLine
 10
0.0
 20
0.0
 30
0.0
 11
-0.9921875
 21
0.2658558393652548
 31
0.0
  0
ENDBLK
  5
6E2
330
6DD
100
AcDbEntity
  8
0
100
AcDbBlockEnd
  0
BLOCK
  5
6E4
330
6E3
100
AcDbEntity
  8
DIMENTION
100
AcDbBlockBegin
  2
*D1
 70
     1
 10
0.0
 20
0.0
 30
0.0
  3
*D1
  1

  0
LINE
  5
6E5
330
6E3
100
AcDbEntity
  8
DIMENTION
  6
Continuous
 62
     0
100
AcDbLine
 10
702.5
 20
-275.4644660940676
 30
0.0
 11
702.5
 21
-420.0
 31
0.0
  0
LINE
  5
6E6
330
6E3
100
AcDbEntity
  8
DIMENTION
  6
Continuous
 62
     0
100
AcDbLine
 10
974.5
 20
-275.4644660940676
 30
0.0
 11
974.5
 21
-420.0
 31
0.0
  0
LINE
  5
6E7
330
6E3
100
AcDbEntity
  8
DIMENTION
  6
Continuous
 62
     0
100
AcDbLine
 10
702.5
 20
-400.0
 30
0.0
 11
974.5
 21
-400.0
 31
0.0
  0
LINE
  5
6E8
330
6E3
100
AcDbEntity
  8
DIMENTION
  6
Continuous
 62
     0
100
AcDbLine
 10
702.5
 20
-400.0
 30
0.0
 11
734.25
 21
-391.4926131403119
 31
0.0
  0
LINE
  5
6E9
330
6E3
100
AcDbEntity
  8
DIMENTION
  6
Continuous
 62
     0
100
AcDbLine
 10
702.5
 20
-400.0
 30
0.0
 11
734.25
 21
-408.5073868596881
 31
0.0
  0
LINE
  5
6EA
330
6E3
100
AcDbEntity
  8
DIMENTION
  6
Continuous
 62
     0
100
AcDbLine
 10
974.5
 20
-400.0
 30
0.0
 11
942.75
 21
-408.5073868596881
 31
0.0
  0
LINE
  5
6EB
330
6E3
100
AcDbEntity
  8
DIMENTION
  6
Continuous
 62
     0
100
AcDbLine
 10
974.5
 20
-400.0
 30
0.0
 11
942.75
 21
-391.4926131403119
 31
0.0
  0
TEXT
  5
6EC
330
6E3
100
AcDbEntity
  8
DIMENTION
 62
     0
100
AcDbText
 10
766.1805555555555
 20
-392.4444444463071
 30
0.0
 40
28.22222222222222
  1
272(内寸)
  7
________
 11
766.1805555555555
 21
-364.2222222240848
 31
0.0
100
AcDbText
 73
     3
  0
POINT
  5
6ED
330
6E3
100
AcDbEntity
  8
DEFPOINTS
 62
     0
100
AcDbPoint
 10
974.5
 20
-265.4644660940676
 30
0.0
  0
POINT
  5
6EE
330
6E3
100
AcDbEntity
  8
DEFPOINTS
 62
     0
100
AcDbPoint
 10
702.5
 20
-265.4644660940676
 30
0.0
  0
POINT
  5
6EF
330
6E3
100
AcDbEntity
  8
DEFPOINTS
 62
     0
100
AcDbPoint
 10
702.5
 20
-400.0
 30
0.0
  0
ENDBLK
  5
6F0
330
6E3
100
AcDbEntity
  8
DIMENTION
100
AcDbBlockEnd
  0
BLOCK
  5
6F2
330
6F1
100
AcDbEntity
  8
DIMENTION
100
AcDbBlockBegin
  2
*D2
 70
     1
 10
0.0
 20
0.0
 30
0.0
  3
*D2
  1

  0
LINE
  5
6F3
330
6F1
100
AcDbEntity
  8
DIMENTION
  6
Continuous
 62
     0
100
AcDbLine
 10
696.0355339059331
 20
-31.0
 30
0.0
 11
580.0
 21
-31.0
 31
0.0
  0
LINE
  5
6F4
330
6F1
100
AcDbEntity
  8
DIMENTION
  6
Continuous
 62
     0
100
AcDbLine
 10
696.0355339059331
 20
-269.0
 30
0.0
 11
580.0
 21
-269.0
 31
0.0
  0
LINE
  5
6F5
330
6F1
100
AcDbEntity
  8
DIMENTION
  6
Continuous
 62
     0
100
AcDbLine
 10
600.0
 20
-31.0
 30
0.0
 11
600.0
 21
-269.0
 31
0.0
  0
LINE
  5
6F6
330
6F1
100
AcDbEntity
  8
DIMENTION
  6
Continuous
 62
     0
100
AcDbLine
 10
600.0
 20
-31.0
 30
0.0
 11
608.5073868596881
 21
-62.75
 31
0.0
  0
LINE
  5
6F7
330
6F1
100
AcDbEntity
  8
DIMENTION
  6
Continuous
 62
     0
100
AcDbLine
 10
600.0
 20
-31.0
 30
0.0
 11
591.4926131403118
 21
-62.75
 31
0.0
  0
LINE
  5
6F8
330
6F1
100
AcDbEntity
  8
DIMENTION
  6
Continuous
 62
     0
100
AcDbLine
 10
600.0
 20
-269.0
 30
0.0
 11
591.4926131403118
 21
-237.25
 31
0.0
  0
LINE
  5
6F9
330
6F1
100
AcDbEntity
  8
DIMENTION
  6
Continuous
 62
     0
100
AcDbLine
 10
600.0
 20
-269.0
 30
0.0
 11
608.5073868596881
 21
-237.25
 31
0.0
  0
TEXT
  5
6FA
330
6F1
100
AcDbEntity
  8
DIMENTION
 62
     0
100
AcDbText
 10
592.444444446307
 20
-222.3194444444444
 30
0.0
 40
28.22222222222222
  1
238(内寸)
 50
90.0
  7
________
 11
564.2222222240848
 21
-222.3194444444444
 31
0.0
100
AcDbText
 73
     3
  0
POINT
  5
6FB
330
6F1
100
AcDbEntity
  8
DEFPOINTS
 62
     0
100
AcDbPoint
 10
706.0355339059331
 20
-269.0
 30
0.0
  0
POINT
  5
6FC
330
6F1
100
AcDbEntity
  8
DEFPOINTS
 62
     0
100
AcDbPoint
 10
706.0355339059331
 20
-31.0
 30
0.0
  0
POINT
  5
6FD
330
6F1
100
AcDbEntity
  8
DEFPOINTS
 62
     0
100
AcDbPoint
 10
600.0
 20
-31.0
 30
0.0
  0
ENDBLK
  5
6FE
330
6F1
100
AcDbEntity
  8
DIMENTION
100
AcDbBlockEnd
  0
BLOCK
  5
700
330
6FF
100
AcDbEntity
  8
DIMENTION
100
AcDbBlockBegin
  2
*D3
 70
     1
 10
0.0
 20
0.0
 30
0.0
  3
*D3
  1

  0
LINE
  5
701
330
6FF
100
AcDbEntity
  8
DIMENTION
  6
Continuous
 62
     0
100
AcDbLine
 10
1100.0
 20
-16.00000000000011
 30
0.0
 11
1100.0
 21
120.0
 31
0.0
  0
LINE
  5
702
330
6FF
100
AcDbEntity
  8
DIMENTION
  6
Continuous
 62
     0
100
AcDbLine
 10
1110.0
 20
53.25
 30
0.0
 11
1110.0
 21
120.0
 31
0.0
  0
LINE
  5
703
330
6FF
100
AcDbEntity
  8
DIMENTION
  6
Continuous
 62
     0
100
AcDbLine
 10
1110.0
 20
100.0
 30
0.0
 11
1100.0
 21
100.0
 31
0.0
  0
LINE
  5
704
330
6FF
100
AcDbEntity
  8
DIMENTION
  6
Continuous
 62
     0
100
AcDbLine
 10
1100.0
 20
100.0
 30
0.0
 11
956.6666666666664
 21
100.0
 31
0.0
  0
LINE
  5
705
330
6FF
100
AcDbEntity
  8
DIMENTION
  6
Continuous
 62
     0
100
AcDbLine
 10
1100.0
 20
100.0
 30
0.0
 11
1068.25
 21
91.49261314031184
 31
0.0
  0
LINE
  5
706
330
6FF
100
AcDbEntity
  8
DIMENTION
  6
Continuous
 62
     0
100
AcDbLine
 10
1100.0
 20
100.0
 30
0.0
 11
1068.25
 21
108.5073868596881
 31
0.0
  0
LINE
  5
707
330
6FF
100
AcDbEntity
  8
DIMENTION
  6
Continuous
 62
     0
100
AcDbLine
 10
1110.0
 20
100.0
 30
0.0
 11
1170.0
 21
100.0
 31
0.0
  0
LINE
  5
708
330
6FF
100
AcDbEntity
  8
DIMENTION
  6
Continuous
 62
     0
100
AcDbLine
 10
1110.0
 20
100.0
 30
0.0
 11
1141.75
 21
108.5073868596881
 31
0.0
  0
LINE
  5
709
330
6FF
100
AcDbEntity
  8
DIMENTION
  6
Continuous
 62
     0
100
AcDbLine
 10
1110.0
 20
100.0
 30
0.0
 11
1141.75
 21
91.49261314031184
 31
0.0
  0
TEXT
  5
70A
330
6FF
100
AcDbEntity
  8
DIMENTION
 62
     0
100
AcDbText
 10
956.6666666666668
 20
107.5555555536928
 30
0.0
 40
28.22222222222222
  1
※5～6
  7
________
 11
956.6666666666668
 21
135.7777777759151
 31
0.0
100
AcDbText
 73
     3
  0
POINT
  5
70B
330
6FF
100
AcDbEntity
  8
DEFPOINTS
 62
     0
100
AcDbPoint
 10
1110.0
 20
43.25
 30
0.0
  0
POINT
  5
70C
330
6FF
100
AcDbEntity
  8
DEFPOINTS
 62
     0
100
AcDbPoint
 10
1100.0
 20
-26.00000000000012
 30
0.0
  0
POINT
  5
70D
330
6FF
100
AcDbEntity
  8
DEFPOINTS
 62
     0
100
AcDbPoint
 10
1100.0
 20
100.0
 30
0.0
  0
ENDBLK
  5
70E
330
6FF
100
AcDbEntity
  8
DIMENTION
100
AcDbBlockEnd
  0
BLOCK
  5
710
330
70F
100
AcDbEntity
  8
DIMENTION
100
AcDbBlockBegin
  2
*D4
 70
     1
 10
0.0
 20
0.0
 30
0.0
  3
*D4
  1

  0
LINE
  5
711
330
70F
100
AcDbEntity
  8
DIMENTION
  6
Continuous
 62
     0
100
AcDbLine
 10
-115.0
 20
-120.0
 30
0.0
 11
-220.0
 21
-120.0
 31
0.0
  0
LINE
  5
712
330
70F
100
AcDbEntity
  8
DIMENTION
  6
Continuous
 62
     0
100
AcDbLine
 10
-115.0
 20
-128.0
 30
0.0
 11
-220.0
 21
-128.0
 31
0.0
  0
LINE
  5
713
330
70F
100
AcDbEntity
  8
DIMENTION
  6
Continuous
 62
     0
100
AcDbLine
 10
-200.0
 20
-128.0
 30
0.0
 11
-200.0
 21
-120.0
 31
0.0
  0
LINE
  5
714
330
70F
100
AcDbEntity
  8
DIMENTION
  6
Continuous
 62
     0
100
AcDbLine
 10
-200.0
 20
-120.0
 30
0.0
 11
-200.0
 21
-62.36111111111111
 31
0.0
  0
LINE
  5
715
330
70F
100
AcDbEntity
  8
DIMENTION
  6
Continuous
 62
     0
100
AcDbLine
 10
-200.0
 20
-120.0
 30
0.0
 11
-208.5073868596881
 21
-88.25000000000001
 31
0.0
  0
LINE
  5
716
330
70F
100
AcDbEntity
  8
DIMENTION
  6
Continuous
 62
     0
100
AcDbLine
 10
-200.0
 20
-120.0
 30
0.0
 11
-191.4926131403118
 21
-88.25000000000001
 31
0.0
  0
LINE
  5
717
330
70F
100
AcDbEntity
  8
DIMENTION
  6
Continuous
 62
     0
100
AcDbLine
 10
-200.0
 20
-128.0
 30
0.0
 11
-200.0
 21
-188.0
 31
0.0
  0
LINE
  5
718
330
70F
100
AcDbEntity
  8
DIMENTION
  6
Continuous
 62
     0
100
AcDbLine
 10
-200.0
 20
-128.0
 30
0.0
 11
-191.4926131403118
 21
-159.75
 31
0.0
  0
LINE
  5
719
330
70F
100
AcDbEntity
  8
DIMENTION
  6
Continuous
 62
     0
100
AcDbLine
 10
-200.0
 20
-128.0
 30
0.0
 11
-208.5073868596881
 21
-159.75
 31
0.0
  0
TEXT
  5
71A
330
70F
100
AcDbEntity
  8
DIMENTION
 62
     0
100
AcDbText
 10
-208.0555555555555
 20
-80.0
 30
0.0
 40
28.22222222222222
  1
8
 50
90.0
  7
________
 11
-236.2777777777777
 21
-80.0
 31
0.0
100
AcDbText
 73
     3
  0
POINT
  5
71B
330
70F
100
AcDbEntity
  8
DEFPOINTS
 62
     0
100
AcDbPoint
 10
-105.0
 20
-128.0
 30
0.0
  0
POINT
  5
71C
330
70F
100
AcDbEntity
  8
DEFPOINTS
 62
     0
100
AcDbPoint
 10
-105.0
 20
-120.0
 30
0.0
  0
POINT
  5
71D
330
70F
100
AcDbEntity
  8
DEFPOINTS
 62
     0
100
AcDbPoint
 10
-200.0
 20
-120.0
 30
0.0
  0
ENDBLK
  5
71E
330
70F
100
AcDbEntity
  8
DIMENTION
100
AcDbBlockEnd
  0
BLOCK
  5
720
330
71F
100
AcDbEntity
  8
DIMENTION
100
AcDbBlockBegin
  2
*D5
 70
     1
 10
0.0
 20
0.0
 30
0.0
  3
*D5
  1

  0
LINE
  5
721
330
71F
100
AcDbEntity
  8
DIMENTION
  6
Continuous
 62
     0
100
AcDbLine
 10
-101.0
 20
-800.0
 30
0.0
 11
-320.0
 21
-800.0
 31
0.0
  0
LINE
  5
722
330
71F
100
AcDbEntity
  8
DIMENTION
  6
Continuous
 62
     0
100
AcDbLine
 10
-115.0
 20
-120.0
 30
0.0
 11
-320.0
 21
-120.0
 31
0.0
  0
LINE
  5
723
330
71F
100
AcDbEntity
  8
DIMENTION
  6
Continuous
 62
     0
100
AcDbLine
 10
-300.0
 20
-800.0
 30
0.0
 11
-300.0
 21
-120.0
 31
0.0
  0
LINE
  5
724
330
71F
100
AcDbEntity
  8
DIMENTION
  6
Continuous
 62
     0
100
AcDbLine
 10
-300.0
 20
-800.0
 30
0.0
 11
-308.5073868596881
 21
-768.25
 31
0.0
  0
LINE
  5
725
330
71F
100
AcDbEntity
  8
DIMENTION
  6
Continuous
 62
     0
100
AcDbLine
 10
-300.0
 20
-800.0
 30
0.0
 11
-291.4926131403118
 21
-768.25
 31
0.0
  0
LINE
  5
726
330
71F
100
AcDbEntity
  8
DIMENTION
  6
Continuous
 62
     0
100
AcDbLine
 10
-300.0
 20
-120.0
 30
0.0
 11
-291.4926131403118
 21
-151.75
 31
0.0
  0
LINE
  5
727
330
71F
100
AcDbEntity
  8
DIMENTION
  6
Continuous
 62
     0
100
AcDbLine
 10
-300.0
 20
-120.0
 30
0.0
 11
-308.5073868596881
 21
-151.75
 31
0.0
  0
TEXT
  5
728
330
71F
100
AcDbEntity
  8
DIMENTION
 62
     0
100
AcDbText
 10
-308.0555555555555
 20
-486.4583333333333
 30
0.0
 40
28.22222222222222
  1
680
 50
90.0
  7
________
 11
-336.2777777777777
 21
-486.4583333333333
 31
0.0
100
AcDbText
 73
     3
  0
POINT
  5
729
330
71F
100
AcDbEntity
  8
DEFPOINTS
 62
     0
100
AcDbPoint
 10
-105.0
 20
-120.0
 30
0.0
  0
POINT
  5
72A
330
71F
100
AcDbEntity
  8
DEFPOINTS
 62
     0
100
AcDbPoint
 10
-91.0
 20
-800.0
 30
0.0
  0
POINT
  5
72B
330
71F
100
AcDbEntity
  8
DEFPOINTS
 62
     0
100
AcDbPoint
 10
-300.0
 20
-800.0
 30
0.0
  0
ENDBLK
  5
72C
330
71F
100
AcDbEntity
  8
DIMENTION
100
AcDbBlockEnd
  0
BLOCK
  5
72E
330
72D
100
AcDbEntity
  8
OBJECT
100
AcDbBlockBegin
  2
*U6
 70
     1
 10
0.0
 20
0.0
 30
0.0
  3
*U6
  1

  0
LINE
  5
72F
330
72D
100
AcDbEntity
  8
OBJECT
  6
Continuous
 62
     0
100
AcDbLine
 10
52.5
 20
-148.5
 30
0.0
 11
52.5
 21
-162.4999999999998
 31
0.0
  0
LINE
  5
730
330
72D
100
AcDbEntity
  8
OBJECT
  6
Continuous
 62
     0
100
AcDbLine
 10
49.5
 20
-148.5
 30
0.0
 11
49.5
 21
-160.9999999999998
 31
0.0
  0
LINE
  5
731
330
72D
100
AcDbEntity
  8
OBJECT
  6
Continuous
 62
     0
100
AcDbLine
 10
51.87373655343333
 20
-163.7192556890134
 30
0.0
 11
58.50450459549711
 21
-166.0873871326077
 31
0.0
  0
LINE
  5
732
330
72D
100
AcDbEntity
  8
OBJECT
  6
Continuous
 62
     0
100
AcDbLine
 10
43.49549540450289
 20
-163.9126128673923
 30
0.0
 11
53.54017937580443
 21
-167.5
 31
0.0
  0
LINE
  5
733
330
72D
100
AcDbEntity
  8
OBJECT
  6
Continuous
 62
     0
100
AcDbLine
 10
53.54017937580443
 20
-167.5
 30
0.0
 11
43.49549540450289
 21
-171.0873871326077
 31
0.0
  0
LINE
  5
734
330
72D
100
AcDbEntity
  8
OBJECT
  6
Continuous
 62
     0
100
AcDbLine
 10
58.50450459549711
 20
-168.9126128673923
 30
0.0
 11
48.45982062419556
 21
-172.5
 31
0.0
  0
LINE
  5
735
330
72D
100
AcDbEntity
  8
OBJECT
  6
Continuous
 62
     0
100
AcDbLine
 10
51.0
 20
-160.9999999999998
 30
0.0
 11
44.00000000000011
 21
-161.0
 31
0.0
  0
LINE
  5
736
330
72D
100
AcDbEntity
  8
OBJECT
  6
Continuous
 62
     0
100
AcDbLine
 10
51.0
 20
-163.9999999999998
 30
0.0
 11
44.00000000000022
 21
-164.0
 31
0.0
  0
ARC
  5
737
330
72D
100
AcDbEntity
  8
OBJECT
  6
Continuous
 62
     0
100
AcDbCircle
 10
44.00000000000011
 20
-162.5
 30
0.0
 40
1.5
100
AcDbArc
 50
90.0
 51
270.0000457924575
  0
ARC
  5
738
330
72D
100
AcDbEntity
  8
OBJECT
  6
Continuous
 62
     0
100
AcDbCircle
 10
57.9999999999999
 20
-167.5
 30
0.0
 40
1.500000000000075
100
AcDbArc
 50
289.6538240580517
 51
70.34617594194668
  0
ARC
  5
739
330
72D
100
AcDbEntity
  8
OBJECT
  6
Continuous
 62
     0
100
AcDbCircle
 10
44.00000000000011
 20
-172.5
 30
0.0
 40
1.499999999999899
100
AcDbArc
 50
70.34613305739289
 51
70.34613391116739
  0
ARC
  5
73A
330
72D
100
AcDbEntity
  8
OBJECT
  6
Continuous
 62
     0
100
AcDbCircle
 10
44.00000000000011
 20
-172.5
 30
0.0
 40
1.499999999999968
100
AcDbArc
 50
109.6538240580533
 51
250.3462190666239
  0
LINE
  5
73B
330
72D
100
AcDbEntity
  8
OBJECT
  6
Continuous
 62
     0
100
AcDbLine
 10
44.50450459549733
 20
-171.0873871326077
 30
0.0
 11
44.50450609912866
 21
-171.0873876696189
 31
0.0
  0
LINE
  5
73C
330
72D
100
AcDbEntity
  8
OBJECT
  6
Continuous
 62
     0
100
AcDbLine
 10
48.45982062419556
 20
-172.5
 30
0.0
 11
58.50450459549711
 21
-176.0873871326077
 31
0.0
  0
LINE
  5
73D
330
72D
100
AcDbEntity
  8
OBJECT
  6
Continuous
 62
     0
100
AcDbLine
 10
43.49549540450289
 20
-173.9126128673923
 30
0.0
 11
53.54017937580443
 21
-177.5
 31
0.0
  0
ARC
  5
73E
330
72D
100
AcDbEntity
  8
OBJECT
  6
Continuous
 62
     0
100
AcDbCircle
 10
51.0
 20
-162.4999999999998
 30
0.0
 40
1.5
100
AcDbArc
 50
270.0
 51
90.0
  0
ARC
  5
73F
330
72D
100
AcDbEntity
  8
OBJECT
  6
Continuous
 62
     0
100
AcDbCircle
 10
51.0
 20
-148.5
 30
0.0
 40
1.5
100
AcDbArc
 50
0.0
 51
19.47122063449052
  0
ARC
  5
740
330
72D
100
AcDbEntity
  8
OBJECT
  6
Continuous
 62
     0
100
AcDbCircle
 10
51.0
 20
-148.5
 30
0.0
 40
1.50000000000001
100
AcDbArc
 50
160.5287793655095
 51
180.0
  0
LINE
  5
741
330
72D
100
AcDbEntity
  8
OBJECT
  6
Continuous
 62
     0
100
AcDbLine
 10
49.5
 20
-155.4999999999999
 30
0.0
 11
52.5
 21
-155.4999999999999
 31
0.0
  0
LINE
  5
742
330
72D
100
AcDbEntity
  8
OBJECT
  6
Continuous
 62
     0
100
AcDbLine
 10
53.54017937580443
 20
-177.5
 30
0.0
 11
43.49549540450289
 21
-181.0873871326077
 31
0.0
  0
LINE
  5
743
330
72D
100
AcDbEntity
  8
OBJECT
  6
Continuous
 62
     0
100
AcDbLine
 10
58.50450459549711
 20
-178.9126128673923
 30
0.0
 11
48.45982062419556
 21
-182.5
 31
0.0
  0
ARC
  5
744
330
72D
100
AcDbEntity
  8
OBJECT
  6
Continuous
 62
     0
100
AcDbCircle
 10
57.9999999999999
 20
-177.5
 30
0.0
 40
1.500000000000075
100
AcDbArc
 50
289.6538240580517
 51
70.34617594194668
  0
LINE
  5
745
330
72D
100
AcDbEntity
  8
OBJECT
  6
Continuous
 62
     0
100
AcDbLine
 10
53.54017937580443
 20
-177.5
 30
0.0
 11
43.49549540450289
 21
-181.0873871326077
 31
0.0
  0
ARC
  5
746
330
72D
100
AcDbEntity
  8
OBJECT
  6
Continuous
 62
     0
100
AcDbCircle
 10
44.00000000000011
 20
-182.5
 30
0.0
 40
1.499999999999899
100
AcDbArc
 50
70.34613305739289
 51
70.34613391116739
  0
ARC
  5
747
330
72D
100
AcDbEntity
  8
OBJECT
  6
Continuous
 62
     0
100
AcDbCircle
 10
44.00000000000011
 20
-182.5
 30
0.0
 40
1.499999999999968
100
AcDbArc
 50
109.6538240580533
 51
250.3462190666239
  0
LINE
  5
748
330
72D
100
AcDbEntity
  8
OBJECT
  6
Continuous
 62
     0
100
AcDbLine
 10
44.50450459549733
 20
-181.0873871326077
 30
0.0
 11
44.50450609912866
 21
-181.0873876696188
 31
0.0
  0
LINE
  5
749
330
72D
100
AcDbEntity
  8
OBJECT
  6
Continuous
 62
     0
100
AcDbLine
 10
43.49549540450289
 20
-183.9126128673924
 30
0.0
 11
53.54017937580443
 21
-187.5
 31
0.0
  0
LINE
  5
74A
330
72D
100
AcDbEntity
  8
OBJECT
  6
Continuous
 62
     0
100
AcDbLine
 10
53.54017937580443
 20
-187.5
 30
0.0
 11
43.49549540450289
 21
-191.0873871326077
 31
0.0
  0
ARC
  5
74B
330
72D
100
AcDbEntity
  8
OBJECT
  6
Continuous
 62
     0
100
AcDbCircle
 10
44.00000000000011
 20
-192.5
 30
0.0
 40
1.499999999999899
100
AcDbArc
 50
70.34613305739289
 51
70.34613391116739
  0
ARC
  5
74C
330
72D
100
AcDbEntity
  8
OBJECT
  6
Continuous
 62
     0
100
AcDbCircle
 10
44.00000000000011
 20
-192.5
 30
0.0
 40
1.499999999999968
100
AcDbArc
 50
109.6538240580533
 51
250.3462190666239
  0
LINE
  5
74D
330
72D
100
AcDbEntity
  8
OBJECT
  6
Continuous
 62
     0
100
AcDbLine
 10
44.50450459549733
 20
-191.0873871326077
 30
0.0
 11
44.50450609912866
 21
-191.0873876696188
 31
0.0
  0
LINE
  5
74E
330
72D
100
AcDbEntity
  8
OBJECT
  6
Continuous
 62
     0
100
AcDbLine
 10
43.49549540450289
 20
-193.9126128673924
 30
0.0
 11
53.54017937580443
 21
-197.5
 31
0.0
  0
LINE
  5
74F
330
72D
100
AcDbEntity
  8
OBJECT
  6
Continuous
 62
     0
100
AcDbLine
 10
53.54017937580443
 20
-197.5
 30
0.0
 11
43.49549540450289
 21
-201.0873871326077
 31
0.0
  0
ARC
  5
750
330
72D
100
AcDbEntity
  8
OBJECT
  6
Continuous
 62
     0
100
AcDbCircle
 10
44.00000000000011
 20
-202.4999999999999
 30
0.0
 40
1.499999999999899
100
AcDbArc
 50
70.34613305739289
 51
70.34613391116739
  0
ARC
  5
751
330
72D
100
AcDbEntity
  8
OBJECT
  6
Continuous
 62
     0
100
AcDbCircle
 10
44.00000000000011
 20
-202.4999999999999
 30
0.0
 40
1.499999999999968
100
AcDbArc
 50
109.6538240580533
 51
250.3462190666239
  0
LINE
  5
752
330
72D
100
AcDbEntity
  8
OBJECT
  6
Continuous
 62
     0
100
AcDbLine
 10
44.50450459549733
 20
-201.0873871326077
 30
0.0
 11
44.50450609912866
 21
-201.0873876696188
 31
0.0
  0
LINE
  5
753
330
72D
100
AcDbEntity
  8
OBJECT
  6
Continuous
 62
     0
100
AcDbLine
 10
43.49549540450289
 20
-203.9126128673923
 30
0.0
 11
53.54017937580443
 21
-207.5
 31
0.0
  0
LINE
  5
754
330
72D
100
AcDbEntity
  8
OBJECT
  6
Continuous
 62
     0
100
AcDbLine
 10
53.54017937580443
 20
-207.5
 30
0.0
 11
43.49549540450289
 21
-211.0873871326077
 31
0.0
  0
ARC
  5
755
330
72D
100
AcDbEntity
  8
OBJECT
  6
Continuous
 62
     0
100
AcDbCircle
 10
44.00000000000011
 20
-212.5
 30
0.0
 40
1.499999999999899
100
AcDbArc
 50
70.34613305739289
 51
70.34613391116739
  0
ARC
  5
756
330
72D
100
AcDbEntity
  8
OBJECT
  6
Continuous
 62
     0
100
AcDbCircle
 10
44.00000000000011
 20
-212.5
 30
0.0
 40
1.499999999999968
100
AcDbArc
 50
109.6538240580533
 51
250.3462190666239
  0
LINE
  5
757
330
72D
100
AcDbEntity
  8
OBJECT
  6
Continuous
 62
     0
100
AcDbLine
 10
44.50450459549733
 20
-211.0873871326077
 30
0.0
 11
44.50450609912866
 21
-211.0873876696188
 31
0.0
  0
LINE
  5
758
330
72D
100
AcDbEntity
  8
OBJECT
  6
Continuous
 62
     0
100
AcDbLine
 10
43.49549540450289
 20
-213.9126128673924
 30
0.0
 11
53.54017937580443
 21
-217.5
 31
0.0
  0
LINE
  5
759
330
72D
100
AcDbEntity
  8
OBJECT
  6
Continuous
 62
     0
100
AcDbLine
 10
53.54017937580443
 20
-217.5
 30
0.0
 11
43.49549540450289
 21
-221.0873871326077
 31
0.0
  0
ARC
  5
75A
330
72D
100
AcDbEntity
  8
OBJECT
  6
Continuous
 62
     0
100
AcDbCircle
 10
44.00000000000011
 20
-222.5
 30
0.0
 40
1.499999999999899
100
AcDbArc
 50
70.34613305739289
 51
70.34613391116739
  0
ARC
  5
75B
330
72D
100
AcDbEntity
  8
OBJECT
  6
Continuous
 62
     0
100
AcDbCircle
 10
44.00000000000011
 20
-222.5
 30
0.0
 40
1.499999999999968
100
AcDbArc
 50
109.6538240580533
 51
250.3462190666239
  0
LINE
  5
75C
330
72D
100
AcDbEntity
  8
OBJECT
  6
Continuous
 62
     0
100
AcDbLine
 10
44.50450459549733
 20
-221.0873871326077
 30
0.0
 11
44.50450609912866
 21
-221.0873876696188
 31
0.0
  0
LINE
  5
75D
330
72D
100
AcDbEntity
  8
OBJECT
  6
Continuous
 62
     0
100
AcDbLine
 10
43.49549540450289
 20
-223.9126128673924
 30
0.0
 11
53.54017937580443
 21
-227.4999999999999
 31
0.0
  0
LINE
  5
75E
330
72D
100
AcDbEntity
  8
OBJECT
  6
Continuous
 62
     0
100
AcDbLine
 10
53.54017937580443
 20
-227.4999999999999
 30
0.0
 11
43.49549540450289
 21
-231.0873871326077
 31
0.0
  0
ARC
  5
75F
330
72D
100
AcDbEntity
  8
OBJECT
  6
Continuous
 62
     0
100
AcDbCircle
 10
44.00000000000011
 20
-232.5
 30
0.0
 40
1.499999999999899
100
AcDbArc
 50
70.34613305739289
 51
70.34613391116739
  0
ARC
  5
760
330
72D
100
AcDbEntity
  8
OBJECT
  6
Continuous
 62
     0
100
AcDbCircle
 10
44.00000000000011
 20
-232.5
 30
0.0
 40
1.499999999999968
100
AcDbArc
 50
109.6538240580533
 51
250.3462190666239
  0
LINE
  5
761
330
72D
100
AcDbEntity
  8
OBJECT
  6
Continuous
 62
     0
100
AcDbLine
 10
44.50450459549733
 20
-231.0873871326077
 30
0.0
 11
44.50450609912866
 21
-231.0873876696188
 31
0.0
  0
LINE
  5
762
330
72D
100
AcDbEntity
  8
OBJECT
  6
Continuous
 62
     0
100
AcDbLine
 10
43.49549540450289
 20
-233.9126128673924
 30
0.0
 11
53.54017937580443
 21
-237.5
 31
0.0
  0
LINE
  5
763
330
72D
100
AcDbEntity
  8
OBJECT
  6
Continuous
 62
     0
100
AcDbLine
 10
53.54017937580443
 20
-237.5
 30
0.0
 11
43.49549540450289
 21
-241.0873871326077
 31
0.0
  0
ARC
  5
764
330
72D
100
AcDbEntity
  8
OBJECT
  6
Continuous
 62
     0
100
AcDbCircle
 10
44.00000000000011
 20
-242.5
 30
0.0
 40
1.499999999999899
100
AcDbArc
 50
70.34613305739289
 51
70.34613391116739
  0
ARC
  5
765
330
72D
100
AcDbEntity
  8
OBJECT
  6
Continuous
 62
     0
100
AcDbCircle
 10
44.00000000000011
 20
-242.5
 30
0.0
 40
1.499999999999968
100
AcDbArc
 50
109.6538240580533
 51
250.3462190666239
  0
LINE
  5
766
330
72D
100
AcDbEntity
  8
OBJECT
  6
Continuous
 62
     0
100
AcDbLine
 10
44.50450459549733
 20
-241.0873871326077
 30
0.0
 11
44.50450609912866
 21
-241.0873876696188
 31
0.0
  0
LINE
  5
767
330
72D
100
AcDbEntity
  8
OBJECT
  6
Continuous
 62
     0
100
AcDbLine
 10
43.49549540450289
 20
-243.9126128673923
 30
0.0
 11
53.54017937580443
 21
-247.5
 31
0.0
  0
LINE
  5
768
330
72D
100
AcDbEntity
  8
OBJECT
  6
Continuous
 62
     0
100
AcDbLine
 10
53.54017937580443
 20
-247.5
 30
0.0
 11
43.49549540450289
 21
-251.0873871326077
 31
0.0
  0
ARC
  5
769
330
72D
100
AcDbEntity
  8
OBJECT
  6
Continuous
 62
     0
100
AcDbCircle
 10
44.00000000000011
 20
-252.4999999999999
 30
0.0
 40
1.499999999999899
100
AcDbArc
 50
70.34613305739289
 51
70.34613391116739
  0
ARC
  5
76A
330
72D
100
AcDbEntity
  8
OBJECT
  6
Continuous
 62
     0
100
AcDbCircle
 10
44.00000000000011
 20
-252.4999999999999
 30
0.0
 40
1.499999999999968
100
AcDbArc
 50
109.6538240580533
 51
250.3462190666239
  0
LINE
  5
76B
330
72D
100
AcDbEntity
  8
OBJECT
  6
Continuous
 62
     0
100
AcDbLine
 10
44.50450459549733
 20
-251.0873871326077
 30
0.0
 11
44.50450609912866
 21
-251.0873876696188
 31
0.0
  0
LINE
  5
76C
330
72D
100
AcDbEntity
  8
OBJECT
  6
Continuous
 62
     0
100
AcDbLine
 10
43.49549540450289
 20
-253.9126128673923
 30
0.0
 11
53.54017937580443
 21
-257.5
 31
0.0
  0
LINE
  5
76D
330
72D
100
AcDbEntity
  8
OBJECT
  6
Continuous
 62
     0
100
AcDbLine
 10
53.54017937580443
 20
-257.5
 30
0.0
 11
43.49549540450289
 21
-261.0873871326077
 31
0.0
  0
ARC
  5
76E
330
72D
100
AcDbEntity
  8
OBJECT
  6
Continuous
 62
     0
100
AcDbCircle
 10
44.00000000000011
 20
-262.5
 30
0.0
 40
1.499999999999899
100
AcDbArc
 50
70.34613305739289
 51
70.34613391116739
  0
ARC
  5
76F
330
72D
100
AcDbEntity
  8
OBJECT
  6
Continuous
 62
     0
100
AcDbCircle
 10
44.00000000000011
 20
-262.5
 30
0.0
 40
1.499999999999968
100
AcDbArc
 50
109.6538240580533
 51
250.3462190666239
  0
LINE
  5
770
330
72D
100
AcDbEntity
  8
OBJECT
  6
Continuous
 62
     0
100
AcDbLine
 10
44.50450459549733
 20
-261.0873871326077
 30
0.0
 11
44.50450609912866
 21
-261.0873876696188
 31
0.0
  0
LINE
  5
771
330
72D
100
AcDbEntity
  8
OBJECT
  6
Continuous
 62
     0
100
AcDbLine
 10
43.49549540450289
 20
-263.9126128673924
 30
0.0
 11
53.54017937580443
 21
-267.5
 31
0.0
  0
LINE
  5
772
330
72D
100
AcDbEntity
  8
OBJECT
  6
Continuous
 62
     0
100
AcDbLine
 10
53.54017937580443
 20
-267.5
 30
0.0
 11
43.49549540450289
 21
-271.0873871326077
 31
0.0
  0
ARC
  5
773
330
72D
100
AcDbEntity
  8
OBJECT
  6
Continuous
 62
     0
100
AcDbCircle
 10
44.00000000000011
 20
-272.5
 30
0.0
 40
1.499999999999899
100
AcDbArc
 50
70.34613305739289
 51
70.34613391116739
  0
ARC
  5
774
330
72D
100
AcDbEntity
  8
OBJECT
  6
Continuous
 62
     0
100
AcDbCircle
 10
44.00000000000011
 20
-272.5
 30
0.0
 40
1.499999999999968
100
AcDbArc
 50
109.6538240580533
 51
250.3462190666239
  0
LINE
  5
775
330
72D
100
AcDbEntity
  8
OBJECT
  6
Continuous
 62
     0
100
AcDbLine
 10
44.50450459549733
 20
-271.0873871326077
 30
0.0
 11
44.50450609912866
 21
-271.0873876696188
 31
0.0
  0
LINE
  5
776
330
72D
100
AcDbEntity
  8
OBJECT
  6
Continuous
 62
     0
100
AcDbLine
 10
43.49549540450289
 20
-273.9126128673924
 30
0.0
 11
53.54017937580443
 21
-277.4999999999999
 31
0.0
  0
LINE
  5
777
330
72D
100
AcDbEntity
  8
OBJECT
  6
Continuous
 62
     0
100
AcDbLine
 10
53.54017937580443
 20
-277.4999999999999
 30
0.0
 11
43.49549540450289
 21
-281.0873871326077
 31
0.0
  0
ARC
  5
778
330
72D
100
AcDbEntity
  8
OBJECT
  6
Continuous
 62
     0
100
AcDbCircle
 10
44.00000000000011
 20
-282.5
 30
0.0
 40
1.499999999999899
100
AcDbArc
 50
70.34613305739289
 51
70.34613391116739
  0
ARC
  5
779
330
72D
100
AcDbEntity
  8
OBJECT
  6
Continuous
 62
     0
100
AcDbCircle
 10
44.00000000000011
 20
-282.5
 30
0.0
 40
1.499999999999968
100
AcDbArc
 50
109.6538240580533
 51
250.3462190666239
  0
LINE
  5
77A
330
72D
100
AcDbEntity
  8
OBJECT
  6
Continuous
 62
     0
100
AcDbLine
 10
44.50450459549733
 20
-281.0873871326077
 30
0.0
 11
44.50450609912866
 21
-281.0873876696188
 31
0.0
  0
LINE
  5
77B
330
72D
100
AcDbEntity
  8
OBJECT
  6
Continuous
 62
     0
100
AcDbLine
 10
43.49549540450289
 20
-283.9126128673924
 30
0.0
 11
53.54017937580443
 21
-287.5
 31
0.0
  0
LINE
  5
77C
330
72D
100
AcDbEntity
  8
OBJECT
  6
Continuous
 62
     0
100
AcDbLine
 10
53.54017937580443
 20
-287.5
 30
0.0
 11
43.49549540450289
 21
-291.0873871326078
 31
0.0
  0
ARC
  5
77D
330
72D
100
AcDbEntity
  8
OBJECT
  6
Continuous
 62
     0
100
AcDbCircle
 10
44.00000000000011
 20
-292.5
 30
0.0
 40
1.499999999999899
100
AcDbArc
 50
70.34613305739289
 51
70.34613391116739
  0
ARC
  5
77E
330
72D
100
AcDbEntity
  8
OBJECT
  6
Continuous
 62
     0
100
AcDbCircle
 10
44.00000000000011
 20
-292.5
 30
0.0
 40
1.499999999999968
100
AcDbArc
 50
109.6538240580533
 51
250.3462190666239
  0
LINE
  5
77F
330
72D
100
AcDbEntity
  8
OBJECT
  6
Continuous
 62
     0
100
AcDbLine
 10
44.50450459549733
 20
-291.0873871326078
 30
0.0
 11
44.50450609912866
 21
-291.0873876696188
 31
0.0
  0
LINE
  5
780
330
72D
100
AcDbEntity
  8
OBJECT
  6
Continuous
 62
     0
100
AcDbLine
 10
43.49549540450289
 20
-293.9126128673923
 30
0.0
 11
53.54017937580443
 21
-297.5
 31
0.0
  0
LINE
  5
781
330
72D
100
AcDbEntity
  8
OBJECT
  6
Continuous
 62
     0
100
AcDbLine
 10
53.54017937580443
 20
-297.5
 30
0.0
 11
43.49549540450289
 21
-301.0873871326077
 31
0.0
  0
ARC
  5
782
330
72D
100
AcDbEntity
  8
OBJECT
  6
Continuous
 62
     0
100
AcDbCircle
 10
44.00000000000011
 20
-302.4999999999999
 30
0.0
 40
1.499999999999899
100
AcDbArc
 50
70.34613305739289
 51
70.34613391116739
  0
ARC
  5
783
330
72D
100
AcDbEntity
  8
OBJECT
  6
Continuous
 62
     0
100
AcDbCircle
 10
44.00000000000011
 20
-302.4999999999999
 30
0.0
 40
1.499999999999968
100
AcDbArc
 50
109.6538240580533
 51
250.3462190666239
  0
LINE
  5
784
330
72D
100
AcDbEntity
  8
OBJECT
  6
Continuous
 62
     0
100
AcDbLine
 10
44.50450459549733
 20
-301.0873871326077
 30
0.0
 11
44.50450609912866
 21
-301.0873876696188
 31
0.0
  0
LINE
  5
785
330
72D
100
AcDbEntity
  8
OBJECT
  6
Continuous
 62
     0
100
AcDbLine
 10
43.49549540450289
 20
-303.9126128673923
 30
0.0
 11
53.54017937580443
 21
-307.5
 31
0.0
  0
LINE
  5
786
330
72D
100
AcDbEntity
  8
OBJECT
  6
Continuous
 62
     0
100
AcDbLine
 10
53.54017937580443
 20
-307.5
 30
0.0
 11
43.49549540450289
 21
-311.0873871326077
 31
0.0
  0
ARC
  5
787
330
72D
100
AcDbEntity
  8
OBJECT
  6
Continuous
 62
     0
100
AcDbCircle
 10
44.00000000000011
 20
-312.5
 30
0.0
 40
1.499999999999899
100
AcDbArc
 50
70.34613305739289
 51
70.34613391116739
  0
ARC
  5
788
330
72D
100
AcDbEntity
  8
OBJECT
  6
Continuous
 62
     0
100
AcDbCircle
 10
44.00000000000011
 20
-312.5
 30
0.0
 40
1.499999999999968
100
AcDbArc
 50
109.6538240580533
 51
250.3462190666239
  0
LINE
  5
789
330
72D
100
AcDbEntity
  8
OBJECT
  6
Continuous
 62
     0
100
AcDbLine
 10
44.50450459549733
 20
-311.0873871326077
 30
0.0
 11
44.50450609912866
 21
-311.0873876696188
 31
0.0
  0
LINE
  5
78A
330
72D
100
AcDbEntity
  8
OBJECT
  6
Continuous
 62
     0
100
AcDbLine
 10
43.49549540450289
 20
-313.9126128673924
 30
0.0
 11
50.12626344657633
 21
-316.2807443109901
 31
0.0
  0
ARC
  5
78B
330
72D
100
AcDbEntity
  8
OBJECT
  6
Continuous
 62
     0
100
AcDbCircle
 10
44.00000000000011
 20
-322.5
 30
0.0
 40
1.499999999999899
100
AcDbArc
 50
70.34613305739289
 51
70.34613391116739
  0
LINE
  5
78C
330
72D
100
AcDbEntity
  8
OBJECT
  6
Continuous
 62
     0
100
AcDbLine
 10
44.50450459549733
 20
-321.0873871326077
 30
0.0
 11
44.50450609912866
 21
-321.0873876696188
 31
0.0
  0
LINE
  5
78D
330
72D
100
AcDbEntity
  8
OBJECT
  6
Continuous
 62
     0
100
AcDbLine
 10
48.45982062419556
 20
-182.5
 30
0.0
 11
58.50450459549711
 21
-186.0873871326077
 31
0.0
  0
LINE
  5
78E
330
72D
100
AcDbEntity
  8
OBJECT
  6
Continuous
 62
     0
100
AcDbLine
 10
58.50450459549711
 20
-188.9126128673924
 30
0.0
 11
48.45982062419556
 21
-192.5
 31
0.0
  0
ARC
  5
78F
330
72D
100
AcDbEntity
  8
OBJECT
  6
Continuous
 62
     0
100
AcDbCircle
 10
57.9999999999999
 20
-187.5
 30
0.0
 40
1.500000000000075
100
AcDbArc
 50
289.6538240580517
 51
70.34617594194668
  0
LINE
  5
790
330
72D
100
AcDbEntity
  8
OBJECT
  6
Continuous
 62
     0
100
AcDbLine
 10
48.45982062419556
 20
-192.5
 30
0.0
 11
58.50450459549711
 21
-196.0873871326077
 31
0.0
  0
LINE
  5
791
330
72D
100
AcDbEntity
  8
OBJECT
  6
Continuous
 62
     0
100
AcDbLine
 10
58.50450459549711
 20
-198.9126128673923
 30
0.0
 11
48.45982062419556
 21
-202.4999999999999
 31
0.0
  0
ARC
  5
792
330
72D
100
AcDbEntity
  8
OBJECT
  6
Continuous
 62
     0
100
AcDbCircle
 10
57.9999999999999
 20
-197.5
 30
0.0
 40
1.500000000000075
100
AcDbArc
 50
289.6538240580517
 51
70.34617594194668
  0
LINE
  5
793
330
72D
100
AcDbEntity
  8
OBJECT
  6
Continuous
 62
     0
100
AcDbLine
 10
48.45982062419556
 20
-202.4999999999999
 30
0.0
 11
58.50450459549711
 21
-206.0873871326077
 31
0.0
  0
LINE
  5
794
330
72D
100
AcDbEntity
  8
OBJECT
  6
Continuous
 62
     0
100
AcDbLine
 10
58.50450459549711
 20
-208.9126128673924
 30
0.0
 11
48.45982062419556
 21
-212.5
 31
0.0
  0
ARC
  5
795
330
72D
100
AcDbEntity
  8
OBJECT
  6
Continuous
 62
     0
100
AcDbCircle
 10
57.9999999999999
 20
-207.5
 30
0.0
 40
1.500000000000075
100
AcDbArc
 50
289.6538240580517
 51
70.34617594194668
  0
LINE
  5
796
330
72D
100
AcDbEntity
  8
OBJECT
  6
Continuous
 62
     0
100
AcDbLine
 10
48.45982062419556
 20
-212.5
 30
0.0
 11
58.50450459549711
 21
-216.0873871326077
 31
0.0
  0
LINE
  5
797
330
72D
100
AcDbEntity
  8
OBJECT
  6
Continuous
 62
     0
100
AcDbLine
 10
58.50450459549711
 20
-218.9126128673923
 30
0.0
 11
48.45982062419556
 21
-222.5
 31
0.0
  0
ARC
  5
798
330
72D
100
AcDbEntity
  8
OBJECT
  6
Continuous
 62
     0
100
AcDbCircle
 10
57.9999999999999
 20
-217.5
 30
0.0
 40
1.500000000000075
100
AcDbArc
 50
289.6538240580517
 51
70.34617594194668
  0
LINE
  5
799
330
72D
100
AcDbEntity
  8
OBJECT
  6
Continuous
 62
     0
100
AcDbLine
 10
48.45982062419556
 20
-222.5
 30
0.0
 11
58.50450459549711
 21
-226.0873871326077
 31
0.0
  0
LINE
  5
79A
330
72D
100
AcDbEntity
  8
OBJECT
  6
Continuous
 62
     0
100
AcDbLine
 10
58.50450459549711
 20
-228.9126128673923
 30
0.0
 11
48.45982062419556
 21
-232.5
 31
0.0
  0
ARC
  5
79B
330
72D
100
AcDbEntity
  8
OBJECT
  6
Continuous
 62
     0
100
AcDbCircle
 10
57.9999999999999
 20
-227.4999999999999
 30
0.0
 40
1.500000000000075
100
AcDbArc
 50
289.6538240580517
 51
70.34617594194668
  0
LINE
  5
79C
330
72D
100
AcDbEntity
  8
OBJECT
  6
Continuous
 62
     0
100
AcDbLine
 10
48.45982062419556
 20
-232.5
 30
0.0
 11
58.50450459549711
 21
-236.0873871326077
 31
0.0
  0
LINE
  5
79D
330
72D
100
AcDbEntity
  8
OBJECT
  6
Continuous
 62
     0
100
AcDbLine
 10
58.50450459549711
 20
-238.9126128673924
 30
0.0
 11
48.45982062419556
 21
-242.5
 31
0.0
  0
ARC
  5
79E
330
72D
100
AcDbEntity
  8
OBJECT
  6
Continuous
 62
     0
100
AcDbCircle
 10
57.9999999999999
 20
-237.5
 30
0.0
 40
1.500000000000075
100
AcDbArc
 50
289.6538240580517
 51
70.34617594194668
  0
LINE
  5
79F
330
72D
100
AcDbEntity
  8
OBJECT
  6
Continuous
 62
     0
100
AcDbLine
 10
48.45982062419556
 20
-242.5
 30
0.0
 11
58.50450459549711
 21
-246.0873871326077
 31
0.0
  0
LINE
  5
7A0
330
72D
100
AcDbEntity
  8
OBJECT
  6
Continuous
 62
     0
100
AcDbLine
 10
58.50450459549711
 20
-248.9126128673924
 30
0.0
 11
48.45982062419556
 21
-252.4999999999999
 31
0.0
  0
ARC
  5
7A1
330
72D
100
AcDbEntity
  8
OBJECT
  6
Continuous
 62
     0
100
AcDbCircle
 10
57.9999999999999
 20
-247.5
 30
0.0
 40
1.500000000000075
100
AcDbArc
 50
289.6538240580517
 51
70.34617594194668
  0
LINE
  5
7A2
330
72D
100
AcDbEntity
  8
OBJECT
  6
Continuous
 62
     0
100
AcDbLine
 10
48.45982062419556
 20
-252.4999999999999
 30
0.0
 11
58.50450459549711
 21
-256.0873871326077
 31
0.0
  0
LINE
  5
7A3
330
72D
100
AcDbEntity
  8
OBJECT
  6
Continuous
 62
     0
100
AcDbLine
 10
58.50450459549711
 20
-258.9126128673924
 30
0.0
 11
48.45982062419556
 21
-262.5
 31
0.0
  0
ARC
  5
7A4
330
72D
100
AcDbEntity
  8
OBJECT
  6
Continuous
 62
     0
100
AcDbCircle
 10
57.9999999999999
 20
-257.5
 30
0.0
 40
1.500000000000075
100
AcDbArc
 50
289.6538240580517
 51
70.34617594194668
  0
LINE
  5
7A5
330
72D
100
AcDbEntity
  8
OBJECT
  6
Continuous
 62
     0
100
AcDbLine
 10
48.45982062419556
 20
-262.5
 30
0.0
 11
58.50450459549711
 21
-266.0873871326077
 31
0.0
  0
LINE
  5
7A6
330
72D
100
AcDbEntity
  8
OBJECT
  6
Continuous
 62
     0
100
AcDbLine
 10
58.50450459549711
 20
-268.9126128673923
 30
0.0
 11
48.45982062419556
 21
-272.5
 31
0.0
  0
ARC
  5
7A7
330
72D
100
AcDbEntity
  8
OBJECT
  6
Continuous
 62
     0
100
AcDbCircle
 10
57.9999999999999
 20
-267.5
 30
0.0
 40
1.500000000000075
100
AcDbArc
 50
289.6538240580517
 51
70.34617594194668
  0
LINE
  5
7A8
330
72D
100
AcDbEntity
  8
OBJECT
  6
Continuous
 62
     0
100
AcDbLine
 10
48.45982062419556
 20
-272.5
 30
0.0
 11
58.50450459549711
 21
-276.0873871326077
 31
0.0
  0
LINE
  5
7A9
330
72D
100
AcDbEntity
  8
OBJECT
  6
Continuous
 62
     0
100
AcDbLine
 10
58.50450459549711
 20
-278.9126128673923
 30
0.0
 11
48.45982062419556
 21
-282.5
 31
0.0
  0
ARC
  5
7AA
330
72D
100
AcDbEntity
  8
OBJECT
  6
Continuous
 62
     0
100
AcDbCircle
 10
57.9999999999999
 20
-277.4999999999999
 30
0.0
 40
1.500000000000075
100
AcDbArc
 50
289.6538240580517
 51
70.34617594194668
  0
LINE
  5
7AB
330
72D
100
AcDbEntity
  8
OBJECT
  6
Continuous
 62
     0
100
AcDbLine
 10
48.45982062419556
 20
-282.5
 30
0.0
 11
58.50450459549711
 21
-286.0873871326077
 31
0.0
  0
LINE
  5
7AC
330
72D
100
AcDbEntity
  8
OBJECT
  6
Continuous
 62
     0
100
AcDbLine
 10
58.50450459549711
 20
-288.9126128673924
 30
0.0
 11
48.45982062419556
 21
-292.5
 31
0.0
  0
ARC
  5
7AD
330
72D
100
AcDbEntity
  8
OBJECT
  6
Continuous
 62
     0
100
AcDbCircle
 10
57.9999999999999
 20
-287.5
 30
0.0
 40
1.500000000000075
100
AcDbArc
 50
289.6538240580517
 51
70.34617594194668
  0
LINE
  5
7AE
330
72D
100
AcDbEntity
  8
OBJECT
  6
Continuous
 62
     0
100
AcDbLine
 10
48.45982062419556
 20
-292.5
 30
0.0
 11
58.50450459549711
 21
-296.0873871326077
 31
0.0
  0
LINE
  5
7AF
330
72D
100
AcDbEntity
  8
OBJECT
  6
Continuous
 62
     0
100
AcDbLine
 10
58.50450459549711
 20
-298.9126128673924
 30
0.0
 11
48.45982062419556
 21
-302.4999999999999
 31
0.0
  0
ARC
  5
7B0
330
72D
100
AcDbEntity
  8
OBJECT
  6
Continuous
 62
     0
100
AcDbCircle
 10
57.9999999999999
 20
-297.5
 30
0.0
 40
1.500000000000075
100
AcDbArc
 50
289.6538240580517
 51
70.34617594194668
  0
LINE
  5
7B1
330
72D
100
AcDbEntity
  8
OBJECT
  6
Continuous
 62
     0
100
AcDbLine
 10
48.45982062419556
 20
-302.4999999999999
 30
0.0
 11
58.50450459549711
 21
-306.0873871326077
 31
0.0
  0
LINE
  5
7B2
330
72D
100
AcDbEntity
  8
OBJECT
  6
Continuous
 62
     0
100
AcDbLine
 10
58.50450459549711
 20
-308.9126128673924
 30
0.0
 11
48.45982062419556
 21
-312.5
 31
0.0
  0
ARC
  5
7B3
330
72D
100
AcDbEntity
  8
OBJECT
  6
Continuous
 62
     0
100
AcDbCircle
 10
57.9999999999999
 20
-307.5
 30
0.0
 40
1.500000000000075
100
AcDbArc
 50
289.6538240580517
 51
70.34617594194668
  0
LINE
  5
7B4
330
72D
100
AcDbEntity
  8
OBJECT
  6
Continuous
 62
     0
100
AcDbLine
 10
48.45982062419556
 20
-312.5
 30
0.0
 11
58.50450459549711
 21
-316.0873871326077
 31
0.0
  0
LINE
  5
7B5
330
72D
100
AcDbEntity
  8
OBJECT
  6
Continuous
 62
     0
100
AcDbLine
 10
49.5
 20
-331.4999999999999
 30
0.0
 11
49.5
 21
-317.5
 31
0.0
  0
LINE
  5
7B6
330
72D
100
AcDbEntity
  8
OBJECT
  6
Continuous
 62
     0
100
AcDbLine
 10
52.5
 20
-331.4999999999999
 30
0.0
 11
52.5
 21
-319.0
 31
0.0
  0
LINE
  5
7B7
330
72D
100
AcDbEntity
  8
OBJECT
  6
Continuous
 62
     0
100
AcDbLine
 10
51.0
 20
-319.0
 30
0.0
 11
57.9999999999999
 21
-319.0
 31
0.0
  0
LINE
  5
7B8
330
72D
100
AcDbEntity
  8
OBJECT
  6
Continuous
 62
     0
100
AcDbLine
 10
51.0
 20
-316.0
 30
0.0
 11
57.99999999999977
 21
-316.0
 31
0.0
  0
ARC
  5
7B9
330
72D
100
AcDbEntity
  8
OBJECT
  6
Continuous
 62
     0
100
AcDbCircle
 10
57.9999999999999
 20
-317.5
 30
0.0
 40
1.5
100
AcDbArc
 50
270.0
 51
90.00004579245745
  0
ARC
  5
7BA
330
72D
100
AcDbEntity
  8
OBJECT
  6
Continuous
 62
     0
100
AcDbCircle
 10
51.0
 20
-317.5
 30
0.0
 40
1.5
100
AcDbArc
 50
90.0
 51
270.0
  0
ARC
  5
7BB
330
72D
100
AcDbEntity
  8
OBJECT
  6
Continuous
 62
     0
100
AcDbCircle
 10
51.0
 20
-331.4999999999999
 30
0.0
 40
1.5
100
AcDbArc
 50
180.0
 51
0.0
  0
LINE
  5
7BC
330
72D
100
AcDbEntity
  8
OBJECT
  6
Continuous
 62
     0
100
AcDbLine
 10
52.5
 20
-324.5
 30
0.0
 11
49.5
 21
-324.5
 31
0.0
  0
ENDBLK
  5
7BD
330
72D
100
AcDbEntity
  8
OBJECT
100
AcDbBlockEnd
  0
BLOCK
  5
7BF
330
7BE
100
AcDbEntity
  8
DIMENTION
100
AcDbBlockBegin
  2
*D7
 70
     1
 10
0.0
 20
0.0
 30
0.0
  3
*D7
  1

  0
LINE
  5
7C0
330
7BE
100
AcDbEntity
  8
DIMENTION
  6
Continuous
 62
     0
100
AcDbLine
 10
-825.0
 20
-120.0
 30
0.0
 11
-920.0
 21
-120.0
 31
0.0
  0
LINE
  5
7C1
330
7BE
100
AcDbEntity
  8
DIMENTION
  6
Continuous
 62
     0
100
AcDbLine
 10
-774.0
 20
-135.0
 30
0.0
 11
-920.0
 21
-135.0
 31
0.0
  0
LINE
  5
7C2
330
7BE
100
AcDbEntity
  8
DIMENTION
  6
Continuous
 62
     0
100
AcDbLine
 10
-900.0
 20
-135.0
 30
0.0
 11
-900.0
 21
-120.0
 31
0.0
  0
LINE
  5
7C3
330
7BE
100
AcDbEntity
  8
DIMENTION
  6
Continuous
 62
     0
100
AcDbLine
 10
-900.0
 20
-120.0
 30
0.0
 11
-900.0
 21
-54.72310031784907
 31
0.0
  0
LINE
  5
7C4
330
7BE
100
AcDbEntity
  8
DIMENTION
  6
Continuous
 62
     0
100
AcDbLine
 10
-900.0
 20
-120.0
 30
0.0
 11
-908.5073868596879
 21
-88.25000000000001
 31
0.0
  0
LINE
  5
7C5
330
7BE
100
AcDbEntity
  8
DIMENTION
  6
Continuous
 62
     0
100
AcDbLine
 10
-900.0
 20
-120.0
 30
0.0
 11
-891.4926131403118
 21
-88.25000000000001
 31
0.0
  0
LINE
  5
7C6
330
7BE
100
AcDbEntity
  8
DIMENTION
  6
Continuous
 62
     0
100
AcDbLine
 10
-900.0
 20
-135.0
 30
0.0
 11
-900.0
 21
-195.0
 31
0.0
  0
LINE
  5
7C7
330
7BE
100
AcDbEntity
  8
DIMENTION
  6
Continuous
 62
     0
100
AcDbLine
 10
-900.0
 20
-135.0
 30
0.0
 11
-891.4926131403118
 21
-166.7499999999999
 31
0.0
  0
LINE
  5
7C8
330
7BE
100
AcDbEntity
  8
DIMENTION
  6
Continuous
 62
     0
100
AcDbLine
 10
-900.0
 20
-135.0
 30
0.0
 11
-908.5073868596879
 21
-166.7499999999999
 31
0.0
  0
TEXT
  5
7C9
330
7BE
100
AcDbEntity
  8
DIMENTION
 62
     0
100
AcDbText
 10
-908.0553799999998
 20
-90.0
 30
0.0
 40
28.22152
  1
15
 50
90.0
  7
________
 11
-936.2769
 21
-90.0
 31
0.0
100
AcDbText
 73
     3
  0
POINT
  5
7CA
330
7BE
100
AcDbEntity
  8
DEFPOINTS
 62
     0
100
AcDbPoint
 10
-764.0
 20
-135.0
 30
0.0
  0
POINT
  5
7CB
330
7BE
100
AcDbEntity
  8
DEFPOINTS
 62
     0
100
AcDbPoint
 10
-815.0
 20
-120.0
 30
0.0
  0
POINT
  5
7CC
330
7BE
100
AcDbEntity
  8
DEFPOINTS
 62
     0
100
AcDbPoint
 10
-900.0
 20
-120.0
 30
0.0
  0
ENDBLK
  5
7CD
330
7BE
100
AcDbEntity
  8
DIMENTION
100
AcDbBlockEnd
  0
BLOCK
  5
7CF
330
7CE
100
AcDbEntity
  8
DIMENTION
100
AcDbBlockBegin
  2
*D8
 70
     1
 10
0.0
 20
0.0
 30
0.0
  3
*D8
  1

  0
LINE
  5
7D0
330
7CE
100
AcDbEntity
  8
DIMENTION
  6
Continuous
 62
     0
100
AcDbLine
 10
-774.0
 20
-135.0
 30
0.0
 11
-920.0
 21
-135.0
 31
0.0
  0
LINE
  5
7D1
330
7CE
100
AcDbEntity
  8
DIMENTION
  6
Continuous
 62
     0
100
AcDbLine
 10
-774.0
 20
-610.0
 30
0.0
 11
-920.0
 21
-610.0
 31
0.0
  0
LINE
  5
7D2
330
7CE
100
AcDbEntity
  8
DIMENTION
  6
Continuous
 62
     0
100
AcDbLine
 10
-900.0
 20
-135.0
 30
0.0
 11
-900.0
 21
-610.0
 31
0.0
  0
LINE
  5
7D3
330
7CE
100
AcDbEntity
  8
DIMENTION
  6
Continuous
 62
     0
100
AcDbLine
 10
-900.0
 20
-135.0
 30
0.0
 11
-891.4926131403118
 21
-166.7499999999999
 31
0.0
  0
LINE
  5
7D4
330
7CE
100
AcDbEntity
  8
DIMENTION
  6
Continuous
 62
     0
100
AcDbLine
 10
-900.0
 20
-135.0
 30
0.0
 11
-908.5073868596879
 21
-166.7499999999999
 31
0.0
  0
LINE
  5
7D5
330
7CE
100
AcDbEntity
  8
DIMENTION
  6
Continuous
 62
     0
100
AcDbLine
 10
-900.0
 20
-610.0
 30
0.0
 11
-908.5073868596879
 21
-578.2499999999999
 31
0.0
  0
LINE
  5
7D6
330
7CE
100
AcDbEntity
  8
DIMENTION
  6
Continuous
 62
     0
100
AcDbLine
 10
-900.0
 20
-610.0
 30
0.0
 11
-891.4926131403118
 21
-578.2499999999999
 31
0.0
  0
TEXT
  5
7D7
330
7CE
100
AcDbEntity
  8
DIMENTION
 62
     0
100
AcDbText
 10
-908.0553799999998
 20
-487.1499248080783
 30
0.0
 40
28.22152
  1
475（可動範囲）
 50
90.0
  7
________
 11
-936.2769
 21
-487.1499248080783
 31
0.0
100
AcDbText
 73
     3
  0
POINT
  5
7D8
330
7CE
100
AcDbEntity
  8
DEFPOINTS
 62
     0
100
AcDbPoint
 10
-764.0
 20
-610.0
 30
0.0
  0
POINT
  5
7D9
330
7CE
100
AcDbEntity
  8
DEFPOINTS
 62
     0
100
AcDbPoint
 10
-764.0
 20
-135.0
 30
0.0
  0
POINT
  5
7DA
330
7CE
100
AcDbEntity
  8
DEFPOINTS
 62
     0
100
AcDbPoint
 10
-900.0
 20
-135.0
 30
0.0
  0
ENDBLK
  5
7DB
330
7CE
100
AcDbEntity
  8
DIMENTION
100
AcDbBlockEnd
  0
BLOCK
  5
7DD
330
7DC
100
AcDbEntity
  8
OBJECT
100
AcDbBlockBegin
  2
*U9
 70
     1
 10
0.0
 20
0.0
 30
0.0
  3
*U9
  1

  0
ARC
  5
7DE
330
7DC
100
AcDbEntity
  8
OBJECT
 62
     0
100
AcDbCircle
 10
-1503.752551286083
 20
-592.4999999999998
 30
0.0
 40
12.49999999999993
100
AcDbArc
 50
36.86989615376681
 51
168.463040967185
  0
ARC
  5
7DF
330
7DC
100
AcDbEntity
  8
OBJECT
 62
     0
100
AcDbCircle
 10
-1483.752551286084
 20
-577.4999999999998
 30
0.0
 40
12.50000000000007
100
AcDbArc
 50
216.8698991379212
 51
348.4630409671845
  0
ENDBLK
  5
7E0
330
7DC
100
AcDbEntity
  8
OBJECT
100
AcDbBlockEnd
  0
BLOCK
  5
7E2
330
7E1
100
AcDbEntity
  8
OBJECT
100
AcDbBlockBegin
  2
*U10
 70
     1
 10
0.0
 20
0.0
 30
0.0
  3
*U10
  1

  0
ARC
  5
7E3
330
7E1
100
AcDbEntity
  8
OBJECT
 62
     0
100
AcDbCircle
 10
-1296.247448713916
 20
-592.4999999999998
 30
0.0
 40
12.49999999999998
100
AcDbArc
 50
11.53695903281496
 51
143.1301038462331
  0
ARC
  5
7E4
330
7E1
100
AcDbEntity
  8
OBJECT
 62
     0
100
AcDbCircle
 10
-1316.247448713916
 20
-577.4999999999998
 30
0.0
 40
12.50000000000001
100
AcDbArc
 50
191.5369590328154
 51
323.1301008620787
  0
ENDBLK
  5
7E5
330
7E1
100
AcDbEntity
  8
OBJECT
100
AcDbBlockEnd
  0
BLOCK
  5
7E7
330
7E6
100
AcDbEntity
  8
HIDDEN
100
AcDbBlockBegin
  2
*U11
 70
     1
 10
0.0
 20
0.0
 30
0.0
  3
*U11
  1

  0
LWPOLYLINE
  5
7E8
330
7E6
100
AcDbEntity
  8
HIDDEN
  6
STYLE_04
 62
     0
100
AcDbPolyline
 90
        4
 70
     1
 43
0.0
 10
-747.5
 20
-685.0
 10
-602.5
 20
-685.0
 10
-602.5
 20
-770.0
 10
-747.5
 20
-770.0
  0
LWPOLYLINE
  5
7EE
330
7E6
100
AcDbEntity
  8
HIDDEN
  6
STYLE_04
 62
     0
100
AcDbPolyline
 90
        4
 70
     0
 43
0.0
 10
-610.0
 20
-770.0
 10
-610.0
 20
-810.0
 10
-740.0
 20
-810.0
 10
-740.0
 20
-770.0
  0
ENDBLK
  5
7F4
330
7E6
100
AcDbEntity
  8
HIDDEN
100
AcDbBlockEnd
  0
BLOCK
  5
7F6
330
7F5
100
AcDbEntity
  8
OBJECT
100
AcDbBlockBegin
  2
*U12
 70
     1
 10
0.0
 20
0.0
 30
0.0
  3
*U12
  1

  0
LINE
  5
7F7
330
7F5
100
AcDbEntity
  8
OBJECT
  6
Continuous
 62
     0
100
AcDbLine
 10
-799.0
 20
-110.0
 30
0.0
 11
-815.4999999999999
 21
-110.0
 31
0.0
  0
LINE
  5
7F8
330
7F5
100
AcDbEntity
  8
OBJECT
  6
Continuous
 62
     0
100
AcDbLine
 10
-799.0
 20
-140.0
 30
0.0
 11
-799.0
 21
-110.0
 31
0.0
  0
LINE
  5
7F9
330
7F5
100
AcDbEntity
  8
OBJECT
  6
Continuous
 62
     0
100
AcDbLine
 10
-799.0
 20
-140.0
 30
0.0
 11
-818.5
 21
-117.8541
 31
0.0
  0
ARC
  5
7FA
330
7F5
100
AcDbEntity
  8
OBJECT
  6
Continuous
 62
     0
100
AcDbCircle
 10
-815.4999999999999
 20
-114.5
 30
0.0
 40
4.5
100
AcDbArc
 50
90.0
 51
228.1896684141746
  0
ENDBLK
  5
7FB
330
7F5
100
AcDbEntity
  8
OBJECT
100
AcDbBlockEnd
  0
BLOCK
  5
7FD
330
7FC
100
AcDbEntity
  8
DIMENTION
100
AcDbBlockBegin
  2
*D13
 70
     1
 10
0.0
 20
0.0
 30
0.0
  3
*D13
  1

  0
LINE
  5
7FE
330
7FC
100
AcDbEntity
  8
DIMENTION
  6
Continuous
 62
     0
100
AcDbLine
 10
-800.0
 20
625.0
 30
0.0
 11
-800.0
 21
770.0
 31
0.0
  0
LINE
  5
7FF
330
7FC
100
AcDbEntity
  8
DIMENTION
  6
Continuous
 62
     0
100
AcDbLine
 10
-570.0
 20
625.0
 30
0.0
 11
-570.0
 21
770.0
 31
0.0
  0
LINE
  5
800
330
7FC
100
AcDbEntity
  8
DIMENTION
  6
Continuous
 62
     0
100
AcDbLine
 10
-800.0
 20
750.0
 30
0.0
 11
-570.0
 21
750.0
 31
0.0
  0
LINE
  5
801
330
7FC
100
AcDbEntity
  8
DIMENTION
  6
Continuous
 62
     0
100
AcDbLine
 10
-800.0
 20
750.0
 30
0.0
 11
-768.25
 21
758.5073868596881
 31
0.0
  0
LINE
  5
802
330
7FC
100
AcDbEntity
  8
DIMENTION
  6
Continuous
 62
     0
100
AcDbLine
 10
-800.0
 20
750.0
 30
0.0
 11
-768.25
 21
741.4926131403118
 31
0.0
  0
LINE
  5
803
330
7FC
100
AcDbEntity
  8
DIMENTION
  6
Continuous
 62
     0
100
AcDbLine
 10
-570.0
 20
750.0
 30
0.0
 11
-601.75
 21
741.4926131403118
 31
0.0
  0
LINE
  5
804
330
7FC
100
AcDbEntity
  8
DIMENTION
  6
Continuous
 62
     0
100
AcDbLine
 10
-570.0
 20
750.0
 30
0.0
 11
-601.75
 21
758.5073868596881
 31
0.0
  0
TEXT
  5
805
330
7FC
100
AcDbEntity
  8
DIMENTION
 62
     0
100
AcDbText
 10
-711.4583333333334
 20
758.0555555555554
 30
0.0
 40
28.22222222222222
  1
230
  7
________
 11
-711.4583333333334
 21
786.2777777777777
 31
0.0
100
AcDbText
 73
     3
  0
POINT
  5
806
330
7FC
100
AcDbEntity
  8
DEFPOINTS
 62
     0
100
AcDbPoint
 10
-570.0
 20
615.0
 30
0.0
  0
POINT
  5
807
330
7FC
100
AcDbEntity
  8
DEFPOINTS
 62
     0
100
AcDbPoint
 10
-800.0
 20
615.0
 30
0.0
  0
POINT
  5
808
330
7FC
100
AcDbEntity
  8
DEFPOINTS
 62
     0
100
AcDbPoint
 10
-800.0
 20
750.0
 30
0.0
  0
ENDBLK
  5
809
330
7FC
100
AcDbEntity
  8
DIMENTION
100
AcDbBlockEnd
  0
BLOCK
  5
80B
330
80A
100
AcDbEntity
  8
DIMENTION
100
AcDbBlockBegin
  2
*D14
 70
     1
 10
0.0
 20
0.0
 30
0.0
  3
*D14
  1

  0
LINE
  5
80C
330
80A
100
AcDbEntity
  8
DIMENTION
  6
Continuous
 62
     0
100
AcDbLine
 10
-810.0
 20
615.0
 30
0.0
 11
-970.0
 21
615.0
 31
0.0
  0
LINE
  5
80D
330
80A
100
AcDbEntity
  8
DIMENTION
  6
Continuous
 62
     0
100
AcDbLine
 10
-810.0
 20
385.0
 30
0.0
 11
-970.0
 21
385.0
 31
0.0
  0
LINE
  5
80E
330
80A
100
AcDbEntity
  8
DIMENTION
  6
Continuous
 62
     0
100
AcDbLine
 10
-950.0
 20
615.0
 30
0.0
 11
-950.0
 21
385.0
 31
0.0
  0
LINE
  5
80F
330
80A
100
AcDbEntity
  8
DIMENTION
  6
Continuous
 62
     0
100
AcDbLine
 10
-950.0
 20
615.0
 30
0.0
 11
-941.4926131403118
 21
583.25
 31
0.0
  0
LINE
  5
810
330
80A
100
AcDbEntity
  8
DIMENTION
  6
Continuous
 62
     0
100
AcDbLine
 10
-950.0
 20
615.0
 30
0.0
 11
-958.5073868596879
 21
583.25
 31
0.0
  0
LINE
  5
811
330
80A
100
AcDbEntity
  8
DIMENTION
  6
Continuous
 62
     0
100
AcDbLine
 10
-950.0
 20
385.0
 30
0.0
 11
-958.5073868596879
 21
416.75
 31
0.0
  0
LINE
  5
812
330
80A
100
AcDbEntity
  8
DIMENTION
  6
Continuous
 62
     0
100
AcDbLine
 10
-950.0
 20
385.0
 30
0.0
 11
-941.4926131403118
 21
416.75
 31
0.0
  0
TEXT
  5
813
330
80A
100
AcDbEntity
  8
DIMENTION
 62
     0
100
AcDbText
 10
-958.0555555555553
 20
473.9522806803385
 30
0.0
 40
28.22222222222222
  1
230
 50
90.0
  7
________
 11
-986.2777777777777
 21
473.9522806803385
 31
0.0
100
AcDbText
 73
     3
  0
POINT
  5
814
330
80A
100
AcDbEntity
  8
DEFPOINTS
 62
     0
100
AcDbPoint
 10
-800.0
 20
385.0
 30
0.0
  0
POINT
  5
815
330
80A
100
AcDbEntity
  8
DEFPOINTS
 62
     0
100
AcDbPoint
 10
-800.0
 20
615.0
 30
0.0
  0
POINT
  5
816
330
80A
100
AcDbEntity
  8
DEFPOINTS
 62
     0
100
AcDbPoint
 10
-950.0
 20
615.0
 30
0.0
  0
ENDBLK
  5
817
330
80A
100
AcDbEntity
  8
DIMENTION
100
AcDbBlockEnd
  0
BLOCK
  5
819
330
818
100
AcDbEntity
  8
DIMENTION
100
AcDbBlockBegin
  2
*D15
 70
     1
 10
0.0
 20
0.0
 30
0.0
  3
*D15
  1

  0
LINE
  5
81A
330
818
100
AcDbEntity
  8
DIMENTION
  6
Continuous
 62
     0
100
AcDbLine
 10
-815.0
 20
360.0
 30
0.0
 11
-815.0
 21
230.0
 31
0.0
  0
LINE
  5
81B
330
818
100
AcDbEntity
  8
DIMENTION
  6
Continuous
 62
     0
100
AcDbLine
 10
-525.0
 20
360.0
 30
0.0
 11
-525.0
 21
230.0
 31
0.0
  0
LINE
  5
81C
330
818
100
AcDbEntity
  8
DIMENTION
  6
Continuous
 62
     0
100
AcDbLine
 10
-815.0
 20
250.0
 30
0.0
 11
-525.0
 21
250.0
 31
0.0
  0
LINE
  5
81D
330
818
100
AcDbEntity
  8
DIMENTION
  6
Continuous
 62
     0
100
AcDbLine
 10
-815.0
 20
250.0
 30
0.0
 11
-783.25
 21
258.5073868596882
 31
0.0
  0
LINE
  5
81E
330
818
100
AcDbEntity
  8
DIMENTION
  6
Continuous
 62
     0
100
AcDbLine
 10
-815.0
 20
250.0
 30
0.0
 11
-783.25
 21
241.4926131403118
 31
0.0
  0
LINE
  5
81F
330
818
100
AcDbEntity
  8
DIMENTION
  6
Continuous
 62
     0
100
AcDbLine
 10
-525.0
 20
250.0
 30
0.0
 11
-556.7499999999999
 21
241.4926131403118
 31
0.0
  0
LINE
  5
820
330
818
100
AcDbEntity
  8
DIMENTION
  6
Continuous
 62
     0
100
AcDbLine
 10
-525.0
 20
250.0
 30
0.0
 11
-556.7499999999999
 21
258.5073868596882
 31
0.0
  0
TEXT
  5
821
330
818
100
AcDbEntity
  8
DIMENTION
 62
     0
100
AcDbText
 10
-696.4583333333335
 20
258.0555555555556
 30
0.0
 40
28.22222222222222
  1
290
  7
________
 11
-696.4583333333335
 21
286.2777777777778
 31
0.0
100
AcDbText
 73
     3
  0
POINT
  5
822
330
818
100
AcDbEntity
  8
DEFPOINTS
 62
     0
100
AcDbPoint
 10
-525.0
 20
370.0
 30
0.0
  0
POINT
  5
823
330
818
100
AcDbEntity
  8
DEFPOINTS
 62
     0
100
AcDbPoint
 10
-815.0
 20
370.0
 30
0.0
  0
POINT
  5
824
330
818
100
AcDbEntity
  8
DEFPOINTS
 62
     0
100
AcDbPoint
 10
-815.0
 20
250.0
 30
0.0
  0
ENDBLK
  5
825
330
818
100
AcDbEntity
  8
DIMENTION
100
AcDbBlockEnd
  0
BLOCK
  5
827
330
826
100
AcDbEntity
  8
DIMENTION
100
AcDbBlockBegin
  2
*D16
 70
     1
 10
0.0
 20
0.0
 30
0.0
  3
*D16
  1

  0
LINE
  5
828
330
826
100
AcDbEntity
  8
DIMENTION
  6
Continuous
 62
     0
100
AcDbLine
 10
-515.0
 20
630.0
 30
0.0
 11
-380.0
 21
630.0
 31
0.0
  0
LINE
  5
829
330
826
100
AcDbEntity
  8
DIMENTION
  6
Continuous
 62
     0
100
AcDbLine
 10
-515.0
 20
370.0
 30
0.0
 11
-380.0
 21
370.0
 31
0.0
  0
LINE
  5
82A
330
826
100
AcDbEntity
  8
DIMENTION
  6
Continuous
 62
     0
100
AcDbLine
 10
-400.0
 20
630.0
 30
0.0
 11
-400.0
 21
370.0
 31
0.0
  0
LINE
  5
82B
330
826
100
AcDbEntity
  8
DIMENTION
  6
Continuous
 62
     0
100
AcDbLine
 10
-400.0
 20
630.0
 30
0.0
 11
-391.4926131403119
 21
598.2499999999999
 31
0.0
  0
LINE
  5
82C
330
826
100
AcDbEntity
  8
DIMENTION
  6
Continuous
 62
     0
100
AcDbLine
 10
-400.0
 20
630.0
 30
0.0
 11
-408.5073868596881
 21
598.2499999999999
 31
0.0
  0
LINE
  5
82D
330
826
100
AcDbEntity
  8
DIMENTION
  6
Continuous
 62
     0
100
AcDbLine
 10
-400.0
 20
370.0
 30
0.0
 11
-408.5073868596881
 21
401.75
 31
0.0
  0
LINE
  5
82E
330
826
100
AcDbEntity
  8
DIMENTION
  6
Continuous
 62
     0
100
AcDbLine
 10
-400.0
 20
370.0
 30
0.0
 11
-391.4926131403119
 21
401.75
 31
0.0
  0
TEXT
  5
82F
330
826
100
AcDbEntity
  8
DIMENTION
 62
     0
100
AcDbText
 10
-408.0555555555555
 20
473.5416666666665
 30
0.0
 40
28.22222222222222
  1
260
 50
90.0
  7
________
 11
-436.2777777777777
 21
473.5416666666665
 31
0.0
100
AcDbText
 73
     3
  0
POINT
  5
830
330
826
100
AcDbEntity
  8
DEFPOINTS
 62
     0
100
AcDbPoint
 10
-525.0
 20
370.0
 30
0.0
  0
POINT
  5
831
330
826
100
AcDbEntity
  8
DEFPOINTS
 62
     0
100
AcDbPoint
 10
-525.0
 20
630.0
 30
0.0
  0
POINT
  5
832
330
826
100
AcDbEntity
  8
DEFPOINTS
 62
     0
100
AcDbPoint
 10
-400.0
 20
630.0
 30
0.0
  0
ENDBLK
  5
833
330
826
100
AcDbEntity
  8
DIMENTION
100
AcDbBlockEnd
  0
BLOCK
  5
835
330
834
100
AcDbEntity
  8
OBJECT
100
AcDbBlockBegin
  2
*U17
 70
     1
 10
0.0
 20
0.0
 30
0.0
  3
*U17
  1

  0
LINE
  5
836
330
834
100
AcDbEntity
  8
OBJECT
  6
Continuous
 62
     0
100
AcDbLine
 10
72.5
 20
-148.5
 30
0.0
 11
72.5
 21
-162.4999999999998
 31
0.0
  0
LINE
  5
837
330
834
100
AcDbEntity
  8
OBJECT
  6
Continuous
 62
     0
100
AcDbLine
 10
69.5
 20
-148.5
 30
0.0
 11
69.5
 21
-160.9999999999998
 31
0.0
  0
LINE
  5
838
330
834
100
AcDbEntity
  8
OBJECT
  6
Continuous
 62
     0
100
AcDbLine
 10
71.87373655343333
 20
-163.7192556890134
 30
0.0
 11
78.50450459549711
 21
-166.0873871326077
 31
0.0
  0
LINE
  5
839
330
834
100
AcDbEntity
  8
OBJECT
  6
Continuous
 62
     0
100
AcDbLine
 10
63.49549540450289
 20
-163.9126128673923
 30
0.0
 11
73.54017937580443
 21
-167.5
 31
0.0
  0
LINE
  5
83A
330
834
100
AcDbEntity
  8
OBJECT
  6
Continuous
 62
     0
100
AcDbLine
 10
73.54017937580443
 20
-167.5
 30
0.0
 11
63.49549540450289
 21
-171.0873871326077
 31
0.0
  0
LINE
  5
83B
330
834
100
AcDbEntity
  8
OBJECT
  6
Continuous
 62
     0
100
AcDbLine
 10
78.50450459549711
 20
-168.9126128673923
 30
0.0
 11
68.45982062419557
 21
-172.5
 31
0.0
  0
LINE
  5
83C
330
834
100
AcDbEntity
  8
OBJECT
  6
Continuous
 62
     0
100
AcDbLine
 10
71.0
 20
-160.9999999999998
 30
0.0
 11
64.0000000000001
 21
-161.0
 31
0.0
  0
LINE
  5
83D
330
834
100
AcDbEntity
  8
OBJECT
  6
Continuous
 62
     0
100
AcDbLine
 10
71.0
 20
-163.9999999999998
 30
0.0
 11
64.00000000000023
 21
-164.0
 31
0.0
  0
ARC
  5
83E
330
834
100
AcDbEntity
  8
OBJECT
  6
Continuous
 62
     0
100
AcDbCircle
 10
64.0000000000001
 20
-162.5
 30
0.0
 40
1.5
100
AcDbArc
 50
90.0
 51
270.0000457924575
  0
ARC
  5
83F
330
834
100
AcDbEntity
  8
OBJECT
  6
Continuous
 62
     0
100
AcDbCircle
 10
77.99999999999987
 20
-167.5
 30
0.0
 40
1.500000000000075
100
AcDbArc
 50
289.6538240580517
 51
70.34617594194668
  0
ARC
  5
840
330
834
100
AcDbEntity
  8
OBJECT
  6
Continuous
 62
     0
100
AcDbCircle
 10
64.0000000000001
 20
-172.5
 30
0.0
 40
1.499999999999899
100
AcDbArc
 50
70.34613305739289
 51
70.34613391116739
  0
ARC
  5
841
330
834
100
AcDbEntity
  8
OBJECT
  6
Continuous
 62
     0
100
AcDbCircle
 10
64.0000000000001
 20
-172.5
 30
0.0
 40
1.499999999999968
100
AcDbArc
 50
109.6538240580533
 51
250.3462190666239
  0
LINE
  5
842
330
834
100
AcDbEntity
  8
OBJECT
  6
Continuous
 62
     0
100
AcDbLine
 10
64.50450459549734
 20
-171.0873871326077
 30
0.0
 11
64.50450609912866
 21
-171.0873876696189
 31
0.0
  0
LINE
  5
843
330
834
100
AcDbEntity
  8
OBJECT
  6
Continuous
 62
     0
100
AcDbLine
 10
68.45982062419557
 20
-172.5
 30
0.0
 11
78.50450459549711
 21
-176.0873871326077
 31
0.0
  0
LINE
  5
844
330
834
100
AcDbEntity
  8
OBJECT
  6
Continuous
 62
     0
100
AcDbLine
 10
63.49549540450289
 20
-173.9126128673923
 30
0.0
 11
73.54017937580443
 21
-177.5
 31
0.0
  0
ARC
  5
845
330
834
100
AcDbEntity
  8
OBJECT
  6
Continuous
 62
     0
100
AcDbCircle
 10
71.0
 20
-162.4999999999998
 30
0.0
 40
1.5
100
AcDbArc
 50
270.0
 51
90.0
  0
ARC
  5
846
330
834
100
AcDbEntity
  8
OBJECT
  6
Continuous
 62
     0
100
AcDbCircle
 10
71.0
 20
-148.5
 30
0.0
 40
1.5
100
AcDbArc
 50
0.0
 51
19.47122063449052
  0
ARC
  5
847
330
834
100
AcDbEntity
  8
OBJECT
  6
Continuous
 62
     0
100
AcDbCircle
 10
71.0
 20
-148.5
 30
0.0
 40
1.50000000000001
100
AcDbArc
 50
160.5287793655095
 51
180.0
  0
LINE
  5
848
330
834
100
AcDbEntity
  8
OBJECT
  6
Continuous
 62
     0
100
AcDbLine
 10
69.5
 20
-155.4999999999999
 30
0.0
 11
72.5
 21
-155.4999999999999
 31
0.0
  0
LINE
  5
849
330
834
100
AcDbEntity
  8
OBJECT
  6
Continuous
 62
     0
100
AcDbLine
 10
73.54017937580443
 20
-177.5
 30
0.0
 11
63.49549540450289
 21
-181.0873871326077
 31
0.0
  0
LINE
  5
84A
330
834
100
AcDbEntity
  8
OBJECT
  6
Continuous
 62
     0
100
AcDbLine
 10
78.50450459549711
 20
-178.9126128673923
 30
0.0
 11
68.45982062419557
 21
-182.5
 31
0.0
  0
ARC
  5
84B
330
834
100
AcDbEntity
  8
OBJECT
  6
Continuous
 62
     0
100
AcDbCircle
 10
77.99999999999987
 20
-177.5
 30
0.0
 40
1.500000000000075
100
AcDbArc
 50
289.6538240580517
 51
70.34617594194668
  0
LINE
  5
84C
330
834
100
AcDbEntity
  8
OBJECT
  6
Continuous
 62
     0
100
AcDbLine
 10
73.54017937580443
 20
-177.5
 30
0.0
 11
63.49549540450289
 21
-181.0873871326077
 31
0.0
  0
ARC
  5
84D
330
834
100
AcDbEntity
  8
OBJECT
  6
Continuous
 62
     0
100
AcDbCircle
 10
64.0000000000001
 20
-182.5
 30
0.0
 40
1.499999999999899
100
AcDbArc
 50
70.34613305739289
 51
70.34613391116739
  0
ARC
  5
84E
330
834
100
AcDbEntity
  8
OBJECT
  6
Continuous
 62
     0
100
AcDbCircle
 10
64.0000000000001
 20
-182.5
 30
0.0
 40
1.499999999999968
100
AcDbArc
 50
109.6538240580533
 51
250.3462190666239
  0
LINE
  5
84F
330
834
100
AcDbEntity
  8
OBJECT
  6
Continuous
 62
     0
100
AcDbLine
 10
64.50450459549734
 20
-181.0873871326077
 30
0.0
 11
64.50450609912866
 21
-181.0873876696188
 31
0.0
  0
LINE
  5
850
330
834
100
AcDbEntity
  8
OBJECT
  6
Continuous
 62
     0
100
AcDbLine
 10
63.49549540450289
 20
-183.9126128673924
 30
0.0
 11
73.54017937580443
 21
-187.5
 31
0.0
  0
LINE
  5
851
330
834
100
AcDbEntity
  8
OBJECT
  6
Continuous
 62
     0
100
AcDbLine
 10
73.54017937580443
 20
-187.5
 30
0.0
 11
63.49549540450289
 21
-191.0873871326077
 31
0.0
  0
ARC
  5
852
330
834
100
AcDbEntity
  8
OBJECT
  6
Continuous
 62
     0
100
AcDbCircle
 10
64.0000000000001
 20
-192.5
 30
0.0
 40
1.499999999999899
100
AcDbArc
 50
70.34613305739289
 51
70.34613391116739
  0
ARC
  5
853
330
834
100
AcDbEntity
  8
OBJECT
  6
Continuous
 62
     0
100
AcDbCircle
 10
64.0000000000001
 20
-192.5
 30
0.0
 40
1.499999999999968
100
AcDbArc
 50
109.6538240580533
 51
250.3462190666239
  0
LINE
  5
854
330
834
100
AcDbEntity
  8
OBJECT
  6
Continuous
 62
     0
100
AcDbLine
 10
64.50450459549734
 20
-191.0873871326077
 30
0.0
 11
64.50450609912866
 21
-191.0873876696188
 31
0.0
  0
LINE
  5
855
330
834
100
AcDbEntity
  8
OBJECT
  6
Continuous
 62
     0
100
AcDbLine
 10
63.49549540450289
 20
-193.9126128673924
 30
0.0
 11
73.54017937580443
 21
-197.5
 31
0.0
  0
LINE
  5
856
330
834
100
AcDbEntity
  8
OBJECT
  6
Continuous
 62
     0
100
AcDbLine
 10
73.54017937580443
 20
-197.5
 30
0.0
 11
63.49549540450289
 21
-201.0873871326077
 31
0.0
  0
ARC
  5
857
330
834
100
AcDbEntity
  8
OBJECT
  6
Continuous
 62
     0
100
AcDbCircle
 10
64.0000000000001
 20
-202.4999999999999
 30
0.0
 40
1.499999999999899
100
AcDbArc
 50
70.34613305739289
 51
70.34613391116739
  0
ARC
  5
858
330
834
100
AcDbEntity
  8
OBJECT
  6
Continuous
 62
     0
100
AcDbCircle
 10
64.0000000000001
 20
-202.4999999999999
 30
0.0
 40
1.499999999999968
100
AcDbArc
 50
109.6538240580533
 51
250.3462190666239
  0
LINE
  5
859
330
834
100
AcDbEntity
  8
OBJECT
  6
Continuous
 62
     0
100
AcDbLine
 10
64.50450459549734
 20
-201.0873871326077
 30
0.0
 11
64.50450609912866
 21
-201.0873876696188
 31
0.0
  0
LINE
  5
85A
330
834
100
AcDbEntity
  8
OBJECT
  6
Continuous
 62
     0
100
AcDbLine
 10
63.49549540450289
 20
-203.9126128673923
 30
0.0
 11
73.54017937580443
 21
-207.5
 31
0.0
  0
LINE
  5
85B
330
834
100
AcDbEntity
  8
OBJECT
  6
Continuous
 62
     0
100
AcDbLine
 10
73.54017937580443
 20
-207.5
 30
0.0
 11
63.49549540450289
 21
-211.0873871326077
 31
0.0
  0
ARC
  5
85C
330
834
100
AcDbEntity
  8
OBJECT
  6
Continuous
 62
     0
100
AcDbCircle
 10
64.0000000000001
 20
-212.5
 30
0.0
 40
1.499999999999899
100
AcDbArc
 50
70.34613305739289
 51
70.34613391116739
  0
ARC
  5
85D
330
834
100
AcDbEntity
  8
OBJECT
  6
Continuous
 62
     0
100
AcDbCircle
 10
64.0000000000001
 20
-212.5
 30
0.0
 40
1.499999999999968
100
AcDbArc
 50
109.6538240580533
 51
250.3462190666239
  0
LINE
  5
85E
330
834
100
AcDbEntity
  8
OBJECT
  6
Continuous
 62
     0
100
AcDbLine
 10
64.50450459549734
 20
-211.0873871326077
 30
0.0
 11
64.50450609912866
 21
-211.0873876696188
 31
0.0
  0
LINE
  5
85F
330
834
100
AcDbEntity
  8
OBJECT
  6
Continuous
 62
     0
100
AcDbLine
 10
63.49549540450289
 20
-213.9126128673924
 30
0.0
 11
73.54017937580443
 21
-217.5
 31
0.0
  0
LINE
  5
860
330
834
100
AcDbEntity
  8
OBJECT
  6
Continuous
 62
     0
100
AcDbLine
 10
73.54017937580443
 20
-217.5
 30
0.0
 11
63.49549540450289
 21
-221.0873871326077
 31
0.0
  0
ARC
  5
861
330
834
100
AcDbEntity
  8
OBJECT
  6
Continuous
 62
     0
100
AcDbCircle
 10
64.0000000000001
 20
-222.5
 30
0.0
 40
1.499999999999899
100
AcDbArc
 50
70.34613305739289
 51
70.34613391116739
  0
ARC
  5
862
330
834
100
AcDbEntity
  8
OBJECT
  6
Continuous
 62
     0
100
AcDbCircle
 10
64.0000000000001
 20
-222.5
 30
0.0
 40
1.499999999999968
100
AcDbArc
 50
109.6538240580533
 51
250.3462190666239
  0
LINE
  5
863
330
834
100
AcDbEntity
  8
OBJECT
  6
Continuous
 62
     0
100
AcDbLine
 10
64.50450459549734
 20
-221.0873871326077
 30
0.0
 11
64.50450609912866
 21
-221.0873876696188
 31
0.0
  0
LINE
  5
864
330
834
100
AcDbEntity
  8
OBJECT
  6
Continuous
 62
     0
100
AcDbLine
 10
63.49549540450289
 20
-223.9126128673924
 30
0.0
 11
73.54017937580443
 21
-227.4999999999999
 31
0.0
  0
LINE
  5
865
330
834
100
AcDbEntity
  8
OBJECT
  6
Continuous
 62
     0
100
AcDbLine
 10
73.54017937580443
 20
-227.4999999999999
 30
0.0
 11
63.49549540450289
 21
-231.0873871326077
 31
0.0
  0
ARC
  5
866
330
834
100
AcDbEntity
  8
OBJECT
  6
Continuous
 62
     0
100
AcDbCircle
 10
64.0000000000001
 20
-232.5
 30
0.0
 40
1.499999999999899
100
AcDbArc
 50
70.34613305739289
 51
70.34613391116739
  0
ARC
  5
867
330
834
100
AcDbEntity
  8
OBJECT
  6
Continuous
 62
     0
100
AcDbCircle
 10
64.0000000000001
 20
-232.5
 30
0.0
 40
1.499999999999968
100
AcDbArc
 50
109.6538240580533
 51
250.3462190666239
  0
LINE
  5
868
330
834
100
AcDbEntity
  8
OBJECT
  6
Continuous
 62
     0
100
AcDbLine
 10
64.50450459549734
 20
-231.0873871326077
 30
0.0
 11
64.50450609912866
 21
-231.0873876696188
 31
0.0
  0
LINE
  5
869
330
834
100
AcDbEntity
  8
OBJECT
  6
Continuous
 62
     0
100
AcDbLine
 10
63.49549540450289
 20
-233.9126128673924
 30
0.0
 11
73.54017937580443
 21
-237.5
 31
0.0
  0
LINE
  5
86A
330
834
100
AcDbEntity
  8
OBJECT
  6
Continuous
 62
     0
100
AcDbLine
 10
73.54017937580443
 20
-237.5
 30
0.0
 11
63.49549540450289
 21
-241.0873871326077
 31
0.0
  0
ARC
  5
86B
330
834
100
AcDbEntity
  8
OBJECT
  6
Continuous
 62
     0
100
AcDbCircle
 10
64.0000000000001
 20
-242.5
 30
0.0
 40
1.499999999999899
100
AcDbArc
 50
70.34613305739289
 51
70.34613391116739
  0
ARC
  5
86C
330
834
100
AcDbEntity
  8
OBJECT
  6
Continuous
 62
     0
100
AcDbCircle
 10
64.0000000000001
 20
-242.5
 30
0.0
 40
1.499999999999968
100
AcDbArc
 50
109.6538240580533
 51
250.3462190666239
  0
LINE
  5
86D
330
834
100
AcDbEntity
  8
OBJECT
  6
Continuous
 62
     0
100
AcDbLine
 10
64.50450459549734
 20
-241.0873871326077
 30
0.0
 11
64.50450609912866
 21
-241.0873876696188
 31
0.0
  0
LINE
  5
86E
330
834
100
AcDbEntity
  8
OBJECT
  6
Continuous
 62
     0
100
AcDbLine
 10
63.49549540450289
 20
-243.9126128673923
 30
0.0
 11
73.54017937580443
 21
-247.5
 31
0.0
  0
LINE
  5
86F
330
834
100
AcDbEntity
  8
OBJECT
  6
Continuous
 62
     0
100
AcDbLine
 10
73.54017937580443
 20
-247.5
 30
0.0
 11
63.49549540450289
 21
-251.0873871326077
 31
0.0
  0
ARC
  5
870
330
834
100
AcDbEntity
  8
OBJECT
  6
Continuous
 62
     0
100
AcDbCircle
 10
64.0000000000001
 20
-252.4999999999999
 30
0.0
 40
1.499999999999899
100
AcDbArc
 50
70.34613305739289
 51
70.34613391116739
  0
ARC
  5
871
330
834
100
AcDbEntity
  8
OBJECT
  6
Continuous
 62
     0
100
AcDbCircle
 10
64.0000000000001
 20
-252.4999999999999
 30
0.0
 40
1.499999999999968
100
AcDbArc
 50
109.6538240580533
 51
250.3462190666239
  0
LINE
  5
872
330
834
100
AcDbEntity
  8
OBJECT
  6
Continuous
 62
     0
100
AcDbLine
 10
64.50450459549734
 20
-251.0873871326077
 30
0.0
 11
64.50450609912866
 21
-251.0873876696188
 31
0.0
  0
LINE
  5
873
330
834
100
AcDbEntity
  8
OBJECT
  6
Continuous
 62
     0
100
AcDbLine
 10
63.49549540450289
 20
-253.9126128673923
 30
0.0
 11
73.54017937580443
 21
-257.5
 31
0.0
  0
LINE
  5
874
330
834
100
AcDbEntity
  8
OBJECT
  6
Continuous
 62
     0
100
AcDbLine
 10
73.54017937580443
 20
-257.5
 30
0.0
 11
63.49549540450289
 21
-261.0873871326077
 31
0.0
  0
ARC
  5
875
330
834
100
AcDbEntity
  8
OBJECT
  6
Continuous
 62
     0
100
AcDbCircle
 10
64.0000000000001
 20
-262.5
 30
0.0
 40
1.499999999999899
100
AcDbArc
 50
70.34613305739289
 51
70.34613391116739
  0
ARC
  5
876
330
834
100
AcDbEntity
  8
OBJECT
  6
Continuous
 62
     0
100
AcDbCircle
 10
64.0000000000001
 20
-262.5
 30
0.0
 40
1.499999999999968
100
AcDbArc
 50
109.6538240580533
 51
250.3462190666239
  0
LINE
  5
877
330
834
100
AcDbEntity
  8
OBJECT
  6
Continuous
 62
     0
100
AcDbLine
 10
64.50450459549734
 20
-261.0873871326077
 30
0.0
 11
64.50450609912866
 21
-261.0873876696188
 31
0.0
  0
LINE
  5
878
330
834
100
AcDbEntity
  8
OBJECT
  6
Continuous
 62
     0
100
AcDbLine
 10
63.49549540450289
 20
-263.9126128673924
 30
0.0
 11
73.54017937580443
 21
-267.5
 31
0.0
  0
LINE
  5
879
330
834
100
AcDbEntity
  8
OBJECT
  6
Continuous
 62
     0
100
AcDbLine
 10
73.54017937580443
 20
-267.5
 30
0.0
 11
63.49549540450289
 21
-271.0873871326077
 31
0.0
  0
ARC
  5
87A
330
834
100
AcDbEntity
  8
OBJECT
  6
Continuous
 62
     0
100
AcDbCircle
 10
64.0000000000001
 20
-272.5
 30
0.0
 40
1.499999999999899
100
AcDbArc
 50
70.34613305739289
 51
70.34613391116739
  0
ARC
  5
87B
330
834
100
AcDbEntity
  8
OBJECT
  6
Continuous
 62
     0
100
AcDbCircle
 10
64.0000000000001
 20
-272.5
 30
0.0
 40
1.499999999999968
100
AcDbArc
 50
109.6538240580533
 51
250.3462190666239
  0
LINE
  5
87C
330
834
100
AcDbEntity
  8
OBJECT
  6
Continuous
 62
     0
100
AcDbLine
 10
64.50450459549734
 20
-271.0873871326077
 30
0.0
 11
64.50450609912866
 21
-271.0873876696188
 31
0.0
  0
LINE
  5
87D
330
834
100
AcDbEntity
  8
OBJECT
  6
Continuous
 62
     0
100
AcDbLine
 10
63.49549540450289
 20
-273.9126128673924
 30
0.0
 11
73.54017937580443
 21
-277.4999999999999
 31
0.0
  0
LINE
  5
87E
330
834
100
AcDbEntity
  8
OBJECT
  6
Continuous
 62
     0
100
AcDbLine
 10
73.54017937580443
 20
-277.4999999999999
 30
0.0
 11
63.49549540450289
 21
-281.0873871326077
 31
0.0
  0
ARC
  5
87F
330
834
100
AcDbEntity
  8
OBJECT
  6
Continuous
 62
     0
100
AcDbCircle
 10
64.0000000000001
 20
-282.5
 30
0.0
 40
1.499999999999899
100
AcDbArc
 50
70.34613305739289
 51
70.34613391116739
  0
ARC
  5
880
330
834
100
AcDbEntity
  8
OBJECT
  6
Continuous
 62
     0
100
AcDbCircle
 10
64.0000000000001
 20
-282.5
 30
0.0
 40
1.499999999999968
100
AcDbArc
 50
109.6538240580533
 51
250.3462190666239
  0
LINE
  5
881
330
834
100
AcDbEntity
  8
OBJECT
  6
Continuous
 62
     0
100
AcDbLine
 10
64.50450459549734
 20
-281.0873871326077
 30
0.0
 11
64.50450609912866
 21
-281.0873876696188
 31
0.0
  0
LINE
  5
882
330
834
100
AcDbEntity
  8
OBJECT
  6
Continuous
 62
     0
100
AcDbLine
 10
63.49549540450289
 20
-283.9126128673924
 30
0.0
 11
73.54017937580443
 21
-287.5
 31
0.0
  0
LINE
  5
883
330
834
100
AcDbEntity
  8
OBJECT
  6
Continuous
 62
     0
100
AcDbLine
 10
73.54017937580443
 20
-287.5
 30
0.0
 11
63.49549540450289
 21
-291.0873871326078
 31
0.0
  0
ARC
  5
884
330
834
100
AcDbEntity
  8
OBJECT
  6
Continuous
 62
     0
100
AcDbCircle
 10
64.0000000000001
 20
-292.5
 30
0.0
 40
1.499999999999899
100
AcDbArc
 50
70.34613305739289
 51
70.34613391116739
  0
ARC
  5
885
330
834
100
AcDbEntity
  8
OBJECT
  6
Continuous
 62
     0
100
AcDbCircle
 10
64.0000000000001
 20
-292.5
 30
0.0
 40
1.499999999999968
100
AcDbArc
 50
109.6538240580533
 51
250.3462190666239
  0
LINE
  5
886
330
834
100
AcDbEntity
  8
OBJECT
  6
Continuous
 62
     0
100
AcDbLine
 10
64.50450459549734
 20
-291.0873871326078
 30
0.0
 11
64.50450609912866
 21
-291.0873876696188
 31
0.0
  0
LINE
  5
887
330
834
100
AcDbEntity
  8
OBJECT
  6
Continuous
 62
     0
100
AcDbLine
 10
63.49549540450289
 20
-293.9126128673923
 30
0.0
 11
73.54017937580443
 21
-297.5
 31
0.0
  0
LINE
  5
888
330
834
100
AcDbEntity
  8
OBJECT
  6
Continuous
 62
     0
100
AcDbLine
 10
73.54017937580443
 20
-297.5
 30
0.0
 11
63.49549540450289
 21
-301.0873871326077
 31
0.0
  0
ARC
  5
889
330
834
100
AcDbEntity
  8
OBJECT
  6
Continuous
 62
     0
100
AcDbCircle
 10
64.0000000000001
 20
-302.4999999999999
 30
0.0
 40
1.499999999999899
100
AcDbArc
 50
70.34613305739289
 51
70.34613391116739
  0
ARC
  5
88A
330
834
100
AcDbEntity
  8
OBJECT
  6
Continuous
 62
     0
100
AcDbCircle
 10
64.0000000000001
 20
-302.4999999999999
 30
0.0
 40
1.499999999999968
100
AcDbArc
 50
109.6538240580533
 51
250.3462190666239
  0
LINE
  5
88B
330
834
100
AcDbEntity
  8
OBJECT
  6
Continuous
 62
     0
100
AcDbLine
 10
64.50450459549734
 20
-301.0873871326077
 30
0.0
 11
64.50450609912866
 21
-301.0873876696188
 31
0.0
  0
LINE
  5
88C
330
834
100
AcDbEntity
  8
OBJECT
  6
Continuous
 62
     0
100
AcDbLine
 10
63.49549540450289
 20
-303.9126128673923
 30
0.0
 11
73.54017937580443
 21
-307.5
 31
0.0
  0
LINE
  5
88D
330
834
100
AcDbEntity
  8
OBJECT
  6
Continuous
 62
     0
100
AcDbLine
 10
73.54017937580443
 20
-307.5
 30
0.0
 11
63.49549540450289
 21
-311.0873871326077
 31
0.0
  0
ARC
  5
88E
330
834
100
AcDbEntity
  8
OBJECT
  6
Continuous
 62
     0
100
AcDbCircle
 10
64.0000000000001
 20
-312.5
 30
0.0
 40
1.499999999999899
100
AcDbArc
 50
70.34613305739289
 51
70.34613391116739
  0
ARC
  5
88F
330
834
100
AcDbEntity
  8
OBJECT
  6
Continuous
 62
     0
100
AcDbCircle
 10
64.0000000000001
 20
-312.5
 30
0.0
 40
1.499999999999968
100
AcDbArc
 50
109.6538240580533
 51
250.3462190666239
  0
LINE
  5
890
330
834
100
AcDbEntity
  8
OBJECT
  6
Continuous
 62
     0
100
AcDbLine
 10
64.50450459549734
 20
-311.0873871326077
 30
0.0
 11
64.50450609912866
 21
-311.0873876696188
 31
0.0
  0
LINE
  5
891
330
834
100
AcDbEntity
  8
OBJECT
  6
Continuous
 62
     0
100
AcDbLine
 10
63.49549540450289
 20
-313.9126128673924
 30
0.0
 11
70.12626344657633
 21
-316.2807443109901
 31
0.0
  0
ARC
  5
892
330
834
100
AcDbEntity
  8
OBJECT
  6
Continuous
 62
     0
100
AcDbCircle
 10
64.0000000000001
 20
-322.5
 30
0.0
 40
1.499999999999899
100
AcDbArc
 50
70.34613305739289
 51
70.34613391116739
  0
LINE
  5
893
330
834
100
AcDbEntity
  8
OBJECT
  6
Continuous
 62
     0
100
AcDbLine
 10
64.50450459549734
 20
-321.0873871326077
 30
0.0
 11
64.50450609912866
 21
-321.0873876696188
 31
0.0
  0
LINE
  5
894
330
834
100
AcDbEntity
  8
OBJECT
  6
Continuous
 62
     0
100
AcDbLine
 10
68.45982062419557
 20
-182.5
 30
0.0
 11
78.50450459549711
 21
-186.0873871326077
 31
0.0
  0
LINE
  5
895
330
834
100
AcDbEntity
  8
OBJECT
  6
Continuous
 62
     0
100
AcDbLine
 10
78.50450459549711
 20
-188.9126128673924
 30
0.0
 11
68.45982062419557
 21
-192.5
 31
0.0
  0
ARC
  5
896
330
834
100
AcDbEntity
  8
OBJECT
  6
Continuous
 62
     0
100
AcDbCircle
 10
77.99999999999987
 20
-187.5
 30
0.0
 40
1.500000000000075
100
AcDbArc
 50
289.6538240580517
 51
70.34617594194668
  0
LINE
  5
897
330
834
100
AcDbEntity
  8
OBJECT
  6
Continuous
 62
     0
100
AcDbLine
 10
68.45982062419557
 20
-192.5
 30
0.0
 11
78.50450459549711
 21
-196.0873871326077
 31
0.0
  0
LINE
  5
898
330
834
100
AcDbEntity
  8
OBJECT
  6
Continuous
 62
     0
100
AcDbLine
 10
78.50450459549711
 20
-198.9126128673923
 30
0.0
 11
68.45982062419557
 21
-202.4999999999999
 31
0.0
  0
ARC
  5
899
330
834
100
AcDbEntity
  8
OBJECT
  6
Continuous
 62
     0
100
AcDbCircle
 10
77.99999999999987
 20
-197.5
 30
0.0
 40
1.500000000000075
100
AcDbArc
 50
289.6538240580517
 51
70.34617594194668
  0
LINE
  5
89A
330
834
100
AcDbEntity
  8
OBJECT
  6
Continuous
 62
     0
100
AcDbLine
 10
68.45982062419557
 20
-202.4999999999999
 30
0.0
 11
78.50450459549711
 21
-206.0873871326077
 31
0.0
  0
LINE
  5
89B
330
834
100
AcDbEntity
  8
OBJECT
  6
Continuous
 62
     0
100
AcDbLine
 10
78.50450459549711
 20
-208.9126128673924
 30
0.0
 11
68.45982062419557
 21
-212.5
 31
0.0
  0
ARC
  5
89C
330
834
100
AcDbEntity
  8
OBJECT
  6
Continuous
 62
     0
100
AcDbCircle
 10
77.99999999999987
 20
-207.5
 30
0.0
 40
1.500000000000075
100
AcDbArc
 50
289.6538240580517
 51
70.34617594194668
  0
LINE
  5
89D
330
834
100
AcDbEntity
  8
OBJECT
  6
Continuous
 62
     0
100
AcDbLine
 10
68.45982062419557
 20
-212.5
 30
0.0
 11
78.50450459549711
 21
-216.0873871326077
 31
0.0
  0
LINE
  5
89E
330
834
100
AcDbEntity
  8
OBJECT
  6
Continuous
 62
     0
100
AcDbLine
 10
78.50450459549711
 20
-218.9126128673923
 30
0.0
 11
68.45982062419557
 21
-222.5
 31
0.0
  0
ARC
  5
89F
330
834
100
AcDbEntity
  8
OBJECT
  6
Continuous
 62
     0
100
AcDbCircle
 10
77.99999999999987
 20
-217.5
 30
0.0
 40
1.500000000000075
100
AcDbArc
 50
289.6538240580517
 51
70.34617594194668
  0
LINE
  5
8A0
330
834
100
AcDbEntity
  8
OBJECT
  6
Continuous
 62
     0
100
AcDbLine
 10
68.45982062419557
 20
-222.5
 30
0.0
 11
78.50450459549711
 21
-226.0873871326077
 31
0.0
  0
LINE
  5
8A1
330
834
100
AcDbEntity
  8
OBJECT
  6
Continuous
 62
     0
100
AcDbLine
 10
78.50450459549711
 20
-228.9126128673923
 30
0.0
 11
68.45982062419557
 21
-232.5
 31
0.0
  0
ARC
  5
8A2
330
834
100
AcDbEntity
  8
OBJECT
  6
Continuous
 62
     0
100
AcDbCircle
 10
77.99999999999987
 20
-227.4999999999999
 30
0.0
 40
1.500000000000075
100
AcDbArc
 50
289.6538240580517
 51
70.34617594194668
  0
LINE
  5
8A3
330
834
100
AcDbEntity
  8
OBJECT
  6
Continuous
 62
     0
100
AcDbLine
 10
68.45982062419557
 20
-232.5
 30
0.0
 11
78.50450459549711
 21
-236.0873871326077
 31
0.0
  0
LINE
  5
8A4
330
834
100
AcDbEntity
  8
OBJECT
  6
Continuous
 62
     0
100
AcDbLine
 10
78.50450459549711
 20
-238.9126128673924
 30
0.0
 11
68.45982062419557
 21
-242.5
 31
0.0
  0
ARC
  5
8A5
330
834
100
AcDbEntity
  8
OBJECT
  6
Continuous
 62
     0
100
AcDbCircle
 10
77.99999999999987
 20
-237.5
 30
0.0
 40
1.500000000000075
100
AcDbArc
 50
289.6538240580517
 51
70.34617594194668
  0
LINE
  5
8A6
330
834
100
AcDbEntity
  8
OBJECT
  6
Continuous
 62
     0
100
AcDbLine
 10
68.45982062419557
 20
-242.5
 30
0.0
 11
78.50450459549711
 21
-246.0873871326077
 31
0.0
  0
LINE
  5
8A7
330
834
100
AcDbEntity
  8
OBJECT
  6
Continuous
 62
     0
100
AcDbLine
 10
78.50450459549711
 20
-248.9126128673924
 30
0.0
 11
68.45982062419557
 21
-252.4999999999999
 31
0.0
  0
ARC
  5
8A8
330
834
100
AcDbEntity
  8
OBJECT
  6
Continuous
 62
     0
100
AcDbCircle
 10
77.99999999999987
 20
-247.5
 30
0.0
 40
1.500000000000075
100
AcDbArc
 50
289.6538240580517
 51
70.34617594194668
  0
LINE
  5
8A9
330
834
100
AcDbEntity
  8
OBJECT
  6
Continuous
 62
     0
100
AcDbLine
 10
68.45982062419557
 20
-252.4999999999999
 30
0.0
 11
78.50450459549711
 21
-256.0873871326077
 31
0.0
  0
LINE
  5
8AA
330
834
100
AcDbEntity
  8
OBJECT
  6
Continuous
 62
     0
100
AcDbLine
 10
78.50450459549711
 20
-258.9126128673924
 30
0.0
 11
68.45982062419557
 21
-262.5
 31
0.0
  0
ARC
  5
8AB
330
834
100
AcDbEntity
  8
OBJECT
  6
Continuous
 62
     0
100
AcDbCircle
 10
77.99999999999987
 20
-257.5
 30
0.0
 40
1.500000000000075
100
AcDbArc
 50
289.6538240580517
 51
70.34617594194668
  0
LINE
  5
8AC
330
834
100
AcDbEntity
  8
OBJECT
  6
Continuous
 62
     0
100
AcDbLine
 10
68.45982062419557
 20
-262.5
 30
0.0
 11
78.50450459549711
 21
-266.0873871326077
 31
0.0
  0
LINE
  5
8AD
330
834
100
AcDbEntity
  8
OBJECT
  6
Continuous
 62
     0
100
AcDbLine
 10
78.50450459549711
 20
-268.9126128673923
 30
0.0
 11
68.45982062419557
 21
-272.5
 31
0.0
  0
ARC
  5
8AE
330
834
100
AcDbEntity
  8
OBJECT
  6
Continuous
 62
     0
100
AcDbCircle
 10
77.99999999999987
 20
-267.5
 30
0.0
 40
1.500000000000075
100
AcDbArc
 50
289.6538240580517
 51
70.34617594194668
  0
LINE
  5
8AF
330
834
100
AcDbEntity
  8
OBJECT
  6
Continuous
 62
     0
100
AcDbLine
 10
68.45982062419557
 20
-272.5
 30
0.0
 11
78.50450459549711
 21
-276.0873871326077
 31
0.0
  0
LINE
  5
8B0
330
834
100
AcDbEntity
  8
OBJECT
  6
Continuous
 62
     0
100
AcDbLine
 10
78.50450459549711
 20
-278.9126128673923
 30
0.0
 11
68.45982062419557
 21
-282.5
 31
0.0
  0
ARC
  5
8B1
330
834
100
AcDbEntity
  8
OBJECT
  6
Continuous
 62
     0
100
AcDbCircle
 10
77.99999999999987
 20
-277.4999999999999
 30
0.0
 40
1.500000000000075
100
AcDbArc
 50
289.6538240580517
 51
70.34617594194668
  0
LINE
  5
8B2
330
834
100
AcDbEntity
  8
OBJECT
  6
Continuous
 62
     0
100
AcDbLine
 10
68.45982062419557
 20
-282.5
 30
0.0
 11
78.50450459549711
 21
-286.0873871326077
 31
0.0
  0
LINE
  5
8B3
330
834
100
AcDbEntity
  8
OBJECT
  6
Continuous
 62
     0
100
AcDbLine
 10
78.50450459549711
 20
-288.9126128673924
 30
0.0
 11
68.45982062419557
 21
-292.5
 31
0.0
  0
ARC
  5
8B4
330
834
100
AcDbEntity
  8
OBJECT
  6
Continuous
 62
     0
100
AcDbCircle
 10
77.99999999999987
 20
-287.5
 30
0.0
 40
1.500000000000075
100
AcDbArc
 50
289.6538240580517
 51
70.34617594194668
  0
LINE
  5
8B5
330
834
100
AcDbEntity
  8
OBJECT
  6
Continuous
 62
     0
100
AcDbLine
 10
68.45982062419557
 20
-292.5
 30
0.0
 11
78.50450459549711
 21
-296.0873871326077
 31
0.0
  0
LINE
  5
8B6
330
834
100
AcDbEntity
  8
OBJECT
  6
Continuous
 62
     0
100
AcDbLine
 10
78.50450459549711
 20
-298.9126128673924
 30
0.0
 11
68.45982062419557
 21
-302.4999999999999
 31
0.0
  0
ARC
  5
8B7
330
834
100
AcDbEntity
  8
OBJECT
  6
Continuous
 62
     0
100
AcDbCircle
 10
77.99999999999987
 20
-297.5
 30
0.0
 40
1.500000000000075
100
AcDbArc
 50
289.6538240580517
 51
70.34617594194668
  0
LINE
  5
8B8
330
834
100
AcDbEntity
  8
OBJECT
  6
Continuous
 62
     0
100
AcDbLine
 10
68.45982062419557
 20
-302.4999999999999
 30
0.0
 11
78.50450459549711
 21
-306.0873871326077
 31
0.0
  0
LINE
  5
8B9
330
834
100
AcDbEntity
  8
OBJECT
  6
Continuous
 62
     0
100
AcDbLine
 10
78.50450459549711
 20
-308.9126128673924
 30
0.0
 11
68.45982062419557
 21
-312.5
 31
0.0
  0
ARC
  5
8BA
330
834
100
AcDbEntity
  8
OBJECT
  6
Continuous
 62
     0
100
AcDbCircle
 10
77.99999999999987
 20
-307.5
 30
0.0
 40
1.500000000000075
100
AcDbArc
 50
289.6538240580517
 51
70.34617594194668
  0
LINE
  5
8BB
330
834
100
AcDbEntity
  8
OBJECT
  6
Continuous
 62
     0
100
AcDbLine
 10
68.45982062419557
 20
-312.5
 30
0.0
 11
78.50450459549711
 21
-316.0873871326077
 31
0.0
  0
LINE
  5
8BC
330
834
100
AcDbEntity
  8
OBJECT
  6
Continuous
 62
     0
100
AcDbLine
 10
69.5
 20
-331.4999999999999
 30
0.0
 11
69.5
 21
-317.5
 31
0.0
  0
LINE
  5
8BD
330
834
100
AcDbEntity
  8
OBJECT
  6
Continuous
 62
     0
100
AcDbLine
 10
72.5
 20
-331.4999999999999
 30
0.0
 11
72.5
 21
-319.0
 31
0.0
  0
LINE
  5
8BE
330
834
100
AcDbEntity
  8
OBJECT
  6
Continuous
 62
     0
100
AcDbLine
 10
71.0
 20
-319.0
 30
0.0
 11
77.99999999999987
 21
-319.0
 31
0.0
  0
LINE
  5
8BF
330
834
100
AcDbEntity
  8
OBJECT
  6
Continuous
 62
     0
100
AcDbLine
 10
71.0
 20
-316.0
 30
0.0
 11
77.99999999999979
 21
-316.0
 31
0.0
  0
ARC
  5
8C0
330
834
100
AcDbEntity
  8
OBJECT
  6
Continuous
 62
     0
100
AcDbCircle
 10
77.99999999999987
 20
-317.5
 30
0.0
 40
1.5
100
AcDbArc
 50
270.0
 51
90.00004579245745
  0
ARC
  5
8C1
330
834
100
AcDbEntity
  8
OBJECT
  6
Continuous
 62
     0
100
AcDbCircle
 10
71.0
 20
-317.5
 30
0.0
 40
1.5
100
AcDbArc
 50
90.0
 51
270.0
  0
ARC
  5
8C2
330
834
100
AcDbEntity
  8
OBJECT
  6
Continuous
 62
     0
100
AcDbCircle
 10
71.0
 20
-331.4999999999999
 30
0.0
 40
1.5
100
AcDbArc
 50
180.0
 51
0.0
  0
LINE
  5
8C3
330
834
100
AcDbEntity
  8
OBJECT
  6
Continuous
 62
     0
100
AcDbLine
 10
72.5
 20
-324.5
 30
0.0
 11
69.5
 21
-324.5
 31
0.0
  0
ENDBLK
  5
8C4
330
834
100
AcDbEntity
  8
OBJECT
100
AcDbBlockEnd
  0
BLOCK
  5
8C6
330
8C5
100
AcDbEntity
  8
OBJECT
100
AcDbBlockBegin
  2
*U18
 70
     1
 10
0.0
 20
0.0
 30
0.0
  3
*U18
  1

  0
LINE
  5
8C7
330
8C5
100
AcDbEntity
  8
OBJECT
  6
Continuous
 62
     0
100
AcDbLine
 10
-49.5
 20
-148.5
 30
0.0
 11
-49.5
 21
-162.4999999999998
 31
0.0
  0
LINE
  5
8C8
330
8C5
100
AcDbEntity
  8
OBJECT
  6
Continuous
 62
     0
100
AcDbLine
 10
-52.5
 20
-148.5
 30
0.0
 11
-52.5
 21
-160.9999999999998
 31
0.0
  0
LINE
  5
8C9
330
8C5
100
AcDbEntity
  8
OBJECT
  6
Continuous
 62
     0
100
AcDbLine
 10
-50.12626344656666
 20
-163.7192556890134
 30
0.0
 11
-43.49549540450289
 21
-166.0873871326077
 31
0.0
  0
LINE
  5
8CA
330
8C5
100
AcDbEntity
  8
OBJECT
  6
Continuous
 62
     0
100
AcDbLine
 10
-58.50450459549711
 20
-163.9126128673923
 30
0.0
 11
-48.45982062419556
 21
-167.5
 31
0.0
  0
LINE
  5
8CB
330
8C5
100
AcDbEntity
  8
OBJECT
  6
Continuous
 62
     0
100
AcDbLine
 10
-48.45982062419556
 20
-167.5
 30
0.0
 11
-58.50450459549711
 21
-171.0873871326077
 31
0.0
  0
LINE
  5
8CC
330
8C5
100
AcDbEntity
  8
OBJECT
  6
Continuous
 62
     0
100
AcDbLine
 10
-43.49549540450289
 20
-168.9126128673923
 30
0.0
 11
-53.54017937580443
 21
-172.5
 31
0.0
  0
LINE
  5
8CD
330
8C5
100
AcDbEntity
  8
OBJECT
  6
Continuous
 62
     0
100
AcDbLine
 10
-51.0
 20
-160.9999999999998
 30
0.0
 11
-57.9999999999999
 21
-161.0
 31
0.0
  0
LINE
  5
8CE
330
8C5
100
AcDbEntity
  8
OBJECT
  6
Continuous
 62
     0
100
AcDbLine
 10
-51.0
 20
-163.9999999999998
 30
0.0
 11
-57.99999999999977
 21
-164.0
 31
0.0
  0
ARC
  5
8CF
330
8C5
100
AcDbEntity
  8
OBJECT
  6
Continuous
 62
     0
100
AcDbCircle
 10
-57.9999999999999
 20
-162.5
 30
0.0
 40
1.5
100
AcDbArc
 50
90.0
 51
270.0000457924575
  0
ARC
  5
8D0
330
8C5
100
AcDbEntity
  8
OBJECT
  6
Continuous
 62
     0
100
AcDbCircle
 10
-44.00000000000011
 20
-167.5
 30
0.0
 40
1.500000000000075
100
AcDbArc
 50
289.6538240580517
 51
70.34617594194668
  0
ARC
  5
8D1
330
8C5
100
AcDbEntity
  8
OBJECT
  6
Continuous
 62
     0
100
AcDbCircle
 10
-57.9999999999999
 20
-172.5
 30
0.0
 40
1.499999999999899
100
AcDbArc
 50
70.34613305739289
 51
70.34613391116739
  0
ARC
  5
8D2
330
8C5
100
AcDbEntity
  8
OBJECT
  6
Continuous
 62
     0
100
AcDbCircle
 10
-57.9999999999999
 20
-172.5
 30
0.0
 40
1.499999999999968
100
AcDbArc
 50
109.6538240580533
 51
250.3462190666239
  0
LINE
  5
8D3
330
8C5
100
AcDbEntity
  8
OBJECT
  6
Continuous
 62
     0
100
AcDbLine
 10
-57.49549540450265
 20
-171.0873871326077
 30
0.0
 11
-57.49549390087135
 21
-171.0873876696189
 31
0.0
  0
LINE
  5
8D4
330
8C5
100
AcDbEntity
  8
OBJECT
  6
Continuous
 62
     0
100
AcDbLine
 10
-53.54017937580443
 20
-172.5
 30
0.0
 11
-43.49549540450289
 21
-176.0873871326077
 31
0.0
  0
LINE
  5
8D5
330
8C5
100
AcDbEntity
  8
OBJECT
  6
Continuous
 62
     0
100
AcDbLine
 10
-58.50450459549711
 20
-173.9126128673923
 30
0.0
 11
-48.45982062419556
 21
-177.5
 31
0.0
  0
ARC
  5
8D6
330
8C5
100
AcDbEntity
  8
OBJECT
  6
Continuous
 62
     0
100
AcDbCircle
 10
-51.0
 20
-162.4999999999998
 30
0.0
 40
1.5
100
AcDbArc
 50
270.0
 51
90.0
  0
ARC
  5
8D7
330
8C5
100
AcDbEntity
  8
OBJECT
  6
Continuous
 62
     0
100
AcDbCircle
 10
-51.0
 20
-148.5
 30
0.0
 40
1.5
100
AcDbArc
 50
0.0
 51
19.47122063449052
  0
ARC
  5
8D8
330
8C5
100
AcDbEntity
  8
OBJECT
  6
Continuous
 62
     0
100
AcDbCircle
 10
-51.0
 20
-148.5
 30
0.0
 40
1.50000000000001
100
AcDbArc
 50
160.5287793655095
 51
180.0
  0
LINE
  5
8D9
330
8C5
100
AcDbEntity
  8
OBJECT
  6
Continuous
 62
     0
100
AcDbLine
 10
-52.5
 20
-155.4999999999999
 30
0.0
 11
-49.5
 21
-155.4999999999999
 31
0.0
  0
LINE
  5
8DA
330
8C5
100
AcDbEntity
  8
OBJECT
  6
Continuous
 62
     0
100
AcDbLine
 10
-48.45982062419556
 20
-177.5
 30
0.0
 11
-58.50450459549711
 21
-181.0873871326077
 31
0.0
  0
LINE
  5
8DB
330
8C5
100
AcDbEntity
  8
OBJECT
  6
Continuous
 62
     0
100
AcDbLine
 10
-43.49549540450289
 20
-178.9126128673923
 30
0.0
 11
-53.54017937580443
 21
-182.5
 31
0.0
  0
ARC
  5
8DC
330
8C5
100
AcDbEntity
  8
OBJECT
  6
Continuous
 62
     0
100
AcDbCircle
 10
-44.00000000000011
 20
-177.5
 30
0.0
 40
1.500000000000075
100
AcDbArc
 50
289.6538240580517
 51
70.34617594194668
  0
LINE
  5
8DD
330
8C5
100
AcDbEntity
  8
OBJECT
  6
Continuous
 62
     0
100
AcDbLine
 10
-48.45982062419556
 20
-177.5
 30
0.0
 11
-58.50450459549711
 21
-181.0873871326077
 31
0.0
  0
ARC
  5
8DE
330
8C5
100
AcDbEntity
  8
OBJECT
  6
Continuous
 62
     0
100
AcDbCircle
 10
-57.9999999999999
 20
-182.5
 30
0.0
 40
1.499999999999899
100
AcDbArc
 50
70.34613305739289
 51
70.34613391116739
  0
ARC
  5
8DF
330
8C5
100
AcDbEntity
  8
OBJECT
  6
Continuous
 62
     0
100
AcDbCircle
 10
-57.9999999999999
 20
-182.5
 30
0.0
 40
1.499999999999968
100
AcDbArc
 50
109.6538240580533
 51
250.3462190666239
  0
LINE
  5
8E0
330
8C5
100
AcDbEntity
  8
OBJECT
  6
Continuous
 62
     0
100
AcDbLine
 10
-57.49549540450265
 20
-181.0873871326077
 30
0.0
 11
-57.49549390087135
 21
-181.0873876696188
 31
0.0
  0
LINE
  5
8E1
330
8C5
100
AcDbEntity
  8
OBJECT
  6
Continuous
 62
     0
100
AcDbLine
 10
-58.50450459549711
 20
-183.9126128673924
 30
0.0
 11
-48.45982062419556
 21
-187.5
 31
0.0
  0
LINE
  5
8E2
330
8C5
100
AcDbEntity
  8
OBJECT
  6
Continuous
 62
     0
100
AcDbLine
 10
-48.45982062419556
 20
-187.5
 30
0.0
 11
-58.50450459549711
 21
-191.0873871326077
 31
0.0
  0
ARC
  5
8E3
330
8C5
100
AcDbEntity
  8
OBJECT
  6
Continuous
 62
     0
100
AcDbCircle
 10
-57.9999999999999
 20
-192.5
 30
0.0
 40
1.499999999999899
100
AcDbArc
 50
70.34613305739289
 51
70.34613391116739
  0
ARC
  5
8E4
330
8C5
100
AcDbEntity
  8
OBJECT
  6
Continuous
 62
     0
100
AcDbCircle
 10
-57.9999999999999
 20
-192.5
 30
0.0
 40
1.499999999999968
100
AcDbArc
 50
109.6538240580533
 51
250.3462190666239
  0
LINE
  5
8E5
330
8C5
100
AcDbEntity
  8
OBJECT
  6
Continuous
 62
     0
100
AcDbLine
 10
-57.49549540450265
 20
-191.0873871326077
 30
0.0
 11
-57.49549390087135
 21
-191.0873876696188
 31
0.0
  0
LINE
  5
8E6
330
8C5
100
AcDbEntity
  8
OBJECT
  6
Continuous
 62
     0
100
AcDbLine
 10
-58.50450459549711
 20
-193.9126128673924
 30
0.0
 11
-48.45982062419556
 21
-197.5
 31
0.0
  0
LINE
  5
8E7
330
8C5
100
AcDbEntity
  8
OBJECT
  6
Continuous
 62
     0
100
AcDbLine
 10
-48.45982062419556
 20
-197.5
 30
0.0
 11
-58.50450459549711
 21
-201.0873871326077
 31
0.0
  0
ARC
  5
8E8
330
8C5
100
AcDbEntity
  8
OBJECT
  6
Continuous
 62
     0
100
AcDbCircle
 10
-57.9999999999999
 20
-202.4999999999999
 30
0.0
 40
1.499999999999899
100
AcDbArc
 50
70.34613305739289
 51
70.34613391116739
  0
ARC
  5
8E9
330
8C5
100
AcDbEntity
  8
OBJECT
  6
Continuous
 62
     0
100
AcDbCircle
 10
-57.9999999999999
 20
-202.4999999999999
 30
0.0
 40
1.499999999999968
100
AcDbArc
 50
109.6538240580533
 51
250.3462190666239
  0
LINE
  5
8EA
330
8C5
100
AcDbEntity
  8
OBJECT
  6
Continuous
 62
     0
100
AcDbLine
 10
-57.49549540450265
 20
-201.0873871326077
 30
0.0
 11
-57.49549390087135
 21
-201.0873876696188
 31
0.0
  0
LINE
  5
8EB
330
8C5
100
AcDbEntity
  8
OBJECT
  6
Continuous
 62
     0
100
AcDbLine
 10
-58.50450459549711
 20
-203.9126128673923
 30
0.0
 11
-48.45982062419556
 21
-207.5
 31
0.0
  0
LINE
  5
8EC
330
8C5
100
AcDbEntity
  8
OBJECT
  6
Continuous
 62
     0
100
AcDbLine
 10
-48.45982062419556
 20
-207.5
 30
0.0
 11
-58.50450459549711
 21
-211.0873871326077
 31
0.0
  0
ARC
  5
8ED
330
8C5
100
AcDbEntity
  8
OBJECT
  6
Continuous
 62
     0
100
AcDbCircle
 10
-57.9999999999999
 20
-212.5
 30
0.0
 40
1.499999999999899
100
AcDbArc
 50
70.34613305739289
 51
70.34613391116739
  0
ARC
  5
8EE
330
8C5
100
AcDbEntity
  8
OBJECT
  6
Continuous
 62
     0
100
AcDbCircle
 10
-57.9999999999999
 20
-212.5
 30
0.0
 40
1.499999999999968
100
AcDbArc
 50
109.6538240580533
 51
250.3462190666239
  0
LINE
  5
8EF
330
8C5
100
AcDbEntity
  8
OBJECT
  6
Continuous
 62
     0
100
AcDbLine
 10
-57.49549540450265
 20
-211.0873871326077
 30
0.0
 11
-57.49549390087135
 21
-211.0873876696188
 31
0.0
  0
LINE
  5
8F0
330
8C5
100
AcDbEntity
  8
OBJECT
  6
Continuous
 62
     0
100
AcDbLine
 10
-58.50450459549711
 20
-213.9126128673924
 30
0.0
 11
-48.45982062419556
 21
-217.5
 31
0.0
  0
LINE
  5
8F1
330
8C5
100
AcDbEntity
  8
OBJECT
  6
Continuous
 62
     0
100
AcDbLine
 10
-48.45982062419556
 20
-217.5
 30
0.0
 11
-58.50450459549711
 21
-221.0873871326077
 31
0.0
  0
ARC
  5
8F2
330
8C5
100
AcDbEntity
  8
OBJECT
  6
Continuous
 62
     0
100
AcDbCircle
 10
-57.9999999999999
 20
-222.5
 30
0.0
 40
1.499999999999899
100
AcDbArc
 50
70.34613305739289
 51
70.34613391116739
  0
ARC
  5
8F3
330
8C5
100
AcDbEntity
  8
OBJECT
  6
Continuous
 62
     0
100
AcDbCircle
 10
-57.9999999999999
 20
-222.5
 30
0.0
 40
1.499999999999968
100
AcDbArc
 50
109.6538240580533
 51
250.3462190666239
  0
LINE
  5
8F4
330
8C5
100
AcDbEntity
  8
OBJECT
  6
Continuous
 62
     0
100
AcDbLine
 10
-57.49549540450265
 20
-221.0873871326077
 30
0.0
 11
-57.49549390087135
 21
-221.0873876696188
 31
0.0
  0
LINE
  5
8F5
330
8C5
100
AcDbEntity
  8
OBJECT
  6
Continuous
 62
     0
100
AcDbLine
 10
-58.50450459549711
 20
-223.9126128673924
 30
0.0
 11
-48.45982062419556
 21
-227.4999999999999
 31
0.0
  0
LINE
  5
8F6
330
8C5
100
AcDbEntity
  8
OBJECT
  6
Continuous
 62
     0
100
AcDbLine
 10
-48.45982062419556
 20
-227.4999999999999
 30
0.0
 11
-58.50450459549711
 21
-231.0873871326077
 31
0.0
  0
ARC
  5
8F7
330
8C5
100
AcDbEntity
  8
OBJECT
  6
Continuous
 62
     0
100
AcDbCircle
 10
-57.9999999999999
 20
-232.5
 30
0.0
 40
1.499999999999899
100
AcDbArc
 50
70.34613305739289
 51
70.34613391116739
  0
ARC
  5
8F8
330
8C5
100
AcDbEntity
  8
OBJECT
  6
Continuous
 62
     0
100
AcDbCircle
 10
-57.9999999999999
 20
-232.5
 30
0.0
 40
1.499999999999968
100
AcDbArc
 50
109.6538240580533
 51
250.3462190666239
  0
LINE
  5
8F9
330
8C5
100
AcDbEntity
  8
OBJECT
  6
Continuous
 62
     0
100
AcDbLine
 10
-57.49549540450265
 20
-231.0873871326077
 30
0.0
 11
-57.49549390087135
 21
-231.0873876696188
 31
0.0
  0
LINE
  5
8FA
330
8C5
100
AcDbEntity
  8
OBJECT
  6
Continuous
 62
     0
100
AcDbLine
 10
-58.50450459549711
 20
-233.9126128673924
 30
0.0
 11
-48.45982062419556
 21
-237.5
 31
0.0
  0
LINE
  5
8FB
330
8C5
100
AcDbEntity
  8
OBJECT
  6
Continuous
 62
     0
100
AcDbLine
 10
-48.45982062419556
 20
-237.5
 30
0.0
 11
-58.50450459549711
 21
-241.0873871326077
 31
0.0
  0
ARC
  5
8FC
330
8C5
100
AcDbEntity
  8
OBJECT
  6
Continuous
 62
     0
100
AcDbCircle
 10
-57.9999999999999
 20
-242.5
 30
0.0
 40
1.499999999999899
100
AcDbArc
 50
70.34613305739289
 51
70.34613391116739
  0
ARC
  5
8FD
330
8C5
100
AcDbEntity
  8
OBJECT
  6
Continuous
 62
     0
100
AcDbCircle
 10
-57.9999999999999
 20
-242.5
 30
0.0
 40
1.499999999999968
100
AcDbArc
 50
109.6538240580533
 51
250.3462190666239
  0
LINE
  5
8FE
330
8C5
100
AcDbEntity
  8
OBJECT
  6
Continuous
 62
     0
100
AcDbLine
 10
-57.49549540450265
 20
-241.0873871326077
 30
0.0
 11
-57.49549390087135
 21
-241.0873876696188
 31
0.0
  0
LINE
  5
8FF
330
8C5
100
AcDbEntity
  8
OBJECT
  6
Continuous
 62
     0
100
AcDbLine
 10
-58.50450459549711
 20
-243.9126128673923
 30
0.0
 11
-48.45982062419556
 21
-247.5
 31
0.0
  0
LINE
  5
900
330
8C5
100
AcDbEntity
  8
OBJECT
  6
Continuous
 62
     0
100
AcDbLine
 10
-48.45982062419556
 20
-247.5
 30
0.0
 11
-58.50450459549711
 21
-251.0873871326077
 31
0.0
  0
ARC
  5
901
330
8C5
100
AcDbEntity
  8
OBJECT
  6
Continuous
 62
     0
100
AcDbCircle
 10
-57.9999999999999
 20
-252.4999999999999
 30
0.0
 40
1.499999999999899
100
AcDbArc
 50
70.34613305739289
 51
70.34613391116739
  0
ARC
  5
902
330
8C5
100
AcDbEntity
  8
OBJECT
  6
Continuous
 62
     0
100
AcDbCircle
 10
-57.9999999999999
 20
-252.4999999999999
 30
0.0
 40
1.499999999999968
100
AcDbArc
 50
109.6538240580533
 51
250.3462190666239
  0
LINE
  5
903
330
8C5
100
AcDbEntity
  8
OBJECT
  6
Continuous
 62
     0
100
AcDbLine
 10
-57.49549540450265
 20
-251.0873871326077
 30
0.0
 11
-57.49549390087135
 21
-251.0873876696188
 31
0.0
  0
LINE
  5
904
330
8C5
100
AcDbEntity
  8
OBJECT
  6
Continuous
 62
     0
100
AcDbLine
 10
-58.50450459549711
 20
-253.9126128673923
 30
0.0
 11
-48.45982062419556
 21
-257.5
 31
0.0
  0
LINE
  5
905
330
8C5
100
AcDbEntity
  8
OBJECT
  6
Continuous
 62
     0
100
AcDbLine
 10
-48.45982062419556
 20
-257.5
 30
0.0
 11
-58.50450459549711
 21
-261.0873871326077
 31
0.0
  0
ARC
  5
906
330
8C5
100
AcDbEntity
  8
OBJECT
  6
Continuous
 62
     0
100
AcDbCircle
 10
-57.9999999999999
 20
-262.5
 30
0.0
 40
1.499999999999899
100
AcDbArc
 50
70.34613305739289
 51
70.34613391116739
  0
ARC
  5
907
330
8C5
100
AcDbEntity
  8
OBJECT
  6
Continuous
 62
     0
100
AcDbCircle
 10
-57.9999999999999
 20
-262.5
 30
0.0
 40
1.499999999999968
100
AcDbArc
 50
109.6538240580533
 51
250.3462190666239
  0
LINE
  5
908
330
8C5
100
AcDbEntity
  8
OBJECT
  6
Continuous
 62
     0
100
AcDbLine
 10
-57.49549540450265
 20
-261.0873871326077
 30
0.0
 11
-57.49549390087135
 21
-261.0873876696188
 31
0.0
  0
LINE
  5
909
330
8C5
100
AcDbEntity
  8
OBJECT
  6
Continuous
 62
     0
100
AcDbLine
 10
-58.50450459549711
 20
-263.9126128673924
 30
0.0
 11
-48.45982062419556
 21
-267.5
 31
0.0
  0
LINE
  5
90A
330
8C5
100
AcDbEntity
  8
OBJECT
  6
Continuous
 62
     0
100
AcDbLine
 10
-48.45982062419556
 20
-267.5
 30
0.0
 11
-58.50450459549711
 21
-271.0873871326077
 31
0.0
  0
ARC
  5
90B
330
8C5
100
AcDbEntity
  8
OBJECT
  6
Continuous
 62
     0
100
AcDbCircle
 10
-57.9999999999999
 20
-272.5
 30
0.0
 40
1.499999999999899
100
AcDbArc
 50
70.34613305739289
 51
70.34613391116739
  0
ARC
  5
90C
330
8C5
100
AcDbEntity
  8
OBJECT
  6
Continuous
 62
     0
100
AcDbCircle
 10
-57.9999999999999
 20
-272.5
 30
0.0
 40
1.499999999999968
100
AcDbArc
 50
109.6538240580533
 51
250.3462190666239
  0
LINE
  5
90D
330
8C5
100
AcDbEntity
  8
OBJECT
  6
Continuous
 62
     0
100
AcDbLine
 10
-57.49549540450265
 20
-271.0873871326077
 30
0.0
 11
-57.49549390087135
 21
-271.0873876696188
 31
0.0
  0
LINE
  5
90E
330
8C5
100
AcDbEntity
  8
OBJECT
  6
Continuous
 62
     0
100
AcDbLine
 10
-58.50450459549711
 20
-273.9126128673924
 30
0.0
 11
-48.45982062419556
 21
-277.4999999999999
 31
0.0
  0
LINE
  5
90F
330
8C5
100
AcDbEntity
  8
OBJECT
  6
Continuous
 62
     0
100
AcDbLine
 10
-48.45982062419556
 20
-277.4999999999999
 30
0.0
 11
-58.50450459549711
 21
-281.0873871326077
 31
0.0
  0
ARC
  5
910
330
8C5
100
AcDbEntity
  8
OBJECT
  6
Continuous
 62
     0
100
AcDbCircle
 10
-57.9999999999999
 20
-282.5
 30
0.0
 40
1.499999999999899
100
AcDbArc
 50
70.34613305739289
 51
70.34613391116739
  0
ARC
  5
911
330
8C5
100
AcDbEntity
  8
OBJECT
  6
Continuous
 62
     0
100
AcDbCircle
 10
-57.9999999999999
 20
-282.5
 30
0.0
 40
1.499999999999968
100
AcDbArc
 50
109.6538240580533
 51
250.3462190666239
  0
LINE
  5
912
330
8C5
100
AcDbEntity
  8
OBJECT
  6
Continuous
 62
     0
100
AcDbLine
 10
-57.49549540450265
 20
-281.0873871326077
 30
0.0
 11
-57.49549390087135
 21
-281.0873876696188
 31
0.0
  0
LINE
  5
913
330
8C5
100
AcDbEntity
  8
OBJECT
  6
Continuous
 62
     0
100
AcDbLine
 10
-58.50450459549711
 20
-283.9126128673924
 30
0.0
 11
-48.45982062419556
 21
-287.5
 31
0.0
  0
LINE
  5
914
330
8C5
100
AcDbEntity
  8
OBJECT
  6
Continuous
 62
     0
100
AcDbLine
 10
-48.45982062419556
 20
-287.5
 30
0.0
 11
-58.50450459549711
 21
-291.0873871326078
 31
0.0
  0
ARC
  5
915
330
8C5
100
AcDbEntity
  8
OBJECT
  6
Continuous
 62
     0
100
AcDbCircle
 10
-57.9999999999999
 20
-292.5
 30
0.0
 40
1.499999999999899
100
AcDbArc
 50
70.34613305739289
 51
70.34613391116739
  0
ARC
  5
916
330
8C5
100
AcDbEntity
  8
OBJECT
  6
Continuous
 62
     0
100
AcDbCircle
 10
-57.9999999999999
 20
-292.5
 30
0.0
 40
1.499999999999968
100
AcDbArc
 50
109.6538240580533
 51
250.3462190666239
  0
LINE
  5
917
330
8C5
100
AcDbEntity
  8
OBJECT
  6
Continuous
 62
     0
100
AcDbLine
 10
-57.49549540450265
 20
-291.0873871326078
 30
0.0
 11
-57.49549390087135
 21
-291.0873876696188
 31
0.0
  0
LINE
  5
918
330
8C5
100
AcDbEntity
  8
OBJECT
  6
Continuous
 62
     0
100
AcDbLine
 10
-58.50450459549711
 20
-293.9126128673923
 30
0.0
 11
-48.45982062419556
 21
-297.5
 31
0.0
  0
LINE
  5
919
330
8C5
100
AcDbEntity
  8
OBJECT
  6
Continuous
 62
     0
100
AcDbLine
 10
-48.45982062419556
 20
-297.5
 30
0.0
 11
-58.50450459549711
 21
-301.0873871326077
 31
0.0
  0
ARC
  5
91A
330
8C5
100
AcDbEntity
  8
OBJECT
  6
Continuous
 62
     0
100
AcDbCircle
 10
-57.9999999999999
 20
-302.4999999999999
 30
0.0
 40
1.499999999999899
100
AcDbArc
 50
70.34613305739289
 51
70.34613391116739
  0
ARC
  5
91B
330
8C5
100
AcDbEntity
  8
OBJECT
  6
Continuous
 62
     0
100
AcDbCircle
 10
-57.9999999999999
 20
-302.4999999999999
 30
0.0
 40
1.499999999999968
100
AcDbArc
 50
109.6538240580533
 51
250.3462190666239
  0
LINE
  5
91C
330
8C5
100
AcDbEntity
  8
OBJECT
  6
Continuous
 62
     0
100
AcDbLine
 10
-57.49549540450265
 20
-301.0873871326077
 30
0.0
 11
-57.49549390087135
 21
-301.0873876696188
 31
0.0
  0
LINE
  5
91D
330
8C5
100
AcDbEntity
  8
OBJECT
  6
Continuous
 62
     0
100
AcDbLine
 10
-58.50450459549711
 20
-303.9126128673923
 30
0.0
 11
-48.45982062419556
 21
-307.5
 31
0.0
  0
LINE
  5
91E
330
8C5
100
AcDbEntity
  8
OBJECT
  6
Continuous
 62
     0
100
AcDbLine
 10
-48.45982062419556
 20
-307.5
 30
0.0
 11
-58.50450459549711
 21
-311.0873871326077
 31
0.0
  0
ARC
  5
91F
330
8C5
100
AcDbEntity
  8
OBJECT
  6
Continuous
 62
     0
100
AcDbCircle
 10
-57.9999999999999
 20
-312.5
 30
0.0
 40
1.499999999999899
100
AcDbArc
 50
70.34613305739289
 51
70.34613391116739
  0
ARC
  5
920
330
8C5
100
AcDbEntity
  8
OBJECT
  6
Continuous
 62
     0
100
AcDbCircle
 10
-57.9999999999999
 20
-312.5
 30
0.0
 40
1.499999999999968
100
AcDbArc
 50
109.6538240580533
 51
250.3462190666239
  0
LINE
  5
921
330
8C5
100
AcDbEntity
  8
OBJECT
  6
Continuous
 62
     0
100
AcDbLine
 10
-57.49549540450265
 20
-311.0873871326077
 30
0.0
 11
-57.49549390087135
 21
-311.0873876696188
 31
0.0
  0
LINE
  5
922
330
8C5
100
AcDbEntity
  8
OBJECT
  6
Continuous
 62
     0
100
AcDbLine
 10
-58.50450459549711
 20
-313.9126128673924
 30
0.0
 11
-51.87373655342367
 21
-316.2807443109901
 31
0.0
  0
ARC
  5
923
330
8C5
100
AcDbEntity
  8
OBJECT
  6
Continuous
 62
     0
100
AcDbCircle
 10
-57.9999999999999
 20
-322.5
 30
0.0
 40
1.499999999999899
100
AcDbArc
 50
70.34613305739289
 51
70.34613391116739
  0
LINE
  5
924
330
8C5
100
AcDbEntity
  8
OBJECT
  6
Continuous
 62
     0
100
AcDbLine
 10
-57.49549540450265
 20
-321.0873871326077
 30
0.0
 11
-57.49549390087135
 21
-321.0873876696188
 31
0.0
  0
LINE
  5
925
330
8C5
100
AcDbEntity
  8
OBJECT
  6
Continuous
 62
     0
100
AcDbLine
 10
-53.54017937580443
 20
-182.5
 30
0.0
 11
-43.49549540450289
 21
-186.0873871326077
 31
0.0
  0
LINE
  5
926
330
8C5
100
AcDbEntity
  8
OBJECT
  6
Continuous
 62
     0
100
AcDbLine
 10
-43.49549540450289
 20
-188.9126128673924
 30
0.0
 11
-53.54017937580443
 21
-192.5
 31
0.0
  0
ARC
  5
927
330
8C5
100
AcDbEntity
  8
OBJECT
  6
Continuous
 62
     0
100
AcDbCircle
 10
-44.00000000000011
 20
-187.5
 30
0.0
 40
1.500000000000075
100
AcDbArc
 50
289.6538240580517
 51
70.34617594194668
  0
LINE
  5
928
330
8C5
100
AcDbEntity
  8
OBJECT
  6
Continuous
 62
     0
100
AcDbLine
 10
-53.54017937580443
 20
-192.5
 30
0.0
 11
-43.49549540450289
 21
-196.0873871326077
 31
0.0
  0
LINE
  5
929
330
8C5
100
AcDbEntity
  8
OBJECT
  6
Continuous
 62
     0
100
AcDbLine
 10
-43.49549540450289
 20
-198.9126128673923
 30
0.0
 11
-53.54017937580443
 21
-202.4999999999999
 31
0.0
  0
ARC
  5
92A
330
8C5
100
AcDbEntity
  8
OBJECT
  6
Continuous
 62
     0
100
AcDbCircle
 10
-44.00000000000011
 20
-197.5
 30
0.0
 40
1.500000000000075
100
AcDbArc
 50
289.6538240580517
 51
70.34617594194668
  0
LINE
  5
92B
330
8C5
100
AcDbEntity
  8
OBJECT
  6
Continuous
 62
     0
100
AcDbLine
 10
-53.54017937580443
 20
-202.4999999999999
 30
0.0
 11
-43.49549540450289
 21
-206.0873871326077
 31
0.0
  0
LINE
  5
92C
330
8C5
100
AcDbEntity
  8
OBJECT
  6
Continuous
 62
     0
100
AcDbLine
 10
-43.49549540450289
 20
-208.9126128673924
 30
0.0
 11
-53.54017937580443
 21
-212.5
 31
0.0
  0
ARC
  5
92D
330
8C5
100
AcDbEntity
  8
OBJECT
  6
Continuous
 62
     0
100
AcDbCircle
 10
-44.00000000000011
 20
-207.5
 30
0.0
 40
1.500000000000075
100
AcDbArc
 50
289.6538240580517
 51
70.34617594194668
  0
LINE
  5
92E
330
8C5
100
AcDbEntity
  8
OBJECT
  6
Continuous
 62
     0
100
AcDbLine
 10
-53.54017937580443
 20
-212.5
 30
0.0
 11
-43.49549540450289
 21
-216.0873871326077
 31
0.0
  0
LINE
  5
92F
330
8C5
100
AcDbEntity
  8
OBJECT
  6
Continuous
 62
     0
100
AcDbLine
 10
-43.49549540450289
 20
-218.9126128673923
 30
0.0
 11
-53.54017937580443
 21
-222.5
 31
0.0
  0
ARC
  5
930
330
8C5
100
AcDbEntity
  8
OBJECT
  6
Continuous
 62
     0
100
AcDbCircle
 10
-44.00000000000011
 20
-217.5
 30
0.0
 40
1.500000000000075
100
AcDbArc
 50
289.6538240580517
 51
70.34617594194668
  0
LINE
  5
931
330
8C5
100
AcDbEntity
  8
OBJECT
  6
Continuous
 62
     0
100
AcDbLine
 10
-53.54017937580443
 20
-222.5
 30
0.0
 11
-43.49549540450289
 21
-226.0873871326077
 31
0.0
  0
LINE
  5
932
330
8C5
100
AcDbEntity
  8
OBJECT
  6
Continuous
 62
     0
100
AcDbLine
 10
-43.49549540450289
 20
-228.9126128673923
 30
0.0
 11
-53.54017937580443
 21
-232.5
 31
0.0
  0
ARC
  5
933
330
8C5
100
AcDbEntity
  8
OBJECT
  6
Continuous
 62
     0
100
AcDbCircle
 10
-44.00000000000011
 20
-227.4999999999999
 30
0.0
 40
1.500000000000075
100
AcDbArc
 50
289.6538240580517
 51
70.34617594194668
  0
LINE
  5
934
330
8C5
100
AcDbEntity
  8
OBJECT
  6
Continuous
 62
     0
100
AcDbLine
 10
-53.54017937580443
 20
-232.5
 30
0.0
 11
-43.49549540450289
 21
-236.0873871326077
 31
0.0
  0
LINE
  5
935
330
8C5
100
AcDbEntity
  8
OBJECT
  6
Continuous
 62
     0
100
AcDbLine
 10
-43.49549540450289
 20
-238.9126128673924
 30
0.0
 11
-53.54017937580443
 21
-242.5
 31
0.0
  0
ARC
  5
936
330
8C5
100
AcDbEntity
  8
OBJECT
  6
Continuous
 62
     0
100
AcDbCircle
 10
-44.00000000000011
 20
-237.5
 30
0.0
 40
1.500000000000075
100
AcDbArc
 50
289.6538240580517
 51
70.34617594194668
  0
LINE
  5
937
330
8C5
100
AcDbEntity
  8
OBJECT
  6
Continuous
 62
     0
100
AcDbLine
 10
-53.54017937580443
 20
-242.5
 30
0.0
 11
-43.49549540450289
 21
-246.0873871326077
 31
0.0
  0
LINE
  5
938
330
8C5
100
AcDbEntity
  8
OBJECT
  6
Continuous
 62
     0
100
AcDbLine
 10
-43.49549540450289
 20
-248.9126128673924
 30
0.0
 11
-53.54017937580443
 21
-252.4999999999999
 31
0.0
  0
ARC
  5
939
330
8C5
100
AcDbEntity
  8
OBJECT
  6
Continuous
 62
     0
100
AcDbCircle
 10
-44.00000000000011
 20
-247.5
 30
0.0
 40
1.500000000000075
100
AcDbArc
 50
289.6538240580517
 51
70.34617594194668
  0
LINE
  5
93A
330
8C5
100
AcDbEntity
  8
OBJECT
  6
Continuous
 62
     0
100
AcDbLine
 10
-53.54017937580443
 20
-252.4999999999999
 30
0.0
 11
-43.49549540450289
 21
-256.0873871326077
 31
0.0
  0
LINE
  5
93B
330
8C5
100
AcDbEntity
  8
OBJECT
  6
Continuous
 62
     0
100
AcDbLine
 10
-43.49549540450289
 20
-258.9126128673924
 30
0.0
 11
-53.54017937580443
 21
-262.5
 31
0.0
  0
ARC
  5
93C
330
8C5
100
AcDbEntity
  8
OBJECT
  6
Continuous
 62
     0
100
AcDbCircle
 10
-44.00000000000011
 20
-257.5
 30
0.0
 40
1.500000000000075
100
AcDbArc
 50
289.6538240580517
 51
70.34617594194668
  0
LINE
  5
93D
330
8C5
100
AcDbEntity
  8
OBJECT
  6
Continuous
 62
     0
100
AcDbLine
 10
-53.54017937580443
 20
-262.5
 30
0.0
 11
-43.49549540450289
 21
-266.0873871326077
 31
0.0
  0
LINE
  5
93E
330
8C5
100
AcDbEntity
  8
OBJECT
  6
Continuous
 62
     0
100
AcDbLine
 10
-43.49549540450289
 20
-268.9126128673923
 30
0.0
 11
-53.54017937580443
 21
-272.5
 31
0.0
  0
ARC
  5
93F
330
8C5
100
AcDbEntity
  8
OBJECT
  6
Continuous
 62
     0
100
AcDbCircle
 10
-44.00000000000011
 20
-267.5
 30
0.0
 40
1.500000000000075
100
AcDbArc
 50
289.6538240580517
 51
70.34617594194668
  0
LINE
  5
940
330
8C5
100
AcDbEntity
  8
OBJECT
  6
Continuous
 62
     0
100
AcDbLine
 10
-53.54017937580443
 20
-272.5
 30
0.0
 11
-43.49549540450289
 21
-276.0873871326077
 31
0.0
  0
LINE
  5
941
330
8C5
100
AcDbEntity
  8
OBJECT
  6
Continuous
 62
     0
100
AcDbLine
 10
-43.49549540450289
 20
-278.9126128673923
 30
0.0
 11
-53.54017937580443
 21
-282.5
 31
0.0
  0
ARC
  5
942
330
8C5
100
AcDbEntity
  8
OBJECT
  6
Continuous
 62
     0
100
AcDbCircle
 10
-44.00000000000011
 20
-277.4999999999999
 30
0.0
 40
1.500000000000075
100
AcDbArc
 50
289.6538240580517
 51
70.34617594194668
  0
LINE
  5
943
330
8C5
100
AcDbEntity
  8
OBJECT
  6
Continuous
 62
     0
100
AcDbLine
 10
-53.54017937580443
 20
-282.5
 30
0.0
 11
-43.49549540450289
 21
-286.0873871326077
 31
0.0
  0
LINE
  5
944
330
8C5
100
AcDbEntity
  8
OBJECT
  6
Continuous
 62
     0
100
AcDbLine
 10
-43.49549540450289
 20
-288.9126128673924
 30
0.0
 11
-53.54017937580443
 21
-292.5
 31
0.0
  0
ARC
  5
945
330
8C5
100
AcDbEntity
  8
OBJECT
  6
Continuous
 62
     0
100
AcDbCircle
 10
-44.00000000000011
 20
-287.5
 30
0.0
 40
1.500000000000075
100
AcDbArc
 50
289.6538240580517
 51
70.34617594194668
  0
LINE
  5
946
330
8C5
100
AcDbEntity
  8
OBJECT
  6
Continuous
 62
     0
100
AcDbLine
 10
-53.54017937580443
 20
-292.5
 30
0.0
 11
-43.49549540450289
 21
-296.0873871326077
 31
0.0
  0
LINE
  5
947
330
8C5
100
AcDbEntity
  8
OBJECT
  6
Continuous
 62
     0
100
AcDbLine
 10
-43.49549540450289
 20
-298.9126128673924
 30
0.0
 11
-53.54017937580443
 21
-302.4999999999999
 31
0.0
  0
ARC
  5
948
330
8C5
100
AcDbEntity
  8
OBJECT
  6
Continuous
 62
     0
100
AcDbCircle
 10
-44.00000000000011
 20
-297.5
 30
0.0
 40
1.500000000000075
100
AcDbArc
 50
289.6538240580517
 51
70.34617594194668
  0
LINE
  5
949
330
8C5
100
AcDbEntity
  8
OBJECT
  6
Continuous
 62
     0
100
AcDbLine
 10
-53.54017937580443
 20
-302.4999999999999
 30
0.0
 11
-43.49549540450289
 21
-306.0873871326077
 31
0.0
  0
LINE
  5
94A
330
8C5
100
AcDbEntity
  8
OBJECT
  6
Continuous
 62
     0
100
AcDbLine
 10
-43.49549540450289
 20
-308.9126128673924
 30
0.0
 11
-53.54017937580443
 21
-312.5
 31
0.0
  0
ARC
  5
94B
330
8C5
100
AcDbEntity
  8
OBJECT
  6
Continuous
 62
     0
100
AcDbCircle
 10
-44.00000000000011
 20
-307.5
 30
0.0
 40
1.500000000000075
100
AcDbArc
 50
289.6538240580517
 51
70.34617594194668
  0
LINE
  5
94C
330
8C5
100
AcDbEntity
  8
OBJECT
  6
Continuous
 62
     0
100
AcDbLine
 10
-53.54017937580443
 20
-312.5
 30
0.0
 11
-43.49549540450289
 21
-316.0873871326077
 31
0.0
  0
LINE
  5
94D
330
8C5
100
AcDbEntity
  8
OBJECT
  6
Continuous
 62
     0
100
AcDbLine
 10
-52.5
 20
-331.4999999999999
 30
0.0
 11
-52.5
 21
-317.5
 31
0.0
  0
LINE
  5
94E
330
8C5
100
AcDbEntity
  8
OBJECT
  6
Continuous
 62
     0
100
AcDbLine
 10
-49.5
 20
-331.4999999999999
 30
0.0
 11
-49.5
 21
-319.0
 31
0.0
  0
LINE
  5
94F
330
8C5
100
AcDbEntity
  8
OBJECT
  6
Continuous
 62
     0
100
AcDbLine
 10
-51.0
 20
-319.0
 30
0.0
 11
-44.00000000000011
 21
-319.0
 31
0.0
  0
LINE
  5
950
330
8C5
100
AcDbEntity
  8
OBJECT
  6
Continuous
 62
     0
100
AcDbLine
 10
-51.0
 20
-316.0
 30
0.0
 11
-44.00000000000022
 21
-316.0
 31
0.0
  0
ARC
  5
951
330
8C5
100
AcDbEntity
  8
OBJECT
  6
Continuous
 62
     0
100
AcDbCircle
 10
-44.00000000000011
 20
-317.5
 30
0.0
 40
1.5
100
AcDbArc
 50
270.0
 51
90.00004579245745
  0
ARC
  5
952
330
8C5
100
AcDbEntity
  8
OBJECT
  6
Continuous
 62
     0
100
AcDbCircle
 10
-51.0
 20
-317.5
 30
0.0
 40
1.5
100
AcDbArc
 50
90.0
 51
270.0
  0
ARC
  5
953
330
8C5
100
AcDbEntity
  8
OBJECT
  6
Continuous
 62
     0
100
AcDbCircle
 10
-51.0
 20
-331.4999999999999
 30
0.0
 40
1.5
100
AcDbArc
 50
180.0
 51
0.0
  0
LINE
  5
954
330
8C5
100
AcDbEntity
  8
OBJECT
  6
Continuous
 62
     0
100
AcDbLine
 10
-49.5
 20
-324.5
 30
0.0
 11
-52.5
 21
-324.5
 31
0.0
  0
ENDBLK
  5
955
330
8C5
100
AcDbEntity
  8
OBJECT
100
AcDbBlockEnd
  0
BLOCK
  5
957
330
956
100
AcDbEntity
  8
OBJECT
100
AcDbBlockBegin
  2
*U19
 70
     1
 10
0.0
 20
0.0
 30
0.0
  3
*U19
  1

  0
LINE
  5
958
330
956
100
AcDbEntity
  8
OBJECT
  6
Continuous
 62
     0
100
AcDbLine
 10
-69.5
 20
-148.5
 30
0.0
 11
-69.5
 21
-162.4999999999998
 31
0.0
  0
LINE
  5
959
330
956
100
AcDbEntity
  8
OBJECT
  6
Continuous
 62
     0
100
AcDbLine
 10
-72.5
 20
-148.5
 30
0.0
 11
-72.5
 21
-160.9999999999998
 31
0.0
  0
LINE
  5
95A
330
956
100
AcDbEntity
  8
OBJECT
  6
Continuous
 62
     0
100
AcDbLine
 10
-70.12626344656665
 20
-163.7192556890134
 30
0.0
 11
-63.49549540450289
 21
-166.0873871326077
 31
0.0
  0
LINE
  5
95B
330
956
100
AcDbEntity
  8
OBJECT
  6
Continuous
 62
     0
100
AcDbLine
 10
-78.50450459549711
 20
-163.9126128673923
 30
0.0
 11
-68.45982062419557
 21
-167.5
 31
0.0
  0
LINE
  5
95C
330
956
100
AcDbEntity
  8
OBJECT
  6
Continuous
 62
     0
100
AcDbLine
 10
-68.45982062419557
 20
-167.5
 30
0.0
 11
-78.50450459549711
 21
-171.0873871326077
 31
0.0
  0
LINE
  5
95D
330
956
100
AcDbEntity
  8
OBJECT
  6
Continuous
 62
     0
100
AcDbLine
 10
-63.49549540450289
 20
-168.9126128673923
 30
0.0
 11
-73.54017937580443
 21
-172.5
 31
0.0
  0
LINE
  5
95E
330
956
100
AcDbEntity
  8
OBJECT
  6
Continuous
 62
     0
100
AcDbLine
 10
-71.0
 20
-160.9999999999998
 30
0.0
 11
-77.99999999999987
 21
-161.0
 31
0.0
  0
LINE
  5
95F
330
956
100
AcDbEntity
  8
OBJECT
  6
Continuous
 62
     0
100
AcDbLine
 10
-71.0
 20
-163.9999999999998
 30
0.0
 11
-77.99999999999979
 21
-164.0
 31
0.0
  0
ARC
  5
960
330
956
100
AcDbEntity
  8
OBJECT
  6
Continuous
 62
     0
100
AcDbCircle
 10
-77.99999999999987
 20
-162.5
 30
0.0
 40
1.5
100
AcDbArc
 50
90.0
 51
270.0000457924575
  0
ARC
  5
961
330
956
100
AcDbEntity
  8
OBJECT
  6
Continuous
 62
     0
100
AcDbCircle
 10
-64.0000000000001
 20
-167.5
 30
0.0
 40
1.500000000000075
100
AcDbArc
 50
289.6538240580517
 51
70.34617594194668
  0
ARC
  5
962
330
956
100
AcDbEntity
  8
OBJECT
  6
Continuous
 62
     0
100
AcDbCircle
 10
-77.99999999999987
 20
-172.5
 30
0.0
 40
1.499999999999899
100
AcDbArc
 50
70.34613305739289
 51
70.34613391116739
  0
ARC
  5
963
330
956
100
AcDbEntity
  8
OBJECT
  6
Continuous
 62
     0
100
AcDbCircle
 10
-77.99999999999987
 20
-172.5
 30
0.0
 40
1.499999999999968
100
AcDbArc
 50
109.6538240580533
 51
250.3462190666239
  0
LINE
  5
964
330
956
100
AcDbEntity
  8
OBJECT
  6
Continuous
 62
     0
100
AcDbLine
 10
-77.49549540450266
 20
-171.0873871326077
 30
0.0
 11
-77.49549390087132
 21
-171.0873876696189
 31
0.0
  0
LINE
  5
965
330
956
100
AcDbEntity
  8
OBJECT
  6
Continuous
 62
     0
100
AcDbLine
 10
-73.54017937580443
 20
-172.5
 30
0.0
 11
-63.49549540450289
 21
-176.0873871326077
 31
0.0
  0
LINE
  5
966
330
956
100
AcDbEntity
  8
OBJECT
  6
Continuous
 62
     0
100
AcDbLine
 10
-78.50450459549711
 20
-173.9126128673923
 30
0.0
 11
-68.45982062419557
 21
-177.5
 31
0.0
  0
ARC
  5
967
330
956
100
AcDbEntity
  8
OBJECT
  6
Continuous
 62
     0
100
AcDbCircle
 10
-71.0
 20
-162.4999999999998
 30
0.0
 40
1.5
100
AcDbArc
 50
270.0
 51
90.0
  0
ARC
  5
968
330
956
100
AcDbEntity
  8
OBJECT
  6
Continuous
 62
     0
100
AcDbCircle
 10
-71.0
 20
-148.5
 30
0.0
 40
1.5
100
AcDbArc
 50
0.0
 51
19.47122063449052
  0
ARC
  5
969
330
956
100
AcDbEntity
  8
OBJECT
  6
Continuous
 62
     0
100
AcDbCircle
 10
-71.0
 20
-148.5
 30
0.0
 40
1.50000000000001
100
AcDbArc
 50
160.5287793655095
 51
180.0
  0
LINE
  5
96A
330
956
100
AcDbEntity
  8
OBJECT
  6
Continuous
 62
     0
100
AcDbLine
 10
-72.5
 20
-155.4999999999999
 30
0.0
 11
-69.5
 21
-155.4999999999999
 31
0.0
  0
LINE
  5
96B
330
956
100
AcDbEntity
  8
OBJECT
  6
Continuous
 62
     0
100
AcDbLine
 10
-68.45982062419557
 20
-177.5
 30
0.0
 11
-78.50450459549711
 21
-181.0873871326077
 31
0.0
  0
LINE
  5
96C
330
956
100
AcDbEntity
  8
OBJECT
  6
Continuous
 62
     0
100
AcDbLine
 10
-63.49549540450289
 20
-178.9126128673923
 30
0.0
 11
-73.54017937580443
 21
-182.5
 31
0.0
  0
ARC
  5
96D
330
956
100
AcDbEntity
  8
OBJECT
  6
Continuous
 62
     0
100
AcDbCircle
 10
-64.0000000000001
 20
-177.5
 30
0.0
 40
1.500000000000075
100
AcDbArc
 50
289.6538240580517
 51
70.34617594194668
  0
LINE
  5
96E
330
956
100
AcDbEntity
  8
OBJECT
  6
Continuous
 62
     0
100
AcDbLine
 10
-68.45982062419557
 20
-177.5
 30
0.0
 11
-78.50450459549711
 21
-181.0873871326077
 31
0.0
  0
ARC
  5
96F
330
956
100
AcDbEntity
  8
OBJECT
  6
Continuous
 62
     0
100
AcDbCircle
 10
-77.99999999999987
 20
-182.5
 30
0.0
 40
1.499999999999899
100
AcDbArc
 50
70.34613305739289
 51
70.34613391116739
  0
ARC
  5
970
330
956
100
AcDbEntity
  8
OBJECT
  6
Continuous
 62
     0
100
AcDbCircle
 10
-77.99999999999987
 20
-182.5
 30
0.0
 40
1.499999999999968
100
AcDbArc
 50
109.6538240580533
 51
250.3462190666239
  0
LINE
  5
971
330
956
100
AcDbEntity
  8
OBJECT
  6
Continuous
 62
     0
100
AcDbLine
 10
-77.49549540450266
 20
-181.0873871326077
 30
0.0
 11
-77.49549390087132
 21
-181.0873876696188
 31
0.0
  0
LINE
  5
972
330
956
100
AcDbEntity
  8
OBJECT
  6
Continuous
 62
     0
100
AcDbLine
 10
-78.50450459549711
 20
-183.9126128673924
 30
0.0
 11
-68.45982062419557
 21
-187.5
 31
0.0
  0
LINE
  5
973
330
956
100
AcDbEntity
  8
OBJECT
  6
Continuous
 62
     0
100
AcDbLine
 10
-68.45982062419557
 20
-187.5
 30
0.0
 11
-78.50450459549711
 21
-191.0873871326077
 31
0.0
  0
ARC
  5
974
330
956
100
AcDbEntity
  8
OBJECT
  6
Continuous
 62
     0
100
AcDbCircle
 10
-77.99999999999987
 20
-192.5
 30
0.0
 40
1.499999999999899
100
AcDbArc
 50
70.34613305739289
 51
70.34613391116739
  0
ARC
  5
975
330
956
100
AcDbEntity
  8
OBJECT
  6
Continuous
 62
     0
100
AcDbCircle
 10
-77.99999999999987
 20
-192.5
 30
0.0
 40
1.499999999999968
100
AcDbArc
 50
109.6538240580533
 51
250.3462190666239
  0
LINE
  5
976
330
956
100
AcDbEntity
  8
OBJECT
  6
Continuous
 62
     0
100
AcDbLine
 10
-77.49549540450266
 20
-191.0873871326077
 30
0.0
 11
-77.49549390087132
 21
-191.0873876696188
 31
0.0
  0
LINE
  5
977
330
956
100
AcDbEntity
  8
OBJECT
  6
Continuous
 62
     0
100
AcDbLine
 10
-78.50450459549711
 20
-193.9126128673924
 30
0.0
 11
-68.45982062419557
 21
-197.5
 31
0.0
  0
LINE
  5
978
330
956
100
AcDbEntity
  8
OBJECT
  6
Continuous
 62
     0
100
AcDbLine
 10
-68.45982062419557
 20
-197.5
 30
0.0
 11
-78.50450459549711
 21
-201.0873871326077
 31
0.0
  0
ARC
  5
979
330
956
100
AcDbEntity
  8
OBJECT
  6
Continuous
 62
     0
100
AcDbCircle
 10
-77.99999999999987
 20
-202.4999999999999
 30
0.0
 40
1.499999999999899
100
AcDbArc
 50
70.34613305739289
 51
70.34613391116739
  0
ARC
  5
97A
330
956
100
AcDbEntity
  8
OBJECT
  6
Continuous
 62
     0
100
AcDbCircle
 10
-77.99999999999987
 20
-202.4999999999999
 30
0.0
 40
1.499999999999968
100
AcDbArc
 50
109.6538240580533
 51
250.3462190666239
  0
LINE
  5
97B
330
956
100
AcDbEntity
  8
OBJECT
  6
Continuous
 62
     0
100
AcDbLine
 10
-77.49549540450266
 20
-201.0873871326077
 30
0.0
 11
-77.49549390087132
 21
-201.0873876696188
 31
0.0
  0
LINE
  5
97C
330
956
100
AcDbEntity
  8
OBJECT
  6
Continuous
 62
     0
100
AcDbLine
 10
-78.50450459549711
 20
-203.9126128673923
 30
0.0
 11
-68.45982062419557
 21
-207.5
 31
0.0
  0
LINE
  5
97D
330
956
100
AcDbEntity
  8
OBJECT
  6
Continuous
 62
     0
100
AcDbLine
 10
-68.45982062419557
 20
-207.5
 30
0.0
 11
-78.50450459549711
 21
-211.0873871326077
 31
0.0
  0
ARC
  5
97E
330
956
100
AcDbEntity
  8
OBJECT
  6
Continuous
 62
     0
100
AcDbCircle
 10
-77.99999999999987
 20
-212.5
 30
0.0
 40
1.499999999999899
100
AcDbArc
 50
70.34613305739289
 51
70.34613391116739
  0
ARC
  5
97F
330
956
100
AcDbEntity
  8
OBJECT
  6
Continuous
 62
     0
100
AcDbCircle
 10
-77.99999999999987
 20
-212.5
 30
0.0
 40
1.499999999999968
100
AcDbArc
 50
109.6538240580533
 51
250.3462190666239
  0
LINE
  5
980
330
956
100
AcDbEntity
  8
OBJECT
  6
Continuous
 62
     0
100
AcDbLine
 10
-77.49549540450266
 20
-211.0873871326077
 30
0.0
 11
-77.49549390087132
 21
-211.0873876696188
 31
0.0
  0
LINE
  5
981
330
956
100
AcDbEntity
  8
OBJECT
  6
Continuous
 62
     0
100
AcDbLine
 10
-78.50450459549711
 20
-213.9126128673924
 30
0.0
 11
-68.45982062419557
 21
-217.5
 31
0.0
  0
LINE
  5
982
330
956
100
AcDbEntity
  8
OBJECT
  6
Continuous
 62
     0
100
AcDbLine
 10
-68.45982062419557
 20
-217.5
 30
0.0
 11
-78.50450459549711
 21
-221.0873871326077
 31
0.0
  0
ARC
  5
983
330
956
100
AcDbEntity
  8
OBJECT
  6
Continuous
 62
     0
100
AcDbCircle
 10
-77.99999999999987
 20
-222.5
 30
0.0
 40
1.499999999999899
100
AcDbArc
 50
70.34613305739289
 51
70.34613391116739
  0
ARC
  5
984
330
956
100
AcDbEntity
  8
OBJECT
  6
Continuous
 62
     0
100
AcDbCircle
 10
-77.99999999999987
 20
-222.5
 30
0.0
 40
1.499999999999968
100
AcDbArc
 50
109.6538240580533
 51
250.3462190666239
  0
LINE
  5
985
330
956
100
AcDbEntity
  8
OBJECT
  6
Continuous
 62
     0
100
AcDbLine
 10
-77.49549540450266
 20
-221.0873871326077
 30
0.0
 11
-77.49549390087132
 21
-221.0873876696188
 31
0.0
  0
LINE
  5
986
330
956
100
AcDbEntity
  8
OBJECT
  6
Continuous
 62
     0
100
AcDbLine
 10
-78.50450459549711
 20
-223.9126128673924
 30
0.0
 11
-68.45982062419557
 21
-227.4999999999999
 31
0.0
  0
LINE
  5
987
330
956
100
AcDbEntity
  8
OBJECT
  6
Continuous
 62
     0
100
AcDbLine
 10
-68.45982062419557
 20
-227.4999999999999
 30
0.0
 11
-78.50450459549711
 21
-231.0873871326077
 31
0.0
  0
ARC
  5
988
330
956
100
AcDbEntity
  8
OBJECT
  6
Continuous
 62
     0
100
AcDbCircle
 10
-77.99999999999987
 20
-232.5
 30
0.0
 40
1.499999999999899
100
AcDbArc
 50
70.34613305739289
 51
70.34613391116739
  0
ARC
  5
989
330
956
100
AcDbEntity
  8
OBJECT
  6
Continuous
 62
     0
100
AcDbCircle
 10
-77.99999999999987
 20
-232.5
 30
0.0
 40
1.499999999999968
100
AcDbArc
 50
109.6538240580533
 51
250.3462190666239
  0
LINE
  5
98A
330
956
100
AcDbEntity
  8
OBJECT
  6
Continuous
 62
     0
100
AcDbLine
 10
-77.49549540450266
 20
-231.0873871326077
 30
0.0
 11
-77.49549390087132
 21
-231.0873876696188
 31
0.0
  0
LINE
  5
98B
330
956
100
AcDbEntity
  8
OBJECT
  6
Continuous
 62
     0
100
AcDbLine
 10
-78.50450459549711
 20
-233.9126128673924
 30
0.0
 11
-68.45982062419557
 21
-237.5
 31
0.0
  0
LINE
  5
98C
330
956
100
AcDbEntity
  8
OBJECT
  6
Continuous
 62
     0
100
AcDbLine
 10
-68.45982062419557
 20
-237.5
 30
0.0
 11
-78.50450459549711
 21
-241.0873871326077
 31
0.0
  0
ARC
  5
98D
330
956
100
AcDbEntity
  8
OBJECT
  6
Continuous
 62
     0
100
AcDbCircle
 10
-77.99999999999987
 20
-242.5
 30
0.0
 40
1.499999999999899
100
AcDbArc
 50
70.34613305739289
 51
70.34613391116739
  0
ARC
  5
98E
330
956
100
AcDbEntity
  8
OBJECT
  6
Continuous
 62
     0
100
AcDbCircle
 10
-77.99999999999987
 20
-242.5
 30
0.0
 40
1.499999999999968
100
AcDbArc
 50
109.6538240580533
 51
250.3462190666239
  0
LINE
  5
98F
330
956
100
AcDbEntity
  8
OBJECT
  6
Continuous
 62
     0
100
AcDbLine
 10
-77.49549540450266
 20
-241.0873871326077
 30
0.0
 11
-77.49549390087132
 21
-241.0873876696188
 31
0.0
  0
LINE
  5
990
330
956
100
AcDbEntity
  8
OBJECT
  6
Continuous
 62
     0
100
AcDbLine
 10
-78.50450459549711
 20
-243.9126128673923
 30
0.0
 11
-68.45982062419557
 21
-247.5
 31
0.0
  0
LINE
  5
991
330
956
100
AcDbEntity
  8
OBJECT
  6
Continuous
 62
     0
100
AcDbLine
 10
-68.45982062419557
 20
-247.5
 30
0.0
 11
-78.50450459549711
 21
-251.0873871326077
 31
0.0
  0
ARC
  5
992
330
956
100
AcDbEntity
  8
OBJECT
  6
Continuous
 62
     0
100
AcDbCircle
 10
-77.99999999999987
 20
-252.4999999999999
 30
0.0
 40
1.499999999999899
100
AcDbArc
 50
70.34613305739289
 51
70.34613391116739
  0
ARC
  5
993
330
956
100
AcDbEntity
  8
OBJECT
  6
Continuous
 62
     0
100
AcDbCircle
 10
-77.99999999999987
 20
-252.4999999999999
 30
0.0
 40
1.499999999999968
100
AcDbArc
 50
109.6538240580533
 51
250.3462190666239
  0
LINE
  5
994
330
956
100
AcDbEntity
  8
OBJECT
  6
Continuous
 62
     0
100
AcDbLine
 10
-77.49549540450266
 20
-251.0873871326077
 30
0.0
 11
-77.49549390087132
 21
-251.0873876696188
 31
0.0
  0
LINE
  5
995
330
956
100
AcDbEntity
  8
OBJECT
  6
Continuous
 62
     0
100
AcDbLine
 10
-78.50450459549711
 20
-253.9126128673923
 30
0.0
 11
-68.45982062419557
 21
-257.5
 31
0.0
  0
LINE
  5
996
330
956
100
AcDbEntity
  8
OBJECT
  6
Continuous
 62
     0
100
AcDbLine
 10
-68.45982062419557
 20
-257.5
 30
0.0
 11
-78.50450459549711
 21
-261.0873871326077
 31
0.0
  0
ARC
  5
997
330
956
100
AcDbEntity
  8
OBJECT
  6
Continuous
 62
     0
100
AcDbCircle
 10
-77.99999999999987
 20
-262.5
 30
0.0
 40
1.499999999999899
100
AcDbArc
 50
70.34613305739289
 51
70.34613391116739
  0
ARC
  5
998
330
956
100
AcDbEntity
  8
OBJECT
  6
Continuous
 62
     0
100
AcDbCircle
 10
-77.99999999999987
 20
-262.5
 30
0.0
 40
1.499999999999968
100
AcDbArc
 50
109.6538240580533
 51
250.3462190666239
  0
LINE
  5
999
330
956
100
AcDbEntity
  8
OBJECT
  6
Continuous
 62
     0
100
AcDbLine
 10
-77.49549540450266
 20
-261.0873871326077
 30
0.0
 11
-77.49549390087132
 21
-261.0873876696188
 31
0.0
  0
LINE
  5
99A
330
956
100
AcDbEntity
  8
OBJECT
  6
Continuous
 62
     0
100
AcDbLine
 10
-78.50450459549711
 20
-263.9126128673924
 30
0.0
 11
-68.45982062419557
 21
-267.5
 31
0.0
  0
LINE
  5
99B
330
956
100
AcDbEntity
  8
OBJECT
  6
Continuous
 62
     0
100
AcDbLine
 10
-68.45982062419557
 20
-267.5
 30
0.0
 11
-78.50450459549711
 21
-271.0873871326077
 31
0.0
  0
ARC
  5
99C
330
956
100
AcDbEntity
  8
OBJECT
  6
Continuous
 62
     0
100
AcDbCircle
 10
-77.99999999999987
 20
-272.5
 30
0.0
 40
1.499999999999899
100
AcDbArc
 50
70.34613305739289
 51
70.34613391116739
  0
ARC
  5
99D
330
956
100
AcDbEntity
  8
OBJECT
  6
Continuous
 62
     0
100
AcDbCircle
 10
-77.99999999999987
 20
-272.5
 30
0.0
 40
1.499999999999968
100
AcDbArc
 50
109.6538240580533
 51
250.3462190666239
  0
LINE
  5
99E
330
956
100
AcDbEntity
  8
OBJECT
  6
Continuous
 62
     0
100
AcDbLine
 10
-77.49549540450266
 20
-271.0873871326077
 30
0.0
 11
-77.49549390087132
 21
-271.0873876696188
 31
0.0
  0
LINE
  5
99F
330
956
100
AcDbEntity
  8
OBJECT
  6
Continuous
 62
     0
100
AcDbLine
 10
-78.50450459549711
 20
-273.9126128673924
 30
0.0
 11
-68.45982062419557
 21
-277.4999999999999
 31
0.0
  0
LINE
  5
9A0
330
956
100
AcDbEntity
  8
OBJECT
  6
Continuous
 62
     0
100
AcDbLine
 10
-68.45982062419557
 20
-277.4999999999999
 30
0.0
 11
-78.50450459549711
 21
-281.0873871326077
 31
0.0
  0
ARC
  5
9A1
330
956
100
AcDbEntity
  8
OBJECT
  6
Continuous
 62
     0
100
AcDbCircle
 10
-77.99999999999987
 20
-282.5
 30
0.0
 40
1.499999999999899
100
AcDbArc
 50
70.34613305739289
 51
70.34613391116739
  0
ARC
  5
9A2
330
956
100
AcDbEntity
  8
OBJECT
  6
Continuous
 62
     0
100
AcDbCircle
 10
-77.99999999999987
 20
-282.5
 30
0.0
 40
1.499999999999968
100
AcDbArc
 50
109.6538240580533
 51
250.3462190666239
  0
LINE
  5
9A3
330
956
100
AcDbEntity
  8
OBJECT
  6
Continuous
 62
     0
100
AcDbLine
 10
-77.49549540450266
 20
-281.0873871326077
 30
0.0
 11
-77.49549390087132
 21
-281.0873876696188
 31
0.0
  0
LINE
  5
9A4
330
956
100
AcDbEntity
  8
OBJECT
  6
Continuous
 62
     0
100
AcDbLine
 10
-78.50450459549711
 20
-283.9126128673924
 30
0.0
 11
-68.45982062419557
 21
-287.5
 31
0.0
  0
LINE
  5
9A5
330
956
100
AcDbEntity
  8
OBJECT
  6
Continuous
 62
     0
100
AcDbLine
 10
-68.45982062419557
 20
-287.5
 30
0.0
 11
-78.50450459549711
 21
-291.0873871326078
 31
0.0
  0
ARC
  5
9A6
330
956
100
AcDbEntity
  8
OBJECT
  6
Continuous
 62
     0
100
AcDbCircle
 10
-77.99999999999987
 20
-292.5
 30
0.0
 40
1.499999999999899
100
AcDbArc
 50
70.34613305739289
 51
70.34613391116739
  0
ARC
  5
9A7
330
956
100
AcDbEntity
  8
OBJECT
  6
Continuous
 62
     0
100
AcDbCircle
 10
-77.99999999999987
 20
-292.5
 30
0.0
 40
1.499999999999968
100
AcDbArc
 50
109.6538240580533
 51
250.3462190666239
  0
LINE
  5
9A8
330
956
100
AcDbEntity
  8
OBJECT
  6
Continuous
 62
     0
100
AcDbLine
 10
-77.49549540450266
 20
-291.0873871326078
 30
0.0
 11
-77.49549390087132
 21
-291.0873876696188
 31
0.0
  0
LINE
  5
9A9
330
956
100
AcDbEntity
  8
OBJECT
  6
Continuous
 62
     0
100
AcDbLine
 10
-78.50450459549711
 20
-293.9126128673923
 30
0.0
 11
-68.45982062419557
 21
-297.5
 31
0.0
  0
LINE
  5
9AA
330
956
100
AcDbEntity
  8
OBJECT
  6
Continuous
 62
     0
100
AcDbLine
 10
-68.45982062419557
 20
-297.5
 30
0.0
 11
-78.50450459549711
 21
-301.0873871326077
 31
0.0
  0
ARC
  5
9AB
330
956
100
AcDbEntity
  8
OBJECT
  6
Continuous
 62
     0
100
AcDbCircle
 10
-77.99999999999987
 20
-302.4999999999999
 30
0.0
 40
1.499999999999899
100
AcDbArc
 50
70.34613305739289
 51
70.34613391116739
  0
ARC
  5
9AC
330
956
100
AcDbEntity
  8
OBJECT
  6
Continuous
 62
     0
100
AcDbCircle
 10
-77.99999999999987
 20
-302.4999999999999
 30
0.0
 40
1.499999999999968
100
AcDbArc
 50
109.6538240580533
 51
250.3462190666239
  0
LINE
  5
9AD
330
956
100
AcDbEntity
  8
OBJECT
  6
Continuous
 62
     0
100
AcDbLine
 10
-77.49549540450266
 20
-301.0873871326077
 30
0.0
 11
-77.49549390087132
 21
-301.0873876696188
 31
0.0
  0
LINE
  5
9AE
330
956
100
AcDbEntity
  8
OBJECT
  6
Continuous
 62
     0
100
AcDbLine
 10
-78.50450459549711
 20
-303.9126128673923
 30
0.0
 11
-68.45982062419557
 21
-307.5
 31
0.0
  0
LINE
  5
9AF
330
956
100
AcDbEntity
  8
OBJECT
  6
Continuous
 62
     0
100
AcDbLine
 10
-68.45982062419557
 20
-307.5
 30
0.0
 11
-78.50450459549711
 21
-311.0873871326077
 31
0.0
  0
ARC
  5
9B0
330
956
100
AcDbEntity
  8
OBJECT
  6
Continuous
 62
     0
100
AcDbCircle
 10
-77.99999999999987
 20
-312.5
 30
0.0
 40
1.499999999999899
100
AcDbArc
 50
70.34613305739289
 51
70.34613391116739
  0
ARC
  5
9B1
330
956
100
AcDbEntity
  8
OBJECT
  6
Continuous
 62
     0
100
AcDbCircle
 10
-77.99999999999987
 20
-312.5
 30
0.0
 40
1.499999999999968
100
AcDbArc
 50
109.6538240580533
 51
250.3462190666239
  0
LINE
  5
9B2
330
956
100
AcDbEntity
  8
OBJECT
  6
Continuous
 62
     0
100
AcDbLine
 10
-77.49549540450266
 20
-311.0873871326077
 30
0.0
 11
-77.49549390087132
 21
-311.0873876696188
 31
0.0
  0
LINE
  5
9B3
330
956
100
AcDbEntity
  8
OBJECT
  6
Continuous
 62
     0
100
AcDbLine
 10
-78.50450459549711
 20
-313.9126128673924
 30
0.0
 11
-71.87373655342367
 21
-316.2807443109901
 31
0.0
  0
ARC
  5
9B4
330
956
100
AcDbEntity
  8
OBJECT
  6
Continuous
 62
     0
100
AcDbCircle
 10
-77.99999999999987
 20
-322.5
 30
0.0
 40
1.499999999999899
100
AcDbArc
 50
70.34613305739289
 51
70.34613391116739
  0
LINE
  5
9B5
330
956
100
AcDbEntity
  8
OBJECT
  6
Continuous
 62
     0
100
AcDbLine
 10
-77.49549540450266
 20
-321.0873871326077
 30
0.0
 11
-77.49549390087132
 21
-321.0873876696188
 31
0.0
  0
LINE
  5
9B6
330
956
100
AcDbEntity
  8
OBJECT
  6
Continuous
 62
     0
100
AcDbLine
 10
-73.54017937580443
 20
-182.5
 30
0.0
 11
-63.49549540450289
 21
-186.0873871326077
 31
0.0
  0
LINE
  5
9B7
330
956
100
AcDbEntity
  8
OBJECT
  6
Continuous
 62
     0
100
AcDbLine
 10
-63.49549540450289
 20
-188.9126128673924
 30
0.0
 11
-73.54017937580443
 21
-192.5
 31
0.0
  0
ARC
  5
9B8
330
956
100
AcDbEntity
  8
OBJECT
  6
Continuous
 62
     0
100
AcDbCircle
 10
-64.0000000000001
 20
-187.5
 30
0.0
 40
1.500000000000075
100
AcDbArc
 50
289.6538240580517
 51
70.34617594194668
  0
LINE
  5
9B9
330
956
100
AcDbEntity
  8
OBJECT
  6
Continuous
 62
     0
100
AcDbLine
 10
-73.54017937580443
 20
-192.5
 30
0.0
 11
-63.49549540450289
 21
-196.0873871326077
 31
0.0
  0
LINE
  5
9BA
330
956
100
AcDbEntity
  8
OBJECT
  6
Continuous
 62
     0
100
AcDbLine
 10
-63.49549540450289
 20
-198.9126128673923
 30
0.0
 11
-73.54017937580443
 21
-202.4999999999999
 31
0.0
  0
ARC
  5
9BB
330
956
100
AcDbEntity
  8
OBJECT
  6
Continuous
 62
     0
100
AcDbCircle
 10
-64.0000000000001
 20
-197.5
 30
0.0
 40
1.500000000000075
100
AcDbArc
 50
289.6538240580517
 51
70.34617594194668
  0
LINE
  5
9BC
330
956
100
AcDbEntity
  8
OBJECT
  6
Continuous
 62
     0
100
AcDbLine
 10
-73.54017937580443
 20
-202.4999999999999
 30
0.0
 11
-63.49549540450289
 21
-206.0873871326077
 31
0.0
  0
LINE
  5
9BD
330
956
100
AcDbEntity
  8
OBJECT
  6
Continuous
 62
     0
100
AcDbLine
 10
-63.49549540450289
 20
-208.9126128673924
 30
0.0
 11
-73.54017937580443
 21
-212.5
 31
0.0
  0
ARC
  5
9BE
330
956
100
AcDbEntity
  8
OBJECT
  6
Continuous
 62
     0
100
AcDbCircle
 10
-64.0000000000001
 20
-207.5
 30
0.0
 40
1.500000000000075
100
AcDbArc
 50
289.6538240580517
 51
70.34617594194668
  0
LINE
  5
9BF
330
956
100
AcDbEntity
  8
OBJECT
  6
Continuous
 62
     0
100
AcDbLine
 10
-73.54017937580443
 20
-212.5
 30
0.0
 11
-63.49549540450289
 21
-216.0873871326077
 31
0.0
  0
LINE
  5
9C0
330
956
100
AcDbEntity
  8
OBJECT
  6
Continuous
 62
     0
100
AcDbLine
 10
-63.49549540450289
 20
-218.9126128673923
 30
0.0
 11
-73.54017937580443
 21
-222.5
 31
0.0
  0
ARC
  5
9C1
330
956
100
AcDbEntity
  8
OBJECT
  6
Continuous
 62
     0
100
AcDbCircle
 10
-64.0000000000001
 20
-217.5
 30
0.0
 40
1.500000000000075
100
AcDbArc
 50
289.6538240580517
 51
70.34617594194668
  0
LINE
  5
9C2
330
956
100
AcDbEntity
  8
OBJECT
  6
Continuous
 62
     0
100
AcDbLine
 10
-73.54017937580443
 20
-222.5
 30
0.0
 11
-63.49549540450289
 21
-226.0873871326077
 31
0.0
  0
LINE
  5
9C3
330
956
100
AcDbEntity
  8
OBJECT
  6
Continuous
 62
     0
100
AcDbLine
 10
-63.49549540450289
 20
-228.9126128673923
 30
0.0
 11
-73.54017937580443
 21
-232.5
 31
0.0
  0
ARC
  5
9C4
330
956
100
AcDbEntity
  8
OBJECT
  6
Continuous
 62
     0
100
AcDbCircle
 10
-64.0000000000001
 20
-227.4999999999999
 30
0.0
 40
1.500000000000075
100
AcDbArc
 50
289.6538240580517
 51
70.34617594194668
  0
LINE
  5
9C5
330
956
100
AcDbEntity
  8
OBJECT
  6
Continuous
 62
     0
100
AcDbLine
 10
-73.54017937580443
 20
-232.5
 30
0.0
 11
-63.49549540450289
 21
-236.0873871326077
 31
0.0
  0
LINE
  5
9C6
330
956
100
AcDbEntity
  8
OBJECT
  6
Continuous
 62
     0
100
AcDbLine
 10
-63.49549540450289
 20
-238.9126128673924
 30
0.0
 11
-73.54017937580443
 21
-242.5
 31
0.0
  0
ARC
  5
9C7
330
956
100
AcDbEntity
  8
OBJECT
  6
Continuous
 62
     0
100
AcDbCircle
 10
-64.0000000000001
 20
-237.5
 30
0.0
 40
1.500000000000075
100
AcDbArc
 50
289.6538240580517
 51
70.34617594194668
  0
LINE
  5
9C8
330
956
100
AcDbEntity
  8
OBJECT
  6
Continuous
 62
     0
100
AcDbLine
 10
-73.54017937580443
 20
-242.5
 30
0.0
 11
-63.49549540450289
 21
-246.0873871326077
 31
0.0
  0
LINE
  5
9C9
330
956
100
AcDbEntity
  8
OBJECT
  6
Continuous
 62
     0
100
AcDbLine
 10
-63.49549540450289
 20
-248.9126128673924
 30
0.0
 11
-73.54017937580443
 21
-252.4999999999999
 31
0.0
  0
ARC
  5
9CA
330
956
100
AcDbEntity
  8
OBJECT
  6
Continuous
 62
     0
100
AcDbCircle
 10
-64.0000000000001
 20
-247.5
 30
0.0
 40
1.500000000000075
100
AcDbArc
 50
289.6538240580517
 51
70.34617594194668
  0
LINE
  5
9CB
330
956
100
AcDbEntity
  8
OBJECT
  6
Continuous
 62
     0
100
AcDbLine
 10
-73.54017937580443
 20
-252.4999999999999
 30
0.0
 11
-63.49549540450289
 21
-256.0873871326077
 31
0.0
  0
LINE
  5
9CC
330
956
100
AcDbEntity
  8
OBJECT
  6
Continuous
 62
     0
100
AcDbLine
 10
-63.49549540450289
 20
-258.9126128673924
 30
0.0
 11
-73.54017937580443
 21
-262.5
 31
0.0
  0
ARC
  5
9CD
330
956
100
AcDbEntity
  8
OBJECT
  6
Continuous
 62
     0
100
AcDbCircle
 10
-64.0000000000001
 20
-257.5
 30
0.0
 40
1.500000000000075
100
AcDbArc
 50
289.6538240580517
 51
70.34617594194668
  0
LINE
  5
9CE
330
956
100
AcDbEntity
  8
OBJECT
  6
Continuous
 62
     0
100
AcDbLine
 10
-73.54017937580443
 20
-262.5
 30
0.0
 11
-63.49549540450289
 21
-266.0873871326077
 31
0.0
  0
LINE
  5
9CF
330
956
100
AcDbEntity
  8
OBJECT
  6
Continuous
 62
     0
100
AcDbLine
 10
-63.49549540450289
 20
-268.9126128673923
 30
0.0
 11
-73.54017937580443
 21
-272.5
 31
0.0
  0
ARC
  5
9D0
330
956
100
AcDbEntity
  8
OBJECT
  6
Continuous
 62
     0
100
AcDbCircle
 10
-64.0000000000001
 20
-267.5
 30
0.0
 40
1.500000000000075
100
AcDbArc
 50
289.6538240580517
 51
70.34617594194668
  0
LINE
  5
9D1
330
956
100
AcDbEntity
  8
OBJECT
  6
Continuous
 62
     0
100
AcDbLine
 10
-73.54017937580443
 20
-272.5
 30
0.0
 11
-63.49549540450289
 21
-276.0873871326077
 31
0.0
  0
LINE
  5
9D2
330
956
100
AcDbEntity
  8
OBJECT
  6
Continuous
 62
     0
100
AcDbLine
 10
-63.49549540450289
 20
-278.9126128673923
 30
0.0
 11
-73.54017937580443
 21
-282.5
 31
0.0
  0
ARC
  5
9D3
330
956
100
AcDbEntity
  8
OBJECT
  6
Continuous
 62
     0
100
AcDbCircle
 10
-64.0000000000001
 20
-277.4999999999999
 30
0.0
 40
1.500000000000075
100
AcDbArc
 50
289.6538240580517
 51
70.34617594194668
  0
LINE
  5
9D4
330
956
100
AcDbEntity
  8
OBJECT
  6
Continuous
 62
     0
100
AcDbLine
 10
-73.54017937580443
 20
-282.5
 30
0.0
 11
-63.49549540450289
 21
-286.0873871326077
 31
0.0
  0
LINE
  5
9D5
330
956
100
AcDbEntity
  8
OBJECT
  6
Continuous
 62
     0
100
AcDbLine
 10
-63.49549540450289
 20
-288.9126128673924
 30
0.0
 11
-73.54017937580443
 21
-292.5
 31
0.0
  0
ARC
  5
9D6
330
956
100
AcDbEntity
  8
OBJECT
  6
Continuous
 62
     0
100
AcDbCircle
 10
-64.0000000000001
 20
-287.5
 30
0.0
 40
1.500000000000075
100
AcDbArc
 50
289.6538240580517
 51
70.34617594194668
  0
LINE
  5
9D7
330
956
100
AcDbEntity
  8
OBJECT
  6
Continuous
 62
     0
100
AcDbLine
 10
-73.54017937580443
 20
-292.5
 30
0.0
 11
-63.49549540450289
 21
-296.0873871326077
 31
0.0
  0
LINE
  5
9D8
330
956
100
AcDbEntity
  8
OBJECT
  6
Continuous
 62
     0
100
AcDbLine
 10
-63.49549540450289
 20
-298.9126128673924
 30
0.0
 11
-73.54017937580443
 21
-302.4999999999999
 31
0.0
  0
ARC
  5
9D9
330
956
100
AcDbEntity
  8
OBJECT
  6
Continuous
 62
     0
100
AcDbCircle
 10
-64.0000000000001
 20
-297.5
 30
0.0
 40
1.500000000000075
100
AcDbArc
 50
289.6538240580517
 51
70.34617594194668
  0
LINE
  5
9DA
330
956
100
AcDbEntity
  8
OBJECT
  6
Continuous
 62
     0
100
AcDbLine
 10
-73.54017937580443
 20
-302.4999999999999
 30
0.0
 11
-63.49549540450289
 21
-306.0873871326077
 31
0.0
  0
LINE
  5
9DB
330
956
100
AcDbEntity
  8
OBJECT
  6
Continuous
 62
     0
100
AcDbLine
 10
-63.49549540450289
 20
-308.9126128673924
 30
0.0
 11
-73.54017937580443
 21
-312.5
 31
0.0
  0
ARC
  5
9DC
330
956
100
AcDbEntity
  8
OBJECT
  6
Continuous
 62
     0
100
AcDbCircle
 10
-64.0000000000001
 20
-307.5
 30
0.0
 40
1.500000000000075
100
AcDbArc
 50
289.6538240580517
 51
70.34617594194668
  0
LINE
  5
9DD
330
956
100
AcDbEntity
  8
OBJECT
  6
Continuous
 62
     0
100
AcDbLine
 10
-73.54017937580443
 20
-312.5
 30
0.0
 11
-63.49549540450289
 21
-316.0873871326077
 31
0.0
  0
LINE
  5
9DE
330
956
100
AcDbEntity
  8
OBJECT
  6
Continuous
 62
     0
100
AcDbLine
 10
-72.5
 20
-331.4999999999999
 30
0.0
 11
-72.5
 21
-317.5
 31
0.0
  0
LINE
  5
9DF
330
956
100
AcDbEntity
  8
OBJECT
  6
Continuous
 62
     0
100
AcDbLine
 10
-69.5
 20
-331.4999999999999
 30
0.0
 11
-69.5
 21
-319.0
 31
0.0
  0
LINE
  5
9E0
330
956
100
AcDbEntity
  8
OBJECT
  6
Continuous
 62
     0
100
AcDbLine
 10
-71.0
 20
-319.0
 30
0.0
 11
-64.0000000000001
 21
-319.0
 31
0.0
  0
LINE
  5
9E1
330
956
100
AcDbEntity
  8
OBJECT
  6
Continuous
 62
     0
100
AcDbLine
 10
-71.0
 20
-316.0
 30
0.0
 11
-64.00000000000023
 21
-316.0
 31
0.0
  0
ARC
  5
9E2
330
956
100
AcDbEntity
  8
OBJECT
  6
Continuous
 62
     0
100
AcDbCircle
 10
-64.0000000000001
 20
-317.5
 30
0.0
 40
1.5
100
AcDbArc
 50
270.0
 51
90.00004579245745
  0
ARC
  5
9E3
330
956
100
AcDbEntity
  8
OBJECT
  6
Continuous
 62
     0
100
AcDbCircle
 10
-71.0
 20
-317.5
 30
0.0
 40
1.5
100
AcDbArc
 50
90.0
 51
270.0
  0
ARC
  5
9E4
330
956
100
AcDbEntity
  8
OBJECT
  6
Continuous
 62
     0
100
AcDbCircle
 10
-71.0
 20
-331.4999999999999
 30
0.0
 40
1.5
100
AcDbArc
 50
180.0
 51
0.0
  0
LINE
  5
9E5
330
956
100
AcDbEntity
  8
OBJECT
  6
Continuous
 62
     0
100
AcDbLine
 10
-69.5
 20
-324.5
 30
0.0
 11
-72.5
 21
-324.5
 31
0.0
  0
ENDBLK
  5
9E6
330
956
100
AcDbEntity
  8
OBJECT
100
AcDbBlockEnd
  0
BLOCK
  5
9E8
330
9E7
100
AcDbEntity
  8
DIMENTION
100
AcDbBlockBegin
  2
*D20
 70
     1
 10
0.0
 20
0.0
 30
0.0
  3
*D20
  1

  0
LINE
  5
9E9
330
9E7
100
AcDbEntity
  8
DIMENTION
  6
Continuous
 62
     0
100
AcDbLine
 10
1402.5
 20
-563.4644660940676
 30
0.0
 11
1402.5
 21
-720.0
 31
0.0
  0
LINE
  5
9EA
330
9E7
100
AcDbEntity
  8
DIMENTION
  6
Continuous
 62
     0
100
AcDbLine
 10
1674.5
 20
-563.4644660940676
 30
0.0
 11
1674.5
 21
-720.0
 31
0.0
  0
LINE
  5
9EB
330
9E7
100
AcDbEntity
  8
DIMENTION
  6
Continuous
 62
     0
100
AcDbLine
 10
1402.5
 20
-700.0
 30
0.0
 11
1674.5
 21
-700.0
 31
0.0
  0
LINE
  5
9EC
330
9E7
100
AcDbEntity
  8
DIMENTION
  6
Continuous
 62
     0
100
AcDbLine
 10
1402.5
 20
-700.0
 30
0.0
 11
1434.25
 21
-691.4926131403118
 31
0.0
  0
LINE
  5
9ED
330
9E7
100
AcDbEntity
  8
DIMENTION
  6
Continuous
 62
     0
100
AcDbLine
 10
1402.5
 20
-700.0
 30
0.0
 11
1434.25
 21
-708.5073868596881
 31
0.0
  0
LINE
  5
9EE
330
9E7
100
AcDbEntity
  8
DIMENTION
  6
Continuous
 62
     0
100
AcDbLine
 10
1674.5
 20
-700.0
 30
0.0
 11
1642.75
 21
-708.5073868596881
 31
0.0
  0
LINE
  5
9EF
330
9E7
100
AcDbEntity
  8
DIMENTION
  6
Continuous
 62
     0
100
AcDbLine
 10
1674.5
 20
-700.0
 30
0.0
 11
1642.75
 21
-691.4926131403118
 31
0.0
  0
TEXT
  5
9F0
330
9E7
100
AcDbEntity
  8
DIMENTION
 62
     0
100
AcDbText
 10
1466.180555555555
 20
-692.444444446307
 30
0.0
 40
28.22222222222222
  1
272(内寸)
  7
________
 11
1466.180555555555
 21
-664.2222222240848
 31
0.0
100
AcDbText
 73
     3
  0
POINT
  5
9F1
330
9E7
100
AcDbEntity
  8
DEFPOINTS
 62
     0
100
AcDbPoint
 10
1674.5
 20
-553.4644660940675
 30
0.0
  0
POINT
  5
9F2
330
9E7
100
AcDbEntity
  8
DEFPOINTS
 62
     0
100
AcDbPoint
 10
1402.5
 20
-553.4644660940675
 30
0.0
  0
POINT
  5
9F3
330
9E7
100
AcDbEntity
  8
DEFPOINTS
 62
     0
100
AcDbPoint
 10
1402.5
 20
-700.0
 30
0.0
  0
ENDBLK
  5
9F4
330
9E7
100
AcDbEntity
  8
DIMENTION
100
AcDbBlockEnd
  0
BLOCK
  5
9F6
330
9F5
100
AcDbEntity
  8
DIMENTION
100
AcDbBlockBegin
  2
*D21
 70
     1
 10
0.0
 20
0.0
 30
0.0
  3
*D21
  1

  0
LINE
  5
9F7
330
9F5
100
AcDbEntity
  8
DIMENTION
  6
Continuous
 62
     0
100
AcDbLine
 10
1396.035533905933
 20
-31.0
 30
0.0
 11
1230.0
 21
-31.0
 31
0.0
  0
LINE
  5
9F8
330
9F5
100
AcDbEntity
  8
DIMENTION
  6
Continuous
 62
     0
100
AcDbLine
 10
1396.035533905933
 20
-269.0
 30
0.0
 11
1230.0
 21
-269.0
 31
0.0
  0
LINE
  5
9F9
330
9F5
100
AcDbEntity
  8
DIMENTION
  6
Continuous
 62
     0
100
AcDbLine
 10
1250.0
 20
-31.0
 30
0.0
 11
1250.0
 21
-269.0
 31
0.0
  0
LINE
  5
9FA
330
9F5
100
AcDbEntity
  8
DIMENTION
  6
Continuous
 62
     0
100
AcDbLine
 10
1250.0
 20
-31.0
 30
0.0
 11
1258.507386859688
 21
-62.75
 31
0.0
  0
LINE
  5
9FB
330
9F5
100
AcDbEntity
  8
DIMENTION
  6
Continuous
 62
     0
100
AcDbLine
 10
1250.0
 20
-31.0
 30
0.0
 11
1241.492613140312
 21
-62.75
 31
0.0
  0
LINE
  5
9FC
330
9F5
100
AcDbEntity
  8
DIMENTION
  6
Continuous
 62
     0
100
AcDbLine
 10
1250.0
 20
-269.0
 30
0.0
 11
1241.492613140312
 21
-237.25
 31
0.0
  0
LINE
  5
9FD
330
9F5
100
AcDbEntity
  8
DIMENTION
  6
Continuous
 62
     0
100
AcDbLine
 10
1250.0
 20
-269.0
 30
0.0
 11
1258.507386859688
 21
-237.25
 31
0.0
  0
TEXT
  5
9FE
330
9F5
100
AcDbEntity
  8
DIMENTION
 62
     0
100
AcDbText
 10
1242.444444446307
 20
-222.3194444444444
 30
0.0
 40
28.22222222222222
  1
238(内寸)
 50
90.0
  7
________
 11
1214.222222224084
 21
-222.3194444444444
 31
0.0
100
AcDbText
 73
     3
  0
POINT
  5
9FF
330
9F5
100
AcDbEntity
  8
DEFPOINTS
 62
     0
100
AcDbPoint
 10
1406.035533905933
 20
-269.0
 30
0.0
  0
POINT
  5
A00
330
9F5
100
AcDbEntity
  8
DEFPOINTS
 62
     0
100
AcDbPoint
 10
1406.035533905933
 20
-31.0
 30
0.0
  0
POINT
  5
A01
330
9F5
100
AcDbEntity
  8
DEFPOINTS
 62
     0
100
AcDbPoint
 10
1250.0
 20
-31.0
 30
0.0
  0
ENDBLK
  5
A02
330
9F5
100
AcDbEntity
  8
DIMENTION
100
AcDbBlockEnd
  0
BLOCK
  5
A04
330
A03
100
AcDbEntity
  8
DIMENTION
100
AcDbBlockBegin
  2
*D22
 70
     1
 10
0.0
 20
0.0
 30
0.0
  3
*D22
  1

  0
LINE
  5
A05
330
A03
100
AcDbEntity
  8
DIMENTION
  6
Continuous
 62
     0
100
AcDbLine
 10
1800.0
 20
-16.00000000000011
 30
0.0
 11
1800.0
 21
120.0
 31
0.0
  0
LINE
  5
A06
330
A03
100
AcDbEntity
  8
DIMENTION
  6
Continuous
 62
     0
100
AcDbLine
 10
1810.0
 20
53.25
 30
0.0
 11
1810.0
 21
120.0
 31
0.0
  0
LINE
  5
A07
330
A03
100
AcDbEntity
  8
DIMENTION
  6
Continuous
 62
     0
100
AcDbLine
 10
1810.0
 20
100.0
 30
0.0
 11
1800.0
 21
100.0
 31
0.0
  0
LINE
  5
A08
330
A03
100
AcDbEntity
  8
DIMENTION
  6
Continuous
 62
     0
100
AcDbLine
 10
1800.0
 20
100.0
 30
0.0
 11
1656.666666666667
 21
100.0
 31
0.0
  0
LINE
  5
A09
330
A03
100
AcDbEntity
  8
DIMENTION
  6
Continuous
 62
     0
100
AcDbLine
 10
1800.0
 20
100.0
 30
0.0
 11
1768.25
 21
91.49261314031184
 31
0.0
  0
LINE
  5
A0A
330
A03
100
AcDbEntity
  8
DIMENTION
  6
Continuous
 62
     0
100
AcDbLine
 10
1800.0
 20
100.0
 30
0.0
 11
1768.25
 21
108.5073868596881
 31
0.0
  0
LINE
  5
A0B
330
A03
100
AcDbEntity
  8
DIMENTION
  6
Continuous
 62
     0
100
AcDbLine
 10
1810.0
 20
100.0
 30
0.0
 11
1870.0
 21
100.0
 31
0.0
  0
LINE
  5
A0C
330
A03
100
AcDbEntity
  8
DIMENTION
  6
Continuous
 62
     0
100
AcDbLine
 10
1810.0
 20
100.0
 30
0.0
 11
1841.75
 21
108.5073868596881
 31
0.0
  0
LINE
  5
A0D
330
A03
100
AcDbEntity
  8
DIMENTION
  6
Continuous
 62
     0
100
AcDbLine
 10
1810.0
 20
100.0
 30
0.0
 11
1841.75
 21
91.49261314031184
 31
0.0
  0
TEXT
  5
A0E
330
A03
100
AcDbEntity
  8
DIMENTION
 62
     0
100
AcDbText
 10
1656.666666666666
 20
107.5555555536928
 30
0.0
 40
28.22222222222222
  1
※5～6
  7
________
 11
1656.666666666666
 21
135.7777777759151
 31
0.0
100
AcDbText
 73
     3
  0
POINT
  5
A0F
330
A03
100
AcDbEntity
  8
DEFPOINTS
 62
     0
100
AcDbPoint
 10
1810.0
 20
43.25
 30
0.0
  0
POINT
  5
A10
330
A03
100
AcDbEntity
  8
DEFPOINTS
 62
     0
100
AcDbPoint
 10
1800.0
 20
-26.00000000000012
 30
0.0
  0
POINT
  5
A11
330
A03
100
AcDbEntity
  8
DEFPOINTS
 62
     0
100
AcDbPoint
 10
1800.0
 20
100.0
 30
0.0
  0
ENDBLK
  5
A12
330
A03
100
AcDbEntity
  8
DIMENTION
100
AcDbBlockEnd
  0
BLOCK
  5
A14
330
A13
100
AcDbEntity
  8
DIMENTION
100
AcDbBlockBegin
  2
*D23
 70
     1
 10
0.0
 20
0.0
 30
0.0
  3
*D23
  1

  0
LINE
  5
A15
330
A13
100
AcDbEntity
  8
DIMENTION
  6
Continuous
 62
     0
100
AcDbLine
 10
1396.035533905933
 20
-319.0
 30
0.0
 11
1230.0
 21
-319.0
 31
0.0
  0
LINE
  5
A16
330
A13
100
AcDbEntity
  8
DIMENTION
  6
Continuous
 62
     0
100
AcDbLine
 10
1396.035533905933
 20
-557.0
 30
0.0
 11
1230.0
 21
-557.0
 31
0.0
  0
LINE
  5
A17
330
A13
100
AcDbEntity
  8
DIMENTION
  6
Continuous
 62
     0
100
AcDbLine
 10
1250.0
 20
-319.0
 30
0.0
 11
1250.0
 21
-557.0
 31
0.0
  0
LINE
  5
A18
330
A13
100
AcDbEntity
  8
DIMENTION
  6
Continuous
 62
     0
100
AcDbLine
 10
1250.0
 20
-319.0
 30
0.0
 11
1258.507386859688
 21
-350.75
 31
0.0
  0
LINE
  5
A19
330
A13
100
AcDbEntity
  8
DIMENTION
  6
Continuous
 62
     0
100
AcDbLine
 10
1250.0
 20
-319.0
 30
0.0
 11
1241.492613140312
 21
-350.75
 31
0.0
  0
LINE
  5
A1A
330
A13
100
AcDbEntity
  8
DIMENTION
  6
Continuous
 62
     0
100
AcDbLine
 10
1250.0
 20
-557.0
 30
0.0
 11
1241.492613140312
 21
-525.25
 31
0.0
  0
LINE
  5
A1B
330
A13
100
AcDbEntity
  8
DIMENTION
  6
Continuous
 62
     0
100
AcDbLine
 10
1250.0
 20
-557.0
 30
0.0
 11
1258.507386859688
 21
-525.25
 31
0.0
  0
TEXT
  5
A1C
330
A13
100
AcDbEntity
  8
DIMENTION
 62
     0
100
AcDbText
 10
1242.444444446307
 20
-510.3194444444445
 30
0.0
 40
28.22222222222222
  1
238(内寸)
 50
90.0
  7
________
 11
1214.222222224084
 21
-510.3194444444445
 31
0.0
100
AcDbText
 73
     3
  0
POINT
  5
A1D
330
A13
100
AcDbEntity
  8
DEFPOINTS
 62
     0
100
AcDbPoint
 10
1406.035533905933
 20
-557.0
 30
0.0
  0
POINT
  5
A1E
330
A13
100
AcDbEntity
  8
DEFPOINTS
 62
     0
100
AcDbPoint
 10
1406.035533905933
 20
-319.0
 30
0.0
  0
POINT
  5
A1F
330
A13
100
AcDbEntity
  8
DEFPOINTS
 62
     0
100
AcDbPoint
 10
1250.0
 20
-319.0
 30
0.0
  0
ENDBLK
  5
A20
330
A13
100
AcDbEntity
  8
DIMENTION
100
AcDbBlockEnd
  0
BLOCK
  5
A22
330
A21
100
AcDbEntity
  8
DIMENTION
100
AcDbBlockBegin
  2
*D24
 70
     1
 10
0.0
 20
0.0
 30
0.0
  3
*D24
  1

  0
LINE
  5
A23
330
A21
100
AcDbEntity
  8
DIMENTION
 62
     0
100
AcDbLine
 10
1396.035533905933
 20
-269.0
 30
0.0
 11
1280.0
 21
-269.0
 31
0.0
  0
LINE
  5
A24
330
A21
100
AcDbEntity
  8
DIMENTION
 62
     0
100
AcDbLine
 10
1396.035533905933
 20
-319.0
 30
0.0
 11
1280.0
 21
-319.0
 31
0.0
  0
LINE
  5
A25
330
A21
100
AcDbEntity
  8
DIMENTION
 62
     0
100
AcDbLine
 10
1300.0
 20
-319.0
 30
0.0
 11
1300.0
 21
-269.0
 31
0.0
  0
LINE
  5
A26
330
A21
100
AcDbEntity
  8
DIMENTION
 62
     0
100
AcDbLine
 10
1300.0
 20
-269.0
 30
0.0
 11
1300.0
 21
-124.1666666666666
 31
0.0
  0
LINE
  5
A27
330
A21
100
AcDbEntity
  8
DIMENTION
 62
     0
100
AcDbLine
 10
1300.0
 20
-269.0
 30
0.0
 11
1291.492613140312
 21
-237.25
 31
0.0
  0
LINE
  5
A28
330
A21
100
AcDbEntity
  8
DIMENTION
 62
     0
100
AcDbLine
 10
1300.0
 20
-269.0
 30
0.0
 11
1308.507386859688
 21
-237.25
 31
0.0
  0
LINE
  5
A29
330
A21
100
AcDbEntity
  8
DIMENTION
 62
     0
100
AcDbLine
 10
1300.0
 20
-319.0
 30
0.0
 11
1300.0
 21
-379.0
 31
0.0
  0
LINE
  5
A2A
330
A21
100
AcDbEntity
  8
DIMENTION
 62
     0
100
AcDbLine
 10
1300.0
 20
-319.0
 30
0.0
 11
1308.507386859688
 21
-350.75
 31
0.0
  0
LINE
  5
A2B
330
A21
100
AcDbEntity
  8
DIMENTION
 62
     0
100
AcDbLine
 10
1300.0
 20
-319.0
 30
0.0
 11
1291.492613140312
 21
-350.75
 31
0.0
  0
TEXT
  5
A2C
330
A21
100
AcDbEntity
  8
DIMENTION
 62
     0
100
AcDbText
 10
1291.944444448169
 20
-230.0
 30
0.0
 40
28.22222222222222
  1
22以上
 50
90.0
  7
________
 11
1263.722222225947
 21
-230.0
 31
0.0
100
AcDbText
 73
     3
  0
POINT
  5
A2D
330
A21
100
AcDbEntity
  8
DEFPOINTS
 62
     0
100
AcDbPoint
 10
1406.035533905933
 20
-319.0
 30
0.0
  0
POINT
  5
A2E
330
A21
100
AcDbEntity
  8
DEFPOINTS
 62
     0
100
AcDbPoint
 10
1406.035533905933
 20
-269.0
 30
0.0
  0
POINT
  5
A2F
330
A21
100
AcDbEntity
  8
DEFPOINTS
 62
     0
100
AcDbPoint
 10
1300.0
 20
-269.0
 30
0.0
  0
ENDBLK
  5
A30
330
A21
100
AcDbEntity
  8
DIMENTION
100
AcDbBlockEnd
  0
ENDSEC
  0
SECTION
  2
ENTITIES
  0
LINE
  5
A31
330
6B8
100
AcDbEntity
  8
OBJECT
  6
Continuous
100
AcDbLine
 10
-2025.4
 20
-1389.0
 30
0.0
 11
-2025.4
 21
1330.999999999999
 31
0.0
  0
LINE
  5
A32
330
6B8
100
AcDbEntity
  8
OBJECT
  6
Continuous
100
AcDbLine
 10
2024.599999999999
 20
-1389.0
 30
0.0
 11
-2025.4
 21
-1389.0
 31
0.0
  0
LINE
  5
A33
330
6B8
100
AcDbEntity
  8
OBJECT
  6
Continuous
100
AcDbLine
 10
2024.599999999999
 20
1330.999999999999
 30
0.0
 11
2024.599999999999
 21
-1389.0
 31
0.0
  0
LINE
  5
A34
330
6B8
100
AcDbEntity
  8
OBJECT
  6
Continuous
100
AcDbLine
 10
-2025.4
 20
1330.999999999999
 30
0.0
 11
2024.599999999999
 21
1330.999999999999
 31
0.0
  0
LINE
  5
A35
330
6B8
100
AcDbEntity
  8
OBJECT
  6
Continuous
100
AcDbLine
 10
1264.359999999999
 20
-1389.0
 30
0.0
 11
1264.359999999999
 21
-1249.0
 31
0.0
  0
LINE
  5
A36
330
6B8
100
AcDbEntity
  8
OBJECT
  6
Continuous
100
AcDbLine
 10
1044.359999999999
 20
-1389.0
 30
0.0
 11
1044.359999999999
 21
-1249.0
 31
0.0
  0
LINE
  5
A37
330
6B8
100
AcDbEntity
  8
OBJECT
  6
Continuous
100
AcDbLine
 10
444.3599999999999
 20
-1389.0
 30
0.0
 11
444.3599999999999
 21
-1249.0
 31
0.0
  0
LINE
  5
A38
330
6B8
100
AcDbEntity
  8
OBJECT
  6
Continuous
100
AcDbLine
 10
-675.3999999999999
 20
-1389.0
 30
0.0
 11
-675.3999999999999
 21
-1249.0
 31
0.0
  0
TEXT
  5
A39
330
6B8
100
AcDbEntity
  8
OBJECT
100
AcDbText
 10
-650.64
 20
-1282.3524
 30
0.0
 40
28.2224
  1
品　名
  7
________
 11
-650.64
 21
-1254.13
 31
0.0
100
AcDbText
 73
     3
  0
TEXT
  5
A3A
330
6B8
100
AcDbEntity
  8
OBJECT
100
AcDbText
 10
464.36
 20
-1287.3524
 30
0.0
 40
28.2224
  1
形　式
  7
________
 11
464.36
 21
-1259.13
 31
0.0
100
AcDbText
 73
     3
  0
TEXT
  5
A3B
330
6B8
100
AcDbEntity
  8
OBJECT
100
AcDbText
 10
1069.36
 20
-1287.3524
 30
0.0
 40
28.2224
  1
尺　度
  7
________
 11
1069.36
 21
-1259.13
 31
0.0
100
AcDbText
 73
     3
  0
TEXT
  5
A3C
330
6B8
100
AcDbEntity
  8
OBJECT
100
AcDbText
 10
1289.36
 20
-1287.3524
 30
0.0
 40
28.2224
  1
図　番
  7
________
 11
1289.36
 21
-1259.13
 31
0.0
100
AcDbText
 73
     3
  0
LINE
  5
A3D
330
6B8
100
AcDbEntity
  8
OBJECT
  6
Continuous
100
AcDbLine
 10
-1095.4
 20
-1389.0
 30
0.0
 11
-1095.4
 21
-1249.0
 31
0.0
  0
TEXT
  5
A3E
330
6B8
100
AcDbEntity
  8
OBJECT
100
AcDbText
 10
1115.312
 20
-1353.525199999999
 30
0.0
 40
39.5112
  1
1/10
  7
________
 11
1115.312
 21
-1314.014
 31
0.0
100
AcDbText
 73
     3
  0
LINE
  5
A3F
330
6B8
100
AcDbEntity
  8
OBJECT
  6
Continuous
100
AcDbLine
 10
-2025.4
 20
-1249.0
 30
0.0
 11
2024.599999999999
 21
-1249.0
 31
0.0
  0
TEXT
  5
A40
330
6B8
100
AcDbEntity
  8
OBJECT
100
AcDbText
 10
-1085.64
 20
-1285.3312
 30
0.0
 40
28.2224
  1
検  図
  7
________
 11
-1085.64
 21
-1257.1088
 31
0.0
100
AcDbText
 73
     3
  0
TEXT
  5
A41
330
6B8
100
AcDbEntity
  8
OBJECT
100
AcDbText
 10
-1085.64
 20
-1330.412399999999
 30
0.0
 40
28.2224
  1
担  当
  7
________
 11
-1085.64
 21
-1302.189999999999
 31
0.0
100
AcDbText
 73
     3
  0
TEXT
  5
A42
330
6B8
100
AcDbEntity
  8
OBJECT
100
AcDbText
 10
-1085.64
 20
-1375.2824
 30
0.0
 40
28.2224
  1
年月日
  7
________
 11
-1085.64
 21
-1347.059999999999
 31
0.0
100
AcDbText
 73
     3
  0
LINE
  5
A43
330
6B8
100
AcDbEntity
  8
OBJECT
  6
Continuous
100
AcDbLine
 10
-1095.4
 20
-1297.939999999999
 30
0.0
 11
-675.3999999999999
 21
-1297.939999999999
 31
0.0
  0
LINE
  5
A44
330
6B8
100
AcDbEntity
  8
OBJECT
  6
Continuous
100
AcDbLine
 10
-1095.4
 20
-1342.33
 30
0.0
 11
-675.3999999999999
 21
-1342.33
 31
0.0
  0
TEXT
  5
A45
330
6B8
100
AcDbEntity
  8
TEXT
100
AcDbText
 10
-44.16500000000008
 20
-1354.546
 30
0.0
 40
39.5112
  1
食器ディスペンサー
  7
________
 11
-44.16500000000008
 21
-1315.0348
 31
0.0
100
AcDbText
 73
     3
  0
TEXT
  5
A46
330
6B8
100
AcDbEntity
  8
TEXT
100
AcDbText
 10
-930.0
 20
-1378.222222222222
 30
0.0
 40
28.22222222222222
  1
2007.07.03
  7
________
 11
-930.0
 21
-1350.0
 31
0.0
100
AcDbText
 73
     3
  0
TEXT
  5
A47
330
6B8
100
AcDbEntity
  8
TEXT
100
AcDbText
 10
-930.0
 20
-1330.222222222222
 30
0.0
 40
28.22222222222222
  1
月川
  7
________
 11
-930.0
 21
-1302.0
 31
0.0
100
AcDbText
 73
     3
  0
TEXT
  5
A48
330
6B8
100
AcDbEntity
  8
TEXT
100
AcDbText
 10
-930.0
 20
-1286.222222222222
 30
0.0
 40
28.22222222222222
  1
大谷
  7
________
 11
-930.0
 21
-1258.0
 31
0.0
100
AcDbText
 73
     3
  0
TEXT
  5
A49
330
6B8
100
AcDbEntity
  8
TEXT
100
AcDbText
 10
1430.0
 20
-1349.022222222222
 30
0.0
 40
79.02222222222224
  1
A330-118A
  7
________
 11
1430.0
 21
-1270.0
 31
0.0
100
AcDbText
 73
     3
  0
TEXT
  5
A4A
330
6B8
100
AcDbEntity
  8
TEXT
100
AcDbText
 10
615.3395454545456
 20
-1365.1293
 30
0.0
 40
50.8
  1
SN 23 H
  7
________
 72
     1
 11
744.3600000000001
 21
-1339.7293
 31
0.0
100
AcDbText
 73
     2
  0
POINT
  5
A4B
330
6B8
100
AcDbEntity
  8
DIMENTION
  6
Continuous
100
AcDbPoint
 10
2024.599999999999
 20
-1389.0
 30
0.0
  0
TEXT
  5
A4C
330
6B8
100
AcDbEntity
  8
TEXT
100
AcDbText
 10
699.5883838383838
 20
221.7777777777777
 30
0.0
 40
28.22222222222223
  1
落としこみ穴寸法
  7
________
 72
     1
 11
850.0
 21
250.0
 31
0.0
100
AcDbText
 73
     3
  0
TEXT
  5
A4D
330
6B8
100
AcDbEntity
  8
TEXT
100
AcDbText
 10
1399.588383838383
 20
221.7777777777777
 30
0.0
 40
28.22222222222223
  1
落としこみ穴寸法
  7
________
 72
     1
 11
1550.0
 21
250.0
 31
0.0
100
AcDbText
 73
     3
  0
TEXT
  5
A4E
330
6B8
100
AcDbEntity
  8
TEXT
100
AcDbText
 10
1398.866792929292
 20
186.5
 30
0.0
 40
28.22222222222223
  1
（2台並べる場合）
  7
________
 72
     1
 11
1550.0
 21
214.7222222222222
 31
0.0
100
AcDbText
 73
     3
  0
TEXT
  5
A4F
330
6B8
100
AcDbEntity
  8
TEXT
100
AcDbText
 10
581.4861111111108
 20
403.5277777777777
 30
0.0
 40
28.22222222222223
  1
%%u　　　　　　　　　　　　　　　　　　落としこみ穴加工指示　　　　　　　　　　　　　　　　　
  7
________
 72
     1
 11
1250.0
 21
417.6388888888888
 31
0.0
100
AcDbText
 73
     2
  0
TEXT
  5
A50
330
6B8
100
AcDbEntity
  8
TEXT
100
AcDbText
 10
577.9583333333331
 20
368.25
 30
0.0
 40
28.22222222222223
  1
%%uテーブル面の強度を保つため､穴のフチを※5～6折り上げることを推奨します。
  7
________
 72
     1
 11
1250.0
 21
382.3611111111111
 31
0.0
100
AcDbText
 73
     2
  0
LINE
  5
A51
330
6B8
100
AcDbEntity
  8
DIMENTION
  6
Continuous
100
AcDbLine
 10
-400.0
 20
-0.0000000000000036
 30
0.0
 11
-100.0
 21
-0.0000000000000036
 31
0.0
  0
LINE
  5
A52
330
6B8
100
AcDbEntity
  8
DIMENTION
  6
Continuous
100
AcDbLine
 10
-400.0
 20
-0.0000000000000036
 30
0.0
 11
-550.9482954626128
 21
-140.5053316255767
 31
0.0
  0
LINE
  5
A53
330
6B8
100
AcDbEntity
  8
DIMENTION
  6
Continuous
100
AcDbLine
 10
-550.9482954626128
 20
-140.5053316255767
 30
0.0
 11
-538.5443125506622
 21
-121.4048729277092
 31
0.0
  0
LINE
  5
A54
330
6B8
100
AcDbEntity
  8
DIMENTION
  6
Continuous
100
AcDbLine
 10
-550.9482954626128
 20
-140.5053316255767
 30
0.0
 11
-530.6559018038217
 21
-130.1658406252633
 31
0.0
  0
TEXT
  5
A55
330
6B8
100
AcDbEntity
  8
TEXT
100
AcDbText
 10
-397.0
 20
13.99437777777773
 30
0.0
 40
28.22222222222223
  1
リフトベアリング4個
  7
________
 11
-397.0
 21
42.21659999999996
 31
0.0
100
AcDbText
 73
     3
  0
LINE
  5
A56
330
6B8
100
AcDbEntity
  8
DIMENTION
  6
Continuous
100
AcDbLine
 10
-400.0
 20
-0.0000000000000036
 30
0.0
 11
-575.3451418190914
 21
-292.5648222616885
 31
0.0
  0
LINE
  5
A57
330
6B8
100
AcDbEntity
  8
DIMENTION
  6
Continuous
100
AcDbLine
 10
-575.3451418190914
 20
-292.5648222616885
 30
0.0
 11
-569.0675876379905
 21
-270.6723891385236
 31
0.0
  0
LINE
  5
A58
330
6B8
100
AcDbEntity
  8
DIMENTION
  6
Continuous
100
AcDbLine
 10
-575.3451418190914
 20
-292.5648222616885
 30
0.0
 11
-558.9624038630424
 21
-276.7441961169262
 31
0.0
  0
LINE
  5
A59
330
6B8
100
AcDbEntity
  8
OBJECT
  6
Continuous
100
AcDbLine
 10
702.5
 20
-265.4644660940676
 30
0.0
 11
702.5
 21
-34.53553390593242
 31
0.0
  0
LINE
  5
A5A
330
6B8
100
AcDbEntity
  8
OBJECT
  6
Continuous
100
AcDbLine
 10
974.5
 20
-34.53553390593254
 30
0.0
 11
974.5
 21
-265.4644660940676
 31
0.0
  0
LINE
  5
A5B
330
6B8
100
AcDbEntity
  8
OBJECT
  6
Continuous
100
AcDbLine
 10
706.0355339059331
 20
-31.0
 30
0.0
 11
970.9644660940668
 21
-31.0
 31
0.0
  0
LINE
  5
A5C
330
6B8
100
AcDbEntity
  8
CENTER
  6
STYLE_03
100
AcDbLine
 10
1150.0
 20
-150.0
 30
0.0
 11
650.0
 21
-150.0
 31
0.0
  0
LINE
  5
A5D
330
6B8
100
AcDbEntity
  8
OBJECT
  6
Continuous
100
AcDbLine
 10
702.2781745930522
 20
-26.0
 30
0.0
 11
974.7218254069474
 21
-26.0
 31
0.0
  0
LINE
  5
A5E
330
6B8
100
AcDbEntity
  8
OBJECT
  6
Continuous
100
AcDbLine
 10
1110.0
 20
43.25
 30
0.0
 11
1110.0
 21
-26.00000000000012
 31
0.0
  0
LINE
  5
A5F
330
6B8
100
AcDbEntity
  8
HIDDEN
  6
STYLE_04
100
AcDbLine
 10
1110.0
 20
-31.00000000000012
 30
0.0
 11
1110.0
 21
-269.0
 31
0.0
  0
LINE
  5
A60
330
6B8
100
AcDbEntity
  8
OBJECT
  6
Continuous
100
AcDbLine
 10
1100.0
 20
-40.99999999999989
 30
0.0
 11
1100.0
 21
-259.0
 31
0.0
  0
LINE
  5
A61
330
6B8
100
AcDbEntity
  8
OBJECT
  6
Continuous
100
AcDbLine
 10
1100.0
 20
-269.0
 30
0.0
 11
1100.0
 21
-271.5
 31
0.0
  0
LINE
  5
A62
330
6B8
100
AcDbEntity
  8
OBJECT
  6
Continuous
100
AcDbLine
 10
1100.0
 20
-26.00000000000012
 30
0.0
 11
1110.0
 21
-26.00000000000012
 31
0.0
  0
LINE
  5
A63
330
6B8
100
AcDbEntity
  8
OBJECT
  6
Continuous
100
AcDbLine
 10
1100.0
 20
-31.00000000000012
 30
0.0
 11
1115.0
 21
-31.00000000000012
 31
0.0
  0
LINE
  5
A64
330
6B8
100
AcDbEntity
  8
OBJECT
  6
Continuous
100
AcDbLine
 10
1100.0
 20
-31.00000000000012
 30
0.0
 11
1100.0
 21
-26.00000000000012
 31
0.0
  0
LINE
  5
A65
330
6B8
100
AcDbEntity
  8
OBJECT
  6
Continuous
100
AcDbLine
 10
1110.0
 20
-343.25
 30
0.0
 11
1110.0
 21
-274.0
 31
0.0
  0
LINE
  5
A66
330
6B8
100
AcDbEntity
  8
OBJECT
  6
Continuous
100
AcDbLine
 10
1100.0
 20
-274.0
 30
0.0
 11
1110.0
 21
-274.0
 31
0.0
  0
LINE
  5
A67
330
6B8
100
AcDbEntity
  8
OBJECT
  6
Continuous
100
AcDbLine
 10
1100.0
 20
-269.0
 30
0.0
 11
1115.0
 21
-269.0
 31
0.0
  0
LINE
  5
A68
330
6B8
100
AcDbEntity
  8
OBJECT
  6
Continuous
100
AcDbLine
 10
1100.0
 20
-269.0
 30
0.0
 11
1100.0
 21
-274.0
 31
0.0
  0
LINE
  5
A69
330
6B8
100
AcDbEntity
  8
OBJECT
  6
Continuous
100
AcDbLine
 10
1115.0
 20
45.66337913521568
 30
0.0
 11
1115.0
 21
-345.6633791352158
 31
0.0
  0
DIMENSION
  5
A6A
330
6B8
100
AcDbEntity
  8
DIMENTION
  6
Continuous
100
AcDbDimension
  2
*D1
 10
702.5
 20
-400.0
 30
0.0
 11
838.4999999999999
 21
-400.0
 31
0.0
 71
     5
 42
-1.0
  3
CAD
100
AcDbAlignedDimension
 13
974.5
 23
-265.4644660940676
 33
0.0
 14
702.5
 24
-265.4644660940676
 34
0.0
100
AcDbRotatedDimension
  0
DIMENSION
  5
A6B
330
6B8
100
AcDbEntity
  8
DIMENTION
  6
Continuous
100
AcDbDimension
  2
*D2
 10
600.0
 20
-31.0
 30
0.0
 11
600.0
 21
-150.0
 31
0.0
 71
     5
 42
-1.0
  3
CAD
100
AcDbAlignedDimension
 13
706.0355339059331
 23
-269.0
 33
0.0
 14
706.0355339059331
 24
-31.0
 34
0.0
 50
90.0
100
AcDbRotatedDimension
  0
ARC
  5
A6C
330
6B8
100
AcDbEntity
  8
OBJECT
  6
Continuous
100
AcDbCircle
 10
1116.249999999999
 20
36.6875
 30
0.0
 40
9.062500000000047
100
AcDbArc
 50
44.46927927641818
 51
133.6028189727036
  0
ARC
  5
A6D
330
6B8
100
AcDbEntity
  8
OBJECT
  6
Continuous
100
AcDbCircle
 10
1128.749999999999
 20
49.37797619047625
 30
0.0
 40
8.752976190476077
100
AcDbArc
 50
226.4312917557592
 51
315.5648114609636
  0
ARC
  5
A6E
330
6B8
100
AcDbEntity
  8
OBJECT
  6
Continuous
100
AcDbCircle
 10
1116.249999999999
 20
-336.6875000000002
 30
0.0
 40
9.062499999999918
100
AcDbArc
 50
226.3971810272958
 51
315.5307207235823
  0
ARC
  5
A6F
330
6B8
100
AcDbEntity
  8
OBJECT
  6
Continuous
100
AcDbCircle
 10
1128.749999999999
 20
-349.3779761904763
 30
0.0
 40
8.752976190476161
100
AcDbArc
 50
44.43518853903642
 51
133.5687082442408
  0
DIMENSION
  5
A70
330
6B8
100
AcDbEntity
  8
DIMENTION
  6
Continuous
100
AcDbDimension
  2
*D3
 10
1100.0
 20
100.0
 30
0.0
 11
1062.5
 21
100.4999999981373
 31
0.0
 70
   128
 71
     5
 42
-1.0
  3
CAD
100
AcDbAlignedDimension
 13
1110.0
 23
43.25
 33
0.0
 14
1100.0
 24
-26.00000000000012
 34
0.0
100
AcDbRotatedDimension
  0
LINE
  5
A71
330
6B8
100
AcDbEntity
  8
OBJECT
  6
Continuous
100
AcDbLine
 10
1100.0
 20
-41.00000000000011
 30
0.0
 11
1110.0
 21
-31.00000000000012
 31
0.0
  0
LINE
  5
A72
330
6B8
100
AcDbEntity
  8
OBJECT
  6
Continuous
100
AcDbLine
 10
1100.0
 20
-259.0
 30
0.0
 11
1110.0
 21
-269.0
 31
0.0
  0
LINE
  5
A73
330
6B8
100
AcDbEntity
  8
OBJECT
  6
Continuous
100
AcDbLine
 10
708.4999999999999
 20
-31.0
 30
0.0
 11
708.4999999999999
 21
-26.0
 31
0.0
  0
LINE
  5
A74
330
6B8
100
AcDbEntity
  8
DIMENTION
  6
Continuous
100
AcDbLine
 10
1110.0
 20
-308.625
 30
0.0
 11
1000.0
 21
-500.0
 31
0.0
  0
LINE
  5
A75
330
6B8
100
AcDbEntity
  8
DIMENTION
  6
Continuous
100
AcDbLine
 10
1110.0
 20
-308.625
 30
0.0
 11
1104.105477561573
 21
-330.6236572265626
 31
0.0
  0
LINE
  5
A76
330
6B8
100
AcDbEntity
  8
DIMENTION
  6
Continuous
100
AcDbLine
 10
1110.0
 20
-308.625
 30
0.0
 11
1093.895865211864
 21
-324.729134788136
 31
0.0
  0
LINE
  5
A77
330
6B8
100
AcDbEntity
  8
DIMENTION
  6
Continuous
100
AcDbLine
 10
1000.0
 20
-500.0
 30
0.0
 11
830.0
 21
-500.0
 31
0.0
  0
TEXT
  5
A78
330
6B8
100
AcDbEntity
  8
DIMENTION
100
AcDbText
 10
827.5
 20
-488.2222222222222
 30
0.0
 40
28.22222222222222
  1
テーブル面
  7
________
 11
827.5
 21
-460.0
 31
0.0
100
AcDbText
 73
     3
  0
POINT
  5
A79
330
6B8
100
AcDbEntity
  8
DIMENTION
  6
Continuous
100
AcDbPoint
 10
2024.6
 20
-1389.0
 30
0.0
  0
TEXT
  5
A7A
330
6B8
100
AcDbEntity
  8
TEXT
100
AcDbText
 10
210.0
 20
-438.2222399999999
 30
0.0
 40
28.22224
  1
バランス用ばね
  7
________
 11
210.0
 21
-410.0
 31
0.0
100
AcDbText
 73
     3
  0
TEXT
  5
A7B
330
6B8
100
AcDbEntity
  8
TEXT
100
AcDbText
 10
210.0
 20
-488.2222399999999
 30
0.0
 40
28.22224
  1
4 ～ 7本
  7
________
 11
210.0
 21
-460.0
 31
0.0
100
AcDbText
 73
     3
  0
LINE
  5
A7C
330
6B8
100
AcDbEntity
  8
DIMENTION
100
AcDbLine
 10
200.0
 20
-450.0
 30
0.0
 11
450.0
 21
-450.0
 31
0.0
  0
LINE
  5
A7D
330
6B8
100
AcDbEntity
  8
DIMENTION
100
AcDbLine
 10
200.0
 20
-450.0
 30
0.0
 11
200.0
 21
-500.0
 31
0.0
  0
LINE
  5
A7E
330
6B8
100
AcDbEntity
  8
DIMENTION
100
AcDbLine
 10
200.0
 20
-500.0
 30
0.0
 11
450.0
 21
-500.0
 31
0.0
  0
LINE
  5
A7F
330
6B8
100
AcDbEntity
  8
OBJECT
100
AcDbLine
 10
700.1568542494927
 20
-25.1213203435596
 30
0.0
 11
706.0355339059331
 21
-31.0
 31
0.0
  0
LINE
  5
A80
330
6B8
100
AcDbEntity
  8
OBJECT
100
AcDbLine
 10
696.62132034356
 20
-28.65685424949225
 30
0.0
 11
702.5
 21
-34.53553390593242
 31
0.0
  0
ARC
  5
A81
330
6B8
100
AcDbEntity
  8
OBJECT
  6
Continuous
100
AcDbCircle
 10
702.2781745930521
 20
-23.0
 30
0.0
 40
2.999999999999944
100
AcDbArc
 50
225.0000000000015
 51
270.0000000000022
  0
LINE
  5
A82
330
6B8
100
AcDbEntity
  8
OBJECT
100
AcDbLine
 10
700.1568542494927
 20
-25.12132034355966
 30
0.0
 11
696.62132034356
 21
-28.65685424949225
 31
0.0
  0
LINE
  5
A83
330
6B8
100
AcDbEntity
  8
OBJECT
  6
Continuous
100
AcDbLine
 10
702.5000000000003
 20
-36.9999999999996
 30
0.0
 11
697.5000000000003
 21
-36.9999999999996
 31
0.0
  0
ARC
  5
A84
330
6B8
100
AcDbEntity
  8
OBJECT
  6
Continuous
100
AcDbCircle
 10
694.5000000000003
 20
-30.7781745930518
 30
0.0
 40
3.0
100
AcDbArc
 50
359.9999999999977
 51
44.99999999999846
  0
LINE
  5
A85
330
6B8
100
AcDbEntity
  8
OBJECT
100
AcDbLine
 10
697.5000000000003
 20
-269.2218254069481
 30
0.0
 11
697.5000000000003
 21
-30.77817459305192
 31
0.0
  0
LINE
  5
A86
330
6B8
100
AcDbEntity
  8
OBJECT
  6
Continuous
100
AcDbLine
 10
968.5
 20
-31.0
 30
0.0
 11
968.5
 21
-26.0
 31
0.0
  0
LINE
  5
A87
330
6B8
100
AcDbEntity
  8
OBJECT
100
AcDbLine
 10
976.8431457505071
 20
-25.1213203435596
 30
0.0
 11
970.9644660940668
 21
-31.0
 31
0.0
  0
LINE
  5
A88
330
6B8
100
AcDbEntity
  8
OBJECT
100
AcDbLine
 10
980.37867965644
 20
-28.65685424949225
 30
0.0
 11
974.5
 21
-34.53553390593242
 31
0.0
  0
ARC
  5
A89
330
6B8
100
AcDbEntity
  8
OBJECT
  6
Continuous
100
AcDbCircle
 10
974.7218254069478
 20
-23.0
 30
0.0
 40
3.0
100
AcDbArc
 50
269.9999999999955
 51
314.9999999999985
  0
LINE
  5
A8A
330
6B8
100
AcDbEntity
  8
OBJECT
100
AcDbLine
 10
976.8431457505071
 20
-25.12132034355966
 30
0.0
 11
980.37867965644
 21
-28.65685424949225
 31
0.0
  0
LINE
  5
A8B
330
6B8
100
AcDbEntity
  8
OBJECT
  6
Continuous
100
AcDbLine
 10
974.4999999999997
 20
-36.9999999999996
 30
0.0
 11
979.4999999999996
 21
-36.9999999999996
 31
0.0
  0
ARC
  5
A8C
330
6B8
100
AcDbEntity
  8
OBJECT
  6
Continuous
100
AcDbCircle
 10
982.4999999999997
 20
-30.7781745930518
 30
0.0
 40
2.999999999999864
100
AcDbArc
 50
135.0
 51
180.0000000000022
  0
LINE
  5
A8D
330
6B8
100
AcDbEntity
  8
OBJECT
100
AcDbLine
 10
979.4999999999996
 20
-30.77817459305192
 30
0.0
 11
979.4999999999996
 21
-269.2218254069481
 31
0.0
  0
LINE
  5
A8E
330
6B8
100
AcDbEntity
  8
OBJECT
  6
Continuous
100
AcDbLine
 10
706.0355339059331
 20
-269.0
 30
0.0
 11
970.9644660940668
 21
-269.0
 31
0.0
  0
LINE
  5
A8F
330
6B8
100
AcDbEntity
  8
OBJECT
  6
Continuous
100
AcDbLine
 10
702.2781745930522
 20
-274.0
 30
0.0
 11
974.7218254069474
 21
-274.0
 31
0.0
  0
LINE
  5
A90
330
6B8
100
AcDbEntity
  8
OBJECT
  6
Continuous
100
AcDbLine
 10
708.4999999999999
 20
-269.0
 30
0.0
 11
708.4999999999999
 21
-274.0
 31
0.0
  0
LINE
  5
A91
330
6B8
100
AcDbEntity
  8
OBJECT
100
AcDbLine
 10
700.1568542494927
 20
-274.8786796564404
 30
0.0
 11
706.0355339059331
 21
-269.0
 31
0.0
  0
LINE
  5
A92
330
6B8
100
AcDbEntity
  8
OBJECT
100
AcDbLine
 10
696.62132034356
 20
-271.3431457505077
 30
0.0
 11
702.5
 21
-265.4644660940676
 31
0.0
  0
ARC
  5
A93
330
6B8
100
AcDbEntity
  8
OBJECT
  6
Continuous
100
AcDbCircle
 10
702.2781745930521
 20
-277.0
 30
0.0
 40
3.0
100
AcDbArc
 50
89.99999999999781
 51
134.9999999999984
  0
LINE
  5
A94
330
6B8
100
AcDbEntity
  8
OBJECT
100
AcDbLine
 10
700.1568542494927
 20
-274.8786796564404
 30
0.0
 11
696.62132034356
 21
-271.3431457505077
 31
0.0
  0
LINE
  5
A95
330
6B8
100
AcDbEntity
  8
OBJECT
  6
Continuous
100
AcDbLine
 10
702.5000000000003
 20
-263.0000000000003
 30
0.0
 11
697.5000000000003
 21
-263.0000000000003
 31
0.0
  0
ARC
  5
A96
330
6B8
100
AcDbEntity
  8
OBJECT
  6
Continuous
100
AcDbCircle
 10
694.5000000000003
 20
-269.2218254069481
 30
0.0
 40
2.999999999999944
100
AcDbArc
 50
315.0000000000015
 51
0.0000000000022169
  0
LINE
  5
A97
330
6B8
100
AcDbEntity
  8
OBJECT
  6
Continuous
100
AcDbLine
 10
968.5
 20
-269.0
 30
0.0
 11
968.5
 21
-274.0
 31
0.0
  0
LINE
  5
A98
330
6B8
100
AcDbEntity
  8
OBJECT
100
AcDbLine
 10
976.8431457505071
 20
-274.8786796564404
 30
0.0
 11
970.9644660940668
 21
-269.0
 31
0.0
  0
LINE
  5
A99
330
6B8
100
AcDbEntity
  8
OBJECT
100
AcDbLine
 10
980.37867965644
 20
-271.3431457505077
 30
0.0
 11
974.5
 21
-265.4644660940676
 31
0.0
  0
ARC
  5
A9A
330
6B8
100
AcDbEntity
  8
OBJECT
  6
Continuous
100
AcDbCircle
 10
974.7218254069478
 20
-277.0
 30
0.0
 40
2.999999999999944
100
AcDbArc
 50
45.00000000000155
 51
90.00000000000435
  0
LINE
  5
A9B
330
6B8
100
AcDbEntity
  8
OBJECT
100
AcDbLine
 10
976.8431457505071
 20
-274.8786796564404
 30
0.0
 11
980.37867965644
 21
-271.3431457505077
 31
0.0
  0
LINE
  5
A9C
330
6B8
100
AcDbEntity
  8
OBJECT
  6
Continuous
100
AcDbLine
 10
974.4999999999997
 20
-263.0000000000003
 30
0.0
 11
979.4999999999996
 21
-263.0000000000003
 31
0.0
  0
ARC
  5
A9D
330
6B8
100
AcDbEntity
  8
OBJECT
  6
Continuous
100
AcDbCircle
 10
982.4999999999997
 20
-269.2218254069481
 30
0.0
 40
3.0
100
AcDbArc
 50
179.9999999999978
 51
225.0
  0
LINE
  5
A9E
330
6B8
100
AcDbEntity
  8
CENTER
  6
STYLE_03
100
AcDbLine
 10
0.0
 20
-85.0
 30
0.0
 11
0.0
 21
-835.0
 31
0.0
  0
DIMENSION
  5
A9F
330
6B8
100
AcDbEntity
  8
DIMENTION
  6
Continuous
100
AcDbDimension
  2
*D4
 10
-200.0
 20
-120.0
 30
0.0
 11
-201.0
 21
-80.0
 31
0.0
 70
   128
 71
     5
 42
-1.0
  3
CAD
100
AcDbAlignedDimension
 13
-105.0
 23
-128.0
 33
0.0
 14
-105.0
 24
-120.0
 34
0.0
 50
90.0
100
AcDbRotatedDimension
  0
DIMENSION
  5
AA0
330
6B8
100
AcDbEntity
  8
DIMENTION
  6
Continuous
100
AcDbDimension
  2
*D5
 10
-300.0
 20
-800.0
 30
0.0
 11
-300.0
 21
-460.0
 31
0.0
 71
     5
 42
-1.0
  3
CAD
100
AcDbAlignedDimension
 13
-105.0
 23
-120.0
 33
0.0
 14
-91.0
 24
-800.0
 34
0.0
 50
90.0
100
AcDbRotatedDimension
  0
INSERT
  5
AA1
330
6B8
100
AcDbEntity
  8
OBJECT
100
AcDbBlockReference
  2
*U6
 10
0.0
 20
20.0
 30
0.0
  0
LINE
  5
AA2
330
6B8
100
AcDbEntity
  8
OBJECT
  6
Continuous
100
AcDbLine
 10
-1395.0
 20
-670.0
 30
0.0
 11
-1395.0
 21
-795.0
 31
0.0
  0
LINE
  5
AA3
330
6B8
100
AcDbEntity
  8
OBJECT
  6
Continuous
100
AcDbLine
 10
-1405.0
 20
-795.0
 30
0.0
 11
-1405.0
 21
-747.0381999999998
 31
0.0
  0
ARC
  5
AA4
330
6B8
100
AcDbEntity
  8
OBJECT
  6
Continuous
100
AcDbCircle
 10
-1400.0
 20
-795.0
 30
0.0
 40
5.0
100
AcDbArc
 50
180.0
 51
0.0
  0
LWPOLYLINE
  5
AA5
330
6B8
100
AcDbEntity
  8
OBJECT
  6
Continuous
100
AcDbPolyline
 90
        4
 70
     1
 43
0.0
 10
-1406.0
 20
-660.0
 10
-1394.0
 20
-660.0
 10
-1394.0
 20
-670.0
 10
-1406.0
 20
-670.0
  0
LINE
  5
AAB
330
6B8
100
AcDbEntity
  8
OBJECT
  6
Continuous
100
AcDbLine
 10
-1405.0
 20
-747.0381999999998
 30
0.0
 11
-1405.0
 21
-670.0
 31
0.0
  0
LWPOLYLINE
  5
AAC
330
6B8
100
AcDbEntity
  8
OBJECT
  6
Continuous
100
AcDbPolyline
 90
        8
 70
   129
 43
0.0
 10
-1405.0
 20
-660.0
 10
-1405.0
 20
-657.0
 42
0.4142135623730951
 10
-1425.0
 20
-637.0
 10
-1480.0
 20
-637.0
 10
-1480.0
 20
-627.0
 10
-1425.0
 20
-627.0
 42
-0.4142135623730951
 10
-1395.0
 20
-657.0
 10
-1395.0
 20
-660.0
  0
LWPOLYLINE
  5
AB6
330
6B8
100
AcDbEntity
  8
OBJECT
  6
Continuous
100
AcDbPolyline
 90
        4
 70
     1
 43
0.0
 10
-1510.0
 20
-624.5
 10
-1480.0
 20
-624.5
 10
-1480.0
 20
-639.5
 10
-1510.0
 20
-639.5
  0
LINE
  5
ABC
330
6B8
100
AcDbEntity
  8
OBJECT
  6
Continuous
100
AcDbLine
 10
-1495.0
 20
-639.5
 30
0.0
 11
-1495.0
 21
-624.5
 31
0.0
  0
LWPOLYLINE
  5
ABD
330
6B8
100
AcDbEntity
  8
OBJECT
  6
Continuous
100
AcDbPolyline
 90
        4
 70
     0
 43
0.0
 10
-1574.0
 20
-627.0
 10
-1510.0
 20
-627.0
 10
-1510.0
 20
-637.0
 10
-1573.0
 20
-637.0
  0
LWPOLYLINE
  5
AC3
330
6B8
100
AcDbEntity
  8
OBJECT
  6
Continuous
100
AcDbPolyline
 90
        5
 70
   128
 43
0.0
 10
-1572.499999999999
 20
-623.5
 10
-1574.538838648618
 20
-626.5582579729271
 42
0.3575107650277011
 10
-1574.0
 20
-632.0
 42
-0.3575107650276824
 10
-1573.461161351382
 20
-637.4417420270727
 10
-1575.5
 20
-640.5
  0
LWPOLYLINE
  5
ACA
330
6B8
100
AcDbEntity
  8
OBJECT
  6
Continuous
100
AcDbPolyline
 90
        4
 70
     1
 43
0.0
 10
-1415.0
 20
-660.0
 10
-1385.0
 20
-660.0
 10
-1385.0
 20
-670.0
 10
-1415.0
 20
-670.0
  0
LINE
  5
AD0
330
6B8
100
AcDbEntity
  8
OBJECT
  6
Continuous
100
AcDbLine
 10
-1395.0845
 20
-795.9154999999999
 30
0.0
 11
-1391.0
 21
-800.0
 31
0.0
  0
LINE
  5
AD1
330
6B8
100
AcDbEntity
  8
OBJECT
  6
Continuous
100
AcDbLine
 10
-1409.0
 20
-800.0
 30
0.0
 11
-1404.9155
 21
-795.9154999999999
 31
0.0
  0
LWPOLYLINE
  5
AD2
330
6B8
100
AcDbEntity
  8
OBJECT
  6
Continuous
100
AcDbPolyline
 90
        4
 70
     0
 43
0.0
 10
-1579.0
 20
-637.0
 10
-1643.0
 20
-637.0
 10
-1643.0
 20
-627.0
 10
-1580.0
 20
-627.0
  0
LWPOLYLINE
  5
AD8
330
6B8
100
AcDbEntity
  8
OBJECT
  6
Continuous
100
AcDbPolyline
 90
        5
 70
   128
 43
0.0
 10
-1580.499999999999
 20
-640.5
 10
-1578.461161351382
 20
-637.4417420270727
 42
0.3575107650276627
 10
-1579.0
 20
-632.0
 42
-0.3575107650277011
 10
-1579.538838648617
 20
-626.5582579729271
 10
-1577.5
 20
-623.5
  0
LINE
  5
ADF
330
6B8
100
AcDbEntity
  8
OBJECT
  6
Continuous
100
AcDbLine
 10
-1643.0
 20
-635.0
 30
0.0
 11
-1662.0
 21
-635.0
 31
0.0
  0
LINE
  5
AE0
330
6B8
100
AcDbEntity
  8
OBJECT
  6
Continuous
100
AcDbLine
 10
-1643.0
 20
-629.0
 30
0.0
 11
-1662.0
 21
-629.0
 31
0.0
  0
LINE
  5
AE1
330
6B8
100
AcDbEntity
  8
DIMENTION
  6
Continuous
100
AcDbLine
 10
-1550.0
 20
-400.0
 30
0.0
 11
-1610.0
 21
-627.0
 31
0.0
  0
LINE
  5
AE2
330
6B8
100
AcDbEntity
  8
DIMENTION
  6
Continuous
100
AcDbLine
 10
-1610.0
 20
-627.0
 30
0.0
 11
-1610.0
 21
-604.2253141723338
 31
0.0
  0
LINE
  5
AE3
330
6B8
100
AcDbEntity
  8
DIMENTION
  6
Continuous
100
AcDbLine
 10
-1610.0
 20
-627.0
 30
0.0
 11
-1598.612657086166
 21
-607.2765435100316
 31
0.0
  0
LINE
  5
AE4
330
6B8
100
AcDbEntity
  8
DIMENTION
  6
Continuous
100
AcDbLine
 10
-1600.0
 20
-900.0
 30
0.0
 11
-1495.0
 21
-639.5
 31
0.0
  0
LINE
  5
AE5
330
6B8
100
AcDbEntity
  8
DIMENTION
  6
Continuous
100
AcDbLine
 10
-1495.0
 20
-639.5
 30
0.0
 11
-1497.775536008076
 21
-662.1049267730903
 31
0.0
  0
LINE
  5
AE6
330
6B8
100
AcDbEntity
  8
DIMENTION
  6
Continuous
100
AcDbLine
 10
-1495.0
 20
-639.5
 30
0.0
 11
-1508.706148078657
 21
-657.6886728321451
 31
0.0
  0
LWPOLYLINE
  5
AE7
330
6B8
100
AcDbEntity
  8
OBJECT
  6
Continuous
100
AcDbPolyline
 90
        5
 70
   129
 43
0.0
 10
-1348.5
 20
-795.0
 42
-0.4142135623730951
 10
-1345.0
 20
-791.5
 42
-0.4142135623730951
 10
-1341.5
 20
-795.0
 42
-0.4142135623730951
 10
-1345.0
 20
-798.5
 42
-0.4142135623730951
 10
-1348.5
 20
-795.0
  0
LINE
  5
AEE
330
6B8
100
AcDbEntity
  8
OBJECT
  6
Continuous
100
AcDbLine
 10
-1347.5
 20
-795.0
 30
0.0
 11
-1342.5
 21
-795.0
 31
0.0
  0
LINE
  5
AEF
330
6B8
100
AcDbEntity
  8
OBJECT
  6
Continuous
100
AcDbLine
 10
-1345.0
 20
-797.5
 30
0.0
 11
-1345.0
 21
-792.4999999999999
 31
0.0
  0
LINE
  5
AF0
330
6B8
100
AcDbEntity
  8
DIMENTION
  6
Continuous
100
AcDbLine
 10
-1300.0
 20
-900.0
 30
0.0
 11
-1343.610107744315
 21
-798.2121954353591
 31
0.0
  0
LINE
  5
AF1
330
6B8
100
AcDbEntity
  8
DIMENTION
  6
Continuous
100
AcDbLine
 10
-1343.610107744315
 20
-798.2121954353591
 30
0.0
 11
-1329.588611067576
 21
-816.1588927775749
 31
0.0
  0
LINE
  5
AF2
330
6B8
100
AcDbEntity
  8
DIMENTION
  6
Continuous
100
AcDbLine
 10
-1343.610107744315
 20
-798.2121954353591
 30
0.0
 11
-1340.440484094288
 21
-820.7652395861183
 31
0.0
  0
TEXT
  5
AF3
330
6B8
100
AcDbEntity
  8
TEXT
100
AcDbText
 10
-1300.0
 20
-888.74072
 30
0.0
 40
28.74071999999999
  1
アース接続端子 M4
  7
________
 11
-1300.0
 21
-860.0
 31
0.0
100
AcDbText
 73
     3
  0
LINE
  5
AF4
330
6B8
100
AcDbEntity
  8
OBJECT
  6
Continuous
100
AcDbLine
 10
-1516.0
 20
-570.0
 30
0.0
 11
-1516.0
 21
-624.5
 31
0.0
  0
LINE
  5
AF5
330
6B8
100
AcDbEntity
  8
OBJECT
  6
Continuous
100
AcDbLine
 10
-1284.0
 20
-800.0
 30
0.0
 11
-1284.0
 21
-570.0
 31
0.0
  0
LINE
  5
AF6
330
6B8
100
AcDbEntity
  8
OBJECT
  6
Continuous
100
AcDbLine
 10
-1516.0
 20
-800.0
 30
0.0
 11
-1284.0
 21
-800.0
 31
0.0
  0
LINE
  5
AF7
330
6B8
100
AcDbEntity
  8
OBJECT
  6
Continuous
100
AcDbLine
 10
-1516.0
 20
-639.5
 30
0.0
 11
-1516.0
 21
-800.0
 31
0.0
  0
TEXT
  5
AF8
330
6B8
100
AcDbEntity
  8
TEXT
100
AcDbText
 10
-1830.0
 20
-888.8488
 30
0.0
 40
28.8488
  1
中間コネクター
  7
________
 11
-1830.0
 21
-860.0
 31
0.0
100
AcDbText
 73
     3
  0
TEXT
  5
AF9
330
6B8
100
AcDbEntity
  8
TEXT
100
AcDbText
 10
-498.2093999999996
 20
-985.0056222222221
 30
0.0
 40
28.22222222222222
  1
300Wヒーターユニット
  7
________
 11
-498.2093999999996
 21
-956.7834000000001
 31
0.0
100
AcDbText
 73
     3
  0
TEXT
  5
AFA
330
6B8
100
AcDbEntity
  8
TEXT
100
AcDbText
 10
-1103.0
 20
14.99437777777774
 30
0.0
 40
28.22222222222222
  1
収納式カバー
  7
________
 11
-1103.0
 21
43.21659999999996
 31
0.0
100
AcDbText
 73
     3
  0
TEXT
  5
AFB
330
6B8
100
AcDbEntity
  8
TEXT
100
AcDbText
 10
-793.0
 20
114.9943777777777
 30
0.0
 40
28.22222222222222
  1
カバー押さえボタン
  7
________
 11
-793.0
 21
143.2165999999999
 31
0.0
100
AcDbText
 73
     3
  0
DIMENSION
  5
AFC
330
6B8
100
AcDbEntity
  8
DIMENTION
  6
Continuous
100
AcDbDimension
  2
*D7
 10
-900.0
 20
-120.0
 30
0.0
 11
-901.0
 21
-90.0
 31
0.0
 70
   128
 71
     5
 42
-1.0
  3
CAD
100
AcDbAlignedDimension
 13
-764.0
 23
-135.0
 33
0.0
 14
-815.0
 24
-120.0
 34
0.0
 50
90.0
100
AcDbRotatedDimension
  0
DIMENSION
  5
AFD
330
6B8
100
AcDbEntity
  8
DIMENTION
  6
Continuous
100
AcDbDimension
  2
*D8
 10
-900.0
 20
-135.0
 30
0.0
 11
-900.0
 21
-372.5
 31
0.0
 71
     5
 42
-1.0
  3
CAD
100
AcDbAlignedDimension
 13
-764.0
 23
-610.0
 33
0.0
 14
-764.0
 24
-135.0
 34
0.0
 50
90.0
100
AcDbRotatedDimension
  0
LWPOLYLINE
  5
AFE
330
6B8
100
AcDbEntity
  8
TEXT
  6
Continuous
100
AcDbPolyline
 90
        4
 70
     1
 43
0.0
 10
774.6000000000003
 20
1230.999999999999
 10
1874.6
 20
1230.999999999999
 10
1874.6
 20
780.9999999999996
 10
774.6000000000003
 20
780.9999999999996
  0
LINE
  5
B04
330
6B8
100
AcDbEntity
  8
TEXT
  6
Continuous
100
AcDbLine
 10
774.6000000000003
 20
1080.999999999999
 30
0.0
 11
1874.6
 21
1080.999999999999
 31
0.0
  0
LINE
  5
B05
330
6B8
100
AcDbEntity
  8
TEXT
  6
Continuous
100
AcDbLine
 10
774.6000000000003
 20
1030.999999999999
 30
0.0
 11
1874.6
 21
1030.999999999999
 31
0.0
  0
LINE
  5
B06
330
6B8
100
AcDbEntity
  8
TEXT
  6
Continuous
100
AcDbLine
 10
1179.6
 20
1230.999999999999
 30
0.0
 11
1179.6
 21
780.9999999999996
 31
0.0
  0
LINE
  5
B07
330
6B8
100
AcDbEntity
  8
TEXT
  6
Continuous
100
AcDbLine
 10
774.6000000000003
 20
1180.999999999999
 30
0.0
 11
1874.6
 21
1180.999999999999
 31
0.0
  0
TEXT
  5
B08
330
6B8
100
AcDbEntity
  8
TEXT
100
AcDbText
 10
1230.223600000001
 20
1193.949599999999
 30
0.0
 40
28.05039999999999
  1
SN 23 H
  7
________
 11
1230.223600000001
 21
1221.999999999999
 31
0.0
100
AcDbText
 73
     3
  0
TEXT
  5
B09
330
6B8
100
AcDbEntity
  8
TEXT
100
AcDbText
 10
1230.223600000001
 20
1145.609266666666
 30
0.0
 40
28.05039999999999
  1
225φ以下
  7
________
 11
1230.223600000001
 21
1173.659666666666
 31
0.0
100
AcDbText
 73
     3
  0
TEXT
  5
B0A
330
6B8
100
AcDbEntity
  8
TEXT
100
AcDbText
 10
1230.223600000001
 20
1097.268933333332
 30
0.0
 40
28.05039999999999
  1
皿60枚・どんぶり30個
  7
________
 11
1230.223600000001
 21
1125.319333333332
 31
0.0
100
AcDbText
 73
     3
  0
TEXT
  5
B0B
330
6B8
100
AcDbEntity
  8
TEXT
100
AcDbText
 10
1230.223600000001
 20
1048.928599999999
 30
0.0
 40
28.05039999999999
  1
10 ～ 25㎏
  7
________
 11
1230.223600000001
 21
1076.978999999999
 31
0.0
100
AcDbText
 73
     3
  0
TEXT
  5
B0C
330
6B8
100
AcDbEntity
  8
TEXT
100
AcDbText
 10
1230.223600000001
 20
1000.588266666666
 30
0.0
 40
28.05039999999999
  1
300Wヒーター
  7
________
 11
1230.223600000001
 21
1028.638666666666
 31
0.0
100
AcDbText
 73
     3
  0
TEXT
  5
B0D
330
6B8
100
AcDbEntity
  8
TEXT
100
AcDbText
 10
1230.223600000001
 20
952.2479333333329
 30
0.0
 40
28.05039999999999
  1
固定サーモスタット・温度ヒューズ
  7
________
 11
1230.223600000001
 21
980.2983333333328
 31
0.0
100
AcDbText
 73
     3
  0
TEXT
  5
B0E
330
6B8
100
AcDbEntity
  8
TEXT
100
AcDbText
 10
1230.223600000001
 20
903.9075999999997
 30
0.0
 40
28.05039999999999
  1
収納式半透明カバー付属
  7
________
 11
1230.223600000001
 21
931.9579999999998
 31
0.0
100
AcDbText
 73
     3
  0
TEXT
  5
B0F
330
6B8
100
AcDbEntity
  8
TEXT
100
AcDbText
 10
1230.223600000001
 20
855.5672666666664
 30
0.0
 40
28.05039999999999
  1
単相 100 V
  7
________
 11
1230.223600000001
 21
883.6176666666663
 31
0.0
100
AcDbText
 73
     3
  0
TEXT
  5
B10
330
6B8
100
AcDbEntity
  8
TEXT
100
AcDbText
 10
1230.223600000001
 20
807.2269333333331
 30
0.0
 40
28.05039999999999
  1
9㎏
  7
________
 11
1230.223600000001
 21
835.2773333333331
 31
0.0
100
AcDbText
 73
     3
  0
TEXT
  5
B11
330
6B8
100
AcDbEntity
  8
TEXT
100
AcDbText
 10
814.5995
 20
1192.597199999999
 30
0.0
 40
29.40279999999999
  1
形　　　　　　　式
  7
________
 11
814.5995
 21
1221.999999999999
 31
0.0
100
AcDbText
 73
     3
  0
TEXT
  5
B12
330
6B8
100
AcDbEntity
  8
TEXT
100
AcDbText
 10
814.5995
 20
1144.069033333332
 30
0.0
 40
29.40279999999999
  1
適　用　食　器
  7
________
 11
814.5995
 21
1173.471833333332
 31
0.0
100
AcDbText
 73
     3
  0
TEXT
  5
B13
330
6B8
100
AcDbEntity
  8
TEXT
100
AcDbText
 10
814.5995
 20
1095.540866666666
 30
0.0
 40
29.40279999999999
  1
ストック数量の目安
  7
________
 11
814.5995
 21
1124.943666666666
 31
0.0
100
AcDbText
 73
     3
  0
TEXT
  5
B14
330
6B8
100
AcDbEntity
  8
TEXT
100
AcDbText
 10
814.5995
 20
1047.012699999999
 30
0.0
 40
29.40279999999999
  1
ば  ね  調  整  範  囲
  7
________
 11
814.5995
 21
1076.415499999999
 31
0.0
100
AcDbText
 73
     3
  0
TEXT
  5
B15
330
6B8
100
AcDbEntity
  8
TEXT
100
AcDbText
 10
814.5995
 20
998.4845333333328
 30
0.0
 40
29.40279999999999
  1
保　　温　  機　  能
  7
________
 11
814.5995
 21
1027.887333333332
 31
0.0
100
AcDbText
 73
     3
  0
TEXT
  5
B16
330
6B8
100
AcDbEntity
  8
TEXT
100
AcDbText
 10
814.5995
 20
852.900033333333
 30
0.0
 40
29.40279999999999
  1
電　　　　　　　源
  7
________
 11
814.5995
 21
882.3028333333329
 31
0.0
100
AcDbText
 73
     3
  0
TEXT
  5
B17
330
6B8
100
AcDbEntity
  8
TEXT
100
AcDbText
 10
814.5995
 20
804.3718666666663
 30
0.0
 40
29.40279999999999
  1
質　　　　　　　量
  7
________
 11
814.5995
 21
833.7746666666662
 31
0.0
100
AcDbText
 73
     3
  0
LINE
  5
B18
330
6B8
100
AcDbEntity
  8
TEXT
  6
Continuous
100
AcDbLine
 10
774.6000000000003
 20
880.9999999999995
 30
0.0
 11
1874.6
 21
880.9999999999995
 31
0.0
  0
LINE
  5
B19
330
6B8
100
AcDbEntity
  8
TEXT
  6
Continuous
100
AcDbLine
 10
774.6000000000003
 20
830.9999999999995
 30
0.0
 11
1874.6
 21
830.9999999999995
 31
0.0
  0
POINT
  5
B1A
330
6B8
100
AcDbEntity
  8
DIMENTION
  6
Continuous
100
AcDbPoint
 10
2024.6
 20
-1389.0
 30
0.0
  0
LINE
  5
B1B
330
6B8
100
AcDbEntity
  8
DIMENTION
100
AcDbLine
 10
-560.0
 20
-113.0
 30
0.0
 11
-500.0
 21
100.0
 31
0.0
  0
LINE
  5
B1C
330
6B8
100
AcDbEntity
  8
DIMENTION
100
AcDbLine
 10
-560.0
 20
-113.0
 30
0.0
 11
-559.4263390735574
 21
-80.13498753504165
 31
0.0
  0
LINE
  5
B1D
330
6B8
100
AcDbEntity
  8
DIMENTION
100
AcDbLine
 10
-560.0
 20
-113.0
 30
0.0
 11
-543.0706888320631
 21
-84.82489477287508
 31
0.0
  0
LINE
  5
B1E
330
6B8
100
AcDbEntity
  8
DIMENTION
100
AcDbLine
 10
-500.0
 20
100.0
 30
0.0
 11
-800.0
 21
100.0
 31
0.0
  0
LINE
  5
B1F
330
6B8
100
AcDbEntity
  8
DIMENTION
100
AcDbLine
 10
-818.4995391045337
 20
-91.14548585350984
 30
0.0
 11
-900.0
 21
0.0
 31
0.0
  0
LINE
  5
B20
330
6B8
100
AcDbEntity
  8
DIMENTION
100
AcDbLine
 10
-818.4995391045337
 20
-91.14548585350984
 30
0.0
 11
-845.7500196406501
 21
-72.76480464385045
 31
0.0
  0
LINE
  5
B21
330
6B8
100
AcDbEntity
  8
DIMENTION
100
AcDbLine
 10
-818.4995391045337
 20
-91.14548585350984
 30
0.0
 11
-832.9088069093142
 21
-61.60210871902325
 31
0.0
  0
LINE
  5
B22
330
6B8
100
AcDbEntity
  8
DIMENTION
100
AcDbLine
 10
-900.0
 20
0.0
 30
0.0
 11
-1110.0
 21
0.0
 31
0.0
  0
LINE
  5
B23
330
6B8
100
AcDbEntity
  8
DIMENTION
100
AcDbLine
 10
-500.0
 20
-1000.0
 30
0.0
 11
-180.0
 21
-1000.0
 31
0.0
  0
TEXT
  5
B24
330
6B8
100
AcDbEntity
  8
TEXT
100
AcDbText
 10
-1540.0
 20
-388.22224
 30
0.0
 40
28.22224
  1
電源コード　2線式　2.5m
  7
________
 11
-1540.0
 21
-360.0
 31
0.0
100
AcDbText
 73
     3
  0
TEXT
  5
B25
330
6B8
100
AcDbEntity
  8
TEXT
100
AcDbText
 10
-1540.0
 20
-438.2222399999999
 30
0.0
 40
28.22224
  1
中間コネクターより先は付属
  7
________
 11
-1540.0
 21
-410.0
 31
0.0
100
AcDbText
 73
     3
  0
LINE
  5
B26
330
6B8
100
AcDbEntity
  8
DIMENTION
100
AcDbLine
 10
-1550.0
 20
-400.0
 30
0.0
 11
-1120.0
 21
-400.0
 31
0.0
  0
LINE
  5
B27
330
6B8
100
AcDbEntity
  8
DIMENTION
100
AcDbLine
 10
-1550.0
 20
-400.0
 30
0.0
 11
-1550.0
 21
-450.0
 31
0.0
  0
LINE
  5
B28
330
6B8
100
AcDbEntity
  8
DIMENTION
100
AcDbLine
 10
-1550.0
 20
-450.0
 30
0.0
 11
-1120.0
 21
-450.0
 31
0.0
  0
INSERT
  5
B29
330
6B8
100
AcDbEntity
  8
OBJECT
100
AcDbBlockReference
  2
*U9
 10
0.0
 20
20.0
 30
0.0
  0
INSERT
  5
B2A
330
6B8
100
AcDbEntity
  8
OBJECT
100
AcDbBlockReference
  2
*U10
 10
0.0
 20
20.0
 30
0.0
  0
LINE
  5
B2B
330
6B8
100
AcDbEntity
  8
DIMENTION
100
AcDbLine
 10
-1600.0
 20
-900.0
 30
0.0
 11
-1830.0
 21
-900.0
 31
0.0
  0
LINE
  5
B2C
330
6B8
100
AcDbEntity
  8
DIMENTION
100
AcDbLine
 10
-1300.0
 20
-900.0
 30
0.0
 11
-1000.0
 21
-900.0
 31
0.0
  0
LWPOLYLINE
  5
B2D
330
6B8
100
AcDbEntity
  8
OBJECT
  6
Continuous
100
AcDbPolyline
 90
        4
 70
     0
 43
0.0
 10
-564.0
 20
-135.0
 10
-540.0
 20
-135.0
 10
-540.0
 20
-315.0
 10
-564.0
 20
-315.0
  0
LWPOLYLINE
  5
B33
330
6B8
100
AcDbEntity
  8
OBJECT
  6
Continuous
100
AcDbPolyline
 90
        4
 70
     1
 43
0.0
 10
-800.0
 20
-127.0
 10
-570.0
 20
-127.0
 10
-570.0
 20
-800.0
 10
-800.0
 20
-800.0
  0
LWPOLYLINE
  5
B39
330
6B8
100
AcDbEntity
  8
OBJECT
  6
Continuous
100
AcDbPolyline
 90
        4
 70
     1
 43
0.0
 10
-815.0
 20
630.0
 10
-525.0
 20
630.0
 10
-525.0
 20
370.0
 10
-815.0
 20
370.0
  0
LWPOLYLINE
  5
B3F
330
6B8
100
AcDbEntity
  8
OBJECT
  6
Continuous
100
AcDbPolyline
 90
        4
 70
     1
 43
0.0
 10
-815.0
 20
-120.0
 10
-525.0
 20
-120.0
 10
-525.0
 20
-127.0
 10
-815.0
 20
-127.0
  0
LWPOLYLINE
  5
B45
330
6B8
100
AcDbEntity
  8
OBJECT
  6
Continuous
100
AcDbPolyline
 90
        4
 70
     1
 43
0.0
 10
-570.0
 20
-127.0
 10
-564.0
 20
-127.0
 10
-564.0
 20
-800.0
 10
-570.0
 20
-800.0
  0
LWPOLYLINE
  5
B4B
330
6B8
100
AcDbEntity
  8
OBJECT
  6
Continuous
100
AcDbPolyline
 90
        5
 70
   129
 43
0.0
 10
-563.0
 20
-148.0
 42
-0.4142135623730951
 10
-559.0
 20
-144.0
 42
-0.4142135623730951
 10
-555.0
 20
-148.0
 42
-0.4142135623730951
 10
-559.0
 20
-152.0
 42
-0.4142135623730951
 10
-563.0
 20
-148.0
  0
LWPOLYLINE
  5
B52
330
6B8
100
AcDbEntity
  8
OBJECT
  6
Continuous
100
AcDbPolyline
 90
        5
 70
   129
 43
0.0
 10
-570.0
 20
-148.0
 42
-0.4142135623730951
 10
-559.0
 20
-137.0
 42
-0.4142135623730951
 10
-548.0
 20
-148.0
 42
-0.4142135623730951
 10
-559.0
 20
-159.0
 42
-0.4142135623730951
 10
-570.0
 20
-148.0
  0
LWPOLYLINE
  5
B59
330
6B8
100
AcDbEntity
  8
HIDDEN
  6
STYLE_04
100
AcDbPolyline
 90
        5
 70
   129
 43
0.0
 10
-592.0
 20
-302.0
 42
-0.4142135623730951
 10
-581.0
 20
-291.0
 42
-0.4142135623730951
 10
-570.0
 20
-302.0
 42
-0.4142135623730951
 10
-581.0
 20
-313.0
 42
-0.4142135623730951
 10
-592.0
 20
-302.0
  0
LWPOLYLINE
  5
B60
330
6B8
100
AcDbEntity
  8
OBJECT
  6
Continuous
100
AcDbPolyline
 90
        6
 70
     1
 43
0.0
 10
-546.0
 20
-307.0
 10
-548.0
 20
-307.0
 10
-548.0
 20
-315.0
 10
-556.0
 20
-315.0
 10
-556.0
 20
-317.0
 10
-546.0
 20
-317.0
  0
LWPOLYLINE
  5
B68
330
6B8
100
AcDbEntity
  8
HIDDEN
  6
STYLE_04
100
AcDbPolyline
 90
        5
 70
     0
 43
0.0
 10
-564.0
 20
-315.0
 10
-694.0
 20
-315.0
 10
-764.0
 20
-245.0
 10
-764.0
 20
-135.0
 10
-564.0
 20
-135.0
  0
LWPOLYLINE
  5
B6F
330
6B8
100
AcDbEntity
  8
OBJECT
  6
Continuous
100
AcDbPolyline
 90
        4
 70
     0
 43
0.0
 10
-564.0
 20
-610.0
 10
-540.0
 20
-610.0
 10
-540.0
 20
-790.0
 10
-564.0
 20
-790.0
  0
LWPOLYLINE
  5
B75
330
6B8
100
AcDbEntity
  8
OBJECT
  6
Continuous
100
AcDbPolyline
 90
        5
 70
   129
 43
0.0
 10
-563.0
 20
-623.0
 42
-0.4142135623730951
 10
-559.0
 20
-619.0
 42
-0.4142135623730951
 10
-555.0
 20
-623.0
 42
-0.4142135623730951
 10
-559.0
 20
-627.0
 42
-0.4142135623730951
 10
-563.0
 20
-623.0
  0
LWPOLYLINE
  5
B7C
330
6B8
100
AcDbEntity
  8
OBJECT
  6
Continuous
100
AcDbPolyline
 90
        5
 70
   129
 43
0.0
 10
-570.0
 20
-623.0
 42
-0.4142135623730951
 10
-559.0
 20
-612.0
 42
-0.4142135623730951
 10
-548.0
 20
-623.0
 42
-0.4142135623730951
 10
-559.0
 20
-634.0
 42
-0.4142135623730951
 10
-570.0
 20
-623.0
  0
LWPOLYLINE
  5
B83
330
6B8
100
AcDbEntity
  8
HIDDEN
  6
STYLE_04
100
AcDbPolyline
 90
        5
 70
   129
 43
0.0
 10
-592.0
 20
-777.0
 42
-0.4142135623730951
 10
-581.0
 20
-766.0
 42
-0.4142135623730951
 10
-570.0
 20
-777.0
 42
-0.4142135623730951
 10
-581.0
 20
-788.0
 42
-0.4142135623730951
 10
-592.0
 20
-777.0
  0
LWPOLYLINE
  5
B8A
330
6B8
100
AcDbEntity
  8
OBJECT
  6
Continuous
100
AcDbPolyline
 90
        6
 70
     1
 43
0.0
 10
-546.0
 20
-782.0
 10
-548.0
 20
-782.0
 10
-548.0
 20
-790.0
 10
-556.0
 20
-790.0
 10
-556.0
 20
-792.0
 10
-546.0
 20
-792.0
  0
LWPOLYLINE
  5
B92
330
6B8
100
AcDbEntity
  8
HIDDEN
  6
STYLE_04
100
AcDbPolyline
 90
        5
 70
     0
 43
0.0
 10
-564.0
 20
-790.0
 10
-694.0
 20
-790.0
 10
-764.0
 20
-720.0
 10
-764.0
 20
-610.0
 10
-564.0
 20
-610.0
  0
LWPOLYLINE
  5
B99
330
6B8
100
AcDbEntity
  8
OBJECT
  6
Continuous
100
AcDbPolyline
 90
        4
 70
     0
 43
0.0
 10
-597.0
 20
592.0
 10
-570.0
 20
592.0
 10
-570.0
 20
590.0
 10
-595.0
 20
590.0
  0
LWPOLYLINE
  5
B9F
330
6B8
100
AcDbEntity
  8
OBJECT
  6
Continuous
100
AcDbPolyline
 90
        4
 70
     0
 43
0.0
 10
-595.0
 20
410.0
 10
-570.0
 20
410.0
 10
-570.0
 20
408.0
 10
-597.0
 20
408.0
  0
LWPOLYLINE
  5
BA5
330
6B8
100
AcDbEntity
  8
OBJECT
  6
Continuous
100
AcDbPolyline
 90
        8
 70
     1
 43
0.0
 10
-598.0
 20
535.0
 10
-598.0
 20
525.0
 10
-577.0
 20
525.0
 10
-577.0
 20
475.0
 10
-598.0
 20
475.0
 10
-598.0
 20
465.0
 10
-568.0
 20
465.0
 10
-568.0
 20
535.0
  0
LWPOLYLINE
  5
BAF
330
6B8
100
AcDbEntity
  8
OBJECT
  6
Continuous
100
AcDbPolyline
 90
       10
 70
     0
 43
0.0
 10
-583.0
 20
465.0
 10
-583.0
 20
422.0
 10
-598.0
 20
407.0
 10
-750.0
 20
407.0
 10
-765.0
 20
422.0
 10
-765.0
 20
578.0
 10
-750.0
 20
593.0
 10
-598.0
 20
593.0
 10
-583.0
 20
578.0
 10
-583.0
 20
535.0
  0
LINE
  5
BBB
330
6B8
100
AcDbEntity
  8
OBJECT
  6
Continuous
100
AcDbLine
 10
-583.0
 20
525.0
 30
0.0
 11
-583.0
 21
475.0
 31
0.0
  0
LWPOLYLINE
  5
BBC
330
6B8
100
AcDbEntity
  8
OBJECT
  6
Continuous
100
AcDbPolyline
 90
        6
 70
     0
 43
0.0
 10
-571.0
 20
465.0
 10
-571.0
 20
386.0
 10
-799.0
 20
386.0
 10
-799.0
 20
614.0
 10
-571.0
 20
614.0
 10
-571.0
 20
535.0
  0
LWPOLYLINE
  5
BC4
330
6B8
100
AcDbEntity
  8
OBJECT
  6
Continuous
100
AcDbPolyline
 90
        6
 70
     0
 43
0.0
 10
-570.0
 20
465.0
 10
-570.0
 20
385.0
 10
-800.0
 20
385.0
 10
-800.0
 20
615.0
 10
-570.0
 20
615.0
 10
-570.0
 20
535.0
  0
ARC
  5
BCC
330
6B8
100
AcDbEntity
  8
OBJECT
  6
Continuous
100
AcDbCircle
 10
-560.0
 20
500.0
 30
0.0
 40
12.50001048359585
100
AcDbArc
 50
230.2082205252453
 51
129.7917794747559
  0
LWPOLYLINE
  5
BCD
330
6B8
100
AcDbEntity
  8
HIDDEN
  6
STYLE_04
100
AcDbPolyline
 90
        4
 70
     1
 43
0.0
 10
-747.5
 20
547.5
 10
-602.5
 20
547.5
 10
-602.5
 20
452.5
 10
-747.5
 20
452.5
  0
LWPOLYLINE
  5
BD3
330
6B8
100
AcDbEntity
  8
OBJECT
  6
Continuous
100
AcDbPolyline
 90
        4
 70
     1
 43
0.0
 10
-116.0
 20
-128.0
 10
116.0
 20
-128.0
 10
116.0
 20
-800.0
 10
-116.0
 20
-800.0
  0
LWPOLYLINE
  5
BD9
330
6B8
100
AcDbEntity
  8
OBJECT
  6
Continuous
100
AcDbPolyline
 90
        4
 70
     1
 43
0.0
 10
-130.0
 20
-120.0
 10
130.0
 20
-120.0
 10
130.0
 20
-128.0
 10
-130.0
 20
-128.0
  0
LINE
  5
BDF
330
6B8
100
AcDbEntity
  8
OBJECT
  6
Continuous
100
AcDbLine
 10
-97.0
 20
-800.0
 30
0.0
 11
-97.0
 21
-128.0
 31
0.0
  0
LINE
  5
BE0
330
6B8
100
AcDbEntity
  8
OBJECT
  6
Continuous
100
AcDbLine
 10
97.0
 20
-800.0
 30
0.0
 11
97.0
 21
-128.0
 31
0.0
  0
LWPOLYLINE
  5
BE1
330
6B8
100
AcDbEntity
  8
OBJECT
  6
Continuous
100
AcDbPolyline
 90
        4
 70
     1
 43
0.0
 10
-91.5
 20
-135.0
 10
-89.50000000000001
 20
-135.0
 10
-89.50000000000001
 20
-315.0
 10
-91.5
 20
-315.0
  0
LWPOLYLINE
  5
BE7
330
6B8
100
AcDbEntity
  8
OBJECT
  6
Continuous
100
AcDbPolyline
 90
        4
 70
     1
 43
0.0
 10
89.50000000000001
 20
-135.0
 10
91.5
 20
-135.0
 10
91.5
 20
-315.0
 10
89.50000000000001
 20
-315.0
  0
LINE
  5
BED
330
6B8
100
AcDbEntity
  8
OBJECT
  6
Continuous
100
AcDbLine
 10
-95.0
 20
-790.0
 30
0.0
 11
-86.0
 21
-790.0
 31
0.0
  0
LINE
  5
BEE
330
6B8
100
AcDbEntity
  8
OBJECT
  6
Continuous
100
AcDbLine
 10
86.0
 20
-790.0
 30
0.0
 11
95.0
 21
-790.0
 31
0.0
  0
LINE
  5
BEF
330
6B8
100
AcDbEntity
  8
OBJECT
  6
Continuous
100
AcDbLine
 10
95.0
 20
-135.0
 30
0.0
 11
86.0
 21
-135.0
 31
0.0
  0
LINE
  5
BF0
330
6B8
100
AcDbEntity
  8
OBJECT
  6
Continuous
100
AcDbLine
 10
-86.0
 20
-135.0
 30
0.0
 11
-95.0
 21
-135.0
 31
0.0
  0
LWPOLYLINE
  5
BF1
330
6B8
100
AcDbEntity
  8
OBJECT
  6
Continuous
100
AcDbPolyline
 90
        6
 70
     0
 43
0.0
 10
91.5
 20
-306.4999999999999
 10
96.0
 20
-306.4999999999999
 10
96.0
 20
-316.5
 10
-96.0
 20
-316.5
 10
-96.0
 20
-306.4999999999999
 10
-91.5
 20
-306.4999999999999
  0
LINE
  5
BF9
330
6B8
100
AcDbEntity
  8
OBJECT
  6
Continuous
100
AcDbLine
 10
95.0
 20
-316.5
 30
0.0
 11
95.0
 21
-800.0
 31
0.0
  0
LINE
  5
BFA
330
6B8
100
AcDbEntity
  8
OBJECT
  6
Continuous
100
AcDbLine
 10
-95.0
 20
-316.5
 30
0.0
 11
-95.0
 21
-800.0
 31
0.0
  0
LINE
  5
BFB
330
6B8
100
AcDbEntity
  8
OBJECT
  6
Continuous
100
AcDbLine
 10
-86.0
 20
-316.5
 30
0.0
 11
-86.0
 21
-800.0
 31
0.0
  0
LINE
  5
BFC
330
6B8
100
AcDbEntity
  8
OBJECT
  6
Continuous
100
AcDbLine
 10
-84.0
 20
-316.5
 30
0.0
 11
-84.0
 21
-800.0
 31
0.0
  0
LINE
  5
BFD
330
6B8
100
AcDbEntity
  8
OBJECT
  6
Continuous
100
AcDbLine
 10
86.0
 20
-316.5
 30
0.0
 11
86.0
 21
-800.0
 31
0.0
  0
LINE
  5
BFE
330
6B8
100
AcDbEntity
  8
OBJECT
  6
Continuous
100
AcDbLine
 10
84.0
 20
-316.5
 30
0.0
 11
84.0
 21
-800.0
 31
0.0
  0
LWPOLYLINE
  5
BFF
330
6B8
100
AcDbEntity
  8
OBJECT
  6
Continuous
100
AcDbPolyline
 90
        8
 70
   129
 43
0.0
 10
97.0
 20
-138.0
 42
-0.4142135623730951
 10
98.0
 20
-137.0
 10
103.0
 20
-137.0
 42
-0.4142135623730951
 10
104.0
 20
-138.0
 10
104.0
 20
-158.0
 42
-0.4142135623730951
 10
103.0
 20
-159.0
 10
98.0
 20
-159.0
 42
-0.4142135623730951
 10
97.0
 20
-158.0
  0
LWPOLYLINE
  5
C09
330
6B8
100
AcDbEntity
  8
OBJECT
  6
Continuous
100
AcDbPolyline
 90
        4
 70
     1
 43
0.0
 10
91.5
 20
-144.0
 10
97.0
 20
-144.0
 10
97.0
 20
-152.0
 10
91.5
 20
-152.0
  0
LWPOLYLINE
  5
C0F
330
6B8
100
AcDbEntity
  8
OBJECT
  6
Continuous
100
AcDbPolyline
 90
        8
 70
   129
 43
0.0
 10
-97.0
 20
-138.0
 42
0.4142135623730951
 10
-98.0
 20
-137.0
 10
-103.0
 20
-137.0
 42
0.4142135623730951
 10
-104.0
 20
-138.0
 10
-104.0
 20
-158.0
 42
0.4142135623730951
 10
-103.0
 20
-159.0
 10
-98.0
 20
-159.0
 42
0.4142135623730951
 10
-97.0
 20
-158.0
  0
LWPOLYLINE
  5
C19
330
6B8
100
AcDbEntity
  8
OBJECT
  6
Continuous
100
AcDbPolyline
 90
        4
 70
     1
 43
0.0
 10
-97.0
 20
-144.0
 10
-91.5
 20
-144.0
 10
-91.5
 20
-152.0
 10
-97.0
 20
-152.0
  0
LWPOLYLINE
  5
C1F
330
6B8
100
AcDbEntity
  8
OBJECT
  6
Continuous
100
AcDbPolyline
 90
        4
 70
     1
 43
0.0
 10
-106.0
 20
-144.0
 10
-104.0
 20
-144.0
 10
-104.0
 20
-152.0
 10
-106.0
 20
-152.0
  0
LINE
  5
C25
330
6B8
100
AcDbEntity
  8
OBJECT
  6
Continuous
100
AcDbLine
 10
-95.0
 20
-152.0
 30
0.0
 11
-95.0
 21
-306.4999999999999
 31
0.0
  0
LINE
  5
C26
330
6B8
100
AcDbEntity
  8
OBJECT
  6
Continuous
100
AcDbLine
 10
-95.0
 20
-131.0
 30
0.0
 11
-95.0
 21
-144.0
 31
0.0
  0
LWPOLYLINE
  5
C27
330
6B8
100
AcDbEntity
  8
OBJECT
  6
Continuous
100
AcDbPolyline
 90
        4
 70
     1
 43
0.0
 10
104.0
 20
-144.0
 10
106.0
 20
-144.0
 10
106.0
 20
-152.0
 10
104.0
 20
-152.0
  0
LINE
  5
C2D
330
6B8
100
AcDbEntity
  8
OBJECT
  6
Continuous
100
AcDbLine
 10
95.0
 20
-152.0
 30
0.0
 11
95.0
 21
-306.4999999999999
 31
0.0
  0
LINE
  5
C2E
330
6B8
100
AcDbEntity
  8
OBJECT
  6
Continuous
100
AcDbLine
 10
95.0
 20
-131.0
 30
0.0
 11
95.0
 21
-144.0
 31
0.0
  0
LWPOLYLINE
  5
C2F
330
6B8
100
AcDbEntity
  8
OBJECT
  6
Continuous
100
AcDbPolyline
 90
        5
 70
   129
 43
0.0
 10
29.5
 20
-311.5
 42
-0.4142135623730951
 10
31.0
 20
-310.0
 42
-0.4142135623730951
 10
32.5
 20
-311.5
 42
-0.4142135623730951
 10
31.0
 20
-313.0
 42
-0.4142135623730951
 10
29.5
 20
-311.5
  0
LWPOLYLINE
  5
C36
330
6B8
100
AcDbEntity
  8
OBJECT
  6
Continuous
100
AcDbPolyline
 90
        5
 70
   129
 43
0.0
 10
-1.5
 20
-311.5
 42
-0.4142135623730951
 10
0.0
 20
-310.0
 42
-0.4142135623730951
 10
1.5
 20
-311.5
 42
-0.4142135623730951
 10
0.0
 20
-313.0
 42
-0.4142135623730951
 10
-1.5
 20
-311.5
  0
LWPOLYLINE
  5
C3D
330
6B8
100
AcDbEntity
  8
OBJECT
  6
Continuous
100
AcDbPolyline
 90
        5
 70
   129
 43
0.0
 10
-32.5
 20
-311.5
 42
-0.4142135623730951
 10
-31.0
 20
-310.0
 42
-0.4142135623730951
 10
-29.5
 20
-311.5
 42
-0.4142135623730951
 10
-31.0
 20
-313.0
 42
-0.4142135623730951
 10
-32.5
 20
-311.5
  0
LINE
  5
C44
330
6B8
100
AcDbEntity
  8
OBJECT
  6
Continuous
100
AcDbLine
 10
-89.50000000000001
 20
-306.4999999999999
 30
0.0
 11
-72.5
 21
-306.4999999999999
 31
0.0
  0
LINE
  5
C45
330
6B8
100
AcDbEntity
  8
OBJECT
  6
Continuous
100
AcDbLine
 10
-69.5
 20
-306.4999999999999
 30
0.0
 11
-52.5
 21
-306.4999999999999
 31
0.0
  0
LINE
  5
C46
330
6B8
100
AcDbEntity
  8
OBJECT
  6
Continuous
100
AcDbLine
 10
-49.5
 20
-306.4999999999999
 30
0.0
 11
49.5
 21
-306.4999999999999
 31
0.0
  0
LINE
  5
C47
330
6B8
100
AcDbEntity
  8
OBJECT
  6
Continuous
100
AcDbLine
 10
52.5
 20
-306.4999999999999
 30
0.0
 11
69.5
 21
-306.4999999999999
 31
0.0
  0
LINE
  5
C48
330
6B8
100
AcDbEntity
  8
OBJECT
  6
Continuous
100
AcDbLine
 10
72.5
 20
-306.4999999999999
 30
0.0
 11
89.50000000000001
 21
-306.4999999999999
 31
0.0
  0
LWPOLYLINE
  5
C49
330
6B8
100
AcDbEntity
  8
OBJECT
  6
Continuous
100
AcDbPolyline
 90
        3
 70
     0
 43
0.0
 10
72.76929999999993
 20
-131.0
 10
95.99989999999978
 20
-131.0
 10
95.99989999999978
 20
-128.0
  0
LINE
  5
C4E
330
6B8
100
AcDbEntity
  8
OBJECT
  6
Continuous
100
AcDbLine
 10
74.23099999999976
 20
-131.0
 30
0.0
 11
72.5
 21
-131.0
 31
0.0
  0
LINE
  5
C4F
330
6B8
100
AcDbEntity
  8
OBJECT
  6
Continuous
100
AcDbLine
 10
69.5
 20
-131.0
 30
0.0
 11
52.5
 21
-131.0
 31
0.0
  0
LINE
  5
C50
330
6B8
100
AcDbEntity
  8
OBJECT
  6
Continuous
100
AcDbLine
 10
49.5
 20
-131.0
 30
0.0
 11
-49.5
 21
-131.0
 31
0.0
  0
LINE
  5
C51
330
6B8
100
AcDbEntity
  8
OBJECT
  6
Continuous
100
AcDbLine
 10
-52.5
 20
-131.0
 30
0.0
 11
-69.5
 21
-131.0
 31
0.0
  0
LINE
  5
C52
330
6B8
100
AcDbEntity
  8
OBJECT
  6
Continuous
100
AcDbLine
 10
-72.5
 20
-131.0
 30
0.0
 11
-74.23070000000007
 21
-131.0
 31
0.0
  0
LWPOLYLINE
  5
C53
330
6B8
100
AcDbEntity
  8
OBJECT
  6
Continuous
100
AcDbPolyline
 90
        3
 70
     0
 43
0.0
 10
-72.76900000000022
 20
-131.0
 10
-96.0
 20
-131.0
 10
-96.0
 20
-128.0
  0
LINE
  5
C58
330
6B8
100
AcDbEntity
  8
HIDDEN
  6
STYLE_04
100
AcDbLine
 10
-740.0
 20
-790.0
 30
0.0
 11
-810.0
 21
-790.0
 31
0.0
  0
INSERT
  5
C59
330
6B8
100
AcDbEntity
  8
HIDDEN
100
AcDbBlockReference
  2
*U11
 10
0.0
 20
20.0
 30
0.0
  0
LINE
  5
C5A
330
6B8
100
AcDbEntity
  8
OBJECT
  6
Continuous
100
AcDbLine
 10
-800.0
 20
-742.0381999999998
 30
0.0
 11
-800.0
 21
-790.0
 31
0.0
  0
LINE
  5
C5B
330
6B8
100
AcDbEntity
  8
OBJECT
  6
Continuous
100
AcDbLine
 10
-810.0
 20
-790.0
 30
0.0
 11
-810.0
 21
-742.0381999999998
 31
0.0
  0
ARC
  5
C5C
330
6B8
100
AcDbEntity
  8
OBJECT
  6
Continuous
100
AcDbCircle
 10
-800.0
 20
-790.0
 30
0.0
 40
10.0
100
AcDbArc
 50
180.0
 51
275.7103650923296
  0
LWPOLYLINE
  5
C5D
330
6B8
100
AcDbEntity
  8
OBJECT
  6
Continuous
100
AcDbPolyline
 90
        4
 70
     1
 43
0.0
 10
-812.0
 20
-655.0
 10
-800.0
 20
-655.0
 10
-800.0
 20
-665.0
 10
-812.0
 20
-665.0
  0
LINE
  5
C63
330
6B8
100
AcDbEntity
  8
OBJECT
  6
Continuous
100
AcDbLine
 10
-810.0
 20
-742.0381999999998
 30
0.0
 11
-810.0
 21
-665.0
 31
0.0
  0
LINE
  5
C64
330
6B8
100
AcDbEntity
  8
CENTER
  6
STYLE_03
100
AcDbLine
 10
-500.0
 20
500.0
 30
0.0
 11
-840.0
 21
500.0
 31
0.0
  0
LWPOLYLINE
  5
C65
330
6B8
100
AcDbEntity
  8
HIDDEN
  6
STYLE_04
100
AcDbPolyline
 90
        5
 70
     0
 43
0.0
 10
-799.0
 20
-120.0
 10
-794.0
 20
-120.0
 10
-794.0
 20
-375.0
 10
-799.0
 20
-375.0
 10
-799.0
 20
-120.0
  0
LWPOLYLINE
  5
C6C
330
6B8
100
AcDbEntity
  8
OBJECT
  6
Continuous
100
AcDbPolyline
 90
        4
 70
     0
 43
0.0
 10
-794.0
 20
-120.0
 10
-794.0
 20
-97.0
 10
-799.0
 20
-97.0
 10
-799.0
 20
-120.0
  0
INSERT
  5
C72
330
6B8
100
AcDbEntity
  8
OBJECT
100
AcDbBlockReference
  2
*U12
 10
0.0
 20
20.0
 30
0.0
  0
LWPOLYLINE
  5
C73
330
6B8
100
AcDbEntity
  8
OBJECT
  6
Continuous
100
AcDbPolyline
 90
        8
 70
     1
 43
0.0
 10
-35.0
 20
-99.0
 10
-35.0
 20
-120.0
 10
-25.0
 20
-120.0
 10
-25.0
 20
-108.0
 10
25.0
 20
-108.0
 10
25.0
 20
-120.0
 10
35.0
 20
-120.0
 10
35.0
 20
-99.0
  0
LWPOLYLINE
  5
C7D
330
6B8
100
AcDbEntity
  8
OBJECT
  6
Continuous
100
AcDbPolyline
 90
        6
 70
   129
 43
0.0
 10
-12.5
 20
-116.0
 42
-0.4142135623730951
 10
-9.5
 20
-113.0
 10
9.5
 20
-113.0
 42
-0.4142135623730951
 10
12.5
 20
-116.0
 10
12.5
 20
-120.0
 10
-12.5
 20
-120.0
  0
LWPOLYLINE
  5
C85
330
6B8
100
AcDbEntity
  8
OBJECT
  6
Continuous
100
AcDbPolyline
 90
        6
 70
   129
 43
0.0
 10
-572.5
 20
-116.0
 42
-0.4142135623730951
 10
-569.5
 20
-113.0
 10
-550.4999999999999
 20
-113.0
 42
-0.4142135623730951
 10
-547.5
 20
-116.0
 10
-547.5
 20
-120.0
 10
-572.5
 20
-120.0
  0
LINE
  5
C8D
330
6B8
100
AcDbEntity
  8
OBJECT
  6
Continuous
100
AcDbLine
 10
-89.50000000000001
 20
-144.0
 30
0.0
 11
-78.25982062419574
 21
-144.0
 31
0.0
  0
LINE
  5
C8E
330
6B8
100
AcDbEntity
  8
OBJECT
  6
Continuous
100
AcDbLine
 10
-69.34017937580449
 20
-144.0
 30
0.0
 11
-58.25982062419564
 21
-144.0
 31
0.0
  0
LINE
  5
C8F
330
6B8
100
AcDbEntity
  8
OBJECT
  6
Continuous
100
AcDbLine
 10
-49.34017937580457
 20
-144.0
 30
0.0
 11
43.74017937580435
 21
-144.0
 31
0.0
  0
LINE
  5
C90
330
6B8
100
AcDbEntity
  8
OBJECT
  6
Continuous
100
AcDbLine
 10
52.65982062419549
 20
-144.0
 30
0.0
 11
63.74017937580445
 21
-144.0
 31
0.0
  0
LINE
  5
C91
330
6B8
100
AcDbEntity
  8
OBJECT
  6
Continuous
100
AcDbLine
 10
72.65982062419545
 20
-144.0
 30
0.0
 11
89.50000000000001
 21
-144.0
 31
0.0
  0
LINE
  5
C92
330
6B8
100
AcDbEntity
  8
OBJECT
  6
Continuous
100
AcDbLine
 10
89.50000000000001
 20
-152.0
 30
0.0
 11
69.85982062419562
 21
-152.0
 31
0.0
  0
LINE
  5
C93
330
6B8
100
AcDbEntity
  8
OBJECT
  6
Continuous
100
AcDbLine
 10
62.585786437627
 20
-152.0
 30
0.0
 11
49.85982062419552
 21
-152.0
 31
0.0
  0
LINE
  5
C94
330
6B8
100
AcDbEntity
  8
OBJECT
  6
Continuous
100
AcDbLine
 10
42.58578643762803
 20
-152.0
 30
0.0
 11
-52.1401793758045
 21
-152.0
 31
0.0
  0
LINE
  5
C95
330
6B8
100
AcDbEntity
  8
OBJECT
  6
Continuous
100
AcDbLine
 10
-59.41421356237311
 20
-152.0
 30
0.0
 11
-72.14017937580428
 21
-152.0
 31
0.0
  0
LINE
  5
C96
330
6B8
100
AcDbEntity
  8
OBJECT
  6
Continuous
100
AcDbLine
 10
-79.41421356237293
 20
-152.0
 30
0.0
 11
-89.50000000000001
 21
-152.0
 31
0.0
  0
LINE
  5
C97
330
6B8
100
AcDbEntity
  8
OBJECT
  6
Continuous
100
AcDbLine
 10
84.0
 20
-152.0
 30
0.0
 11
84.0
 21
-306.4999999999999
 31
0.0
  0
LINE
  5
C98
330
6B8
100
AcDbEntity
  8
OBJECT
  6
Continuous
100
AcDbLine
 10
84.0
 20
-131.0
 30
0.0
 11
84.0
 21
-144.0
 31
0.0
  0
LINE
  5
C99
330
6B8
100
AcDbEntity
  8
OBJECT
  6
Continuous
100
AcDbLine
 10
86.0
 20
-152.0
 30
0.0
 11
86.0
 21
-306.4999999999999
 31
0.0
  0
LINE
  5
C9A
330
6B8
100
AcDbEntity
  8
OBJECT
  6
Continuous
100
AcDbLine
 10
86.0
 20
-131.0
 30
0.0
 11
86.0
 21
-144.0
 31
0.0
  0
LINE
  5
C9B
330
6B8
100
AcDbEntity
  8
OBJECT
  6
Continuous
100
AcDbLine
 10
-86.0
 20
-152.0
 30
0.0
 11
-86.0
 21
-306.4999999999999
 31
0.0
  0
LINE
  5
C9C
330
6B8
100
AcDbEntity
  8
OBJECT
  6
Continuous
100
AcDbLine
 10
-86.0
 20
-131.0
 30
0.0
 11
-86.0
 21
-144.0
 31
0.0
  0
LINE
  5
C9D
330
6B8
100
AcDbEntity
  8
OBJECT
  6
Continuous
100
AcDbLine
 10
-84.0
 20
-152.0
 30
0.0
 11
-84.0
 21
-306.4999999999999
 31
0.0
  0
LINE
  5
C9E
330
6B8
100
AcDbEntity
  8
OBJECT
  6
Continuous
100
AcDbLine
 10
-84.0
 20
-131.0
 30
0.0
 11
-84.0
 21
-144.0
 31
0.0
  0
LWPOLYLINE
  5
C9F
330
6B8
100
AcDbEntity
  8
OBJECT
  6
Continuous
100
AcDbPolyline
 90
        8
 70
   129
 43
0.0
 10
-810.0
 20
-655.0
 10
-810.0
 20
-652.0
 42
0.4142135623730951
 10
-830.0
 20
-632.0
 10
-885.0
 20
-632.0
 10
-885.0
 20
-622.0
 10
-830.0
 20
-622.0
 42
-0.4142135623730951
 10
-800.0
 20
-652.0
 10
-800.0
 20
-655.0
  0
LWPOLYLINE
  5
CA9
330
6B8
100
AcDbEntity
  8
OBJECT
  6
Continuous
100
AcDbPolyline
 90
        4
 70
     1
 43
0.0
 10
-915.0
 20
-619.5
 10
-885.0
 20
-619.5
 10
-885.0
 20
-634.4999999999999
 10
-915.0
 20
-634.4999999999999
  0
LINE
  5
CAF
330
6B8
100
AcDbEntity
  8
OBJECT
  6
Continuous
100
AcDbLine
 10
-900.0
 20
-634.4999999999999
 30
0.0
 11
-900.0
 21
-619.5
 31
0.0
  0
LWPOLYLINE
  5
CB0
330
6B8
100
AcDbEntity
  8
OBJECT
  6
Continuous
100
AcDbPolyline
 90
        4
 70
     0
 43
0.0
 10
-979.0
 20
-622.0
 10
-915.0
 20
-622.0
 10
-915.0
 20
-632.0
 10
-978.0
 20
-632.0
  0
LWPOLYLINE
  5
CB6
330
6B8
100
AcDbEntity
  8
OBJECT
  6
Continuous
100
AcDbPolyline
 90
        5
 70
   128
 43
0.0
 10
-977.5
 20
-619.5
 10
-979.5388386486179
 20
-622.5582579729271
 42
0.3575107650276824
 10
-979.0
 20
-628.0
 42
-0.3575107650277011
 10
-978.4611613513815
 20
-633.4417420270727
 10
-980.4999999999999
 20
-636.5
  0
DIMENSION
  5
CBD
330
6B8
100
AcDbEntity
  8
DIMENTION
  6
Continuous
100
AcDbDimension
  2
*D13
 10
-800.0
 20
750.0
 30
0.0
 11
-685.0000000000001
 21
751.0
 31
0.0
 70
   128
 71
     5
 42
-1.0
  3
CAD
100
AcDbAlignedDimension
 13
-570.0
 23
615.0
 33
0.0
 14
-800.0
 24
615.0
 34
0.0
100
AcDbRotatedDimension
  0
DIMENSION
  5
CBE
330
6B8
100
AcDbEntity
  8
DIMENTION
  6
Continuous
100
AcDbDimension
  2
*D14
 10
-950.0
 20
615.0
 30
0.0
 11
-951.0
 21
500.4106140136719
 31
0.0
 70
   128
 71
     5
 42
-1.0
  3
CAD
100
AcDbAlignedDimension
 13
-800.0
 23
385.0
 33
0.0
 14
-800.0
 24
615.0
 34
0.0
 50
90.0
100
AcDbRotatedDimension
  0
DIMENSION
  5
CBF
330
6B8
100
AcDbEntity
  8
DIMENTION
  6
Continuous
100
AcDbDimension
  2
*D15
 10
-815.0
 20
250.0
 30
0.0
 11
-670.0
 21
250.0
 31
0.0
 71
     5
 42
-1.0
  3
CAD
100
AcDbAlignedDimension
 13
-525.0
 23
370.0
 33
0.0
 14
-815.0
 24
370.0
 34
0.0
100
AcDbRotatedDimension
  0
DIMENSION
  5
CC0
330
6B8
100
AcDbEntity
  8
DIMENTION
  6
Continuous
100
AcDbDimension
  2
*D16
 10
-400.0
 20
630.0
 30
0.0
 11
-400.0
 21
500.0
 31
0.0
 71
     5
 42
-1.0
  3
CAD
100
AcDbAlignedDimension
 13
-525.0
 23
370.0
 33
0.0
 14
-525.0
 24
630.0
 34
0.0
 50
90.0
100
AcDbRotatedDimension
  0
INSERT
  5
CC1
330
6B8
100
AcDbEntity
  8
OBJECT
100
AcDbBlockReference
  2
*U17
 10
0.0
 20
20.0
 30
0.0
  0
INSERT
  5
CC2
330
6B8
100
AcDbEntity
  8
OBJECT
100
AcDbBlockReference
  2
*U18
 10
0.0
 20
20.0
 30
0.0
  0
INSERT
  5
CC3
330
6B8
100
AcDbEntity
  8
OBJECT
100
AcDbBlockReference
  2
*U19
 10
0.0
 20
20.0
 30
0.0
  0
LINE
  5
CC4
330
6B8
100
AcDbEntity
  8
HIDDEN
  6
STYLE_04
100
AcDbLine
 10
-740.0
 20
-790.0
 30
0.0
 11
-800.0
 21
-790.0
 31
0.0
  0
LINE
  5
CC5
330
6B8
100
AcDbEntity
  8
DIMENTION
100
AcDbLine
 10
-675.0
 20
-707.5
 30
0.0
 11
-500.0
 21
-1000.0
 31
0.0
  0
LINE
  5
CC6
330
6B8
100
AcDbEntity
  8
DIMENTION
100
AcDbLine
 10
-675.0
 20
-707.5
 30
0.0
 11
-651.7573868596882
 21
-730.7426131403119
 31
0.0
  0
LINE
  5
CC7
330
6B8
100
AcDbEntity
  8
DIMENTION
100
AcDbLine
 10
-675.0
 20
-707.5
 30
0.0
 11
-666.4926131403118
 21
-739.25
 31
0.0
  0
LINE
  5
CC8
330
6B8
100
AcDbEntity
  8
OBJECT
  6
Continuous
100
AcDbLine
 10
1402.5
 20
-265.4644660940676
 30
0.0
 11
1402.5
 21
-34.53553390593242
 31
0.0
  0
LINE
  5
CC9
330
6B8
100
AcDbEntity
  8
OBJECT
  6
Continuous
100
AcDbLine
 10
1674.5
 20
-34.53553390593254
 30
0.0
 11
1674.5
 21
-265.4644660940676
 31
0.0
  0
LINE
  5
CCA
330
6B8
100
AcDbEntity
  8
OBJECT
  6
Continuous
100
AcDbLine
 10
1406.035533905933
 20
-31.0
 30
0.0
 11
1670.964466094067
 21
-31.0
 31
0.0
  0
LINE
  5
CCB
330
6B8
100
AcDbEntity
  8
CENTER
  6
STYLE_03
100
AcDbLine
 10
1850.0
 20
-150.0
 30
0.0
 11
1350.0
 21
-150.0
 31
0.0
  0
LINE
  5
CCC
330
6B8
100
AcDbEntity
  8
OBJECT
  6
Continuous
100
AcDbLine
 10
1402.278174593052
 20
-26.0
 30
0.0
 11
1674.721825406947
 21
-26.0
 31
0.0
  0
LINE
  5
CCD
330
6B8
100
AcDbEntity
  8
OBJECT
  6
Continuous
100
AcDbLine
 10
1810.0
 20
43.25
 30
0.0
 11
1810.0
 21
-26.00000000000012
 31
0.0
  0
LINE
  5
CCE
330
6B8
100
AcDbEntity
  8
HIDDEN
  6
STYLE_04
100
AcDbLine
 10
1810.0
 20
-31.00000000000012
 30
0.0
 11
1810.0
 21
-269.0
 31
0.0
  0
LINE
  5
CCF
330
6B8
100
AcDbEntity
  8
OBJECT
  6
Continuous
100
AcDbLine
 10
1800.0
 20
-40.99999999999989
 30
0.0
 11
1800.0
 21
-259.0
 31
0.0
  0
LINE
  5
CD0
330
6B8
100
AcDbEntity
  8
OBJECT
  6
Continuous
100
AcDbLine
 10
1800.0
 20
-557.0000000000001
 30
0.0
 11
1800.0
 21
-559.5000000000001
 31
0.0
  0
LINE
  5
CD1
330
6B8
100
AcDbEntity
  8
OBJECT
  6
Continuous
100
AcDbLine
 10
1800.0
 20
-26.00000000000012
 30
0.0
 11
1810.0
 21
-26.00000000000012
 31
0.0
  0
LINE
  5
CD2
330
6B8
100
AcDbEntity
  8
OBJECT
  6
Continuous
100
AcDbLine
 10
1800.0
 20
-31.00000000000012
 30
0.0
 11
1815.0
 21
-31.00000000000012
 31
0.0
  0
LINE
  5
CD3
330
6B8
100
AcDbEntity
  8
OBJECT
  6
Continuous
100
AcDbLine
 10
1800.0
 20
-31.00000000000012
 30
0.0
 11
1800.0
 21
-26.00000000000012
 31
0.0
  0
LINE
  5
CD4
330
6B8
100
AcDbEntity
  8
OBJECT
  6
Continuous
100
AcDbLine
 10
1810.0
 20
-631.25
 30
0.0
 11
1810.0
 21
-562.0
 31
0.0
  0
LINE
  5
CD5
330
6B8
100
AcDbEntity
  8
OBJECT
  6
Continuous
100
AcDbLine
 10
1800.0
 20
-562.0
 30
0.0
 11
1810.0
 21
-562.0
 31
0.0
  0
LINE
  5
CD6
330
6B8
100
AcDbEntity
  8
OBJECT
  6
Continuous
100
AcDbLine
 10
1800.0
 20
-557.0000000000001
 30
0.0
 11
1815.0
 21
-557.0000000000001
 31
0.0
  0
LINE
  5
CD7
330
6B8
100
AcDbEntity
  8
OBJECT
  6
Continuous
100
AcDbLine
 10
1800.0
 20
-557.0000000000001
 30
0.0
 11
1800.0
 21
-562.0
 31
0.0
  0
LINE
  5
CD8
330
6B8
100
AcDbEntity
  8
OBJECT
  6
Continuous
100
AcDbLine
 10
1815.0
 20
45.66337913521568
 30
0.0
 11
1815.0
 21
-633.6633791352158
 31
0.0
  0
DIMENSION
  5
CD9
330
6B8
100
AcDbEntity
  8
DIMENTION
  6
Continuous
100
AcDbDimension
  2
*D20
 10
1402.5
 20
-700.0
 30
0.0
 11
1538.499999999999
 21
-700.0
 31
0.0
 71
     5
 42
-1.0
  3
CAD
100
AcDbAlignedDimension
 13
1674.5
 23
-553.4644660940675
 33
0.0
 14
1402.5
 24
-553.4644660940675
 34
0.0
100
AcDbRotatedDimension
  0
DIMENSION
  5
CDA
330
6B8
100
AcDbEntity
  8
DIMENTION
  6
Continuous
100
AcDbDimension
  2
*D21
 10
1250.0
 20
-31.0
 30
0.0
 11
1250.0
 21
-150.0
 31
0.0
 71
     5
 42
-1.0
  3
CAD
100
AcDbAlignedDimension
 13
1406.035533905933
 23
-269.0
 33
0.0
 14
1406.035533905933
 24
-31.0
 34
0.0
 50
90.0
100
AcDbRotatedDimension
  0
ARC
  5
CDB
330
6B8
100
AcDbEntity
  8
OBJECT
  6
Continuous
100
AcDbCircle
 10
1816.25
 20
36.6875
 30
0.0
 40
9.062500000000047
100
AcDbArc
 50
44.46927927641818
 51
133.6028189727036
  0
ARC
  5
CDC
330
6B8
100
AcDbEntity
  8
OBJECT
  6
Continuous
100
AcDbCircle
 10
1828.75
 20
49.37797619047625
 30
0.0
 40
8.752976190476077
100
AcDbArc
 50
226.4312917557592
 51
315.5648114609636
  0
ARC
  5
CDD
330
6B8
100
AcDbEntity
  8
OBJECT
  6
Continuous
100
AcDbCircle
 10
1816.25
 20
-624.6875000000001
 30
0.0
 40
9.062499999999918
100
AcDbArc
 50
226.3971810272958
 51
315.5307207235823
  0
ARC
  5
CDE
330
6B8
100
AcDbEntity
  8
OBJECT
  6
Continuous
100
AcDbCircle
 10
1828.75
 20
-637.3779761904764
 30
0.0
 40
8.752976190476161
100
AcDbArc
 50
44.43518853903642
 51
133.5687082442408
  0
DIMENSION
  5
CDF
330
6B8
100
AcDbEntity
  8
DIMENTION
  6
Continuous
100
AcDbDimension
  2
*D22
 10
1800.0
 20
100.0
 30
0.0
 11
1762.5
 21
100.4999999981373
 31
0.0
 70
   128
 71
     5
 42
-1.0
  3
CAD
100
AcDbAlignedDimension
 13
1810.0
 23
43.25
 33
0.0
 14
1800.0
 24
-26.00000000000012
 34
0.0
100
AcDbRotatedDimension
  0
LINE
  5
CE0
330
6B8
100
AcDbEntity
  8
OBJECT
  6
Continuous
100
AcDbLine
 10
1800.0
 20
-41.00000000000011
 30
0.0
 11
1810.0
 21
-31.00000000000012
 31
0.0
  0
LINE
  5
CE1
330
6B8
100
AcDbEntity
  8
OBJECT
  6
Continuous
100
AcDbLine
 10
1800.0
 20
-547.0000000000001
 30
0.0
 11
1810.0
 21
-557.0000000000001
 31
0.0
  0
LINE
  5
CE2
330
6B8
100
AcDbEntity
  8
OBJECT
  6
Continuous
100
AcDbLine
 10
1408.5
 20
-31.0
 30
0.0
 11
1408.5
 21
-26.0
 31
0.0
  0
LINE
  5
CE3
330
6B8
100
AcDbEntity
  8
DIMENTION
  6
Continuous
100
AcDbLine
 10
1810.0
 20
-596.6250000000001
 30
0.0
 11
1700.0
 21
-800.0
 31
0.0
  0
LINE
  5
CE4
330
6B8
100
AcDbEntity
  8
DIMENTION
  6
Continuous
100
AcDbLine
 10
1810.0
 20
-596.6250000000001
 30
0.0
 11
1804.490304832884
 21
-618.7231803258632
 31
0.0
  0
LINE
  5
CE5
330
6B8
100
AcDbEntity
  8
DIMENTION
  6
Continuous
100
AcDbLine
 10
1810.0
 20
-596.6250000000001
 30
0.0
 11
1794.179373855237
 21
-613.0077379560491
 31
0.0
  0
LINE
  5
CE6
330
6B8
100
AcDbEntity
  8
DIMENTION
  6
Continuous
100
AcDbLine
 10
1700.0
 20
-800.0
 30
0.0
 11
1530.0
 21
-800.0
 31
0.0
  0
TEXT
  5
CE7
330
6B8
100
AcDbEntity
  8
DIMENTION
100
AcDbText
 10
1527.5
 20
-788.2222222222221
 30
0.0
 40
28.22222222222222
  1
テーブル面
  7
________
 11
1527.5
 21
-760.0
 31
0.0
100
AcDbText
 73
     3
  0
LINE
  5
CE8
330
6B8
100
AcDbEntity
  8
OBJECT
100
AcDbLine
 10
1400.156854249493
 20
-25.1213203435596
 30
0.0
 11
1406.035533905933
 21
-31.0
 31
0.0
  0
LINE
  5
CE9
330
6B8
100
AcDbEntity
  8
OBJECT
100
AcDbLine
 10
1396.62132034356
 20
-28.65685424949225
 30
0.0
 11
1402.5
 21
-34.53553390593242
 31
0.0
  0
ARC
  5
CEA
330
6B8
100
AcDbEntity
  8
OBJECT
  6
Continuous
100
AcDbCircle
 10
1402.278174593052
 20
-23.0
 30
0.0
 40
2.999999999999944
100
AcDbArc
 50
225.0000000000015
 51
270.0000000000043
  0
LINE
  5
CEB
330
6B8
100
AcDbEntity
  8
OBJECT
100
AcDbLine
 10
1400.156854249493
 20
-25.12132034355966
 30
0.0
 11
1396.62132034356
 21
-28.65685424949225
 31
0.0
  0
LINE
  5
CEC
330
6B8
100
AcDbEntity
  8
OBJECT
  6
Continuous
100
AcDbLine
 10
1402.5
 20
-36.9999999999996
 30
0.0
 11
1397.5
 21
-36.9999999999996
 31
0.0
  0
ARC
  5
CED
330
6B8
100
AcDbEntity
  8
OBJECT
  6
Continuous
100
AcDbCircle
 10
1394.5
 20
-30.7781745930518
 30
0.0
 40
3.0
100
AcDbArc
 50
359.9999999999977
 51
45.0
  0
LINE
  5
CEE
330
6B8
100
AcDbEntity
  8
OBJECT
100
AcDbLine
 10
1397.5
 20
-269.2218254069481
 30
0.0
 11
1397.5
 21
-30.77817459305192
 31
0.0
  0
LINE
  5
CEF
330
6B8
100
AcDbEntity
  8
OBJECT
  6
Continuous
100
AcDbLine
 10
1668.499999999999
 20
-31.0
 30
0.0
 11
1668.499999999999
 21
-26.0
 31
0.0
  0
LINE
  5
CF0
330
6B8
100
AcDbEntity
  8
OBJECT
100
AcDbLine
 10
1676.843145750507
 20
-25.1213203435596
 30
0.0
 11
1670.964466094067
 21
-31.0
 31
0.0
  0
LINE
  5
CF1
330
6B8
100
AcDbEntity
  8
OBJECT
100
AcDbLine
 10
1680.37867965644
 20
-28.65685424949225
 30
0.0
 11
1674.5
 21
-34.53553390593242
 31
0.0
  0
ARC
  5
CF2
330
6B8
100
AcDbEntity
  8
OBJECT
  6
Continuous
100
AcDbCircle
 10
1674.721825406947
 20
-23.0
 30
0.0
 40
3.0
100
AcDbArc
 50
269.9999999999955
 51
314.9999999999985
  0
LINE
  5
CF3
330
6B8
100
AcDbEntity
  8
OBJECT
100
AcDbLine
 10
1676.843145750507
 20
-25.12132034355966
 30
0.0
 11
1680.37867965644
 21
-28.65685424949225
 31
0.0
  0
LINE
  5
CF4
330
6B8
100
AcDbEntity
  8
OBJECT
  6
Continuous
100
AcDbLine
 10
1674.499999999999
 20
-36.9999999999996
 30
0.0
 11
1679.499999999999
 21
-36.9999999999996
 31
0.0
  0
ARC
  5
CF5
330
6B8
100
AcDbEntity
  8
OBJECT
  6
Continuous
100
AcDbCircle
 10
1682.499999999999
 20
-30.7781745930518
 30
0.0
 40
2.999999999999864
100
AcDbArc
 50
135.0
 51
180.0000000000022
  0
LINE
  5
CF6
330
6B8
100
AcDbEntity
  8
OBJECT
100
AcDbLine
 10
1679.499999999999
 20
-30.77817459305192
 30
0.0
 11
1679.499999999999
 21
-269.2218254069481
 31
0.0
  0
LINE
  5
CF7
330
6B8
100
AcDbEntity
  8
OBJECT
  6
Continuous
100
AcDbLine
 10
1406.035533905933
 20
-269.0
 30
0.0
 11
1670.964466094067
 21
-269.0
 31
0.0
  0
LINE
  5
CF8
330
6B8
100
AcDbEntity
  8
OBJECT
  6
Continuous
100
AcDbLine
 10
1402.278174593052
 20
-274.0
 30
0.0
 11
1674.721825406947
 21
-274.0
 31
0.0
  0
LINE
  5
CF9
330
6B8
100
AcDbEntity
  8
OBJECT
  6
Continuous
100
AcDbLine
 10
1408.5
 20
-269.0
 30
0.0
 11
1408.5
 21
-274.0
 31
0.0
  0
LINE
  5
CFA
330
6B8
100
AcDbEntity
  8
OBJECT
100
AcDbLine
 10
1400.156854249493
 20
-274.8786796564404
 30
0.0
 11
1406.035533905933
 21
-269.0
 31
0.0
  0
LINE
  5
CFB
330
6B8
100
AcDbEntity
  8
OBJECT
100
AcDbLine
 10
1396.62132034356
 20
-271.3431457505077
 30
0.0
 11
1402.5
 21
-265.4644660940676
 31
0.0
  0
ARC
  5
CFC
330
6B8
100
AcDbEntity
  8
OBJECT
  6
Continuous
100
AcDbCircle
 10
1402.278174593052
 20
-277.0
 30
0.0
 40
3.0
100
AcDbArc
 50
89.99999999999564
 51
134.9999999999984
  0
LINE
  5
CFD
330
6B8
100
AcDbEntity
  8
OBJECT
100
AcDbLine
 10
1400.156854249493
 20
-274.8786796564404
 30
0.0
 11
1396.62132034356
 21
-271.3431457505077
 31
0.0
  0
LINE
  5
CFE
330
6B8
100
AcDbEntity
  8
OBJECT
  6
Continuous
100
AcDbLine
 10
1402.5
 20
-263.0000000000003
 30
0.0
 11
1397.5
 21
-263.0000000000003
 31
0.0
  0
ARC
  5
CFF
330
6B8
100
AcDbEntity
  8
OBJECT
  6
Continuous
100
AcDbCircle
 10
1394.5
 20
-269.2218254069481
 30
0.0
 40
2.999999999999864
100
AcDbArc
 50
315.0
 51
0.00000000000216
  0
LINE
  5
D00
330
6B8
100
AcDbEntity
  8
OBJECT
  6
Continuous
100
AcDbLine
 10
1668.499999999999
 20
-269.0
 30
0.0
 11
1668.499999999999
 21
-274.0
 31
0.0
  0
LINE
  5
D01
330
6B8
100
AcDbEntity
  8
OBJECT
100
AcDbLine
 10
1676.843145750507
 20
-274.8786796564404
 30
0.0
 11
1670.964466094067
 21
-269.0
 31
0.0
  0
LINE
  5
D02
330
6B8
100
AcDbEntity
  8
OBJECT
100
AcDbLine
 10
1680.37867965644
 20
-271.3431457505077
 30
0.0
 11
1674.5
 21
-265.4644660940676
 31
0.0
  0
ARC
  5
D03
330
6B8
100
AcDbEntity
  8
OBJECT
  6
Continuous
100
AcDbCircle
 10
1674.721825406947
 20
-277.0
 30
0.0
 40
2.999999999999944
100
AcDbArc
 50
45.00000000000155
 51
90.00000000000435
  0
LINE
  5
D04
330
6B8
100
AcDbEntity
  8
OBJECT
100
AcDbLine
 10
1676.843145750507
 20
-274.8786796564404
 30
0.0
 11
1680.37867965644
 21
-271.3431457505077
 31
0.0
  0
LINE
  5
D05
330
6B8
100
AcDbEntity
  8
OBJECT
  6
Continuous
100
AcDbLine
 10
1674.499999999999
 20
-263.0000000000003
 30
0.0
 11
1679.499999999999
 21
-263.0000000000003
 31
0.0
  0
ARC
  5
D06
330
6B8
100
AcDbEntity
  8
OBJECT
  6
Continuous
100
AcDbCircle
 10
1682.499999999999
 20
-269.2218254069481
 30
0.0
 40
3.0
100
AcDbArc
 50
179.9999999999978
 51
225.0
  0
LINE
  5
D07
330
6B8
100
AcDbEntity
  8
OBJECT
  6
Continuous
100
AcDbLine
 10
1402.5
 20
-553.4644660940675
 30
0.0
 11
1402.5
 21
-322.5355339059324
 31
0.0
  0
LINE
  5
D08
330
6B8
100
AcDbEntity
  8
OBJECT
  6
Continuous
100
AcDbLine
 10
1674.5
 20
-322.5355339059325
 30
0.0
 11
1674.5
 21
-553.4644660940675
 31
0.0
  0
LINE
  5
D09
330
6B8
100
AcDbEntity
  8
OBJECT
  6
Continuous
100
AcDbLine
 10
1406.035533905933
 20
-319.0
 30
0.0
 11
1670.964466094067
 21
-319.0
 31
0.0
  0
LINE
  5
D0A
330
6B8
100
AcDbEntity
  8
OBJECT
  6
Continuous
100
AcDbLine
 10
1402.278174593052
 20
-314.0
 30
0.0
 11
1674.721825406947
 21
-314.0
 31
0.0
  0
DIMENSION
  5
D0B
330
6B8
100
AcDbEntity
  8
DIMENTION
  6
Continuous
100
AcDbDimension
  2
*D23
 10
1250.0
 20
-319.0
 30
0.0
 11
1250.0
 21
-438.0
 31
0.0
 71
     5
 42
-1.0
  3
CAD
100
AcDbAlignedDimension
 13
1406.035533905933
 23
-557.0
 33
0.0
 14
1406.035533905933
 24
-319.0
 34
0.0
 50
90.0
100
AcDbRotatedDimension
  0
LINE
  5
D0C
330
6B8
100
AcDbEntity
  8
OBJECT
  6
Continuous
100
AcDbLine
 10
1408.5
 20
-319.0
 30
0.0
 11
1408.5
 21
-314.0
 31
0.0
  0
LINE
  5
D0D
330
6B8
100
AcDbEntity
  8
OBJECT
100
AcDbLine
 10
1400.156854249493
 20
-313.1213203435596
 30
0.0
 11
1406.035533905933
 21
-319.0
 31
0.0
  0
LINE
  5
D0E
330
6B8
100
AcDbEntity
  8
OBJECT
100
AcDbLine
 10
1396.62132034356
 20
-316.6568542494922
 30
0.0
 11
1402.5
 21
-322.5355339059324
 31
0.0
  0
ARC
  5
D0F
330
6B8
100
AcDbEntity
  8
OBJECT
  6
Continuous
100
AcDbCircle
 10
1402.278174593052
 20
-311.0
 30
0.0
 40
2.999999999999944
100
AcDbArc
 50
225.0000000000015
 51
270.0000000000043
  0
LINE
  5
D10
330
6B8
100
AcDbEntity
  8
OBJECT
100
AcDbLine
 10
1400.156854249493
 20
-313.1213203435596
 30
0.0
 11
1396.62132034356
 21
-316.6568542494922
 31
0.0
  0
LINE
  5
D11
330
6B8
100
AcDbEntity
  8
OBJECT
  6
Continuous
100
AcDbLine
 10
1402.5
 20
-324.9999999999996
 30
0.0
 11
1397.5
 21
-324.9999999999996
 31
0.0
  0
ARC
  5
D12
330
6B8
100
AcDbEntity
  8
OBJECT
  6
Continuous
100
AcDbCircle
 10
1394.5
 20
-318.7781745930517
 30
0.0
 40
3.0
100
AcDbArc
 50
359.9999999999977
 51
45.0
  0
LINE
  5
D13
330
6B8
100
AcDbEntity
  8
OBJECT
100
AcDbLine
 10
1397.5
 20
-557.221825406948
 30
0.0
 11
1397.5
 21
-318.7781745930519
 31
0.0
  0
LINE
  5
D14
330
6B8
100
AcDbEntity
  8
OBJECT
  6
Continuous
100
AcDbLine
 10
1668.499999999999
 20
-319.0
 30
0.0
 11
1668.499999999999
 21
-314.0
 31
0.0
  0
LINE
  5
D15
330
6B8
100
AcDbEntity
  8
OBJECT
100
AcDbLine
 10
1676.843145750507
 20
-313.1213203435596
 30
0.0
 11
1670.964466094067
 21
-319.0
 31
0.0
  0
LINE
  5
D16
330
6B8
100
AcDbEntity
  8
OBJECT
100
AcDbLine
 10
1680.37867965644
 20
-316.6568542494922
 30
0.0
 11
1674.5
 21
-322.5355339059324
 31
0.0
  0
ARC
  5
D17
330
6B8
100
AcDbEntity
  8
OBJECT
  6
Continuous
100
AcDbCircle
 10
1674.721825406947
 20
-311.0
 30
0.0
 40
3.0
100
AcDbArc
 50
269.9999999999955
 51
314.9999999999985
  0
LINE
  5
D18
330
6B8
100
AcDbEntity
  8
OBJECT
100
AcDbLine
 10
1676.843145750507
 20
-313.1213203435596
 30
0.0
 11
1680.37867965644
 21
-316.6568542494922
 31
0.0
  0
LINE
  5
D19
330
6B8
100
AcDbEntity
  8
OBJECT
  6
Continuous
100
AcDbLine
 10
1674.499999999999
 20
-324.9999999999996
 30
0.0
 11
1679.499999999999
 21
-324.9999999999996
 31
0.0
  0
ARC
  5
D1A
330
6B8
100
AcDbEntity
  8
OBJECT
  6
Continuous
100
AcDbCircle
 10
1682.499999999999
 20
-318.7781745930517
 30
0.0
 40
2.999999999999864
100
AcDbArc
 50
135.0
 51
180.0000000000022
  0
LINE
  5
D1B
330
6B8
100
AcDbEntity
  8
OBJECT
100
AcDbLine
 10
1679.499999999999
 20
-318.7781745930519
 30
0.0
 11
1679.499999999999
 21
-557.221825406948
 31
0.0
  0
LINE
  5
D1C
330
6B8
100
AcDbEntity
  8
OBJECT
  6
Continuous
100
AcDbLine
 10
1406.035533905933
 20
-557.0
 30
0.0
 11
1670.964466094067
 21
-557.0
 31
0.0
  0
LINE
  5
D1D
330
6B8
100
AcDbEntity
  8
OBJECT
  6
Continuous
100
AcDbLine
 10
1402.278174593052
 20
-562.0
 30
0.0
 11
1674.721825406947
 21
-562.0
 31
0.0
  0
LINE
  5
D1E
330
6B8
100
AcDbEntity
  8
OBJECT
  6
Continuous
100
AcDbLine
 10
1408.5
 20
-557.0
 30
0.0
 11
1408.5
 21
-562.0
 31
0.0
  0
LINE
  5
D1F
330
6B8
100
AcDbEntity
  8
OBJECT
100
AcDbLine
 10
1400.156854249493
 20
-562.8786796564404
 30
0.0
 11
1406.035533905933
 21
-557.0
 31
0.0
  0
LINE
  5
D20
330
6B8
100
AcDbEntity
  8
OBJECT
100
AcDbLine
 10
1396.62132034356
 20
-559.3431457505078
 30
0.0
 11
1402.5
 21
-553.4644660940675
 31
0.0
  0
ARC
  5
D21
330
6B8
100
AcDbEntity
  8
OBJECT
  6
Continuous
100
AcDbCircle
 10
1402.278174593052
 20
-565.0
 30
0.0
 40
3.0
100
AcDbArc
 50
89.99999999999564
 51
134.9999999999984
  0
LINE
  5
D22
330
6B8
100
AcDbEntity
  8
OBJECT
100
AcDbLine
 10
1400.156854249493
 20
-562.8786796564402
 30
0.0
 11
1396.62132034356
 21
-559.3431457505078
 31
0.0
  0
LINE
  5
D23
330
6B8
100
AcDbEntity
  8
OBJECT
  6
Continuous
100
AcDbLine
 10
1402.5
 20
-551.0000000000006
 30
0.0
 11
1397.5
 21
-551.0000000000006
 31
0.0
  0
ARC
  5
D24
330
6B8
100
AcDbEntity
  8
OBJECT
  6
Continuous
100
AcDbCircle
 10
1394.5
 20
-557.2218254069482
 30
0.0
 40
2.999999999999864
100
AcDbArc
 50
315.0
 51
0.0000000000043201
  0
LINE
  5
D25
330
6B8
100
AcDbEntity
  8
OBJECT
  6
Continuous
100
AcDbLine
 10
1668.499999999999
 20
-557.0
 30
0.0
 11
1668.499999999999
 21
-562.0
 31
0.0
  0
LINE
  5
D26
330
6B8
100
AcDbEntity
  8
OBJECT
100
AcDbLine
 10
1676.843145750507
 20
-562.8786796564404
 30
0.0
 11
1670.964466094067
 21
-557.0
 31
0.0
  0
LINE
  5
D27
330
6B8
100
AcDbEntity
  8
OBJECT
100
AcDbLine
 10
1680.37867965644
 20
-559.3431457505078
 30
0.0
 11
1674.5
 21
-553.4644660940675
 31
0.0
  0
ARC
  5
D28
330
6B8
100
AcDbEntity
  8
OBJECT
  6
Continuous
100
AcDbCircle
 10
1674.721825406947
 20
-565.0
 30
0.0
 40
2.999999999999944
100
AcDbArc
 50
45.00000000000155
 51
90.00000000000435
  0
LINE
  5
D29
330
6B8
100
AcDbEntity
  8
OBJECT
100
AcDbLine
 10
1676.843145750507
 20
-562.8786796564402
 30
0.0
 11
1680.37867965644
 21
-559.3431457505078
 31
0.0
  0
LINE
  5
D2A
330
6B8
100
AcDbEntity
  8
OBJECT
  6
Continuous
100
AcDbLine
 10
1674.499999999999
 20
-551.0000000000006
 30
0.0
 11
1679.499999999999
 21
-551.0000000000006
 31
0.0
  0
ARC
  5
D2B
330
6B8
100
AcDbEntity
  8
OBJECT
  6
Continuous
100
AcDbCircle
 10
1682.499999999999
 20
-557.2218254069482
 30
0.0
 40
3.0
100
AcDbArc
 50
179.9999999999956
 51
225.0
  0
LINE
  5
D2C
330
6B8
100
AcDbEntity
  8
CENTER
  6
STYLE_03
100
AcDbLine
 10
1850.0
 20
-438.0
 30
0.0
 11
1350.0
 21
-438.0
 31
0.0
  0
LINE
  5
D2D
330
6B8
100
AcDbEntity
  8
OBJECT
  6
Continuous
100
AcDbLine
 10
1800.0
 20
-314.0
 30
0.0
 11
1810.0
 21
-314.0
 31
0.0
  0
LINE
  5
D2E
330
6B8
100
AcDbEntity
  8
OBJECT
  6
Continuous
100
AcDbLine
 10
1800.0
 20
-319.0
 30
0.0
 11
1815.0
 21
-319.0
 31
0.0
  0
LINE
  5
D2F
330
6B8
100
AcDbEntity
  8
OBJECT
  6
Continuous
100
AcDbLine
 10
1800.0
 20
-319.0
 30
0.0
 11
1800.0
 21
-314.0
 31
0.0
  0
LINE
  5
D30
330
6B8
100
AcDbEntity
  8
OBJECT
  6
Continuous
100
AcDbLine
 10
1800.0
 20
-329.0
 30
0.0
 11
1810.0
 21
-319.0
 31
0.0
  0
LINE
  5
D31
330
6B8
100
AcDbEntity
  8
OBJECT
  6
Continuous
100
AcDbLine
 10
1800.0
 20
-269.0
 30
0.0
 11
1800.0
 21
-271.5
 31
0.0
  0
LINE
  5
D32
330
6B8
100
AcDbEntity
  8
OBJECT
  6
Continuous
100
AcDbLine
 10
1800.0
 20
-274.0
 30
0.0
 11
1810.0
 21
-274.0
 31
0.0
  0
LINE
  5
D33
330
6B8
100
AcDbEntity
  8
OBJECT
  6
Continuous
100
AcDbLine
 10
1800.0
 20
-269.0
 30
0.0
 11
1815.0
 21
-269.0
 31
0.0
  0
LINE
  5
D34
330
6B8
100
AcDbEntity
  8
OBJECT
  6
Continuous
100
AcDbLine
 10
1800.0
 20
-269.0
 30
0.0
 11
1800.0
 21
-274.0
 31
0.0
  0
LINE
  5
D35
330
6B8
100
AcDbEntity
  8
OBJECT
  6
Continuous
100
AcDbLine
 10
1800.0
 20
-259.0
 30
0.0
 11
1810.0
 21
-269.0
 31
0.0
  0
LINE
  5
D36
330
6B8
100
AcDbEntity
  8
OBJECT
100
AcDbLine
 10
1810.0
 20
-274.0
 30
0.0
 11
1810.0
 21
-314.0
 31
0.0
  0
LINE
  5
D37
330
6B8
100
AcDbEntity
  8
OBJECT
100
AcDbLine
 10
1800.0
 20
-329.0
 30
0.0
 11
1800.0
 21
-547.0000000000001
 31
0.0
  0
LINE
  5
D38
330
6B8
100
AcDbEntity
  8
HIDDEN
100
AcDbLine
 10
1810.0
 20
-319.0
 30
0.0
 11
1810.0
 21
-557.0000000000001
 31
0.0
  0
DIMENSION
  5
D39
330
6B8
100
AcDbEntity
  8
DIMENTION
100
AcDbDimension
  2
*D24
 10
1300.0
 20
-269.0
 30
0.0
 11
1299.000000003725
 21
-230.0
 31
0.0
 70
   128
 71
     5
 42
-1.0
  3
CAD
100
AcDbAlignedDimension
 13
1406.035533905933
 23
-319.0
 33
0.0
 14
1406.035533905933
 24
-269.0
 34
0.0
 50
90.0
100
AcDbRotatedDimension
  0
LINE
  5
D3A
330
6B8
100
AcDbEntity
  8
DIMENTION
  6
Continuous
100
AcDbLine
 10
200.0
 20
-450.0
 30
0.0
 11
78.72117561587294
 21
-228.8152588076373
 31
0.0
  0
LINE
  5
D3B
330
6B8
100
AcDbEntity
  8
DIMENTION
  6
Continuous
100
AcDbLine
 10
78.72117561587294
 20
-228.8152588076373
 30
0.0
 11
94.25347400127998
 21
-245.4716095909147
 31
0.0
  0
LINE
  5
D3C
330
6B8
100
AcDbEntity
  8
DIMENTION
  6
Continuous
100
AcDbLine
 10
78.72117561587294
 20
-228.8152588076373
 30
0.0
 11
83.84436520515674
 21
-251.0062309130038
 31
0.0
  0
ENDSEC
  0
SECTION
  2
OBJECTS
  0
DICTIONARY
  5
6A6
330
0
100
AcDbDictionary
281
     1
  3
ACAD_GROUP
350
6A7
  3
ACAD_LAYOUT
350
6B3
  3
ACAD_MLINESTYLE
350
6B0
  3
ACAD_PLOTSETTINGS
350
6B2
  3
ACAD_PLOTSTYLENAME
350
6A8
  3
AcDbVariableDictionary
350
D3F
  0
DICTIONARY
  5
6A7
102
{ACAD_REACTORS
330
6A6
102
}
330
6A6
100
AcDbDictionary
281
     1
  0
DICTIONARY
  5
6B3
102
{ACAD_REACTORS
330
6A6
102
}
330
6A6
100
AcDbDictionary
281
     1
  3
Model
350
6BB
  3
ﾚｲｱｳﾄ1
350
6B7
  0
DICTIONARY
  5
6B0
102
{ACAD_REACTORS
330
6A6
102
}
330
6A6
100
AcDbDictionary
281
     1
  3
Standard
350
6B1
  0
DICTIONARY
  5
6B2
102
{ACAD_REACTORS
330
6A6
102
}
330
6A6
100
AcDbDictionary
281
     1
  0
ACDBDICTIONARYWDFLT
  5
6A8
102
{ACAD_REACTORS
330
6A6
102
}
330
6A6
100
AcDbDictionary
281
     1
  3
Normal
350
6A9
100
AcDbDictionaryWithDefault
340
6A9
  0
DICTIONARY
  5
D3F
102
{ACAD_REACTORS
330
6A6
102
}
330
6A6
100
AcDbDictionary
281
     1
  3
DIMASSOC
350
D40
  0
LAYOUT
  5
6BB
102
{ACAD_REACTORS
330
6B3
102
}
330
6B3
100
AcDbPlotSettings
  1

  2
EPSON LP-8900
  4

  6

 40
0.0
 41
0.0
 42
0.0
 43
0.0
 44
0.0
 45
0.0
 46
0.0
 47
0.0
 48
0.0
 49
0.0
140
0.0
141
0.0
142
1.0
143
1.0
 70
  1712
 72
     0
 73
     0
 74
     0
  7

 75
     0
147
1.0
148
0.0
149
0.0
100
AcDbLayout
  1
Model
 70
     1
 71
     0
 10
0.0
 20
0.0
 11
12.0
 21
9.0
 12
0.0
 22
0.0
 32
0.0
 14
0.0
 24
0.0
 34
0.0
 15
0.0
 25
0.0
 35
0.0
146
0.0
 13
0.0
 23
0.0
 33
0.0
 16
1.0
 26
0.0
 36
0.0
 17
0.0
 27
1.0
 37
0.0
 76
     0
330
6B8
  0
LAYOUT
  5
6B7
102
{ACAD_REACTORS
330
6B3
102
}
330
6B3
100
AcDbPlotSettings
  1

  2
EPSON LP-8900
  4

  6

 40
0.0
 41
0.0
 42
0.0
 43
0.0
 44
0.0
 45
0.0
 46
0.0
 47
0.0
 48
0.0
 49
0.0
140
0.0
141
0.0
142
1.0
143
1.0
 70
   688
 72
     0
 73
     0
 74
     5
  7

 75
    16
147
1.0
148
0.0
149
0.0
100
AcDbLayout
  1
ﾚｲｱｳﾄ1
 70
     0
 71
     1
 10
0.0
 20
0.0
 11
12.0
 21
9.0
 12
0.0
 22
0.0
 32
0.0
 14
1.000000000000000E+20
 24
1.000000000000000E+20
 34
1.000000000000000E+20
 15
-1.000000000000000E+20
 25
-1.000000000000000E+20
 35
-1.000000000000000E+20
146
0.0
 13
0.0
 23
0.0
 33
0.0
 16
1.0
 26
0.0
 36
0.0
 17
0.0
 27
1.0
 37
0.0
 76
     0
330
6B4
  0
MLINESTYLE
  5
6B1
102
{ACAD_REACTORS
330
6B0
102
}
330
6B0
100
AcDbMlineStyle
  2
STANDARD
 70
     0
  3

 62
   256
 51
90.0
 52
90.0
 71
     2
 49
0.5
 62
   256
  6
BYLAYER
 49
-0.5
 62
   256
  6
BYLAYER
  0
ACDBPLACEHOLDER
  5
6A9
102
{ACAD_REACTORS
330
6A8
102
}
330
6A8
  0
DICTIONARYVAR
  5
D40
102
{ACAD_REACTORS
330
D3F
102
}
330
D3F
100
DictionaryVariables
280
     0
  1
1
  0
ENDSEC
  0
EOF
