  0
SECTION
  2
HEADER
  9
$ACADVER
  1
AC1014
  9
$ACADMAINTVER
 70
               0
  9
$DWGCODEPAGE
  3
ANSI_932
  9
$INSBASE
 10
0.0
 20
0.0
 30
0.0
  9
$EXTMIN
 10
-2025.3999999999999
 20
-1388.9999999999998
 30
0.0
  9
$EXTMAX
 10
2024.5999999999999
 20
1330.9999999999998
 30
0.0
  9
$LIMMIN
 10
0.0
 20
0.0
  9
$LIMMAX
 10
0.0
 20
0.0
  9
$ORTHOMODE
 70
               0
  9
$REGENMODE
 70
               1
  9
$FILLMODE
 70
               1
  9
$QTEXTMODE
 70
               0
  9
$MIRRTEXT
 70
               1
  9
$DRAGMODE
 70
               2
  9
$LTSCALE
 40
254.0
  9
$OSMODE
 70
               0
  9
$ATTMODE
 70
               1
  9
$TEXTSIZE
 40
0.2
  9
$TRACEWID
 40
1.0
  9
$TEXTSTYLE
  7
STANDARD
  9
$CLAYER
  8
0
  9
$CELTYPE
  6
CONTINUOUS
  9
$CECOLOR
 62
             256
  9
$CELTSCALE
 40
1.0
  9
$DELOBJ
 70
               1
  9
$DISPSILH
 70
               0
  9
$DIMSCALE
 40
1.0
  9
$DIMASZ
 40
31.75
  9
$DIMEXO
 40
9.9999999999999982
  9
$DIMDLI
 40
7.9999999999999991
  9
$DIMRND
 40
0.0
  9
$DIMDLE
 40
0.0
  9
$DIMEXE
 40
19.999999999999996
  9
$DIMTP
 40
0.0
  9
$DIMTM
 40
0.0
  9
$DIMTXT
 40
33.866666666666667
  9
$DIMCEN
 40
0.0
  9
$DIMTSZ
 40
0.0
  9
$DIMTOL
 70
               0
  9
$DIMLIM
 70
               0
  9
$DIMTIH
 70
               0
  9
$DIMTOH
 70
               0
  9
$DIMSE1
 70
               0
  9
$DIMSE2
 70
               0
  9
$DIMTAD
 70
               1
  9
$DIMZIN
 70
              11
  9
$DIMBLK
  1
VW_OPENARROW
  9
$DIMASO
 70
               1
  9
$DIMSHO
 70
               1
  9
$DIMPOST
  1
<>
  9
$DIMAPOST
  1
[]
  9
$DIMALT
 70
               0
  9
$DIMALTD
 70
               1
  9
$DIMALTF
 40
1.0
  9
$DIMLFAC
 40
1.0
  9
$DIMTOFL
 70
               1
  9
$DIMTVP
 40
0.0
  9
$DIMTIX
 70
               1
  9
$DIMSOXD
 70
               0
  9
$DIMSAH
 70
               0
  9
$DIMBLK1
  1

  9
$DIMBLK2
  1

  9
$DIMSTYLE
  2
CAD
  9
$DIMCLRD
 70
               0
  9
$DIMCLRE
 70
               0
  9
$DIMCLRT
 70
               0
  9
$DIMTFAC
 40
0.7
  9
$DIMGAP
 40
0.099999999627471
  9
$DIMJUST
 70
               0
  9
$DIMSD1
 70
               0
  9
$DIMSD2
 70
               0
  9
$DIMTOLJ
 70
               1
  9
$DIMTZIN
 70
              11
  9
$DIMALTZ
 70
              11
  9
$DIMALTTZ
 70
              11
  9
$DIMFIT
 70
               0
  9
$DIMUPT
 70
               0
  9
$DIMUNIT
 70
               2
  9
$DIMDEC
 70
               4
  9
$DIMTDEC
 70
               4
  9
$DIMALTU
 70
               2
  9
$DIMALTTD
 70
               2
  9
$DIMTXSTY
  7
________
  9
$DIMAUNIT
 70
               0
  9
$LUNITS
 70
               2
  9
$LUPREC
 70
               4
  9
$SKETCHINC
 40
0.1
  9
$FILLETRAD
 40
0.0
  9
$AUNITS
 70
               0
  9
$AUPREC
 70
               0
  9
$MENU
  1
acad
  9
$ELEVATION
 40
0.0
  9
$PELEVATION
 40
0.0
  9
$THICKNESS
 40
0.0
  9
$LIMCHECK
 70
               0
  9
$BLIPMODE
 70
               0
  9
$CHAMFERA
 40
0.0
  9
$CHAMFERB
 40
0.0
  9
$CHAMFERC
 40
0.0
  9
$CHAMFERD
 40
0.0
  9
$SKPOLY
 70
               0
  9
$TDCREATE
 40
2458753.563750000
  9
$TDUPDATE
 40
2458753.563750000
  9
$TDINDWG
 40
0.0000000000
  9
$TDUSRTIMER
 40
0.0000000000
  9
$USRTIMER
 70
               1
  9
$ANGBASE
 50
0.0
  9
$ANGDIR
 70
               0
  9
$PDMODE
 70
               1
  9
$PDSIZE
 40
-2.0
  9
$PLINEWID
 40
0.0
  9
$COORDS
 70
               0
  9
$SPLFRAME
 70
               0
  9
$SPLINETYPE
 70
               6
  9
$SPLINESEGS
 70
               8
  9
$ATTDIA
 70
               0
  9
$ATTREQ
 70
               1
  9
$HANDLING
 70
               1
  9
$HANDSEED
  5
774
  9
$SURFTAB1
 70
               6
  9
$SURFTAB2
 70
               6
  9
$SURFTYPE
 70
               6
  9
$SURFU
 70
               6
  9
$SURFV
 70
               6
  9
$UCSNAME
  2

  9
$UCSORG
 10
0.0
 20
0.0
 30
0.0
  9
$UCSXDIR
 10
1.0
 20
0.0
 30
0.0
  9
$UCSYDIR
 10
0.0
 20
1.0
 30
0.0
  9
$PUCSNAME
  2

  9
$PUCSORG
 10
0.0
 20
0.0
 30
0.0
  9
$PUCSXDIR
 10
1.0
 20
0.0
 30
0.0
  9
$PUCSYDIR
 10
0.0
 20
1.0
 30
0.0
  9
$USERI1
 70
               0
  9
$USERI2
 70
               0
  9
$USERI3
 70
               0
  9
$USERI4
 70
               0
  9
$USERI5
 70
               0
  9
$USERR1
 40
0.0
  9
$USERR2
 40
0.0
  9
$USERR3
 40
0.0
  9
$USERR4
 40
0.0
  9
$USERR5
 40
0.0
  9
$WORLDVIEW
 70
               1
  9
$SHADEDGE
 70
               3
  9
$SHADEDIF
 70
              70
  9
$TILEMODE
 70
               1
  9
$MAXACTVP
 70
              16
  9
$PINSBASE
 10
0.0
 20
0.0
 30
0.0
  9
$PLIMCHECK
 70
               0
  9
$PEXTMIN
 10
1.0000000000000000E+20
 20
1.0000000000000000E+20
 30
1.0000000000000000E+20
  9
$PEXTMAX
 10
-1.0000000000000000E+20
 20
-1.0000000000000000E+20
 30
-1.0000000000000000E+20
  9
$PLIMMIN
 10
0.0
 20
0.0
  9
$PLIMMAX
 10
12.0
 20
9.0
  9
$UNITMODE
 70
               0
  9
$VISRETAIN
 70
               0
  9
$PLINEGEN
 70
               1
  9
$PSLTSCALE
 70
               0
  9
$TREEDEPTH
 70
            3020
  9
$PICKSTYLE
 70
               1
  9
$CMLSTYLE
  2
STANDARD
  9
$CMLJUST
 70
               0
  9
$CMLSCALE
 40
1.0
  9
$PROXYGRAPHICS
 70
               0
  9
$MEASUREMENT
 70
               1
  0
ENDSEC
  0
SECTION
  2
CLASSES
  0
CLASS
  1
LWPOLYLINE
  2
AcDbPolyline
  3
"AutoCAD"
 90
        0
280
               0
281
               1
  0
CLASS
  1
IMAGE
  2
AcDbRasterImage
  3
ISM
 90
      127
280
               0
281
               1
  0
CLASS
  1
OLE2FRAME
  2
AcDbOle2Frame
  3
""
 90
        0
280
               0
281
               1
  0
CLASS
  1
HATCH
  2
AcDbHatch
  3
"ACAD_SEDONA"
 90
        0
280
               0
281
               1
  0
CLASS
  1
DICTIONARYVAR
  2
AcDbDictionaryVar
  3
"AutoCAD"
 90
        0
280
               0
281
               0
  0
CLASS
  1
RASTERVARIABLES
  2
AcDbRasterVariables
  3
ISM
 90
        0
280
               0
281
               0
  0
CLASS
  1
IMAGEDEF
  2
AcDbRasterImageDef
  3
ISM
 90
        0
280
               0
281
               0
  0
CLASS
  1
IMAGEDEF_REACTOR
  2
AcDbRasterImageDefReactor
  3
ISM
 90
        1
280
               0
281
               0
  0
CLASS
  1
IDBUFFER
  2
AcDbIdBuffer
  3
"Acad"
 90
        0
280
               0
281
               0
  0
CLASS
  1
SPATIAL_FILTER
  2
AcDbSpatialFilter
  3
"Acad"
 90
        0
280
               0
281
               0
  0
CLASS
  1
XRECORD
  2
AcDbXrecord
  3
"<Built In>"
 90
        0
280
               0
281
               0
  0
CLASS
  1
SORTENTSTABLE
  2
AcDbSortentsTable
  3
"AutoCAD"
 90
        0
280
               0
281
               0
  0
CLASS
  1
LAYER_INDEX
  2
AcDbLayerIndex
  3
"Acad"
 90
        0
280
               0
281
               0
  0
CLASS
  1
SPATIAL_INDEX
  2
AcDbSpatialIndex
  3
"Acad"
 90
        0
280
               0
281
               0
  0
CLASS
  1
OBJECT_PTR
  2
CAseDLPNTableRecord
  3
"ASE-LPNTableRecord"
 90
        1
280
               0
281
               0
  0
CLASS
  1
LAYOUT
  2
AcDbLayout
  3
"AutoCAD 2000"
 90
        1
280
               0
281
               0
  0
CLASS
  1
PLOTSETTINGS
  2
AcDbPlotSettings
  3
"AutoCAD 2000"
 90
        1
280
               0
281
               0
  0
CLASS
  1
ACDBDICTIONARYWDFLT
  2
AcDbDictionaryWithDefault
  3
"AutoCAD 2000"
 90
        1
280
               0
281
               0
  0
CLASS
  1
ACDBPLACEHOLDER
  2
AcDbPlaceHolder
  3
"AutoCAD 2000"
 90
        1
280
               0
281
               0
  0
ENDSEC
  0
SECTION
  2
TABLES
  0
TABLE
  2
VPORT
  5
7
100
AcDbSymbolTable
 70
               1
  0
VPORT
  5
15
100
AcDbSymbolTableRecord
100
AcDbViewportTableRecord
  2
*ACTIVE
 70
               0
 10
0.0
 20
0.0
 11
1.0
 21
1.0
 12
-0.3999999999998636
 22
-29.0
 13
0.0
 23
0.0
 14
1.0
 24
1.0
 15
0.0
 25
0.0
 16
0.0
 26
0.0
 36
1.0
 17
0.0
 27
0.0
 37
0.0
 40
2719.9999999999995
 41
0.688564
 42
50.0
 43
0.0
 44
0.0
 50
0.0
 51
0.0
 71
               0
 72
             100
 73
               1
 74
               1
 75
               0
 76
               0
 77
               0
 78
               0
  0
ENDTAB
  0
TABLE
  2
LTYPE
  5
4
100
AcDbSymbolTable
 70
              23
  0
LTYPE
  5
11
100
AcDbSymbolTableRecord
100
AcDbLinetypeTableRecord
  2
BYBLOCK
 70
              64
  3

 72
              65
 73
               0
 40
0.0
  0
LTYPE
  5
12
100
AcDbSymbolTableRecord
100
AcDbLinetypeTableRecord
  2
BYLAYER
 70
              64
  3

 72
              65
 73
               0
 40
0.0
  0
LTYPE
  5
13
100
AcDbSymbolTableRecord
100
AcDbLinetypeTableRecord
  2
CONTINUOUS
 70
              64
  3
Solid line
 72
              65
 73
               0
 40
0.0
  0
LTYPE
  5
3E
100
AcDbSymbolTableRecord
100
AcDbLinetypeTableRecord
  2
STYLE_01
 70
               0
  3

 72
              65
 73
               2
 40
0.0375109361329834
 49
0.0236220472440945
 74
               0
 49
-0.0138888888888889
 74
               0
  0
LTYPE
  5
3F
100
AcDbSymbolTableRecord
100
AcDbLinetypeTableRecord
  2
STYLE_02
 70
               0
  3

 72
              65
 73
               6
 40
0.6527777777777778
 49
0.4027777777777778
 74
               0
 49
-0.0555555555555555
 74
               0
 49
0.0416666666666667
 74
               0
 49
-0.0555555555555556
 74
               0
 49
0.0416666666666666
 74
               0
 49
-0.0555555555555556
 74
               0
  0
LTYPE
  5
40
100
AcDbSymbolTableRecord
100
AcDbLinetypeTableRecord
  2
STYLE_03
 70
               0
  3

 72
              65
 73
               4
 40
0.5277777777777778
 49
0.4027777777777778
 74
               0
 49
-0.0416666666666666
 74
               0
 49
0.0416666666666667
 74
               0
 49
-0.0416666666666667
 74
               0
  0
LTYPE
  5
41
100
AcDbSymbolTableRecord
100
AcDbLinetypeTableRecord
  2
STYLE_04
 70
               0
  3

 72
              65
 73
               2
 40
0.1388888888888889
 49
0.0694444444444444
 74
               0
 49
-0.0694444444444444
 74
               0
  0
LTYPE
  5
42
100
AcDbSymbolTableRecord
100
AcDbLinetypeTableRecord
  2
STYLE_05
 70
               0
  3

 72
              65
 73
               2
 40
0.047244094488189
 49
0.0236220472440945
 74
               0
 49
-0.0236220472440945
 74
               0
  0
LTYPE
  5
43
100
AcDbSymbolTableRecord
100
AcDbLinetypeTableRecord
  2
STYLE_06
 70
               0
  3

 72
              65
 73
               2
 40
0.047244094488189
 49
0.0236220472440945
 74
               0
 49
-0.0236220472440945
 74
               0
  0
LTYPE
  5
44
100
AcDbSymbolTableRecord
100
AcDbLinetypeTableRecord
  2
STYLE_07
 70
               0
  3

 72
              65
 73
               2
 40
0.047244094488189
 49
0.0236220472440945
 74
               0
 49
-0.0236220472440945
 74
               0
  0
LTYPE
  5
45
100
AcDbSymbolTableRecord
100
AcDbLinetypeTableRecord
  2
STYLE_08
 70
               0
  3

 72
              65
 73
               2
 40
0.047244094488189
 49
0.0236220472440945
 74
               0
 49
-0.0236220472440945
 74
               0
  0
LTYPE
  5
46
100
AcDbSymbolTableRecord
100
AcDbLinetypeTableRecord
  2
STYLE_09
 70
               0
  3

 72
              65
 73
               6
 40
1.5157480314960627
 49
1.1811023622047243
 74
               0
 49
-0.0590551181102361
 74
               0
 49
0.078740157480315
 74
               0
 49
-0.0590551181102361
 74
               0
 49
0.078740157480315
 74
               0
 49
-0.0590551181102361
 74
               0
  0
LTYPE
  5
47
100
AcDbSymbolTableRecord
100
AcDbLinetypeTableRecord
  2
STYLE_10
 70
               0
  3

 72
              65
 73
               6
 40
1.1875
 49
0.75
 74
               0
 49
-0.0555572509765625
 74
               0
 49
0.138885498046875
 74
               0
 49
-0.0555572509765625
 74
               0
 49
0.125
 74
               0
 49
-0.0625
 74
               0
  0
LTYPE
  5
48
100
AcDbSymbolTableRecord
100
AcDbLinetypeTableRecord
  2
STYLE_11
 70
               0
  3

 72
              65
 73
               4
 40
1.5
 49
0.0833282470703125
 74
               0
 49
-0.0555572509765625
 74
               0
 49
1.3055572509765625
 74
               0
 49
-0.0555572509765625
 74
               0
  0
LTYPE
  5
49
100
AcDbSymbolTableRecord
100
AcDbLinetypeTableRecord
  2
STYLE_12
 70
               0
  3

 72
              65
 73
               4
 40
1.111114501953125
 49
0.7916717529296875
 74
               0
 49
-0.0833282470703125
 74
               0
 49
0.125
 74
               0
 49
-0.111114501953125
 74
               0
  0
LTYPE
  5
4A
100
AcDbSymbolTableRecord
100
AcDbLinetypeTableRecord
  2
STYLE_13
 70
               0
  3

 72
              65
 73
               4
 40
2.1944427490234375
 49
1.875
 74
               0
 49
-0.0833282470703125
 74
               0
 49
0.125
 74
               0
 49
-0.111114501953125
 74
               0
  0
LTYPE
  5
4B
100
AcDbSymbolTableRecord
100
AcDbLinetypeTableRecord
  2
STYLE_14
 70
               0
  3

 72
              65
 73
               2
 40
0.138885498046875
 49
0.0972137451171875
 74
               0
 49
-0.0416717529296875
 74
               0
  0
LTYPE
  5
4C
100
AcDbSymbolTableRecord
100
AcDbLinetypeTableRecord
  2
STYLE_15
 70
               0
  3

 72
              65
 73
               2
 40
0.25
 49
0.2083282470703125
 74
               0
 49
-0.0416717529296875
 74
               0
  0
LTYPE
  5
4D
100
AcDbSymbolTableRecord
100
AcDbLinetypeTableRecord
  2
STYLE_16
 70
               0
  3

 72
              65
 73
               2
 40
0.078740157480315
 49
0.0393700787401575
 74
               0
 49
-0.0393700787401575
 74
               0
  0
LTYPE
  5
4E
100
AcDbSymbolTableRecord
100
AcDbLinetypeTableRecord
  2
STYLE_17
 70
               0
  3

 72
              65
 73
               4
 40
0.5118110236220472
 49
0.3937007874015748
 74
               0
 49
-0.0393700787401575
 74
               0
 49
0.0393700787401575
 74
               0
 49
-0.0393700787401575
 74
               0
  0
LTYPE
  5
4F
100
AcDbSymbolTableRecord
100
AcDbLinetypeTableRecord
  2
STYLE_18
 70
               0
  3

 72
              65
 73
               6
 40
0.5905511811023623
 49
0.3937007874015748
 74
               0
 49
-0.0393700787401575
 74
               0
 49
0.0393700787401575
 74
               0
 49
-0.0393700787401575
 74
               0
 49
0.0393700787401575
 74
               0
 49
-0.0393700787401575
 74
               0
  0
LTYPE
  5
50
100
AcDbSymbolTableRecord
100
AcDbLinetypeTableRecord
  2
STYLE_19
 70
               0
  3

 72
              65
 73
               4
 40
0.6111111111111112
 49
0.4027777777777778
 74
               0
 49
-0.0694444444444444
 74
               0
 49
0.0694444444444444
 74
               0
 49
-0.0694444444444445
 74
               0
  0
LTYPE
  5
51
100
AcDbSymbolTableRecord
100
AcDbLinetypeTableRecord
  2
STYLE_20
 70
               0
  3

 72
              65
 73
               6
 40
0.3149606299212598
 49
0.1181102362204724
 74
               0
 49
-0.0393700787401575
 74
               0
 49
0.0393700787401575
 74
               0
 49
-0.0393700787401575
 74
               0
 49
0.0393700787401575
 74
               0
 49
-0.0393700787401575
 74
               0
  0
ENDTAB
  0
TABLE
  2
LAYER
  5
2
100
AcDbSymbolTable
 70
               9
  0
LAYER
  5
14
100
AcDbSymbolTableRecord
100
AcDbLayerTableRecord
  2
0
 70
               0
 62
               7
  6
CONTINUOUS
  0
LAYER
  5
59
100
AcDbSymbolTableRecord
100
AcDbLayerTableRecord
  2
DEFPOINTS
 70
               0
 62
               7
  6
CONTINUOUS
  0
LAYER
  5
5A
100
AcDbSymbolTableRecord
100
AcDbLayerTableRecord
  2
OBJECT
 70
               0
 62
               7
  6
CONTINUOUS
  0
LAYER
  5
5B
100
AcDbSymbolTableRecord
100
AcDbLayerTableRecord
  2
DIMENTION
 70
               0
 62
               7
  6
CONTINUOUS
  0
LAYER
  5
5C
100
AcDbSymbolTableRecord
100
AcDbLayerTableRecord
  2
CENTER
 70
               0
 62
               7
  6
STYLE_17
  0
LAYER
  5
5D
100
AcDbSymbolTableRecord
100
AcDbLayerTableRecord
  2
HIDDEN
 70
               0
 62
               7
  6
STYLE_16
  0
LAYER
  5
5E
100
AcDbSymbolTableRecord
100
AcDbLayerTableRecord
  2
FRAME
 70
               0
 62
               7
  6
CONTINUOUS
  0
LAYER
  5
5F
100
AcDbSymbolTableRecord
100
AcDbLayerTableRecord
  2
OUTLINE
 70
               0
 62
               7
  6
STYLE_18
  0
LAYER
  5
60
100
AcDbSymbolTableRecord
100
AcDbLayerTableRecord
  2
TEXT
 70
               0
 62
               7
  6
CONTINUOUS
  0
ENDTAB
  0
TABLE
  2
STYLE
  5
3
100
AcDbSymbolTable
 70
               3
  0
STYLE
  5
17
100
AcDbSymbolTableRecord
100
AcDbTextStyleTableRecord
  2
STANDARD
 70
               0
 40
0.0
 41
1.0
 50
0.0
 71
               0
 42
0.0
  3
txt
  4
BIGFONT.SHX
  0
STYLE
  5
3C
100
AcDbSymbolTableRecord
100
AcDbTextStyleTableRecord
  2
ARIAL
 70
               0
 40
0.0
 41
1.0
 50
0.0
 71
               0
 42
0.0
  3
Arial
  4

1001
ACAD
1000
Arial
1071
        0
  0
STYLE
  5
3D
100
AcDbSymbolTableRecord
100
AcDbTextStyleTableRecord
  2
________
 70
               0
 40
0.0
 41
1.0
 50
0.0
 71
               0
 42
0.0
  3
ＭＳ Ｐゴシック
  4

1001
ACAD
1000
ＭＳ Ｐゴシック
1071
        0
  0
ENDTAB
  0
TABLE
  2
VIEW
  5
5
100
AcDbSymbolTable
 70
               0
  0
ENDTAB
  0
TABLE
  2
UCS
  5
6
100
AcDbSymbolTable
 70
               0
  0
ENDTAB
  0
TABLE
  2
APPID
  5
8
100
AcDbSymbolTable
 70
               1
  0
APPID
  5
16
100
AcDbSymbolTableRecord
100
AcDbRegAppTableRecord
  2
ACAD
 70
               0
  0
ENDTAB
  0
TABLE
  2
DIMSTYLE
  5
9
100
AcDbSymbolTable
 70
               2
  0
DIMSTYLE
105
18
100
AcDbSymbolTableRecord
100
AcDbDimStyleTableRecord
  2
STANDARD
 70
               0
  3

  4

  5

  6

  7

 40
1.0
 41
0.18
 42
0.0625
 43
0.38
 44
0.18
 45
0.0
 46
0.0
 47
0.0
 48
0.0
 71
               0
 72
               0
 73
               1
 74
               1
 75
               0
 76
               0
 77
               0
 78
               0
140
0.18
141
0.09
142
0.0
143
25.399999999999999
144
1.0
145
0.0
146
1.0
147
0.09
170
               0
171
               2
172
               0
173
               0
174
               0
175
               0
176
               0
177
               0
178
               0
270
               2
271
               4
272
               4
273
               2
274
               2
275
               0
280
               0
281
               0
282
               0
283
               1
284
               0
285
               0
286
               0
287
               0
288
               0
340
17
  0
DIMSTYLE
105
58
100
AcDbSymbolTableRecord
100
AcDbDimStyleTableRecord
  2
CAD
 70
               0
  3
<>
  4
[]
  5
VW_OPENARROW
  6

  7

 40
1.0
 41
31.75
 42
9.9999999999999982
 43
7.9999999999999991
 44
19.999999999999996
 45
0.0
 46
0.0
 47
0.0
 48
0.0
 71
               0
 72
               0
 73
               0
 74
               0
 75
               0
 76
               0
 77
               1
 78
              11
140
33.866666666666667
141
0.0
142
0.0
143
1.0
144
1.0
145
0.0
146
0.7
147
0.099999999627471
170
               0
171
               1
172
               1
173
               0
174
               1
175
               0
176
               0
177
               0
178
               0
270
               2
271
               4
272
               4
273
               2
274
               2
275
               0
280
               0
281
               0
282
               0
283
               1
284
              11
285
              11
286
              11
287
               0
288
               0
340
3D
  0
ENDTAB
  0
TABLE
  2
BLOCK_RECORD
  5
1
100
AcDbSymbolTable
 70
              32
  0
BLOCK_RECORD
  5
A
100
AcDbSymbolTableRecord
100
AcDbBlockTableRecord
  2
*MODEL_SPACE
  0
BLOCK_RECORD
  5
B
100
AcDbSymbolTableRecord
100
AcDbBlockTableRecord
  2
*PAPER_SPACE
  0
BLOCK_RECORD
  5
52
100
AcDbSymbolTableRecord
100
AcDbBlockTableRecord
  2
VW_OPENARROW
  0
BLOCK_RECORD
  5
1D
100
AcDbSymbolTableRecord
100
AcDbBlockTableRecord
  2
*U1
  0
BLOCK_RECORD
  5
1E
100
AcDbSymbolTableRecord
100
AcDbBlockTableRecord
  2
*U2
  0
BLOCK_RECORD
  5
1F
100
AcDbSymbolTableRecord
100
AcDbBlockTableRecord
  2
*U3
  0
BLOCK_RECORD
  5
20
100
AcDbSymbolTableRecord
100
AcDbBlockTableRecord
  2
*U4
  0
BLOCK_RECORD
  5
21
100
AcDbSymbolTableRecord
100
AcDbBlockTableRecord
  2
*U5
  0
BLOCK_RECORD
  5
22
100
AcDbSymbolTableRecord
100
AcDbBlockTableRecord
  2
*U6
  0
BLOCK_RECORD
  5
23
100
AcDbSymbolTableRecord
100
AcDbBlockTableRecord
  2
*D7
  0
BLOCK_RECORD
  5
24
100
AcDbSymbolTableRecord
100
AcDbBlockTableRecord
  2
*D8
  0
BLOCK_RECORD
  5
25
100
AcDbSymbolTableRecord
100
AcDbBlockTableRecord
  2
*D9
  0
BLOCK_RECORD
  5
26
100
AcDbSymbolTableRecord
100
AcDbBlockTableRecord
  2
*U10
  0
BLOCK_RECORD
  5
27
100
AcDbSymbolTableRecord
100
AcDbBlockTableRecord
  2
*U11
  0
BLOCK_RECORD
  5
28
100
AcDbSymbolTableRecord
100
AcDbBlockTableRecord
  2
*U12
  0
BLOCK_RECORD
  5
29
100
AcDbSymbolTableRecord
100
AcDbBlockTableRecord
  2
*U13
  0
BLOCK_RECORD
  5
2A
100
AcDbSymbolTableRecord
100
AcDbBlockTableRecord
  2
*D14
  0
BLOCK_RECORD
  5
2B
100
AcDbSymbolTableRecord
100
AcDbBlockTableRecord
  2
*D15
  0
BLOCK_RECORD
  5
2C
100
AcDbSymbolTableRecord
100
AcDbBlockTableRecord
  2
*U16
  0
BLOCK_RECORD
  5
2D
100
AcDbSymbolTableRecord
100
AcDbBlockTableRecord
  2
*U17
  0
BLOCK_RECORD
  5
2E
100
AcDbSymbolTableRecord
100
AcDbBlockTableRecord
  2
*D18
  0
BLOCK_RECORD
  5
2F
100
AcDbSymbolTableRecord
100
AcDbBlockTableRecord
  2
*D19
  0
BLOCK_RECORD
  5
30
100
AcDbSymbolTableRecord
100
AcDbBlockTableRecord
  2
*D20
  0
BLOCK_RECORD
  5
31
100
AcDbSymbolTableRecord
100
AcDbBlockTableRecord
  2
*D21
  0
BLOCK_RECORD
  5
32
100
AcDbSymbolTableRecord
100
AcDbBlockTableRecord
  2
*D22
  0
BLOCK_RECORD
  5
33
100
AcDbSymbolTableRecord
100
AcDbBlockTableRecord
  2
*D23
  0
BLOCK_RECORD
  5
34
100
AcDbSymbolTableRecord
100
AcDbBlockTableRecord
  2
*U24
  0
BLOCK_RECORD
  5
35
100
AcDbSymbolTableRecord
100
AcDbBlockTableRecord
  2
*U25
  0
BLOCK_RECORD
  5
36
100
AcDbSymbolTableRecord
100
AcDbBlockTableRecord
  2
*U26
  0
BLOCK_RECORD
  5
37
100
AcDbSymbolTableRecord
100
AcDbBlockTableRecord
  2
*U27
  0
BLOCK_RECORD
  5
38
100
AcDbSymbolTableRecord
100
AcDbBlockTableRecord
  2
*U28
  0
BLOCK_RECORD
  5
39
100
AcDbSymbolTableRecord
100
AcDbBlockTableRecord
  2
*U29
  0
BLOCK_RECORD
  5
3A
100
AcDbSymbolTableRecord
100
AcDbBlockTableRecord
  2
*U30
  0
BLOCK_RECORD
  5
3B
100
AcDbSymbolTableRecord
100
AcDbBlockTableRecord
  2
*U31
  0
ENDTAB
  0
ENDSEC
  0
SECTION
  2
BLOCKS
  0
BLOCK
  5
D
100
AcDbEntity
  8
0
100
AcDbBlockBegin
  2
*MODEL_SPACE
 70
               0
 10
0.0
 20
0.0
 30
0.0
  3
*MODEL_SPACE
  1

  0
ENDBLK
  5
E
100
AcDbEntity
  8
0
100
AcDbBlockEnd
  0
BLOCK
  5
F
100
AcDbEntity
 67
               1
  8
0
100
AcDbBlockBegin
  2
*PAPER_SPACE
 70
               0
 10
0.0
 20
0.0
 30
0.0
  3
*PAPER_SPACE
  1

  0
ENDBLK
  5
10
100
AcDbEntity
 67
               1
  8
0
100
AcDbBlockEnd
  0
BLOCK
  5
53
100
AcDbEntity
  8
0
  6
BYBLOCK
 62
               0
100
AcDbBlockBegin
  2
VW_OPENARROW
 70
               0
 10
0.0
 20
0.0
 30
0.0
  3
VW_OPENARROW
  1

  0
LINE
  5
54
100
AcDbEntity
  8
0
  6
BYBLOCK
 62
               0
100
AcDbLine
 10
0.0
 20
0.0
 30
0.0
 11
-1.0
 21
0.0
 31
0.0
  0
LINE
  5
55
100
AcDbEntity
  8
0
  6
BYBLOCK
 62
               0
100
AcDbLine
 10
0.0
 20
0.0
 30
0.0
 11
-0.9921874999999999
 21
-0.2658558393652545
 31
0.0
  0
LINE
  5
56
100
AcDbEntity
  8
0
  6
BYBLOCK
 62
               0
100
AcDbLine
 10
0.0
 20
0.0
 30
0.0
 11
-0.9921874999999999
 21
0.2658558393652548
 31
0.0
  0
ENDBLK
  5
57
100
AcDbEntity
  8
0
100
AcDbBlockEnd
  0
BLOCK
  5
61
100
AcDbEntity
  8
FRAME
100
AcDbBlockBegin
  2
*U1
 70
               1
 10
0.0
 20
0.0
 30
0.0
  3
*U1
  1

  0
ENDBLK
  5
62
100
AcDbEntity
  8
FRAME
100
AcDbBlockEnd
  0
BLOCK
  5
63
100
AcDbEntity
  8
FRAME
100
AcDbBlockBegin
  2
*U2
 70
               1
 10
0.0
 20
0.0
 30
0.0
  3
*U2
  1

  0
ENDBLK
  5
64
100
AcDbEntity
  8
FRAME
100
AcDbBlockEnd
  0
BLOCK
  5
65
100
AcDbEntity
  8
FRAME
100
AcDbBlockBegin
  2
*U3
 70
               1
 10
0.0
 20
0.0
 30
0.0
  3
*U3
  1

  0
ENDBLK
  5
66
100
AcDbEntity
  8
FRAME
100
AcDbBlockEnd
  0
BLOCK
  5
67
100
AcDbEntity
  8
FRAME
100
AcDbBlockBegin
  2
*U4
 70
               1
 10
0.0
 20
0.0
 30
0.0
  3
*U4
  1

  0
ENDBLK
  5
68
100
AcDbEntity
  8
FRAME
100
AcDbBlockEnd
  0
BLOCK
  5
69
100
AcDbEntity
  8
FRAME
100
AcDbBlockBegin
  2
*U5
 70
               1
 10
0.0
 20
0.0
 30
0.0
  3
*U5
  1

  0
ENDBLK
  5
6A
100
AcDbEntity
  8
FRAME
100
AcDbBlockEnd
  0
BLOCK
  5
6B
100
AcDbEntity
  8
FRAME
100
AcDbBlockBegin
  2
*U6
 70
               1
 10
0.0
 20
0.0
 30
0.0
  3
*U6
  1

  0
INSERT
  5
6C
100
AcDbEntity
  8
FRAME
 62
               0
100
AcDbBlockReference
  2
*U1
 10
0.0
 20
0.0
 30
0.0
  0
INSERT
  5
6D
100
AcDbEntity
  8
FRAME
 62
               0
100
AcDbBlockReference
  2
*U2
 10
0.0
 20
0.0
 30
0.0
  0
INSERT
  5
6E
100
AcDbEntity
  8
FRAME
 62
               0
100
AcDbBlockReference
  2
*U3
 10
0.0
 20
0.0
 30
0.0
  0
INSERT
  5
6F
100
AcDbEntity
  8
FRAME
 62
               0
100
AcDbBlockReference
  2
*U4
 10
0.0
 20
0.0
 30
0.0
  0
INSERT
  5
70
100
AcDbEntity
  8
FRAME
 62
               0
100
AcDbBlockReference
  2
*U5
 10
0.0
 20
0.0
 30
0.0
  0
ENDBLK
  5
71
100
AcDbEntity
  8
FRAME
100
AcDbBlockEnd
  0
BLOCK
  5
72
100
AcDbEntity
  8
DIMENTION
100
AcDbBlockBegin
  2
*D7
 70
               1
 10
0.0
 20
0.0
 30
0.0
  3
*D7
  1

  0
LINE
  5
73
100
AcDbEntity
  8
DIMENTION
  6
CONTINUOUS
 62
               0
100
AcDbLine
 10
1691.0
 20
-262.0
 30
0.0
 11
1691.0
 21
-130.0
 31
0.0
  0
LINE
  5
74
100
AcDbEntity
  8
DIMENTION
  6
CONTINUOUS
 62
               0
100
AcDbLine
 10
1701.0
 20
-218.5
 30
0.0
 11
1701.0
 21
-130.0
 31
0.0
  0
LINE
  5
75
100
AcDbEntity
  8
DIMENTION
  6
CONTINUOUS
 62
               0
100
AcDbLine
 10
1701.0
 20
-150.0
 30
0.0
 11
1691.0
 21
-150.0
 31
0.0
  0
LINE
  5
76
100
AcDbEntity
  8
DIMENTION
  6
CONTINUOUS
 62
               0
100
AcDbLine
 10
1691.0
 20
-150.0
 30
0.0
 11
1534.0
 21
-150.0
 31
0.0
  0
LINE
  5
77
100
AcDbEntity
  8
DIMENTION
  6
CONTINUOUS
 62
               0
100
AcDbLine
 10
1691.0
 20
-150.0
 30
0.0
 11
1659.25
 21
-158.50738685968815
 31
0.0
  0
LINE
  5
78
100
AcDbEntity
  8
DIMENTION
  6
CONTINUOUS
 62
               0
100
AcDbLine
 10
1691.0
 20
-150.0
 30
0.0
 11
1659.25
 21
-141.49261314031185
 31
0.0
  0
LINE
  5
79
100
AcDbEntity
  8
DIMENTION
  6
CONTINUOUS
 62
               0
100
AcDbLine
 10
1701.0
 20
-150.0
 30
0.0
 11
1761.0
 21
-150.0
 31
0.0
  0
LINE
  5
7A
100
AcDbEntity
  8
DIMENTION
  6
CONTINUOUS
 62
               0
100
AcDbLine
 10
1701.0
 20
-150.0
 30
0.0
 11
1732.75
 21
-141.49261314031185
 31
0.0
  0
LINE
  5
7B
100
AcDbEntity
  8
DIMENTION
  6
CONTINUOUS
 62
               0
100
AcDbLine
 10
1701.0
 20
-150.0
 30
0.0
 11
1732.75
 21
-158.50738685968815
 31
0.0
  0
MTEXT
  5
7C
100
AcDbEntity
  8
DIMENTION
 62
               0
100
AcDbMText
 10
1534.0
 20
-106.66666667039195
 30
0.0
 40
33.866666666666667
 41
0.0
 71
               1
 72
               1
  1
※5～6
  7
________
  0
POINT
  5
7D
100
AcDbEntity
  8
DEFPOINTS
 62
               0
100
AcDbPoint
 10
1701.0
 20
-228.5
 30
0.0
  0
POINT
  5
7E
100
AcDbEntity
  8
DEFPOINTS
 62
               0
100
AcDbPoint
 10
1691.0
 20
-272.0
 30
0.0
  0
POINT
  5
7F
100
AcDbEntity
  8
DEFPOINTS
 62
               0
100
AcDbPoint
 10
1691.0
 20
-150.0
 30
0.0
  0
ENDBLK
  5
80
100
AcDbEntity
  8
DIMENTION
100
AcDbBlockEnd
  0
BLOCK
  5
81
100
AcDbEntity
  8
DIMENTION
100
AcDbBlockBegin
  2
*D8
 70
               1
 10
0.0
 20
0.0
 30
0.0
  3
*D8
  1

  0
LINE
  5
82
100
AcDbEntity
  8
DIMENTION
  6
CONTINUOUS
 62
               0
100
AcDbLine
 10
1176.5355339059333
 20
-277.0
 30
0.0
 11
1035.0
 21
-277.0
 31
0.0
  0
LINE
  5
83
100
AcDbEntity
  8
DIMENTION
  6
CONTINUOUS
 62
               0
100
AcDbLine
 10
1176.5355339059333
 20
-723.0
 30
0.0
 11
1035.0
 21
-723.0
 31
0.0
  0
LINE
  5
84
100
AcDbEntity
  8
DIMENTION
  6
CONTINUOUS
 62
               0
100
AcDbLine
 10
1055.0
 20
-277.0
 30
0.0
 11
1055.0
 21
-723.0
 31
0.0
  0
LINE
  5
85
100
AcDbEntity
  8
DIMENTION
  6
CONTINUOUS
 62
               0
100
AcDbLine
 10
1055.0
 20
-277.0
 30
0.0
 11
1063.507386859688
 21
-308.75
 31
0.0
  0
LINE
  5
86
100
AcDbEntity
  8
DIMENTION
  6
CONTINUOUS
 62
               0
100
AcDbLine
 10
1055.0
 20
-277.0
 30
0.0
 11
1046.492613140312
 21
-308.75
 31
0.0
  0
LINE
  5
87
100
AcDbEntity
  8
DIMENTION
  6
CONTINUOUS
 62
               0
100
AcDbLine
 10
1055.0
 20
-723.0
 30
0.0
 11
1046.492613140312
 21
-691.25
 31
0.0
  0
LINE
  5
88
100
AcDbEntity
  8
DIMENTION
  6
CONTINUOUS
 62
               0
100
AcDbLine
 10
1055.0
 20
-723.0
 30
0.0
 11
1063.507386859688
 21
-691.25
 31
0.0
  0
MTEXT
  5
89
100
AcDbEntity
  8
DIMENTION
 62
               0
100
AcDbMText
 10
1011.6666666703919
 20
-586.78333467907373
 30
0.0
 40
33.866666666666667
 41
0.0
 71
               1
 72
               1
  1
446(内寸)
  7
________
 11
0.0
 21
1.0
 31
0.0
  0
POINT
  5
8A
100
AcDbEntity
  8
DEFPOINTS
 62
               0
100
AcDbPoint
 10
1186.5355339059333
 20
-723.0
 30
0.0
  0
POINT
  5
8B
100
AcDbEntity
  8
DEFPOINTS
 62
               0
100
AcDbPoint
 10
1186.5355339059333
 20
-277.0
 30
0.0
  0
POINT
  5
8C
100
AcDbEntity
  8
DEFPOINTS
 62
               0
100
AcDbPoint
 10
1055.0
 20
-277.0
 30
0.0
  0
ENDBLK
  5
8D
100
AcDbEntity
  8
DIMENTION
100
AcDbBlockEnd
  0
BLOCK
  5
8E
100
AcDbEntity
  8
DIMENTION
100
AcDbBlockBegin
  2
*D9
 70
               1
 10
0.0
 20
0.0
 30
0.0
  3
*D9
  1

  0
LINE
  5
8F
100
AcDbEntity
  8
DIMENTION
  6
CONTINUOUS
 62
               0
100
AcDbLine
 10
1183.0
 20
-729.46446609406757
 30
0.0
 11
1183.0
 21
-870.00000000000023
 31
0.0
  0
LINE
  5
90
100
AcDbEntity
  8
DIMENTION
  6
CONTINUOUS
 62
               0
100
AcDbLine
 10
1555.0
 20
-729.46446609406757
 30
0.0
 11
1555.0
 21
-870.00000000000023
 31
0.0
  0
LINE
  5
91
100
AcDbEntity
  8
DIMENTION
  6
CONTINUOUS
 62
               0
100
AcDbLine
 10
1183.0
 20
-850.00000000000023
 30
0.0
 11
1555.0
 21
-850.00000000000023
 31
0.0
  0
LINE
  5
92
100
AcDbEntity
  8
DIMENTION
  6
CONTINUOUS
 62
               0
100
AcDbLine
 10
1183.0
 20
-850.00000000000023
 30
0.0
 11
1214.75
 21
-841.49261314031207
 31
0.0
  0
LINE
  5
93
100
AcDbEntity
  8
DIMENTION
  6
CONTINUOUS
 62
               0
100
AcDbLine
 10
1183.0
 20
-850.00000000000023
 30
0.0
 11
1214.75
 21
-858.50738685968838
 31
0.0
  0
LINE
  5
94
100
AcDbEntity
  8
DIMENTION
  6
CONTINUOUS
 62
               0
100
AcDbLine
 10
1555.0
 20
-850.00000000000023
 30
0.0
 11
1523.25
 21
-858.50738685968838
 31
0.0
  0
LINE
  5
95
100
AcDbEntity
  8
DIMENTION
  6
CONTINUOUS
 62
               0
100
AcDbLine
 10
1555.0
 20
-850.00000000000023
 30
0.0
 11
1523.25
 21
-841.49261314031207
 31
0.0
  0
MTEXT
  5
96
100
AcDbEntity
  8
DIMENTION
 62
               0
100
AcDbMText
 10
1289.2166653209263
 20
-806.66666667039215
 30
0.0
 40
33.866666666666667
 41
0.0
 71
               1
 72
               1
  1
372(内寸)
  7
________
  0
POINT
  5
97
100
AcDbEntity
  8
DEFPOINTS
 62
               0
100
AcDbPoint
 10
1555.0
 20
-719.46446609406757
 30
0.0
  0
POINT
  5
98
100
AcDbEntity
  8
DEFPOINTS
 62
               0
100
AcDbPoint
 10
1183.0
 20
-719.46446609406757
 30
0.0
  0
POINT
  5
99
100
AcDbEntity
  8
DEFPOINTS
 62
               0
100
AcDbPoint
 10
1183.0
 20
-850.00000000000023
 30
0.0
  0
ENDBLK
  5
9A
100
AcDbEntity
  8
DIMENTION
100
AcDbBlockEnd
  0
BLOCK
  5
9B
100
AcDbEntity
  8
OBJECT
100
AcDbBlockBegin
  2
*U10
 70
               1
 10
0.0
 20
0.0
 30
0.0
  3
*U10
  1

  0
LINE
  5
9C
100
AcDbEntity
  8
OUTLINE
 62
               0
100
AcDbLine
 10
1701.0
 20
-254.50252531694105
 30
0.0
 11
1706.0
 21
-249.50252531694105
 31
0.0
  0
LINE
  5
9D
100
AcDbEntity
  8
OUTLINE
 62
               0
100
AcDbLine
 10
1701.0
 20
-261.57359312880658
 30
0.0
 11
1706.0
 21
-256.57359312880658
 31
0.0
  0
LINE
  5
9E
100
AcDbEntity
  8
OUTLINE
 62
               0
100
AcDbLine
 10
1701.0
 20
-268.64466094067211
 30
0.0
 11
1706.0
 21
-263.64466094067211
 31
0.0
  0
LINE
  5
9F
100
AcDbEntity
  8
OUTLINE
 62
               0
100
AcDbLine
 10
1701.0
 20
-275.71572875253742
 30
0.0
 11
1706.0
 21
-270.71572875253742
 31
0.0
  0
LINE
  5
A0
100
AcDbEntity
  8
OUTLINE
 62
               0
100
AcDbLine
 10
1691.0
 20
-292.78679656440272
 30
0.0
 11
1691.7867965644027
 21
-292.0
 31
0.0
  0
LINE
  5
A1
100
AcDbEntity
  8
OUTLINE
 62
               0
100
AcDbLine
 10
1701.0
 20
-282.78679656440272
 30
0.0
 11
1706.0
 21
-277.78679656440272
 31
0.0
  0
LINE
  5
A2
100
AcDbEntity
  8
OUTLINE
 62
               0
100
AcDbLine
 10
1693.857864376268
 20
-297.0
 30
0.0
 11
1698.857864376268
 21
-292.0
 31
0.0
  0
LINE
  5
A3
100
AcDbEntity
  8
OUTLINE
 62
               0
100
AcDbLine
 10
1701.0
 20
-289.85786437626803
 30
0.0
 11
1706.0
 21
-284.85786437626803
 31
0.0
  0
LINE
  5
A4
100
AcDbEntity
  8
OUTLINE
 62
               0
100
AcDbLine
 10
1700.9289321881336
 20
-297.0
 30
0.0
 11
1706.0
 21
-291.92893218813356
 31
0.0
  0
ENDBLK
  5
A5
100
AcDbEntity
  8
OBJECT
100
AcDbBlockEnd
  0
BLOCK
  5
A6
100
AcDbEntity
  8
OBJECT
100
AcDbBlockBegin
  2
*U11
 70
               1
 10
0.0
 20
0.0
 30
0.0
  3
*U11
  1

  0
LINE
  5
A7
100
AcDbEntity
  8
OUTLINE
  6
CONTINUOUS
 62
               0
100
AcDbLine
 10
1691.0
 20
-744.85786437626894
 30
0.0
 11
1692.8578643762689
 21
-743.0
 31
0.0
  0
LINE
  5
A8
100
AcDbEntity
  8
OUTLINE
  6
CONTINUOUS
 62
               0
100
AcDbLine
 10
1694.9289321881342
 20
-748.0
 30
0.0
 11
1699.9289321881342
 21
-743.0
 31
0.0
  0
LINE
  5
A9
100
AcDbEntity
  8
OUTLINE
  6
CONTINUOUS
 62
               0
100
AcDbLine
 10
1701.0
 20
-749.0
 30
0.0
 11
1706.0
 21
-744.0
 31
0.0
  0
LINE
  5
AA
100
AcDbEntity
  8
OUTLINE
  6
CONTINUOUS
 62
               0
100
AcDbLine
 10
1701.0
 20
-756.0710678118653
 30
0.0
 11
1706.0
 21
-751.0710678118653
 31
0.0
  0
LINE
  5
AB
100
AcDbEntity
  8
OUTLINE
  6
CONTINUOUS
 62
               0
100
AcDbLine
 10
1701.0
 20
-763.14213562373061
 30
0.0
 11
1706.0
 21
-758.14213562373061
 31
0.0
  0
LINE
  5
AC
100
AcDbEntity
  8
OUTLINE
  6
CONTINUOUS
 62
               0
100
AcDbLine
 10
1701.0
 20
-770.21320343559637
 30
0.0
 11
1706.0
 21
-765.21320343559637
 31
0.0
  0
LINE
  5
AD
100
AcDbEntity
  8
OUTLINE
  6
CONTINUOUS
 62
               0
100
AcDbLine
 10
1701.0
 20
-777.28427124746167
 30
0.0
 11
1706.0
 21
-772.28427124746167
 31
0.0
  0
LINE
  5
AE
100
AcDbEntity
  8
OUTLINE
  6
CONTINUOUS
 62
               0
100
AcDbLine
 10
1701.0
 20
-784.35533905932698
 30
0.0
 11
1706.0
 21
-779.35533905932698
 31
0.0
  0
LINE
  5
AF
100
AcDbEntity
  8
OUTLINE
  6
CONTINUOUS
 62
               0
100
AcDbLine
 10
1701.0
 20
-791.42640687119228
 30
0.0
 11
1706.0
 21
-786.42640687119228
 31
0.0
  0
LINE
  5
B0
100
AcDbEntity
  8
OUTLINE
  6
CONTINUOUS
 62
               0
100
AcDbLine
 10
1705.1773606599029
 20
-794.3201140231547
 30
0.0
 11
1706.0
 21
-793.49747468305759
 31
0.0
  0
ENDBLK
  5
B1
100
AcDbEntity
  8
OBJECT
100
AcDbBlockEnd
  0
BLOCK
  5
B2
100
AcDbEntity
  8
OBJECT
100
AcDbBlockBegin
  2
*U12
 70
               1
 10
0.0
 20
0.0
 30
0.0
  3
*U12
  1

  0
ARC
  5
B3
100
AcDbEntity
  8
OBJECT
 62
               0
100
AcDbCircle
 10
-1598.7525512860839
 20
-592.5
 30
0.0
 40
12.499999999999822
100
AcDbArc
 50
36.869896153767847
 51
168.46304096718475
  0
ARC
  5
B4
100
AcDbEntity
  8
OBJECT
 62
               0
100
AcDbCircle
 10
-1578.7525512860839
 20
-577.5
 30
0.0
 40
12.500000000000187
100
AcDbArc
 50
216.86989913792019
 51
348.46304096718427
  0
ENDBLK
  5
B5
100
AcDbEntity
  8
OBJECT
100
AcDbBlockEnd
  0
BLOCK
  5
B6
100
AcDbEntity
  8
OBJECT
100
AcDbBlockBegin
  2
*U13
 70
               1
 10
0.0
 20
0.0
 30
0.0
  3
*U13
  1

  0
ARC
  5
B7
100
AcDbEntity
  8
OBJECT
 62
               0
100
AcDbCircle
 10
-1201.2474487139161
 20
-592.5
 30
0.0
 40
12.500000000000233
100
AcDbArc
 50
11.536959032815272
 51
143.13010384623215
  0
ARC
  5
B8
100
AcDbEntity
  8
OBJECT
 62
               0
100
AcDbCircle
 10
-1221.2474487139161
 20
-577.5
 30
0.0
 40
12.500000000000233
100
AcDbArc
 50
191.5369590328153
 51
323.13010086207987
  0
ENDBLK
  5
B9
100
AcDbEntity
  8
OBJECT
100
AcDbBlockEnd
  0
BLOCK
  5
BA
100
AcDbEntity
  8
DIMENTION
100
AcDbBlockBegin
  2
*D14
 70
               1
 10
0.0
 20
0.0
 30
0.0
  3
*D14
  1

  0
LINE
  5
BB
100
AcDbEntity
  8
DIMENTION
  6
CONTINUOUS
 62
               0
100
AcDbLine
 10
215.0
 20
-130.0
 30
0.0
 11
180.0
 21
-130.0
 31
0.0
  0
LINE
  5
BC
100
AcDbEntity
  8
DIMENTION
  6
CONTINUOUS
 62
               0
100
AcDbLine
 10
255.0
 20
-138.0
 30
0.0
 11
180.0
 21
-138.0
 31
0.0
  0
LINE
  5
BD
100
AcDbEntity
  8
DIMENTION
  6
CONTINUOUS
 62
               0
100
AcDbLine
 10
200.0
 20
-138.0
 30
0.0
 11
200.0
 21
-130.0
 31
0.0
  0
LINE
  5
BE
100
AcDbEntity
  8
DIMENTION
  6
CONTINUOUS
 62
               0
100
AcDbLine
 10
200.0
 20
-130.0
 30
0.0
 11
200.0
 21
-68.833333333333343
 31
0.0
  0
LINE
  5
BF
100
AcDbEntity
  8
DIMENTION
  6
CONTINUOUS
 62
               0
100
AcDbLine
 10
200.0
 20
-130.0
 30
0.0
 11
191.49261314031185
 21
-98.25
 31
0.0
  0
LINE
  5
C0
100
AcDbEntity
  8
DIMENTION
  6
CONTINUOUS
 62
               0
100
AcDbLine
 10
200.0
 20
-130.0
 30
0.0
 11
208.50738685968815
 21
-98.25
 31
0.0
  0
LINE
  5
C1
100
AcDbEntity
  8
DIMENTION
  6
CONTINUOUS
 62
               0
100
AcDbLine
 10
200.0
 20
-138.0
 30
0.0
 11
200.0
 21
-198.0
 31
0.0
  0
LINE
  5
C2
100
AcDbEntity
  8
DIMENTION
  6
CONTINUOUS
 62
               0
100
AcDbLine
 10
200.0
 20
-138.0
 30
0.0
 11
208.50738685968813
 21
-169.75
 31
0.0
  0
LINE
  5
C3
100
AcDbEntity
  8
DIMENTION
  6
CONTINUOUS
 62
               0
100
AcDbLine
 10
200.0
 20
-138.0
 30
0.0
 11
191.49261314031185
 21
-169.75
 31
0.0
  0
MTEXT
  5
C4
100
AcDbEntity
  8
DIMENTION
 62
               0
100
AcDbMText
 10
156.66666667039195
 20
-90.000000000000014
 30
0.0
 40
33.866666666666667
 41
0.0
 71
               1
 72
               1
  1
8
  7
________
 11
0.0
 21
1.0
 31
0.0
  0
POINT
  5
C5
100
AcDbEntity
  8
DEFPOINTS
 62
               0
100
AcDbPoint
 10
265.0
 20
-138.0
 30
0.0
  0
POINT
  5
C6
100
AcDbEntity
  8
DEFPOINTS
 62
               0
100
AcDbPoint
 10
225.0
 20
-130.0
 30
0.0
  0
POINT
  5
C7
100
AcDbEntity
  8
DEFPOINTS
 62
               0
100
AcDbPoint
 10
200.0
 20
-130.0
 30
0.0
  0
ENDBLK
  5
C8
100
AcDbEntity
  8
DIMENTION
100
AcDbBlockEnd
  0
BLOCK
  5
C9
100
AcDbEntity
  8
DIMENTION
100
AcDbBlockBegin
  2
*D15
 70
               1
 10
0.0
 20
0.0
 30
0.0
  3
*D15
  1

  0
LINE
  5
CA
100
AcDbEntity
  8
DIMENTION
  6
CONTINUOUS
 62
               0
100
AcDbLine
 10
269.0
 20
-800.0
 30
0.0
 11
80.0
 21
-800.0
 31
0.0
  0
LINE
  5
CB
100
AcDbEntity
  8
DIMENTION
  6
CONTINUOUS
 62
               0
100
AcDbLine
 10
255.0
 20
-130.0
 30
0.0
 11
80.0
 21
-130.0
 31
0.0
  0
LINE
  5
CC
100
AcDbEntity
  8
DIMENTION
  6
CONTINUOUS
 62
               0
100
AcDbLine
 10
100.0
 20
-800.0
 30
0.0
 11
100.0
 21
-130.0
 31
0.0
  0
LINE
  5
CD
100
AcDbEntity
  8
DIMENTION
  6
CONTINUOUS
 62
               0
100
AcDbLine
 10
100.0
 20
-800.0
 30
0.0
 11
91.492613140311846
 21
-768.25
 31
0.0
  0
LINE
  5
CE
100
AcDbEntity
  8
DIMENTION
  6
CONTINUOUS
 62
               0
100
AcDbLine
 10
100.0
 20
-800.0
 30
0.0
 11
108.50738685968814
 21
-768.25
 31
0.0
  0
LINE
  5
CF
100
AcDbEntity
  8
DIMENTION
  6
CONTINUOUS
 62
               0
100
AcDbLine
 10
100.0
 20
-130.0
 30
0.0
 11
108.50738685968813
 21
-161.75
 31
0.0
  0
LINE
  5
D0
100
AcDbEntity
  8
DIMENTION
  6
CONTINUOUS
 62
               0
100
AcDbLine
 10
100.0
 20
-130.0
 30
0.0
 11
91.49261314031186
 21
-161.75
 31
0.0
  0
MTEXT
  5
D1
100
AcDbEntity
  8
DIMENTION
 62
               0
100
AcDbMText
 10
56.666666670391969
 20
-496.75
 30
0.0
 40
33.866666666666667
 41
0.0
 71
               1
 72
               1
  1
670
  7
________
 11
0.0
 21
1.0
 31
0.0
  0
POINT
  5
D2
100
AcDbEntity
  8
DEFPOINTS
 62
               0
100
AcDbPoint
 10
265.0
 20
-130.0
 30
0.0
  0
POINT
  5
D3
100
AcDbEntity
  8
DEFPOINTS
 62
               0
100
AcDbPoint
 10
279.0
 20
-800.0
 30
0.0
  0
POINT
  5
D4
100
AcDbEntity
  8
DEFPOINTS
 62
               0
100
AcDbPoint
 10
100.0
 20
-800.0
 30
0.0
  0
ENDBLK
  5
D5
100
AcDbEntity
  8
DIMENTION
100
AcDbBlockEnd
  0
BLOCK
  5
D6
100
AcDbEntity
  8
OBJECT
100
AcDbBlockBegin
  2
*U16
 70
               1
 10
0.0
 20
0.0
 30
0.0
  3
*U16
  1

  0
LINE
  5
D7
100
AcDbEntity
  8
OBJECT
  6
CONTINUOUS
 62
               0
100
AcDbLine
 10
365.5
 20
-158.5
 30
0.0
 11
365.5
 21
-172.5
 31
0.0
  0
LINE
  5
D8
100
AcDbEntity
  8
OBJECT
  6
CONTINUOUS
 62
               0
100
AcDbLine
 10
362.5
 20
-158.5
 30
0.0
 11
362.5
 21
-171.0
 31
0.0
  0
LINE
  5
D9
100
AcDbEntity
  8
OBJECT
  6
CONTINUOUS
 62
               0
100
AcDbLine
 10
364.87373655343345
 20
-173.71925568901361
 30
0.0
 11
371.50450459549756
 21
-176.08738713260755
 31
0.0
  0
LINE
  5
DA
100
AcDbEntity
  8
OBJECT
  6
CONTINUOUS
 62
               0
100
AcDbLine
 10
356.49549540450244
 20
-173.91261286739245
 30
0.0
 11
366.54017937580466
 21
-177.5
 31
0.0
  0
LINE
  5
DB
100
AcDbEntity
  8
OBJECT
  6
CONTINUOUS
 62
               0
100
AcDbLine
 10
366.54017937580466
 20
-177.5
 30
0.0
 11
356.49549540450244
 21
-181.08738713260755
 31
0.0
  0
LINE
  5
DC
100
AcDbEntity
  8
OBJECT
  6
CONTINUOUS
 62
               0
100
AcDbLine
 10
371.50450459549756
 20
-178.91261286739245
 30
0.0
 11
361.45982062419534
 21
-182.5
 31
0.0
  0
LINE
  5
DD
100
AcDbEntity
  8
OBJECT
  6
CONTINUOUS
 62
               0
100
AcDbLine
 10
364.0
 20
-171.0
 30
0.0
 11
357.0
 21
-171.0
 31
0.0
  0
LINE
  5
DE
100
AcDbEntity
  8
OBJECT
  6
CONTINUOUS
 62
               0
100
AcDbLine
 10
364.0
 20
-174.0
 30
0.0
 11
357.0
 21
-174.0
 31
0.0
  0
ARC
  5
DF
100
AcDbEntity
  8
OBJECT
  6
CONTINUOUS
 62
               0
100
AcDbCircle
 10
357.0
 20
-172.5
 30
0.0
 40
1.5
100
AcDbArc
 50
90.0
 51
270.00004579247047
  0
ARC
  5
E0
100
AcDbEntity
  8
OBJECT
  6
CONTINUOUS
 62
               0
100
AcDbCircle
 10
371.0
 20
-177.5
 30
0.0
 40
1.5000000000002975
100
AcDbArc
 50
289.6538240580627
 51
70.346175941937361
  0
ARC
  5
E1
100
AcDbEntity
  8
OBJECT
  6
CONTINUOUS
 62
               0
100
AcDbCircle
 10
357.0
 20
-182.5
 30
0.0
 40
1.5000000000002283
100
AcDbArc
 50
70.346133057383526
 51
70.346133911145486
  0
ARC
  5
E2
100
AcDbEntity
  8
OBJECT
  6
CONTINUOUS
 62
               0
100
AcDbCircle
 10
357.0
 20
-182.5
 30
0.0
 40
1.5000000000002975
100
AcDbArc
 50
109.65382405806267
 51
250.34621906662261
  0
LINE
  5
E3
100
AcDbEntity
  8
OBJECT
  6
CONTINUOUS
 62
               0
100
AcDbLine
 10
357.50450459549756
 20
-181.08738713260755
 30
0.0
 11
357.50450609912878
 21
-181.08738766961869
 31
0.0
  0
LINE
  5
E4
100
AcDbEntity
  8
OBJECT
  6
CONTINUOUS
 62
               0
100
AcDbLine
 10
361.45982062419534
 20
-182.5
 30
0.0
 11
371.50450459549756
 21
-186.08738713260755
 31
0.0
  0
LINE
  5
E5
100
AcDbEntity
  8
OBJECT
  6
CONTINUOUS
 62
               0
100
AcDbLine
 10
356.49549540450244
 20
-183.91261286739245
 30
0.0
 11
366.54017937580466
 21
-187.5
 31
0.0
  0
ARC
  5
E6
100
AcDbEntity
  8
OBJECT
  6
CONTINUOUS
 62
               0
100
AcDbCircle
 10
364.0
 20
-172.5
 30
0.0
 40
1.5
100
AcDbArc
 50
270.0
 51
90.0
  0
ARC
  5
E7
100
AcDbEntity
  8
OBJECT
  6
CONTINUOUS
 62
               0
100
AcDbCircle
 10
364.0
 20
-158.5
 30
0.0
 40
1.5
100
AcDbArc
 50
0.0
 51
19.471220634487622
  0
ARC
  5
E8
100
AcDbEntity
  8
OBJECT
  6
CONTINUOUS
 62
               0
100
AcDbCircle
 10
364.0
 20
-158.5
 30
0.0
 40
1.5000000000002252
100
AcDbArc
 50
160.52877936551235
 51
180.0
  0
LINE
  5
E9
100
AcDbEntity
  8
OBJECT
  6
CONTINUOUS
 62
               0
100
AcDbLine
 10
362.5
 20
-165.5
 30
0.0
 11
365.5
 21
-165.5
 31
0.0
  0
LINE
  5
EA
100
AcDbEntity
  8
OBJECT
  6
CONTINUOUS
 62
               0
100
AcDbLine
 10
366.54017937580466
 20
-187.5
 30
0.0
 11
356.49549540450244
 21
-191.08738713260755
 31
0.0
  0
LINE
  5
EB
100
AcDbEntity
  8
OBJECT
  6
CONTINUOUS
 62
               0
100
AcDbLine
 10
371.50450459549756
 20
-188.91261286739245
 30
0.0
 11
361.45982062419534
 21
-192.5
 31
0.0
  0
ARC
  5
EC
100
AcDbEntity
  8
OBJECT
  6
CONTINUOUS
 62
               0
100
AcDbCircle
 10
371.0
 20
-187.5
 30
0.0
 40
1.5000000000002975
100
AcDbArc
 50
289.6538240580627
 51
70.346175941937361
  0
LINE
  5
ED
100
AcDbEntity
  8
OBJECT
  6
CONTINUOUS
 62
               0
100
AcDbLine
 10
366.54017937580466
 20
-187.5
 30
0.0
 11
356.49549540450244
 21
-191.08738713260755
 31
0.0
  0
ARC
  5
EE
100
AcDbEntity
  8
OBJECT
  6
CONTINUOUS
 62
               0
100
AcDbCircle
 10
357.0
 20
-192.5
 30
0.0
 40
1.5000000000002283
100
AcDbArc
 50
70.346133057383526
 51
70.346133911145486
  0
ARC
  5
EF
100
AcDbEntity
  8
OBJECT
  6
CONTINUOUS
 62
               0
100
AcDbCircle
 10
357.0
 20
-192.5
 30
0.0
 40
1.5000000000002975
100
AcDbArc
 50
109.65382405806267
 51
250.34621906662261
  0
LINE
  5
F0
100
AcDbEntity
  8
OBJECT
  6
CONTINUOUS
 62
               0
100
AcDbLine
 10
357.50450459549756
 20
-191.08738713260755
 30
0.0
 11
357.50450609912878
 21
-191.08738766961869
 31
0.0
  0
LINE
  5
F1
100
AcDbEntity
  8
OBJECT
  6
CONTINUOUS
 62
               0
100
AcDbLine
 10
356.49549540450244
 20
-193.91261286739245
 30
0.0
 11
366.54017937580466
 21
-197.5
 31
0.0
  0
LINE
  5
F2
100
AcDbEntity
  8
OBJECT
  6
CONTINUOUS
 62
               0
100
AcDbLine
 10
366.54017937580466
 20
-197.5
 30
0.0
 11
356.49549540450244
 21
-201.08738713260755
 31
0.0
  0
ARC
  5
F3
100
AcDbEntity
  8
OBJECT
  6
CONTINUOUS
 62
               0
100
AcDbCircle
 10
357.0
 20
-202.5
 30
0.0
 40
1.5000000000002283
100
AcDbArc
 50
70.346133057383526
 51
70.346133911145486
  0
ARC
  5
F4
100
AcDbEntity
  8
OBJECT
  6
CONTINUOUS
 62
               0
100
AcDbCircle
 10
357.0
 20
-202.5
 30
0.0
 40
1.5000000000002975
100
AcDbArc
 50
109.65382405806267
 51
250.34621906662261
  0
LINE
  5
F5
100
AcDbEntity
  8
OBJECT
  6
CONTINUOUS
 62
               0
100
AcDbLine
 10
357.50450459549756
 20
-201.08738713260755
 30
0.0
 11
357.50450609912878
 21
-201.08738766961869
 31
0.0
  0
LINE
  5
F6
100
AcDbEntity
  8
OBJECT
  6
CONTINUOUS
 62
               0
100
AcDbLine
 10
356.49549540450244
 20
-203.91261286739245
 30
0.0
 11
366.54017937580466
 21
-207.5
 31
0.0
  0
LINE
  5
F7
100
AcDbEntity
  8
OBJECT
  6
CONTINUOUS
 62
               0
100
AcDbLine
 10
366.54017937580466
 20
-207.5
 30
0.0
 11
356.49549540450244
 21
-211.08738713260755
 31
0.0
  0
ARC
  5
F8
100
AcDbEntity
  8
OBJECT
  6
CONTINUOUS
 62
               0
100
AcDbCircle
 10
357.0
 20
-212.5
 30
0.0
 40
1.5000000000002283
100
AcDbArc
 50
70.346133057383526
 51
70.346133911145486
  0
ARC
  5
F9
100
AcDbEntity
  8
OBJECT
  6
CONTINUOUS
 62
               0
100
AcDbCircle
 10
357.0
 20
-212.5
 30
0.0
 40
1.5000000000002975
100
AcDbArc
 50
109.65382405806267
 51
250.34621906662261
  0
LINE
  5
FA
100
AcDbEntity
  8
OBJECT
  6
CONTINUOUS
 62
               0
100
AcDbLine
 10
357.50450459549756
 20
-211.08738713260755
 30
0.0
 11
357.50450609912878
 21
-211.08738766961869
 31
0.0
  0
LINE
  5
FB
100
AcDbEntity
  8
OBJECT
  6
CONTINUOUS
 62
               0
100
AcDbLine
 10
356.49549540450244
 20
-213.91261286739245
 30
0.0
 11
366.54017937580466
 21
-217.5
 31
0.0
  0
LINE
  5
FC
100
AcDbEntity
  8
OBJECT
  6
CONTINUOUS
 62
               0
100
AcDbLine
 10
366.54017937580466
 20
-217.5
 30
0.0
 11
356.49549540450244
 21
-221.08738713260755
 31
0.0
  0
ARC
  5
FD
100
AcDbEntity
  8
OBJECT
  6
CONTINUOUS
 62
               0
100
AcDbCircle
 10
357.0
 20
-222.5
 30
0.0
 40
1.5000000000002283
100
AcDbArc
 50
70.346133057383526
 51
70.346133911145486
  0
ARC
  5
FE
100
AcDbEntity
  8
OBJECT
  6
CONTINUOUS
 62
               0
100
AcDbCircle
 10
357.0
 20
-222.5
 30
0.0
 40
1.5000000000002975
100
AcDbArc
 50
109.65382405806267
 51
250.34621906662261
  0
LINE
  5
FF
100
AcDbEntity
  8
OBJECT
  6
CONTINUOUS
 62
               0
100
AcDbLine
 10
357.50450459549756
 20
-221.08738713260755
 30
0.0
 11
357.50450609912878
 21
-221.08738766961869
 31
0.0
  0
LINE
  5
100
100
AcDbEntity
  8
OBJECT
  6
CONTINUOUS
 62
               0
100
AcDbLine
 10
356.49549540450244
 20
-223.91261286739245
 30
0.0
 11
366.54017937580466
 21
-227.5
 31
0.0
  0
LINE
  5
101
100
AcDbEntity
  8
OBJECT
  6
CONTINUOUS
 62
               0
100
AcDbLine
 10
366.54017937580466
 20
-227.5
 30
0.0
 11
356.49549540450244
 21
-231.08738713260755
 31
0.0
  0
ARC
  5
102
100
AcDbEntity
  8
OBJECT
  6
CONTINUOUS
 62
               0
100
AcDbCircle
 10
357.0
 20
-232.5
 30
0.0
 40
1.5000000000002283
100
AcDbArc
 50
70.346133057383526
 51
70.346133911145486
  0
ARC
  5
103
100
AcDbEntity
  8
OBJECT
  6
CONTINUOUS
 62
               0
100
AcDbCircle
 10
357.0
 20
-232.5
 30
0.0
 40
1.5000000000002975
100
AcDbArc
 50
109.65382405806267
 51
250.34621906662261
  0
LINE
  5
104
100
AcDbEntity
  8
OBJECT
  6
CONTINUOUS
 62
               0
100
AcDbLine
 10
357.50450459549756
 20
-231.08738713260755
 30
0.0
 11
357.50450609912878
 21
-231.08738766961869
 31
0.0
  0
LINE
  5
105
100
AcDbEntity
  8
OBJECT
  6
CONTINUOUS
 62
               0
100
AcDbLine
 10
356.49549540450244
 20
-233.91261286739245
 30
0.0
 11
366.54017937580466
 21
-237.5
 31
0.0
  0
LINE
  5
106
100
AcDbEntity
  8
OBJECT
  6
CONTINUOUS
 62
               0
100
AcDbLine
 10
366.54017937580466
 20
-237.5
 30
0.0
 11
356.49549540450244
 21
-241.08738713260755
 31
0.0
  0
ARC
  5
107
100
AcDbEntity
  8
OBJECT
  6
CONTINUOUS
 62
               0
100
AcDbCircle
 10
357.0
 20
-242.5
 30
0.0
 40
1.5000000000002283
100
AcDbArc
 50
70.346133057383526
 51
70.346133911145486
  0
ARC
  5
108
100
AcDbEntity
  8
OBJECT
  6
CONTINUOUS
 62
               0
100
AcDbCircle
 10
357.0
 20
-242.5
 30
0.0
 40
1.5000000000002975
100
AcDbArc
 50
109.65382405806267
 51
250.34621906662261
  0
LINE
  5
109
100
AcDbEntity
  8
OBJECT
  6
CONTINUOUS
 62
               0
100
AcDbLine
 10
357.50450459549756
 20
-241.08738713260755
 30
0.0
 11
357.50450609912878
 21
-241.08738766961869
 31
0.0
  0
LINE
  5
10A
100
AcDbEntity
  8
OBJECT
  6
CONTINUOUS
 62
               0
100
AcDbLine
 10
356.49549540450244
 20
-243.91261286739245
 30
0.0
 11
366.54017937580466
 21
-247.5
 31
0.0
  0
LINE
  5
10B
100
AcDbEntity
  8
OBJECT
  6
CONTINUOUS
 62
               0
100
AcDbLine
 10
366.54017937580466
 20
-247.5
 30
0.0
 11
356.49549540450244
 21
-251.08738713260755
 31
0.0
  0
ARC
  5
10C
100
AcDbEntity
  8
OBJECT
  6
CONTINUOUS
 62
               0
100
AcDbCircle
 10
357.0
 20
-252.5
 30
0.0
 40
1.5000000000002283
100
AcDbArc
 50
70.346133057383526
 51
70.346133911145486
  0
ARC
  5
10D
100
AcDbEntity
  8
OBJECT
  6
CONTINUOUS
 62
               0
100
AcDbCircle
 10
357.0
 20
-252.5
 30
0.0
 40
1.5000000000002975
100
AcDbArc
 50
109.65382405806267
 51
250.34621906662261
  0
LINE
  5
10E
100
AcDbEntity
  8
OBJECT
  6
CONTINUOUS
 62
               0
100
AcDbLine
 10
357.50450459549756
 20
-251.08738713260755
 30
0.0
 11
357.50450609912878
 21
-251.08738766961869
 31
0.0
  0
LINE
  5
10F
100
AcDbEntity
  8
OBJECT
  6
CONTINUOUS
 62
               0
100
AcDbLine
 10
356.49549540450244
 20
-253.91261286739245
 30
0.0
 11
366.54017937580466
 21
-257.5
 31
0.0
  0
LINE
  5
110
100
AcDbEntity
  8
OBJECT
  6
CONTINUOUS
 62
               0
100
AcDbLine
 10
366.54017937580466
 20
-257.5
 30
0.0
 11
356.49549540450244
 21
-261.08738713260755
 31
0.0
  0
ARC
  5
111
100
AcDbEntity
  8
OBJECT
  6
CONTINUOUS
 62
               0
100
AcDbCircle
 10
357.0
 20
-262.5
 30
0.0
 40
1.5000000000002283
100
AcDbArc
 50
70.346133057383526
 51
70.346133911145486
  0
ARC
  5
112
100
AcDbEntity
  8
OBJECT
  6
CONTINUOUS
 62
               0
100
AcDbCircle
 10
357.0
 20
-262.5
 30
0.0
 40
1.5000000000002975
100
AcDbArc
 50
109.65382405806267
 51
250.34621906662261
  0
LINE
  5
113
100
AcDbEntity
  8
OBJECT
  6
CONTINUOUS
 62
               0
100
AcDbLine
 10
357.50450459549756
 20
-261.08738713260755
 30
0.0
 11
357.50450609912878
 21
-261.08738766961869
 31
0.0
  0
LINE
  5
114
100
AcDbEntity
  8
OBJECT
  6
CONTINUOUS
 62
               0
100
AcDbLine
 10
356.49549540450244
 20
-263.91261286739245
 30
0.0
 11
366.54017937580466
 21
-267.5
 31
0.0
  0
LINE
  5
115
100
AcDbEntity
  8
OBJECT
  6
CONTINUOUS
 62
               0
100
AcDbLine
 10
366.54017937580466
 20
-267.5
 30
0.0
 11
356.49549540450244
 21
-271.08738713260755
 31
0.0
  0
ARC
  5
116
100
AcDbEntity
  8
OBJECT
  6
CONTINUOUS
 62
               0
100
AcDbCircle
 10
357.0
 20
-272.5
 30
0.0
 40
1.5000000000002283
100
AcDbArc
 50
70.346133057383526
 51
70.346133911145486
  0
ARC
  5
117
100
AcDbEntity
  8
OBJECT
  6
CONTINUOUS
 62
               0
100
AcDbCircle
 10
357.0
 20
-272.5
 30
0.0
 40
1.5000000000002975
100
AcDbArc
 50
109.65382405806267
 51
250.34621906662261
  0
LINE
  5
118
100
AcDbEntity
  8
OBJECT
  6
CONTINUOUS
 62
               0
100
AcDbLine
 10
357.50450459549756
 20
-271.08738713260755
 30
0.0
 11
357.50450609912878
 21
-271.08738766961869
 31
0.0
  0
LINE
  5
119
100
AcDbEntity
  8
OBJECT
  6
CONTINUOUS
 62
               0
100
AcDbLine
 10
356.49549540450244
 20
-273.91261286739245
 30
0.0
 11
366.54017937580466
 21
-277.5
 31
0.0
  0
LINE
  5
11A
100
AcDbEntity
  8
OBJECT
  6
CONTINUOUS
 62
               0
100
AcDbLine
 10
366.54017937580466
 20
-277.5
 30
0.0
 11
356.49549540450244
 21
-281.08738713260755
 31
0.0
  0
ARC
  5
11B
100
AcDbEntity
  8
OBJECT
  6
CONTINUOUS
 62
               0
100
AcDbCircle
 10
357.0
 20
-282.5
 30
0.0
 40
1.5000000000002283
100
AcDbArc
 50
70.346133057383526
 51
70.346133911145486
  0
ARC
  5
11C
100
AcDbEntity
  8
OBJECT
  6
CONTINUOUS
 62
               0
100
AcDbCircle
 10
357.0
 20
-282.5
 30
0.0
 40
1.5000000000002975
100
AcDbArc
 50
109.65382405806267
 51
250.34621906662261
  0
LINE
  5
11D
100
AcDbEntity
  8
OBJECT
  6
CONTINUOUS
 62
               0
100
AcDbLine
 10
357.50450459549756
 20
-281.08738713260755
 30
0.0
 11
357.50450609912878
 21
-281.08738766961869
 31
0.0
  0
LINE
  5
11E
100
AcDbEntity
  8
OBJECT
  6
CONTINUOUS
 62
               0
100
AcDbLine
 10
356.49549540450244
 20
-283.91261286739245
 30
0.0
 11
366.54017937580466
 21
-287.5
 31
0.0
  0
LINE
  5
11F
100
AcDbEntity
  8
OBJECT
  6
CONTINUOUS
 62
               0
100
AcDbLine
 10
366.54017937580466
 20
-287.5
 30
0.0
 11
356.49549540450244
 21
-291.08738713260755
 31
0.0
  0
ARC
  5
120
100
AcDbEntity
  8
OBJECT
  6
CONTINUOUS
 62
               0
100
AcDbCircle
 10
357.0
 20
-292.5
 30
0.0
 40
1.5000000000002283
100
AcDbArc
 50
70.346133057383526
 51
70.346133911145486
  0
ARC
  5
121
100
AcDbEntity
  8
OBJECT
  6
CONTINUOUS
 62
               0
100
AcDbCircle
 10
357.0
 20
-292.5
 30
0.0
 40
1.5000000000002975
100
AcDbArc
 50
109.65382405806267
 51
250.34621906662261
  0
LINE
  5
122
100
AcDbEntity
  8
OBJECT
  6
CONTINUOUS
 62
               0
100
AcDbLine
 10
357.50450459549756
 20
-291.08738713260755
 30
0.0
 11
357.50450609912878
 21
-291.08738766961869
 31
0.0
  0
LINE
  5
123
100
AcDbEntity
  8
OBJECT
  6
CONTINUOUS
 62
               0
100
AcDbLine
 10
356.49549540450244
 20
-293.91261286739245
 30
0.0
 11
366.54017937580466
 21
-297.5
 31
0.0
  0
LINE
  5
124
100
AcDbEntity
  8
OBJECT
  6
CONTINUOUS
 62
               0
100
AcDbLine
 10
366.54017937580466
 20
-297.5
 30
0.0
 11
356.49549540450244
 21
-301.08738713260755
 31
0.0
  0
ARC
  5
125
100
AcDbEntity
  8
OBJECT
  6
CONTINUOUS
 62
               0
100
AcDbCircle
 10
357.0
 20
-302.5
 30
0.0
 40
1.5000000000002283
100
AcDbArc
 50
70.346133057383526
 51
70.346133911145486
  0
ARC
  5
126
100
AcDbEntity
  8
OBJECT
  6
CONTINUOUS
 62
               0
100
AcDbCircle
 10
357.0
 20
-302.5
 30
0.0
 40
1.5000000000002975
100
AcDbArc
 50
109.65382405806267
 51
250.34621906662261
  0
LINE
  5
127
100
AcDbEntity
  8
OBJECT
  6
CONTINUOUS
 62
               0
100
AcDbLine
 10
357.50450459549756
 20
-301.08738713260755
 30
0.0
 11
357.50450609912878
 21
-301.08738766961869
 31
0.0
  0
LINE
  5
128
100
AcDbEntity
  8
OBJECT
  6
CONTINUOUS
 62
               0
100
AcDbLine
 10
356.49549540450244
 20
-303.91261286739245
 30
0.0
 11
366.54017937580466
 21
-307.5
 31
0.0
  0
LINE
  5
129
100
AcDbEntity
  8
OBJECT
  6
CONTINUOUS
 62
               0
100
AcDbLine
 10
366.54017937580466
 20
-307.5
 30
0.0
 11
356.49549540450244
 21
-311.08738713260755
 31
0.0
  0
ARC
  5
12A
100
AcDbEntity
  8
OBJECT
  6
CONTINUOUS
 62
               0
100
AcDbCircle
 10
357.0
 20
-312.5
 30
0.0
 40
1.5000000000002283
100
AcDbArc
 50
70.346133057383526
 51
70.346133911145486
  0
ARC
  5
12B
100
AcDbEntity
  8
OBJECT
  6
CONTINUOUS
 62
               0
100
AcDbCircle
 10
357.0
 20
-312.5
 30
0.0
 40
1.5000000000002975
100
AcDbArc
 50
109.65382405806267
 51
250.34621906662261
  0
LINE
  5
12C
100
AcDbEntity
  8
OBJECT
  6
CONTINUOUS
 62
               0
100
AcDbLine
 10
357.50450459549756
 20
-311.08738713260755
 30
0.0
 11
357.50450609912878
 21
-311.08738766961869
 31
0.0
  0
LINE
  5
12D
100
AcDbEntity
  8
OBJECT
  6
CONTINUOUS
 62
               0
100
AcDbLine
 10
356.49549540450244
 20
-313.91261286739245
 30
0.0
 11
366.54017937580466
 21
-317.5
 31
0.0
  0
LINE
  5
12E
100
AcDbEntity
  8
OBJECT
  6
CONTINUOUS
 62
               0
100
AcDbLine
 10
366.54017937580466
 20
-317.5
 30
0.0
 11
356.49549540450244
 21
-321.08738713260755
 31
0.0
  0
ARC
  5
12F
100
AcDbEntity
  8
OBJECT
  6
CONTINUOUS
 62
               0
100
AcDbCircle
 10
357.0
 20
-322.5
 30
0.0
 40
1.5000000000002283
100
AcDbArc
 50
70.346133057383526
 51
70.346133911145486
  0
ARC
  5
130
100
AcDbEntity
  8
OBJECT
  6
CONTINUOUS
 62
               0
100
AcDbCircle
 10
357.0
 20
-322.5
 30
0.0
 40
1.5000000000002975
100
AcDbArc
 50
109.65382405806267
 51
250.34621906662261
  0
LINE
  5
131
100
AcDbEntity
  8
OBJECT
  6
CONTINUOUS
 62
               0
100
AcDbLine
 10
357.50450459549756
 20
-321.08738713260755
 30
0.0
 11
357.50450609912878
 21
-321.08738766961869
 31
0.0
  0
LINE
  5
132
100
AcDbEntity
  8
OBJECT
  6
CONTINUOUS
 62
               0
100
AcDbLine
 10
356.49549540450244
 20
-323.91261286739245
 30
0.0
 11
363.12626344657656
 21
-326.28074431099003
 31
0.0
  0
ARC
  5
133
100
AcDbEntity
  8
OBJECT
  6
CONTINUOUS
 62
               0
100
AcDbCircle
 10
357.0
 20
-332.5
 30
0.0
 40
1.5000000000002283
100
AcDbArc
 50
70.346133057383526
 51
70.346133911145486
  0
LINE
  5
134
100
AcDbEntity
  8
OBJECT
  6
CONTINUOUS
 62
               0
100
AcDbLine
 10
357.50450459549756
 20
-331.08738713260755
 30
0.0
 11
357.50450609912878
 21
-331.08738766961869
 31
0.0
  0
LINE
  5
135
100
AcDbEntity
  8
OBJECT
  6
CONTINUOUS
 62
               0
100
AcDbLine
 10
361.45982062419534
 20
-192.5
 30
0.0
 11
371.50450459549756
 21
-196.08738713260755
 31
0.0
  0
LINE
  5
136
100
AcDbEntity
  8
OBJECT
  6
CONTINUOUS
 62
               0
100
AcDbLine
 10
371.50450459549756
 20
-198.91261286739245
 30
0.0
 11
361.45982062419534
 21
-202.5
 31
0.0
  0
ARC
  5
137
100
AcDbEntity
  8
OBJECT
  6
CONTINUOUS
 62
               0
100
AcDbCircle
 10
371.0
 20
-197.5
 30
0.0
 40
1.5000000000002975
100
AcDbArc
 50
289.6538240580627
 51
70.346175941937361
  0
LINE
  5
138
100
AcDbEntity
  8
OBJECT
  6
CONTINUOUS
 62
               0
100
AcDbLine
 10
361.45982062419534
 20
-202.5
 30
0.0
 11
371.50450459549756
 21
-206.08738713260755
 31
0.0
  0
LINE
  5
139
100
AcDbEntity
  8
OBJECT
  6
CONTINUOUS
 62
               0
100
AcDbLine
 10
371.50450459549756
 20
-208.91261286739245
 30
0.0
 11
361.45982062419534
 21
-212.5
 31
0.0
  0
ARC
  5
13A
100
AcDbEntity
  8
OBJECT
  6
CONTINUOUS
 62
               0
100
AcDbCircle
 10
371.0
 20
-207.5
 30
0.0
 40
1.5000000000002975
100
AcDbArc
 50
289.6538240580627
 51
70.346175941937361
  0
LINE
  5
13B
100
AcDbEntity
  8
OBJECT
  6
CONTINUOUS
 62
               0
100
AcDbLine
 10
361.45982062419534
 20
-212.5
 30
0.0
 11
371.50450459549756
 21
-216.08738713260755
 31
0.0
  0
LINE
  5
13C
100
AcDbEntity
  8
OBJECT
  6
CONTINUOUS
 62
               0
100
AcDbLine
 10
371.50450459549756
 20
-218.91261286739245
 30
0.0
 11
361.45982062419534
 21
-222.5
 31
0.0
  0
ARC
  5
13D
100
AcDbEntity
  8
OBJECT
  6
CONTINUOUS
 62
               0
100
AcDbCircle
 10
371.0
 20
-217.5
 30
0.0
 40
1.5000000000002975
100
AcDbArc
 50
289.6538240580627
 51
70.346175941937361
  0
LINE
  5
13E
100
AcDbEntity
  8
OBJECT
  6
CONTINUOUS
 62
               0
100
AcDbLine
 10
361.45982062419534
 20
-222.5
 30
0.0
 11
371.50450459549756
 21
-226.08738713260755
 31
0.0
  0
LINE
  5
13F
100
AcDbEntity
  8
OBJECT
  6
CONTINUOUS
 62
               0
100
AcDbLine
 10
371.50450459549756
 20
-228.91261286739245
 30
0.0
 11
361.45982062419534
 21
-232.5
 31
0.0
  0
ARC
  5
140
100
AcDbEntity
  8
OBJECT
  6
CONTINUOUS
 62
               0
100
AcDbCircle
 10
371.0
 20
-227.5
 30
0.0
 40
1.5000000000002975
100
AcDbArc
 50
289.6538240580627
 51
70.346175941937361
  0
LINE
  5
141
100
AcDbEntity
  8
OBJECT
  6
CONTINUOUS
 62
               0
100
AcDbLine
 10
361.45982062419534
 20
-232.5
 30
0.0
 11
371.50450459549756
 21
-236.08738713260755
 31
0.0
  0
LINE
  5
142
100
AcDbEntity
  8
OBJECT
  6
CONTINUOUS
 62
               0
100
AcDbLine
 10
371.50450459549756
 20
-238.91261286739245
 30
0.0
 11
361.45982062419534
 21
-242.5
 31
0.0
  0
ARC
  5
143
100
AcDbEntity
  8
OBJECT
  6
CONTINUOUS
 62
               0
100
AcDbCircle
 10
371.0
 20
-237.5
 30
0.0
 40
1.5000000000002975
100
AcDbArc
 50
289.6538240580627
 51
70.346175941937361
  0
LINE
  5
144
100
AcDbEntity
  8
OBJECT
  6
CONTINUOUS
 62
               0
100
AcDbLine
 10
361.45982062419534
 20
-242.5
 30
0.0
 11
371.50450459549756
 21
-246.08738713260755
 31
0.0
  0
LINE
  5
145
100
AcDbEntity
  8
OBJECT
  6
CONTINUOUS
 62
               0
100
AcDbLine
 10
371.50450459549756
 20
-248.91261286739245
 30
0.0
 11
361.45982062419534
 21
-252.5
 31
0.0
  0
ARC
  5
146
100
AcDbEntity
  8
OBJECT
  6
CONTINUOUS
 62
               0
100
AcDbCircle
 10
371.0
 20
-247.5
 30
0.0
 40
1.5000000000002975
100
AcDbArc
 50
289.6538240580627
 51
70.346175941937361
  0
LINE
  5
147
100
AcDbEntity
  8
OBJECT
  6
CONTINUOUS
 62
               0
100
AcDbLine
 10
361.45982062419534
 20
-252.5
 30
0.0
 11
371.50450459549756
 21
-256.08738713260755
 31
0.0
  0
LINE
  5
148
100
AcDbEntity
  8
OBJECT
  6
CONTINUOUS
 62
               0
100
AcDbLine
 10
371.50450459549756
 20
-258.91261286739245
 30
0.0
 11
361.45982062419534
 21
-262.5
 31
0.0
  0
ARC
  5
149
100
AcDbEntity
  8
OBJECT
  6
CONTINUOUS
 62
               0
100
AcDbCircle
 10
371.0
 20
-257.5
 30
0.0
 40
1.5000000000002975
100
AcDbArc
 50
289.6538240580627
 51
70.346175941937361
  0
LINE
  5
14A
100
AcDbEntity
  8
OBJECT
  6
CONTINUOUS
 62
               0
100
AcDbLine
 10
361.45982062419534
 20
-262.5
 30
0.0
 11
371.50450459549756
 21
-266.08738713260755
 31
0.0
  0
LINE
  5
14B
100
AcDbEntity
  8
OBJECT
  6
CONTINUOUS
 62
               0
100
AcDbLine
 10
371.50450459549756
 20
-268.91261286739245
 30
0.0
 11
361.45982062419534
 21
-272.5
 31
0.0
  0
ARC
  5
14C
100
AcDbEntity
  8
OBJECT
  6
CONTINUOUS
 62
               0
100
AcDbCircle
 10
371.0
 20
-267.5
 30
0.0
 40
1.5000000000002975
100
AcDbArc
 50
289.6538240580627
 51
70.346175941937361
  0
LINE
  5
14D
100
AcDbEntity
  8
OBJECT
  6
CONTINUOUS
 62
               0
100
AcDbLine
 10
361.45982062419534
 20
-272.5
 30
0.0
 11
371.50450459549756
 21
-276.08738713260755
 31
0.0
  0
LINE
  5
14E
100
AcDbEntity
  8
OBJECT
  6
CONTINUOUS
 62
               0
100
AcDbLine
 10
371.50450459549756
 20
-278.91261286739245
 30
0.0
 11
361.45982062419534
 21
-282.5
 31
0.0
  0
ARC
  5
14F
100
AcDbEntity
  8
OBJECT
  6
CONTINUOUS
 62
               0
100
AcDbCircle
 10
371.0
 20
-277.5
 30
0.0
 40
1.5000000000002975
100
AcDbArc
 50
289.6538240580627
 51
70.346175941937361
  0
LINE
  5
150
100
AcDbEntity
  8
OBJECT
  6
CONTINUOUS
 62
               0
100
AcDbLine
 10
361.45982062419534
 20
-282.5
 30
0.0
 11
371.50450459549756
 21
-286.08738713260755
 31
0.0
  0
LINE
  5
151
100
AcDbEntity
  8
OBJECT
  6
CONTINUOUS
 62
               0
100
AcDbLine
 10
371.50450459549756
 20
-288.91261286739245
 30
0.0
 11
361.45982062419534
 21
-292.5
 31
0.0
  0
ARC
  5
152
100
AcDbEntity
  8
OBJECT
  6
CONTINUOUS
 62
               0
100
AcDbCircle
 10
371.0
 20
-287.5
 30
0.0
 40
1.5000000000002975
100
AcDbArc
 50
289.6538240580627
 51
70.346175941937361
  0
LINE
  5
153
100
AcDbEntity
  8
OBJECT
  6
CONTINUOUS
 62
               0
100
AcDbLine
 10
361.45982062419534
 20
-292.5
 30
0.0
 11
371.50450459549756
 21
-296.08738713260755
 31
0.0
  0
LINE
  5
154
100
AcDbEntity
  8
OBJECT
  6
CONTINUOUS
 62
               0
100
AcDbLine
 10
371.50450459549756
 20
-298.91261286739245
 30
0.0
 11
361.45982062419534
 21
-302.5
 31
0.0
  0
ARC
  5
155
100
AcDbEntity
  8
OBJECT
  6
CONTINUOUS
 62
               0
100
AcDbCircle
 10
371.0
 20
-297.5
 30
0.0
 40
1.5000000000002975
100
AcDbArc
 50
289.6538240580627
 51
70.346175941937361
  0
LINE
  5
156
100
AcDbEntity
  8
OBJECT
  6
CONTINUOUS
 62
               0
100
AcDbLine
 10
361.45982062419534
 20
-302.5
 30
0.0
 11
371.50450459549756
 21
-306.08738713260755
 31
0.0
  0
LINE
  5
157
100
AcDbEntity
  8
OBJECT
  6
CONTINUOUS
 62
               0
100
AcDbLine
 10
371.50450459549756
 20
-308.91261286739245
 30
0.0
 11
361.45982062419534
 21
-312.5
 31
0.0
  0
ARC
  5
158
100
AcDbEntity
  8
OBJECT
  6
CONTINUOUS
 62
               0
100
AcDbCircle
 10
371.0
 20
-307.5
 30
0.0
 40
1.5000000000002975
100
AcDbArc
 50
289.6538240580627
 51
70.346175941937361
  0
LINE
  5
159
100
AcDbEntity
  8
OBJECT
  6
CONTINUOUS
 62
               0
100
AcDbLine
 10
361.45982062419534
 20
-312.5
 30
0.0
 11
371.50450459549756
 21
-316.08738713260755
 31
0.0
  0
LINE
  5
15A
100
AcDbEntity
  8
OBJECT
  6
CONTINUOUS
 62
               0
100
AcDbLine
 10
371.50450459549756
 20
-318.91261286739245
 30
0.0
 11
361.45982062419534
 21
-322.5
 31
0.0
  0
ARC
  5
15B
100
AcDbEntity
  8
OBJECT
  6
CONTINUOUS
 62
               0
100
AcDbCircle
 10
371.0
 20
-317.5
 30
0.0
 40
1.5000000000002975
100
AcDbArc
 50
289.6538240580627
 51
70.346175941937361
  0
LINE
  5
15C
100
AcDbEntity
  8
OBJECT
  6
CONTINUOUS
 62
               0
100
AcDbLine
 10
361.45982062419534
 20
-322.5
 30
0.0
 11
371.50450459549756
 21
-326.08738713260755
 31
0.0
  0
LINE
  5
15D
100
AcDbEntity
  8
OBJECT
  6
CONTINUOUS
 62
               0
100
AcDbLine
 10
362.5
 20
-341.5
 30
0.0
 11
362.5
 21
-327.5
 31
0.0
  0
LINE
  5
15E
100
AcDbEntity
  8
OBJECT
  6
CONTINUOUS
 62
               0
100
AcDbLine
 10
365.5
 20
-341.5
 30
0.0
 11
365.5
 21
-329.0
 31
0.0
  0
LINE
  5
15F
100
AcDbEntity
  8
OBJECT
  6
CONTINUOUS
 62
               0
100
AcDbLine
 10
364.0
 20
-329.0
 30
0.0
 11
371.0
 21
-329.0
 31
0.0
  0
LINE
  5
160
100
AcDbEntity
  8
OBJECT
  6
CONTINUOUS
 62
               0
100
AcDbLine
 10
364.0
 20
-326.0
 30
0.0
 11
371.0
 21
-326.0
 31
0.0
  0
ARC
  5
161
100
AcDbEntity
  8
OBJECT
  6
CONTINUOUS
 62
               0
100
AcDbCircle
 10
371.0
 20
-327.5
 30
0.0
 40
1.5
100
AcDbArc
 50
270.0
 51
90.00004579247053
  0
ARC
  5
162
100
AcDbEntity
  8
OBJECT
  6
CONTINUOUS
 62
               0
100
AcDbCircle
 10
364.0
 20
-327.5
 30
0.0
 40
1.5
100
AcDbArc
 50
90.0
 51
270.0
  0
ARC
  5
163
100
AcDbEntity
  8
OBJECT
  6
CONTINUOUS
 62
               0
100
AcDbCircle
 10
364.0
 20
-341.5
 30
0.0
 40
1.5
100
AcDbArc
 50
180.0
 51
0.0
  0
LINE
  5
164
100
AcDbEntity
  8
OBJECT
  6
CONTINUOUS
 62
               0
100
AcDbLine
 10
365.5
 20
-334.5
 30
0.0
 11
362.5
 21
-334.5
 31
0.0
  0
ENDBLK
  5
165
100
AcDbEntity
  8
OBJECT
100
AcDbBlockEnd
  0
BLOCK
  5
166
100
AcDbEntity
  8
OBJECT
100
AcDbBlockBegin
  2
*U17
 70
               1
 10
0.0
 20
0.0
 30
0.0
  3
*U17
  1

  0
LINE
  5
167
100
AcDbEntity
  8
OBJECT
  6
CONTINUOUS
 62
               0
100
AcDbLine
 10
-599.0
 20
-120.0
 30
0.0
 11
-615.5
 21
-120.0
 31
0.0
  0
LINE
  5
168
100
AcDbEntity
  8
OBJECT
  6
CONTINUOUS
 62
               0
100
AcDbLine
 10
-599.0
 20
-150.0
 30
0.0
 11
-599.0
 21
-120.0
 31
0.0
  0
LINE
  5
169
100
AcDbEntity
  8
OBJECT
  6
CONTINUOUS
 62
               0
100
AcDbLine
 10
-599.0
 20
-150.0
 30
0.0
 11
-618.5
 21
-127.85410000000002
 31
0.0
  0
ARC
  5
16A
100
AcDbEntity
  8
OBJECT
  6
CONTINUOUS
 62
               0
100
AcDbCircle
 10
-615.5
 20
-124.5
 30
0.0
 40
4.5
100
AcDbArc
 50
90.0
 51
228.18966841417461
  0
ENDBLK
  5
16B
100
AcDbEntity
  8
OBJECT
100
AcDbBlockEnd
  0
BLOCK
  5
16C
100
AcDbEntity
  8
DIMENTION
100
AcDbBlockBegin
  2
*D18
 70
               1
 10
0.0
 20
0.0
 30
0.0
  3
*D18
  1

  0
LINE
  5
16D
100
AcDbEntity
  8
DIMENTION
  6
CONTINUOUS
 62
               0
100
AcDbLine
 10
-600.0
 20
830.0
 30
0.0
 11
-600.0
 21
955.0
 31
0.0
  0
LINE
  5
16E
100
AcDbEntity
  8
DIMENTION
  6
CONTINUOUS
 62
               0
100
AcDbLine
 10
-270.0
 20
830.0
 30
0.0
 11
-270.0
 21
955.0
 31
0.0
  0
LINE
  5
16F
100
AcDbEntity
  8
DIMENTION
  6
CONTINUOUS
 62
               0
100
AcDbLine
 10
-600.0
 20
935.0
 30
0.0
 11
-270.0
 21
935.0
 31
0.0
  0
LINE
  5
170
100
AcDbEntity
  8
DIMENTION
  6
CONTINUOUS
 62
               0
100
AcDbLine
 10
-600.0
 20
935.0
 30
0.0
 11
-568.25
 21
943.50738685968815
 31
0.0
  0
LINE
  5
171
100
AcDbEntity
  8
DIMENTION
  6
CONTINUOUS
 62
               0
100
AcDbLine
 10
-600.0
 20
935.0
 30
0.0
 11
-568.25
 21
926.49261314031185
 31
0.0
  0
LINE
  5
172
100
AcDbEntity
  8
DIMENTION
  6
CONTINUOUS
 62
               0
100
AcDbLine
 10
-270.0
 20
935.0
 30
0.0
 11
-301.75
 21
926.49261314031185
 31
0.0
  0
LINE
  5
173
100
AcDbEntity
  8
DIMENTION
  6
CONTINUOUS
 62
               0
100
AcDbLine
 10
-270.0
 20
935.0
 30
0.0
 11
-301.75
 21
943.50738685968815
 31
0.0
  0
MTEXT
  5
174
100
AcDbEntity
  8
DIMENTION
 62
               0
100
AcDbMText
 10
-528.1333319875929
 20
978.33333332960808
 30
0.0
 40
33.866666666666667
 41
0.0
 71
               1
 72
               1
  1
327 (内寸)
  7
________
  0
POINT
  5
175
100
AcDbEntity
  8
DEFPOINTS
 62
               0
100
AcDbPoint
 10
-270.0
 20
820.0
 30
0.0
  0
POINT
  5
176
100
AcDbEntity
  8
DEFPOINTS
 62
               0
100
AcDbPoint
 10
-600.0
 20
820.0
 30
0.0
  0
POINT
  5
177
100
AcDbEntity
  8
DEFPOINTS
 62
               0
100
AcDbPoint
 10
-600.0
 20
935.0
 30
0.0
  0
ENDBLK
  5
178
100
AcDbEntity
  8
DIMENTION
100
AcDbBlockEnd
  0
BLOCK
  5
179
100
AcDbEntity
  8
DIMENTION
100
AcDbBlockBegin
  2
*D19
 70
               1
 10
0.0
 20
0.0
 30
0.0
  3
*D19
  1

  0
LINE
  5
17A
100
AcDbEntity
  8
DIMENTION
  6
CONTINUOUS
 62
               0
100
AcDbLine
 10
-610.0
 20
820.0
 30
0.0
 11
-735.0
 21
820.0
 31
0.0
  0
LINE
  5
17B
100
AcDbEntity
  8
DIMENTION
  6
CONTINUOUS
 62
               0
100
AcDbLine
 10
-610.0
 20
380.0
 30
0.0
 11
-735.0
 21
380.0
 31
0.0
  0
LINE
  5
17C
100
AcDbEntity
  8
DIMENTION
  6
CONTINUOUS
 62
               0
100
AcDbLine
 10
-715.0
 20
820.0
 30
0.0
 11
-715.0
 21
380.0
 31
0.0
  0
LINE
  5
17D
100
AcDbEntity
  8
DIMENTION
  6
CONTINUOUS
 62
               0
100
AcDbLine
 10
-715.0
 20
820.0
 30
0.0
 11
-706.49261314031185
 21
788.25
 31
0.0
  0
LINE
  5
17E
100
AcDbEntity
  8
DIMENTION
  6
CONTINUOUS
 62
               0
100
AcDbLine
 10
-715.0
 20
820.0
 30
0.0
 11
-723.50738685968815
 21
788.25
 31
0.0
  0
LINE
  5
17F
100
AcDbEntity
  8
DIMENTION
  6
CONTINUOUS
 62
               0
100
AcDbLine
 10
-715.0
 20
380.0
 30
0.0
 11
-723.50738685968815
 21
411.75
 31
0.0
  0
LINE
  5
180
100
AcDbEntity
  8
DIMENTION
  6
CONTINUOUS
 62
               0
100
AcDbLine
 10
-715.0
 20
380.0
 30
0.0
 11
-706.49261314031185
 21
411.75
 31
0.0
  0
MTEXT
  5
181
100
AcDbEntity
  8
DIMENTION
 62
               0
100
AcDbMText
 10
-758.33333332960797
 20
506.8666680124071
 30
0.0
 40
33.866666666666667
 41
0.0
 71
               1
 72
               1
  1
437 (内寸)
  7
________
 11
0.0
 21
1.0
 31
0.0
  0
POINT
  5
182
100
AcDbEntity
  8
DEFPOINTS
 62
               0
100
AcDbPoint
 10
-600.0
 20
380.0
 30
0.0
  0
POINT
  5
183
100
AcDbEntity
  8
DEFPOINTS
 62
               0
100
AcDbPoint
 10
-600.0
 20
820.0
 30
0.0
  0
POINT
  5
184
100
AcDbEntity
  8
DEFPOINTS
 62
               0
100
AcDbPoint
 10
-715.0
 20
820.0
 30
0.0
  0
ENDBLK
  5
185
100
AcDbEntity
  8
DIMENTION
100
AcDbBlockEnd
  0
BLOCK
  5
186
100
AcDbEntity
  8
DIMENTION
100
AcDbBlockBegin
  2
*D20
 70
               1
 10
0.0
 20
0.0
 30
0.0
  3
*D20
  1

  0
LINE
  5
187
100
AcDbEntity
  8
DIMENTION
  6
CONTINUOUS
 62
               0
100
AcDbLine
 10
-615.0
 20
355.0
 30
0.0
 11
-615.0
 21
245.0
 31
0.0
  0
LINE
  5
188
100
AcDbEntity
  8
DIMENTION
  6
CONTINUOUS
 62
               0
100
AcDbLine
 10
-225.0
 20
355.0
 30
0.0
 11
-225.0
 21
245.0
 31
0.0
  0
LINE
  5
189
100
AcDbEntity
  8
DIMENTION
  6
CONTINUOUS
 62
               0
100
AcDbLine
 10
-615.0
 20
265.0
 30
0.0
 11
-225.0
 21
265.0
 31
0.0
  0
LINE
  5
18A
100
AcDbEntity
  8
DIMENTION
  6
CONTINUOUS
 62
               0
100
AcDbLine
 10
-615.0
 20
265.0
 30
0.0
 11
-583.25
 21
273.50738685968815
 31
0.0
  0
LINE
  5
18B
100
AcDbEntity
  8
DIMENTION
  6
CONTINUOUS
 62
               0
100
AcDbLine
 10
-615.0
 20
265.0
 30
0.0
 11
-583.25
 21
256.49261314031185
 31
0.0
  0
LINE
  5
18C
100
AcDbEntity
  8
DIMENTION
  6
CONTINUOUS
 62
               0
100
AcDbLine
 10
-225.0
 20
265.0
 30
0.0
 11
-256.75
 21
256.49261314031185
 31
0.0
  0
LINE
  5
18D
100
AcDbEntity
  8
DIMENTION
  6
CONTINUOUS
 62
               0
100
AcDbLine
 10
-225.0
 20
265.0
 30
0.0
 11
-256.75
 21
273.50738685968815
 31
0.0
  0
MTEXT
  5
18E
100
AcDbEntity
  8
DIMENTION
 62
               0
100
AcDbMText
 10
-451.75
 20
308.33333332960808
 30
0.0
 40
33.866666666666667
 41
0.0
 71
               1
 72
               1
  1
390
  7
________
  0
POINT
  5
18F
100
AcDbEntity
  8
DEFPOINTS
 62
               0
100
AcDbPoint
 10
-225.0
 20
365.0
 30
0.0
  0
POINT
  5
190
100
AcDbEntity
  8
DEFPOINTS
 62
               0
100
AcDbPoint
 10
-615.0
 20
365.0
 30
0.0
  0
POINT
  5
191
100
AcDbEntity
  8
DEFPOINTS
 62
               0
100
AcDbPoint
 10
-615.0
 20
265.0
 30
0.0
  0
ENDBLK
  5
192
100
AcDbEntity
  8
DIMENTION
100
AcDbBlockEnd
  0
BLOCK
  5
193
100
AcDbEntity
  8
DIMENTION
100
AcDbBlockBegin
  2
*D21
 70
               1
 10
0.0
 20
0.0
 30
0.0
  3
*D21
  1

  0
LINE
  5
194
100
AcDbEntity
  8
DIMENTION
  6
CONTINUOUS
 62
               0
100
AcDbLine
 10
-215.0
 20
835.0
 30
0.0
 11
-105.0
 21
835.0
 31
0.0
  0
LINE
  5
195
100
AcDbEntity
  8
DIMENTION
  6
CONTINUOUS
 62
               0
100
AcDbLine
 10
-215.0
 20
365.0
 30
0.0
 11
-105.0
 21
365.0
 31
0.0
  0
LINE
  5
196
100
AcDbEntity
  8
DIMENTION
  6
CONTINUOUS
 62
               0
100
AcDbLine
 10
-125.0
 20
835.0
 30
0.0
 11
-125.0
 21
365.0
 31
0.0
  0
LINE
  5
197
100
AcDbEntity
  8
DIMENTION
  6
CONTINUOUS
 62
               0
100
AcDbLine
 10
-125.0
 20
835.0
 30
0.0
 11
-116.49261314031187
 21
803.25
 31
0.0
  0
LINE
  5
198
100
AcDbEntity
  8
DIMENTION
  6
CONTINUOUS
 62
               0
100
AcDbLine
 10
-125.0
 20
835.0
 30
0.0
 11
-133.50738685968815
 21
803.25
 31
0.0
  0
LINE
  5
199
100
AcDbEntity
  8
DIMENTION
  6
CONTINUOUS
 62
               0
100
AcDbLine
 10
-125.0
 20
365.0
 30
0.0
 11
-133.50738685968815
 21
396.75
 31
0.0
  0
LINE
  5
19A
100
AcDbEntity
  8
DIMENTION
  6
CONTINUOUS
 62
               0
100
AcDbLine
 10
-125.0
 20
365.0
 30
0.0
 11
-116.49261314031186
 21
396.75
 31
0.0
  0
MTEXT
  5
19B
100
AcDbEntity
  8
DIMENTION
 62
               0
100
AcDbMText
 10
-168.33333332960802
 20
568.25
 30
0.0
 40
33.866666666666667
 41
0.0
 71
               1
 72
               1
  1
470
  7
________
 11
0.0
 21
1.0
 31
0.0
  0
POINT
  5
19C
100
AcDbEntity
  8
DEFPOINTS
 62
               0
100
AcDbPoint
 10
-225.0
 20
365.0
 30
0.0
  0
POINT
  5
19D
100
AcDbEntity
  8
DEFPOINTS
 62
               0
100
AcDbPoint
 10
-225.0
 20
835.0
 30
0.0
  0
POINT
  5
19E
100
AcDbEntity
  8
DEFPOINTS
 62
               0
100
AcDbPoint
 10
-125.0
 20
835.0
 30
0.0
  0
ENDBLK
  5
19F
100
AcDbEntity
  8
DIMENTION
100
AcDbBlockEnd
  0
BLOCK
  5
1A0
100
AcDbEntity
  8
DIMENTION
100
AcDbBlockBegin
  2
*D22
 70
               1
 10
0.0
 20
0.0
 30
0.0
  3
*D22
  1

  0
LINE
  5
1A1
100
AcDbEntity
  8
DIMENTION
  6
CONTINUOUS
 62
               0
100
AcDbLine
 10
-566.0
 20
-145.0
 30
0.0
 11
-720.0
 21
-145.0
 31
0.0
  0
LINE
  5
1A2
100
AcDbEntity
  8
DIMENTION
  6
CONTINUOUS
 62
               0
100
AcDbLine
 10
-625.0
 20
-130.0
 30
0.0
 11
-720.0
 21
-130.0
 31
0.0
  0
LINE
  5
1A3
100
AcDbEntity
  8
DIMENTION
  6
CONTINUOUS
 62
               0
100
AcDbLine
 10
-700.0
 20
-130.0
 30
0.0
 11
-700.0
 21
-145.0
 31
0.0
  0
LINE
  5
1A4
100
AcDbEntity
  8
DIMENTION
  6
CONTINUOUS
 62
               0
100
AcDbLine
 10
-700.0
 20
-145.0
 30
0.0
 11
-700.0
 21
-205.0
 31
0.0
  0
LINE
  5
1A5
100
AcDbEntity
  8
DIMENTION
  6
CONTINUOUS
 62
               0
100
AcDbLine
 10
-700.0
 20
-145.0
 30
0.0
 11
-691.49261314031185
 21
-176.75
 31
0.0
  0
LINE
  5
1A6
100
AcDbEntity
  8
DIMENTION
  6
CONTINUOUS
 62
               0
100
AcDbLine
 10
-700.0
 20
-145.0
 30
0.0
 11
-708.50738685968815
 21
-176.75
 31
0.0
  0
LINE
  5
1A7
100
AcDbEntity
  8
DIMENTION
  6
CONTINUOUS
 62
               0
100
AcDbLine
 10
-700.0
 20
-130.0
 30
0.0
 11
-700.0
 21
-57.666666666666671
 31
0.0
  0
LINE
  5
1A8
100
AcDbEntity
  8
DIMENTION
  6
CONTINUOUS
 62
               0
100
AcDbLine
 10
-700.0
 20
-130.0
 30
0.0
 11
-708.50738685968815
 21
-98.25
 31
0.0
  0
LINE
  5
1A9
100
AcDbEntity
  8
DIMENTION
  6
CONTINUOUS
 62
               0
100
AcDbLine
 10
-700.0
 20
-130.0
 30
0.0
 11
-691.49261314031185
 21
-98.25
 31
0.0
  0
MTEXT
  5
1AA
100
AcDbEntity
  8
DIMENTION
 62
               0
100
AcDbMText
 10
-743.33333332960797
 20
-100.0
 30
0.0
 40
33.866666666666667
 41
0.0
 71
               1
 72
               1
  1
15
  7
________
 11
0.0
 21
1.0
 31
0.0
  0
POINT
  5
1AB
100
AcDbEntity
  8
DEFPOINTS
 62
               0
100
AcDbPoint
 10
-615.0
 20
-130.0
 30
0.0
  0
POINT
  5
1AC
100
AcDbEntity
  8
DEFPOINTS
 62
               0
100
AcDbPoint
 10
-556.0
 20
-145.0
 30
0.0
  0
POINT
  5
1AD
100
AcDbEntity
  8
DEFPOINTS
 62
               0
100
AcDbPoint
 10
-700.0
 20
-145.0
 30
0.0
  0
ENDBLK
  5
1AE
100
AcDbEntity
  8
DIMENTION
100
AcDbBlockEnd
  0
BLOCK
  5
1AF
100
AcDbEntity
  8
DIMENTION
100
AcDbBlockBegin
  2
*D23
 70
               1
 10
0.0
 20
0.0
 30
0.0
  3
*D23
  1

  0
LINE
  5
1B0
100
AcDbEntity
  8
DIMENTION
  6
CONTINUOUS
 62
               0
100
AcDbLine
 10
-566.0
 20
-610.0
 30
0.0
 11
-720.0
 21
-610.0
 31
0.0
  0
LINE
  5
1B1
100
AcDbEntity
  8
DIMENTION
  6
CONTINUOUS
 62
               0
100
AcDbLine
 10
-566.0
 20
-145.0
 30
0.0
 11
-720.0
 21
-145.0
 31
0.0
  0
LINE
  5
1B2
100
AcDbEntity
  8
DIMENTION
  6
CONTINUOUS
 62
               0
100
AcDbLine
 10
-700.0
 20
-610.0
 30
0.0
 11
-700.0
 21
-145.0
 31
0.0
  0
LINE
  5
1B3
100
AcDbEntity
  8
DIMENTION
  6
CONTINUOUS
 62
               0
100
AcDbLine
 10
-700.0
 20
-610.0
 30
0.0
 11
-708.50738685968815
 21
-578.25
 31
0.0
  0
LINE
  5
1B4
100
AcDbEntity
  8
DIMENTION
  6
CONTINUOUS
 62
               0
100
AcDbLine
 10
-700.0
 20
-610.0
 30
0.0
 11
-691.49261314031185
 21
-578.25
 31
0.0
  0
LINE
  5
1B5
100
AcDbEntity
  8
DIMENTION
  6
CONTINUOUS
 62
               0
100
AcDbLine
 10
-700.0
 20
-145.0
 30
0.0
 11
-691.49261314031185
 21
-176.75
 31
0.0
  0
LINE
  5
1B6
100
AcDbEntity
  8
DIMENTION
  6
CONTINUOUS
 62
               0
100
AcDbLine
 10
-700.0
 20
-145.0
 30
0.0
 11
-708.50738685968815
 21
-176.75
 31
0.0
  0
MTEXT
  5
1B7
100
AcDbEntity
  8
DIMENTION
 62
               0
100
AcDbMText
 10
-743.33333332960808
 20
-515.08333333333337
 30
0.0
 40
33.866666666666667
 41
0.0
 71
               1
 72
               1
  1
465（可動範囲）
  7
________
 11
0.0
 21
1.0
 31
0.0
  0
POINT
  5
1B8
100
AcDbEntity
  8
DEFPOINTS
 62
               0
100
AcDbPoint
 10
-556.0
 20
-145.0
 30
0.0
  0
POINT
  5
1B9
100
AcDbEntity
  8
DEFPOINTS
 62
               0
100
AcDbPoint
 10
-556.0
 20
-610.0
 30
0.0
  0
POINT
  5
1BA
100
AcDbEntity
  8
DEFPOINTS
 62
               0
100
AcDbPoint
 10
-700.0
 20
-610.0
 30
0.0
  0
ENDBLK
  5
1BB
100
AcDbEntity
  8
DIMENTION
100
AcDbBlockEnd
  0
BLOCK
  5
1BC
100
AcDbEntity
  8
OBJECT
100
AcDbBlockBegin
  2
*U24
 70
               1
 10
0.0
 20
0.0
 30
0.0
  3
*U24
  1

  0
LINE
  5
1BD
100
AcDbEntity
  8
OBJECT
  6
CONTINUOUS
 62
               0
100
AcDbLine
 10
365.5
 20
-158.5
 30
0.0
 11
365.5
 21
-172.5
 31
0.0
  0
LINE
  5
1BE
100
AcDbEntity
  8
OBJECT
  6
CONTINUOUS
 62
               0
100
AcDbLine
 10
362.5
 20
-158.5
 30
0.0
 11
362.5
 21
-171.0
 31
0.0
  0
LINE
  5
1BF
100
AcDbEntity
  8
OBJECT
  6
CONTINUOUS
 62
               0
100
AcDbLine
 10
364.87373655343345
 20
-173.71925568901361
 30
0.0
 11
371.50450459549756
 21
-176.08738713260755
 31
0.0
  0
LINE
  5
1C0
100
AcDbEntity
  8
OBJECT
  6
CONTINUOUS
 62
               0
100
AcDbLine
 10
356.49549540450244
 20
-173.91261286739245
 30
0.0
 11
366.54017937580466
 21
-177.5
 31
0.0
  0
LINE
  5
1C1
100
AcDbEntity
  8
OBJECT
  6
CONTINUOUS
 62
               0
100
AcDbLine
 10
366.54017937580466
 20
-177.5
 30
0.0
 11
356.49549540450244
 21
-181.08738713260755
 31
0.0
  0
LINE
  5
1C2
100
AcDbEntity
  8
OBJECT
  6
CONTINUOUS
 62
               0
100
AcDbLine
 10
371.50450459549756
 20
-178.91261286739245
 30
0.0
 11
361.45982062419534
 21
-182.5
 31
0.0
  0
LINE
  5
1C3
100
AcDbEntity
  8
OBJECT
  6
CONTINUOUS
 62
               0
100
AcDbLine
 10
364.0
 20
-171.0
 30
0.0
 11
357.0
 21
-171.0
 31
0.0
  0
LINE
  5
1C4
100
AcDbEntity
  8
OBJECT
  6
CONTINUOUS
 62
               0
100
AcDbLine
 10
364.0
 20
-174.0
 30
0.0
 11
357.0
 21
-174.0
 31
0.0
  0
ARC
  5
1C5
100
AcDbEntity
  8
OBJECT
  6
CONTINUOUS
 62
               0
100
AcDbCircle
 10
357.0
 20
-172.5
 30
0.0
 40
1.5
100
AcDbArc
 50
90.0
 51
270.00004579247047
  0
ARC
  5
1C6
100
AcDbEntity
  8
OBJECT
  6
CONTINUOUS
 62
               0
100
AcDbCircle
 10
371.0
 20
-177.5
 30
0.0
 40
1.5000000000002975
100
AcDbArc
 50
289.6538240580627
 51
70.346175941937361
  0
ARC
  5
1C7
100
AcDbEntity
  8
OBJECT
  6
CONTINUOUS
 62
               0
100
AcDbCircle
 10
357.0
 20
-182.5
 30
0.0
 40
1.5000000000002283
100
AcDbArc
 50
70.346133057383526
 51
70.346133911145486
  0
ARC
  5
1C8
100
AcDbEntity
  8
OBJECT
  6
CONTINUOUS
 62
               0
100
AcDbCircle
 10
357.0
 20
-182.5
 30
0.0
 40
1.5000000000002975
100
AcDbArc
 50
109.65382405806267
 51
250.34621906662261
  0
LINE
  5
1C9
100
AcDbEntity
  8
OBJECT
  6
CONTINUOUS
 62
               0
100
AcDbLine
 10
357.50450459549756
 20
-181.08738713260755
 30
0.0
 11
357.50450609912878
 21
-181.08738766961869
 31
0.0
  0
LINE
  5
1CA
100
AcDbEntity
  8
OBJECT
  6
CONTINUOUS
 62
               0
100
AcDbLine
 10
361.45982062419534
 20
-182.5
 30
0.0
 11
371.50450459549756
 21
-186.08738713260755
 31
0.0
  0
LINE
  5
1CB
100
AcDbEntity
  8
OBJECT
  6
CONTINUOUS
 62
               0
100
AcDbLine
 10
356.49549540450244
 20
-183.91261286739245
 30
0.0
 11
366.54017937580466
 21
-187.5
 31
0.0
  0
ARC
  5
1CC
100
AcDbEntity
  8
OBJECT
  6
CONTINUOUS
 62
               0
100
AcDbCircle
 10
364.0
 20
-172.5
 30
0.0
 40
1.5
100
AcDbArc
 50
270.0
 51
90.0
  0
ARC
  5
1CD
100
AcDbEntity
  8
OBJECT
  6
CONTINUOUS
 62
               0
100
AcDbCircle
 10
364.0
 20
-158.5
 30
0.0
 40
1.5
100
AcDbArc
 50
0.0
 51
19.471220634487622
  0
ARC
  5
1CE
100
AcDbEntity
  8
OBJECT
  6
CONTINUOUS
 62
               0
100
AcDbCircle
 10
364.0
 20
-158.5
 30
0.0
 40
1.5000000000002252
100
AcDbArc
 50
160.52877936551235
 51
180.0
  0
LINE
  5
1CF
100
AcDbEntity
  8
OBJECT
  6
CONTINUOUS
 62
               0
100
AcDbLine
 10
362.5
 20
-165.5
 30
0.0
 11
365.5
 21
-165.5
 31
0.0
  0
LINE
  5
1D0
100
AcDbEntity
  8
OBJECT
  6
CONTINUOUS
 62
               0
100
AcDbLine
 10
366.54017937580466
 20
-187.5
 30
0.0
 11
356.49549540450244
 21
-191.08738713260755
 31
0.0
  0
LINE
  5
1D1
100
AcDbEntity
  8
OBJECT
  6
CONTINUOUS
 62
               0
100
AcDbLine
 10
371.50450459549756
 20
-188.91261286739245
 30
0.0
 11
361.45982062419534
 21
-192.5
 31
0.0
  0
ARC
  5
1D2
100
AcDbEntity
  8
OBJECT
  6
CONTINUOUS
 62
               0
100
AcDbCircle
 10
371.0
 20
-187.5
 30
0.0
 40
1.5000000000002975
100
AcDbArc
 50
289.6538240580627
 51
70.346175941937361
  0
LINE
  5
1D3
100
AcDbEntity
  8
OBJECT
  6
CONTINUOUS
 62
               0
100
AcDbLine
 10
366.54017937580466
 20
-187.5
 30
0.0
 11
356.49549540450244
 21
-191.08738713260755
 31
0.0
  0
ARC
  5
1D4
100
AcDbEntity
  8
OBJECT
  6
CONTINUOUS
 62
               0
100
AcDbCircle
 10
357.0
 20
-192.5
 30
0.0
 40
1.5000000000002283
100
AcDbArc
 50
70.346133057383526
 51
70.346133911145486
  0
ARC
  5
1D5
100
AcDbEntity
  8
OBJECT
  6
CONTINUOUS
 62
               0
100
AcDbCircle
 10
357.0
 20
-192.5
 30
0.0
 40
1.5000000000002975
100
AcDbArc
 50
109.65382405806267
 51
250.34621906662261
  0
LINE
  5
1D6
100
AcDbEntity
  8
OBJECT
  6
CONTINUOUS
 62
               0
100
AcDbLine
 10
357.50450459549756
 20
-191.08738713260755
 30
0.0
 11
357.50450609912878
 21
-191.08738766961869
 31
0.0
  0
LINE
  5
1D7
100
AcDbEntity
  8
OBJECT
  6
CONTINUOUS
 62
               0
100
AcDbLine
 10
356.49549540450244
 20
-193.91261286739245
 30
0.0
 11
366.54017937580466
 21
-197.5
 31
0.0
  0
LINE
  5
1D8
100
AcDbEntity
  8
OBJECT
  6
CONTINUOUS
 62
               0
100
AcDbLine
 10
366.54017937580466
 20
-197.5
 30
0.0
 11
356.49549540450244
 21
-201.08738713260755
 31
0.0
  0
ARC
  5
1D9
100
AcDbEntity
  8
OBJECT
  6
CONTINUOUS
 62
               0
100
AcDbCircle
 10
357.0
 20
-202.5
 30
0.0
 40
1.5000000000002283
100
AcDbArc
 50
70.346133057383526
 51
70.346133911145486
  0
ARC
  5
1DA
100
AcDbEntity
  8
OBJECT
  6
CONTINUOUS
 62
               0
100
AcDbCircle
 10
357.0
 20
-202.5
 30
0.0
 40
1.5000000000002975
100
AcDbArc
 50
109.65382405806267
 51
250.34621906662261
  0
LINE
  5
1DB
100
AcDbEntity
  8
OBJECT
  6
CONTINUOUS
 62
               0
100
AcDbLine
 10
357.50450459549756
 20
-201.08738713260755
 30
0.0
 11
357.50450609912878
 21
-201.08738766961869
 31
0.0
  0
LINE
  5
1DC
100
AcDbEntity
  8
OBJECT
  6
CONTINUOUS
 62
               0
100
AcDbLine
 10
356.49549540450244
 20
-203.91261286739245
 30
0.0
 11
366.54017937580466
 21
-207.5
 31
0.0
  0
LINE
  5
1DD
100
AcDbEntity
  8
OBJECT
  6
CONTINUOUS
 62
               0
100
AcDbLine
 10
366.54017937580466
 20
-207.5
 30
0.0
 11
356.49549540450244
 21
-211.08738713260755
 31
0.0
  0
ARC
  5
1DE
100
AcDbEntity
  8
OBJECT
  6
CONTINUOUS
 62
               0
100
AcDbCircle
 10
357.0
 20
-212.5
 30
0.0
 40
1.5000000000002283
100
AcDbArc
 50
70.346133057383526
 51
70.346133911145486
  0
ARC
  5
1DF
100
AcDbEntity
  8
OBJECT
  6
CONTINUOUS
 62
               0
100
AcDbCircle
 10
357.0
 20
-212.5
 30
0.0
 40
1.5000000000002975
100
AcDbArc
 50
109.65382405806267
 51
250.34621906662261
  0
LINE
  5
1E0
100
AcDbEntity
  8
OBJECT
  6
CONTINUOUS
 62
               0
100
AcDbLine
 10
357.50450459549756
 20
-211.08738713260755
 30
0.0
 11
357.50450609912878
 21
-211.08738766961869
 31
0.0
  0
LINE
  5
1E1
100
AcDbEntity
  8
OBJECT
  6
CONTINUOUS
 62
               0
100
AcDbLine
 10
356.49549540450244
 20
-213.91261286739245
 30
0.0
 11
366.54017937580466
 21
-217.5
 31
0.0
  0
LINE
  5
1E2
100
AcDbEntity
  8
OBJECT
  6
CONTINUOUS
 62
               0
100
AcDbLine
 10
366.54017937580466
 20
-217.5
 30
0.0
 11
356.49549540450244
 21
-221.08738713260755
 31
0.0
  0
ARC
  5
1E3
100
AcDbEntity
  8
OBJECT
  6
CONTINUOUS
 62
               0
100
AcDbCircle
 10
357.0
 20
-222.5
 30
0.0
 40
1.5000000000002283
100
AcDbArc
 50
70.346133057383526
 51
70.346133911145486
  0
ARC
  5
1E4
100
AcDbEntity
  8
OBJECT
  6
CONTINUOUS
 62
               0
100
AcDbCircle
 10
357.0
 20
-222.5
 30
0.0
 40
1.5000000000002975
100
AcDbArc
 50
109.65382405806267
 51
250.34621906662261
  0
LINE
  5
1E5
100
AcDbEntity
  8
OBJECT
  6
CONTINUOUS
 62
               0
100
AcDbLine
 10
357.50450459549756
 20
-221.08738713260755
 30
0.0
 11
357.50450609912878
 21
-221.08738766961869
 31
0.0
  0
LINE
  5
1E6
100
AcDbEntity
  8
OBJECT
  6
CONTINUOUS
 62
               0
100
AcDbLine
 10
356.49549540450244
 20
-223.91261286739245
 30
0.0
 11
366.54017937580466
 21
-227.5
 31
0.0
  0
LINE
  5
1E7
100
AcDbEntity
  8
OBJECT
  6
CONTINUOUS
 62
               0
100
AcDbLine
 10
366.54017937580466
 20
-227.5
 30
0.0
 11
356.49549540450244
 21
-231.08738713260755
 31
0.0
  0
ARC
  5
1E8
100
AcDbEntity
  8
OBJECT
  6
CONTINUOUS
 62
               0
100
AcDbCircle
 10
357.0
 20
-232.5
 30
0.0
 40
1.5000000000002283
100
AcDbArc
 50
70.346133057383526
 51
70.346133911145486
  0
ARC
  5
1E9
100
AcDbEntity
  8
OBJECT
  6
CONTINUOUS
 62
               0
100
AcDbCircle
 10
357.0
 20
-232.5
 30
0.0
 40
1.5000000000002975
100
AcDbArc
 50
109.65382405806267
 51
250.34621906662261
  0
LINE
  5
1EA
100
AcDbEntity
  8
OBJECT
  6
CONTINUOUS
 62
               0
100
AcDbLine
 10
357.50450459549756
 20
-231.08738713260755
 30
0.0
 11
357.50450609912878
 21
-231.08738766961869
 31
0.0
  0
LINE
  5
1EB
100
AcDbEntity
  8
OBJECT
  6
CONTINUOUS
 62
               0
100
AcDbLine
 10
356.49549540450244
 20
-233.91261286739245
 30
0.0
 11
366.54017937580466
 21
-237.5
 31
0.0
  0
LINE
  5
1EC
100
AcDbEntity
  8
OBJECT
  6
CONTINUOUS
 62
               0
100
AcDbLine
 10
366.54017937580466
 20
-237.5
 30
0.0
 11
356.49549540450244
 21
-241.08738713260755
 31
0.0
  0
ARC
  5
1ED
100
AcDbEntity
  8
OBJECT
  6
CONTINUOUS
 62
               0
100
AcDbCircle
 10
357.0
 20
-242.5
 30
0.0
 40
1.5000000000002283
100
AcDbArc
 50
70.346133057383526
 51
70.346133911145486
  0
ARC
  5
1EE
100
AcDbEntity
  8
OBJECT
  6
CONTINUOUS
 62
               0
100
AcDbCircle
 10
357.0
 20
-242.5
 30
0.0
 40
1.5000000000002975
100
AcDbArc
 50
109.65382405806267
 51
250.34621906662261
  0
LINE
  5
1EF
100
AcDbEntity
  8
OBJECT
  6
CONTINUOUS
 62
               0
100
AcDbLine
 10
357.50450459549756
 20
-241.08738713260755
 30
0.0
 11
357.50450609912878
 21
-241.08738766961869
 31
0.0
  0
LINE
  5
1F0
100
AcDbEntity
  8
OBJECT
  6
CONTINUOUS
 62
               0
100
AcDbLine
 10
356.49549540450244
 20
-243.91261286739245
 30
0.0
 11
366.54017937580466
 21
-247.5
 31
0.0
  0
LINE
  5
1F1
100
AcDbEntity
  8
OBJECT
  6
CONTINUOUS
 62
               0
100
AcDbLine
 10
366.54017937580466
 20
-247.5
 30
0.0
 11
356.49549540450244
 21
-251.08738713260755
 31
0.0
  0
ARC
  5
1F2
100
AcDbEntity
  8
OBJECT
  6
CONTINUOUS
 62
               0
100
AcDbCircle
 10
357.0
 20
-252.5
 30
0.0
 40
1.5000000000002283
100
AcDbArc
 50
70.346133057383526
 51
70.346133911145486
  0
ARC
  5
1F3
100
AcDbEntity
  8
OBJECT
  6
CONTINUOUS
 62
               0
100
AcDbCircle
 10
357.0
 20
-252.5
 30
0.0
 40
1.5000000000002975
100
AcDbArc
 50
109.65382405806267
 51
250.34621906662261
  0
LINE
  5
1F4
100
AcDbEntity
  8
OBJECT
  6
CONTINUOUS
 62
               0
100
AcDbLine
 10
357.50450459549756
 20
-251.08738713260755
 30
0.0
 11
357.50450609912878
 21
-251.08738766961869
 31
0.0
  0
LINE
  5
1F5
100
AcDbEntity
  8
OBJECT
  6
CONTINUOUS
 62
               0
100
AcDbLine
 10
356.49549540450244
 20
-253.91261286739245
 30
0.0
 11
366.54017937580466
 21
-257.5
 31
0.0
  0
LINE
  5
1F6
100
AcDbEntity
  8
OBJECT
  6
CONTINUOUS
 62
               0
100
AcDbLine
 10
366.54017937580466
 20
-257.5
 30
0.0
 11
356.49549540450244
 21
-261.08738713260755
 31
0.0
  0
ARC
  5
1F7
100
AcDbEntity
  8
OBJECT
  6
CONTINUOUS
 62
               0
100
AcDbCircle
 10
357.0
 20
-262.5
 30
0.0
 40
1.5000000000002283
100
AcDbArc
 50
70.346133057383526
 51
70.346133911145486
  0
ARC
  5
1F8
100
AcDbEntity
  8
OBJECT
  6
CONTINUOUS
 62
               0
100
AcDbCircle
 10
357.0
 20
-262.5
 30
0.0
 40
1.5000000000002975
100
AcDbArc
 50
109.65382405806267
 51
250.34621906662261
  0
LINE
  5
1F9
100
AcDbEntity
  8
OBJECT
  6
CONTINUOUS
 62
               0
100
AcDbLine
 10
357.50450459549756
 20
-261.08738713260755
 30
0.0
 11
357.50450609912878
 21
-261.08738766961869
 31
0.0
  0
LINE
  5
1FA
100
AcDbEntity
  8
OBJECT
  6
CONTINUOUS
 62
               0
100
AcDbLine
 10
356.49549540450244
 20
-263.91261286739245
 30
0.0
 11
366.54017937580466
 21
-267.5
 31
0.0
  0
LINE
  5
1FB
100
AcDbEntity
  8
OBJECT
  6
CONTINUOUS
 62
               0
100
AcDbLine
 10
366.54017937580466
 20
-267.5
 30
0.0
 11
356.49549540450244
 21
-271.08738713260755
 31
0.0
  0
ARC
  5
1FC
100
AcDbEntity
  8
OBJECT
  6
CONTINUOUS
 62
               0
100
AcDbCircle
 10
357.0
 20
-272.5
 30
0.0
 40
1.5000000000002283
100
AcDbArc
 50
70.346133057383526
 51
70.346133911145486
  0
ARC
  5
1FD
100
AcDbEntity
  8
OBJECT
  6
CONTINUOUS
 62
               0
100
AcDbCircle
 10
357.0
 20
-272.5
 30
0.0
 40
1.5000000000002975
100
AcDbArc
 50
109.65382405806267
 51
250.34621906662261
  0
LINE
  5
1FE
100
AcDbEntity
  8
OBJECT
  6
CONTINUOUS
 62
               0
100
AcDbLine
 10
357.50450459549756
 20
-271.08738713260755
 30
0.0
 11
357.50450609912878
 21
-271.08738766961869
 31
0.0
  0
LINE
  5
1FF
100
AcDbEntity
  8
OBJECT
  6
CONTINUOUS
 62
               0
100
AcDbLine
 10
356.49549540450244
 20
-273.91261286739245
 30
0.0
 11
366.54017937580466
 21
-277.5
 31
0.0
  0
LINE
  5
200
100
AcDbEntity
  8
OBJECT
  6
CONTINUOUS
 62
               0
100
AcDbLine
 10
366.54017937580466
 20
-277.5
 30
0.0
 11
356.49549540450244
 21
-281.08738713260755
 31
0.0
  0
ARC
  5
201
100
AcDbEntity
  8
OBJECT
  6
CONTINUOUS
 62
               0
100
AcDbCircle
 10
357.0
 20
-282.5
 30
0.0
 40
1.5000000000002283
100
AcDbArc
 50
70.346133057383526
 51
70.346133911145486
  0
ARC
  5
202
100
AcDbEntity
  8
OBJECT
  6
CONTINUOUS
 62
               0
100
AcDbCircle
 10
357.0
 20
-282.5
 30
0.0
 40
1.5000000000002975
100
AcDbArc
 50
109.65382405806267
 51
250.34621906662261
  0
LINE
  5
203
100
AcDbEntity
  8
OBJECT
  6
CONTINUOUS
 62
               0
100
AcDbLine
 10
357.50450459549756
 20
-281.08738713260755
 30
0.0
 11
357.50450609912878
 21
-281.08738766961869
 31
0.0
  0
LINE
  5
204
100
AcDbEntity
  8
OBJECT
  6
CONTINUOUS
 62
               0
100
AcDbLine
 10
356.49549540450244
 20
-283.91261286739245
 30
0.0
 11
366.54017937580466
 21
-287.5
 31
0.0
  0
LINE
  5
205
100
AcDbEntity
  8
OBJECT
  6
CONTINUOUS
 62
               0
100
AcDbLine
 10
366.54017937580466
 20
-287.5
 30
0.0
 11
356.49549540450244
 21
-291.08738713260755
 31
0.0
  0
ARC
  5
206
100
AcDbEntity
  8
OBJECT
  6
CONTINUOUS
 62
               0
100
AcDbCircle
 10
357.0
 20
-292.5
 30
0.0
 40
1.5000000000002283
100
AcDbArc
 50
70.346133057383526
 51
70.346133911145486
  0
ARC
  5
207
100
AcDbEntity
  8
OBJECT
  6
CONTINUOUS
 62
               0
100
AcDbCircle
 10
357.0
 20
-292.5
 30
0.0
 40
1.5000000000002975
100
AcDbArc
 50
109.65382405806267
 51
250.34621906662261
  0
LINE
  5
208
100
AcDbEntity
  8
OBJECT
  6
CONTINUOUS
 62
               0
100
AcDbLine
 10
357.50450459549756
 20
-291.08738713260755
 30
0.0
 11
357.50450609912878
 21
-291.08738766961869
 31
0.0
  0
LINE
  5
209
100
AcDbEntity
  8
OBJECT
  6
CONTINUOUS
 62
               0
100
AcDbLine
 10
356.49549540450244
 20
-293.91261286739245
 30
0.0
 11
366.54017937580466
 21
-297.5
 31
0.0
  0
LINE
  5
20A
100
AcDbEntity
  8
OBJECT
  6
CONTINUOUS
 62
               0
100
AcDbLine
 10
366.54017937580466
 20
-297.5
 30
0.0
 11
356.49549540450244
 21
-301.08738713260755
 31
0.0
  0
ARC
  5
20B
100
AcDbEntity
  8
OBJECT
  6
CONTINUOUS
 62
               0
100
AcDbCircle
 10
357.0
 20
-302.5
 30
0.0
 40
1.5000000000002283
100
AcDbArc
 50
70.346133057383526
 51
70.346133911145486
  0
ARC
  5
20C
100
AcDbEntity
  8
OBJECT
  6
CONTINUOUS
 62
               0
100
AcDbCircle
 10
357.0
 20
-302.5
 30
0.0
 40
1.5000000000002975
100
AcDbArc
 50
109.65382405806267
 51
250.34621906662261
  0
LINE
  5
20D
100
AcDbEntity
  8
OBJECT
  6
CONTINUOUS
 62
               0
100
AcDbLine
 10
357.50450459549756
 20
-301.08738713260755
 30
0.0
 11
357.50450609912878
 21
-301.08738766961869
 31
0.0
  0
LINE
  5
20E
100
AcDbEntity
  8
OBJECT
  6
CONTINUOUS
 62
               0
100
AcDbLine
 10
356.49549540450244
 20
-303.91261286739245
 30
0.0
 11
366.54017937580466
 21
-307.5
 31
0.0
  0
LINE
  5
20F
100
AcDbEntity
  8
OBJECT
  6
CONTINUOUS
 62
               0
100
AcDbLine
 10
366.54017937580466
 20
-307.5
 30
0.0
 11
356.49549540450244
 21
-311.08738713260755
 31
0.0
  0
ARC
  5
210
100
AcDbEntity
  8
OBJECT
  6
CONTINUOUS
 62
               0
100
AcDbCircle
 10
357.0
 20
-312.5
 30
0.0
 40
1.5000000000002283
100
AcDbArc
 50
70.346133057383526
 51
70.346133911145486
  0
ARC
  5
211
100
AcDbEntity
  8
OBJECT
  6
CONTINUOUS
 62
               0
100
AcDbCircle
 10
357.0
 20
-312.5
 30
0.0
 40
1.5000000000002975
100
AcDbArc
 50
109.65382405806267
 51
250.34621906662261
  0
LINE
  5
212
100
AcDbEntity
  8
OBJECT
  6
CONTINUOUS
 62
               0
100
AcDbLine
 10
357.50450459549756
 20
-311.08738713260755
 30
0.0
 11
357.50450609912878
 21
-311.08738766961869
 31
0.0
  0
LINE
  5
213
100
AcDbEntity
  8
OBJECT
  6
CONTINUOUS
 62
               0
100
AcDbLine
 10
356.49549540450244
 20
-313.91261286739245
 30
0.0
 11
366.54017937580466
 21
-317.5
 31
0.0
  0
LINE
  5
214
100
AcDbEntity
  8
OBJECT
  6
CONTINUOUS
 62
               0
100
AcDbLine
 10
366.54017937580466
 20
-317.5
 30
0.0
 11
356.49549540450244
 21
-321.08738713260755
 31
0.0
  0
ARC
  5
215
100
AcDbEntity
  8
OBJECT
  6
CONTINUOUS
 62
               0
100
AcDbCircle
 10
357.0
 20
-322.5
 30
0.0
 40
1.5000000000002283
100
AcDbArc
 50
70.346133057383526
 51
70.346133911145486
  0
ARC
  5
216
100
AcDbEntity
  8
OBJECT
  6
CONTINUOUS
 62
               0
100
AcDbCircle
 10
357.0
 20
-322.5
 30
0.0
 40
1.5000000000002975
100
AcDbArc
 50
109.65382405806267
 51
250.34621906662261
  0
LINE
  5
217
100
AcDbEntity
  8
OBJECT
  6
CONTINUOUS
 62
               0
100
AcDbLine
 10
357.50450459549756
 20
-321.08738713260755
 30
0.0
 11
357.50450609912878
 21
-321.08738766961869
 31
0.0
  0
LINE
  5
218
100
AcDbEntity
  8
OBJECT
  6
CONTINUOUS
 62
               0
100
AcDbLine
 10
356.49549540450244
 20
-323.91261286739245
 30
0.0
 11
363.12626344657656
 21
-326.28074431099003
 31
0.0
  0
ARC
  5
219
100
AcDbEntity
  8
OBJECT
  6
CONTINUOUS
 62
               0
100
AcDbCircle
 10
357.0
 20
-332.5
 30
0.0
 40
1.5000000000002283
100
AcDbArc
 50
70.346133057383526
 51
70.346133911145486
  0
LINE
  5
21A
100
AcDbEntity
  8
OBJECT
  6
CONTINUOUS
 62
               0
100
AcDbLine
 10
357.50450459549756
 20
-331.08738713260755
 30
0.0
 11
357.50450609912878
 21
-331.08738766961869
 31
0.0
  0
LINE
  5
21B
100
AcDbEntity
  8
OBJECT
  6
CONTINUOUS
 62
               0
100
AcDbLine
 10
361.45982062419534
 20
-192.5
 30
0.0
 11
371.50450459549756
 21
-196.08738713260755
 31
0.0
  0
LINE
  5
21C
100
AcDbEntity
  8
OBJECT
  6
CONTINUOUS
 62
               0
100
AcDbLine
 10
371.50450459549756
 20
-198.91261286739245
 30
0.0
 11
361.45982062419534
 21
-202.5
 31
0.0
  0
ARC
  5
21D
100
AcDbEntity
  8
OBJECT
  6
CONTINUOUS
 62
               0
100
AcDbCircle
 10
371.0
 20
-197.5
 30
0.0
 40
1.5000000000002975
100
AcDbArc
 50
289.6538240580627
 51
70.346175941937361
  0
LINE
  5
21E
100
AcDbEntity
  8
OBJECT
  6
CONTINUOUS
 62
               0
100
AcDbLine
 10
361.45982062419534
 20
-202.5
 30
0.0
 11
371.50450459549756
 21
-206.08738713260755
 31
0.0
  0
LINE
  5
21F
100
AcDbEntity
  8
OBJECT
  6
CONTINUOUS
 62
               0
100
AcDbLine
 10
371.50450459549756
 20
-208.91261286739245
 30
0.0
 11
361.45982062419534
 21
-212.5
 31
0.0
  0
ARC
  5
220
100
AcDbEntity
  8
OBJECT
  6
CONTINUOUS
 62
               0
100
AcDbCircle
 10
371.0
 20
-207.5
 30
0.0
 40
1.5000000000002975
100
AcDbArc
 50
289.6538240580627
 51
70.346175941937361
  0
LINE
  5
221
100
AcDbEntity
  8
OBJECT
  6
CONTINUOUS
 62
               0
100
AcDbLine
 10
361.45982062419534
 20
-212.5
 30
0.0
 11
371.50450459549756
 21
-216.08738713260755
 31
0.0
  0
LINE
  5
222
100
AcDbEntity
  8
OBJECT
  6
CONTINUOUS
 62
               0
100
AcDbLine
 10
371.50450459549756
 20
-218.91261286739245
 30
0.0
 11
361.45982062419534
 21
-222.5
 31
0.0
  0
ARC
  5
223
100
AcDbEntity
  8
OBJECT
  6
CONTINUOUS
 62
               0
100
AcDbCircle
 10
371.0
 20
-217.5
 30
0.0
 40
1.5000000000002975
100
AcDbArc
 50
289.6538240580627
 51
70.346175941937361
  0
LINE
  5
224
100
AcDbEntity
  8
OBJECT
  6
CONTINUOUS
 62
               0
100
AcDbLine
 10
361.45982062419534
 20
-222.5
 30
0.0
 11
371.50450459549756
 21
-226.08738713260755
 31
0.0
  0
LINE
  5
225
100
AcDbEntity
  8
OBJECT
  6
CONTINUOUS
 62
               0
100
AcDbLine
 10
371.50450459549756
 20
-228.91261286739245
 30
0.0
 11
361.45982062419534
 21
-232.5
 31
0.0
  0
ARC
  5
226
100
AcDbEntity
  8
OBJECT
  6
CONTINUOUS
 62
               0
100
AcDbCircle
 10
371.0
 20
-227.5
 30
0.0
 40
1.5000000000002975
100
AcDbArc
 50
289.6538240580627
 51
70.346175941937361
  0
LINE
  5
227
100
AcDbEntity
  8
OBJECT
  6
CONTINUOUS
 62
               0
100
AcDbLine
 10
361.45982062419534
 20
-232.5
 30
0.0
 11
371.50450459549756
 21
-236.08738713260755
 31
0.0
  0
LINE
  5
228
100
AcDbEntity
  8
OBJECT
  6
CONTINUOUS
 62
               0
100
AcDbLine
 10
371.50450459549756
 20
-238.91261286739245
 30
0.0
 11
361.45982062419534
 21
-242.5
 31
0.0
  0
ARC
  5
229
100
AcDbEntity
  8
OBJECT
  6
CONTINUOUS
 62
               0
100
AcDbCircle
 10
371.0
 20
-237.5
 30
0.0
 40
1.5000000000002975
100
AcDbArc
 50
289.6538240580627
 51
70.346175941937361
  0
LINE
  5
22A
100
AcDbEntity
  8
OBJECT
  6
CONTINUOUS
 62
               0
100
AcDbLine
 10
361.45982062419534
 20
-242.5
 30
0.0
 11
371.50450459549756
 21
-246.08738713260755
 31
0.0
  0
LINE
  5
22B
100
AcDbEntity
  8
OBJECT
  6
CONTINUOUS
 62
               0
100
AcDbLine
 10
371.50450459549756
 20
-248.91261286739245
 30
0.0
 11
361.45982062419534
 21
-252.5
 31
0.0
  0
ARC
  5
22C
100
AcDbEntity
  8
OBJECT
  6
CONTINUOUS
 62
               0
100
AcDbCircle
 10
371.0
 20
-247.5
 30
0.0
 40
1.5000000000002975
100
AcDbArc
 50
289.6538240580627
 51
70.346175941937361
  0
LINE
  5
22D
100
AcDbEntity
  8
OBJECT
  6
CONTINUOUS
 62
               0
100
AcDbLine
 10
361.45982062419534
 20
-252.5
 30
0.0
 11
371.50450459549756
 21
-256.08738713260755
 31
0.0
  0
LINE
  5
22E
100
AcDbEntity
  8
OBJECT
  6
CONTINUOUS
 62
               0
100
AcDbLine
 10
371.50450459549756
 20
-258.91261286739245
 30
0.0
 11
361.45982062419534
 21
-262.5
 31
0.0
  0
ARC
  5
22F
100
AcDbEntity
  8
OBJECT
  6
CONTINUOUS
 62
               0
100
AcDbCircle
 10
371.0
 20
-257.5
 30
0.0
 40
1.5000000000002975
100
AcDbArc
 50
289.6538240580627
 51
70.346175941937361
  0
LINE
  5
230
100
AcDbEntity
  8
OBJECT
  6
CONTINUOUS
 62
               0
100
AcDbLine
 10
361.45982062419534
 20
-262.5
 30
0.0
 11
371.50450459549756
 21
-266.08738713260755
 31
0.0
  0
LINE
  5
231
100
AcDbEntity
  8
OBJECT
  6
CONTINUOUS
 62
               0
100
AcDbLine
 10
371.50450459549756
 20
-268.91261286739245
 30
0.0
 11
361.45982062419534
 21
-272.5
 31
0.0
  0
ARC
  5
232
100
AcDbEntity
  8
OBJECT
  6
CONTINUOUS
 62
               0
100
AcDbCircle
 10
371.0
 20
-267.5
 30
0.0
 40
1.5000000000002975
100
AcDbArc
 50
289.6538240580627
 51
70.346175941937361
  0
LINE
  5
233
100
AcDbEntity
  8
OBJECT
  6
CONTINUOUS
 62
               0
100
AcDbLine
 10
361.45982062419534
 20
-272.5
 30
0.0
 11
371.50450459549756
 21
-276.08738713260755
 31
0.0
  0
LINE
  5
234
100
AcDbEntity
  8
OBJECT
  6
CONTINUOUS
 62
               0
100
AcDbLine
 10
371.50450459549756
 20
-278.91261286739245
 30
0.0
 11
361.45982062419534
 21
-282.5
 31
0.0
  0
ARC
  5
235
100
AcDbEntity
  8
OBJECT
  6
CONTINUOUS
 62
               0
100
AcDbCircle
 10
371.0
 20
-277.5
 30
0.0
 40
1.5000000000002975
100
AcDbArc
 50
289.6538240580627
 51
70.346175941937361
  0
LINE
  5
236
100
AcDbEntity
  8
OBJECT
  6
CONTINUOUS
 62
               0
100
AcDbLine
 10
361.45982062419534
 20
-282.5
 30
0.0
 11
371.50450459549756
 21
-286.08738713260755
 31
0.0
  0
LINE
  5
237
100
AcDbEntity
  8
OBJECT
  6
CONTINUOUS
 62
               0
100
AcDbLine
 10
371.50450459549756
 20
-288.91261286739245
 30
0.0
 11
361.45982062419534
 21
-292.5
 31
0.0
  0
ARC
  5
238
100
AcDbEntity
  8
OBJECT
  6
CONTINUOUS
 62
               0
100
AcDbCircle
 10
371.0
 20
-287.5
 30
0.0
 40
1.5000000000002975
100
AcDbArc
 50
289.6538240580627
 51
70.346175941937361
  0
LINE
  5
239
100
AcDbEntity
  8
OBJECT
  6
CONTINUOUS
 62
               0
100
AcDbLine
 10
361.45982062419534
 20
-292.5
 30
0.0
 11
371.50450459549756
 21
-296.08738713260755
 31
0.0
  0
LINE
  5
23A
100
AcDbEntity
  8
OBJECT
  6
CONTINUOUS
 62
               0
100
AcDbLine
 10
371.50450459549756
 20
-298.91261286739245
 30
0.0
 11
361.45982062419534
 21
-302.5
 31
0.0
  0
ARC
  5
23B
100
AcDbEntity
  8
OBJECT
  6
CONTINUOUS
 62
               0
100
AcDbCircle
 10
371.0
 20
-297.5
 30
0.0
 40
1.5000000000002975
100
AcDbArc
 50
289.6538240580627
 51
70.346175941937361
  0
LINE
  5
23C
100
AcDbEntity
  8
OBJECT
  6
CONTINUOUS
 62
               0
100
AcDbLine
 10
361.45982062419534
 20
-302.5
 30
0.0
 11
371.50450459549756
 21
-306.08738713260755
 31
0.0
  0
LINE
  5
23D
100
AcDbEntity
  8
OBJECT
  6
CONTINUOUS
 62
               0
100
AcDbLine
 10
371.50450459549756
 20
-308.91261286739245
 30
0.0
 11
361.45982062419534
 21
-312.5
 31
0.0
  0
ARC
  5
23E
100
AcDbEntity
  8
OBJECT
  6
CONTINUOUS
 62
               0
100
AcDbCircle
 10
371.0
 20
-307.5
 30
0.0
 40
1.5000000000002975
100
AcDbArc
 50
289.6538240580627
 51
70.346175941937361
  0
LINE
  5
23F
100
AcDbEntity
  8
OBJECT
  6
CONTINUOUS
 62
               0
100
AcDbLine
 10
361.45982062419534
 20
-312.5
 30
0.0
 11
371.50450459549756
 21
-316.08738713260755
 31
0.0
  0
LINE
  5
240
100
AcDbEntity
  8
OBJECT
  6
CONTINUOUS
 62
               0
100
AcDbLine
 10
371.50450459549756
 20
-318.91261286739245
 30
0.0
 11
361.45982062419534
 21
-322.5
 31
0.0
  0
ARC
  5
241
100
AcDbEntity
  8
OBJECT
  6
CONTINUOUS
 62
               0
100
AcDbCircle
 10
371.0
 20
-317.5
 30
0.0
 40
1.5000000000002975
100
AcDbArc
 50
289.6538240580627
 51
70.346175941937361
  0
LINE
  5
242
100
AcDbEntity
  8
OBJECT
  6
CONTINUOUS
 62
               0
100
AcDbLine
 10
361.45982062419534
 20
-322.5
 30
0.0
 11
371.50450459549756
 21
-326.08738713260755
 31
0.0
  0
LINE
  5
243
100
AcDbEntity
  8
OBJECT
  6
CONTINUOUS
 62
               0
100
AcDbLine
 10
362.5
 20
-341.5
 30
0.0
 11
362.5
 21
-327.5
 31
0.0
  0
LINE
  5
244
100
AcDbEntity
  8
OBJECT
  6
CONTINUOUS
 62
               0
100
AcDbLine
 10
365.5
 20
-341.5
 30
0.0
 11
365.5
 21
-329.0
 31
0.0
  0
LINE
  5
245
100
AcDbEntity
  8
OBJECT
  6
CONTINUOUS
 62
               0
100
AcDbLine
 10
364.0
 20
-329.0
 30
0.0
 11
371.0
 21
-329.0
 31
0.0
  0
LINE
  5
246
100
AcDbEntity
  8
OBJECT
  6
CONTINUOUS
 62
               0
100
AcDbLine
 10
364.0
 20
-326.0
 30
0.0
 11
371.0
 21
-326.0
 31
0.0
  0
ARC
  5
247
100
AcDbEntity
  8
OBJECT
  6
CONTINUOUS
 62
               0
100
AcDbCircle
 10
371.0
 20
-327.5
 30
0.0
 40
1.5
100
AcDbArc
 50
270.0
 51
90.00004579247053
  0
ARC
  5
248
100
AcDbEntity
  8
OBJECT
  6
CONTINUOUS
 62
               0
100
AcDbCircle
 10
364.0
 20
-327.5
 30
0.0
 40
1.5
100
AcDbArc
 50
90.0
 51
270.0
  0
ARC
  5
249
100
AcDbEntity
  8
OBJECT
  6
CONTINUOUS
 62
               0
100
AcDbCircle
 10
364.0
 20
-341.5
 30
0.0
 40
1.5
100
AcDbArc
 50
180.0
 51
0.0
  0
LINE
  5
24A
100
AcDbEntity
  8
OBJECT
  6
CONTINUOUS
 62
               0
100
AcDbLine
 10
365.5
 20
-334.5
 30
0.0
 11
362.5
 21
-334.5
 31
0.0
  0
ENDBLK
  5
24B
100
AcDbEntity
  8
OBJECT
100
AcDbBlockEnd
  0
BLOCK
  5
24C
100
AcDbEntity
  8
OBJECT
100
AcDbBlockBegin
  2
*U25
 70
               1
 10
0.0
 20
0.0
 30
0.0
  3
*U25
  1

  0
LINE
  5
24D
100
AcDbEntity
  8
OBJECT
  6
CONTINUOUS
 62
               0
100
AcDbLine
 10
345.5
 20
-158.5
 30
0.0
 11
345.5
 21
-172.5
 31
0.0
  0
LINE
  5
24E
100
AcDbEntity
  8
OBJECT
  6
CONTINUOUS
 62
               0
100
AcDbLine
 10
342.5
 20
-158.5
 30
0.0
 11
342.5
 21
-171.0
 31
0.0
  0
LINE
  5
24F
100
AcDbEntity
  8
OBJECT
  6
CONTINUOUS
 62
               0
100
AcDbLine
 10
344.87373655343345
 20
-173.71925568901361
 30
0.0
 11
351.50450459549756
 21
-176.08738713260755
 31
0.0
  0
LINE
  5
250
100
AcDbEntity
  8
OBJECT
  6
CONTINUOUS
 62
               0
100
AcDbLine
 10
336.49549540450244
 20
-173.91261286739245
 30
0.0
 11
346.54017937580466
 21
-177.5
 31
0.0
  0
LINE
  5
251
100
AcDbEntity
  8
OBJECT
  6
CONTINUOUS
 62
               0
100
AcDbLine
 10
346.54017937580466
 20
-177.5
 30
0.0
 11
336.49549540450244
 21
-181.08738713260755
 31
0.0
  0
LINE
  5
252
100
AcDbEntity
  8
OBJECT
  6
CONTINUOUS
 62
               0
100
AcDbLine
 10
351.50450459549756
 20
-178.91261286739245
 30
0.0
 11
341.45982062419534
 21
-182.5
 31
0.0
  0
LINE
  5
253
100
AcDbEntity
  8
OBJECT
  6
CONTINUOUS
 62
               0
100
AcDbLine
 10
344.0
 20
-171.0
 30
0.0
 11
337.0
 21
-171.0
 31
0.0
  0
LINE
  5
254
100
AcDbEntity
  8
OBJECT
  6
CONTINUOUS
 62
               0
100
AcDbLine
 10
344.0
 20
-174.0
 30
0.0
 11
337.0
 21
-174.0
 31
0.0
  0
ARC
  5
255
100
AcDbEntity
  8
OBJECT
  6
CONTINUOUS
 62
               0
100
AcDbCircle
 10
337.0
 20
-172.5
 30
0.0
 40
1.5
100
AcDbArc
 50
90.0
 51
270.00004579247047
  0
ARC
  5
256
100
AcDbEntity
  8
OBJECT
  6
CONTINUOUS
 62
               0
100
AcDbCircle
 10
351.0
 20
-177.5
 30
0.0
 40
1.5000000000002975
100
AcDbArc
 50
289.6538240580627
 51
70.346175941937361
  0
ARC
  5
257
100
AcDbEntity
  8
OBJECT
  6
CONTINUOUS
 62
               0
100
AcDbCircle
 10
337.0
 20
-182.5
 30
0.0
 40
1.5000000000002283
100
AcDbArc
 50
70.346133057383526
 51
70.346133911145486
  0
ARC
  5
258
100
AcDbEntity
  8
OBJECT
  6
CONTINUOUS
 62
               0
100
AcDbCircle
 10
337.0
 20
-182.5
 30
0.0
 40
1.5000000000002975
100
AcDbArc
 50
109.65382405806267
 51
250.34621906662261
  0
LINE
  5
259
100
AcDbEntity
  8
OBJECT
  6
CONTINUOUS
 62
               0
100
AcDbLine
 10
337.50450459549756
 20
-181.08738713260755
 30
0.0
 11
337.50450609912878
 21
-181.08738766961869
 31
0.0
  0
LINE
  5
25A
100
AcDbEntity
  8
OBJECT
  6
CONTINUOUS
 62
               0
100
AcDbLine
 10
341.45982062419534
 20
-182.5
 30
0.0
 11
351.50450459549756
 21
-186.08738713260755
 31
0.0
  0
LINE
  5
25B
100
AcDbEntity
  8
OBJECT
  6
CONTINUOUS
 62
               0
100
AcDbLine
 10
336.49549540450244
 20
-183.91261286739245
 30
0.0
 11
346.54017937580466
 21
-187.5
 31
0.0
  0
ARC
  5
25C
100
AcDbEntity
  8
OBJECT
  6
CONTINUOUS
 62
               0
100
AcDbCircle
 10
344.0
 20
-172.5
 30
0.0
 40
1.5
100
AcDbArc
 50
270.0
 51
90.0
  0
ARC
  5
25D
100
AcDbEntity
  8
OBJECT
  6
CONTINUOUS
 62
               0
100
AcDbCircle
 10
344.0
 20
-158.5
 30
0.0
 40
1.5
100
AcDbArc
 50
0.0
 51
19.471220634487622
  0
ARC
  5
25E
100
AcDbEntity
  8
OBJECT
  6
CONTINUOUS
 62
               0
100
AcDbCircle
 10
344.0
 20
-158.5
 30
0.0
 40
1.5000000000002252
100
AcDbArc
 50
160.52877936551235
 51
180.0
  0
LINE
  5
25F
100
AcDbEntity
  8
OBJECT
  6
CONTINUOUS
 62
               0
100
AcDbLine
 10
342.5
 20
-165.5
 30
0.0
 11
345.5
 21
-165.5
 31
0.0
  0
LINE
  5
260
100
AcDbEntity
  8
OBJECT
  6
CONTINUOUS
 62
               0
100
AcDbLine
 10
346.54017937580466
 20
-187.5
 30
0.0
 11
336.49549540450244
 21
-191.08738713260755
 31
0.0
  0
LINE
  5
261
100
AcDbEntity
  8
OBJECT
  6
CONTINUOUS
 62
               0
100
AcDbLine
 10
351.50450459549756
 20
-188.91261286739245
 30
0.0
 11
341.45982062419534
 21
-192.5
 31
0.0
  0
ARC
  5
262
100
AcDbEntity
  8
OBJECT
  6
CONTINUOUS
 62
               0
100
AcDbCircle
 10
351.0
 20
-187.5
 30
0.0
 40
1.5000000000002975
100
AcDbArc
 50
289.6538240580627
 51
70.346175941937361
  0
LINE
  5
263
100
AcDbEntity
  8
OBJECT
  6
CONTINUOUS
 62
               0
100
AcDbLine
 10
346.54017937580466
 20
-187.5
 30
0.0
 11
336.49549540450244
 21
-191.08738713260755
 31
0.0
  0
ARC
  5
264
100
AcDbEntity
  8
OBJECT
  6
CONTINUOUS
 62
               0
100
AcDbCircle
 10
337.0
 20
-192.5
 30
0.0
 40
1.5000000000002283
100
AcDbArc
 50
70.346133057383526
 51
70.346133911145486
  0
ARC
  5
265
100
AcDbEntity
  8
OBJECT
  6
CONTINUOUS
 62
               0
100
AcDbCircle
 10
337.0
 20
-192.5
 30
0.0
 40
1.5000000000002975
100
AcDbArc
 50
109.65382405806267
 51
250.34621906662261
  0
LINE
  5
266
100
AcDbEntity
  8
OBJECT
  6
CONTINUOUS
 62
               0
100
AcDbLine
 10
337.50450459549756
 20
-191.08738713260755
 30
0.0
 11
337.50450609912878
 21
-191.08738766961869
 31
0.0
  0
LINE
  5
267
100
AcDbEntity
  8
OBJECT
  6
CONTINUOUS
 62
               0
100
AcDbLine
 10
336.49549540450244
 20
-193.91261286739245
 30
0.0
 11
346.54017937580466
 21
-197.5
 31
0.0
  0
LINE
  5
268
100
AcDbEntity
  8
OBJECT
  6
CONTINUOUS
 62
               0
100
AcDbLine
 10
346.54017937580466
 20
-197.5
 30
0.0
 11
336.49549540450244
 21
-201.08738713260755
 31
0.0
  0
ARC
  5
269
100
AcDbEntity
  8
OBJECT
  6
CONTINUOUS
 62
               0
100
AcDbCircle
 10
337.0
 20
-202.5
 30
0.0
 40
1.5000000000002283
100
AcDbArc
 50
70.346133057383526
 51
70.346133911145486
  0
ARC
  5
26A
100
AcDbEntity
  8
OBJECT
  6
CONTINUOUS
 62
               0
100
AcDbCircle
 10
337.0
 20
-202.5
 30
0.0
 40
1.5000000000002975
100
AcDbArc
 50
109.65382405806267
 51
250.34621906662261
  0
LINE
  5
26B
100
AcDbEntity
  8
OBJECT
  6
CONTINUOUS
 62
               0
100
AcDbLine
 10
337.50450459549756
 20
-201.08738713260755
 30
0.0
 11
337.50450609912878
 21
-201.08738766961869
 31
0.0
  0
LINE
  5
26C
100
AcDbEntity
  8
OBJECT
  6
CONTINUOUS
 62
               0
100
AcDbLine
 10
336.49549540450244
 20
-203.91261286739245
 30
0.0
 11
346.54017937580466
 21
-207.5
 31
0.0
  0
LINE
  5
26D
100
AcDbEntity
  8
OBJECT
  6
CONTINUOUS
 62
               0
100
AcDbLine
 10
346.54017937580466
 20
-207.5
 30
0.0
 11
336.49549540450244
 21
-211.08738713260755
 31
0.0
  0
ARC
  5
26E
100
AcDbEntity
  8
OBJECT
  6
CONTINUOUS
 62
               0
100
AcDbCircle
 10
337.0
 20
-212.5
 30
0.0
 40
1.5000000000002283
100
AcDbArc
 50
70.346133057383526
 51
70.346133911145486
  0
ARC
  5
26F
100
AcDbEntity
  8
OBJECT
  6
CONTINUOUS
 62
               0
100
AcDbCircle
 10
337.0
 20
-212.5
 30
0.0
 40
1.5000000000002975
100
AcDbArc
 50
109.65382405806267
 51
250.34621906662261
  0
LINE
  5
270
100
AcDbEntity
  8
OBJECT
  6
CONTINUOUS
 62
               0
100
AcDbLine
 10
337.50450459549756
 20
-211.08738713260755
 30
0.0
 11
337.50450609912878
 21
-211.08738766961869
 31
0.0
  0
LINE
  5
271
100
AcDbEntity
  8
OBJECT
  6
CONTINUOUS
 62
               0
100
AcDbLine
 10
336.49549540450244
 20
-213.91261286739245
 30
0.0
 11
346.54017937580466
 21
-217.5
 31
0.0
  0
LINE
  5
272
100
AcDbEntity
  8
OBJECT
  6
CONTINUOUS
 62
               0
100
AcDbLine
 10
346.54017937580466
 20
-217.5
 30
0.0
 11
336.49549540450244
 21
-221.08738713260755
 31
0.0
  0
ARC
  5
273
100
AcDbEntity
  8
OBJECT
  6
CONTINUOUS
 62
               0
100
AcDbCircle
 10
337.0
 20
-222.5
 30
0.0
 40
1.5000000000002283
100
AcDbArc
 50
70.346133057383526
 51
70.346133911145486
  0
ARC
  5
274
100
AcDbEntity
  8
OBJECT
  6
CONTINUOUS
 62
               0
100
AcDbCircle
 10
337.0
 20
-222.5
 30
0.0
 40
1.5000000000002975
100
AcDbArc
 50
109.65382405806267
 51
250.34621906662261
  0
LINE
  5
275
100
AcDbEntity
  8
OBJECT
  6
CONTINUOUS
 62
               0
100
AcDbLine
 10
337.50450459549756
 20
-221.08738713260755
 30
0.0
 11
337.50450609912878
 21
-221.08738766961869
 31
0.0
  0
LINE
  5
276
100
AcDbEntity
  8
OBJECT
  6
CONTINUOUS
 62
               0
100
AcDbLine
 10
336.49549540450244
 20
-223.91261286739245
 30
0.0
 11
346.54017937580466
 21
-227.5
 31
0.0
  0
LINE
  5
277
100
AcDbEntity
  8
OBJECT
  6
CONTINUOUS
 62
               0
100
AcDbLine
 10
346.54017937580466
 20
-227.5
 30
0.0
 11
336.49549540450244
 21
-231.08738713260755
 31
0.0
  0
ARC
  5
278
100
AcDbEntity
  8
OBJECT
  6
CONTINUOUS
 62
               0
100
AcDbCircle
 10
337.0
 20
-232.5
 30
0.0
 40
1.5000000000002283
100
AcDbArc
 50
70.346133057383526
 51
70.346133911145486
  0
ARC
  5
279
100
AcDbEntity
  8
OBJECT
  6
CONTINUOUS
 62
               0
100
AcDbCircle
 10
337.0
 20
-232.5
 30
0.0
 40
1.5000000000002975
100
AcDbArc
 50
109.65382405806267
 51
250.34621906662261
  0
LINE
  5
27A
100
AcDbEntity
  8
OBJECT
  6
CONTINUOUS
 62
               0
100
AcDbLine
 10
337.50450459549756
 20
-231.08738713260755
 30
0.0
 11
337.50450609912878
 21
-231.08738766961869
 31
0.0
  0
LINE
  5
27B
100
AcDbEntity
  8
OBJECT
  6
CONTINUOUS
 62
               0
100
AcDbLine
 10
336.49549540450244
 20
-233.91261286739245
 30
0.0
 11
346.54017937580466
 21
-237.5
 31
0.0
  0
LINE
  5
27C
100
AcDbEntity
  8
OBJECT
  6
CONTINUOUS
 62
               0
100
AcDbLine
 10
346.54017937580466
 20
-237.5
 30
0.0
 11
336.49549540450244
 21
-241.08738713260755
 31
0.0
  0
ARC
  5
27D
100
AcDbEntity
  8
OBJECT
  6
CONTINUOUS
 62
               0
100
AcDbCircle
 10
337.0
 20
-242.5
 30
0.0
 40
1.5000000000002283
100
AcDbArc
 50
70.346133057383526
 51
70.346133911145486
  0
ARC
  5
27E
100
AcDbEntity
  8
OBJECT
  6
CONTINUOUS
 62
               0
100
AcDbCircle
 10
337.0
 20
-242.5
 30
0.0
 40
1.5000000000002975
100
AcDbArc
 50
109.65382405806267
 51
250.34621906662261
  0
LINE
  5
27F
100
AcDbEntity
  8
OBJECT
  6
CONTINUOUS
 62
               0
100
AcDbLine
 10
337.50450459549756
 20
-241.08738713260755
 30
0.0
 11
337.50450609912878
 21
-241.08738766961869
 31
0.0
  0
LINE
  5
280
100
AcDbEntity
  8
OBJECT
  6
CONTINUOUS
 62
               0
100
AcDbLine
 10
336.49549540450244
 20
-243.91261286739245
 30
0.0
 11
346.54017937580466
 21
-247.5
 31
0.0
  0
LINE
  5
281
100
AcDbEntity
  8
OBJECT
  6
CONTINUOUS
 62
               0
100
AcDbLine
 10
346.54017937580466
 20
-247.5
 30
0.0
 11
336.49549540450244
 21
-251.08738713260755
 31
0.0
  0
ARC
  5
282
100
AcDbEntity
  8
OBJECT
  6
CONTINUOUS
 62
               0
100
AcDbCircle
 10
337.0
 20
-252.5
 30
0.0
 40
1.5000000000002283
100
AcDbArc
 50
70.346133057383526
 51
70.346133911145486
  0
ARC
  5
283
100
AcDbEntity
  8
OBJECT
  6
CONTINUOUS
 62
               0
100
AcDbCircle
 10
337.0
 20
-252.5
 30
0.0
 40
1.5000000000002975
100
AcDbArc
 50
109.65382405806267
 51
250.34621906662261
  0
LINE
  5
284
100
AcDbEntity
  8
OBJECT
  6
CONTINUOUS
 62
               0
100
AcDbLine
 10
337.50450459549756
 20
-251.08738713260755
 30
0.0
 11
337.50450609912878
 21
-251.08738766961869
 31
0.0
  0
LINE
  5
285
100
AcDbEntity
  8
OBJECT
  6
CONTINUOUS
 62
               0
100
AcDbLine
 10
336.49549540450244
 20
-253.91261286739245
 30
0.0
 11
346.54017937580466
 21
-257.5
 31
0.0
  0
LINE
  5
286
100
AcDbEntity
  8
OBJECT
  6
CONTINUOUS
 62
               0
100
AcDbLine
 10
346.54017937580466
 20
-257.5
 30
0.0
 11
336.49549540450244
 21
-261.08738713260755
 31
0.0
  0
ARC
  5
287
100
AcDbEntity
  8
OBJECT
  6
CONTINUOUS
 62
               0
100
AcDbCircle
 10
337.0
 20
-262.5
 30
0.0
 40
1.5000000000002283
100
AcDbArc
 50
70.346133057383526
 51
70.346133911145486
  0
ARC
  5
288
100
AcDbEntity
  8
OBJECT
  6
CONTINUOUS
 62
               0
100
AcDbCircle
 10
337.0
 20
-262.5
 30
0.0
 40
1.5000000000002975
100
AcDbArc
 50
109.65382405806267
 51
250.34621906662261
  0
LINE
  5
289
100
AcDbEntity
  8
OBJECT
  6
CONTINUOUS
 62
               0
100
AcDbLine
 10
337.50450459549756
 20
-261.08738713260755
 30
0.0
 11
337.50450609912878
 21
-261.08738766961869
 31
0.0
  0
LINE
  5
28A
100
AcDbEntity
  8
OBJECT
  6
CONTINUOUS
 62
               0
100
AcDbLine
 10
336.49549540450244
 20
-263.91261286739245
 30
0.0
 11
346.54017937580466
 21
-267.5
 31
0.0
  0
LINE
  5
28B
100
AcDbEntity
  8
OBJECT
  6
CONTINUOUS
 62
               0
100
AcDbLine
 10
346.54017937580466
 20
-267.5
 30
0.0
 11
336.49549540450244
 21
-271.08738713260755
 31
0.0
  0
ARC
  5
28C
100
AcDbEntity
  8
OBJECT
  6
CONTINUOUS
 62
               0
100
AcDbCircle
 10
337.0
 20
-272.5
 30
0.0
 40
1.5000000000002283
100
AcDbArc
 50
70.346133057383526
 51
70.346133911145486
  0
ARC
  5
28D
100
AcDbEntity
  8
OBJECT
  6
CONTINUOUS
 62
               0
100
AcDbCircle
 10
337.0
 20
-272.5
 30
0.0
 40
1.5000000000002975
100
AcDbArc
 50
109.65382405806267
 51
250.34621906662261
  0
LINE
  5
28E
100
AcDbEntity
  8
OBJECT
  6
CONTINUOUS
 62
               0
100
AcDbLine
 10
337.50450459549756
 20
-271.08738713260755
 30
0.0
 11
337.50450609912878
 21
-271.08738766961869
 31
0.0
  0
LINE
  5
28F
100
AcDbEntity
  8
OBJECT
  6
CONTINUOUS
 62
               0
100
AcDbLine
 10
336.49549540450244
 20
-273.91261286739245
 30
0.0
 11
346.54017937580466
 21
-277.5
 31
0.0
  0
LINE
  5
290
100
AcDbEntity
  8
OBJECT
  6
CONTINUOUS
 62
               0
100
AcDbLine
 10
346.54017937580466
 20
-277.5
 30
0.0
 11
336.49549540450244
 21
-281.08738713260755
 31
0.0
  0
ARC
  5
291
100
AcDbEntity
  8
OBJECT
  6
CONTINUOUS
 62
               0
100
AcDbCircle
 10
337.0
 20
-282.5
 30
0.0
 40
1.5000000000002283
100
AcDbArc
 50
70.346133057383526
 51
70.346133911145486
  0
ARC
  5
292
100
AcDbEntity
  8
OBJECT
  6
CONTINUOUS
 62
               0
100
AcDbCircle
 10
337.0
 20
-282.5
 30
0.0
 40
1.5000000000002975
100
AcDbArc
 50
109.65382405806267
 51
250.34621906662261
  0
LINE
  5
293
100
AcDbEntity
  8
OBJECT
  6
CONTINUOUS
 62
               0
100
AcDbLine
 10
337.50450459549756
 20
-281.08738713260755
 30
0.0
 11
337.50450609912878
 21
-281.08738766961869
 31
0.0
  0
LINE
  5
294
100
AcDbEntity
  8
OBJECT
  6
CONTINUOUS
 62
               0
100
AcDbLine
 10
336.49549540450244
 20
-283.91261286739245
 30
0.0
 11
346.54017937580466
 21
-287.5
 31
0.0
  0
LINE
  5
295
100
AcDbEntity
  8
OBJECT
  6
CONTINUOUS
 62
               0
100
AcDbLine
 10
346.54017937580466
 20
-287.5
 30
0.0
 11
336.49549540450244
 21
-291.08738713260755
 31
0.0
  0
ARC
  5
296
100
AcDbEntity
  8
OBJECT
  6
CONTINUOUS
 62
               0
100
AcDbCircle
 10
337.0
 20
-292.5
 30
0.0
 40
1.5000000000002283
100
AcDbArc
 50
70.346133057383526
 51
70.346133911145486
  0
ARC
  5
297
100
AcDbEntity
  8
OBJECT
  6
CONTINUOUS
 62
               0
100
AcDbCircle
 10
337.0
 20
-292.5
 30
0.0
 40
1.5000000000002975
100
AcDbArc
 50
109.65382405806267
 51
250.34621906662261
  0
LINE
  5
298
100
AcDbEntity
  8
OBJECT
  6
CONTINUOUS
 62
               0
100
AcDbLine
 10
337.50450459549756
 20
-291.08738713260755
 30
0.0
 11
337.50450609912878
 21
-291.08738766961869
 31
0.0
  0
LINE
  5
299
100
AcDbEntity
  8
OBJECT
  6
CONTINUOUS
 62
               0
100
AcDbLine
 10
336.49549540450244
 20
-293.91261286739245
 30
0.0
 11
346.54017937580466
 21
-297.5
 31
0.0
  0
LINE
  5
29A
100
AcDbEntity
  8
OBJECT
  6
CONTINUOUS
 62
               0
100
AcDbLine
 10
346.54017937580466
 20
-297.5
 30
0.0
 11
336.49549540450244
 21
-301.08738713260755
 31
0.0
  0
ARC
  5
29B
100
AcDbEntity
  8
OBJECT
  6
CONTINUOUS
 62
               0
100
AcDbCircle
 10
337.0
 20
-302.5
 30
0.0
 40
1.5000000000002283
100
AcDbArc
 50
70.346133057383526
 51
70.346133911145486
  0
ARC
  5
29C
100
AcDbEntity
  8
OBJECT
  6
CONTINUOUS
 62
               0
100
AcDbCircle
 10
337.0
 20
-302.5
 30
0.0
 40
1.5000000000002975
100
AcDbArc
 50
109.65382405806267
 51
250.34621906662261
  0
LINE
  5
29D
100
AcDbEntity
  8
OBJECT
  6
CONTINUOUS
 62
               0
100
AcDbLine
 10
337.50450459549756
 20
-301.08738713260755
 30
0.0
 11
337.50450609912878
 21
-301.08738766961869
 31
0.0
  0
LINE
  5
29E
100
AcDbEntity
  8
OBJECT
  6
CONTINUOUS
 62
               0
100
AcDbLine
 10
336.49549540450244
 20
-303.91261286739245
 30
0.0
 11
346.54017937580466
 21
-307.5
 31
0.0
  0
LINE
  5
29F
100
AcDbEntity
  8
OBJECT
  6
CONTINUOUS
 62
               0
100
AcDbLine
 10
346.54017937580466
 20
-307.5
 30
0.0
 11
336.49549540450244
 21
-311.08738713260755
 31
0.0
  0
ARC
  5
2A0
100
AcDbEntity
  8
OBJECT
  6
CONTINUOUS
 62
               0
100
AcDbCircle
 10
337.0
 20
-312.5
 30
0.0
 40
1.5000000000002283
100
AcDbArc
 50
70.346133057383526
 51
70.346133911145486
  0
ARC
  5
2A1
100
AcDbEntity
  8
OBJECT
  6
CONTINUOUS
 62
               0
100
AcDbCircle
 10
337.0
 20
-312.5
 30
0.0
 40
1.5000000000002975
100
AcDbArc
 50
109.65382405806267
 51
250.34621906662261
  0
LINE
  5
2A2
100
AcDbEntity
  8
OBJECT
  6
CONTINUOUS
 62
               0
100
AcDbLine
 10
337.50450459549756
 20
-311.08738713260755
 30
0.0
 11
337.50450609912878
 21
-311.08738766961869
 31
0.0
  0
LINE
  5
2A3
100
AcDbEntity
  8
OBJECT
  6
CONTINUOUS
 62
               0
100
AcDbLine
 10
336.49549540450244
 20
-313.91261286739245
 30
0.0
 11
346.54017937580466
 21
-317.5
 31
0.0
  0
LINE
  5
2A4
100
AcDbEntity
  8
OBJECT
  6
CONTINUOUS
 62
               0
100
AcDbLine
 10
346.54017937580466
 20
-317.5
 30
0.0
 11
336.49549540450244
 21
-321.08738713260755
 31
0.0
  0
ARC
  5
2A5
100
AcDbEntity
  8
OBJECT
  6
CONTINUOUS
 62
               0
100
AcDbCircle
 10
337.0
 20
-322.5
 30
0.0
 40
1.5000000000002283
100
AcDbArc
 50
70.346133057383526
 51
70.346133911145486
  0
ARC
  5
2A6
100
AcDbEntity
  8
OBJECT
  6
CONTINUOUS
 62
               0
100
AcDbCircle
 10
337.0
 20
-322.5
 30
0.0
 40
1.5000000000002975
100
AcDbArc
 50
109.65382405806267
 51
250.34621906662261
  0
LINE
  5
2A7
100
AcDbEntity
  8
OBJECT
  6
CONTINUOUS
 62
               0
100
AcDbLine
 10
337.50450459549756
 20
-321.08738713260755
 30
0.0
 11
337.50450609912878
 21
-321.08738766961869
 31
0.0
  0
LINE
  5
2A8
100
AcDbEntity
  8
OBJECT
  6
CONTINUOUS
 62
               0
100
AcDbLine
 10
336.49549540450244
 20
-323.91261286739245
 30
0.0
 11
343.12626344657656
 21
-326.28074431099003
 31
0.0
  0
ARC
  5
2A9
100
AcDbEntity
  8
OBJECT
  6
CONTINUOUS
 62
               0
100
AcDbCircle
 10
337.0
 20
-332.5
 30
0.0
 40
1.5000000000002283
100
AcDbArc
 50
70.346133057383526
 51
70.346133911145486
  0
LINE
  5
2AA
100
AcDbEntity
  8
OBJECT
  6
CONTINUOUS
 62
               0
100
AcDbLine
 10
337.50450459549756
 20
-331.08738713260755
 30
0.0
 11
337.50450609912878
 21
-331.08738766961869
 31
0.0
  0
LINE
  5
2AB
100
AcDbEntity
  8
OBJECT
  6
CONTINUOUS
 62
               0
100
AcDbLine
 10
341.45982062419534
 20
-192.5
 30
0.0
 11
351.50450459549756
 21
-196.08738713260755
 31
0.0
  0
LINE
  5
2AC
100
AcDbEntity
  8
OBJECT
  6
CONTINUOUS
 62
               0
100
AcDbLine
 10
351.50450459549756
 20
-198.91261286739245
 30
0.0
 11
341.45982062419534
 21
-202.5
 31
0.0
  0
ARC
  5
2AD
100
AcDbEntity
  8
OBJECT
  6
CONTINUOUS
 62
               0
100
AcDbCircle
 10
351.0
 20
-197.5
 30
0.0
 40
1.5000000000002975
100
AcDbArc
 50
289.6538240580627
 51
70.346175941937361
  0
LINE
  5
2AE
100
AcDbEntity
  8
OBJECT
  6
CONTINUOUS
 62
               0
100
AcDbLine
 10
341.45982062419534
 20
-202.5
 30
0.0
 11
351.50450459549756
 21
-206.08738713260755
 31
0.0
  0
LINE
  5
2AF
100
AcDbEntity
  8
OBJECT
  6
CONTINUOUS
 62
               0
100
AcDbLine
 10
351.50450459549756
 20
-208.91261286739245
 30
0.0
 11
341.45982062419534
 21
-212.5
 31
0.0
  0
ARC
  5
2B0
100
AcDbEntity
  8
OBJECT
  6
CONTINUOUS
 62
               0
100
AcDbCircle
 10
351.0
 20
-207.5
 30
0.0
 40
1.5000000000002975
100
AcDbArc
 50
289.6538240580627
 51
70.346175941937361
  0
LINE
  5
2B1
100
AcDbEntity
  8
OBJECT
  6
CONTINUOUS
 62
               0
100
AcDbLine
 10
341.45982062419534
 20
-212.5
 30
0.0
 11
351.50450459549756
 21
-216.08738713260755
 31
0.0
  0
LINE
  5
2B2
100
AcDbEntity
  8
OBJECT
  6
CONTINUOUS
 62
               0
100
AcDbLine
 10
351.50450459549756
 20
-218.91261286739245
 30
0.0
 11
341.45982062419534
 21
-222.5
 31
0.0
  0
ARC
  5
2B3
100
AcDbEntity
  8
OBJECT
  6
CONTINUOUS
 62
               0
100
AcDbCircle
 10
351.0
 20
-217.5
 30
0.0
 40
1.5000000000002975
100
AcDbArc
 50
289.6538240580627
 51
70.346175941937361
  0
LINE
  5
2B4
100
AcDbEntity
  8
OBJECT
  6
CONTINUOUS
 62
               0
100
AcDbLine
 10
341.45982062419534
 20
-222.5
 30
0.0
 11
351.50450459549756
 21
-226.08738713260755
 31
0.0
  0
LINE
  5
2B5
100
AcDbEntity
  8
OBJECT
  6
CONTINUOUS
 62
               0
100
AcDbLine
 10
351.50450459549756
 20
-228.91261286739245
 30
0.0
 11
341.45982062419534
 21
-232.5
 31
0.0
  0
ARC
  5
2B6
100
AcDbEntity
  8
OBJECT
  6
CONTINUOUS
 62
               0
100
AcDbCircle
 10
351.0
 20
-227.5
 30
0.0
 40
1.5000000000002975
100
AcDbArc
 50
289.6538240580627
 51
70.346175941937361
  0
LINE
  5
2B7
100
AcDbEntity
  8
OBJECT
  6
CONTINUOUS
 62
               0
100
AcDbLine
 10
341.45982062419534
 20
-232.5
 30
0.0
 11
351.50450459549756
 21
-236.08738713260755
 31
0.0
  0
LINE
  5
2B8
100
AcDbEntity
  8
OBJECT
  6
CONTINUOUS
 62
               0
100
AcDbLine
 10
351.50450459549756
 20
-238.91261286739245
 30
0.0
 11
341.45982062419534
 21
-242.5
 31
0.0
  0
ARC
  5
2B9
100
AcDbEntity
  8
OBJECT
  6
CONTINUOUS
 62
               0
100
AcDbCircle
 10
351.0
 20
-237.5
 30
0.0
 40
1.5000000000002975
100
AcDbArc
 50
289.6538240580627
 51
70.346175941937361
  0
LINE
  5
2BA
100
AcDbEntity
  8
OBJECT
  6
CONTINUOUS
 62
               0
100
AcDbLine
 10
341.45982062419534
 20
-242.5
 30
0.0
 11
351.50450459549756
 21
-246.08738713260755
 31
0.0
  0
LINE
  5
2BB
100
AcDbEntity
  8
OBJECT
  6
CONTINUOUS
 62
               0
100
AcDbLine
 10
351.50450459549756
 20
-248.91261286739245
 30
0.0
 11
341.45982062419534
 21
-252.5
 31
0.0
  0
ARC
  5
2BC
100
AcDbEntity
  8
OBJECT
  6
CONTINUOUS
 62
               0
100
AcDbCircle
 10
351.0
 20
-247.5
 30
0.0
 40
1.5000000000002975
100
AcDbArc
 50
289.6538240580627
 51
70.346175941937361
  0
LINE
  5
2BD
100
AcDbEntity
  8
OBJECT
  6
CONTINUOUS
 62
               0
100
AcDbLine
 10
341.45982062419534
 20
-252.5
 30
0.0
 11
351.50450459549756
 21
-256.08738713260755
 31
0.0
  0
LINE
  5
2BE
100
AcDbEntity
  8
OBJECT
  6
CONTINUOUS
 62
               0
100
AcDbLine
 10
351.50450459549756
 20
-258.91261286739245
 30
0.0
 11
341.45982062419534
 21
-262.5
 31
0.0
  0
ARC
  5
2BF
100
AcDbEntity
  8
OBJECT
  6
CONTINUOUS
 62
               0
100
AcDbCircle
 10
351.0
 20
-257.5
 30
0.0
 40
1.5000000000002975
100
AcDbArc
 50
289.6538240580627
 51
70.346175941937361
  0
LINE
  5
2C0
100
AcDbEntity
  8
OBJECT
  6
CONTINUOUS
 62
               0
100
AcDbLine
 10
341.45982062419534
 20
-262.5
 30
0.0
 11
351.50450459549756
 21
-266.08738713260755
 31
0.0
  0
LINE
  5
2C1
100
AcDbEntity
  8
OBJECT
  6
CONTINUOUS
 62
               0
100
AcDbLine
 10
351.50450459549756
 20
-268.91261286739245
 30
0.0
 11
341.45982062419534
 21
-272.5
 31
0.0
  0
ARC
  5
2C2
100
AcDbEntity
  8
OBJECT
  6
CONTINUOUS
 62
               0
100
AcDbCircle
 10
351.0
 20
-267.5
 30
0.0
 40
1.5000000000002975
100
AcDbArc
 50
289.6538240580627
 51
70.346175941937361
  0
LINE
  5
2C3
100
AcDbEntity
  8
OBJECT
  6
CONTINUOUS
 62
               0
100
AcDbLine
 10
341.45982062419534
 20
-272.5
 30
0.0
 11
351.50450459549756
 21
-276.08738713260755
 31
0.0
  0
LINE
  5
2C4
100
AcDbEntity
  8
OBJECT
  6
CONTINUOUS
 62
               0
100
AcDbLine
 10
351.50450459549756
 20
-278.91261286739245
 30
0.0
 11
341.45982062419534
 21
-282.5
 31
0.0
  0
ARC
  5
2C5
100
AcDbEntity
  8
OBJECT
  6
CONTINUOUS
 62
               0
100
AcDbCircle
 10
351.0
 20
-277.5
 30
0.0
 40
1.5000000000002975
100
AcDbArc
 50
289.6538240580627
 51
70.346175941937361
  0
LINE
  5
2C6
100
AcDbEntity
  8
OBJECT
  6
CONTINUOUS
 62
               0
100
AcDbLine
 10
341.45982062419534
 20
-282.5
 30
0.0
 11
351.50450459549756
 21
-286.08738713260755
 31
0.0
  0
LINE
  5
2C7
100
AcDbEntity
  8
OBJECT
  6
CONTINUOUS
 62
               0
100
AcDbLine
 10
351.50450459549756
 20
-288.91261286739245
 30
0.0
 11
341.45982062419534
 21
-292.5
 31
0.0
  0
ARC
  5
2C8
100
AcDbEntity
  8
OBJECT
  6
CONTINUOUS
 62
               0
100
AcDbCircle
 10
351.0
 20
-287.5
 30
0.0
 40
1.5000000000002975
100
AcDbArc
 50
289.6538240580627
 51
70.346175941937361
  0
LINE
  5
2C9
100
AcDbEntity
  8
OBJECT
  6
CONTINUOUS
 62
               0
100
AcDbLine
 10
341.45982062419534
 20
-292.5
 30
0.0
 11
351.50450459549756
 21
-296.08738713260755
 31
0.0
  0
LINE
  5
2CA
100
AcDbEntity
  8
OBJECT
  6
CONTINUOUS
 62
               0
100
AcDbLine
 10
351.50450459549756
 20
-298.91261286739245
 30
0.0
 11
341.45982062419534
 21
-302.5
 31
0.0
  0
ARC
  5
2CB
100
AcDbEntity
  8
OBJECT
  6
CONTINUOUS
 62
               0
100
AcDbCircle
 10
351.0
 20
-297.5
 30
0.0
 40
1.5000000000002975
100
AcDbArc
 50
289.6538240580627
 51
70.346175941937361
  0
LINE
  5
2CC
100
AcDbEntity
  8
OBJECT
  6
CONTINUOUS
 62
               0
100
AcDbLine
 10
341.45982062419534
 20
-302.5
 30
0.0
 11
351.50450459549756
 21
-306.08738713260755
 31
0.0
  0
LINE
  5
2CD
100
AcDbEntity
  8
OBJECT
  6
CONTINUOUS
 62
               0
100
AcDbLine
 10
351.50450459549756
 20
-308.91261286739245
 30
0.0
 11
341.45982062419534
 21
-312.5
 31
0.0
  0
ARC
  5
2CE
100
AcDbEntity
  8
OBJECT
  6
CONTINUOUS
 62
               0
100
AcDbCircle
 10
351.0
 20
-307.5
 30
0.0
 40
1.5000000000002975
100
AcDbArc
 50
289.6538240580627
 51
70.346175941937361
  0
LINE
  5
2CF
100
AcDbEntity
  8
OBJECT
  6
CONTINUOUS
 62
               0
100
AcDbLine
 10
341.45982062419534
 20
-312.5
 30
0.0
 11
351.50450459549756
 21
-316.08738713260755
 31
0.0
  0
LINE
  5
2D0
100
AcDbEntity
  8
OBJECT
  6
CONTINUOUS
 62
               0
100
AcDbLine
 10
351.50450459549756
 20
-318.91261286739245
 30
0.0
 11
341.45982062419534
 21
-322.5
 31
0.0
  0
ARC
  5
2D1
100
AcDbEntity
  8
OBJECT
  6
CONTINUOUS
 62
               0
100
AcDbCircle
 10
351.0
 20
-317.5
 30
0.0
 40
1.5000000000002975
100
AcDbArc
 50
289.6538240580627
 51
70.346175941937361
  0
LINE
  5
2D2
100
AcDbEntity
  8
OBJECT
  6
CONTINUOUS
 62
               0
100
AcDbLine
 10
341.45982062419534
 20
-322.5
 30
0.0
 11
351.50450459549756
 21
-326.08738713260755
 31
0.0
  0
LINE
  5
2D3
100
AcDbEntity
  8
OBJECT
  6
CONTINUOUS
 62
               0
100
AcDbLine
 10
342.5
 20
-341.5
 30
0.0
 11
342.5
 21
-327.5
 31
0.0
  0
LINE
  5
2D4
100
AcDbEntity
  8
OBJECT
  6
CONTINUOUS
 62
               0
100
AcDbLine
 10
345.5
 20
-341.5
 30
0.0
 11
345.5
 21
-329.0
 31
0.0
  0
LINE
  5
2D5
100
AcDbEntity
  8
OBJECT
  6
CONTINUOUS
 62
               0
100
AcDbLine
 10
344.0
 20
-329.0
 30
0.0
 11
351.0
 21
-329.0
 31
0.0
  0
LINE
  5
2D6
100
AcDbEntity
  8
OBJECT
  6
CONTINUOUS
 62
               0
100
AcDbLine
 10
344.0
 20
-326.0
 30
0.0
 11
351.0
 21
-326.0
 31
0.0
  0
ARC
  5
2D7
100
AcDbEntity
  8
OBJECT
  6
CONTINUOUS
 62
               0
100
AcDbCircle
 10
351.0
 20
-327.5
 30
0.0
 40
1.5
100
AcDbArc
 50
270.0
 51
90.00004579247053
  0
ARC
  5
2D8
100
AcDbEntity
  8
OBJECT
  6
CONTINUOUS
 62
               0
100
AcDbCircle
 10
344.0
 20
-327.5
 30
0.0
 40
1.5
100
AcDbArc
 50
90.0
 51
270.0
  0
ARC
  5
2D9
100
AcDbEntity
  8
OBJECT
  6
CONTINUOUS
 62
               0
100
AcDbCircle
 10
344.0
 20
-341.5
 30
0.0
 40
1.5
100
AcDbArc
 50
180.0
 51
0.0
  0
LINE
  5
2DA
100
AcDbEntity
  8
OBJECT
  6
CONTINUOUS
 62
               0
100
AcDbLine
 10
345.5
 20
-334.5
 30
0.0
 11
342.5
 21
-334.5
 31
0.0
  0
ENDBLK
  5
2DB
100
AcDbEntity
  8
OBJECT
100
AcDbBlockEnd
  0
BLOCK
  5
2DC
100
AcDbEntity
  8
OBJECT
100
AcDbBlockBegin
  2
*U26
 70
               1
 10
0.0
 20
0.0
 30
0.0
  3
*U26
  1

  0
LINE
  5
2DD
100
AcDbEntity
  8
OBJECT
  6
CONTINUOUS
 62
               0
100
AcDbLine
 10
325.5
 20
-158.5
 30
0.0
 11
325.5
 21
-172.5
 31
0.0
  0
LINE
  5
2DE
100
AcDbEntity
  8
OBJECT
  6
CONTINUOUS
 62
               0
100
AcDbLine
 10
322.5
 20
-158.5
 30
0.0
 11
322.5
 21
-171.0
 31
0.0
  0
LINE
  5
2DF
100
AcDbEntity
  8
OBJECT
  6
CONTINUOUS
 62
               0
100
AcDbLine
 10
324.87373655343345
 20
-173.71925568901361
 30
0.0
 11
331.50450459549756
 21
-176.08738713260755
 31
0.0
  0
LINE
  5
2E0
100
AcDbEntity
  8
OBJECT
  6
CONTINUOUS
 62
               0
100
AcDbLine
 10
316.49549540450244
 20
-173.91261286739245
 30
0.0
 11
326.54017937580466
 21
-177.5
 31
0.0
  0
LINE
  5
2E1
100
AcDbEntity
  8
OBJECT
  6
CONTINUOUS
 62
               0
100
AcDbLine
 10
326.54017937580466
 20
-177.5
 30
0.0
 11
316.49549540450244
 21
-181.08738713260755
 31
0.0
  0
LINE
  5
2E2
100
AcDbEntity
  8
OBJECT
  6
CONTINUOUS
 62
               0
100
AcDbLine
 10
331.50450459549756
 20
-178.91261286739245
 30
0.0
 11
321.45982062419534
 21
-182.5
 31
0.0
  0
LINE
  5
2E3
100
AcDbEntity
  8
OBJECT
  6
CONTINUOUS
 62
               0
100
AcDbLine
 10
324.0
 20
-171.0
 30
0.0
 11
317.0
 21
-171.0
 31
0.0
  0
LINE
  5
2E4
100
AcDbEntity
  8
OBJECT
  6
CONTINUOUS
 62
               0
100
AcDbLine
 10
324.0
 20
-174.0
 30
0.0
 11
317.0
 21
-174.0
 31
0.0
  0
ARC
  5
2E5
100
AcDbEntity
  8
OBJECT
  6
CONTINUOUS
 62
               0
100
AcDbCircle
 10
317.0
 20
-172.5
 30
0.0
 40
1.5
100
AcDbArc
 50
90.0
 51
270.00004579247047
  0
ARC
  5
2E6
100
AcDbEntity
  8
OBJECT
  6
CONTINUOUS
 62
               0
100
AcDbCircle
 10
331.0
 20
-177.5
 30
0.0
 40
1.5000000000002975
100
AcDbArc
 50
289.6538240580627
 51
70.346175941937361
  0
ARC
  5
2E7
100
AcDbEntity
  8
OBJECT
  6
CONTINUOUS
 62
               0
100
AcDbCircle
 10
317.0
 20
-182.5
 30
0.0
 40
1.5000000000002283
100
AcDbArc
 50
70.346133057383526
 51
70.346133911145486
  0
ARC
  5
2E8
100
AcDbEntity
  8
OBJECT
  6
CONTINUOUS
 62
               0
100
AcDbCircle
 10
317.0
 20
-182.5
 30
0.0
 40
1.5000000000002975
100
AcDbArc
 50
109.65382405806267
 51
250.34621906662261
  0
LINE
  5
2E9
100
AcDbEntity
  8
OBJECT
  6
CONTINUOUS
 62
               0
100
AcDbLine
 10
317.50450459549756
 20
-181.08738713260755
 30
0.0
 11
317.50450609912878
 21
-181.08738766961869
 31
0.0
  0
LINE
  5
2EA
100
AcDbEntity
  8
OBJECT
  6
CONTINUOUS
 62
               0
100
AcDbLine
 10
321.45982062419534
 20
-182.5
 30
0.0
 11
331.50450459549756
 21
-186.08738713260755
 31
0.0
  0
LINE
  5
2EB
100
AcDbEntity
  8
OBJECT
  6
CONTINUOUS
 62
               0
100
AcDbLine
 10
316.49549540450244
 20
-183.91261286739245
 30
0.0
 11
326.54017937580466
 21
-187.5
 31
0.0
  0
ARC
  5
2EC
100
AcDbEntity
  8
OBJECT
  6
CONTINUOUS
 62
               0
100
AcDbCircle
 10
324.0
 20
-172.5
 30
0.0
 40
1.5
100
AcDbArc
 50
270.0
 51
90.0
  0
ARC
  5
2ED
100
AcDbEntity
  8
OBJECT
  6
CONTINUOUS
 62
               0
100
AcDbCircle
 10
324.0
 20
-158.5
 30
0.0
 40
1.5
100
AcDbArc
 50
0.0
 51
19.471220634487622
  0
ARC
  5
2EE
100
AcDbEntity
  8
OBJECT
  6
CONTINUOUS
 62
               0
100
AcDbCircle
 10
324.0
 20
-158.5
 30
0.0
 40
1.5000000000002252
100
AcDbArc
 50
160.52877936551235
 51
180.0
  0
LINE
  5
2EF
100
AcDbEntity
  8
OBJECT
  6
CONTINUOUS
 62
               0
100
AcDbLine
 10
322.5
 20
-165.5
 30
0.0
 11
325.5
 21
-165.5
 31
0.0
  0
LINE
  5
2F0
100
AcDbEntity
  8
OBJECT
  6
CONTINUOUS
 62
               0
100
AcDbLine
 10
326.54017937580466
 20
-187.5
 30
0.0
 11
316.49549540450244
 21
-191.08738713260755
 31
0.0
  0
LINE
  5
2F1
100
AcDbEntity
  8
OBJECT
  6
CONTINUOUS
 62
               0
100
AcDbLine
 10
331.50450459549756
 20
-188.91261286739245
 30
0.0
 11
321.45982062419534
 21
-192.5
 31
0.0
  0
ARC
  5
2F2
100
AcDbEntity
  8
OBJECT
  6
CONTINUOUS
 62
               0
100
AcDbCircle
 10
331.0
 20
-187.5
 30
0.0
 40
1.5000000000002975
100
AcDbArc
 50
289.6538240580627
 51
70.346175941937361
  0
LINE
  5
2F3
100
AcDbEntity
  8
OBJECT
  6
CONTINUOUS
 62
               0
100
AcDbLine
 10
326.54017937580466
 20
-187.5
 30
0.0
 11
316.49549540450244
 21
-191.08738713260755
 31
0.0
  0
ARC
  5
2F4
100
AcDbEntity
  8
OBJECT
  6
CONTINUOUS
 62
               0
100
AcDbCircle
 10
317.0
 20
-192.5
 30
0.0
 40
1.5000000000002283
100
AcDbArc
 50
70.346133057383526
 51
70.346133911145486
  0
ARC
  5
2F5
100
AcDbEntity
  8
OBJECT
  6
CONTINUOUS
 62
               0
100
AcDbCircle
 10
317.0
 20
-192.5
 30
0.0
 40
1.5000000000002975
100
AcDbArc
 50
109.65382405806267
 51
250.34621906662261
  0
LINE
  5
2F6
100
AcDbEntity
  8
OBJECT
  6
CONTINUOUS
 62
               0
100
AcDbLine
 10
317.50450459549756
 20
-191.08738713260755
 30
0.0
 11
317.50450609912878
 21
-191.08738766961869
 31
0.0
  0
LINE
  5
2F7
100
AcDbEntity
  8
OBJECT
  6
CONTINUOUS
 62
               0
100
AcDbLine
 10
316.49549540450244
 20
-193.91261286739245
 30
0.0
 11
326.54017937580466
 21
-197.5
 31
0.0
  0
LINE
  5
2F8
100
AcDbEntity
  8
OBJECT
  6
CONTINUOUS
 62
               0
100
AcDbLine
 10
326.54017937580466
 20
-197.5
 30
0.0
 11
316.49549540450244
 21
-201.08738713260755
 31
0.0
  0
ARC
  5
2F9
100
AcDbEntity
  8
OBJECT
  6
CONTINUOUS
 62
               0
100
AcDbCircle
 10
317.0
 20
-202.5
 30
0.0
 40
1.5000000000002283
100
AcDbArc
 50
70.346133057383526
 51
70.346133911145486
  0
ARC
  5
2FA
100
AcDbEntity
  8
OBJECT
  6
CONTINUOUS
 62
               0
100
AcDbCircle
 10
317.0
 20
-202.5
 30
0.0
 40
1.5000000000002975
100
AcDbArc
 50
109.65382405806267
 51
250.34621906662261
  0
LINE
  5
2FB
100
AcDbEntity
  8
OBJECT
  6
CONTINUOUS
 62
               0
100
AcDbLine
 10
317.50450459549756
 20
-201.08738713260755
 30
0.0
 11
317.50450609912878
 21
-201.08738766961869
 31
0.0
  0
LINE
  5
2FC
100
AcDbEntity
  8
OBJECT
  6
CONTINUOUS
 62
               0
100
AcDbLine
 10
316.49549540450244
 20
-203.91261286739245
 30
0.0
 11
326.54017937580466
 21
-207.5
 31
0.0
  0
LINE
  5
2FD
100
AcDbEntity
  8
OBJECT
  6
CONTINUOUS
 62
               0
100
AcDbLine
 10
326.54017937580466
 20
-207.5
 30
0.0
 11
316.49549540450244
 21
-211.08738713260755
 31
0.0
  0
ARC
  5
2FE
100
AcDbEntity
  8
OBJECT
  6
CONTINUOUS
 62
               0
100
AcDbCircle
 10
317.0
 20
-212.5
 30
0.0
 40
1.5000000000002283
100
AcDbArc
 50
70.346133057383526
 51
70.346133911145486
  0
ARC
  5
2FF
100
AcDbEntity
  8
OBJECT
  6
CONTINUOUS
 62
               0
100
AcDbCircle
 10
317.0
 20
-212.5
 30
0.0
 40
1.5000000000002975
100
AcDbArc
 50
109.65382405806267
 51
250.34621906662261
  0
LINE
  5
300
100
AcDbEntity
  8
OBJECT
  6
CONTINUOUS
 62
               0
100
AcDbLine
 10
317.50450459549756
 20
-211.08738713260755
 30
0.0
 11
317.50450609912878
 21
-211.08738766961869
 31
0.0
  0
LINE
  5
301
100
AcDbEntity
  8
OBJECT
  6
CONTINUOUS
 62
               0
100
AcDbLine
 10
316.49549540450244
 20
-213.91261286739245
 30
0.0
 11
326.54017937580466
 21
-217.5
 31
0.0
  0
LINE
  5
302
100
AcDbEntity
  8
OBJECT
  6
CONTINUOUS
 62
               0
100
AcDbLine
 10
326.54017937580466
 20
-217.5
 30
0.0
 11
316.49549540450244
 21
-221.08738713260755
 31
0.0
  0
ARC
  5
303
100
AcDbEntity
  8
OBJECT
  6
CONTINUOUS
 62
               0
100
AcDbCircle
 10
317.0
 20
-222.5
 30
0.0
 40
1.5000000000002283
100
AcDbArc
 50
70.346133057383526
 51
70.346133911145486
  0
ARC
  5
304
100
AcDbEntity
  8
OBJECT
  6
CONTINUOUS
 62
               0
100
AcDbCircle
 10
317.0
 20
-222.5
 30
0.0
 40
1.5000000000002975
100
AcDbArc
 50
109.65382405806267
 51
250.34621906662261
  0
LINE
  5
305
100
AcDbEntity
  8
OBJECT
  6
CONTINUOUS
 62
               0
100
AcDbLine
 10
317.50450459549756
 20
-221.08738713260755
 30
0.0
 11
317.50450609912878
 21
-221.08738766961869
 31
0.0
  0
LINE
  5
306
100
AcDbEntity
  8
OBJECT
  6
CONTINUOUS
 62
               0
100
AcDbLine
 10
316.49549540450244
 20
-223.91261286739245
 30
0.0
 11
326.54017937580466
 21
-227.5
 31
0.0
  0
LINE
  5
307
100
AcDbEntity
  8
OBJECT
  6
CONTINUOUS
 62
               0
100
AcDbLine
 10
326.54017937580466
 20
-227.5
 30
0.0
 11
316.49549540450244
 21
-231.08738713260755
 31
0.0
  0
ARC
  5
308
100
AcDbEntity
  8
OBJECT
  6
CONTINUOUS
 62
               0
100
AcDbCircle
 10
317.0
 20
-232.5
 30
0.0
 40
1.5000000000002283
100
AcDbArc
 50
70.346133057383526
 51
70.346133911145486
  0
ARC
  5
309
100
AcDbEntity
  8
OBJECT
  6
CONTINUOUS
 62
               0
100
AcDbCircle
 10
317.0
 20
-232.5
 30
0.0
 40
1.5000000000002975
100
AcDbArc
 50
109.65382405806267
 51
250.34621906662261
  0
LINE
  5
30A
100
AcDbEntity
  8
OBJECT
  6
CONTINUOUS
 62
               0
100
AcDbLine
 10
317.50450459549756
 20
-231.08738713260755
 30
0.0
 11
317.50450609912878
 21
-231.08738766961869
 31
0.0
  0
LINE
  5
30B
100
AcDbEntity
  8
OBJECT
  6
CONTINUOUS
 62
               0
100
AcDbLine
 10
316.49549540450244
 20
-233.91261286739245
 30
0.0
 11
326.54017937580466
 21
-237.5
 31
0.0
  0
LINE
  5
30C
100
AcDbEntity
  8
OBJECT
  6
CONTINUOUS
 62
               0
100
AcDbLine
 10
326.54017937580466
 20
-237.5
 30
0.0
 11
316.49549540450244
 21
-241.08738713260755
 31
0.0
  0
ARC
  5
30D
100
AcDbEntity
  8
OBJECT
  6
CONTINUOUS
 62
               0
100
AcDbCircle
 10
317.0
 20
-242.5
 30
0.0
 40
1.5000000000002283
100
AcDbArc
 50
70.346133057383526
 51
70.346133911145486
  0
ARC
  5
30E
100
AcDbEntity
  8
OBJECT
  6
CONTINUOUS
 62
               0
100
AcDbCircle
 10
317.0
 20
-242.5
 30
0.0
 40
1.5000000000002975
100
AcDbArc
 50
109.65382405806267
 51
250.34621906662261
  0
LINE
  5
30F
100
AcDbEntity
  8
OBJECT
  6
CONTINUOUS
 62
               0
100
AcDbLine
 10
317.50450459549756
 20
-241.08738713260755
 30
0.0
 11
317.50450609912878
 21
-241.08738766961869
 31
0.0
  0
LINE
  5
310
100
AcDbEntity
  8
OBJECT
  6
CONTINUOUS
 62
               0
100
AcDbLine
 10
316.49549540450244
 20
-243.91261286739245
 30
0.0
 11
326.54017937580466
 21
-247.5
 31
0.0
  0
LINE
  5
311
100
AcDbEntity
  8
OBJECT
  6
CONTINUOUS
 62
               0
100
AcDbLine
 10
326.54017937580466
 20
-247.5
 30
0.0
 11
316.49549540450244
 21
-251.08738713260755
 31
0.0
  0
ARC
  5
312
100
AcDbEntity
  8
OBJECT
  6
CONTINUOUS
 62
               0
100
AcDbCircle
 10
317.0
 20
-252.5
 30
0.0
 40
1.5000000000002283
100
AcDbArc
 50
70.346133057383526
 51
70.346133911145486
  0
ARC
  5
313
100
AcDbEntity
  8
OBJECT
  6
CONTINUOUS
 62
               0
100
AcDbCircle
 10
317.0
 20
-252.5
 30
0.0
 40
1.5000000000002975
100
AcDbArc
 50
109.65382405806267
 51
250.34621906662261
  0
LINE
  5
314
100
AcDbEntity
  8
OBJECT
  6
CONTINUOUS
 62
               0
100
AcDbLine
 10
317.50450459549756
 20
-251.08738713260755
 30
0.0
 11
317.50450609912878
 21
-251.08738766961869
 31
0.0
  0
LINE
  5
315
100
AcDbEntity
  8
OBJECT
  6
CONTINUOUS
 62
               0
100
AcDbLine
 10
316.49549540450244
 20
-253.91261286739245
 30
0.0
 11
326.54017937580466
 21
-257.5
 31
0.0
  0
LINE
  5
316
100
AcDbEntity
  8
OBJECT
  6
CONTINUOUS
 62
               0
100
AcDbLine
 10
326.54017937580466
 20
-257.5
 30
0.0
 11
316.49549540450244
 21
-261.08738713260755
 31
0.0
  0
ARC
  5
317
100
AcDbEntity
  8
OBJECT
  6
CONTINUOUS
 62
               0
100
AcDbCircle
 10
317.0
 20
-262.5
 30
0.0
 40
1.5000000000002283
100
AcDbArc
 50
70.346133057383526
 51
70.346133911145486
  0
ARC
  5
318
100
AcDbEntity
  8
OBJECT
  6
CONTINUOUS
 62
               0
100
AcDbCircle
 10
317.0
 20
-262.5
 30
0.0
 40
1.5000000000002975
100
AcDbArc
 50
109.65382405806267
 51
250.34621906662261
  0
LINE
  5
319
100
AcDbEntity
  8
OBJECT
  6
CONTINUOUS
 62
               0
100
AcDbLine
 10
317.50450459549756
 20
-261.08738713260755
 30
0.0
 11
317.50450609912878
 21
-261.08738766961869
 31
0.0
  0
LINE
  5
31A
100
AcDbEntity
  8
OBJECT
  6
CONTINUOUS
 62
               0
100
AcDbLine
 10
316.49549540450244
 20
-263.91261286739245
 30
0.0
 11
326.54017937580466
 21
-267.5
 31
0.0
  0
LINE
  5
31B
100
AcDbEntity
  8
OBJECT
  6
CONTINUOUS
 62
               0
100
AcDbLine
 10
326.54017937580466
 20
-267.5
 30
0.0
 11
316.49549540450244
 21
-271.08738713260755
 31
0.0
  0
ARC
  5
31C
100
AcDbEntity
  8
OBJECT
  6
CONTINUOUS
 62
               0
100
AcDbCircle
 10
317.0
 20
-272.5
 30
0.0
 40
1.5000000000002283
100
AcDbArc
 50
70.346133057383526
 51
70.346133911145486
  0
ARC
  5
31D
100
AcDbEntity
  8
OBJECT
  6
CONTINUOUS
 62
               0
100
AcDbCircle
 10
317.0
 20
-272.5
 30
0.0
 40
1.5000000000002975
100
AcDbArc
 50
109.65382405806267
 51
250.34621906662261
  0
LINE
  5
31E
100
AcDbEntity
  8
OBJECT
  6
CONTINUOUS
 62
               0
100
AcDbLine
 10
317.50450459549756
 20
-271.08738713260755
 30
0.0
 11
317.50450609912878
 21
-271.08738766961869
 31
0.0
  0
LINE
  5
31F
100
AcDbEntity
  8
OBJECT
  6
CONTINUOUS
 62
               0
100
AcDbLine
 10
316.49549540450244
 20
-273.91261286739245
 30
0.0
 11
326.54017937580466
 21
-277.5
 31
0.0
  0
LINE
  5
320
100
AcDbEntity
  8
OBJECT
  6
CONTINUOUS
 62
               0
100
AcDbLine
 10
326.54017937580466
 20
-277.5
 30
0.0
 11
316.49549540450244
 21
-281.08738713260755
 31
0.0
  0
ARC
  5
321
100
AcDbEntity
  8
OBJECT
  6
CONTINUOUS
 62
               0
100
AcDbCircle
 10
317.0
 20
-282.5
 30
0.0
 40
1.5000000000002283
100
AcDbArc
 50
70.346133057383526
 51
70.346133911145486
  0
ARC
  5
322
100
AcDbEntity
  8
OBJECT
  6
CONTINUOUS
 62
               0
100
AcDbCircle
 10
317.0
 20
-282.5
 30
0.0
 40
1.5000000000002975
100
AcDbArc
 50
109.65382405806267
 51
250.34621906662261
  0
LINE
  5
323
100
AcDbEntity
  8
OBJECT
  6
CONTINUOUS
 62
               0
100
AcDbLine
 10
317.50450459549756
 20
-281.08738713260755
 30
0.0
 11
317.50450609912878
 21
-281.08738766961869
 31
0.0
  0
LINE
  5
324
100
AcDbEntity
  8
OBJECT
  6
CONTINUOUS
 62
               0
100
AcDbLine
 10
316.49549540450244
 20
-283.91261286739245
 30
0.0
 11
326.54017937580466
 21
-287.5
 31
0.0
  0
LINE
  5
325
100
AcDbEntity
  8
OBJECT
  6
CONTINUOUS
 62
               0
100
AcDbLine
 10
326.54017937580466
 20
-287.5
 30
0.0
 11
316.49549540450244
 21
-291.08738713260755
 31
0.0
  0
ARC
  5
326
100
AcDbEntity
  8
OBJECT
  6
CONTINUOUS
 62
               0
100
AcDbCircle
 10
317.0
 20
-292.5
 30
0.0
 40
1.5000000000002283
100
AcDbArc
 50
70.346133057383526
 51
70.346133911145486
  0
ARC
  5
327
100
AcDbEntity
  8
OBJECT
  6
CONTINUOUS
 62
               0
100
AcDbCircle
 10
317.0
 20
-292.5
 30
0.0
 40
1.5000000000002975
100
AcDbArc
 50
109.65382405806267
 51
250.34621906662261
  0
LINE
  5
328
100
AcDbEntity
  8
OBJECT
  6
CONTINUOUS
 62
               0
100
AcDbLine
 10
317.50450459549756
 20
-291.08738713260755
 30
0.0
 11
317.50450609912878
 21
-291.08738766961869
 31
0.0
  0
LINE
  5
329
100
AcDbEntity
  8
OBJECT
  6
CONTINUOUS
 62
               0
100
AcDbLine
 10
316.49549540450244
 20
-293.91261286739245
 30
0.0
 11
326.54017937580466
 21
-297.5
 31
0.0
  0
LINE
  5
32A
100
AcDbEntity
  8
OBJECT
  6
CONTINUOUS
 62
               0
100
AcDbLine
 10
326.54017937580466
 20
-297.5
 30
0.0
 11
316.49549540450244
 21
-301.08738713260755
 31
0.0
  0
ARC
  5
32B
100
AcDbEntity
  8
OBJECT
  6
CONTINUOUS
 62
               0
100
AcDbCircle
 10
317.0
 20
-302.5
 30
0.0
 40
1.5000000000002283
100
AcDbArc
 50
70.346133057383526
 51
70.346133911145486
  0
ARC
  5
32C
100
AcDbEntity
  8
OBJECT
  6
CONTINUOUS
 62
               0
100
AcDbCircle
 10
317.0
 20
-302.5
 30
0.0
 40
1.5000000000002975
100
AcDbArc
 50
109.65382405806267
 51
250.34621906662261
  0
LINE
  5
32D
100
AcDbEntity
  8
OBJECT
  6
CONTINUOUS
 62
               0
100
AcDbLine
 10
317.50450459549756
 20
-301.08738713260755
 30
0.0
 11
317.50450609912878
 21
-301.08738766961869
 31
0.0
  0
LINE
  5
32E
100
AcDbEntity
  8
OBJECT
  6
CONTINUOUS
 62
               0
100
AcDbLine
 10
316.49549540450244
 20
-303.91261286739245
 30
0.0
 11
326.54017937580466
 21
-307.5
 31
0.0
  0
LINE
  5
32F
100
AcDbEntity
  8
OBJECT
  6
CONTINUOUS
 62
               0
100
AcDbLine
 10
326.54017937580466
 20
-307.5
 30
0.0
 11
316.49549540450244
 21
-311.08738713260755
 31
0.0
  0
ARC
  5
330
100
AcDbEntity
  8
OBJECT
  6
CONTINUOUS
 62
               0
100
AcDbCircle
 10
317.0
 20
-312.5
 30
0.0
 40
1.5000000000002283
100
AcDbArc
 50
70.346133057383526
 51
70.346133911145486
  0
ARC
  5
331
100
AcDbEntity
  8
OBJECT
  6
CONTINUOUS
 62
               0
100
AcDbCircle
 10
317.0
 20
-312.5
 30
0.0
 40
1.5000000000002975
100
AcDbArc
 50
109.65382405806267
 51
250.34621906662261
  0
LINE
  5
332
100
AcDbEntity
  8
OBJECT
  6
CONTINUOUS
 62
               0
100
AcDbLine
 10
317.50450459549756
 20
-311.08738713260755
 30
0.0
 11
317.50450609912878
 21
-311.08738766961869
 31
0.0
  0
LINE
  5
333
100
AcDbEntity
  8
OBJECT
  6
CONTINUOUS
 62
               0
100
AcDbLine
 10
316.49549540450244
 20
-313.91261286739245
 30
0.0
 11
326.54017937580466
 21
-317.5
 31
0.0
  0
LINE
  5
334
100
AcDbEntity
  8
OBJECT
  6
CONTINUOUS
 62
               0
100
AcDbLine
 10
326.54017937580466
 20
-317.5
 30
0.0
 11
316.49549540450244
 21
-321.08738713260755
 31
0.0
  0
ARC
  5
335
100
AcDbEntity
  8
OBJECT
  6
CONTINUOUS
 62
               0
100
AcDbCircle
 10
317.0
 20
-322.5
 30
0.0
 40
1.5000000000002283
100
AcDbArc
 50
70.346133057383526
 51
70.346133911145486
  0
ARC
  5
336
100
AcDbEntity
  8
OBJECT
  6
CONTINUOUS
 62
               0
100
AcDbCircle
 10
317.0
 20
-322.5
 30
0.0
 40
1.5000000000002975
100
AcDbArc
 50
109.65382405806267
 51
250.34621906662261
  0
LINE
  5
337
100
AcDbEntity
  8
OBJECT
  6
CONTINUOUS
 62
               0
100
AcDbLine
 10
317.50450459549756
 20
-321.08738713260755
 30
0.0
 11
317.50450609912878
 21
-321.08738766961869
 31
0.0
  0
LINE
  5
338
100
AcDbEntity
  8
OBJECT
  6
CONTINUOUS
 62
               0
100
AcDbLine
 10
316.49549540450244
 20
-323.91261286739245
 30
0.0
 11
323.12626344657656
 21
-326.28074431099003
 31
0.0
  0
ARC
  5
339
100
AcDbEntity
  8
OBJECT
  6
CONTINUOUS
 62
               0
100
AcDbCircle
 10
317.0
 20
-332.5
 30
0.0
 40
1.5000000000002283
100
AcDbArc
 50
70.346133057383526
 51
70.346133911145486
  0
LINE
  5
33A
100
AcDbEntity
  8
OBJECT
  6
CONTINUOUS
 62
               0
100
AcDbLine
 10
317.50450459549756
 20
-331.08738713260755
 30
0.0
 11
317.50450609912878
 21
-331.08738766961869
 31
0.0
  0
LINE
  5
33B
100
AcDbEntity
  8
OBJECT
  6
CONTINUOUS
 62
               0
100
AcDbLine
 10
321.45982062419534
 20
-192.5
 30
0.0
 11
331.50450459549756
 21
-196.08738713260755
 31
0.0
  0
LINE
  5
33C
100
AcDbEntity
  8
OBJECT
  6
CONTINUOUS
 62
               0
100
AcDbLine
 10
331.50450459549756
 20
-198.91261286739245
 30
0.0
 11
321.45982062419534
 21
-202.5
 31
0.0
  0
ARC
  5
33D
100
AcDbEntity
  8
OBJECT
  6
CONTINUOUS
 62
               0
100
AcDbCircle
 10
331.0
 20
-197.5
 30
0.0
 40
1.5000000000002975
100
AcDbArc
 50
289.6538240580627
 51
70.346175941937361
  0
LINE
  5
33E
100
AcDbEntity
  8
OBJECT
  6
CONTINUOUS
 62
               0
100
AcDbLine
 10
321.45982062419534
 20
-202.5
 30
0.0
 11
331.50450459549756
 21
-206.08738713260755
 31
0.0
  0
LINE
  5
33F
100
AcDbEntity
  8
OBJECT
  6
CONTINUOUS
 62
               0
100
AcDbLine
 10
331.50450459549756
 20
-208.91261286739245
 30
0.0
 11
321.45982062419534
 21
-212.5
 31
0.0
  0
ARC
  5
340
100
AcDbEntity
  8
OBJECT
  6
CONTINUOUS
 62
               0
100
AcDbCircle
 10
331.0
 20
-207.5
 30
0.0
 40
1.5000000000002975
100
AcDbArc
 50
289.6538240580627
 51
70.346175941937361
  0
LINE
  5
341
100
AcDbEntity
  8
OBJECT
  6
CONTINUOUS
 62
               0
100
AcDbLine
 10
321.45982062419534
 20
-212.5
 30
0.0
 11
331.50450459549756
 21
-216.08738713260755
 31
0.0
  0
LINE
  5
342
100
AcDbEntity
  8
OBJECT
  6
CONTINUOUS
 62
               0
100
AcDbLine
 10
331.50450459549756
 20
-218.91261286739245
 30
0.0
 11
321.45982062419534
 21
-222.5
 31
0.0
  0
ARC
  5
343
100
AcDbEntity
  8
OBJECT
  6
CONTINUOUS
 62
               0
100
AcDbCircle
 10
331.0
 20
-217.5
 30
0.0
 40
1.5000000000002975
100
AcDbArc
 50
289.6538240580627
 51
70.346175941937361
  0
LINE
  5
344
100
AcDbEntity
  8
OBJECT
  6
CONTINUOUS
 62
               0
100
AcDbLine
 10
321.45982062419534
 20
-222.5
 30
0.0
 11
331.50450459549756
 21
-226.08738713260755
 31
0.0
  0
LINE
  5
345
100
AcDbEntity
  8
OBJECT
  6
CONTINUOUS
 62
               0
100
AcDbLine
 10
331.50450459549756
 20
-228.91261286739245
 30
0.0
 11
321.45982062419534
 21
-232.5
 31
0.0
  0
ARC
  5
346
100
AcDbEntity
  8
OBJECT
  6
CONTINUOUS
 62
               0
100
AcDbCircle
 10
331.0
 20
-227.5
 30
0.0
 40
1.5000000000002975
100
AcDbArc
 50
289.6538240580627
 51
70.346175941937361
  0
LINE
  5
347
100
AcDbEntity
  8
OBJECT
  6
CONTINUOUS
 62
               0
100
AcDbLine
 10
321.45982062419534
 20
-232.5
 30
0.0
 11
331.50450459549756
 21
-236.08738713260755
 31
0.0
  0
LINE
  5
348
100
AcDbEntity
  8
OBJECT
  6
CONTINUOUS
 62
               0
100
AcDbLine
 10
331.50450459549756
 20
-238.91261286739245
 30
0.0
 11
321.45982062419534
 21
-242.5
 31
0.0
  0
ARC
  5
349
100
AcDbEntity
  8
OBJECT
  6
CONTINUOUS
 62
               0
100
AcDbCircle
 10
331.0
 20
-237.5
 30
0.0
 40
1.5000000000002975
100
AcDbArc
 50
289.6538240580627
 51
70.346175941937361
  0
LINE
  5
34A
100
AcDbEntity
  8
OBJECT
  6
CONTINUOUS
 62
               0
100
AcDbLine
 10
321.45982062419534
 20
-242.5
 30
0.0
 11
331.50450459549756
 21
-246.08738713260755
 31
0.0
  0
LINE
  5
34B
100
AcDbEntity
  8
OBJECT
  6
CONTINUOUS
 62
               0
100
AcDbLine
 10
331.50450459549756
 20
-248.91261286739245
 30
0.0
 11
321.45982062419534
 21
-252.5
 31
0.0
  0
ARC
  5
34C
100
AcDbEntity
  8
OBJECT
  6
CONTINUOUS
 62
               0
100
AcDbCircle
 10
331.0
 20
-247.5
 30
0.0
 40
1.5000000000002975
100
AcDbArc
 50
289.6538240580627
 51
70.346175941937361
  0
LINE
  5
34D
100
AcDbEntity
  8
OBJECT
  6
CONTINUOUS
 62
               0
100
AcDbLine
 10
321.45982062419534
 20
-252.5
 30
0.0
 11
331.50450459549756
 21
-256.08738713260755
 31
0.0
  0
LINE
  5
34E
100
AcDbEntity
  8
OBJECT
  6
CONTINUOUS
 62
               0
100
AcDbLine
 10
331.50450459549756
 20
-258.91261286739245
 30
0.0
 11
321.45982062419534
 21
-262.5
 31
0.0
  0
ARC
  5
34F
100
AcDbEntity
  8
OBJECT
  6
CONTINUOUS
 62
               0
100
AcDbCircle
 10
331.0
 20
-257.5
 30
0.0
 40
1.5000000000002975
100
AcDbArc
 50
289.6538240580627
 51
70.346175941937361
  0
LINE
  5
350
100
AcDbEntity
  8
OBJECT
  6
CONTINUOUS
 62
               0
100
AcDbLine
 10
321.45982062419534
 20
-262.5
 30
0.0
 11
331.50450459549756
 21
-266.08738713260755
 31
0.0
  0
LINE
  5
351
100
AcDbEntity
  8
OBJECT
  6
CONTINUOUS
 62
               0
100
AcDbLine
 10
331.50450459549756
 20
-268.91261286739245
 30
0.0
 11
321.45982062419534
 21
-272.5
 31
0.0
  0
ARC
  5
352
100
AcDbEntity
  8
OBJECT
  6
CONTINUOUS
 62
               0
100
AcDbCircle
 10
331.0
 20
-267.5
 30
0.0
 40
1.5000000000002975
100
AcDbArc
 50
289.6538240580627
 51
70.346175941937361
  0
LINE
  5
353
100
AcDbEntity
  8
OBJECT
  6
CONTINUOUS
 62
               0
100
AcDbLine
 10
321.45982062419534
 20
-272.5
 30
0.0
 11
331.50450459549756
 21
-276.08738713260755
 31
0.0
  0
LINE
  5
354
100
AcDbEntity
  8
OBJECT
  6
CONTINUOUS
 62
               0
100
AcDbLine
 10
331.50450459549756
 20
-278.91261286739245
 30
0.0
 11
321.45982062419534
 21
-282.5
 31
0.0
  0
ARC
  5
355
100
AcDbEntity
  8
OBJECT
  6
CONTINUOUS
 62
               0
100
AcDbCircle
 10
331.0
 20
-277.5
 30
0.0
 40
1.5000000000002975
100
AcDbArc
 50
289.6538240580627
 51
70.346175941937361
  0
LINE
  5
356
100
AcDbEntity
  8
OBJECT
  6
CONTINUOUS
 62
               0
100
AcDbLine
 10
321.45982062419534
 20
-282.5
 30
0.0
 11
331.50450459549756
 21
-286.08738713260755
 31
0.0
  0
LINE
  5
357
100
AcDbEntity
  8
OBJECT
  6
CONTINUOUS
 62
               0
100
AcDbLine
 10
331.50450459549756
 20
-288.91261286739245
 30
0.0
 11
321.45982062419534
 21
-292.5
 31
0.0
  0
ARC
  5
358
100
AcDbEntity
  8
OBJECT
  6
CONTINUOUS
 62
               0
100
AcDbCircle
 10
331.0
 20
-287.5
 30
0.0
 40
1.5000000000002975
100
AcDbArc
 50
289.6538240580627
 51
70.346175941937361
  0
LINE
  5
359
100
AcDbEntity
  8
OBJECT
  6
CONTINUOUS
 62
               0
100
AcDbLine
 10
321.45982062419534
 20
-292.5
 30
0.0
 11
331.50450459549756
 21
-296.08738713260755
 31
0.0
  0
LINE
  5
35A
100
AcDbEntity
  8
OBJECT
  6
CONTINUOUS
 62
               0
100
AcDbLine
 10
331.50450459549756
 20
-298.91261286739245
 30
0.0
 11
321.45982062419534
 21
-302.5
 31
0.0
  0
ARC
  5
35B
100
AcDbEntity
  8
OBJECT
  6
CONTINUOUS
 62
               0
100
AcDbCircle
 10
331.0
 20
-297.5
 30
0.0
 40
1.5000000000002975
100
AcDbArc
 50
289.6538240580627
 51
70.346175941937361
  0
LINE
  5
35C
100
AcDbEntity
  8
OBJECT
  6
CONTINUOUS
 62
               0
100
AcDbLine
 10
321.45982062419534
 20
-302.5
 30
0.0
 11
331.50450459549756
 21
-306.08738713260755
 31
0.0
  0
LINE
  5
35D
100
AcDbEntity
  8
OBJECT
  6
CONTINUOUS
 62
               0
100
AcDbLine
 10
331.50450459549756
 20
-308.91261286739245
 30
0.0
 11
321.45982062419534
 21
-312.5
 31
0.0
  0
ARC
  5
35E
100
AcDbEntity
  8
OBJECT
  6
CONTINUOUS
 62
               0
100
AcDbCircle
 10
331.0
 20
-307.5
 30
0.0
 40
1.5000000000002975
100
AcDbArc
 50
289.6538240580627
 51
70.346175941937361
  0
LINE
  5
35F
100
AcDbEntity
  8
OBJECT
  6
CONTINUOUS
 62
               0
100
AcDbLine
 10
321.45982062419534
 20
-312.5
 30
0.0
 11
331.50450459549756
 21
-316.08738713260755
 31
0.0
  0
LINE
  5
360
100
AcDbEntity
  8
OBJECT
  6
CONTINUOUS
 62
               0
100
AcDbLine
 10
331.50450459549756
 20
-318.91261286739245
 30
0.0
 11
321.45982062419534
 21
-322.5
 31
0.0
  0
ARC
  5
361
100
AcDbEntity
  8
OBJECT
  6
CONTINUOUS
 62
               0
100
AcDbCircle
 10
331.0
 20
-317.5
 30
0.0
 40
1.5000000000002975
100
AcDbArc
 50
289.6538240580627
 51
70.346175941937361
  0
LINE
  5
362
100
AcDbEntity
  8
OBJECT
  6
CONTINUOUS
 62
               0
100
AcDbLine
 10
321.45982062419534
 20
-322.5
 30
0.0
 11
331.50450459549756
 21
-326.08738713260755
 31
0.0
  0
LINE
  5
363
100
AcDbEntity
  8
OBJECT
  6
CONTINUOUS
 62
               0
100
AcDbLine
 10
322.5
 20
-341.5
 30
0.0
 11
322.5
 21
-327.5
 31
0.0
  0
LINE
  5
364
100
AcDbEntity
  8
OBJECT
  6
CONTINUOUS
 62
               0
100
AcDbLine
 10
325.5
 20
-341.5
 30
0.0
 11
325.5
 21
-329.0
 31
0.0
  0
LINE
  5
365
100
AcDbEntity
  8
OBJECT
  6
CONTINUOUS
 62
               0
100
AcDbLine
 10
324.0
 20
-329.0
 30
0.0
 11
331.0
 21
-329.0
 31
0.0
  0
LINE
  5
366
100
AcDbEntity
  8
OBJECT
  6
CONTINUOUS
 62
               0
100
AcDbLine
 10
324.0
 20
-326.0
 30
0.0
 11
331.0
 21
-326.0
 31
0.0
  0
ARC
  5
367
100
AcDbEntity
  8
OBJECT
  6
CONTINUOUS
 62
               0
100
AcDbCircle
 10
331.0
 20
-327.5
 30
0.0
 40
1.5
100
AcDbArc
 50
270.0
 51
90.00004579247053
  0
ARC
  5
368
100
AcDbEntity
  8
OBJECT
  6
CONTINUOUS
 62
               0
100
AcDbCircle
 10
324.0
 20
-327.5
 30
0.0
 40
1.5
100
AcDbArc
 50
90.0
 51
270.0
  0
ARC
  5
369
100
AcDbEntity
  8
OBJECT
  6
CONTINUOUS
 62
               0
100
AcDbCircle
 10
324.0
 20
-341.5
 30
0.0
 40
1.5
100
AcDbArc
 50
180.0
 51
0.0
  0
LINE
  5
36A
100
AcDbEntity
  8
OBJECT
  6
CONTINUOUS
 62
               0
100
AcDbLine
 10
325.5
 20
-334.5
 30
0.0
 11
322.5
 21
-334.5
 31
0.0
  0
ENDBLK
  5
36B
100
AcDbEntity
  8
OBJECT
100
AcDbBlockEnd
  0
BLOCK
  5
36C
100
AcDbEntity
  8
OBJECT
100
AcDbBlockBegin
  2
*U27
 70
               1
 10
0.0
 20
0.0
 30
0.0
  3
*U27
  1

  0
LINE
  5
36D
100
AcDbEntity
  8
OBJECT
  6
CONTINUOUS
 62
               0
100
AcDbLine
 10
677.5
 20
-158.5
 30
0.0
 11
677.5
 21
-172.5
 31
0.0
  0
LINE
  5
36E
100
AcDbEntity
  8
OBJECT
  6
CONTINUOUS
 62
               0
100
AcDbLine
 10
674.5
 20
-158.5
 30
0.0
 11
674.5
 21
-171.0
 31
0.0
  0
LINE
  5
36F
100
AcDbEntity
  8
OBJECT
  6
CONTINUOUS
 62
               0
100
AcDbLine
 10
676.87373655343345
 20
-173.71925568901361
 30
0.0
 11
683.50450459549756
 21
-176.08738713260755
 31
0.0
  0
LINE
  5
370
100
AcDbEntity
  8
OBJECT
  6
CONTINUOUS
 62
               0
100
AcDbLine
 10
668.49549540450244
 20
-173.91261286739245
 30
0.0
 11
678.54017937580466
 21
-177.5
 31
0.0
  0
LINE
  5
371
100
AcDbEntity
  8
OBJECT
  6
CONTINUOUS
 62
               0
100
AcDbLine
 10
678.54017937580466
 20
-177.5
 30
0.0
 11
668.49549540450244
 21
-181.08738713260755
 31
0.0
  0
LINE
  5
372
100
AcDbEntity
  8
OBJECT
  6
CONTINUOUS
 62
               0
100
AcDbLine
 10
683.50450459549756
 20
-178.91261286739245
 30
0.0
 11
673.45982062419534
 21
-182.5
 31
0.0
  0
LINE
  5
373
100
AcDbEntity
  8
OBJECT
  6
CONTINUOUS
 62
               0
100
AcDbLine
 10
676.0
 20
-171.0
 30
0.0
 11
669.0
 21
-171.0
 31
0.0
  0
LINE
  5
374
100
AcDbEntity
  8
OBJECT
  6
CONTINUOUS
 62
               0
100
AcDbLine
 10
676.0
 20
-174.0
 30
0.0
 11
669.0
 21
-174.0
 31
0.0
  0
ARC
  5
375
100
AcDbEntity
  8
OBJECT
  6
CONTINUOUS
 62
               0
100
AcDbCircle
 10
669.0
 20
-172.5
 30
0.0
 40
1.5
100
AcDbArc
 50
90.0
 51
270.00004579247047
  0
ARC
  5
376
100
AcDbEntity
  8
OBJECT
  6
CONTINUOUS
 62
               0
100
AcDbCircle
 10
683.0
 20
-177.5
 30
0.0
 40
1.5000000000002975
100
AcDbArc
 50
289.6538240580627
 51
70.346175941937361
  0
ARC
  5
377
100
AcDbEntity
  8
OBJECT
  6
CONTINUOUS
 62
               0
100
AcDbCircle
 10
669.0
 20
-182.5
 30
0.0
 40
1.5000000000002283
100
AcDbArc
 50
70.346133057383526
 51
70.346133911145486
  0
ARC
  5
378
100
AcDbEntity
  8
OBJECT
  6
CONTINUOUS
 62
               0
100
AcDbCircle
 10
669.0
 20
-182.5
 30
0.0
 40
1.5000000000002975
100
AcDbArc
 50
109.65382405806267
 51
250.34621906662261
  0
LINE
  5
379
100
AcDbEntity
  8
OBJECT
  6
CONTINUOUS
 62
               0
100
AcDbLine
 10
669.50450459549756
 20
-181.08738713260755
 30
0.0
 11
669.50450609912878
 21
-181.08738766961869
 31
0.0
  0
LINE
  5
37A
100
AcDbEntity
  8
OBJECT
  6
CONTINUOUS
 62
               0
100
AcDbLine
 10
673.45982062419534
 20
-182.5
 30
0.0
 11
683.50450459549756
 21
-186.08738713260755
 31
0.0
  0
LINE
  5
37B
100
AcDbEntity
  8
OBJECT
  6
CONTINUOUS
 62
               0
100
AcDbLine
 10
668.49549540450244
 20
-183.91261286739245
 30
0.0
 11
678.54017937580466
 21
-187.5
 31
0.0
  0
ARC
  5
37C
100
AcDbEntity
  8
OBJECT
  6
CONTINUOUS
 62
               0
100
AcDbCircle
 10
676.0
 20
-172.5
 30
0.0
 40
1.5
100
AcDbArc
 50
270.0
 51
90.0
  0
ARC
  5
37D
100
AcDbEntity
  8
OBJECT
  6
CONTINUOUS
 62
               0
100
AcDbCircle
 10
676.0
 20
-158.5
 30
0.0
 40
1.5
100
AcDbArc
 50
0.0
 51
19.471220634487622
  0
ARC
  5
37E
100
AcDbEntity
  8
OBJECT
  6
CONTINUOUS
 62
               0
100
AcDbCircle
 10
676.0
 20
-158.5
 30
0.0
 40
1.5000000000002252
100
AcDbArc
 50
160.52877936551235
 51
180.0
  0
LINE
  5
37F
100
AcDbEntity
  8
OBJECT
  6
CONTINUOUS
 62
               0
100
AcDbLine
 10
674.5
 20
-165.5
 30
0.0
 11
677.5
 21
-165.5
 31
0.0
  0
LINE
  5
380
100
AcDbEntity
  8
OBJECT
  6
CONTINUOUS
 62
               0
100
AcDbLine
 10
678.54017937580466
 20
-187.5
 30
0.0
 11
668.49549540450244
 21
-191.08738713260755
 31
0.0
  0
LINE
  5
381
100
AcDbEntity
  8
OBJECT
  6
CONTINUOUS
 62
               0
100
AcDbLine
 10
683.50450459549756
 20
-188.91261286739245
 30
0.0
 11
673.45982062419534
 21
-192.5
 31
0.0
  0
ARC
  5
382
100
AcDbEntity
  8
OBJECT
  6
CONTINUOUS
 62
               0
100
AcDbCircle
 10
683.0
 20
-187.5
 30
0.0
 40
1.5000000000002975
100
AcDbArc
 50
289.6538240580627
 51
70.346175941937361
  0
LINE
  5
383
100
AcDbEntity
  8
OBJECT
  6
CONTINUOUS
 62
               0
100
AcDbLine
 10
678.54017937580466
 20
-187.5
 30
0.0
 11
668.49549540450244
 21
-191.08738713260755
 31
0.0
  0
ARC
  5
384
100
AcDbEntity
  8
OBJECT
  6
CONTINUOUS
 62
               0
100
AcDbCircle
 10
669.0
 20
-192.5
 30
0.0
 40
1.5000000000002283
100
AcDbArc
 50
70.346133057383526
 51
70.346133911145486
  0
ARC
  5
385
100
AcDbEntity
  8
OBJECT
  6
CONTINUOUS
 62
               0
100
AcDbCircle
 10
669.0
 20
-192.5
 30
0.0
 40
1.5000000000002975
100
AcDbArc
 50
109.65382405806267
 51
250.34621906662261
  0
LINE
  5
386
100
AcDbEntity
  8
OBJECT
  6
CONTINUOUS
 62
               0
100
AcDbLine
 10
669.50450459549756
 20
-191.08738713260755
 30
0.0
 11
669.50450609912878
 21
-191.08738766961869
 31
0.0
  0
LINE
  5
387
100
AcDbEntity
  8
OBJECT
  6
CONTINUOUS
 62
               0
100
AcDbLine
 10
668.49549540450244
 20
-193.91261286739245
 30
0.0
 11
678.54017937580466
 21
-197.5
 31
0.0
  0
LINE
  5
388
100
AcDbEntity
  8
OBJECT
  6
CONTINUOUS
 62
               0
100
AcDbLine
 10
678.54017937580466
 20
-197.5
 30
0.0
 11
668.49549540450244
 21
-201.08738713260755
 31
0.0
  0
ARC
  5
389
100
AcDbEntity
  8
OBJECT
  6
CONTINUOUS
 62
               0
100
AcDbCircle
 10
669.0
 20
-202.5
 30
0.0
 40
1.5000000000002283
100
AcDbArc
 50
70.346133057383526
 51
70.346133911145486
  0
ARC
  5
38A
100
AcDbEntity
  8
OBJECT
  6
CONTINUOUS
 62
               0
100
AcDbCircle
 10
669.0
 20
-202.5
 30
0.0
 40
1.5000000000002975
100
AcDbArc
 50
109.65382405806267
 51
250.34621906662261
  0
LINE
  5
38B
100
AcDbEntity
  8
OBJECT
  6
CONTINUOUS
 62
               0
100
AcDbLine
 10
669.50450459549756
 20
-201.08738713260755
 30
0.0
 11
669.50450609912878
 21
-201.08738766961869
 31
0.0
  0
LINE
  5
38C
100
AcDbEntity
  8
OBJECT
  6
CONTINUOUS
 62
               0
100
AcDbLine
 10
668.49549540450244
 20
-203.91261286739245
 30
0.0
 11
678.54017937580466
 21
-207.5
 31
0.0
  0
LINE
  5
38D
100
AcDbEntity
  8
OBJECT
  6
CONTINUOUS
 62
               0
100
AcDbLine
 10
678.54017937580466
 20
-207.5
 30
0.0
 11
668.49549540450244
 21
-211.08738713260755
 31
0.0
  0
ARC
  5
38E
100
AcDbEntity
  8
OBJECT
  6
CONTINUOUS
 62
               0
100
AcDbCircle
 10
669.0
 20
-212.5
 30
0.0
 40
1.5000000000002283
100
AcDbArc
 50
70.346133057383526
 51
70.346133911145486
  0
ARC
  5
38F
100
AcDbEntity
  8
OBJECT
  6
CONTINUOUS
 62
               0
100
AcDbCircle
 10
669.0
 20
-212.5
 30
0.0
 40
1.5000000000002975
100
AcDbArc
 50
109.65382405806267
 51
250.34621906662261
  0
LINE
  5
390
100
AcDbEntity
  8
OBJECT
  6
CONTINUOUS
 62
               0
100
AcDbLine
 10
669.50450459549756
 20
-211.08738713260755
 30
0.0
 11
669.50450609912878
 21
-211.08738766961869
 31
0.0
  0
LINE
  5
391
100
AcDbEntity
  8
OBJECT
  6
CONTINUOUS
 62
               0
100
AcDbLine
 10
668.49549540450244
 20
-213.91261286739245
 30
0.0
 11
678.54017937580466
 21
-217.5
 31
0.0
  0
LINE
  5
392
100
AcDbEntity
  8
OBJECT
  6
CONTINUOUS
 62
               0
100
AcDbLine
 10
678.54017937580466
 20
-217.5
 30
0.0
 11
668.49549540450244
 21
-221.08738713260755
 31
0.0
  0
ARC
  5
393
100
AcDbEntity
  8
OBJECT
  6
CONTINUOUS
 62
               0
100
AcDbCircle
 10
669.0
 20
-222.5
 30
0.0
 40
1.5000000000002283
100
AcDbArc
 50
70.346133057383526
 51
70.346133911145486
  0
ARC
  5
394
100
AcDbEntity
  8
OBJECT
  6
CONTINUOUS
 62
               0
100
AcDbCircle
 10
669.0
 20
-222.5
 30
0.0
 40
1.5000000000002975
100
AcDbArc
 50
109.65382405806267
 51
250.34621906662261
  0
LINE
  5
395
100
AcDbEntity
  8
OBJECT
  6
CONTINUOUS
 62
               0
100
AcDbLine
 10
669.50450459549756
 20
-221.08738713260755
 30
0.0
 11
669.50450609912878
 21
-221.08738766961869
 31
0.0
  0
LINE
  5
396
100
AcDbEntity
  8
OBJECT
  6
CONTINUOUS
 62
               0
100
AcDbLine
 10
668.49549540450244
 20
-223.91261286739245
 30
0.0
 11
678.54017937580466
 21
-227.5
 31
0.0
  0
LINE
  5
397
100
AcDbEntity
  8
OBJECT
  6
CONTINUOUS
 62
               0
100
AcDbLine
 10
678.54017937580466
 20
-227.5
 30
0.0
 11
668.49549540450244
 21
-231.08738713260755
 31
0.0
  0
ARC
  5
398
100
AcDbEntity
  8
OBJECT
  6
CONTINUOUS
 62
               0
100
AcDbCircle
 10
669.0
 20
-232.5
 30
0.0
 40
1.5000000000002283
100
AcDbArc
 50
70.346133057383526
 51
70.346133911145486
  0
ARC
  5
399
100
AcDbEntity
  8
OBJECT
  6
CONTINUOUS
 62
               0
100
AcDbCircle
 10
669.0
 20
-232.5
 30
0.0
 40
1.5000000000002975
100
AcDbArc
 50
109.65382405806267
 51
250.34621906662261
  0
LINE
  5
39A
100
AcDbEntity
  8
OBJECT
  6
CONTINUOUS
 62
               0
100
AcDbLine
 10
669.50450459549756
 20
-231.08738713260755
 30
0.0
 11
669.50450609912878
 21
-231.08738766961869
 31
0.0
  0
LINE
  5
39B
100
AcDbEntity
  8
OBJECT
  6
CONTINUOUS
 62
               0
100
AcDbLine
 10
668.49549540450244
 20
-233.91261286739245
 30
0.0
 11
678.54017937580466
 21
-237.5
 31
0.0
  0
LINE
  5
39C
100
AcDbEntity
  8
OBJECT
  6
CONTINUOUS
 62
               0
100
AcDbLine
 10
678.54017937580466
 20
-237.5
 30
0.0
 11
668.49549540450244
 21
-241.08738713260755
 31
0.0
  0
ARC
  5
39D
100
AcDbEntity
  8
OBJECT
  6
CONTINUOUS
 62
               0
100
AcDbCircle
 10
669.0
 20
-242.5
 30
0.0
 40
1.5000000000002283
100
AcDbArc
 50
70.346133057383526
 51
70.346133911145486
  0
ARC
  5
39E
100
AcDbEntity
  8
OBJECT
  6
CONTINUOUS
 62
               0
100
AcDbCircle
 10
669.0
 20
-242.5
 30
0.0
 40
1.5000000000002975
100
AcDbArc
 50
109.65382405806267
 51
250.34621906662261
  0
LINE
  5
39F
100
AcDbEntity
  8
OBJECT
  6
CONTINUOUS
 62
               0
100
AcDbLine
 10
669.50450459549756
 20
-241.08738713260755
 30
0.0
 11
669.50450609912878
 21
-241.08738766961869
 31
0.0
  0
LINE
  5
3A0
100
AcDbEntity
  8
OBJECT
  6
CONTINUOUS
 62
               0
100
AcDbLine
 10
668.49549540450244
 20
-243.91261286739245
 30
0.0
 11
678.54017937580466
 21
-247.5
 31
0.0
  0
LINE
  5
3A1
100
AcDbEntity
  8
OBJECT
  6
CONTINUOUS
 62
               0
100
AcDbLine
 10
678.54017937580466
 20
-247.5
 30
0.0
 11
668.49549540450244
 21
-251.08738713260755
 31
0.0
  0
ARC
  5
3A2
100
AcDbEntity
  8
OBJECT
  6
CONTINUOUS
 62
               0
100
AcDbCircle
 10
669.0
 20
-252.5
 30
0.0
 40
1.5000000000002283
100
AcDbArc
 50
70.346133057383526
 51
70.346133911145486
  0
ARC
  5
3A3
100
AcDbEntity
  8
OBJECT
  6
CONTINUOUS
 62
               0
100
AcDbCircle
 10
669.0
 20
-252.5
 30
0.0
 40
1.5000000000002975
100
AcDbArc
 50
109.65382405806267
 51
250.34621906662261
  0
LINE
  5
3A4
100
AcDbEntity
  8
OBJECT
  6
CONTINUOUS
 62
               0
100
AcDbLine
 10
669.50450459549756
 20
-251.08738713260755
 30
0.0
 11
669.50450609912878
 21
-251.08738766961869
 31
0.0
  0
LINE
  5
3A5
100
AcDbEntity
  8
OBJECT
  6
CONTINUOUS
 62
               0
100
AcDbLine
 10
668.49549540450244
 20
-253.91261286739245
 30
0.0
 11
678.54017937580466
 21
-257.5
 31
0.0
  0
LINE
  5
3A6
100
AcDbEntity
  8
OBJECT
  6
CONTINUOUS
 62
               0
100
AcDbLine
 10
678.54017937580466
 20
-257.5
 30
0.0
 11
668.49549540450244
 21
-261.08738713260755
 31
0.0
  0
ARC
  5
3A7
100
AcDbEntity
  8
OBJECT
  6
CONTINUOUS
 62
               0
100
AcDbCircle
 10
669.0
 20
-262.5
 30
0.0
 40
1.5000000000002283
100
AcDbArc
 50
70.346133057383526
 51
70.346133911145486
  0
ARC
  5
3A8
100
AcDbEntity
  8
OBJECT
  6
CONTINUOUS
 62
               0
100
AcDbCircle
 10
669.0
 20
-262.5
 30
0.0
 40
1.5000000000002975
100
AcDbArc
 50
109.65382405806267
 51
250.34621906662261
  0
LINE
  5
3A9
100
AcDbEntity
  8
OBJECT
  6
CONTINUOUS
 62
               0
100
AcDbLine
 10
669.50450459549756
 20
-261.08738713260755
 30
0.0
 11
669.50450609912878
 21
-261.08738766961869
 31
0.0
  0
LINE
  5
3AA
100
AcDbEntity
  8
OBJECT
  6
CONTINUOUS
 62
               0
100
AcDbLine
 10
668.49549540450244
 20
-263.91261286739245
 30
0.0
 11
678.54017937580466
 21
-267.5
 31
0.0
  0
LINE
  5
3AB
100
AcDbEntity
  8
OBJECT
  6
CONTINUOUS
 62
               0
100
AcDbLine
 10
678.54017937580466
 20
-267.5
 30
0.0
 11
668.49549540450244
 21
-271.08738713260755
 31
0.0
  0
ARC
  5
3AC
100
AcDbEntity
  8
OBJECT
  6
CONTINUOUS
 62
               0
100
AcDbCircle
 10
669.0
 20
-272.5
 30
0.0
 40
1.5000000000002283
100
AcDbArc
 50
70.346133057383526
 51
70.346133911145486
  0
ARC
  5
3AD
100
AcDbEntity
  8
OBJECT
  6
CONTINUOUS
 62
               0
100
AcDbCircle
 10
669.0
 20
-272.5
 30
0.0
 40
1.5000000000002975
100
AcDbArc
 50
109.65382405806267
 51
250.34621906662261
  0
LINE
  5
3AE
100
AcDbEntity
  8
OBJECT
  6
CONTINUOUS
 62
               0
100
AcDbLine
 10
669.50450459549756
 20
-271.08738713260755
 30
0.0
 11
669.50450609912878
 21
-271.08738766961869
 31
0.0
  0
LINE
  5
3AF
100
AcDbEntity
  8
OBJECT
  6
CONTINUOUS
 62
               0
100
AcDbLine
 10
668.49549540450244
 20
-273.91261286739245
 30
0.0
 11
678.54017937580466
 21
-277.5
 31
0.0
  0
LINE
  5
3B0
100
AcDbEntity
  8
OBJECT
  6
CONTINUOUS
 62
               0
100
AcDbLine
 10
678.54017937580466
 20
-277.5
 30
0.0
 11
668.49549540450244
 21
-281.08738713260755
 31
0.0
  0
ARC
  5
3B1
100
AcDbEntity
  8
OBJECT
  6
CONTINUOUS
 62
               0
100
AcDbCircle
 10
669.0
 20
-282.5
 30
0.0
 40
1.5000000000002283
100
AcDbArc
 50
70.346133057383526
 51
70.346133911145486
  0
ARC
  5
3B2
100
AcDbEntity
  8
OBJECT
  6
CONTINUOUS
 62
               0
100
AcDbCircle
 10
669.0
 20
-282.5
 30
0.0
 40
1.5000000000002975
100
AcDbArc
 50
109.65382405806267
 51
250.34621906662261
  0
LINE
  5
3B3
100
AcDbEntity
  8
OBJECT
  6
CONTINUOUS
 62
               0
100
AcDbLine
 10
669.50450459549756
 20
-281.08738713260755
 30
0.0
 11
669.50450609912878
 21
-281.08738766961869
 31
0.0
  0
LINE
  5
3B4
100
AcDbEntity
  8
OBJECT
  6
CONTINUOUS
 62
               0
100
AcDbLine
 10
668.49549540450244
 20
-283.91261286739245
 30
0.0
 11
678.54017937580466
 21
-287.5
 31
0.0
  0
LINE
  5
3B5
100
AcDbEntity
  8
OBJECT
  6
CONTINUOUS
 62
               0
100
AcDbLine
 10
678.54017937580466
 20
-287.5
 30
0.0
 11
668.49549540450244
 21
-291.08738713260755
 31
0.0
  0
ARC
  5
3B6
100
AcDbEntity
  8
OBJECT
  6
CONTINUOUS
 62
               0
100
AcDbCircle
 10
669.0
 20
-292.5
 30
0.0
 40
1.5000000000002283
100
AcDbArc
 50
70.346133057383526
 51
70.346133911145486
  0
ARC
  5
3B7
100
AcDbEntity
  8
OBJECT
  6
CONTINUOUS
 62
               0
100
AcDbCircle
 10
669.0
 20
-292.5
 30
0.0
 40
1.5000000000002975
100
AcDbArc
 50
109.65382405806267
 51
250.34621906662261
  0
LINE
  5
3B8
100
AcDbEntity
  8
OBJECT
  6
CONTINUOUS
 62
               0
100
AcDbLine
 10
669.50450459549756
 20
-291.08738713260755
 30
0.0
 11
669.50450609912878
 21
-291.08738766961869
 31
0.0
  0
LINE
  5
3B9
100
AcDbEntity
  8
OBJECT
  6
CONTINUOUS
 62
               0
100
AcDbLine
 10
668.49549540450244
 20
-293.91261286739245
 30
0.0
 11
678.54017937580466
 21
-297.5
 31
0.0
  0
LINE
  5
3BA
100
AcDbEntity
  8
OBJECT
  6
CONTINUOUS
 62
               0
100
AcDbLine
 10
678.54017937580466
 20
-297.5
 30
0.0
 11
668.49549540450244
 21
-301.08738713260755
 31
0.0
  0
ARC
  5
3BB
100
AcDbEntity
  8
OBJECT
  6
CONTINUOUS
 62
               0
100
AcDbCircle
 10
669.0
 20
-302.5
 30
0.0
 40
1.5000000000002283
100
AcDbArc
 50
70.346133057383526
 51
70.346133911145486
  0
ARC
  5
3BC
100
AcDbEntity
  8
OBJECT
  6
CONTINUOUS
 62
               0
100
AcDbCircle
 10
669.0
 20
-302.5
 30
0.0
 40
1.5000000000002975
100
AcDbArc
 50
109.65382405806267
 51
250.34621906662261
  0
LINE
  5
3BD
100
AcDbEntity
  8
OBJECT
  6
CONTINUOUS
 62
               0
100
AcDbLine
 10
669.50450459549756
 20
-301.08738713260755
 30
0.0
 11
669.50450609912878
 21
-301.08738766961869
 31
0.0
  0
LINE
  5
3BE
100
AcDbEntity
  8
OBJECT
  6
CONTINUOUS
 62
               0
100
AcDbLine
 10
668.49549540450244
 20
-303.91261286739245
 30
0.0
 11
678.54017937580466
 21
-307.5
 31
0.0
  0
LINE
  5
3BF
100
AcDbEntity
  8
OBJECT
  6
CONTINUOUS
 62
               0
100
AcDbLine
 10
678.54017937580466
 20
-307.5
 30
0.0
 11
668.49549540450244
 21
-311.08738713260755
 31
0.0
  0
ARC
  5
3C0
100
AcDbEntity
  8
OBJECT
  6
CONTINUOUS
 62
               0
100
AcDbCircle
 10
669.0
 20
-312.5
 30
0.0
 40
1.5000000000002283
100
AcDbArc
 50
70.346133057383526
 51
70.346133911145486
  0
ARC
  5
3C1
100
AcDbEntity
  8
OBJECT
  6
CONTINUOUS
 62
               0
100
AcDbCircle
 10
669.0
 20
-312.5
 30
0.0
 40
1.5000000000002975
100
AcDbArc
 50
109.65382405806267
 51
250.34621906662261
  0
LINE
  5
3C2
100
AcDbEntity
  8
OBJECT
  6
CONTINUOUS
 62
               0
100
AcDbLine
 10
669.50450459549756
 20
-311.08738713260755
 30
0.0
 11
669.50450609912878
 21
-311.08738766961869
 31
0.0
  0
LINE
  5
3C3
100
AcDbEntity
  8
OBJECT
  6
CONTINUOUS
 62
               0
100
AcDbLine
 10
668.49549540450244
 20
-313.91261286739245
 30
0.0
 11
678.54017937580466
 21
-317.5
 31
0.0
  0
LINE
  5
3C4
100
AcDbEntity
  8
OBJECT
  6
CONTINUOUS
 62
               0
100
AcDbLine
 10
678.54017937580466
 20
-317.5
 30
0.0
 11
668.49549540450244
 21
-321.08738713260755
 31
0.0
  0
ARC
  5
3C5
100
AcDbEntity
  8
OBJECT
  6
CONTINUOUS
 62
               0
100
AcDbCircle
 10
669.0
 20
-322.5
 30
0.0
 40
1.5000000000002283
100
AcDbArc
 50
70.346133057383526
 51
70.346133911145486
  0
ARC
  5
3C6
100
AcDbEntity
  8
OBJECT
  6
CONTINUOUS
 62
               0
100
AcDbCircle
 10
669.0
 20
-322.5
 30
0.0
 40
1.5000000000002975
100
AcDbArc
 50
109.65382405806267
 51
250.34621906662261
  0
LINE
  5
3C7
100
AcDbEntity
  8
OBJECT
  6
CONTINUOUS
 62
               0
100
AcDbLine
 10
669.50450459549756
 20
-321.08738713260755
 30
0.0
 11
669.50450609912878
 21
-321.08738766961869
 31
0.0
  0
LINE
  5
3C8
100
AcDbEntity
  8
OBJECT
  6
CONTINUOUS
 62
               0
100
AcDbLine
 10
668.49549540450244
 20
-323.91261286739245
 30
0.0
 11
675.12626344657656
 21
-326.28074431099003
 31
0.0
  0
ARC
  5
3C9
100
AcDbEntity
  8
OBJECT
  6
CONTINUOUS
 62
               0
100
AcDbCircle
 10
669.0
 20
-332.5
 30
0.0
 40
1.5000000000002283
100
AcDbArc
 50
70.346133057383526
 51
70.346133911145486
  0
LINE
  5
3CA
100
AcDbEntity
  8
OBJECT
  6
CONTINUOUS
 62
               0
100
AcDbLine
 10
669.50450459549756
 20
-331.08738713260755
 30
0.0
 11
669.50450609912878
 21
-331.08738766961869
 31
0.0
  0
LINE
  5
3CB
100
AcDbEntity
  8
OBJECT
  6
CONTINUOUS
 62
               0
100
AcDbLine
 10
673.45982062419534
 20
-192.5
 30
0.0
 11
683.50450459549756
 21
-196.08738713260755
 31
0.0
  0
LINE
  5
3CC
100
AcDbEntity
  8
OBJECT
  6
CONTINUOUS
 62
               0
100
AcDbLine
 10
683.50450459549756
 20
-198.91261286739245
 30
0.0
 11
673.45982062419534
 21
-202.5
 31
0.0
  0
ARC
  5
3CD
100
AcDbEntity
  8
OBJECT
  6
CONTINUOUS
 62
               0
100
AcDbCircle
 10
683.0
 20
-197.5
 30
0.0
 40
1.5000000000002975
100
AcDbArc
 50
289.6538240580627
 51
70.346175941937361
  0
LINE
  5
3CE
100
AcDbEntity
  8
OBJECT
  6
CONTINUOUS
 62
               0
100
AcDbLine
 10
673.45982062419534
 20
-202.5
 30
0.0
 11
683.50450459549756
 21
-206.08738713260755
 31
0.0
  0
LINE
  5
3CF
100
AcDbEntity
  8
OBJECT
  6
CONTINUOUS
 62
               0
100
AcDbLine
 10
683.50450459549756
 20
-208.91261286739245
 30
0.0
 11
673.45982062419534
 21
-212.5
 31
0.0
  0
ARC
  5
3D0
100
AcDbEntity
  8
OBJECT
  6
CONTINUOUS
 62
               0
100
AcDbCircle
 10
683.0
 20
-207.5
 30
0.0
 40
1.5000000000002975
100
AcDbArc
 50
289.6538240580627
 51
70.346175941937361
  0
LINE
  5
3D1
100
AcDbEntity
  8
OBJECT
  6
CONTINUOUS
 62
               0
100
AcDbLine
 10
673.45982062419534
 20
-212.5
 30
0.0
 11
683.50450459549756
 21
-216.08738713260755
 31
0.0
  0
LINE
  5
3D2
100
AcDbEntity
  8
OBJECT
  6
CONTINUOUS
 62
               0
100
AcDbLine
 10
683.50450459549756
 20
-218.91261286739245
 30
0.0
 11
673.45982062419534
 21
-222.5
 31
0.0
  0
ARC
  5
3D3
100
AcDbEntity
  8
OBJECT
  6
CONTINUOUS
 62
               0
100
AcDbCircle
 10
683.0
 20
-217.5
 30
0.0
 40
1.5000000000002975
100
AcDbArc
 50
289.6538240580627
 51
70.346175941937361
  0
LINE
  5
3D4
100
AcDbEntity
  8
OBJECT
  6
CONTINUOUS
 62
               0
100
AcDbLine
 10
673.45982062419534
 20
-222.5
 30
0.0
 11
683.50450459549756
 21
-226.08738713260755
 31
0.0
  0
LINE
  5
3D5
100
AcDbEntity
  8
OBJECT
  6
CONTINUOUS
 62
               0
100
AcDbLine
 10
683.50450459549756
 20
-228.91261286739245
 30
0.0
 11
673.45982062419534
 21
-232.5
 31
0.0
  0
ARC
  5
3D6
100
AcDbEntity
  8
OBJECT
  6
CONTINUOUS
 62
               0
100
AcDbCircle
 10
683.0
 20
-227.5
 30
0.0
 40
1.5000000000002975
100
AcDbArc
 50
289.6538240580627
 51
70.346175941937361
  0
LINE
  5
3D7
100
AcDbEntity
  8
OBJECT
  6
CONTINUOUS
 62
               0
100
AcDbLine
 10
673.45982062419534
 20
-232.5
 30
0.0
 11
683.50450459549756
 21
-236.08738713260755
 31
0.0
  0
LINE
  5
3D8
100
AcDbEntity
  8
OBJECT
  6
CONTINUOUS
 62
               0
100
AcDbLine
 10
683.50450459549756
 20
-238.91261286739245
 30
0.0
 11
673.45982062419534
 21
-242.5
 31
0.0
  0
ARC
  5
3D9
100
AcDbEntity
  8
OBJECT
  6
CONTINUOUS
 62
               0
100
AcDbCircle
 10
683.0
 20
-237.5
 30
0.0
 40
1.5000000000002975
100
AcDbArc
 50
289.6538240580627
 51
70.346175941937361
  0
LINE
  5
3DA
100
AcDbEntity
  8
OBJECT
  6
CONTINUOUS
 62
               0
100
AcDbLine
 10
673.45982062419534
 20
-242.5
 30
0.0
 11
683.50450459549756
 21
-246.08738713260755
 31
0.0
  0
LINE
  5
3DB
100
AcDbEntity
  8
OBJECT
  6
CONTINUOUS
 62
               0
100
AcDbLine
 10
683.50450459549756
 20
-248.91261286739245
 30
0.0
 11
673.45982062419534
 21
-252.5
 31
0.0
  0
ARC
  5
3DC
100
AcDbEntity
  8
OBJECT
  6
CONTINUOUS
 62
               0
100
AcDbCircle
 10
683.0
 20
-247.5
 30
0.0
 40
1.5000000000002975
100
AcDbArc
 50
289.6538240580627
 51
70.346175941937361
  0
LINE
  5
3DD
100
AcDbEntity
  8
OBJECT
  6
CONTINUOUS
 62
               0
100
AcDbLine
 10
673.45982062419534
 20
-252.5
 30
0.0
 11
683.50450459549756
 21
-256.08738713260755
 31
0.0
  0
LINE
  5
3DE
100
AcDbEntity
  8
OBJECT
  6
CONTINUOUS
 62
               0
100
AcDbLine
 10
683.50450459549756
 20
-258.91261286739245
 30
0.0
 11
673.45982062419534
 21
-262.5
 31
0.0
  0
ARC
  5
3DF
100
AcDbEntity
  8
OBJECT
  6
CONTINUOUS
 62
               0
100
AcDbCircle
 10
683.0
 20
-257.5
 30
0.0
 40
1.5000000000002975
100
AcDbArc
 50
289.6538240580627
 51
70.346175941937361
  0
LINE
  5
3E0
100
AcDbEntity
  8
OBJECT
  6
CONTINUOUS
 62
               0
100
AcDbLine
 10
673.45982062419534
 20
-262.5
 30
0.0
 11
683.50450459549756
 21
-266.08738713260755
 31
0.0
  0
LINE
  5
3E1
100
AcDbEntity
  8
OBJECT
  6
CONTINUOUS
 62
               0
100
AcDbLine
 10
683.50450459549756
 20
-268.91261286739245
 30
0.0
 11
673.45982062419534
 21
-272.5
 31
0.0
  0
ARC
  5
3E2
100
AcDbEntity
  8
OBJECT
  6
CONTINUOUS
 62
               0
100
AcDbCircle
 10
683.0
 20
-267.5
 30
0.0
 40
1.5000000000002975
100
AcDbArc
 50
289.6538240580627
 51
70.346175941937361
  0
LINE
  5
3E3
100
AcDbEntity
  8
OBJECT
  6
CONTINUOUS
 62
               0
100
AcDbLine
 10
673.45982062419534
 20
-272.5
 30
0.0
 11
683.50450459549756
 21
-276.08738713260755
 31
0.0
  0
LINE
  5
3E4
100
AcDbEntity
  8
OBJECT
  6
CONTINUOUS
 62
               0
100
AcDbLine
 10
683.50450459549756
 20
-278.91261286739245
 30
0.0
 11
673.45982062419534
 21
-282.5
 31
0.0
  0
ARC
  5
3E5
100
AcDbEntity
  8
OBJECT
  6
CONTINUOUS
 62
               0
100
AcDbCircle
 10
683.0
 20
-277.5
 30
0.0
 40
1.5000000000002975
100
AcDbArc
 50
289.6538240580627
 51
70.346175941937361
  0
LINE
  5
3E6
100
AcDbEntity
  8
OBJECT
  6
CONTINUOUS
 62
               0
100
AcDbLine
 10
673.45982062419534
 20
-282.5
 30
0.0
 11
683.50450459549756
 21
-286.08738713260755
 31
0.0
  0
LINE
  5
3E7
100
AcDbEntity
  8
OBJECT
  6
CONTINUOUS
 62
               0
100
AcDbLine
 10
683.50450459549756
 20
-288.91261286739245
 30
0.0
 11
673.45982062419534
 21
-292.5
 31
0.0
  0
ARC
  5
3E8
100
AcDbEntity
  8
OBJECT
  6
CONTINUOUS
 62
               0
100
AcDbCircle
 10
683.0
 20
-287.5
 30
0.0
 40
1.5000000000002975
100
AcDbArc
 50
289.6538240580627
 51
70.346175941937361
  0
LINE
  5
3E9
100
AcDbEntity
  8
OBJECT
  6
CONTINUOUS
 62
               0
100
AcDbLine
 10
673.45982062419534
 20
-292.5
 30
0.0
 11
683.50450459549756
 21
-296.08738713260755
 31
0.0
  0
LINE
  5
3EA
100
AcDbEntity
  8
OBJECT
  6
CONTINUOUS
 62
               0
100
AcDbLine
 10
683.50450459549756
 20
-298.91261286739245
 30
0.0
 11
673.45982062419534
 21
-302.5
 31
0.0
  0
ARC
  5
3EB
100
AcDbEntity
  8
OBJECT
  6
CONTINUOUS
 62
               0
100
AcDbCircle
 10
683.0
 20
-297.5
 30
0.0
 40
1.5000000000002975
100
AcDbArc
 50
289.6538240580627
 51
70.346175941937361
  0
LINE
  5
3EC
100
AcDbEntity
  8
OBJECT
  6
CONTINUOUS
 62
               0
100
AcDbLine
 10
673.45982062419534
 20
-302.5
 30
0.0
 11
683.50450459549756
 21
-306.08738713260755
 31
0.0
  0
LINE
  5
3ED
100
AcDbEntity
  8
OBJECT
  6
CONTINUOUS
 62
               0
100
AcDbLine
 10
683.50450459549756
 20
-308.91261286739245
 30
0.0
 11
673.45982062419534
 21
-312.5
 31
0.0
  0
ARC
  5
3EE
100
AcDbEntity
  8
OBJECT
  6
CONTINUOUS
 62
               0
100
AcDbCircle
 10
683.0
 20
-307.5
 30
0.0
 40
1.5000000000002975
100
AcDbArc
 50
289.6538240580627
 51
70.346175941937361
  0
LINE
  5
3EF
100
AcDbEntity
  8
OBJECT
  6
CONTINUOUS
 62
               0
100
AcDbLine
 10
673.45982062419534
 20
-312.5
 30
0.0
 11
683.50450459549756
 21
-316.08738713260755
 31
0.0
  0
LINE
  5
3F0
100
AcDbEntity
  8
OBJECT
  6
CONTINUOUS
 62
               0
100
AcDbLine
 10
683.50450459549756
 20
-318.91261286739245
 30
0.0
 11
673.45982062419534
 21
-322.5
 31
0.0
  0
ARC
  5
3F1
100
AcDbEntity
  8
OBJECT
  6
CONTINUOUS
 62
               0
100
AcDbCircle
 10
683.0
 20
-317.5
 30
0.0
 40
1.5000000000002975
100
AcDbArc
 50
289.6538240580627
 51
70.346175941937361
  0
LINE
  5
3F2
100
AcDbEntity
  8
OBJECT
  6
CONTINUOUS
 62
               0
100
AcDbLine
 10
673.45982062419534
 20
-322.5
 30
0.0
 11
683.50450459549756
 21
-326.08738713260755
 31
0.0
  0
LINE
  5
3F3
100
AcDbEntity
  8
OBJECT
  6
CONTINUOUS
 62
               0
100
AcDbLine
 10
674.5
 20
-341.5
 30
0.0
 11
674.5
 21
-327.5
 31
0.0
  0
LINE
  5
3F4
100
AcDbEntity
  8
OBJECT
  6
CONTINUOUS
 62
               0
100
AcDbLine
 10
677.5
 20
-341.5
 30
0.0
 11
677.5
 21
-329.0
 31
0.0
  0
LINE
  5
3F5
100
AcDbEntity
  8
OBJECT
  6
CONTINUOUS
 62
               0
100
AcDbLine
 10
676.0
 20
-329.0
 30
0.0
 11
683.0
 21
-329.0
 31
0.0
  0
LINE
  5
3F6
100
AcDbEntity
  8
OBJECT
  6
CONTINUOUS
 62
               0
100
AcDbLine
 10
676.0
 20
-326.0
 30
0.0
 11
683.0
 21
-326.0
 31
0.0
  0
ARC
  5
3F7
100
AcDbEntity
  8
OBJECT
  6
CONTINUOUS
 62
               0
100
AcDbCircle
 10
683.0
 20
-327.5
 30
0.0
 40
1.5
100
AcDbArc
 50
270.0
 51
90.00004579247053
  0
ARC
  5
3F8
100
AcDbEntity
  8
OBJECT
  6
CONTINUOUS
 62
               0
100
AcDbCircle
 10
676.0
 20
-327.5
 30
0.0
 40
1.5
100
AcDbArc
 50
90.0
 51
270.0
  0
ARC
  5
3F9
100
AcDbEntity
  8
OBJECT
  6
CONTINUOUS
 62
               0
100
AcDbCircle
 10
676.0
 20
-341.5
 30
0.0
 40
1.5
100
AcDbArc
 50
180.0
 51
0.0
  0
LINE
  5
3FA
100
AcDbEntity
  8
OBJECT
  6
CONTINUOUS
 62
               0
100
AcDbLine
 10
677.5
 20
-334.5
 30
0.0
 11
674.5
 21
-334.5
 31
0.0
  0
ENDBLK
  5
3FB
100
AcDbEntity
  8
OBJECT
100
AcDbBlockEnd
  0
BLOCK
  5
3FC
100
AcDbEntity
  8
OBJECT
100
AcDbBlockBegin
  2
*U28
 70
               1
 10
0.0
 20
0.0
 30
0.0
  3
*U28
  1

  0
LINE
  5
3FD
100
AcDbEntity
  8
OBJECT
  6
CONTINUOUS
 62
               0
100
AcDbLine
 10
657.5
 20
-158.5
 30
0.0
 11
657.5
 21
-172.5
 31
0.0
  0
LINE
  5
3FE
100
AcDbEntity
  8
OBJECT
  6
CONTINUOUS
 62
               0
100
AcDbLine
 10
654.5
 20
-158.5
 30
0.0
 11
654.5
 21
-171.0
 31
0.0
  0
LINE
  5
3FF
100
AcDbEntity
  8
OBJECT
  6
CONTINUOUS
 62
               0
100
AcDbLine
 10
656.87373655343345
 20
-173.71925568901361
 30
0.0
 11
663.50450459549756
 21
-176.08738713260755
 31
0.0
  0
LINE
  5
400
100
AcDbEntity
  8
OBJECT
  6
CONTINUOUS
 62
               0
100
AcDbLine
 10
648.49549540450244
 20
-173.91261286739245
 30
0.0
 11
658.54017937580466
 21
-177.5
 31
0.0
  0
LINE
  5
401
100
AcDbEntity
  8
OBJECT
  6
CONTINUOUS
 62
               0
100
AcDbLine
 10
658.54017937580466
 20
-177.5
 30
0.0
 11
648.49549540450244
 21
-181.08738713260755
 31
0.0
  0
LINE
  5
402
100
AcDbEntity
  8
OBJECT
  6
CONTINUOUS
 62
               0
100
AcDbLine
 10
663.50450459549756
 20
-178.91261286739245
 30
0.0
 11
653.45982062419534
 21
-182.5
 31
0.0
  0
LINE
  5
403
100
AcDbEntity
  8
OBJECT
  6
CONTINUOUS
 62
               0
100
AcDbLine
 10
656.0
 20
-171.0
 30
0.0
 11
649.0
 21
-171.0
 31
0.0
  0
LINE
  5
404
100
AcDbEntity
  8
OBJECT
  6
CONTINUOUS
 62
               0
100
AcDbLine
 10
656.0
 20
-174.0
 30
0.0
 11
649.0
 21
-174.0
 31
0.0
  0
ARC
  5
405
100
AcDbEntity
  8
OBJECT
  6
CONTINUOUS
 62
               0
100
AcDbCircle
 10
649.0
 20
-172.5
 30
0.0
 40
1.5
100
AcDbArc
 50
90.0
 51
270.00004579247047
  0
ARC
  5
406
100
AcDbEntity
  8
OBJECT
  6
CONTINUOUS
 62
               0
100
AcDbCircle
 10
663.0
 20
-177.5
 30
0.0
 40
1.5000000000002975
100
AcDbArc
 50
289.6538240580627
 51
70.346175941937361
  0
ARC
  5
407
100
AcDbEntity
  8
OBJECT
  6
CONTINUOUS
 62
               0
100
AcDbCircle
 10
649.0
 20
-182.5
 30
0.0
 40
1.5000000000002283
100
AcDbArc
 50
70.346133057383526
 51
70.346133911145486
  0
ARC
  5
408
100
AcDbEntity
  8
OBJECT
  6
CONTINUOUS
 62
               0
100
AcDbCircle
 10
649.0
 20
-182.5
 30
0.0
 40
1.5000000000002975
100
AcDbArc
 50
109.65382405806267
 51
250.34621906662261
  0
LINE
  5
409
100
AcDbEntity
  8
OBJECT
  6
CONTINUOUS
 62
               0
100
AcDbLine
 10
649.50450459549756
 20
-181.08738713260755
 30
0.0
 11
649.50450609912878
 21
-181.08738766961869
 31
0.0
  0
LINE
  5
40A
100
AcDbEntity
  8
OBJECT
  6
CONTINUOUS
 62
               0
100
AcDbLine
 10
653.45982062419534
 20
-182.5
 30
0.0
 11
663.50450459549756
 21
-186.08738713260755
 31
0.0
  0
LINE
  5
40B
100
AcDbEntity
  8
OBJECT
  6
CONTINUOUS
 62
               0
100
AcDbLine
 10
648.49549540450244
 20
-183.91261286739245
 30
0.0
 11
658.54017937580466
 21
-187.5
 31
0.0
  0
ARC
  5
40C
100
AcDbEntity
  8
OBJECT
  6
CONTINUOUS
 62
               0
100
AcDbCircle
 10
656.0
 20
-172.5
 30
0.0
 40
1.5
100
AcDbArc
 50
270.0
 51
90.0
  0
ARC
  5
40D
100
AcDbEntity
  8
OBJECT
  6
CONTINUOUS
 62
               0
100
AcDbCircle
 10
656.0
 20
-158.5
 30
0.0
 40
1.5
100
AcDbArc
 50
0.0
 51
19.471220634487622
  0
ARC
  5
40E
100
AcDbEntity
  8
OBJECT
  6
CONTINUOUS
 62
               0
100
AcDbCircle
 10
656.0
 20
-158.5
 30
0.0
 40
1.5000000000002252
100
AcDbArc
 50
160.52877936551235
 51
180.0
  0
LINE
  5
40F
100
AcDbEntity
  8
OBJECT
  6
CONTINUOUS
 62
               0
100
AcDbLine
 10
654.5
 20
-165.5
 30
0.0
 11
657.5
 21
-165.5
 31
0.0
  0
LINE
  5
410
100
AcDbEntity
  8
OBJECT
  6
CONTINUOUS
 62
               0
100
AcDbLine
 10
658.54017937580466
 20
-187.5
 30
0.0
 11
648.49549540450244
 21
-191.08738713260755
 31
0.0
  0
LINE
  5
411
100
AcDbEntity
  8
OBJECT
  6
CONTINUOUS
 62
               0
100
AcDbLine
 10
663.50450459549756
 20
-188.91261286739245
 30
0.0
 11
653.45982062419534
 21
-192.5
 31
0.0
  0
ARC
  5
412
100
AcDbEntity
  8
OBJECT
  6
CONTINUOUS
 62
               0
100
AcDbCircle
 10
663.0
 20
-187.5
 30
0.0
 40
1.5000000000002975
100
AcDbArc
 50
289.6538240580627
 51
70.346175941937361
  0
LINE
  5
413
100
AcDbEntity
  8
OBJECT
  6
CONTINUOUS
 62
               0
100
AcDbLine
 10
658.54017937580466
 20
-187.5
 30
0.0
 11
648.49549540450244
 21
-191.08738713260755
 31
0.0
  0
ARC
  5
414
100
AcDbEntity
  8
OBJECT
  6
CONTINUOUS
 62
               0
100
AcDbCircle
 10
649.0
 20
-192.5
 30
0.0
 40
1.5000000000002283
100
AcDbArc
 50
70.346133057383526
 51
70.346133911145486
  0
ARC
  5
415
100
AcDbEntity
  8
OBJECT
  6
CONTINUOUS
 62
               0
100
AcDbCircle
 10
649.0
 20
-192.5
 30
0.0
 40
1.5000000000002975
100
AcDbArc
 50
109.65382405806267
 51
250.34621906662261
  0
LINE
  5
416
100
AcDbEntity
  8
OBJECT
  6
CONTINUOUS
 62
               0
100
AcDbLine
 10
649.50450459549756
 20
-191.08738713260755
 30
0.0
 11
649.50450609912878
 21
-191.08738766961869
 31
0.0
  0
LINE
  5
417
100
AcDbEntity
  8
OBJECT
  6
CONTINUOUS
 62
               0
100
AcDbLine
 10
648.49549540450244
 20
-193.91261286739245
 30
0.0
 11
658.54017937580466
 21
-197.5
 31
0.0
  0
LINE
  5
418
100
AcDbEntity
  8
OBJECT
  6
CONTINUOUS
 62
               0
100
AcDbLine
 10
658.54017937580466
 20
-197.5
 30
0.0
 11
648.49549540450244
 21
-201.08738713260755
 31
0.0
  0
ARC
  5
419
100
AcDbEntity
  8
OBJECT
  6
CONTINUOUS
 62
               0
100
AcDbCircle
 10
649.0
 20
-202.5
 30
0.0
 40
1.5000000000002283
100
AcDbArc
 50
70.346133057383526
 51
70.346133911145486
  0
ARC
  5
41A
100
AcDbEntity
  8
OBJECT
  6
CONTINUOUS
 62
               0
100
AcDbCircle
 10
649.0
 20
-202.5
 30
0.0
 40
1.5000000000002975
100
AcDbArc
 50
109.65382405806267
 51
250.34621906662261
  0
LINE
  5
41B
100
AcDbEntity
  8
OBJECT
  6
CONTINUOUS
 62
               0
100
AcDbLine
 10
649.50450459549756
 20
-201.08738713260755
 30
0.0
 11
649.50450609912878
 21
-201.08738766961869
 31
0.0
  0
LINE
  5
41C
100
AcDbEntity
  8
OBJECT
  6
CONTINUOUS
 62
               0
100
AcDbLine
 10
648.49549540450244
 20
-203.91261286739245
 30
0.0
 11
658.54017937580466
 21
-207.5
 31
0.0
  0
LINE
  5
41D
100
AcDbEntity
  8
OBJECT
  6
CONTINUOUS
 62
               0
100
AcDbLine
 10
658.54017937580466
 20
-207.5
 30
0.0
 11
648.49549540450244
 21
-211.08738713260755
 31
0.0
  0
ARC
  5
41E
100
AcDbEntity
  8
OBJECT
  6
CONTINUOUS
 62
               0
100
AcDbCircle
 10
649.0
 20
-212.5
 30
0.0
 40
1.5000000000002283
100
AcDbArc
 50
70.346133057383526
 51
70.346133911145486
  0
ARC
  5
41F
100
AcDbEntity
  8
OBJECT
  6
CONTINUOUS
 62
               0
100
AcDbCircle
 10
649.0
 20
-212.5
 30
0.0
 40
1.5000000000002975
100
AcDbArc
 50
109.65382405806267
 51
250.34621906662261
  0
LINE
  5
420
100
AcDbEntity
  8
OBJECT
  6
CONTINUOUS
 62
               0
100
AcDbLine
 10
649.50450459549756
 20
-211.08738713260755
 30
0.0
 11
649.50450609912878
 21
-211.08738766961869
 31
0.0
  0
LINE
  5
421
100
AcDbEntity
  8
OBJECT
  6
CONTINUOUS
 62
               0
100
AcDbLine
 10
648.49549540450244
 20
-213.91261286739245
 30
0.0
 11
658.54017937580466
 21
-217.5
 31
0.0
  0
LINE
  5
422
100
AcDbEntity
  8
OBJECT
  6
CONTINUOUS
 62
               0
100
AcDbLine
 10
658.54017937580466
 20
-217.5
 30
0.0
 11
648.49549540450244
 21
-221.08738713260755
 31
0.0
  0
ARC
  5
423
100
AcDbEntity
  8
OBJECT
  6
CONTINUOUS
 62
               0
100
AcDbCircle
 10
649.0
 20
-222.5
 30
0.0
 40
1.5000000000002283
100
AcDbArc
 50
70.346133057383526
 51
70.346133911145486
  0
ARC
  5
424
100
AcDbEntity
  8
OBJECT
  6
CONTINUOUS
 62
               0
100
AcDbCircle
 10
649.0
 20
-222.5
 30
0.0
 40
1.5000000000002975
100
AcDbArc
 50
109.65382405806267
 51
250.34621906662261
  0
LINE
  5
425
100
AcDbEntity
  8
OBJECT
  6
CONTINUOUS
 62
               0
100
AcDbLine
 10
649.50450459549756
 20
-221.08738713260755
 30
0.0
 11
649.50450609912878
 21
-221.08738766961869
 31
0.0
  0
LINE
  5
426
100
AcDbEntity
  8
OBJECT
  6
CONTINUOUS
 62
               0
100
AcDbLine
 10
648.49549540450244
 20
-223.91261286739245
 30
0.0
 11
658.54017937580466
 21
-227.5
 31
0.0
  0
LINE
  5
427
100
AcDbEntity
  8
OBJECT
  6
CONTINUOUS
 62
               0
100
AcDbLine
 10
658.54017937580466
 20
-227.5
 30
0.0
 11
648.49549540450244
 21
-231.08738713260755
 31
0.0
  0
ARC
  5
428
100
AcDbEntity
  8
OBJECT
  6
CONTINUOUS
 62
               0
100
AcDbCircle
 10
649.0
 20
-232.5
 30
0.0
 40
1.5000000000002283
100
AcDbArc
 50
70.346133057383526
 51
70.346133911145486
  0
ARC
  5
429
100
AcDbEntity
  8
OBJECT
  6
CONTINUOUS
 62
               0
100
AcDbCircle
 10
649.0
 20
-232.5
 30
0.0
 40
1.5000000000002975
100
AcDbArc
 50
109.65382405806267
 51
250.34621906662261
  0
LINE
  5
42A
100
AcDbEntity
  8
OBJECT
  6
CONTINUOUS
 62
               0
100
AcDbLine
 10
649.50450459549756
 20
-231.08738713260755
 30
0.0
 11
649.50450609912878
 21
-231.08738766961869
 31
0.0
  0
LINE
  5
42B
100
AcDbEntity
  8
OBJECT
  6
CONTINUOUS
 62
               0
100
AcDbLine
 10
648.49549540450244
 20
-233.91261286739245
 30
0.0
 11
658.54017937580466
 21
-237.5
 31
0.0
  0
LINE
  5
42C
100
AcDbEntity
  8
OBJECT
  6
CONTINUOUS
 62
               0
100
AcDbLine
 10
658.54017937580466
 20
-237.5
 30
0.0
 11
648.49549540450244
 21
-241.08738713260755
 31
0.0
  0
ARC
  5
42D
100
AcDbEntity
  8
OBJECT
  6
CONTINUOUS
 62
               0
100
AcDbCircle
 10
649.0
 20
-242.5
 30
0.0
 40
1.5000000000002283
100
AcDbArc
 50
70.346133057383526
 51
70.346133911145486
  0
ARC
  5
42E
100
AcDbEntity
  8
OBJECT
  6
CONTINUOUS
 62
               0
100
AcDbCircle
 10
649.0
 20
-242.5
 30
0.0
 40
1.5000000000002975
100
AcDbArc
 50
109.65382405806267
 51
250.34621906662261
  0
LINE
  5
42F
100
AcDbEntity
  8
OBJECT
  6
CONTINUOUS
 62
               0
100
AcDbLine
 10
649.50450459549756
 20
-241.08738713260755
 30
0.0
 11
649.50450609912878
 21
-241.08738766961869
 31
0.0
  0
LINE
  5
430
100
AcDbEntity
  8
OBJECT
  6
CONTINUOUS
 62
               0
100
AcDbLine
 10
648.49549540450244
 20
-243.91261286739245
 30
0.0
 11
658.54017937580466
 21
-247.5
 31
0.0
  0
LINE
  5
431
100
AcDbEntity
  8
OBJECT
  6
CONTINUOUS
 62
               0
100
AcDbLine
 10
658.54017937580466
 20
-247.5
 30
0.0
 11
648.49549540450244
 21
-251.08738713260755
 31
0.0
  0
ARC
  5
432
100
AcDbEntity
  8
OBJECT
  6
CONTINUOUS
 62
               0
100
AcDbCircle
 10
649.0
 20
-252.5
 30
0.0
 40
1.5000000000002283
100
AcDbArc
 50
70.346133057383526
 51
70.346133911145486
  0
ARC
  5
433
100
AcDbEntity
  8
OBJECT
  6
CONTINUOUS
 62
               0
100
AcDbCircle
 10
649.0
 20
-252.5
 30
0.0
 40
1.5000000000002975
100
AcDbArc
 50
109.65382405806267
 51
250.34621906662261
  0
LINE
  5
434
100
AcDbEntity
  8
OBJECT
  6
CONTINUOUS
 62
               0
100
AcDbLine
 10
649.50450459549756
 20
-251.08738713260755
 30
0.0
 11
649.50450609912878
 21
-251.08738766961869
 31
0.0
  0
LINE
  5
435
100
AcDbEntity
  8
OBJECT
  6
CONTINUOUS
 62
               0
100
AcDbLine
 10
648.49549540450244
 20
-253.91261286739245
 30
0.0
 11
658.54017937580466
 21
-257.5
 31
0.0
  0
LINE
  5
436
100
AcDbEntity
  8
OBJECT
  6
CONTINUOUS
 62
               0
100
AcDbLine
 10
658.54017937580466
 20
-257.5
 30
0.0
 11
648.49549540450244
 21
-261.08738713260755
 31
0.0
  0
ARC
  5
437
100
AcDbEntity
  8
OBJECT
  6
CONTINUOUS
 62
               0
100
AcDbCircle
 10
649.0
 20
-262.5
 30
0.0
 40
1.5000000000002283
100
AcDbArc
 50
70.346133057383526
 51
70.346133911145486
  0
ARC
  5
438
100
AcDbEntity
  8
OBJECT
  6
CONTINUOUS
 62
               0
100
AcDbCircle
 10
649.0
 20
-262.5
 30
0.0
 40
1.5000000000002975
100
AcDbArc
 50
109.65382405806267
 51
250.34621906662261
  0
LINE
  5
439
100
AcDbEntity
  8
OBJECT
  6
CONTINUOUS
 62
               0
100
AcDbLine
 10
649.50450459549756
 20
-261.08738713260755
 30
0.0
 11
649.50450609912878
 21
-261.08738766961869
 31
0.0
  0
LINE
  5
43A
100
AcDbEntity
  8
OBJECT
  6
CONTINUOUS
 62
               0
100
AcDbLine
 10
648.49549540450244
 20
-263.91261286739245
 30
0.0
 11
658.54017937580466
 21
-267.5
 31
0.0
  0
LINE
  5
43B
100
AcDbEntity
  8
OBJECT
  6
CONTINUOUS
 62
               0
100
AcDbLine
 10
658.54017937580466
 20
-267.5
 30
0.0
 11
648.49549540450244
 21
-271.08738713260755
 31
0.0
  0
ARC
  5
43C
100
AcDbEntity
  8
OBJECT
  6
CONTINUOUS
 62
               0
100
AcDbCircle
 10
649.0
 20
-272.5
 30
0.0
 40
1.5000000000002283
100
AcDbArc
 50
70.346133057383526
 51
70.346133911145486
  0
ARC
  5
43D
100
AcDbEntity
  8
OBJECT
  6
CONTINUOUS
 62
               0
100
AcDbCircle
 10
649.0
 20
-272.5
 30
0.0
 40
1.5000000000002975
100
AcDbArc
 50
109.65382405806267
 51
250.34621906662261
  0
LINE
  5
43E
100
AcDbEntity
  8
OBJECT
  6
CONTINUOUS
 62
               0
100
AcDbLine
 10
649.50450459549756
 20
-271.08738713260755
 30
0.0
 11
649.50450609912878
 21
-271.08738766961869
 31
0.0
  0
LINE
  5
43F
100
AcDbEntity
  8
OBJECT
  6
CONTINUOUS
 62
               0
100
AcDbLine
 10
648.49549540450244
 20
-273.91261286739245
 30
0.0
 11
658.54017937580466
 21
-277.5
 31
0.0
  0
LINE
  5
440
100
AcDbEntity
  8
OBJECT
  6
CONTINUOUS
 62
               0
100
AcDbLine
 10
658.54017937580466
 20
-277.5
 30
0.0
 11
648.49549540450244
 21
-281.08738713260755
 31
0.0
  0
ARC
  5
441
100
AcDbEntity
  8
OBJECT
  6
CONTINUOUS
 62
               0
100
AcDbCircle
 10
649.0
 20
-282.5
 30
0.0
 40
1.5000000000002283
100
AcDbArc
 50
70.346133057383526
 51
70.346133911145486
  0
ARC
  5
442
100
AcDbEntity
  8
OBJECT
  6
CONTINUOUS
 62
               0
100
AcDbCircle
 10
649.0
 20
-282.5
 30
0.0
 40
1.5000000000002975
100
AcDbArc
 50
109.65382405806267
 51
250.34621906662261
  0
LINE
  5
443
100
AcDbEntity
  8
OBJECT
  6
CONTINUOUS
 62
               0
100
AcDbLine
 10
649.50450459549756
 20
-281.08738713260755
 30
0.0
 11
649.50450609912878
 21
-281.08738766961869
 31
0.0
  0
LINE
  5
444
100
AcDbEntity
  8
OBJECT
  6
CONTINUOUS
 62
               0
100
AcDbLine
 10
648.49549540450244
 20
-283.91261286739245
 30
0.0
 11
658.54017937580466
 21
-287.5
 31
0.0
  0
LINE
  5
445
100
AcDbEntity
  8
OBJECT
  6
CONTINUOUS
 62
               0
100
AcDbLine
 10
658.54017937580466
 20
-287.5
 30
0.0
 11
648.49549540450244
 21
-291.08738713260755
 31
0.0
  0
ARC
  5
446
100
AcDbEntity
  8
OBJECT
  6
CONTINUOUS
 62
               0
100
AcDbCircle
 10
649.0
 20
-292.5
 30
0.0
 40
1.5000000000002283
100
AcDbArc
 50
70.346133057383526
 51
70.346133911145486
  0
ARC
  5
447
100
AcDbEntity
  8
OBJECT
  6
CONTINUOUS
 62
               0
100
AcDbCircle
 10
649.0
 20
-292.5
 30
0.0
 40
1.5000000000002975
100
AcDbArc
 50
109.65382405806267
 51
250.34621906662261
  0
LINE
  5
448
100
AcDbEntity
  8
OBJECT
  6
CONTINUOUS
 62
               0
100
AcDbLine
 10
649.50450459549756
 20
-291.08738713260755
 30
0.0
 11
649.50450609912878
 21
-291.08738766961869
 31
0.0
  0
LINE
  5
449
100
AcDbEntity
  8
OBJECT
  6
CONTINUOUS
 62
               0
100
AcDbLine
 10
648.49549540450244
 20
-293.91261286739245
 30
0.0
 11
658.54017937580466
 21
-297.5
 31
0.0
  0
LINE
  5
44A
100
AcDbEntity
  8
OBJECT
  6
CONTINUOUS
 62
               0
100
AcDbLine
 10
658.54017937580466
 20
-297.5
 30
0.0
 11
648.49549540450244
 21
-301.08738713260755
 31
0.0
  0
ARC
  5
44B
100
AcDbEntity
  8
OBJECT
  6
CONTINUOUS
 62
               0
100
AcDbCircle
 10
649.0
 20
-302.5
 30
0.0
 40
1.5000000000002283
100
AcDbArc
 50
70.346133057383526
 51
70.346133911145486
  0
ARC
  5
44C
100
AcDbEntity
  8
OBJECT
  6
CONTINUOUS
 62
               0
100
AcDbCircle
 10
649.0
 20
-302.5
 30
0.0
 40
1.5000000000002975
100
AcDbArc
 50
109.65382405806267
 51
250.34621906662261
  0
LINE
  5
44D
100
AcDbEntity
  8
OBJECT
  6
CONTINUOUS
 62
               0
100
AcDbLine
 10
649.50450459549756
 20
-301.08738713260755
 30
0.0
 11
649.50450609912878
 21
-301.08738766961869
 31
0.0
  0
LINE
  5
44E
100
AcDbEntity
  8
OBJECT
  6
CONTINUOUS
 62
               0
100
AcDbLine
 10
648.49549540450244
 20
-303.91261286739245
 30
0.0
 11
658.54017937580466
 21
-307.5
 31
0.0
  0
LINE
  5
44F
100
AcDbEntity
  8
OBJECT
  6
CONTINUOUS
 62
               0
100
AcDbLine
 10
658.54017937580466
 20
-307.5
 30
0.0
 11
648.49549540450244
 21
-311.08738713260755
 31
0.0
  0
ARC
  5
450
100
AcDbEntity
  8
OBJECT
  6
CONTINUOUS
 62
               0
100
AcDbCircle
 10
649.0
 20
-312.5
 30
0.0
 40
1.5000000000002283
100
AcDbArc
 50
70.346133057383526
 51
70.346133911145486
  0
ARC
  5
451
100
AcDbEntity
  8
OBJECT
  6
CONTINUOUS
 62
               0
100
AcDbCircle
 10
649.0
 20
-312.5
 30
0.0
 40
1.5000000000002975
100
AcDbArc
 50
109.65382405806267
 51
250.34621906662261
  0
LINE
  5
452
100
AcDbEntity
  8
OBJECT
  6
CONTINUOUS
 62
               0
100
AcDbLine
 10
649.50450459549756
 20
-311.08738713260755
 30
0.0
 11
649.50450609912878
 21
-311.08738766961869
 31
0.0
  0
LINE
  5
453
100
AcDbEntity
  8
OBJECT
  6
CONTINUOUS
 62
               0
100
AcDbLine
 10
648.49549540450244
 20
-313.91261286739245
 30
0.0
 11
658.54017937580466
 21
-317.5
 31
0.0
  0
LINE
  5
454
100
AcDbEntity
  8
OBJECT
  6
CONTINUOUS
 62
               0
100
AcDbLine
 10
658.54017937580466
 20
-317.5
 30
0.0
 11
648.49549540450244
 21
-321.08738713260755
 31
0.0
  0
ARC
  5
455
100
AcDbEntity
  8
OBJECT
  6
CONTINUOUS
 62
               0
100
AcDbCircle
 10
649.0
 20
-322.5
 30
0.0
 40
1.5000000000002283
100
AcDbArc
 50
70.346133057383526
 51
70.346133911145486
  0
ARC
  5
456
100
AcDbEntity
  8
OBJECT
  6
CONTINUOUS
 62
               0
100
AcDbCircle
 10
649.0
 20
-322.5
 30
0.0
 40
1.5000000000002975
100
AcDbArc
 50
109.65382405806267
 51
250.34621906662261
  0
LINE
  5
457
100
AcDbEntity
  8
OBJECT
  6
CONTINUOUS
 62
               0
100
AcDbLine
 10
649.50450459549756
 20
-321.08738713260755
 30
0.0
 11
649.50450609912878
 21
-321.08738766961869
 31
0.0
  0
LINE
  5
458
100
AcDbEntity
  8
OBJECT
  6
CONTINUOUS
 62
               0
100
AcDbLine
 10
648.49549540450244
 20
-323.91261286739245
 30
0.0
 11
655.12626344657656
 21
-326.28074431099003
 31
0.0
  0
ARC
  5
459
100
AcDbEntity
  8
OBJECT
  6
CONTINUOUS
 62
               0
100
AcDbCircle
 10
649.0
 20
-332.5
 30
0.0
 40
1.5000000000002283
100
AcDbArc
 50
70.346133057383526
 51
70.346133911145486
  0
LINE
  5
45A
100
AcDbEntity
  8
OBJECT
  6
CONTINUOUS
 62
               0
100
AcDbLine
 10
649.50450459549756
 20
-331.08738713260755
 30
0.0
 11
649.50450609912878
 21
-331.08738766961869
 31
0.0
  0
LINE
  5
45B
100
AcDbEntity
  8
OBJECT
  6
CONTINUOUS
 62
               0
100
AcDbLine
 10
653.45982062419534
 20
-192.5
 30
0.0
 11
663.50450459549756
 21
-196.08738713260755
 31
0.0
  0
LINE
  5
45C
100
AcDbEntity
  8
OBJECT
  6
CONTINUOUS
 62
               0
100
AcDbLine
 10
663.50450459549756
 20
-198.91261286739245
 30
0.0
 11
653.45982062419534
 21
-202.5
 31
0.0
  0
ARC
  5
45D
100
AcDbEntity
  8
OBJECT
  6
CONTINUOUS
 62
               0
100
AcDbCircle
 10
663.0
 20
-197.5
 30
0.0
 40
1.5000000000002975
100
AcDbArc
 50
289.6538240580627
 51
70.346175941937361
  0
LINE
  5
45E
100
AcDbEntity
  8
OBJECT
  6
CONTINUOUS
 62
               0
100
AcDbLine
 10
653.45982062419534
 20
-202.5
 30
0.0
 11
663.50450459549756
 21
-206.08738713260755
 31
0.0
  0
LINE
  5
45F
100
AcDbEntity
  8
OBJECT
  6
CONTINUOUS
 62
               0
100
AcDbLine
 10
663.50450459549756
 20
-208.91261286739245
 30
0.0
 11
653.45982062419534
 21
-212.5
 31
0.0
  0
ARC
  5
460
100
AcDbEntity
  8
OBJECT
  6
CONTINUOUS
 62
               0
100
AcDbCircle
 10
663.0
 20
-207.5
 30
0.0
 40
1.5000000000002975
100
AcDbArc
 50
289.6538240580627
 51
70.346175941937361
  0
LINE
  5
461
100
AcDbEntity
  8
OBJECT
  6
CONTINUOUS
 62
               0
100
AcDbLine
 10
653.45982062419534
 20
-212.5
 30
0.0
 11
663.50450459549756
 21
-216.08738713260755
 31
0.0
  0
LINE
  5
462
100
AcDbEntity
  8
OBJECT
  6
CONTINUOUS
 62
               0
100
AcDbLine
 10
663.50450459549756
 20
-218.91261286739245
 30
0.0
 11
653.45982062419534
 21
-222.5
 31
0.0
  0
ARC
  5
463
100
AcDbEntity
  8
OBJECT
  6
CONTINUOUS
 62
               0
100
AcDbCircle
 10
663.0
 20
-217.5
 30
0.0
 40
1.5000000000002975
100
AcDbArc
 50
289.6538240580627
 51
70.346175941937361
  0
LINE
  5
464
100
AcDbEntity
  8
OBJECT
  6
CONTINUOUS
 62
               0
100
AcDbLine
 10
653.45982062419534
 20
-222.5
 30
0.0
 11
663.50450459549756
 21
-226.08738713260755
 31
0.0
  0
LINE
  5
465
100
AcDbEntity
  8
OBJECT
  6
CONTINUOUS
 62
               0
100
AcDbLine
 10
663.50450459549756
 20
-228.91261286739245
 30
0.0
 11
653.45982062419534
 21
-232.5
 31
0.0
  0
ARC
  5
466
100
AcDbEntity
  8
OBJECT
  6
CONTINUOUS
 62
               0
100
AcDbCircle
 10
663.0
 20
-227.5
 30
0.0
 40
1.5000000000002975
100
AcDbArc
 50
289.6538240580627
 51
70.346175941937361
  0
LINE
  5
467
100
AcDbEntity
  8
OBJECT
  6
CONTINUOUS
 62
               0
100
AcDbLine
 10
653.45982062419534
 20
-232.5
 30
0.0
 11
663.50450459549756
 21
-236.08738713260755
 31
0.0
  0
LINE
  5
468
100
AcDbEntity
  8
OBJECT
  6
CONTINUOUS
 62
               0
100
AcDbLine
 10
663.50450459549756
 20
-238.91261286739245
 30
0.0
 11
653.45982062419534
 21
-242.5
 31
0.0
  0
ARC
  5
469
100
AcDbEntity
  8
OBJECT
  6
CONTINUOUS
 62
               0
100
AcDbCircle
 10
663.0
 20
-237.5
 30
0.0
 40
1.5000000000002975
100
AcDbArc
 50
289.6538240580627
 51
70.346175941937361
  0
LINE
  5
46A
100
AcDbEntity
  8
OBJECT
  6
CONTINUOUS
 62
               0
100
AcDbLine
 10
653.45982062419534
 20
-242.5
 30
0.0
 11
663.50450459549756
 21
-246.08738713260755
 31
0.0
  0
LINE
  5
46B
100
AcDbEntity
  8
OBJECT
  6
CONTINUOUS
 62
               0
100
AcDbLine
 10
663.50450459549756
 20
-248.91261286739245
 30
0.0
 11
653.45982062419534
 21
-252.5
 31
0.0
  0
ARC
  5
46C
100
AcDbEntity
  8
OBJECT
  6
CONTINUOUS
 62
               0
100
AcDbCircle
 10
663.0
 20
-247.5
 30
0.0
 40
1.5000000000002975
100
AcDbArc
 50
289.6538240580627
 51
70.346175941937361
  0
LINE
  5
46D
100
AcDbEntity
  8
OBJECT
  6
CONTINUOUS
 62
               0
100
AcDbLine
 10
653.45982062419534
 20
-252.5
 30
0.0
 11
663.50450459549756
 21
-256.08738713260755
 31
0.0
  0
LINE
  5
46E
100
AcDbEntity
  8
OBJECT
  6
CONTINUOUS
 62
               0
100
AcDbLine
 10
663.50450459549756
 20
-258.91261286739245
 30
0.0
 11
653.45982062419534
 21
-262.5
 31
0.0
  0
ARC
  5
46F
100
AcDbEntity
  8
OBJECT
  6
CONTINUOUS
 62
               0
100
AcDbCircle
 10
663.0
 20
-257.5
 30
0.0
 40
1.5000000000002975
100
AcDbArc
 50
289.6538240580627
 51
70.346175941937361
  0
LINE
  5
470
100
AcDbEntity
  8
OBJECT
  6
CONTINUOUS
 62
               0
100
AcDbLine
 10
653.45982062419534
 20
-262.5
 30
0.0
 11
663.50450459549756
 21
-266.08738713260755
 31
0.0
  0
LINE
  5
471
100
AcDbEntity
  8
OBJECT
  6
CONTINUOUS
 62
               0
100
AcDbLine
 10
663.50450459549756
 20
-268.91261286739245
 30
0.0
 11
653.45982062419534
 21
-272.5
 31
0.0
  0
ARC
  5
472
100
AcDbEntity
  8
OBJECT
  6
CONTINUOUS
 62
               0
100
AcDbCircle
 10
663.0
 20
-267.5
 30
0.0
 40
1.5000000000002975
100
AcDbArc
 50
289.6538240580627
 51
70.346175941937361
  0
LINE
  5
473
100
AcDbEntity
  8
OBJECT
  6
CONTINUOUS
 62
               0
100
AcDbLine
 10
653.45982062419534
 20
-272.5
 30
0.0
 11
663.50450459549756
 21
-276.08738713260755
 31
0.0
  0
LINE
  5
474
100
AcDbEntity
  8
OBJECT
  6
CONTINUOUS
 62
               0
100
AcDbLine
 10
663.50450459549756
 20
-278.91261286739245
 30
0.0
 11
653.45982062419534
 21
-282.5
 31
0.0
  0
ARC
  5
475
100
AcDbEntity
  8
OBJECT
  6
CONTINUOUS
 62
               0
100
AcDbCircle
 10
663.0
 20
-277.5
 30
0.0
 40
1.5000000000002975
100
AcDbArc
 50
289.6538240580627
 51
70.346175941937361
  0
LINE
  5
476
100
AcDbEntity
  8
OBJECT
  6
CONTINUOUS
 62
               0
100
AcDbLine
 10
653.45982062419534
 20
-282.5
 30
0.0
 11
663.50450459549756
 21
-286.08738713260755
 31
0.0
  0
LINE
  5
477
100
AcDbEntity
  8
OBJECT
  6
CONTINUOUS
 62
               0
100
AcDbLine
 10
663.50450459549756
 20
-288.91261286739245
 30
0.0
 11
653.45982062419534
 21
-292.5
 31
0.0
  0
ARC
  5
478
100
AcDbEntity
  8
OBJECT
  6
CONTINUOUS
 62
               0
100
AcDbCircle
 10
663.0
 20
-287.5
 30
0.0
 40
1.5000000000002975
100
AcDbArc
 50
289.6538240580627
 51
70.346175941937361
  0
LINE
  5
479
100
AcDbEntity
  8
OBJECT
  6
CONTINUOUS
 62
               0
100
AcDbLine
 10
653.45982062419534
 20
-292.5
 30
0.0
 11
663.50450459549756
 21
-296.08738713260755
 31
0.0
  0
LINE
  5
47A
100
AcDbEntity
  8
OBJECT
  6
CONTINUOUS
 62
               0
100
AcDbLine
 10
663.50450459549756
 20
-298.91261286739245
 30
0.0
 11
653.45982062419534
 21
-302.5
 31
0.0
  0
ARC
  5
47B
100
AcDbEntity
  8
OBJECT
  6
CONTINUOUS
 62
               0
100
AcDbCircle
 10
663.0
 20
-297.5
 30
0.0
 40
1.5000000000002975
100
AcDbArc
 50
289.6538240580627
 51
70.346175941937361
  0
LINE
  5
47C
100
AcDbEntity
  8
OBJECT
  6
CONTINUOUS
 62
               0
100
AcDbLine
 10
653.45982062419534
 20
-302.5
 30
0.0
 11
663.50450459549756
 21
-306.08738713260755
 31
0.0
  0
LINE
  5
47D
100
AcDbEntity
  8
OBJECT
  6
CONTINUOUS
 62
               0
100
AcDbLine
 10
663.50450459549756
 20
-308.91261286739245
 30
0.0
 11
653.45982062419534
 21
-312.5
 31
0.0
  0
ARC
  5
47E
100
AcDbEntity
  8
OBJECT
  6
CONTINUOUS
 62
               0
100
AcDbCircle
 10
663.0
 20
-307.5
 30
0.0
 40
1.5000000000002975
100
AcDbArc
 50
289.6538240580627
 51
70.346175941937361
  0
LINE
  5
47F
100
AcDbEntity
  8
OBJECT
  6
CONTINUOUS
 62
               0
100
AcDbLine
 10
653.45982062419534
 20
-312.5
 30
0.0
 11
663.50450459549756
 21
-316.08738713260755
 31
0.0
  0
LINE
  5
480
100
AcDbEntity
  8
OBJECT
  6
CONTINUOUS
 62
               0
100
AcDbLine
 10
663.50450459549756
 20
-318.91261286739245
 30
0.0
 11
653.45982062419534
 21
-322.5
 31
0.0
  0
ARC
  5
481
100
AcDbEntity
  8
OBJECT
  6
CONTINUOUS
 62
               0
100
AcDbCircle
 10
663.0
 20
-317.5
 30
0.0
 40
1.5000000000002975
100
AcDbArc
 50
289.6538240580627
 51
70.346175941937361
  0
LINE
  5
482
100
AcDbEntity
  8
OBJECT
  6
CONTINUOUS
 62
               0
100
AcDbLine
 10
653.45982062419534
 20
-322.5
 30
0.0
 11
663.50450459549756
 21
-326.08738713260755
 31
0.0
  0
LINE
  5
483
100
AcDbEntity
  8
OBJECT
  6
CONTINUOUS
 62
               0
100
AcDbLine
 10
654.5
 20
-341.5
 30
0.0
 11
654.5
 21
-327.5
 31
0.0
  0
LINE
  5
484
100
AcDbEntity
  8
OBJECT
  6
CONTINUOUS
 62
               0
100
AcDbLine
 10
657.5
 20
-341.5
 30
0.0
 11
657.5
 21
-329.0
 31
0.0
  0
LINE
  5
485
100
AcDbEntity
  8
OBJECT
  6
CONTINUOUS
 62
               0
100
AcDbLine
 10
656.0
 20
-329.0
 30
0.0
 11
663.0
 21
-329.0
 31
0.0
  0
LINE
  5
486
100
AcDbEntity
  8
OBJECT
  6
CONTINUOUS
 62
               0
100
AcDbLine
 10
656.0
 20
-326.0
 30
0.0
 11
663.0
 21
-326.0
 31
0.0
  0
ARC
  5
487
100
AcDbEntity
  8
OBJECT
  6
CONTINUOUS
 62
               0
100
AcDbCircle
 10
663.0
 20
-327.5
 30
0.0
 40
1.5
100
AcDbArc
 50
270.0
 51
90.00004579247053
  0
ARC
  5
488
100
AcDbEntity
  8
OBJECT
  6
CONTINUOUS
 62
               0
100
AcDbCircle
 10
656.0
 20
-327.5
 30
0.0
 40
1.5
100
AcDbArc
 50
90.0
 51
270.0
  0
ARC
  5
489
100
AcDbEntity
  8
OBJECT
  6
CONTINUOUS
 62
               0
100
AcDbCircle
 10
656.0
 20
-341.5
 30
0.0
 40
1.5
100
AcDbArc
 50
180.0
 51
0.0
  0
LINE
  5
48A
100
AcDbEntity
  8
OBJECT
  6
CONTINUOUS
 62
               0
100
AcDbLine
 10
657.5
 20
-334.5
 30
0.0
 11
654.5
 21
-334.5
 31
0.0
  0
ENDBLK
  5
48B
100
AcDbEntity
  8
OBJECT
100
AcDbBlockEnd
  0
BLOCK
  5
48C
100
AcDbEntity
  8
OBJECT
100
AcDbBlockBegin
  2
*U29
 70
               1
 10
0.0
 20
0.0
 30
0.0
  3
*U29
  1

  0
LINE
  5
48D
100
AcDbEntity
  8
OBJECT
  6
CONTINUOUS
 62
               0
100
AcDbLine
 10
637.5
 20
-158.5
 30
0.0
 11
637.5
 21
-172.5
 31
0.0
  0
LINE
  5
48E
100
AcDbEntity
  8
OBJECT
  6
CONTINUOUS
 62
               0
100
AcDbLine
 10
634.5
 20
-158.5
 30
0.0
 11
634.5
 21
-171.0
 31
0.0
  0
LINE
  5
48F
100
AcDbEntity
  8
OBJECT
  6
CONTINUOUS
 62
               0
100
AcDbLine
 10
636.87373655343345
 20
-173.71925568901361
 30
0.0
 11
643.50450459549756
 21
-176.08738713260755
 31
0.0
  0
LINE
  5
490
100
AcDbEntity
  8
OBJECT
  6
CONTINUOUS
 62
               0
100
AcDbLine
 10
628.49549540450244
 20
-173.91261286739245
 30
0.0
 11
638.54017937580466
 21
-177.5
 31
0.0
  0
LINE
  5
491
100
AcDbEntity
  8
OBJECT
  6
CONTINUOUS
 62
               0
100
AcDbLine
 10
638.54017937580466
 20
-177.5
 30
0.0
 11
628.49549540450244
 21
-181.08738713260755
 31
0.0
  0
LINE
  5
492
100
AcDbEntity
  8
OBJECT
  6
CONTINUOUS
 62
               0
100
AcDbLine
 10
643.50450459549756
 20
-178.91261286739245
 30
0.0
 11
633.45982062419534
 21
-182.5
 31
0.0
  0
LINE
  5
493
100
AcDbEntity
  8
OBJECT
  6
CONTINUOUS
 62
               0
100
AcDbLine
 10
636.0
 20
-171.0
 30
0.0
 11
629.0
 21
-171.0
 31
0.0
  0
LINE
  5
494
100
AcDbEntity
  8
OBJECT
  6
CONTINUOUS
 62
               0
100
AcDbLine
 10
636.0
 20
-174.0
 30
0.0
 11
629.0
 21
-174.0
 31
0.0
  0
ARC
  5
495
100
AcDbEntity
  8
OBJECT
  6
CONTINUOUS
 62
               0
100
AcDbCircle
 10
629.0
 20
-172.5
 30
0.0
 40
1.5
100
AcDbArc
 50
90.0
 51
270.00004579247047
  0
ARC
  5
496
100
AcDbEntity
  8
OBJECT
  6
CONTINUOUS
 62
               0
100
AcDbCircle
 10
643.0
 20
-177.5
 30
0.0
 40
1.5000000000002975
100
AcDbArc
 50
289.6538240580627
 51
70.346175941937361
  0
ARC
  5
497
100
AcDbEntity
  8
OBJECT
  6
CONTINUOUS
 62
               0
100
AcDbCircle
 10
629.0
 20
-182.5
 30
0.0
 40
1.5000000000002283
100
AcDbArc
 50
70.346133057383526
 51
70.346133911145486
  0
ARC
  5
498
100
AcDbEntity
  8
OBJECT
  6
CONTINUOUS
 62
               0
100
AcDbCircle
 10
629.0
 20
-182.5
 30
0.0
 40
1.5000000000002975
100
AcDbArc
 50
109.65382405806267
 51
250.34621906662261
  0
LINE
  5
499
100
AcDbEntity
  8
OBJECT
  6
CONTINUOUS
 62
               0
100
AcDbLine
 10
629.50450459549756
 20
-181.08738713260755
 30
0.0
 11
629.50450609912878
 21
-181.08738766961869
 31
0.0
  0
LINE
  5
49A
100
AcDbEntity
  8
OBJECT
  6
CONTINUOUS
 62
               0
100
AcDbLine
 10
633.45982062419534
 20
-182.5
 30
0.0
 11
643.50450459549756
 21
-186.08738713260755
 31
0.0
  0
LINE
  5
49B
100
AcDbEntity
  8
OBJECT
  6
CONTINUOUS
 62
               0
100
AcDbLine
 10
628.49549540450244
 20
-183.91261286739245
 30
0.0
 11
638.54017937580466
 21
-187.5
 31
0.0
  0
ARC
  5
49C
100
AcDbEntity
  8
OBJECT
  6
CONTINUOUS
 62
               0
100
AcDbCircle
 10
636.0
 20
-172.5
 30
0.0
 40
1.5
100
AcDbArc
 50
270.0
 51
90.0
  0
ARC
  5
49D
100
AcDbEntity
  8
OBJECT
  6
CONTINUOUS
 62
               0
100
AcDbCircle
 10
636.0
 20
-158.5
 30
0.0
 40
1.5
100
AcDbArc
 50
0.0
 51
19.471220634487622
  0
ARC
  5
49E
100
AcDbEntity
  8
OBJECT
  6
CONTINUOUS
 62
               0
100
AcDbCircle
 10
636.0
 20
-158.5
 30
0.0
 40
1.5000000000002252
100
AcDbArc
 50
160.52877936551235
 51
180.0
  0
LINE
  5
49F
100
AcDbEntity
  8
OBJECT
  6
CONTINUOUS
 62
               0
100
AcDbLine
 10
634.5
 20
-165.5
 30
0.0
 11
637.5
 21
-165.5
 31
0.0
  0
LINE
  5
4A0
100
AcDbEntity
  8
OBJECT
  6
CONTINUOUS
 62
               0
100
AcDbLine
 10
638.54017937580466
 20
-187.5
 30
0.0
 11
628.49549540450244
 21
-191.08738713260755
 31
0.0
  0
LINE
  5
4A1
100
AcDbEntity
  8
OBJECT
  6
CONTINUOUS
 62
               0
100
AcDbLine
 10
643.50450459549756
 20
-188.91261286739245
 30
0.0
 11
633.45982062419534
 21
-192.5
 31
0.0
  0
ARC
  5
4A2
100
AcDbEntity
  8
OBJECT
  6
CONTINUOUS
 62
               0
100
AcDbCircle
 10
643.0
 20
-187.5
 30
0.0
 40
1.5000000000002975
100
AcDbArc
 50
289.6538240580627
 51
70.346175941937361
  0
LINE
  5
4A3
100
AcDbEntity
  8
OBJECT
  6
CONTINUOUS
 62
               0
100
AcDbLine
 10
638.54017937580466
 20
-187.5
 30
0.0
 11
628.49549540450244
 21
-191.08738713260755
 31
0.0
  0
ARC
  5
4A4
100
AcDbEntity
  8
OBJECT
  6
CONTINUOUS
 62
               0
100
AcDbCircle
 10
629.0
 20
-192.5
 30
0.0
 40
1.5000000000002283
100
AcDbArc
 50
70.346133057383526
 51
70.346133911145486
  0
ARC
  5
4A5
100
AcDbEntity
  8
OBJECT
  6
CONTINUOUS
 62
               0
100
AcDbCircle
 10
629.0
 20
-192.5
 30
0.0
 40
1.5000000000002975
100
AcDbArc
 50
109.65382405806267
 51
250.34621906662261
  0
LINE
  5
4A6
100
AcDbEntity
  8
OBJECT
  6
CONTINUOUS
 62
               0
100
AcDbLine
 10
629.50450459549756
 20
-191.08738713260755
 30
0.0
 11
629.50450609912878
 21
-191.08738766961869
 31
0.0
  0
LINE
  5
4A7
100
AcDbEntity
  8
OBJECT
  6
CONTINUOUS
 62
               0
100
AcDbLine
 10
628.49549540450244
 20
-193.91261286739245
 30
0.0
 11
638.54017937580466
 21
-197.5
 31
0.0
  0
LINE
  5
4A8
100
AcDbEntity
  8
OBJECT
  6
CONTINUOUS
 62
               0
100
AcDbLine
 10
638.54017937580466
 20
-197.5
 30
0.0
 11
628.49549540450244
 21
-201.08738713260755
 31
0.0
  0
ARC
  5
4A9
100
AcDbEntity
  8
OBJECT
  6
CONTINUOUS
 62
               0
100
AcDbCircle
 10
629.0
 20
-202.5
 30
0.0
 40
1.5000000000002283
100
AcDbArc
 50
70.346133057383526
 51
70.346133911145486
  0
ARC
  5
4AA
100
AcDbEntity
  8
OBJECT
  6
CONTINUOUS
 62
               0
100
AcDbCircle
 10
629.0
 20
-202.5
 30
0.0
 40
1.5000000000002975
100
AcDbArc
 50
109.65382405806267
 51
250.34621906662261
  0
LINE
  5
4AB
100
AcDbEntity
  8
OBJECT
  6
CONTINUOUS
 62
               0
100
AcDbLine
 10
629.50450459549756
 20
-201.08738713260755
 30
0.0
 11
629.50450609912878
 21
-201.08738766961869
 31
0.0
  0
LINE
  5
4AC
100
AcDbEntity
  8
OBJECT
  6
CONTINUOUS
 62
               0
100
AcDbLine
 10
628.49549540450244
 20
-203.91261286739245
 30
0.0
 11
638.54017937580466
 21
-207.5
 31
0.0
  0
LINE
  5
4AD
100
AcDbEntity
  8
OBJECT
  6
CONTINUOUS
 62
               0
100
AcDbLine
 10
638.54017937580466
 20
-207.5
 30
0.0
 11
628.49549540450244
 21
-211.08738713260755
 31
0.0
  0
ARC
  5
4AE
100
AcDbEntity
  8
OBJECT
  6
CONTINUOUS
 62
               0
100
AcDbCircle
 10
629.0
 20
-212.5
 30
0.0
 40
1.5000000000002283
100
AcDbArc
 50
70.346133057383526
 51
70.346133911145486
  0
ARC
  5
4AF
100
AcDbEntity
  8
OBJECT
  6
CONTINUOUS
 62
               0
100
AcDbCircle
 10
629.0
 20
-212.5
 30
0.0
 40
1.5000000000002975
100
AcDbArc
 50
109.65382405806267
 51
250.34621906662261
  0
LINE
  5
4B0
100
AcDbEntity
  8
OBJECT
  6
CONTINUOUS
 62
               0
100
AcDbLine
 10
629.50450459549756
 20
-211.08738713260755
 30
0.0
 11
629.50450609912878
 21
-211.08738766961869
 31
0.0
  0
LINE
  5
4B1
100
AcDbEntity
  8
OBJECT
  6
CONTINUOUS
 62
               0
100
AcDbLine
 10
628.49549540450244
 20
-213.91261286739245
 30
0.0
 11
638.54017937580466
 21
-217.5
 31
0.0
  0
LINE
  5
4B2
100
AcDbEntity
  8
OBJECT
  6
CONTINUOUS
 62
               0
100
AcDbLine
 10
638.54017937580466
 20
-217.5
 30
0.0
 11
628.49549540450244
 21
-221.08738713260755
 31
0.0
  0
ARC
  5
4B3
100
AcDbEntity
  8
OBJECT
  6
CONTINUOUS
 62
               0
100
AcDbCircle
 10
629.0
 20
-222.5
 30
0.0
 40
1.5000000000002283
100
AcDbArc
 50
70.346133057383526
 51
70.346133911145486
  0
ARC
  5
4B4
100
AcDbEntity
  8
OBJECT
  6
CONTINUOUS
 62
               0
100
AcDbCircle
 10
629.0
 20
-222.5
 30
0.0
 40
1.5000000000002975
100
AcDbArc
 50
109.65382405806267
 51
250.34621906662261
  0
LINE
  5
4B5
100
AcDbEntity
  8
OBJECT
  6
CONTINUOUS
 62
               0
100
AcDbLine
 10
629.50450459549756
 20
-221.08738713260755
 30
0.0
 11
629.50450609912878
 21
-221.08738766961869
 31
0.0
  0
LINE
  5
4B6
100
AcDbEntity
  8
OBJECT
  6
CONTINUOUS
 62
               0
100
AcDbLine
 10
628.49549540450244
 20
-223.91261286739245
 30
0.0
 11
638.54017937580466
 21
-227.5
 31
0.0
  0
LINE
  5
4B7
100
AcDbEntity
  8
OBJECT
  6
CONTINUOUS
 62
               0
100
AcDbLine
 10
638.54017937580466
 20
-227.5
 30
0.0
 11
628.49549540450244
 21
-231.08738713260755
 31
0.0
  0
ARC
  5
4B8
100
AcDbEntity
  8
OBJECT
  6
CONTINUOUS
 62
               0
100
AcDbCircle
 10
629.0
 20
-232.5
 30
0.0
 40
1.5000000000002283
100
AcDbArc
 50
70.346133057383526
 51
70.346133911145486
  0
ARC
  5
4B9
100
AcDbEntity
  8
OBJECT
  6
CONTINUOUS
 62
               0
100
AcDbCircle
 10
629.0
 20
-232.5
 30
0.0
 40
1.5000000000002975
100
AcDbArc
 50
109.65382405806267
 51
250.34621906662261
  0
LINE
  5
4BA
100
AcDbEntity
  8
OBJECT
  6
CONTINUOUS
 62
               0
100
AcDbLine
 10
629.50450459549756
 20
-231.08738713260755
 30
0.0
 11
629.50450609912878
 21
-231.08738766961869
 31
0.0
  0
LINE
  5
4BB
100
AcDbEntity
  8
OBJECT
  6
CONTINUOUS
 62
               0
100
AcDbLine
 10
628.49549540450244
 20
-233.91261286739245
 30
0.0
 11
638.54017937580466
 21
-237.5
 31
0.0
  0
LINE
  5
4BC
100
AcDbEntity
  8
OBJECT
  6
CONTINUOUS
 62
               0
100
AcDbLine
 10
638.54017937580466
 20
-237.5
 30
0.0
 11
628.49549540450244
 21
-241.08738713260755
 31
0.0
  0
ARC
  5
4BD
100
AcDbEntity
  8
OBJECT
  6
CONTINUOUS
 62
               0
100
AcDbCircle
 10
629.0
 20
-242.5
 30
0.0
 40
1.5000000000002283
100
AcDbArc
 50
70.346133057383526
 51
70.346133911145486
  0
ARC
  5
4BE
100
AcDbEntity
  8
OBJECT
  6
CONTINUOUS
 62
               0
100
AcDbCircle
 10
629.0
 20
-242.5
 30
0.0
 40
1.5000000000002975
100
AcDbArc
 50
109.65382405806267
 51
250.34621906662261
  0
LINE
  5
4BF
100
AcDbEntity
  8
OBJECT
  6
CONTINUOUS
 62
               0
100
AcDbLine
 10
629.50450459549756
 20
-241.08738713260755
 30
0.0
 11
629.50450609912878
 21
-241.08738766961869
 31
0.0
  0
LINE
  5
4C0
100
AcDbEntity
  8
OBJECT
  6
CONTINUOUS
 62
               0
100
AcDbLine
 10
628.49549540450244
 20
-243.91261286739245
 30
0.0
 11
638.54017937580466
 21
-247.5
 31
0.0
  0
LINE
  5
4C1
100
AcDbEntity
  8
OBJECT
  6
CONTINUOUS
 62
               0
100
AcDbLine
 10
638.54017937580466
 20
-247.5
 30
0.0
 11
628.49549540450244
 21
-251.08738713260755
 31
0.0
  0
ARC
  5
4C2
100
AcDbEntity
  8
OBJECT
  6
CONTINUOUS
 62
               0
100
AcDbCircle
 10
629.0
 20
-252.5
 30
0.0
 40
1.5000000000002283
100
AcDbArc
 50
70.346133057383526
 51
70.346133911145486
  0
ARC
  5
4C3
100
AcDbEntity
  8
OBJECT
  6
CONTINUOUS
 62
               0
100
AcDbCircle
 10
629.0
 20
-252.5
 30
0.0
 40
1.5000000000002975
100
AcDbArc
 50
109.65382405806267
 51
250.34621906662261
  0
LINE
  5
4C4
100
AcDbEntity
  8
OBJECT
  6
CONTINUOUS
 62
               0
100
AcDbLine
 10
629.50450459549756
 20
-251.08738713260755
 30
0.0
 11
629.50450609912878
 21
-251.08738766961869
 31
0.0
  0
LINE
  5
4C5
100
AcDbEntity
  8
OBJECT
  6
CONTINUOUS
 62
               0
100
AcDbLine
 10
628.49549540450244
 20
-253.91261286739245
 30
0.0
 11
638.54017937580466
 21
-257.5
 31
0.0
  0
LINE
  5
4C6
100
AcDbEntity
  8
OBJECT
  6
CONTINUOUS
 62
               0
100
AcDbLine
 10
638.54017937580466
 20
-257.5
 30
0.0
 11
628.49549540450244
 21
-261.08738713260755
 31
0.0
  0
ARC
  5
4C7
100
AcDbEntity
  8
OBJECT
  6
CONTINUOUS
 62
               0
100
AcDbCircle
 10
629.0
 20
-262.5
 30
0.0
 40
1.5000000000002283
100
AcDbArc
 50
70.346133057383526
 51
70.346133911145486
  0
ARC
  5
4C8
100
AcDbEntity
  8
OBJECT
  6
CONTINUOUS
 62
               0
100
AcDbCircle
 10
629.0
 20
-262.5
 30
0.0
 40
1.5000000000002975
100
AcDbArc
 50
109.65382405806267
 51
250.34621906662261
  0
LINE
  5
4C9
100
AcDbEntity
  8
OBJECT
  6
CONTINUOUS
 62
               0
100
AcDbLine
 10
629.50450459549756
 20
-261.08738713260755
 30
0.0
 11
629.50450609912878
 21
-261.08738766961869
 31
0.0
  0
LINE
  5
4CA
100
AcDbEntity
  8
OBJECT
  6
CONTINUOUS
 62
               0
100
AcDbLine
 10
628.49549540450244
 20
-263.91261286739245
 30
0.0
 11
638.54017937580466
 21
-267.5
 31
0.0
  0
LINE
  5
4CB
100
AcDbEntity
  8
OBJECT
  6
CONTINUOUS
 62
               0
100
AcDbLine
 10
638.54017937580466
 20
-267.5
 30
0.0
 11
628.49549540450244
 21
-271.08738713260755
 31
0.0
  0
ARC
  5
4CC
100
AcDbEntity
  8
OBJECT
  6
CONTINUOUS
 62
               0
100
AcDbCircle
 10
629.0
 20
-272.5
 30
0.0
 40
1.5000000000002283
100
AcDbArc
 50
70.346133057383526
 51
70.346133911145486
  0
ARC
  5
4CD
100
AcDbEntity
  8
OBJECT
  6
CONTINUOUS
 62
               0
100
AcDbCircle
 10
629.0
 20
-272.5
 30
0.0
 40
1.5000000000002975
100
AcDbArc
 50
109.65382405806267
 51
250.34621906662261
  0
LINE
  5
4CE
100
AcDbEntity
  8
OBJECT
  6
CONTINUOUS
 62
               0
100
AcDbLine
 10
629.50450459549756
 20
-271.08738713260755
 30
0.0
 11
629.50450609912878
 21
-271.08738766961869
 31
0.0
  0
LINE
  5
4CF
100
AcDbEntity
  8
OBJECT
  6
CONTINUOUS
 62
               0
100
AcDbLine
 10
628.49549540450244
 20
-273.91261286739245
 30
0.0
 11
638.54017937580466
 21
-277.5
 31
0.0
  0
LINE
  5
4D0
100
AcDbEntity
  8
OBJECT
  6
CONTINUOUS
 62
               0
100
AcDbLine
 10
638.54017937580466
 20
-277.5
 30
0.0
 11
628.49549540450244
 21
-281.08738713260755
 31
0.0
  0
ARC
  5
4D1
100
AcDbEntity
  8
OBJECT
  6
CONTINUOUS
 62
               0
100
AcDbCircle
 10
629.0
 20
-282.5
 30
0.0
 40
1.5000000000002283
100
AcDbArc
 50
70.346133057383526
 51
70.346133911145486
  0
ARC
  5
4D2
100
AcDbEntity
  8
OBJECT
  6
CONTINUOUS
 62
               0
100
AcDbCircle
 10
629.0
 20
-282.5
 30
0.0
 40
1.5000000000002975
100
AcDbArc
 50
109.65382405806267
 51
250.34621906662261
  0
LINE
  5
4D3
100
AcDbEntity
  8
OBJECT
  6
CONTINUOUS
 62
               0
100
AcDbLine
 10
629.50450459549756
 20
-281.08738713260755
 30
0.0
 11
629.50450609912878
 21
-281.08738766961869
 31
0.0
  0
LINE
  5
4D4
100
AcDbEntity
  8
OBJECT
  6
CONTINUOUS
 62
               0
100
AcDbLine
 10
628.49549540450244
 20
-283.91261286739245
 30
0.0
 11
638.54017937580466
 21
-287.5
 31
0.0
  0
LINE
  5
4D5
100
AcDbEntity
  8
OBJECT
  6
CONTINUOUS
 62
               0
100
AcDbLine
 10
638.54017937580466
 20
-287.5
 30
0.0
 11
628.49549540450244
 21
-291.08738713260755
 31
0.0
  0
ARC
  5
4D6
100
AcDbEntity
  8
OBJECT
  6
CONTINUOUS
 62
               0
100
AcDbCircle
 10
629.0
 20
-292.5
 30
0.0
 40
1.5000000000002283
100
AcDbArc
 50
70.346133057383526
 51
70.346133911145486
  0
ARC
  5
4D7
100
AcDbEntity
  8
OBJECT
  6
CONTINUOUS
 62
               0
100
AcDbCircle
 10
629.0
 20
-292.5
 30
0.0
 40
1.5000000000002975
100
AcDbArc
 50
109.65382405806267
 51
250.34621906662261
  0
LINE
  5
4D8
100
AcDbEntity
  8
OBJECT
  6
CONTINUOUS
 62
               0
100
AcDbLine
 10
629.50450459549756
 20
-291.08738713260755
 30
0.0
 11
629.50450609912878
 21
-291.08738766961869
 31
0.0
  0
LINE
  5
4D9
100
AcDbEntity
  8
OBJECT
  6
CONTINUOUS
 62
               0
100
AcDbLine
 10
628.49549540450244
 20
-293.91261286739245
 30
0.0
 11
638.54017937580466
 21
-297.5
 31
0.0
  0
LINE
  5
4DA
100
AcDbEntity
  8
OBJECT
  6
CONTINUOUS
 62
               0
100
AcDbLine
 10
638.54017937580466
 20
-297.5
 30
0.0
 11
628.49549540450244
 21
-301.08738713260755
 31
0.0
  0
ARC
  5
4DB
100
AcDbEntity
  8
OBJECT
  6
CONTINUOUS
 62
               0
100
AcDbCircle
 10
629.0
 20
-302.5
 30
0.0
 40
1.5000000000002283
100
AcDbArc
 50
70.346133057383526
 51
70.346133911145486
  0
ARC
  5
4DC
100
AcDbEntity
  8
OBJECT
  6
CONTINUOUS
 62
               0
100
AcDbCircle
 10
629.0
 20
-302.5
 30
0.0
 40
1.5000000000002975
100
AcDbArc
 50
109.65382405806267
 51
250.34621906662261
  0
LINE
  5
4DD
100
AcDbEntity
  8
OBJECT
  6
CONTINUOUS
 62
               0
100
AcDbLine
 10
629.50450459549756
 20
-301.08738713260755
 30
0.0
 11
629.50450609912878
 21
-301.08738766961869
 31
0.0
  0
LINE
  5
4DE
100
AcDbEntity
  8
OBJECT
  6
CONTINUOUS
 62
               0
100
AcDbLine
 10
628.49549540450244
 20
-303.91261286739245
 30
0.0
 11
638.54017937580466
 21
-307.5
 31
0.0
  0
LINE
  5
4DF
100
AcDbEntity
  8
OBJECT
  6
CONTINUOUS
 62
               0
100
AcDbLine
 10
638.54017937580466
 20
-307.5
 30
0.0
 11
628.49549540450244
 21
-311.08738713260755
 31
0.0
  0
ARC
  5
4E0
100
AcDbEntity
  8
OBJECT
  6
CONTINUOUS
 62
               0
100
AcDbCircle
 10
629.0
 20
-312.5
 30
0.0
 40
1.5000000000002283
100
AcDbArc
 50
70.346133057383526
 51
70.346133911145486
  0
ARC
  5
4E1
100
AcDbEntity
  8
OBJECT
  6
CONTINUOUS
 62
               0
100
AcDbCircle
 10
629.0
 20
-312.5
 30
0.0
 40
1.5000000000002975
100
AcDbArc
 50
109.65382405806267
 51
250.34621906662261
  0
LINE
  5
4E2
100
AcDbEntity
  8
OBJECT
  6
CONTINUOUS
 62
               0
100
AcDbLine
 10
629.50450459549756
 20
-311.08738713260755
 30
0.0
 11
629.50450609912878
 21
-311.08738766961869
 31
0.0
  0
LINE
  5
4E3
100
AcDbEntity
  8
OBJECT
  6
CONTINUOUS
 62
               0
100
AcDbLine
 10
628.49549540450244
 20
-313.91261286739245
 30
0.0
 11
638.54017937580466
 21
-317.5
 31
0.0
  0
LINE
  5
4E4
100
AcDbEntity
  8
OBJECT
  6
CONTINUOUS
 62
               0
100
AcDbLine
 10
638.54017937580466
 20
-317.5
 30
0.0
 11
628.49549540450244
 21
-321.08738713260755
 31
0.0
  0
ARC
  5
4E5
100
AcDbEntity
  8
OBJECT
  6
CONTINUOUS
 62
               0
100
AcDbCircle
 10
629.0
 20
-322.5
 30
0.0
 40
1.5000000000002283
100
AcDbArc
 50
70.346133057383526
 51
70.346133911145486
  0
ARC
  5
4E6
100
AcDbEntity
  8
OBJECT
  6
CONTINUOUS
 62
               0
100
AcDbCircle
 10
629.0
 20
-322.5
 30
0.0
 40
1.5000000000002975
100
AcDbArc
 50
109.65382405806267
 51
250.34621906662261
  0
LINE
  5
4E7
100
AcDbEntity
  8
OBJECT
  6
CONTINUOUS
 62
               0
100
AcDbLine
 10
629.50450459549756
 20
-321.08738713260755
 30
0.0
 11
629.50450609912878
 21
-321.08738766961869
 31
0.0
  0
LINE
  5
4E8
100
AcDbEntity
  8
OBJECT
  6
CONTINUOUS
 62
               0
100
AcDbLine
 10
628.49549540450244
 20
-323.91261286739245
 30
0.0
 11
635.12626344657656
 21
-326.28074431099003
 31
0.0
  0
ARC
  5
4E9
100
AcDbEntity
  8
OBJECT
  6
CONTINUOUS
 62
               0
100
AcDbCircle
 10
629.0
 20
-332.5
 30
0.0
 40
1.5000000000002283
100
AcDbArc
 50
70.346133057383526
 51
70.346133911145486
  0
LINE
  5
4EA
100
AcDbEntity
  8
OBJECT
  6
CONTINUOUS
 62
               0
100
AcDbLine
 10
629.50450459549756
 20
-331.08738713260755
 30
0.0
 11
629.50450609912878
 21
-331.08738766961869
 31
0.0
  0
LINE
  5
4EB
100
AcDbEntity
  8
OBJECT
  6
CONTINUOUS
 62
               0
100
AcDbLine
 10
633.45982062419534
 20
-192.5
 30
0.0
 11
643.50450459549756
 21
-196.08738713260755
 31
0.0
  0
LINE
  5
4EC
100
AcDbEntity
  8
OBJECT
  6
CONTINUOUS
 62
               0
100
AcDbLine
 10
643.50450459549756
 20
-198.91261286739245
 30
0.0
 11
633.45982062419534
 21
-202.5
 31
0.0
  0
ARC
  5
4ED
100
AcDbEntity
  8
OBJECT
  6
CONTINUOUS
 62
               0
100
AcDbCircle
 10
643.0
 20
-197.5
 30
0.0
 40
1.5000000000002975
100
AcDbArc
 50
289.6538240580627
 51
70.346175941937361
  0
LINE
  5
4EE
100
AcDbEntity
  8
OBJECT
  6
CONTINUOUS
 62
               0
100
AcDbLine
 10
633.45982062419534
 20
-202.5
 30
0.0
 11
643.50450459549756
 21
-206.08738713260755
 31
0.0
  0
LINE
  5
4EF
100
AcDbEntity
  8
OBJECT
  6
CONTINUOUS
 62
               0
100
AcDbLine
 10
643.50450459549756
 20
-208.91261286739245
 30
0.0
 11
633.45982062419534
 21
-212.5
 31
0.0
  0
ARC
  5
4F0
100
AcDbEntity
  8
OBJECT
  6
CONTINUOUS
 62
               0
100
AcDbCircle
 10
643.0
 20
-207.5
 30
0.0
 40
1.5000000000002975
100
AcDbArc
 50
289.6538240580627
 51
70.346175941937361
  0
LINE
  5
4F1
100
AcDbEntity
  8
OBJECT
  6
CONTINUOUS
 62
               0
100
AcDbLine
 10
633.45982062419534
 20
-212.5
 30
0.0
 11
643.50450459549756
 21
-216.08738713260755
 31
0.0
  0
LINE
  5
4F2
100
AcDbEntity
  8
OBJECT
  6
CONTINUOUS
 62
               0
100
AcDbLine
 10
643.50450459549756
 20
-218.91261286739245
 30
0.0
 11
633.45982062419534
 21
-222.5
 31
0.0
  0
ARC
  5
4F3
100
AcDbEntity
  8
OBJECT
  6
CONTINUOUS
 62
               0
100
AcDbCircle
 10
643.0
 20
-217.5
 30
0.0
 40
1.5000000000002975
100
AcDbArc
 50
289.6538240580627
 51
70.346175941937361
  0
LINE
  5
4F4
100
AcDbEntity
  8
OBJECT
  6
CONTINUOUS
 62
               0
100
AcDbLine
 10
633.45982062419534
 20
-222.5
 30
0.0
 11
643.50450459549756
 21
-226.08738713260755
 31
0.0
  0
LINE
  5
4F5
100
AcDbEntity
  8
OBJECT
  6
CONTINUOUS
 62
               0
100
AcDbLine
 10
643.50450459549756
 20
-228.91261286739245
 30
0.0
 11
633.45982062419534
 21
-232.5
 31
0.0
  0
ARC
  5
4F6
100
AcDbEntity
  8
OBJECT
  6
CONTINUOUS
 62
               0
100
AcDbCircle
 10
643.0
 20
-227.5
 30
0.0
 40
1.5000000000002975
100
AcDbArc
 50
289.6538240580627
 51
70.346175941937361
  0
LINE
  5
4F7
100
AcDbEntity
  8
OBJECT
  6
CONTINUOUS
 62
               0
100
AcDbLine
 10
633.45982062419534
 20
-232.5
 30
0.0
 11
643.50450459549756
 21
-236.08738713260755
 31
0.0
  0
LINE
  5
4F8
100
AcDbEntity
  8
OBJECT
  6
CONTINUOUS
 62
               0
100
AcDbLine
 10
643.50450459549756
 20
-238.91261286739245
 30
0.0
 11
633.45982062419534
 21
-242.5
 31
0.0
  0
ARC
  5
4F9
100
AcDbEntity
  8
OBJECT
  6
CONTINUOUS
 62
               0
100
AcDbCircle
 10
643.0
 20
-237.5
 30
0.0
 40
1.5000000000002975
100
AcDbArc
 50
289.6538240580627
 51
70.346175941937361
  0
LINE
  5
4FA
100
AcDbEntity
  8
OBJECT
  6
CONTINUOUS
 62
               0
100
AcDbLine
 10
633.45982062419534
 20
-242.5
 30
0.0
 11
643.50450459549756
 21
-246.08738713260755
 31
0.0
  0
LINE
  5
4FB
100
AcDbEntity
  8
OBJECT
  6
CONTINUOUS
 62
               0
100
AcDbLine
 10
643.50450459549756
 20
-248.91261286739245
 30
0.0
 11
633.45982062419534
 21
-252.5
 31
0.0
  0
ARC
  5
4FC
100
AcDbEntity
  8
OBJECT
  6
CONTINUOUS
 62
               0
100
AcDbCircle
 10
643.0
 20
-247.5
 30
0.0
 40
1.5000000000002975
100
AcDbArc
 50
289.6538240580627
 51
70.346175941937361
  0
LINE
  5
4FD
100
AcDbEntity
  8
OBJECT
  6
CONTINUOUS
 62
               0
100
AcDbLine
 10
633.45982062419534
 20
-252.5
 30
0.0
 11
643.50450459549756
 21
-256.08738713260755
 31
0.0
  0
LINE
  5
4FE
100
AcDbEntity
  8
OBJECT
  6
CONTINUOUS
 62
               0
100
AcDbLine
 10
643.50450459549756
 20
-258.91261286739245
 30
0.0
 11
633.45982062419534
 21
-262.5
 31
0.0
  0
ARC
  5
4FF
100
AcDbEntity
  8
OBJECT
  6
CONTINUOUS
 62
               0
100
AcDbCircle
 10
643.0
 20
-257.5
 30
0.0
 40
1.5000000000002975
100
AcDbArc
 50
289.6538240580627
 51
70.346175941937361
  0
LINE
  5
500
100
AcDbEntity
  8
OBJECT
  6
CONTINUOUS
 62
               0
100
AcDbLine
 10
633.45982062419534
 20
-262.5
 30
0.0
 11
643.50450459549756
 21
-266.08738713260755
 31
0.0
  0
LINE
  5
501
100
AcDbEntity
  8
OBJECT
  6
CONTINUOUS
 62
               0
100
AcDbLine
 10
643.50450459549756
 20
-268.91261286739245
 30
0.0
 11
633.45982062419534
 21
-272.5
 31
0.0
  0
ARC
  5
502
100
AcDbEntity
  8
OBJECT
  6
CONTINUOUS
 62
               0
100
AcDbCircle
 10
643.0
 20
-267.5
 30
0.0
 40
1.5000000000002975
100
AcDbArc
 50
289.6538240580627
 51
70.346175941937361
  0
LINE
  5
503
100
AcDbEntity
  8
OBJECT
  6
CONTINUOUS
 62
               0
100
AcDbLine
 10
633.45982062419534
 20
-272.5
 30
0.0
 11
643.50450459549756
 21
-276.08738713260755
 31
0.0
  0
LINE
  5
504
100
AcDbEntity
  8
OBJECT
  6
CONTINUOUS
 62
               0
100
AcDbLine
 10
643.50450459549756
 20
-278.91261286739245
 30
0.0
 11
633.45982062419534
 21
-282.5
 31
0.0
  0
ARC
  5
505
100
AcDbEntity
  8
OBJECT
  6
CONTINUOUS
 62
               0
100
AcDbCircle
 10
643.0
 20
-277.5
 30
0.0
 40
1.5000000000002975
100
AcDbArc
 50
289.6538240580627
 51
70.346175941937361
  0
LINE
  5
506
100
AcDbEntity
  8
OBJECT
  6
CONTINUOUS
 62
               0
100
AcDbLine
 10
633.45982062419534
 20
-282.5
 30
0.0
 11
643.50450459549756
 21
-286.08738713260755
 31
0.0
  0
LINE
  5
507
100
AcDbEntity
  8
OBJECT
  6
CONTINUOUS
 62
               0
100
AcDbLine
 10
643.50450459549756
 20
-288.91261286739245
 30
0.0
 11
633.45982062419534
 21
-292.5
 31
0.0
  0
ARC
  5
508
100
AcDbEntity
  8
OBJECT
  6
CONTINUOUS
 62
               0
100
AcDbCircle
 10
643.0
 20
-287.5
 30
0.0
 40
1.5000000000002975
100
AcDbArc
 50
289.6538240580627
 51
70.346175941937361
  0
LINE
  5
509
100
AcDbEntity
  8
OBJECT
  6
CONTINUOUS
 62
               0
100
AcDbLine
 10
633.45982062419534
 20
-292.5
 30
0.0
 11
643.50450459549756
 21
-296.08738713260755
 31
0.0
  0
LINE
  5
50A
100
AcDbEntity
  8
OBJECT
  6
CONTINUOUS
 62
               0
100
AcDbLine
 10
643.50450459549756
 20
-298.91261286739245
 30
0.0
 11
633.45982062419534
 21
-302.5
 31
0.0
  0
ARC
  5
50B
100
AcDbEntity
  8
OBJECT
  6
CONTINUOUS
 62
               0
100
AcDbCircle
 10
643.0
 20
-297.5
 30
0.0
 40
1.5000000000002975
100
AcDbArc
 50
289.6538240580627
 51
70.346175941937361
  0
LINE
  5
50C
100
AcDbEntity
  8
OBJECT
  6
CONTINUOUS
 62
               0
100
AcDbLine
 10
633.45982062419534
 20
-302.5
 30
0.0
 11
643.50450459549756
 21
-306.08738713260755
 31
0.0
  0
LINE
  5
50D
100
AcDbEntity
  8
OBJECT
  6
CONTINUOUS
 62
               0
100
AcDbLine
 10
643.50450459549756
 20
-308.91261286739245
 30
0.0
 11
633.45982062419534
 21
-312.5
 31
0.0
  0
ARC
  5
50E
100
AcDbEntity
  8
OBJECT
  6
CONTINUOUS
 62
               0
100
AcDbCircle
 10
643.0
 20
-307.5
 30
0.0
 40
1.5000000000002975
100
AcDbArc
 50
289.6538240580627
 51
70.346175941937361
  0
LINE
  5
50F
100
AcDbEntity
  8
OBJECT
  6
CONTINUOUS
 62
               0
100
AcDbLine
 10
633.45982062419534
 20
-312.5
 30
0.0
 11
643.50450459549756
 21
-316.08738713260755
 31
0.0
  0
LINE
  5
510
100
AcDbEntity
  8
OBJECT
  6
CONTINUOUS
 62
               0
100
AcDbLine
 10
643.50450459549756
 20
-318.91261286739245
 30
0.0
 11
633.45982062419534
 21
-322.5
 31
0.0
  0
ARC
  5
511
100
AcDbEntity
  8
OBJECT
  6
CONTINUOUS
 62
               0
100
AcDbCircle
 10
643.0
 20
-317.5
 30
0.0
 40
1.5000000000002975
100
AcDbArc
 50
289.6538240580627
 51
70.346175941937361
  0
LINE
  5
512
100
AcDbEntity
  8
OBJECT
  6
CONTINUOUS
 62
               0
100
AcDbLine
 10
633.45982062419534
 20
-322.5
 30
0.0
 11
643.50450459549756
 21
-326.08738713260755
 31
0.0
  0
LINE
  5
513
100
AcDbEntity
  8
OBJECT
  6
CONTINUOUS
 62
               0
100
AcDbLine
 10
634.5
 20
-341.5
 30
0.0
 11
634.5
 21
-327.5
 31
0.0
  0
LINE
  5
514
100
AcDbEntity
  8
OBJECT
  6
CONTINUOUS
 62
               0
100
AcDbLine
 10
637.5
 20
-341.5
 30
0.0
 11
637.5
 21
-329.0
 31
0.0
  0
LINE
  5
515
100
AcDbEntity
  8
OBJECT
  6
CONTINUOUS
 62
               0
100
AcDbLine
 10
636.0
 20
-329.0
 30
0.0
 11
643.0
 21
-329.0
 31
0.0
  0
LINE
  5
516
100
AcDbEntity
  8
OBJECT
  6
CONTINUOUS
 62
               0
100
AcDbLine
 10
636.0
 20
-326.0
 30
0.0
 11
643.0
 21
-326.0
 31
0.0
  0
ARC
  5
517
100
AcDbEntity
  8
OBJECT
  6
CONTINUOUS
 62
               0
100
AcDbCircle
 10
643.0
 20
-327.5
 30
0.0
 40
1.5
100
AcDbArc
 50
270.0
 51
90.00004579247053
  0
ARC
  5
518
100
AcDbEntity
  8
OBJECT
  6
CONTINUOUS
 62
               0
100
AcDbCircle
 10
636.0
 20
-327.5
 30
0.0
 40
1.5
100
AcDbArc
 50
90.0
 51
270.0
  0
ARC
  5
519
100
AcDbEntity
  8
OBJECT
  6
CONTINUOUS
 62
               0
100
AcDbCircle
 10
636.0
 20
-341.5
 30
0.0
 40
1.5
100
AcDbArc
 50
180.0
 51
0.0
  0
LINE
  5
51A
100
AcDbEntity
  8
OBJECT
  6
CONTINUOUS
 62
               0
100
AcDbLine
 10
637.5
 20
-334.5
 30
0.0
 11
634.5
 21
-334.5
 31
0.0
  0
ENDBLK
  5
51B
100
AcDbEntity
  8
OBJECT
100
AcDbBlockEnd
  0
BLOCK
  5
51C
100
AcDbEntity
  8
OUTLINE
100
AcDbBlockBegin
  2
*U30
 70
               1
 10
0.0
 20
0.0
 30
0.0
  3
*U30
  1

  0
LINE
  5
51D
100
AcDbEntity
  8
OUTLINE
  6
STYLE_20
 62
               0
100
AcDbLine
 10
-272.0
 20
362.0
 30
0.0
 11
-272.0
 21
545.0
 31
0.0
  0
LINE
  5
51E
100
AcDbEntity
  8
OUTLINE
  6
STYLE_20
 62
               0
100
AcDbLine
 10
-285.0
 20
605.0
 30
0.0
 11
-285.0
 21
555.0
 31
0.0
  0
LINE
  5
51F
100
AcDbEntity
  8
OUTLINE
  6
STYLE_20
 62
               0
100
AcDbLine
 10
-598.0
 20
798.0
 30
0.0
 11
-272.0
 21
798.0
 31
0.0
  0
LINE
  5
520
100
AcDbEntity
  8
OUTLINE
  6
STYLE_20
 62
               0
100
AcDbLine
 10
-598.0
 20
362.0
 30
0.0
 11
-272.0
 21
362.0
 31
0.0
  0
LINE
  5
521
100
AcDbEntity
  8
OUTLINE
  6
STYLE_20
 62
               0
100
AcDbLine
 10
-598.0
 20
798.0
 30
0.0
 11
-598.0
 21
362.0
 31
0.0
  0
POLYLINE
  5
522
100
AcDbEntity
  8
OUTLINE
  6
STYLE_20
 62
               0
100
AcDb2dPolyline
 66
               1
 10
0.0
 20
0.0
 30
0.0
 70
               1
 75
               5
  0
VERTEX
  5
523
100
AcDbEntity
  8
OUTLINE
  6
STYLE_20
 62
               0
100
AcDbVertex
100
AcDb2dVertex
 10
-298.0
 20
615.0
 30
0.0
  0
VERTEX
  5
524
100
AcDbEntity
  8
OUTLINE
  6
STYLE_20
 62
               0
100
AcDbVertex
100
AcDb2dVertex
 10
-298.0
 20
605.0
 30
0.0
  0
VERTEX
  5
525
100
AcDbEntity
  8
OUTLINE
  6
STYLE_20
 62
               0
100
AcDbVertex
100
AcDb2dVertex
 10
-277.0
 20
605.0
 30
0.0
  0
VERTEX
  5
526
100
AcDbEntity
  8
OUTLINE
  6
STYLE_20
 62
               0
100
AcDbVertex
100
AcDb2dVertex
 10
-277.0
 20
555.0
 30
0.0
  0
VERTEX
  5
527
100
AcDbEntity
  8
OUTLINE
  6
STYLE_20
 62
               0
100
AcDbVertex
100
AcDb2dVertex
 10
-298.0
 20
555.0
 30
0.0
  0
VERTEX
  5
528
100
AcDbEntity
  8
OUTLINE
  6
STYLE_20
 62
               0
100
AcDbVertex
100
AcDb2dVertex
 10
-298.0
 20
545.0
 30
0.0
  0
VERTEX
  5
529
100
AcDbEntity
  8
OUTLINE
  6
STYLE_20
 62
               0
100
AcDbVertex
100
AcDb2dVertex
 10
-268.0
 20
545.0
 30
0.0
  0
VERTEX
  5
52A
100
AcDbEntity
  8
OUTLINE
  6
STYLE_20
 62
               0
100
AcDbVertex
100
AcDb2dVertex
 10
-268.0
 20
615.0
 30
0.0
  0
SEQEND
  5
52B
100
AcDbEntity
  8
OUTLINE
  6
STYLE_20
 62
               0
  0
LINE
  5
52C
100
AcDbEntity
  8
OUTLINE
  6
STYLE_20
 62
               0
100
AcDbLine
 10
-272.0
 20
615.0
 30
0.0
 11
-272.0
 21
798.0
 31
0.0
  0
ENDBLK
  5
52D
100
AcDbEntity
  8
OUTLINE
100
AcDbBlockEnd
  0
BLOCK
  5
52E
100
AcDbEntity
  8
HIDDEN
100
AcDbBlockBegin
  2
*U31
 70
               1
 10
0.0
 20
0.0
 30
0.0
  3
*U31
  1

  0
LINE
  5
52F
100
AcDbEntity
  8
HIDDEN
 62
               0
100
AcDbLine
 10
-545.0
 20
-810.0
 30
0.0
 11
-545.0
 21
-730.0
 31
0.0
  0
LINE
  5
530
100
AcDbEntity
  8
HIDDEN
 62
               0
100
AcDbLine
 10
-325.0
 20
-730.0
 30
0.0
 11
-325.0
 21
-810.0
 31
0.0
  0
LINE
  5
531
100
AcDbEntity
  8
HIDDEN
 62
               0
100
AcDbLine
 10
-545.0
 20
-730.0
 30
0.0
 11
-325.0
 21
-730.0
 31
0.0
  0
ENDBLK
  5
532
100
AcDbEntity
  8
HIDDEN
100
AcDbBlockEnd
  0
ENDSEC
  0
SECTION
  2
ENTITIES
  0
LINE
  5
533
100
AcDbEntity
  8
FRAME
  6
CONTINUOUS
100
AcDbLine
 10
-2025.3999999999999
 20
-1388.9999999999998
 30
0.0
 11
-2025.3999999999999
 21
1330.9999999999998
 31
0.0
  0
LINE
  5
534
100
AcDbEntity
  8
FRAME
  6
CONTINUOUS
100
AcDbLine
 10
2024.5999999999999
 20
-1388.9999999999998
 30
0.0
 11
-2025.3999999999999
 21
-1388.9999999999998
 31
0.0
  0
LINE
  5
535
100
AcDbEntity
  8
FRAME
  6
CONTINUOUS
100
AcDbLine
 10
2024.5999999999999
 20
1330.9999999999998
 30
0.0
 11
2024.5999999999999
 21
-1388.9999999999998
 31
0.0
  0
LINE
  5
536
100
AcDbEntity
  8
FRAME
  6
CONTINUOUS
100
AcDbLine
 10
-2025.3999999999999
 20
1330.9999999999998
 30
0.0
 11
2024.5999999999999
 21
1330.9999999999998
 31
0.0
  0
LINE
  5
537
100
AcDbEntity
  8
OBJECT
  6
CONTINUOUS
100
AcDbLine
 10
1264.3599999999999
 20
-1388.9999999999998
 30
0.0
 11
1264.3599999999999
 21
-1249.0
 31
0.0
  0
LINE
  5
538
100
AcDbEntity
  8
OBJECT
  6
CONTINUOUS
100
AcDbLine
 10
1044.3599999999999
 20
-1388.9999999999998
 30
0.0
 11
1044.3599999999999
 21
-1249.0
 31
0.0
  0
LINE
  5
539
100
AcDbEntity
  8
OBJECT
  6
CONTINUOUS
100
AcDbLine
 10
444.35999999999996
 20
-1388.9999999999998
 30
0.0
 11
444.35999999999996
 21
-1249.0
 31
0.0
  0
LINE
  5
53A
100
AcDbEntity
  8
OBJECT
  6
CONTINUOUS
100
AcDbLine
 10
-675.39999999999998
 20
-1388.9999999999998
 30
0.0
 11
-675.39999999999998
 21
-1249.0
 31
0.0
  0
MTEXT
  5
53B
100
AcDbEntity
  8
DIMENTION
100
AcDbMText
 10
-650.63999999999999
 20
-1254.1299999999999
 30
0.0
 40
28.2224
 41
109.36099999999999
 71
               1
 72
               1
  1
品　名
  7
________
  0
MTEXT
  5
53C
100
AcDbEntity
  8
DIMENTION
100
AcDbMText
 10
464.35999999999996
 20
-1259.1299999999999
 30
0.0
 40
28.2224
 41
0.0
 71
               1
 72
               1
  1
形　式
  7
________
  0
MTEXT
  5
53D
100
AcDbEntity
  8
DIMENTION
100
AcDbMText
 10
1069.3599999999999
 20
-1259.1299999999999
 30
0.0
 40
28.2224
 41
0.0
 71
               1
 72
               1
  1
尺　度
  7
________
  0
MTEXT
  5
53E
100
AcDbEntity
  8
DIMENTION
100
AcDbMText
 10
1289.3599999999999
 20
-1259.1299999999999
 30
0.0
 40
28.2224
 41
0.0
 71
               1
 72
               1
  1
図　番
  7
________
  0
LINE
  5
53F
100
AcDbEntity
  8
OBJECT
  6
CONTINUOUS
100
AcDbLine
 10
-1095.3999999999999
 20
-1388.9999999999998
 30
0.0
 11
-1095.3999999999999
 21
-1249.0
 31
0.0
  0
MTEXT
  5
540
100
AcDbEntity
  8
TEXT
100
AcDbMText
 10
1115.3119999999999
 20
-1314.0139999999999
 30
0.0
 40
39.511200000000002
 41
0.0
 71
               1
 72
               1
  1
1/10
  7
________
  0
LINE
  5
541
100
AcDbEntity
  8
FRAME
  6
CONTINUOUS
100
AcDbLine
 10
-2025.3999999999999
 20
-1249.0
 30
0.0
 11
2024.5999999999999
 21
-1249.0
 31
0.0
  0
MTEXT
  5
542
100
AcDbEntity
  8
DIMENTION
100
AcDbMText
 10
-1085.6399999999999
 20
-1257.1088
 30
0.0
 40
28.2224
 41
0.0
 71
               1
 72
               1
  1
検  図
  7
________
  0
MTEXT
  5
543
100
AcDbEntity
  8
DIMENTION
100
AcDbMText
 10
-1085.6399999999999
 20
-1302.1899999999998
 30
0.0
 40
28.2224
 41
0.0
 71
               1
 72
               1
  1
担  当
  7
________
  0
MTEXT
  5
544
100
AcDbEntity
  8
DIMENTION
100
AcDbMText
 10
-1085.6399999999999
 20
-1347.0599999999999
 30
0.0
 40
28.2224
 41
0.0
 71
               1
 72
               1
  1
年月日
  7
________
  0
LINE
  5
545
100
AcDbEntity
  8
OBJECT
  6
CONTINUOUS
100
AcDbLine
 10
-1095.3999999999999
 20
-1297.9399999999998
 30
0.0
 11
-675.39999999999998
 21
-1297.9399999999998
 31
0.0
  0
LINE
  5
546
100
AcDbEntity
  8
OBJECT
  6
CONTINUOUS
100
AcDbLine
 10
-1095.3999999999999
 20
-1342.3299999999999
 30
0.0
 11
-675.39999999999998
 21
-1342.3299999999999
 31
0.0
  0
MTEXT
  5
547
100
AcDbEntity
  8
TEXT
100
AcDbMText
 10
-44.165000000000077
 20
-1315.0347999999999
 30
0.0
 40
39.511200000000002
 41
0.0
 71
               1
 72
               1
  1
食器ディスペンサー
  7
________
  0
MTEXT
  5
548
100
AcDbEntity
  8
TEXT
100
AcDbMText
 10
-930.0
 20
-1350.0
 30
0.0
 40
28.222222222222225
 41
0.0
 71
               1
 72
               1
  1
2019.09.04
  7
________
  0
MTEXT
  5
549
100
AcDbEntity
  8
TEXT
100
AcDbMText
 10
-930.0
 20
-1302.0
 30
0.0
 40
28.222222222222225
 41
0.0
 71
               1
 72
               1
  1
月川
  7
________
  0
MTEXT
  5
54A
100
AcDbEntity
  8
TEXT
100
AcDbMText
 10
-930.0
 20
-1258.0
 30
0.0
 40
28.222222222222225
 41
0.0
 71
               1
 72
               1
  1
大谷
  7
________
  0
MTEXT
  5
54B
100
AcDbEntity
  8
TEXT
100
AcDbMText
 10
744.36000000000013
 20
-1339.7293
 30
0.0
 40
50.800000000000004
 41
0.0
 71
               5
 72
               1
  1
ST 3041 H
  7
________
  0
MTEXT
  5
54C
100
AcDbEntity
  8
TEXT
100
AcDbMText
 10
1429.9999999999995
 20
-1270.0
 30
0.0
 40
79.02222222222224
 41
0.0
 71
               1
 72
               1
  1
A330-150A
  7
ARIAL
  0
INSERT
  5
54D
100
AcDbEntity
  8
FRAME
100
AcDbBlockReference
  2
*U6
 10
0.0
 20
19.999999999999996
 30
0.0
  0
LINE
  5
54E
100
AcDbEntity
  8
DIMENTION
  6
CONTINUOUS
100
AcDbLine
 10
1701.0
 20
-749.75
 30
0.0
 11
1507.7499999999998
 21
-970.0
 31
0.0
  0
LINE
  5
54F
100
AcDbEntity
  8
DIMENTION
  6
CONTINUOUS
100
AcDbLine
 10
1701.0
 20
-749.75
 30
0.0
 11
1690.6605089996865
 21
-770.04239365879107
 31
0.0
  0
LINE
  5
550
100
AcDbEntity
  8
DIMENTION
  6
CONTINUOUS
100
AcDbLine
 10
1701.0
 20
-749.75
 30
0.0
 11
1681.8995413021325
 21
-762.15398291195061
 31
0.0
  0
LINE
  5
551
100
AcDbEntity
  8
DIMENTION
  6
CONTINUOUS
100
AcDbLine
 10
1507.7499999999998
 20
-970.0
 30
0.0
 11
1304.7499999999998
 21
-970.0
 31
0.0
  0
MTEXT
  5
552
100
AcDbEntity
  8
DIMENTION
100
AcDbMText
 10
1304.7499999999998
 20
-925.00000000000045
 30
0.0
 40
33.866666666666667
 41
0.0
 71
               1
 72
               1
  1
テーブル面
  7
________
  0
LINE
  5
553
100
AcDbEntity
  8
OBJECT
  6
CONTINUOUS
100
AcDbLine
 10
1186.5355339059333
 20
-277.0
 30
0.0
 11
1551.4644660940667
 21
-277.0
 31
0.0
  0
LINE
  5
554
100
AcDbEntity
  8
CENTER
  6
STYLE_03
100
AcDbLine
 10
1747.0
 20
-500.0
 30
0.0
 11
1147.0
 21
-500.0
 31
0.0
  0
LINE
  5
555
100
AcDbEntity
  8
OBJECT
  6
CONTINUOUS
100
AcDbLine
 10
1186.5355339059333
 20
-723.0
 30
0.0
 11
1551.4644660940667
 21
-723.0
 31
0.0
  0
LINE
  5
556
100
AcDbEntity
  8
OBJECT
  6
CONTINUOUS
100
AcDbLine
 10
1183.0
 20
-280.53553390593243
 30
0.0
 11
1177.12132034356
 21
-274.65685424949243
 31
0.0
  0
LINE
  5
557
100
AcDbEntity
  8
OBJECT
  6
CONTINUOUS
100
AcDbLine
 10
1186.5355339059333
 20
-277.0
 30
0.0
 11
1180.6568542494933
 21
-271.12132034355955
 31
0.0
  0
ARC
  5
558
100
AcDbEntity
  8
OBJECT
  6
CONTINUOUS
100
AcDbCircle
 10
1182.7781745930515
 20
-269.0
 30
0.0
 40
2.9999999999988987
100
AcDbArc
 50
225.00000000001842
 51
270.0
  0
ARC
  5
559
100
AcDbEntity
  8
OBJECT
  6
CONTINUOUS
100
AcDbCircle
 10
1175.0
 20
-276.77817459305197
 30
0.0
 40
3.0
100
AcDbArc
 50
0.0
 51
44.999999999993861
  0
LINE
  5
55A
100
AcDbEntity
  8
OBJECT
  6
CONTINUOUS
100
AcDbLine
 10
1177.12132034356
 20
-274.65685424949243
 30
0.0
 11
1180.6568542494933
 21
-271.12132034355955
 31
0.0
  0
LINE
  5
55B
100
AcDbEntity
  8
OBJECT
  6
CONTINUOUS
100
AcDbLine
 10
1701.0
 20
-228.5
 30
0.0
 11
1701.0
 21
-272.0
 31
0.0
  0
LINE
  5
55C
100
AcDbEntity
  8
HIDDEN
  6
STYLE_04
100
AcDbLine
 10
1701.0
 20
-277.0
 30
0.0
 11
1701.0
 21
-723.0
 31
0.0
  0
LINE
  5
55D
100
AcDbEntity
  8
OBJECT
  6
CONTINUOUS
100
AcDbLine
 10
1701.0
 20
-728.0
 30
0.0
 11
1701.0
 21
-771.5
 31
0.0
  0
LINE
  5
55E
100
AcDbEntity
  8
OBJECT
  6
CONTINUOUS
100
AcDbLine
 10
1691.0
 20
-287.0
 30
0.0
 11
1691.0
 21
-713.0
 31
0.0
  0
LINE
  5
55F
100
AcDbEntity
  8
OBJECT
  6
CONTINUOUS
100
AcDbLine
 10
1691.0
 20
-723.0
 30
0.0
 11
1691.0
 21
-728.0
 31
0.0
  0
LINE
  5
560
100
AcDbEntity
  8
OBJECT
  6
CONTINUOUS
100
AcDbLine
 10
1691.0
 20
-272.0
 30
0.0
 11
1701.0
 21
-272.0
 31
0.0
  0
LINE
  5
561
100
AcDbEntity
  8
OBJECT
  6
CONTINUOUS
100
AcDbLine
 10
1691.0
 20
-277.0
 30
0.0
 11
1706.0
 21
-277.0
 31
0.0
  0
LINE
  5
562
100
AcDbEntity
  8
OBJECT
  6
CONTINUOUS
100
AcDbLine
 10
1691.0
 20
-277.0
 30
0.0
 11
1691.0
 21
-272.0
 31
0.0
  0
LINE
  5
563
100
AcDbEntity
  8
OBJECT
  6
CONTINUOUS
100
AcDbLine
 10
1706.0
 20
-225.12452652194497
 30
0.0
 11
1706.0
 21
-277.0
 31
0.0
  0
LINE
  5
564
100
AcDbEntity
  8
OBJECT
  6
CONTINUOUS
100
AcDbLine
 10
1706.0
 20
-723.0
 30
0.0
 11
1706.0
 21
-774.87547347805503
 31
0.0
  0
LINE
  5
565
100
AcDbEntity
  8
OBJECT
  6
CONTINUOUS
100
AcDbLine
 10
1701.0
 20
-771.5
 30
0.0
 11
1701.0
 21
-728.0
 31
0.0
  0
LINE
  5
566
100
AcDbEntity
  8
OBJECT
  6
CONTINUOUS
100
AcDbLine
 10
1691.0
 20
-728.0
 30
0.0
 11
1701.0
 21
-728.0
 31
0.0
  0
LINE
  5
567
100
AcDbEntity
  8
OBJECT
  6
CONTINUOUS
100
AcDbLine
 10
1691.0
 20
-723.0
 30
0.0
 11
1706.0
 21
-723.0
 31
0.0
  0
LINE
  5
568
100
AcDbEntity
  8
OBJECT
  6
CONTINUOUS
100
AcDbLine
 10
1691.0
 20
-723.0
 30
0.0
 11
1691.0
 21
-728.0
 31
0.0
  0
LINE
  5
569
100
AcDbEntity
  8
OBJECT
  6
CONTINUOUS
100
AcDbLine
 10
1706.0
 20
-277.0
 30
0.0
 11
1706.0
 21
-723.0
 31
0.0
  0
ARC
  5
56A
100
AcDbEntity
  8
OBJECT
  6
CONTINUOUS
100
AcDbCircle
 10
1713.5
 20
-241.625
 30
0.0
 40
18.125000000000099
100
AcDbArc
 50
44.469279276418192
 51
133.60281897270363
  0
ARC
  5
56B
100
AcDbEntity
  8
OBJECT
  6
CONTINUOUS
100
AcDbCircle
 10
1738.5
 20
-216.24404761904771
 30
0.0
 40
17.505952380951992
100
AcDbArc
 50
226.43129175575862
 51
315.5648114609636
  0
ARC
  5
56C
100
AcDbEntity
  8
OBJECT
  6
CONTINUOUS
100
AcDbCircle
 10
1713.5
 20
-758.375
 30
0.0
 40
18.125
100
AcDbArc
 50
226.3971810272964
 51
315.53072072358077
  0
ARC
  5
56D
100
AcDbEntity
  8
OBJECT
  6
CONTINUOUS
100
AcDbCircle
 10
1738.5
 20
-783.75595238095275
 30
0.0
 40
17.505952380952639
100
AcDbArc
 50
44.435188539037483
 51
133.56870824424138
  0
DIMENSION
  5
56E
100
AcDbEntity
  8
DIMENTION
  6
CONTINUOUS
100
AcDbDimension
  2
*D7
 10
1691.0
 20
-150.0
 30
0.0
 11
1661.0
 21
-149.00000000372529
 31
0.0
 70
             128
  1
※5～6
  3
CAD
100
AcDbAlignedDimension
 13
1701.0
 23
-228.5
 33
0.0
 14
1691.0
 24
-272.0
 34
0.0
100
AcDbRotatedDimension
1001
ACAD
1000
DSTYLE
1002
{
1070
             271
1070
               0
1070
             340
1005
3D
1070
             174
1070
               0
1070
             147
1040
0.9999999962747097
1002
}
  0
LINE
  5
56F
100
AcDbEntity
  8
OBJECT
  6
CONTINUOUS
100
AcDbLine
 10
1555.0
 20
-280.53553390593243
 30
0.0
 11
1560.87867965644
 21
-274.65685424949243
 31
0.0
  0
LINE
  5
570
100
AcDbEntity
  8
OBJECT
  6
CONTINUOUS
100
AcDbLine
 10
1551.4644660940667
 20
-277.0
 30
0.0
 11
1557.3431457505067
 21
-271.12132034355955
 31
0.0
  0
ARC
  5
571
100
AcDbEntity
  8
OBJECT
  6
CONTINUOUS
100
AcDbCircle
 10
1555.2218254069485
 20
-269.0
 30
0.0
 40
3.0
100
AcDbArc
 50
270.0
 51
314.99999999998158
  0
ARC
  5
572
100
AcDbEntity
  8
OBJECT
  6
CONTINUOUS
100
AcDbCircle
 10
1563.0
 20
-276.77817459305197
 30
0.0
 40
3.0000000000001852
100
AcDbArc
 50
135.0000000000062
 51
180.0
  0
LINE
  5
573
100
AcDbEntity
  8
OBJECT
  6
CONTINUOUS
100
AcDbLine
 10
1560.87867965644
 20
-274.65685424949243
 30
0.0
 11
1557.3431457505067
 21
-271.12132034355955
 31
0.0
  0
LINE
  5
574
100
AcDbEntity
  8
OBJECT
  6
CONTINUOUS
100
AcDbLine
 10
1555.0
 20
-719.46446609406757
 30
0.0
 11
1555.0
 21
-280.53553390593243
 31
0.0
  0
LINE
  5
575
100
AcDbEntity
  8
OBJECT
  6
CONTINUOUS
100
AcDbLine
 10
1183.0
 20
-719.46446609406757
 30
0.0
 11
1177.12132034356
 21
-725.34314575050757
 31
0.0
  0
LINE
  5
576
100
AcDbEntity
  8
OBJECT
  6
CONTINUOUS
100
AcDbLine
 10
1186.5355339059333
 20
-723.0
 30
0.0
 11
1180.6568542494933
 21
-728.87867965644045
 31
0.0
  0
ARC
  5
577
100
AcDbEntity
  8
OBJECT
  6
CONTINUOUS
100
AcDbCircle
 10
1182.7781745930515
 20
-731.0
 30
0.0
 40
3.0
100
AcDbArc
 50
90.0
 51
134.99999999998158
  0
ARC
  5
578
100
AcDbEntity
  8
OBJECT
  6
CONTINUOUS
100
AcDbCircle
 10
1175.0
 20
-723.22182540694803
 30
0.0
 40
3.0000000000001852
100
AcDbArc
 50
315.0000000000062
 51
0.0
  0
LINE
  5
579
100
AcDbEntity
  8
OBJECT
  6
CONTINUOUS
100
AcDbLine
 10
1177.12132034356
 20
-725.34314575050757
 30
0.0
 11
1180.6568542494933
 21
-728.87867965644045
 31
0.0
  0
LINE
  5
57A
100
AcDbEntity
  8
OBJECT
  6
CONTINUOUS
100
AcDbLine
 10
1555.0
 20
-719.46446609406757
 30
0.0
 11
1560.87867965644
 21
-725.34314575050757
 31
0.0
  0
LINE
  5
57B
100
AcDbEntity
  8
OBJECT
  6
CONTINUOUS
100
AcDbLine
 10
1551.4644660940667
 20
-723.0
 30
0.0
 11
1557.3431457505067
 21
-728.87867965644045
 31
0.0
  0
ARC
  5
57C
100
AcDbEntity
  8
OBJECT
  6
CONTINUOUS
100
AcDbCircle
 10
1555.2218254069485
 20
-731.0
 30
0.0
 40
2.9999999999988987
100
AcDbArc
 50
45.000000000018439
 51
90.0
  0
ARC
  5
57D
100
AcDbEntity
  8
OBJECT
  6
CONTINUOUS
100
AcDbCircle
 10
1563.0
 20
-723.22182540694803
 30
0.0
 40
3.0
100
AcDbArc
 50
180.0
 51
224.99999999999383
  0
LINE
  5
57E
100
AcDbEntity
  8
OBJECT
  6
CONTINUOUS
100
AcDbLine
 10
1560.87867965644
 20
-725.34314575050757
 30
0.0
 11
1557.3431457505067
 21
-728.87867965644045
 31
0.0
  0
LINE
  5
57F
100
AcDbEntity
  8
OBJECT
  6
CONTINUOUS
100
AcDbLine
 10
1183.0
 20
-719.46446609406757
 30
0.0
 11
1183.0
 21
-280.53553390593243
 31
0.0
  0
LINE
  5
580
100
AcDbEntity
  8
OBJECT
  6
CONTINUOUS
100
AcDbLine
 10
1182.7781745930515
 20
-272.0
 30
0.0
 11
1555.2218254069485
 21
-272.0
 31
0.0
  0
LINE
  5
581
100
AcDbEntity
  8
OBJECT
  6
CONTINUOUS
100
AcDbLine
 10
1560.0
 20
-276.77817459305197
 30
0.0
 11
1560.0
 21
-723.22182540694803
 31
0.0
  0
LINE
  5
582
100
AcDbEntity
  8
OBJECT
  6
CONTINUOUS
100
AcDbLine
 10
1555.2218254069485
 20
-728.0
 30
0.0
 11
1182.7781745930515
 21
-728.0
 31
0.0
  0
LINE
  5
583
100
AcDbEntity
  8
OBJECT
  6
CONTINUOUS
100
AcDbLine
 10
1178.0
 20
-723.22182540694803
 30
0.0
 11
1178.0
 21
-276.77817459305197
 31
0.0
  0
DIMENSION
  5
584
100
AcDbEntity
  8
DIMENTION
  6
CONTINUOUS
100
AcDbDimension
  2
*D8
 10
1055.0
 20
-277.0
 30
0.0
 11
1054.0000000037253
 21
-500.0
 31
0.0
 70
             128
  3
CAD
100
AcDbAlignedDimension
 13
1186.5355339059333
 23
-723.0
 33
0.0
 14
1186.5355339059333
 24
-277.0
 34
0.0
 50
90.0
100
AcDbRotatedDimension
1001
ACAD
1000
DSTYLE
1002
{
1070
             271
1070
               0
1070
             340
1005
3D
1070
               3
1000
<>(内寸)
1070
             147
1040
0.9999999962747097
1002
}
  0
DIMENSION
  5
585
100
AcDbEntity
  8
DIMENTION
  6
CONTINUOUS
100
AcDbDimension
  2
*D9
 10
1183.0
 20
-850.00000000000023
 30
0.0
 11
1376.0
 21
-849.00000000372552
 31
0.0
 70
             128
  3
CAD
100
AcDbAlignedDimension
 13
1555.0
 23
-719.46446609406757
 33
0.0
 14
1183.0
 24
-719.46446609406757
 34
0.0
100
AcDbRotatedDimension
1001
ACAD
1000
DSTYLE
1002
{
1070
             271
1070
               0
1070
             340
1005
3D
1070
               3
1000
<>(内寸)
1070
             147
1040
0.9999999962747097
1002
}
  0
LINE
  5
586
100
AcDbEntity
  8
OBJECT
  6
CONTINUOUS
100
AcDbLine
 10
1178.0
 20
-287.0
 30
0.0
 11
1183.0
 21
-287.0
 31
0.0
  0
LINE
  5
587
100
AcDbEntity
  8
OBJECT
  6
CONTINUOUS
100
AcDbLine
 10
1555.0
 20
-287.0
 30
0.0
 11
1560.0
 21
-287.0
 31
0.0
  0
LINE
  5
588
100
AcDbEntity
  8
OBJECT
  6
CONTINUOUS
100
AcDbLine
 10
1178.0
 20
-713.0
 30
0.0
 11
1183.0
 21
-713.0
 31
0.0
  0
LINE
  5
589
100
AcDbEntity
  8
OBJECT
  6
CONTINUOUS
100
AcDbLine
 10
1555.0
 20
-713.0
 30
0.0
 11
1560.0
 21
-713.0
 31
0.0
  0
LINE
  5
58A
100
AcDbEntity
  8
OBJECT
  6
CONTINUOUS
100
AcDbLine
 10
1193.0
 20
-728.0
 30
0.0
 11
1193.0
 21
-723.0
 31
0.0
  0
LINE
  5
58B
100
AcDbEntity
  8
OBJECT
  6
CONTINUOUS
100
AcDbLine
 10
1193.0
 20
-277.0
 30
0.0
 11
1193.0
 21
-272.0
 31
0.0
  0
LINE
  5
58C
100
AcDbEntity
  8
OBJECT
  6
CONTINUOUS
100
AcDbLine
 10
1545.0
 20
-728.0
 30
0.0
 11
1545.0
 21
-723.0
 31
0.0
  0
LINE
  5
58D
100
AcDbEntity
  8
OBJECT
  6
CONTINUOUS
100
AcDbLine
 10
1545.0
 20
-277.0
 30
0.0
 11
1545.0
 21
-272.0
 31
0.0
  0
LINE
  5
58E
100
AcDbEntity
  8
OBJECT
  6
CONTINUOUS
100
AcDbLine
 10
1691.0
 20
-287.0
 30
0.0
 11
1701.0
 21
-277.0
 31
0.0
  0
LINE
  5
58F
100
AcDbEntity
  8
OBJECT
  6
CONTINUOUS
100
AcDbLine
 10
1691.0
 20
-713.0
 30
0.0
 11
1701.0
 21
-723.0
 31
0.0
  0
INSERT
  5
590
100
AcDbEntity
  8
OBJECT
100
AcDbBlockReference
  2
*U10
 10
0.0
 20
19.999999999999996
 30
0.0
  0
INSERT
  5
591
100
AcDbEntity
  8
OBJECT
100
AcDbBlockReference
  2
*U11
 10
0.0
 20
19.999999999999996
 30
0.0
  0
LINE
  5
592
100
AcDbEntity
  8
DIMENTION
  6
CONTINUOUS
100
AcDbLine
 10
-100.0
 20
-0.0000000000000036
 30
0.0
 11
240.0
 21
-0.0000000000000036
 31
0.0
  0
LINE
  5
593
100
AcDbEntity
  8
DIMENTION
  6
CONTINUOUS
100
AcDbLine
 10
-100.0
 20
-0.0000000000000036
 30
0.0
 11
-251.19732740199868
 21
-150.24640081456471
 31
0.0
  0
LINE
  5
594
100
AcDbEntity
  8
DIMENTION
  6
CONTINUOUS
100
AcDbLine
 10
-251.19732740199868
 20
-150.24640081456471
 30
0.0
 11
-239.46749705663615
 21
-130.72468483932533
 31
0.0
  0
LINE
  5
595
100
AcDbEntity
  8
DIMENTION
  6
CONTINUOUS
100
AcDbLine
 10
-251.19732740199868
 20
-150.24640081456471
 30
0.0
 11
-231.27813835321342
 21
-139.20501402722417
 31
0.0
  0
MTEXT
  5
596
100
AcDbEntity
  8
DIMENTION
100
AcDbMText
 10
-100.0
 20
45.0
 30
0.0
 40
33.866666666666667
 41
0.0
 71
               1
 72
               1
  1
リフトベアリング4個
  7
________
  0
LINE
  5
597
100
AcDbEntity
  8
DIMENTION
  6
CONTINUOUS
100
AcDbLine
 10
-100.0
 20
-0.0000000000000036
 30
0.0
 11
-275.4801882513853
 21
-302.48518637807854
 31
0.0
  0
LINE
  5
598
100
AcDbEntity
  8
DIMENTION
  6
CONTINUOUS
100
AcDbLine
 10
-275.4801882513853
 20
-302.48518637807854
 30
0.0
 11
-269.20263407028449
 21
-280.59275325491365
 31
0.0
  0
LINE
  5
599
100
AcDbEntity
  8
DIMENTION
  6
CONTINUOUS
100
AcDbLine
 10
-275.4801882513853
 20
-302.48518637807854
 30
0.0
 11
-259.09745029533633
 21
-286.66456023331625
 31
0.0
  0
MTEXT
  5
59A
100
AcDbEntity
  8
DIMENTION
100
AcDbMText
 10
455.0
 20
45.0
 30
0.0
 40
33.866666666666667
 41
0.0
 71
               1
 72
               1
  1
バランス用ばね
  7
________
  0
MTEXT
  5
59B
100
AcDbEntity
  8
DIMENTION
100
AcDbMText
 10
455.0
 20
-5.0000000000000036
 30
0.0
 40
33.866666666666667
 41
0.0
 71
               1
 72
               1
  1
6～8本
  7
________
  0
LINE
  5
59C
100
AcDbEntity
  8
DIMENTION
100
AcDbLine
 10
450.0
 20
-0.0000000000000036
 30
0.0
 11
730.0
 21
-0.0000000000000036
 31
0.0
  0
LINE
  5
59D
100
AcDbEntity
  8
DIMENTION
100
AcDbLine
 10
450.0
 20
-0.0000000000000036
 30
0.0
 11
450.0
 21
-50.0
 31
0.0
  0
LINE
  5
59E
100
AcDbEntity
  8
DIMENTION
100
AcDbLine
 10
450.0
 20
-50.0
 30
0.0
 11
730.0
 21
-50.0
 31
0.0
  0
LINE
  5
59F
100
AcDbEntity
  8
DIMENTION
100
AcDbLine
 10
371.71392469502553
 20
-176.18079132438606
 30
0.0
 11
450.0
 21
-50.0
 31
0.0
  0
LINE
  5
5A0
100
AcDbEntity
  8
DIMENTION
100
AcDbLine
 10
371.71392469502553
 20
-176.18079132438606
 30
0.0
 11
381.32418810480505
 21
-144.74703608618637
 31
0.0
  0
LINE
  5
5A1
100
AcDbEntity
  8
DIMENTION
100
AcDbLine
 10
371.71392469502553
 20
-176.18079132438606
 30
0.0
 11
395.75353456405452
 21
-153.76349245665273
 31
0.0
  0
POLYLINE
  5
5A2
100
AcDbEntity
  8
OBJECT
  6
CONTINUOUS
100
AcDb2dPolyline
 66
               1
 10
0.0
 20
0.0
 30
0.0
 70
               1
 75
               5
  0
VERTEX
  5
5A3
100
AcDbEntity
  8
OBJECT
  6
CONTINUOUS
100
AcDbVertex
100
AcDb2dVertex
 10
700.0
 20
1200.0000000000002
 30
0.0
  0
VERTEX
  5
5A4
100
AcDbEntity
  8
OBJECT
  6
CONTINUOUS
100
AcDbVertex
100
AcDb2dVertex
 10
1800.0
 20
1200.0000000000002
 30
0.0
  0
VERTEX
  5
5A5
100
AcDbEntity
  8
OBJECT
  6
CONTINUOUS
100
AcDbVertex
100
AcDb2dVertex
 10
1800.0
 20
600.00000000000023
 30
0.0
  0
VERTEX
  5
5A6
100
AcDbEntity
  8
OBJECT
  6
CONTINUOUS
100
AcDbVertex
100
AcDb2dVertex
 10
700.0
 20
600.00000000000023
 30
0.0
  0
SEQEND
  5
5A7
100
AcDbEntity
  8
OBJECT
  6
CONTINUOUS
  0
LINE
  5
5A8
100
AcDbEntity
  8
OBJECT
  6
CONTINUOUS
100
AcDbLine
 10
1100.0
 20
1200.0000000000002
 30
0.0
 11
1100.0
 21
600.00000000000023
 31
0.0
  0
MTEXT
  5
5A9
100
AcDbEntity
  8
TEXT
100
AcDbMText
 10
700.0
 20
1170.0000000000002
 30
0.0
 40
33.866666666666667
 41
399.99999999999955
 71
               4
 72
               1
  1
　形　　　　　　　　式
  7
________
  0
LINE
  5
5AA
100
AcDbEntity
  8
OBJECT
100
AcDbLine
 10
1800.0
 20
1140.0000000000002
 30
0.0
 11
700.0
 21
1140.0000000000002
 31
0.0
  0
MTEXT
  5
5AB
100
AcDbEntity
  8
TEXT
100
AcDbMText
 10
1100.0
 20
1170.0000000000002
 30
0.0
 40
33.866666666666667
 41
700.00000000000045
 71
               4
 72
               1
  1
　ST 3041 H
  7
________
  0
LINE
  5
5AC
100
AcDbEntity
  8
OBJECT
100
AcDbLine
 10
1800.0
 20
960.00000000000023
 30
0.0
 11
700.0
 21
960.00000000000023
 31
0.0
  0
LINE
  5
5AD
100
AcDbEntity
  8
OBJECT
100
AcDbLine
 10
1800.0
 20
660.00000000000023
 30
0.0
 11
700.0
 21
660.00000000000023
 31
0.0
  0
MTEXT
  5
5AE
100
AcDbEntity
  8
TEXT
100
AcDbMText
 10
700.0
 20
930.00000000000023
 30
0.0
 40
33.866666666666667
 41
399.99999999999955
 71
               4
 72
               1
  1
　ば ね 調 整 範 囲
  7
________
  0
MTEXT
  5
5AF
100
AcDbEntity
  8
TEXT
100
AcDbMText
 10
1100.0
 20
930.00000000000023
 30
0.0
 40
33.866666666666667
 41
700.00000000000045
 71
               4
 72
               1
  1
　20～32.5kg
  7
________
  0
MTEXT
  5
5B0
100
AcDbEntity
  8
TEXT
100
AcDbMText
 10
700.0
 20
630.00000000000023
 30
0.0
 40
33.866666666666667
 41
399.99999999999955
 71
               4
 72
               1
  1
　質　　　　　　　　量
  7
________
  0
MTEXT
  5
5B1
100
AcDbEntity
  8
TEXT
100
AcDbMText
 10
1100.0
 20
630.00000000000023
 30
0.0
 40
33.866666666666667
 41
700.00000000000045
 71
               4
 72
               1
  1
　17kg
  7
________
  0
MTEXT
  5
5B2
100
AcDbEntity
  8
DIMENTION
100
AcDbMText
 10
655.0
 20
400.0
 30
0.0
 40
33.866666666666667
 41
1305.0
 71
               1
 72
               1
  1
使用するトレイは外形寸法430×320(mm)を超えないようにしてください。\P超えてしまうとトレイが収納できないまたは引っ掛かりが生じ、出し入れ\Pできない場合があります。
  7
________
  0
MTEXT
  5
5B3
100
AcDbEntity
  8
DIMENTION
100
AcDbMText
 10
600.0
 20
400.0
 30
0.0
 40
33.866666666666667
 41
50.0
 71
               1
 72
               1
  1
※
  7
________
  0
MTEXT
  5
5B4
100
AcDbEntity
  8
TEXT
100
AcDbMText
 10
700.0
 20
810.00000000000023
 30
0.0
 40
33.866666666666667
 41
399.99999999999955
 71
               4
 72
               1
  1
　保 　温　 機　 能
  7
________
  0
MTEXT
  5
5B5
100
AcDbEntity
  8
TEXT
100
AcDbMText
 10
1100.0
 20
810.00000000000023
 30
0.0
 40
33.866666666666667
 41
700.00000000000045
 71
               4
 72
               1
  1
　450Wヒーター\P　固定サーモスタット ・ 温度ヒューズ\P　半透明カバー付属
  7
________
  0
LINE
  5
5B6
100
AcDbEntity
  8
OBJECT
100
AcDbLine
 10
1800.0
 20
900.00000000000023
 30
0.0
 11
700.0
 21
900.00000000000023
 31
0.0
  0
LINE
  5
5B7
100
AcDbEntity
  8
OBJECT
100
AcDbLine
 10
1800.0
 20
720.00000000000023
 30
0.0
 11
700.0
 21
720.00000000000023
 31
0.0
  0
MTEXT
  5
5B8
100
AcDbEntity
  8
TEXT
100
AcDbMText
 10
700.0
 20
690.00000000000023
 30
0.0
 40
33.866666666666667
 41
399.99999999999955
 71
               4
 72
               1
  1
　電　　　　　　　　源
  7
________
  0
MTEXT
  5
5B9
100
AcDbEntity
  8
TEXT
100
AcDbMText
 10
1100.0
 20
690.00000000000023
 30
0.0
 40
33.866666666666667
 41
700.00000000000045
 71
               4
 72
               1
  1
　単相 100V　50/60 Hz
  7
________
  0
MTEXT
  5
5BA
100
AcDbEntity
  8
TEXT
100
AcDbMText
 10
950.0
 20
540.00000000000023
 30
0.0
 40
33.866666666666667
 41
855.0
 71
               4
 72
               1
  1
電気用品型式認可番号　JET1293-81037-1003
  7
________
  0
POINT
  5
5BB
100
AcDbEntity
  8
DIMENTION
  6
CONTINUOUS
100
AcDbPoint
 10
1800.0
 20
600.00000000000023
 30
0.0
  0
LINE
  5
5BC
100
AcDbEntity
  8
OBJECT
  6
CONTINUOUS
100
AcDbLine
 10
-1395.0
 20
-670.0
 30
0.0
 11
-1395.0
 21
-795.0
 31
0.0
  0
LINE
  5
5BD
100
AcDbEntity
  8
OBJECT
  6
CONTINUOUS
100
AcDbLine
 10
-1405.0
 20
-795.0
 30
0.0
 11
-1405.0
 21
-747.03819999999996
 31
0.0
  0
ARC
  5
5BE
100
AcDbEntity
  8
OBJECT
  6
CONTINUOUS
100
AcDbCircle
 10
-1400.0
 20
-795.0
 30
0.0
 40
5.0
100
AcDbArc
 50
180.0
 51
0.0
  0
POLYLINE
  5
5BF
100
AcDbEntity
  8
OBJECT
  6
CONTINUOUS
100
AcDb2dPolyline
 66
               1
 10
0.0
 20
0.0
 30
0.0
 70
               1
 75
               5
  0
VERTEX
  5
5C0
100
AcDbEntity
  8
OBJECT
  6
CONTINUOUS
100
AcDbVertex
100
AcDb2dVertex
 10
-1406.0
 20
-660.0
 30
0.0
  0
VERTEX
  5
5C1
100
AcDbEntity
  8
OBJECT
  6
CONTINUOUS
100
AcDbVertex
100
AcDb2dVertex
 10
-1394.0
 20
-660.0
 30
0.0
  0
VERTEX
  5
5C2
100
AcDbEntity
  8
OBJECT
  6
CONTINUOUS
100
AcDbVertex
100
AcDb2dVertex
 10
-1394.0
 20
-670.0
 30
0.0
  0
VERTEX
  5
5C3
100
AcDbEntity
  8
OBJECT
  6
CONTINUOUS
100
AcDbVertex
100
AcDb2dVertex
 10
-1406.0
 20
-670.0
 30
0.0
  0
SEQEND
  5
5C4
100
AcDbEntity
  8
OBJECT
  6
CONTINUOUS
  0
LINE
  5
5C5
100
AcDbEntity
  8
OBJECT
  6
CONTINUOUS
100
AcDbLine
 10
-1405.0
 20
-747.03819999999996
 30
0.0
 11
-1405.0
 21
-670.0
 31
0.0
  0
LWPOLYLINE
  5
5C6
100
AcDbEntity
  8
OBJECT
  6
CONTINUOUS
100
AcDbPolyline
 90
        8
 70
             129
 10
-1405.0
 20
-660.0
 10
-1405.0
 20
-657.0
 42
0.414213562373095
 10
-1425.0
 20
-637.0
 10
-1480.0
 20
-637.0
 10
-1480.0
 20
-627.0
 10
-1425.0
 20
-627.0
 42
-0.414213562373095
 10
-1395.0
 20
-657.0
 10
-1395.0
 20
-660.0
  0
POLYLINE
  5
5C7
100
AcDbEntity
  8
OBJECT
  6
CONTINUOUS
100
AcDb2dPolyline
 66
               1
 10
0.0
 20
0.0
 30
0.0
 70
               1
 75
               5
  0
VERTEX
  5
5C8
100
AcDbEntity
  8
OBJECT
  6
CONTINUOUS
100
AcDbVertex
100
AcDb2dVertex
 10
-1510.0
 20
-624.5
 30
0.0
  0
VERTEX
  5
5C9
100
AcDbEntity
  8
OBJECT
  6
CONTINUOUS
100
AcDbVertex
100
AcDb2dVertex
 10
-1480.0
 20
-624.5
 30
0.0
  0
VERTEX
  5
5CA
100
AcDbEntity
  8
OBJECT
  6
CONTINUOUS
100
AcDbVertex
100
AcDb2dVertex
 10
-1480.0
 20
-639.5
 30
0.0
  0
VERTEX
  5
5CB
100
AcDbEntity
  8
OBJECT
  6
CONTINUOUS
100
AcDbVertex
100
AcDb2dVertex
 10
-1510.0
 20
-639.5
 30
0.0
  0
SEQEND
  5
5CC
100
AcDbEntity
  8
OBJECT
  6
CONTINUOUS
  0
LINE
  5
5CD
100
AcDbEntity
  8
OBJECT
  6
CONTINUOUS
100
AcDbLine
 10
-1495.0
 20
-639.5
 30
0.0
 11
-1495.0
 21
-624.5
 31
0.0
  0
LINE
  5
5CE
100
AcDbEntity
  8
OBJECT
  6
CONTINUOUS
100
AcDbLine
 10
-1510.0
 20
-637.0
 30
0.0
 11
-1623.2031338878651
 21
-637.0
 31
0.0
  0
LINE
  5
5CF
100
AcDbEntity
  8
OBJECT
  6
CONTINUOUS
100
AcDbLine
 10
-1510.0
 20
-627.0
 30
0.0
 11
-1510.0
 21
-637.0
 31
0.0
  0
LINE
  5
5D0
100
AcDbEntity
  8
OBJECT
  6
CONTINUOUS
100
AcDbLine
 10
-1624.7968661120894
 20
-627.0
 30
0.0
 11
-1510.0
 21
-627.0
 31
0.0
  0
LWPOLYLINE
  5
5D1
100
AcDbEntity
  8
OBJECT
  6
CONTINUOUS
100
AcDbPolyline
 90
        5
 70
             128
 10
-1622.5
 20
-623.5
 10
-1624.5388386486181
 20
-626.55825797292721
 42
0.3575107650276824
 10
-1624.0
 20
-632.0
 42
-0.3575107650277198
 10
-1623.4611613513819
 20
-637.44174202707279
 10
-1625.5
 20
-640.5
  0
POLYLINE
  5
5D2
100
AcDbEntity
  8
OBJECT
  6
CONTINUOUS
100
AcDb2dPolyline
 66
               1
 10
0.0
 20
0.0
 30
0.0
 70
               1
 75
               5
  0
VERTEX
  5
5D3
100
AcDbEntity
  8
OBJECT
  6
CONTINUOUS
100
AcDbVertex
100
AcDb2dVertex
 10
-1415.0
 20
-660.0
 30
0.0
  0
VERTEX
  5
5D4
100
AcDbEntity
  8
OBJECT
  6
CONTINUOUS
100
AcDbVertex
100
AcDb2dVertex
 10
-1385.0
 20
-660.0
 30
0.0
  0
VERTEX
  5
5D5
100
AcDbEntity
  8
OBJECT
  6
CONTINUOUS
100
AcDbVertex
100
AcDb2dVertex
 10
-1385.0
 20
-670.0
 30
0.0
  0
VERTEX
  5
5D6
100
AcDbEntity
  8
OBJECT
  6
CONTINUOUS
100
AcDbVertex
100
AcDb2dVertex
 10
-1415.0
 20
-670.0
 30
0.0
  0
SEQEND
  5
5D7
100
AcDbEntity
  8
OBJECT
  6
CONTINUOUS
  0
LINE
  5
5D8
100
AcDbEntity
  8
OBJECT
  6
CONTINUOUS
100
AcDbLine
 10
-1395.0844999999999
 20
-795.91550000000007
 30
0.0
 11
-1391.0
 21
-800.0
 31
0.0
  0
LINE
  5
5D9
100
AcDbEntity
  8
OBJECT
  6
CONTINUOUS
100
AcDbLine
 10
-1409.0
 20
-800.0
 30
0.0
 11
-1404.9155000000001
 21
-795.91550000000007
 31
0.0
  0
POLYLINE
  5
5DA
100
AcDbEntity
  8
OBJECT
  6
CONTINUOUS
100
AcDb2dPolyline
 66
               1
 10
0.0
 20
0.0
 30
0.0
 75
               5
  0
VERTEX
  5
5DB
100
AcDbEntity
  8
OBJECT
  6
CONTINUOUS
100
AcDbVertex
100
AcDb2dVertex
 10
-1629.0
 20
-637.0
 30
0.0
  0
VERTEX
  5
5DC
100
AcDbEntity
  8
OBJECT
  6
CONTINUOUS
100
AcDbVertex
100
AcDb2dVertex
 10
-1693.0
 20
-637.0
 30
0.0
  0
VERTEX
  5
5DD
100
AcDbEntity
  8
OBJECT
  6
CONTINUOUS
100
AcDbVertex
100
AcDb2dVertex
 10
-1693.0
 20
-627.0
 30
0.0
  0
VERTEX
  5
5DE
100
AcDbEntity
  8
OBJECT
  6
CONTINUOUS
100
AcDbVertex
100
AcDb2dVertex
 10
-1630.0
 20
-627.0
 30
0.0
  0
SEQEND
  5
5DF
100
AcDbEntity
  8
OBJECT
  6
CONTINUOUS
  0
LWPOLYLINE
  5
5E0
100
AcDbEntity
  8
OBJECT
  6
CONTINUOUS
100
AcDbPolyline
 90
        5
 70
             128
 10
-1630.5
 20
-640.5
 10
-1628.4611613513819
 20
-637.44174202707279
 42
0.3575107650277198
 10
-1629.0
 20
-632.0
 42
-0.3575107650277011
 10
-1629.5388386486181
 20
-626.55825797292721
 10
-1627.5
 20
-623.5
  0
LINE
  5
5E1
100
AcDbEntity
  8
OBJECT
  6
CONTINUOUS
100
AcDbLine
 10
-1693.0
 20
-635.0
 30
0.0
 11
-1712.0
 21
-635.0
 31
0.0
  0
LINE
  5
5E2
100
AcDbEntity
  8
OBJECT
  6
CONTINUOUS
100
AcDbLine
 10
-1693.0
 20
-629.0
 30
0.0
 11
-1712.0
 21
-629.0
 31
0.0
  0
LINE
  5
5E3
100
AcDbEntity
  8
DIMENTION
  6
CONTINUOUS
100
AcDbLine
 10
-1500.0
 20
-400.0
 30
0.0
 11
-1567.3984330560447
 21
-627.0
 31
0.0
  0
LINE
  5
5E4
100
AcDbEntity
  8
DIMENTION
  6
CONTINUOUS
100
AcDbLine
 10
-1567.3984330560447
 20
-627.0
 30
0.0
 11
-1566.6036079831015
 21
-604.23918789558854
 31
0.0
  0
LINE
  5
5E5
100
AcDbEntity
  8
DIMENTION
  6
CONTINUOUS
100
AcDbLine
 10
-1567.3984330560447
 20
-627.0
 30
0.0
 11
-1555.3296882991053
 21
-607.68597104328683
 31
0.0
  0
LINE
  5
5E6
100
AcDbEntity
  8
DIMENTION
  6
CONTINUOUS
100
AcDbLine
 10
-1550.0
 20
-900.0
 30
0.0
 11
-1495.0
 21
-639.5
 31
0.0
  0
LINE
  5
5E7
100
AcDbEntity
  8
DIMENTION
  6
CONTINUOUS
100
AcDbLine
 10
-1495.0
 20
-639.5
 30
0.0
 11
-1493.8080650390764
 21
-662.24347391226399
 31
0.0
  0
LINE
  5
5E8
100
AcDbEntity
  8
DIMENTION
  6
CONTINUOUS
100
AcDbLine
 10
-1495.0
 20
-639.5
 30
0.0
 11
-1505.3394910003135
 21
-659.79239365879107
 31
0.0
  0
LWPOLYLINE
  5
5E9
100
AcDbEntity
  8
OBJECT
  6
CONTINUOUS
100
AcDbPolyline
 90
        5
 70
             129
 10
-1348.5
 20
-795.0
 42
-0.414213562373095
 10
-1345.0
 20
-791.5
 42
-0.414213562373095
 10
-1341.5
 20
-795.0
 42
-0.414213562373095
 10
-1345.0
 20
-798.5
 42
-0.414213562373095
 10
-1348.5
 20
-795.0
 42
-0.414213562373095
  0
LINE
  5
5EA
100
AcDbEntity
  8
OBJECT
  6
CONTINUOUS
100
AcDbLine
 10
-1347.5
 20
-795.0
 30
0.0
 11
-1342.5
 21
-795.0
 31
0.0
  0
LINE
  5
5EB
100
AcDbEntity
  8
OBJECT
  6
CONTINUOUS
100
AcDbLine
 10
-1345.0
 20
-797.5
 30
0.0
 11
-1345.0
 21
-792.5
 31
0.0
  0
LINE
  5
5EC
100
AcDbEntity
  8
DIMENTION
  6
CONTINUOUS
100
AcDbLine
 10
-1300.0
 20
-900.0
 30
0.0
 11
-1343.6101077443163
 21
-798.21219543535926
 31
0.0
  0
LINE
  5
5ED
100
AcDbEntity
  8
DIMENTION
  6
CONTINUOUS
100
AcDbLine
 10
-1343.6101077443163
 20
-798.21219543535926
 30
0.0
 11
-1329.5886110675769
 21
-816.15889277757492
 31
0.0
  0
LINE
  5
5EE
100
AcDbEntity
  8
DIMENTION
  6
CONTINUOUS
100
AcDbLine
 10
-1343.6101077443163
 20
-798.21219543535926
 30
0.0
 11
-1340.4404840942889
 21
-820.76523958611835
 31
0.0
  0
MTEXT
  5
5EF
100
AcDbEntity
  8
DIMENTION
100
AcDbMText
 10
-1300.0
 20
-855.0
 30
0.0
 40
33.866666666666667
 41
0.0
 71
               1
 72
               1
  1
アース接続端子 M4
  7
________
  0
LINE
  5
5F0
100
AcDbEntity
  8
OBJECT
  6
CONTINUOUS
100
AcDbLine
 10
-1611.0
 20
-570.0
 30
0.0
 11
-1611.0
 21
-624.5
 31
0.0
  0
LINE
  5
5F1
100
AcDbEntity
  8
OBJECT
  6
CONTINUOUS
100
AcDbLine
 10
-1189.0
 20
-800.0
 30
0.0
 11
-1189.0
 21
-570.0
 31
0.0
  0
LINE
  5
5F2
100
AcDbEntity
  8
OBJECT
  6
CONTINUOUS
100
AcDbLine
 10
-1611.0
 20
-800.0
 30
0.0
 11
-1189.0
 21
-800.0
 31
0.0
  0
LINE
  5
5F3
100
AcDbEntity
  8
OBJECT
  6
CONTINUOUS
100
AcDbLine
 10
-1611.0
 20
-639.5
 30
0.0
 11
-1611.0
 21
-800.0
 31
0.0
  0
MTEXT
  5
5F4
100
AcDbEntity
  8
DIMENTION
100
AcDbMText
 10
-1820.0
 20
-855.0
 30
0.0
 40
33.866666666666667
 41
0.0
 71
               1
 72
               1
  1
中間コネクター
  7
________
  0
MTEXT
  5
5F5
100
AcDbEntity
  8
DIMENTION
100
AcDbMText
 10
-300.0
 20
-855.0
 30
0.0
 40
33.866666666666667
 41
0.0
 71
               1
 72
               1
  1
450Wヒーターユニット
  7
________
  0
LINE
  5
5F6
100
AcDbEntity
  8
DIMENTION
100
AcDbLine
 10
-300.0
 20
-900.0
 30
0.0
 11
80.0
 21
-900.0
 31
0.0
  0
MTEXT
  5
5F7
100
AcDbEntity
  8
DIMENTION
100
AcDbMText
 10
-1490.0
 20
-350.0
 30
0.0
 40
33.866666666666667
 41
0.0
 71
               1
 72
               1
  1
電源コード　2線式　2.5m
  7
________
  0
MTEXT
  5
5F8
100
AcDbEntity
  8
DIMENTION
100
AcDbMText
 10
-1490.0
 20
-410.0
 30
0.0
 40
33.866666666666667
 41
0.0
 71
               1
 72
               1
  1
中間コネクターより先は付属
  7
________
  0
LINE
  5
5F9
100
AcDbEntity
  8
DIMENTION
100
AcDbLine
 10
-1500.0
 20
-400.0
 30
0.0
 11
-990.0
 21
-400.0
 31
0.0
  0
LINE
  5
5FA
100
AcDbEntity
  8
DIMENTION
100
AcDbLine
 10
-1500.0
 20
-400.0
 30
0.0
 11
-1500.0
 21
-460.0
 31
0.0
  0
LINE
  5
5FB
100
AcDbEntity
  8
DIMENTION
100
AcDbLine
 10
-1500.0
 20
-460.0
 30
0.0
 11
-990.0
 21
-460.0
 31
0.0
  0
INSERT
  5
5FC
100
AcDbEntity
  8
OBJECT
100
AcDbBlockReference
  2
*U12
 10
0.0
 20
19.999999999999996
 30
0.0
  0
INSERT
  5
5FD
100
AcDbEntity
  8
OBJECT
100
AcDbBlockReference
  2
*U13
 10
0.0
 20
19.999999999999996
 30
0.0
  0
LINE
  5
5FE
100
AcDbEntity
  8
DIMENTION
100
AcDbLine
 10
-1550.0
 20
-900.0
 30
0.0
 11
-1820.0
 21
-900.0
 31
0.0
  0
LINE
  5
5FF
100
AcDbEntity
  8
DIMENTION
100
AcDbLine
 10
-1300.0
 20
-900.0
 30
0.0
 11
-945.0
 21
-900.0
 31
0.0
  0
LINE
  5
600
100
AcDbEntity
  8
DIMENTION
100
AcDbLine
 10
-435.0
 20
-755.0
 30
0.0
 11
-300.0
 21
-900.0
 31
0.0
  0
LINE
  5
601
100
AcDbEntity
  8
DIMENTION
100
AcDbLine
 10
-435.0
 20
-755.0
 30
0.0
 11
-407.43288272499461
 21
-772.90229528095472
 31
0.0
  0
LINE
  5
602
100
AcDbEntity
  8
DIMENTION
100
AcDbLine
 10
-435.0
 20
-755.0
 30
0.0
 11
-420.07732377121789
 21
-784.28740113685978
 31
0.0
  0
MTEXT
  5
603
100
AcDbEntity
  8
DIMENTION
100
AcDbMText
 10
1415.0
 20
-40.0
 30
0.0
 40
33.866666666666667
 41
0.0
 71
               2
 72
               1
  1
落としこみ穴寸法
  7
________
  0
DIMENSION
  5
604
100
AcDbEntity
  8
DIMENTION
  6
CONTINUOUS
100
AcDbDimension
  2
*D14
 10
200.0
 20
-130.0
 30
0.0
 11
199.00000000372529
 21
-90.0
 31
0.0
 70
             128
  3
CAD
100
AcDbAlignedDimension
 13
265.0
 23
-138.0
 33
0.0
 14
225.0
 24
-130.0
 34
0.0
 50
90.0
100
AcDbRotatedDimension
1001
ACAD
1000
DSTYLE
1002
{
1070
             271
1070
               0
1070
             340
1005
3D
1070
             174
1070
               0
1070
             147
1040
0.9999999962747097
1002
}
  0
DIMENSION
  5
605
100
AcDbEntity
  8
DIMENTION
  6
CONTINUOUS
100
AcDbDimension
  2
*D15
 10
100.0
 20
-800.0
 30
0.0
 11
99.00000000372529
 21
-465.0
 31
0.0
 70
             128
  3
CAD
100
AcDbAlignedDimension
 13
265.0
 23
-130.0
 33
0.0
 14
279.0
 24
-800.0
 34
0.0
 50
90.0
100
AcDbRotatedDimension
1001
ACAD
1000
DSTYLE
1002
{
1070
             271
1070
               0
1070
             340
1005
3D
1070
             147
1040
0.9999999962747097
1002
}
  0
INSERT
  5
606
100
AcDbEntity
  8
OBJECT
100
AcDbBlockReference
  2
*U16
 10
0.0
 20
19.999999999999996
 30
0.0
  0
POLYLINE
  5
607
100
AcDbEntity
  8
OBJECT
  6
CONTINUOUS
100
AcDb2dPolyline
 66
               1
 10
0.0
 20
0.0
 30
0.0
 70
               1
 75
               5
  0
VERTEX
  5
608
100
AcDbEntity
  8
OBJECT
  6
CONTINUOUS
100
AcDbVertex
100
AcDb2dVertex
 10
-600.0
 20
-138.0
 30
0.0
  0
VERTEX
  5
609
100
AcDbEntity
  8
OBJECT
  6
CONTINUOUS
100
AcDbVertex
100
AcDb2dVertex
 10
-270.0
 20
-138.0
 30
0.0
  0
VERTEX
  5
60A
100
AcDbEntity
  8
OBJECT
  6
CONTINUOUS
100
AcDbVertex
100
AcDb2dVertex
 10
-270.0
 20
-800.0
 30
0.0
  0
VERTEX
  5
60B
100
AcDbEntity
  8
OBJECT
  6
CONTINUOUS
100
AcDbVertex
100
AcDb2dVertex
 10
-600.0
 20
-800.0
 30
0.0
  0
SEQEND
  5
60C
100
AcDbEntity
  8
OBJECT
  6
CONTINUOUS
  0
LINE
  5
60D
100
AcDbEntity
  8
OBJECT
  6
CONTINUOUS
100
AcDbLine
 10
-615.0
 20
365.0
 30
0.0
 11
-615.0
 21
565.0
 31
0.0
  0
LINE
  5
60E
100
AcDbEntity
  8
OBJECT
  6
CONTINUOUS
100
AcDbLine
 10
-225.0
 20
365.0
 30
0.0
 11
-615.0
 21
365.0
 31
0.0
  0
LINE
  5
60F
100
AcDbEntity
  8
OBJECT
  6
CONTINUOUS
100
AcDbLine
 10
-225.0
 20
835.0
 30
0.0
 11
-225.0
 21
365.0
 31
0.0
  0
LINE
  5
610
100
AcDbEntity
  8
OBJECT
  6
CONTINUOUS
100
AcDbLine
 10
-615.0
 20
835.0
 30
0.0
 11
-225.0
 21
835.0
 31
0.0
  0
LINE
  5
611
100
AcDbEntity
  8
OBJECT
  6
CONTINUOUS
100
AcDbLine
 10
-615.0
 20
635.0
 30
0.0
 11
-615.0
 21
835.0
 31
0.0
  0
POLYLINE
  5
612
100
AcDbEntity
  8
OBJECT
  6
CONTINUOUS
100
AcDb2dPolyline
 66
               1
 10
0.0
 20
0.0
 30
0.0
 70
               1
 75
               5
  0
VERTEX
  5
613
100
AcDbEntity
  8
OBJECT
  6
CONTINUOUS
100
AcDbVertex
100
AcDb2dVertex
 10
-615.0
 20
-130.0
 30
0.0
  0
VERTEX
  5
614
100
AcDbEntity
  8
OBJECT
  6
CONTINUOUS
100
AcDbVertex
100
AcDb2dVertex
 10
-225.0
 20
-130.0
 30
0.0
  0
VERTEX
  5
615
100
AcDbEntity
  8
OBJECT
  6
CONTINUOUS
100
AcDbVertex
100
AcDb2dVertex
 10
-225.0
 20
-138.0
 30
0.0
  0
VERTEX
  5
616
100
AcDbEntity
  8
OBJECT
  6
CONTINUOUS
100
AcDbVertex
100
AcDb2dVertex
 10
-615.0
 20
-138.0
 30
0.0
  0
SEQEND
  5
617
100
AcDbEntity
  8
OBJECT
  6
CONTINUOUS
  0
POLYLINE
  5
618
100
AcDbEntity
  8
OBJECT
  6
CONTINUOUS
100
AcDb2dPolyline
 66
               1
 10
0.0
 20
0.0
 30
0.0
 70
               1
 75
               5
  0
VERTEX
  5
619
100
AcDbEntity
  8
OBJECT
  6
CONTINUOUS
100
AcDbVertex
100
AcDb2dVertex
 10
-270.0
 20
-138.0
 30
0.0
  0
VERTEX
  5
61A
100
AcDbEntity
  8
OBJECT
  6
CONTINUOUS
100
AcDbVertex
100
AcDb2dVertex
 10
-264.0
 20
-138.0
 30
0.0
  0
VERTEX
  5
61B
100
AcDbEntity
  8
OBJECT
  6
CONTINUOUS
100
AcDbVertex
100
AcDb2dVertex
 10
-264.0
 20
-800.0
 30
0.0
  0
VERTEX
  5
61C
100
AcDbEntity
  8
OBJECT
  6
CONTINUOUS
100
AcDbVertex
100
AcDb2dVertex
 10
-270.0
 20
-800.0
 30
0.0
  0
SEQEND
  5
61D
100
AcDbEntity
  8
OBJECT
  6
CONTINUOUS
  0
LWPOLYLINE
  5
61E
100
AcDbEntity
  8
OBJECT
  6
CONTINUOUS
100
AcDbPolyline
 90
        5
 70
             129
 10
-263.0
 20
-158.0
 42
-0.414213562373095
 10
-259.0
 20
-154.0
 42
-0.414213562373095
 10
-255.0
 20
-158.0
 42
-0.414213562373095
 10
-259.0
 20
-162.0
 42
-0.414213562373095
 10
-263.0
 20
-158.0
 42
-0.414213562373095
  0
LWPOLYLINE
  5
61F
100
AcDbEntity
  8
OBJECT
  6
CONTINUOUS
100
AcDbPolyline
 90
        5
 70
             129
 10
-270.0
 20
-158.0
 42
-0.414213562373095
 10
-259.0
 20
-147.0
 42
-0.414213562373095
 10
-248.0
 20
-158.0
 42
-0.414213562373095
 10
-259.0
 20
-169.0
 42
-0.414213562373095
 10
-270.0
 20
-158.0
 42
-0.414213562373095
  0
LWPOLYLINE
  5
620
100
AcDbEntity
  8
HIDDEN
  6
STYLE_04
100
AcDbPolyline
 90
        5
 70
             129
 10
-292.0
 20
-312.0
 42
-0.414213562373095
 10
-281.0
 20
-301.0
 42
-0.414213562373095
 10
-270.0
 20
-312.0
 42
-0.414213562373095
 10
-281.0
 20
-323.0
 42
-0.414213562373095
 10
-292.0
 20
-312.0
 42
-0.414213562373095
  0
POLYLINE
  5
621
100
AcDbEntity
  8
OBJECT
  6
CONTINUOUS
100
AcDb2dPolyline
 66
               1
 10
0.0
 20
0.0
 30
0.0
 70
               1
 75
               5
  0
VERTEX
  5
622
100
AcDbEntity
  8
OBJECT
  6
CONTINUOUS
100
AcDbVertex
100
AcDb2dVertex
 10
-244.0
 20
-317.0
 30
0.0
  0
VERTEX
  5
623
100
AcDbEntity
  8
OBJECT
  6
CONTINUOUS
100
AcDbVertex
100
AcDb2dVertex
 10
-246.0
 20
-317.0
 30
0.0
  0
VERTEX
  5
624
100
AcDbEntity
  8
OBJECT
  6
CONTINUOUS
100
AcDbVertex
100
AcDb2dVertex
 10
-246.0
 20
-325.0
 30
0.0
  0
VERTEX
  5
625
100
AcDbEntity
  8
OBJECT
  6
CONTINUOUS
100
AcDbVertex
100
AcDb2dVertex
 10
-254.0
 20
-325.0
 30
0.0
  0
VERTEX
  5
626
100
AcDbEntity
  8
OBJECT
  6
CONTINUOUS
100
AcDbVertex
100
AcDb2dVertex
 10
-254.0
 20
-327.0
 30
0.0
  0
VERTEX
  5
627
100
AcDbEntity
  8
OBJECT
  6
CONTINUOUS
100
AcDbVertex
100
AcDb2dVertex
 10
-244.0
 20
-327.0
 30
0.0
  0
SEQEND
  5
628
100
AcDbEntity
  8
OBJECT
  6
CONTINUOUS
  0
POLYLINE
  5
629
100
AcDbEntity
  8
HIDDEN
  6
STYLE_04
100
AcDb2dPolyline
 66
               1
 10
0.0
 20
0.0
 30
0.0
 75
               5
  0
VERTEX
  5
62A
100
AcDbEntity
  8
HIDDEN
  6
STYLE_04
100
AcDbVertex
100
AcDb2dVertex
 10
-264.0
 20
-325.0
 30
0.0
  0
VERTEX
  5
62B
100
AcDbEntity
  8
HIDDEN
  6
STYLE_04
100
AcDbVertex
100
AcDb2dVertex
 10
-556.0
 20
-325.0
 30
0.0
  0
VERTEX
  5
62C
100
AcDbEntity
  8
HIDDEN
  6
STYLE_04
100
AcDbVertex
100
AcDb2dVertex
 10
-556.0
 20
-145.0
 30
0.0
  0
VERTEX
  5
62D
100
AcDbEntity
  8
HIDDEN
  6
STYLE_04
100
AcDbVertex
100
AcDb2dVertex
 10
-264.0
 20
-145.0
 30
0.0
  0
SEQEND
  5
62E
100
AcDbEntity
  8
HIDDEN
  6
STYLE_04
  0
POLYLINE
  5
62F
100
AcDbEntity
  8
OBJECT
  6
CONTINUOUS
100
AcDb2dPolyline
 66
               1
 10
0.0
 20
0.0
 30
0.0
 70
               1
 75
               5
  0
VERTEX
  5
630
100
AcDbEntity
  8
OBJECT
  6
CONTINUOUS
100
AcDbVertex
100
AcDb2dVertex
 10
279.0
 20
-138.0
 30
0.0
  0
VERTEX
  5
631
100
AcDbEntity
  8
OBJECT
  6
CONTINUOUS
100
AcDbVertex
100
AcDb2dVertex
 10
721.0
 20
-138.0
 30
0.0
  0
VERTEX
  5
632
100
AcDbEntity
  8
OBJECT
  6
CONTINUOUS
100
AcDbVertex
100
AcDb2dVertex
 10
721.0
 20
-800.0
 30
0.0
  0
VERTEX
  5
633
100
AcDbEntity
  8
OBJECT
  6
CONTINUOUS
100
AcDbVertex
100
AcDb2dVertex
 10
279.0
 20
-800.0
 30
0.0
  0
SEQEND
  5
634
100
AcDbEntity
  8
OBJECT
  6
CONTINUOUS
  0
POLYLINE
  5
635
100
AcDbEntity
  8
OBJECT
  6
CONTINUOUS
100
AcDb2dPolyline
 66
               1
 10
0.0
 20
0.0
 30
0.0
 70
               1
 75
               5
  0
VERTEX
  5
636
100
AcDbEntity
  8
OBJECT
  6
CONTINUOUS
100
AcDbVertex
100
AcDb2dVertex
 10
265.0
 20
-130.0
 30
0.0
  0
VERTEX
  5
637
100
AcDbEntity
  8
OBJECT
  6
CONTINUOUS
100
AcDbVertex
100
AcDb2dVertex
 10
735.0
 20
-130.0
 30
0.0
  0
VERTEX
  5
638
100
AcDbEntity
  8
OBJECT
  6
CONTINUOUS
100
AcDbVertex
100
AcDb2dVertex
 10
735.0
 20
-138.0
 30
0.0
  0
VERTEX
  5
639
100
AcDbEntity
  8
OBJECT
  6
CONTINUOUS
100
AcDbVertex
100
AcDb2dVertex
 10
265.0
 20
-138.0
 30
0.0
  0
SEQEND
  5
63A
100
AcDbEntity
  8
OBJECT
  6
CONTINUOUS
  0
LINE
  5
63B
100
AcDbEntity
  8
OBJECT
  6
CONTINUOUS
100
AcDbLine
 10
298.0
 20
-138.0
 30
0.0
 11
298.0
 21
-800.0
 31
0.0
  0
LINE
  5
63C
100
AcDbEntity
  8
OBJECT
  6
CONTINUOUS
100
AcDbLine
 10
702.0
 20
-138.0
 30
0.0
 11
702.0
 21
-800.0
 31
0.0
  0
POLYLINE
  5
63D
100
AcDbEntity
  8
OBJECT
  6
CONTINUOUS
100
AcDb2dPolyline
 66
               1
 10
0.0
 20
0.0
 30
0.0
 70
               1
 75
               5
  0
VERTEX
  5
63E
100
AcDbEntity
  8
OBJECT
  6
CONTINUOUS
100
AcDbVertex
100
AcDb2dVertex
 10
303.5
 20
-145.0
 30
0.0
  0
VERTEX
  5
63F
100
AcDbEntity
  8
OBJECT
  6
CONTINUOUS
100
AcDbVertex
100
AcDb2dVertex
 10
305.5
 20
-145.0
 30
0.0
  0
VERTEX
  5
640
100
AcDbEntity
  8
OBJECT
  6
CONTINUOUS
100
AcDbVertex
100
AcDb2dVertex
 10
305.5
 20
-325.0
 30
0.0
  0
VERTEX
  5
641
100
AcDbEntity
  8
OBJECT
  6
CONTINUOUS
100
AcDbVertex
100
AcDb2dVertex
 10
303.5
 20
-325.0
 30
0.0
  0
SEQEND
  5
642
100
AcDbEntity
  8
OBJECT
  6
CONTINUOUS
  0
POLYLINE
  5
643
100
AcDbEntity
  8
OBJECT
  6
CONTINUOUS
100
AcDb2dPolyline
 66
               1
 10
0.0
 20
0.0
 30
0.0
 70
               1
 75
               5
  0
VERTEX
  5
644
100
AcDbEntity
  8
OBJECT
  6
CONTINUOUS
100
AcDbVertex
100
AcDb2dVertex
 10
694.5
 20
-145.0
 30
0.0
  0
VERTEX
  5
645
100
AcDbEntity
  8
OBJECT
  6
CONTINUOUS
100
AcDbVertex
100
AcDb2dVertex
 10
696.5
 20
-145.0
 30
0.0
  0
VERTEX
  5
646
100
AcDbEntity
  8
OBJECT
  6
CONTINUOUS
100
AcDbVertex
100
AcDb2dVertex
 10
696.5
 20
-325.0
 30
0.0
  0
VERTEX
  5
647
100
AcDbEntity
  8
OBJECT
  6
CONTINUOUS
100
AcDbVertex
100
AcDb2dVertex
 10
694.5
 20
-325.0
 30
0.0
  0
SEQEND
  5
648
100
AcDbEntity
  8
OBJECT
  6
CONTINUOUS
  0
LINE
  5
649
100
AcDbEntity
  8
OBJECT
  6
CONTINUOUS
100
AcDbLine
 10
300.0
 20
-790.0
 30
0.0
 11
309.0
 21
-790.0
 31
0.0
  0
LINE
  5
64A
100
AcDbEntity
  8
OBJECT
  6
CONTINUOUS
100
AcDbLine
 10
691.0
 20
-790.0
 30
0.0
 11
700.0
 21
-790.0
 31
0.0
  0
LINE
  5
64B
100
AcDbEntity
  8
OBJECT
  6
CONTINUOUS
100
AcDbLine
 10
700.0
 20
-145.0
 30
0.0
 11
691.0
 21
-145.0
 31
0.0
  0
LINE
  5
64C
100
AcDbEntity
  8
OBJECT
  6
CONTINUOUS
100
AcDbLine
 10
309.0
 20
-145.0
 30
0.0
 11
300.0
 21
-145.0
 31
0.0
  0
POLYLINE
  5
64D
100
AcDbEntity
  8
OBJECT
  6
CONTINUOUS
100
AcDb2dPolyline
 66
               1
 10
0.0
 20
0.0
 30
0.0
 75
               5
  0
VERTEX
  5
64E
100
AcDbEntity
  8
OBJECT
  6
CONTINUOUS
100
AcDbVertex
100
AcDb2dVertex
 10
696.5
 20
-316.5
 30
0.0
  0
VERTEX
  5
64F
100
AcDbEntity
  8
OBJECT
  6
CONTINUOUS
100
AcDbVertex
100
AcDb2dVertex
 10
701.0
 20
-316.5
 30
0.0
  0
VERTEX
  5
650
100
AcDbEntity
  8
OBJECT
  6
CONTINUOUS
100
AcDbVertex
100
AcDb2dVertex
 10
701.0
 20
-326.5
 30
0.0
  0
VERTEX
  5
651
100
AcDbEntity
  8
OBJECT
  6
CONTINUOUS
100
AcDbVertex
100
AcDb2dVertex
 10
299.0
 20
-326.5
 30
0.0
  0
VERTEX
  5
652
100
AcDbEntity
  8
OBJECT
  6
CONTINUOUS
100
AcDbVertex
100
AcDb2dVertex
 10
299.0
 20
-316.5
 30
0.0
  0
VERTEX
  5
653
100
AcDbEntity
  8
OBJECT
  6
CONTINUOUS
100
AcDbVertex
100
AcDb2dVertex
 10
303.5
 20
-316.5
 30
0.0
  0
SEQEND
  5
654
100
AcDbEntity
  8
OBJECT
  6
CONTINUOUS
  0
LINE
  5
655
100
AcDbEntity
  8
OBJECT
  6
CONTINUOUS
100
AcDbLine
 10
700.0
 20
-326.5
 30
0.0
 11
700.0
 21
-800.0
 31
0.0
  0
LINE
  5
656
100
AcDbEntity
  8
OBJECT
  6
CONTINUOUS
100
AcDbLine
 10
300.0
 20
-326.5
 30
0.0
 11
300.0
 21
-800.0
 31
0.0
  0
LINE
  5
657
100
AcDbEntity
  8
OBJECT
  6
CONTINUOUS
100
AcDbLine
 10
309.0
 20
-326.5
 30
0.0
 11
309.0
 21
-800.0
 31
0.0
  0
LINE
  5
658
100
AcDbEntity
  8
OBJECT
  6
CONTINUOUS
100
AcDbLine
 10
311.0
 20
-326.5
 30
0.0
 11
311.0
 21
-800.0
 31
0.0
  0
LINE
  5
659
100
AcDbEntity
  8
OBJECT
  6
CONTINUOUS
100
AcDbLine
 10
691.0
 20
-326.5
 30
0.0
 11
691.0
 21
-800.0
 31
0.0
  0
LINE
  5
65A
100
AcDbEntity
  8
OBJECT
  6
CONTINUOUS
100
AcDbLine
 10
689.0
 20
-326.5
 30
0.0
 11
689.0
 21
-800.0
 31
0.0
  0
LWPOLYLINE
  5
65B
100
AcDbEntity
  8
OBJECT
  6
CONTINUOUS
100
AcDbPolyline
 90
        8
 70
             129
 10
702.0
 20
-148.0
 42
-0.414213562373095
 10
703.0
 20
-147.0
 10
708.0
 20
-147.0
 42
-0.414213562373095
 10
709.0
 20
-148.0
 10
709.0
 20
-168.0
 42
-0.414213562373095
 10
708.0
 20
-169.0
 10
703.0
 20
-169.0
 42
-0.414213562373095
 10
702.0
 20
-168.0
  0
POLYLINE
  5
65C
100
AcDbEntity
  8
OBJECT
  6
CONTINUOUS
100
AcDb2dPolyline
 66
               1
 10
0.0
 20
0.0
 30
0.0
 70
               1
 75
               5
  0
VERTEX
  5
65D
100
AcDbEntity
  8
OBJECT
  6
CONTINUOUS
100
AcDbVertex
100
AcDb2dVertex
 10
696.5
 20
-154.0
 30
0.0
  0
VERTEX
  5
65E
100
AcDbEntity
  8
OBJECT
  6
CONTINUOUS
100
AcDbVertex
100
AcDb2dVertex
 10
702.0
 20
-154.0
 30
0.0
  0
VERTEX
  5
65F
100
AcDbEntity
  8
OBJECT
  6
CONTINUOUS
100
AcDbVertex
100
AcDb2dVertex
 10
702.0
 20
-162.0
 30
0.0
  0
VERTEX
  5
660
100
AcDbEntity
  8
OBJECT
  6
CONTINUOUS
100
AcDbVertex
100
AcDb2dVertex
 10
696.5
 20
-162.0
 30
0.0
  0
SEQEND
  5
661
100
AcDbEntity
  8
OBJECT
  6
CONTINUOUS
  0
LWPOLYLINE
  5
662
100
AcDbEntity
  8
OBJECT
  6
CONTINUOUS
100
AcDbPolyline
 90
        8
 70
             129
 10
298.0
 20
-148.0
 42
0.414213562373095
 10
297.0
 20
-147.0
 10
292.0
 20
-147.0
 42
0.414213562373095
 10
291.0
 20
-148.0
 10
291.0
 20
-168.0
 42
0.414213562373095
 10
292.0
 20
-169.0
 10
297.0
 20
-169.0
 42
0.414213562373095
 10
298.0
 20
-168.0
  0
POLYLINE
  5
663
100
AcDbEntity
  8
OBJECT
  6
CONTINUOUS
100
AcDb2dPolyline
 66
               1
 10
0.0
 20
0.0
 30
0.0
 70
               1
 75
               5
  0
VERTEX
  5
664
100
AcDbEntity
  8
OBJECT
  6
CONTINUOUS
100
AcDbVertex
100
AcDb2dVertex
 10
298.0
 20
-154.0
 30
0.0
  0
VERTEX
  5
665
100
AcDbEntity
  8
OBJECT
  6
CONTINUOUS
100
AcDbVertex
100
AcDb2dVertex
 10
303.5
 20
-154.0
 30
0.0
  0
VERTEX
  5
666
100
AcDbEntity
  8
OBJECT
  6
CONTINUOUS
100
AcDbVertex
100
AcDb2dVertex
 10
303.5
 20
-162.0
 30
0.0
  0
VERTEX
  5
667
100
AcDbEntity
  8
OBJECT
  6
CONTINUOUS
100
AcDbVertex
100
AcDb2dVertex
 10
298.0
 20
-162.0
 30
0.0
  0
SEQEND
  5
668
100
AcDbEntity
  8
OBJECT
  6
CONTINUOUS
  0
POLYLINE
  5
669
100
AcDbEntity
  8
OBJECT
  6
CONTINUOUS
100
AcDb2dPolyline
 66
               1
 10
0.0
 20
0.0
 30
0.0
 70
               1
 75
               5
  0
VERTEX
  5
66A
100
AcDbEntity
  8
OBJECT
  6
CONTINUOUS
100
AcDbVertex
100
AcDb2dVertex
 10
289.0
 20
-154.0
 30
0.0
  0
VERTEX
  5
66B
100
AcDbEntity
  8
OBJECT
  6
CONTINUOUS
100
AcDbVertex
100
AcDb2dVertex
 10
291.0
 20
-154.0
 30
0.0
  0
VERTEX
  5
66C
100
AcDbEntity
  8
OBJECT
  6
CONTINUOUS
100
AcDbVertex
100
AcDb2dVertex
 10
291.0
 20
-162.0
 30
0.0
  0
VERTEX
  5
66D
100
AcDbEntity
  8
OBJECT
  6
CONTINUOUS
100
AcDbVertex
100
AcDb2dVertex
 10
289.0
 20
-162.0
 30
0.0
  0
SEQEND
  5
66E
100
AcDbEntity
  8
OBJECT
  6
CONTINUOUS
  0
LINE
  5
66F
100
AcDbEntity
  8
OBJECT
  6
CONTINUOUS
100
AcDbLine
 10
300.0
 20
-162.0
 30
0.0
 11
300.0
 21
-316.5
 31
0.0
  0
LINE
  5
670
100
AcDbEntity
  8
OBJECT
  6
CONTINUOUS
100
AcDbLine
 10
300.0
 20
-143.0
 30
0.0
 11
300.0
 21
-154.0
 31
0.0
  0
POLYLINE
  5
671
100
AcDbEntity
  8
OBJECT
  6
CONTINUOUS
100
AcDb2dPolyline
 66
               1
 10
0.0
 20
0.0
 30
0.0
 70
               1
 75
               5
  0
VERTEX
  5
672
100
AcDbEntity
  8
OBJECT
  6
CONTINUOUS
100
AcDbVertex
100
AcDb2dVertex
 10
709.0
 20
-154.0
 30
0.0
  0
VERTEX
  5
673
100
AcDbEntity
  8
OBJECT
  6
CONTINUOUS
100
AcDbVertex
100
AcDb2dVertex
 10
711.0
 20
-154.0
 30
0.0
  0
VERTEX
  5
674
100
AcDbEntity
  8
OBJECT
  6
CONTINUOUS
100
AcDbVertex
100
AcDb2dVertex
 10
711.0
 20
-162.0
 30
0.0
  0
VERTEX
  5
675
100
AcDbEntity
  8
OBJECT
  6
CONTINUOUS
100
AcDbVertex
100
AcDb2dVertex
 10
709.0
 20
-162.0
 30
0.0
  0
SEQEND
  5
676
100
AcDbEntity
  8
OBJECT
  6
CONTINUOUS
  0
LINE
  5
677
100
AcDbEntity
  8
OBJECT
  6
CONTINUOUS
100
AcDbLine
 10
700.0
 20
-162.0
 30
0.0
 11
700.0
 21
-316.5
 31
0.0
  0
LINE
  5
678
100
AcDbEntity
  8
OBJECT
  6
CONTINUOUS
100
AcDbLine
 10
700.0
 20
-143.0
 30
0.0
 11
700.0
 21
-154.0
 31
0.0
  0
LWPOLYLINE
  5
679
100
AcDbEntity
  8
OBJECT
  6
CONTINUOUS
100
AcDbPolyline
 90
        5
 70
             129
 10
614.5
 20
-321.5
 42
-0.414213562373095
 10
616.0
 20
-320.0
 42
-0.414213562373095
 10
617.5
 20
-321.5
 42
-0.414213562373095
 10
616.0
 20
-323.0
 42
-0.414213562373095
 10
614.5
 20
-321.5
 42
-0.414213562373095
  0
LWPOLYLINE
  5
67A
100
AcDbEntity
  8
OBJECT
  6
CONTINUOUS
100
AcDbPolyline
 90
        5
 70
             129
 10
382.5
 20
-321.5
 42
-0.414213562373095
 10
384.0
 20
-320.0
 42
-0.414213562373095
 10
385.5
 20
-321.5
 42
-0.414213562373095
 10
384.0
 20
-323.0
 42
-0.414213562373095
 10
382.5
 20
-321.5
 42
-0.414213562373095
  0
LINE
  5
67B
100
AcDbEntity
  8
OBJECT
  6
CONTINUOUS
100
AcDbLine
 10
305.5
 20
-316.5
 30
0.0
 11
322.5
 21
-316.5
 31
0.0
  0
LINE
  5
67C
100
AcDbEntity
  8
OBJECT
  6
CONTINUOUS
100
AcDbLine
 10
325.5
 20
-316.5
 30
0.0
 11
342.5
 21
-316.5
 31
0.0
  0
LINE
  5
67D
100
AcDbEntity
  8
OBJECT
  6
CONTINUOUS
100
AcDbLine
 10
345.5
 20
-316.5
 30
0.0
 11
362.5
 21
-316.5
 31
0.0
  0
LINE
  5
67E
100
AcDbEntity
  8
OBJECT
  6
CONTINUOUS
100
AcDbLine
 10
365.5
 20
-316.5
 30
0.0
 11
634.5
 21
-316.5
 31
0.0
  0
LINE
  5
67F
100
AcDbEntity
  8
OBJECT
  6
CONTINUOUS
100
AcDbLine
 10
637.5
 20
-316.5
 30
0.0
 11
654.5
 21
-316.5
 31
0.0
  0
LINE
  5
680
100
AcDbEntity
  8
OBJECT
  6
CONTINUOUS
100
AcDbLine
 10
657.5
 20
-316.5
 30
0.0
 11
674.5
 21
-316.5
 31
0.0
  0
LINE
  5
681
100
AcDbEntity
  8
OBJECT
  6
CONTINUOUS
100
AcDbLine
 10
677.5
 20
-316.5
 30
0.0
 11
694.5
 21
-316.5
 31
0.0
  0
LINE
  5
682
100
AcDbEntity
  8
OBJECT
  6
CONTINUOUS
100
AcDbLine
 10
700.99989999999889
 20
-143.0
 30
0.0
 11
700.99989999999889
 21
-138.0
 31
0.0
  0
LINE
  5
683
100
AcDbEntity
  8
OBJECT
  6
CONTINUOUS
100
AcDbLine
 10
299.0
 20
-143.0
 30
0.0
 11
299.0
 21
-138.0
 31
0.0
  0
LINE
  5
684
100
AcDbEntity
  8
OBJECT
  6
CONTINUOUS
100
AcDbLine
 10
700.99989999999889
 20
-143.0
 30
0.0
 11
677.5
 21
-143.0
 31
0.0
  0
LINE
  5
685
100
AcDbEntity
  8
OBJECT
  6
CONTINUOUS
100
AcDbLine
 10
674.5
 20
-143.0
 30
0.0
 11
657.5
 21
-143.0
 31
0.0
  0
LINE
  5
686
100
AcDbEntity
  8
OBJECT
  6
CONTINUOUS
100
AcDbLine
 10
654.5
 20
-143.0
 30
0.0
 11
637.5
 21
-143.0
 31
0.0
  0
LINE
  5
687
100
AcDbEntity
  8
OBJECT
  6
CONTINUOUS
100
AcDbLine
 10
634.5
 20
-143.0
 30
0.0
 11
365.5
 21
-143.0
 31
0.0
  0
LINE
  5
688
100
AcDbEntity
  8
OBJECT
  6
CONTINUOUS
100
AcDbLine
 10
362.5
 20
-143.0
 30
0.0
 11
345.5
 21
-143.0
 31
0.0
  0
LINE
  5
689
100
AcDbEntity
  8
OBJECT
  6
CONTINUOUS
100
AcDbLine
 10
342.5
 20
-143.0
 30
0.0
 11
325.5
 21
-143.0
 31
0.0
  0
LINE
  5
68A
100
AcDbEntity
  8
OBJECT
  6
CONTINUOUS
100
AcDbLine
 10
322.5
 20
-143.0
 30
0.0
 11
299.0
 21
-143.0
 31
0.0
  0
ARC
  5
68B
100
AcDbEntity
  8
OBJECT
  6
CONTINUOUS
100
AcDbCircle
 10
-600.0
 20
-790.0
 30
0.0
 40
10.0
100
AcDbArc
 50
180.0
 51
270.0
  0
POLYLINE
  5
68C
100
AcDbEntity
  8
OBJECT
  6
CONTINUOUS
100
AcDb2dPolyline
 66
               1
 10
0.0
 20
0.0
 30
0.0
 70
               1
 75
               5
  0
VERTEX
  5
68D
100
AcDbEntity
  8
OBJECT
  6
CONTINUOUS
100
AcDbVertex
100
AcDb2dVertex
 10
-612.0
 20
-655.0
 30
0.0
  0
VERTEX
  5
68E
100
AcDbEntity
  8
OBJECT
  6
CONTINUOUS
100
AcDbVertex
100
AcDb2dVertex
 10
-600.0
 20
-655.0
 30
0.0
  0
VERTEX
  5
68F
100
AcDbEntity
  8
OBJECT
  6
CONTINUOUS
100
AcDbVertex
100
AcDb2dVertex
 10
-600.0
 20
-665.0
 30
0.0
  0
VERTEX
  5
690
100
AcDbEntity
  8
OBJECT
  6
CONTINUOUS
100
AcDbVertex
100
AcDb2dVertex
 10
-612.0
 20
-665.0
 30
0.0
  0
SEQEND
  5
691
100
AcDbEntity
  8
OBJECT
  6
CONTINUOUS
  0
LINE
  5
692
100
AcDbEntity
  8
OBJECT
  6
CONTINUOUS
100
AcDbLine
 10
-610.0
 20
-790.0
 30
0.0
 11
-610.0
 21
-665.0
 31
0.0
  0
LINE
  5
693
100
AcDbEntity
  8
CENTER
  6
STYLE_03
100
AcDbLine
 10
-195.0
 20
600.0
 30
0.0
 11
-650.0
 21
600.0
 31
0.0
  0
LINE
  5
694
100
AcDbEntity
  8
CENTER
  6
STYLE_03
100
AcDbLine
 10
500.0
 20
-75.0
 30
0.0
 11
500.0
 21
-840.0
 31
0.0
  0
POLYLINE
  5
695
100
AcDbEntity
  8
HIDDEN
  6
STYLE_04
100
AcDb2dPolyline
 66
               1
 10
0.0
 20
0.0
 30
0.0
 75
               5
  0
VERTEX
  5
696
100
AcDbEntity
  8
HIDDEN
  6
STYLE_04
100
AcDbVertex
100
AcDb2dVertex
 10
-599.0
 20
-130.0
 30
0.0
  0
VERTEX
  5
697
100
AcDbEntity
  8
HIDDEN
  6
STYLE_04
100
AcDbVertex
100
AcDb2dVertex
 10
-594.0
 20
-130.0
 30
0.0
  0
VERTEX
  5
698
100
AcDbEntity
  8
HIDDEN
  6
STYLE_04
100
AcDbVertex
100
AcDb2dVertex
 10
-594.0
 20
-485.0
 30
0.0
  0
VERTEX
  5
699
100
AcDbEntity
  8
HIDDEN
  6
STYLE_04
100
AcDbVertex
100
AcDb2dVertex
 10
-599.0
 20
-485.0
 30
0.0
  0
VERTEX
  5
69A
100
AcDbEntity
  8
HIDDEN
  6
STYLE_04
100
AcDbVertex
100
AcDb2dVertex
 10
-599.0
 20
-130.0
 30
0.0
  0
SEQEND
  5
69B
100
AcDbEntity
  8
HIDDEN
  6
STYLE_04
  0
POLYLINE
  5
69C
100
AcDbEntity
  8
OBJECT
  6
CONTINUOUS
100
AcDb2dPolyline
 66
               1
 10
0.0
 20
0.0
 30
0.0
 75
               5
  0
VERTEX
  5
69D
100
AcDbEntity
  8
OBJECT
  6
CONTINUOUS
100
AcDbVertex
100
AcDb2dVertex
 10
-594.0
 20
-130.0
 30
0.0
  0
VERTEX
  5
69E
100
AcDbEntity
  8
OBJECT
  6
CONTINUOUS
100
AcDbVertex
100
AcDb2dVertex
 10
-594.0
 20
-107.0
 30
0.0
  0
VERTEX
  5
69F
100
AcDbEntity
  8
OBJECT
  6
CONTINUOUS
100
AcDbVertex
100
AcDb2dVertex
 10
-599.0
 20
-107.0
 30
0.0
  0
VERTEX
  5
6A0
100
AcDbEntity
  8
OBJECT
  6
CONTINUOUS
100
AcDbVertex
100
AcDb2dVertex
 10
-599.0
 20
-130.0
 30
0.0
  0
SEQEND
  5
6A1
100
AcDbEntity
  8
OBJECT
  6
CONTINUOUS
  0
INSERT
  5
6A2
100
AcDbEntity
  8
OBJECT
100
AcDbBlockReference
  2
*U17
 10
0.0
 20
19.999999999999996
 30
0.0
  0
LINE
  5
6A3
100
AcDbEntity
  8
OBJECT
  6
CONTINUOUS
100
AcDbLine
 10
305.5
 20
-154.0
 30
0.0
 11
316.74017937580447
 21
-154.0
 31
0.0
  0
LINE
  5
6A4
100
AcDbEntity
  8
OBJECT
  6
CONTINUOUS
100
AcDbLine
 10
325.65982062419607
 20
-154.0
 30
0.0
 11
336.74017937580447
 21
-154.0
 31
0.0
  0
LINE
  5
6A5
100
AcDbEntity
  8
OBJECT
  6
CONTINUOUS
100
AcDbLine
 10
345.65982062419607
 20
-154.0
 30
0.0
 11
356.74017937580356
 21
-154.0
 31
0.0
  0
LINE
  5
6A6
100
AcDbEntity
  8
OBJECT
  6
CONTINUOUS
100
AcDbLine
 10
365.65982062419607
 20
-154.0
 30
0.0
 11
628.74017937580356
 21
-154.0
 31
0.0
  0
LINE
  5
6A7
100
AcDbEntity
  8
OBJECT
  6
CONTINUOUS
100
AcDbLine
 10
637.65982062419516
 20
-154.0
 30
0.0
 11
648.74017937580447
 21
-154.0
 31
0.0
  0
LINE
  5
6A8
100
AcDbEntity
  8
OBJECT
  6
CONTINUOUS
100
AcDbLine
 10
657.65982062419516
 20
-154.0
 30
0.0
 11
668.74017937580265
 21
-154.0
 31
0.0
  0
LINE
  5
6A9
100
AcDbEntity
  8
OBJECT
  6
CONTINUOUS
100
AcDbLine
 10
677.65982062419516
 20
-154.0
 30
0.0
 11
694.5
 21
-154.0
 31
0.0
  0
LINE
  5
6AA
100
AcDbEntity
  8
OBJECT
  6
CONTINUOUS
100
AcDbLine
 10
694.5
 20
-162.0
 30
0.0
 11
674.85982062419498
 21
-162.0
 31
0.0
  0
LINE
  5
6AB
100
AcDbEntity
  8
OBJECT
  6
CONTINUOUS
100
AcDbLine
 10
667.58578643762758
 20
-162.0
 30
0.0
 11
654.85982062419498
 21
-162.0
 31
0.0
  0
LINE
  5
6AC
100
AcDbEntity
  8
OBJECT
  6
CONTINUOUS
100
AcDbLine
 10
647.58578643762758
 20
-162.0
 30
0.0
 11
634.85982062419589
 21
-162.0
 31
0.0
  0
LINE
  5
6AD
100
AcDbEntity
  8
OBJECT
  6
CONTINUOUS
100
AcDbLine
 10
627.58578643762758
 20
-162.0
 30
0.0
 11
362.85982062419498
 21
-162.0
 31
0.0
  0
LINE
  5
6AE
100
AcDbEntity
  8
OBJECT
  6
CONTINUOUS
100
AcDbLine
 10
355.58578643762667
 20
-162.0
 30
0.0
 11
342.85982062419498
 21
-162.0
 31
0.0
  0
LINE
  5
6AF
100
AcDbEntity
  8
OBJECT
  6
CONTINUOUS
100
AcDbLine
 10
335.58578643762576
 20
-162.0
 30
0.0
 11
322.85982062419498
 21
-162.0
 31
0.0
  0
LINE
  5
6B0
100
AcDbEntity
  8
OBJECT
  6
CONTINUOUS
100
AcDbLine
 10
315.58578643762667
 20
-162.0
 30
0.0
 11
305.5
 21
-162.0
 31
0.0
  0
LINE
  5
6B1
100
AcDbEntity
  8
OBJECT
  6
CONTINUOUS
100
AcDbLine
 10
689.0
 20
-162.0
 30
0.0
 11
689.0
 21
-316.5
 31
0.0
  0
LINE
  5
6B2
100
AcDbEntity
  8
OBJECT
  6
CONTINUOUS
100
AcDbLine
 10
689.0
 20
-143.0
 30
0.0
 11
689.0
 21
-154.0
 31
0.0
  0
LINE
  5
6B3
100
AcDbEntity
  8
OBJECT
  6
CONTINUOUS
100
AcDbLine
 10
691.0
 20
-162.0
 30
0.0
 11
691.0
 21
-316.5
 31
0.0
  0
LINE
  5
6B4
100
AcDbEntity
  8
OBJECT
  6
CONTINUOUS
100
AcDbLine
 10
691.0
 20
-143.0
 30
0.0
 11
691.0
 21
-154.0
 31
0.0
  0
LINE
  5
6B5
100
AcDbEntity
  8
OBJECT
  6
CONTINUOUS
100
AcDbLine
 10
309.0
 20
-162.0
 30
0.0
 11
309.0
 21
-316.5
 31
0.0
  0
LINE
  5
6B6
100
AcDbEntity
  8
OBJECT
  6
CONTINUOUS
100
AcDbLine
 10
309.0
 20
-143.0
 30
0.0
 11
309.0
 21
-154.0
 31
0.0
  0
LINE
  5
6B7
100
AcDbEntity
  8
OBJECT
  6
CONTINUOUS
100
AcDbLine
 10
311.0
 20
-162.0
 30
0.0
 11
311.0
 21
-316.5
 31
0.0
  0
LINE
  5
6B8
100
AcDbEntity
  8
OBJECT
  6
CONTINUOUS
100
AcDbLine
 10
311.0
 20
-143.0
 30
0.0
 11
311.0
 21
-154.0
 31
0.0
  0
LINE
  5
6B9
100
AcDbEntity
  8
OBJECT
  6
CONTINUOUS
100
AcDbLine
 10
-559.0
 20
407.0
 30
0.0
 11
-559.0
 21
793.0
 31
0.0
  0
LINE
  5
6BA
100
AcDbEntity
  8
OBJECT
  6
CONTINUOUS
100
AcDbLine
 10
-554.0
 20
402.0
 30
0.0
 11
-559.0
 21
407.0
 31
0.0
  0
LINE
  5
6BB
100
AcDbEntity
  8
OBJECT
  6
CONTINUOUS
100
AcDbLine
 10
-290.0
 20
402.0
 30
0.0
 11
-554.0
 21
402.0
 31
0.0
  0
LINE
  5
6BC
100
AcDbEntity
  8
OBJECT
  6
CONTINUOUS
100
AcDbLine
 10
-285.0
 20
407.0
 30
0.0
 11
-290.0
 21
402.0
 31
0.0
  0
LINE
  5
6BD
100
AcDbEntity
  8
OBJECT
  6
CONTINUOUS
100
AcDbLine
 10
-285.0
 20
793.0
 30
0.0
 11
-285.0
 21
635.0
 31
0.0
  0
LINE
  5
6BE
100
AcDbEntity
  8
OBJECT
  6
CONTINUOUS
100
AcDbLine
 10
-285.0
 20
565.0
 30
0.0
 11
-285.0
 21
407.0
 31
0.0
  0
LINE
  5
6BF
100
AcDbEntity
  8
OBJECT
  6
CONTINUOUS
100
AcDbLine
 10
-290.0
 20
798.0
 30
0.0
 11
-285.0
 21
793.0
 31
0.0
  0
LINE
  5
6C0
100
AcDbEntity
  8
OBJECT
  6
CONTINUOUS
100
AcDbLine
 10
-554.0
 20
798.0
 30
0.0
 11
-290.0
 21
798.0
 31
0.0
  0
LINE
  5
6C1
100
AcDbEntity
  8
OBJECT
  6
CONTINUOUS
100
AcDbLine
 10
-559.0
 20
793.0
 30
0.0
 11
-554.0
 21
798.0
 31
0.0
  0
POLYLINE
  5
6C2
100
AcDbEntity
  8
OBJECT
  6
CONTINUOUS
100
AcDb2dPolyline
 66
               1
 10
0.0
 20
0.0
 30
0.0
 75
               5
  0
VERTEX
  5
6C3
100
AcDbEntity
  8
OBJECT
  6
CONTINUOUS
100
AcDbVertex
100
AcDb2dVertex
 10
-288.0
 20
404.0
 30
0.0
  0
VERTEX
  5
6C4
100
AcDbEntity
  8
OBJECT
  6
CONTINUOUS
100
AcDbVertex
100
AcDb2dVertex
 10
-270.0
 20
404.0
 30
0.0
  0
VERTEX
  5
6C5
100
AcDbEntity
  8
OBJECT
  6
CONTINUOUS
100
AcDbVertex
100
AcDb2dVertex
 10
-270.0
 20
402.0
 30
0.0
  0
VERTEX
  5
6C6
100
AcDbEntity
  8
OBJECT
  6
CONTINUOUS
100
AcDbVertex
100
AcDb2dVertex
 10
-290.0
 20
402.0
 30
0.0
  0
VERTEX
  5
6C7
100
AcDbEntity
  8
OBJECT
  6
CONTINUOUS
100
AcDbVertex
100
AcDb2dVertex
 10
-290.0
 20
402.0
 30
0.0
  0
SEQEND
  5
6C8
100
AcDbEntity
  8
OBJECT
  6
CONTINUOUS
  0
POLYLINE
  5
6C9
100
AcDbEntity
  8
OBJECT
  6
CONTINUOUS
100
AcDb2dPolyline
 66
               1
 10
0.0
 20
0.0
 30
0.0
 75
               5
  0
VERTEX
  5
6CA
100
AcDbEntity
  8
OBJECT
  6
CONTINUOUS
100
AcDbVertex
100
AcDb2dVertex
 10
-290.0
 20
798.0
 30
0.0
  0
VERTEX
  5
6CB
100
AcDbEntity
  8
OBJECT
  6
CONTINUOUS
100
AcDbVertex
100
AcDb2dVertex
 10
-290.0
 20
798.0
 30
0.0
  0
VERTEX
  5
6CC
100
AcDbEntity
  8
OBJECT
  6
CONTINUOUS
100
AcDbVertex
100
AcDb2dVertex
 10
-270.0
 20
798.0
 30
0.0
  0
VERTEX
  5
6CD
100
AcDbEntity
  8
OBJECT
  6
CONTINUOUS
100
AcDbVertex
100
AcDb2dVertex
 10
-270.0
 20
796.0
 30
0.0
  0
VERTEX
  5
6CE
100
AcDbEntity
  8
OBJECT
  6
CONTINUOUS
100
AcDbVertex
100
AcDb2dVertex
 10
-288.0
 20
796.0
 30
0.0
  0
SEQEND
  5
6CF
100
AcDbEntity
  8
OBJECT
  6
CONTINUOUS
  0
LINE
  5
6D0
100
AcDbEntity
  8
OBJECT
  6
CONTINUOUS
100
AcDbLine
 10
-246.0
 20
-325.0
 30
0.0
 11
-264.0
 21
-325.0
 31
0.0
  0
POLYLINE
  5
6D1
100
AcDbEntity
  8
OBJECT
  6
CONTINUOUS
100
AcDb2dPolyline
 66
               1
 10
0.0
 20
0.0
 30
0.0
 75
               5
  0
VERTEX
  5
6D2
100
AcDbEntity
  8
OBJECT
  6
CONTINUOUS
100
AcDbVertex
100
AcDb2dVertex
 10
-244.0
 20
-325.0
 30
0.0
  0
VERTEX
  5
6D3
100
AcDbEntity
  8
OBJECT
  6
CONTINUOUS
100
AcDbVertex
100
AcDb2dVertex
 10
-236.0
 20
-325.0
 30
0.0
  0
VERTEX
  5
6D4
100
AcDbEntity
  8
OBJECT
  6
CONTINUOUS
100
AcDbVertex
100
AcDb2dVertex
 10
-236.0
 20
-145.0
 30
0.0
  0
VERTEX
  5
6D5
100
AcDbEntity
  8
OBJECT
  6
CONTINUOUS
100
AcDbVertex
100
AcDb2dVertex
 10
-264.0
 20
-145.0
 30
0.0
  0
SEQEND
  5
6D6
100
AcDbEntity
  8
OBJECT
  6
CONTINUOUS
  0
LWPOLYLINE
  5
6D7
100
AcDbEntity
  8
OBJECT
  6
CONTINUOUS
100
AcDbPolyline
 90
        5
 70
             129
 10
-263.0
 20
-623.0
 42
-0.414213562373095
 10
-259.0
 20
-619.0
 42
-0.414213562373095
 10
-255.0
 20
-623.0
 42
-0.414213562373095
 10
-259.0
 20
-627.0
 42
-0.414213562373095
 10
-263.0
 20
-623.0
 42
-0.414213562373095
  0
LWPOLYLINE
  5
6D8
100
AcDbEntity
  8
OBJECT
  6
CONTINUOUS
100
AcDbPolyline
 90
        5
 70
             129
 10
-270.0
 20
-623.0
 42
-0.414213562373095
 10
-259.0
 20
-612.0
 42
-0.414213562373095
 10
-248.0
 20
-623.0
 42
-0.414213562373095
 10
-259.0
 20
-634.0
 42
-0.414213562373095
 10
-270.0
 20
-623.0
 42
-0.414213562373095
  0
LWPOLYLINE
  5
6D9
100
AcDbEntity
  8
HIDDEN
  6
STYLE_04
100
AcDbPolyline
 90
        5
 70
             129
 10
-292.0
 20
-777.0
 42
-0.414213562373095
 10
-281.0
 20
-766.0
 42
-0.414213562373095
 10
-270.0
 20
-777.0
 42
-0.414213562373095
 10
-281.0
 20
-788.0
 42
-0.414213562373095
 10
-292.0
 20
-777.0
 42
-0.414213562373095
  0
POLYLINE
  5
6DA
100
AcDbEntity
  8
OBJECT
  6
CONTINUOUS
100
AcDb2dPolyline
 66
               1
 10
0.0
 20
0.0
 30
0.0
 70
               1
 75
               5
  0
VERTEX
  5
6DB
100
AcDbEntity
  8
OBJECT
  6
CONTINUOUS
100
AcDbVertex
100
AcDb2dVertex
 10
-244.0
 20
-782.0
 30
0.0
  0
VERTEX
  5
6DC
100
AcDbEntity
  8
OBJECT
  6
CONTINUOUS
100
AcDbVertex
100
AcDb2dVertex
 10
-246.0
 20
-782.0
 30
0.0
  0
VERTEX
  5
6DD
100
AcDbEntity
  8
OBJECT
  6
CONTINUOUS
100
AcDbVertex
100
AcDb2dVertex
 10
-246.0
 20
-790.0
 30
0.0
  0
VERTEX
  5
6DE
100
AcDbEntity
  8
OBJECT
  6
CONTINUOUS
100
AcDbVertex
100
AcDb2dVertex
 10
-254.0
 20
-790.0
 30
0.0
  0
VERTEX
  5
6DF
100
AcDbEntity
  8
OBJECT
  6
CONTINUOUS
100
AcDbVertex
100
AcDb2dVertex
 10
-254.0
 20
-792.0
 30
0.0
  0
VERTEX
  5
6E0
100
AcDbEntity
  8
OBJECT
  6
CONTINUOUS
100
AcDbVertex
100
AcDb2dVertex
 10
-244.0
 20
-792.0
 30
0.0
  0
SEQEND
  5
6E1
100
AcDbEntity
  8
OBJECT
  6
CONTINUOUS
  0
POLYLINE
  5
6E2
100
AcDbEntity
  8
HIDDEN
  6
STYLE_04
100
AcDb2dPolyline
 66
               1
 10
0.0
 20
0.0
 30
0.0
 75
               5
  0
VERTEX
  5
6E3
100
AcDbEntity
  8
HIDDEN
  6
STYLE_04
100
AcDbVertex
100
AcDb2dVertex
 10
-264.0
 20
-790.0
 30
0.0
  0
VERTEX
  5
6E4
100
AcDbEntity
  8
HIDDEN
  6
STYLE_04
100
AcDbVertex
100
AcDb2dVertex
 10
-556.0
 20
-790.0
 30
0.0
  0
VERTEX
  5
6E5
100
AcDbEntity
  8
HIDDEN
  6
STYLE_04
100
AcDbVertex
100
AcDb2dVertex
 10
-556.0
 20
-610.0
 30
0.0
  0
VERTEX
  5
6E6
100
AcDbEntity
  8
HIDDEN
  6
STYLE_04
100
AcDbVertex
100
AcDb2dVertex
 10
-264.0
 20
-610.0
 30
0.0
  0
SEQEND
  5
6E7
100
AcDbEntity
  8
HIDDEN
  6
STYLE_04
  0
LINE
  5
6E8
100
AcDbEntity
  8
OBJECT
  6
CONTINUOUS
100
AcDbLine
 10
-246.0
 20
-790.0
 30
0.0
 11
-264.0
 21
-790.0
 31
0.0
  0
POLYLINE
  5
6E9
100
AcDbEntity
  8
OBJECT
  6
CONTINUOUS
100
AcDb2dPolyline
 66
               1
 10
0.0
 20
0.0
 30
0.0
 75
               5
  0
VERTEX
  5
6EA
100
AcDbEntity
  8
OBJECT
  6
CONTINUOUS
100
AcDbVertex
100
AcDb2dVertex
 10
-244.0
 20
-790.0
 30
0.0
  0
VERTEX
  5
6EB
100
AcDbEntity
  8
OBJECT
  6
CONTINUOUS
100
AcDbVertex
100
AcDb2dVertex
 10
-236.0
 20
-790.0
 30
0.0
  0
VERTEX
  5
6EC
100
AcDbEntity
  8
OBJECT
  6
CONTINUOUS
100
AcDbVertex
100
AcDb2dVertex
 10
-236.0
 20
-610.0
 30
0.0
  0
VERTEX
  5
6ED
100
AcDbEntity
  8
OBJECT
  6
CONTINUOUS
100
AcDbVertex
100
AcDb2dVertex
 10
-264.0
 20
-610.0
 30
0.0
  0
SEQEND
  5
6EE
100
AcDbEntity
  8
OBJECT
  6
CONTINUOUS
  0
POLYLINE
  5
6EF
100
AcDbEntity
  8
HIDDEN
  6
STYLE_16
100
AcDb2dPolyline
 66
               1
 10
0.0
 20
0.0
 30
0.0
 70
               1
 75
               5
  0
VERTEX
  5
6F0
100
AcDbEntity
  8
HIDDEN
  6
STYLE_16
100
AcDbVertex
100
AcDb2dVertex
 10
-535.0
 20
715.0
 30
0.0
  0
VERTEX
  5
6F1
100
AcDbEntity
  8
HIDDEN
  6
STYLE_16
100
AcDbVertex
100
AcDb2dVertex
 10
-335.0
 20
715.0
 30
0.0
  0
VERTEX
  5
6F2
100
AcDbEntity
  8
HIDDEN
  6
STYLE_16
100
AcDbVertex
100
AcDb2dVertex
 10
-335.0
 20
485.0
 30
0.0
  0
VERTEX
  5
6F3
100
AcDbEntity
  8
HIDDEN
  6
STYLE_16
100
AcDbVertex
100
AcDb2dVertex
 10
-535.0
 20
485.0
 30
0.0
  0
SEQEND
  5
6F4
100
AcDbEntity
  8
HIDDEN
  6
STYLE_16
  0
LINE
  5
6F5
100
AcDbEntity
  8
HIDDEN
  6
STYLE_04
100
AcDbLine
 10
-535.0
 20
-790.0
 30
0.0
 11
-535.0
 21
-735.0
 31
0.0
  0
LINE
  5
6F6
100
AcDbEntity
  8
HIDDEN
  6
STYLE_04
100
AcDbLine
 10
-335.0
 20
-735.0
 30
0.0
 11
-335.0
 21
-790.0
 31
0.0
  0
LINE
  5
6F7
100
AcDbEntity
  8
HIDDEN
  6
STYLE_04
100
AcDbLine
 10
-535.0
 20
-735.0
 30
0.0
 11
-335.0
 21
-735.0
 31
0.0
  0
LINE
  5
6F8
100
AcDbEntity
  8
HIDDEN
  6
STYLE_04
100
AcDbLine
 10
-535.0
 20
-755.0
 30
0.0
 11
-335.0
 21
-755.0
 31
0.0
  0
LWPOLYLINE
  5
6F9
100
AcDbEntity
  8
OBJECT
  6
CONTINUOUS
100
AcDbPolyline
 90
        8
 70
             129
 10
-610.0
 20
-655.0
 10
-610.0
 20
-652.0
 42
0.414213562373095
 10
-630.0
 20
-632.0
 10
-685.0
 20
-632.0
 10
-685.0
 20
-622.0
 10
-630.0
 20
-622.0
 42
-0.414213562373095
 10
-600.0
 20
-652.0
 10
-600.0
 20
-655.0
  0
POLYLINE
  5
6FA
100
AcDbEntity
  8
OBJECT
  6
CONTINUOUS
100
AcDb2dPolyline
 66
               1
 10
0.0
 20
0.0
 30
0.0
 70
               1
 75
               5
  0
VERTEX
  5
6FB
100
AcDbEntity
  8
OBJECT
  6
CONTINUOUS
100
AcDbVertex
100
AcDb2dVertex
 10
-715.0
 20
-619.5
 30
0.0
  0
VERTEX
  5
6FC
100
AcDbEntity
  8
OBJECT
  6
CONTINUOUS
100
AcDbVertex
100
AcDb2dVertex
 10
-685.0
 20
-619.5
 30
0.0
  0
VERTEX
  5
6FD
100
AcDbEntity
  8
OBJECT
  6
CONTINUOUS
100
AcDbVertex
100
AcDb2dVertex
 10
-685.0
 20
-634.5
 30
0.0
  0
VERTEX
  5
6FE
100
AcDbEntity
  8
OBJECT
  6
CONTINUOUS
100
AcDbVertex
100
AcDb2dVertex
 10
-715.0
 20
-634.5
 30
0.0
  0
SEQEND
  5
6FF
100
AcDbEntity
  8
OBJECT
  6
CONTINUOUS
  0
LINE
  5
700
100
AcDbEntity
  8
OBJECT
  6
CONTINUOUS
100
AcDbLine
 10
-700.0
 20
-634.5
 30
0.0
 11
-700.0
 21
-619.5
 31
0.0
  0
POLYLINE
  5
701
100
AcDbEntity
  8
OBJECT
  6
CONTINUOUS
100
AcDb2dPolyline
 66
               1
 10
0.0
 20
0.0
 30
0.0
 75
               5
  0
VERTEX
  5
702
100
AcDbEntity
  8
OBJECT
  6
CONTINUOUS
100
AcDbVertex
100
AcDb2dVertex
 10
-779.0
 20
-622.0
 30
0.0
  0
VERTEX
  5
703
100
AcDbEntity
  8
OBJECT
  6
CONTINUOUS
100
AcDbVertex
100
AcDb2dVertex
 10
-715.0
 20
-622.0
 30
0.0
  0
VERTEX
  5
704
100
AcDbEntity
  8
OBJECT
  6
CONTINUOUS
100
AcDbVertex
100
AcDb2dVertex
 10
-715.0
 20
-632.0
 30
0.0
  0
VERTEX
  5
705
100
AcDbEntity
  8
OBJECT
  6
CONTINUOUS
100
AcDbVertex
100
AcDb2dVertex
 10
-778.0
 20
-632.0
 30
0.0
  0
SEQEND
  5
706
100
AcDbEntity
  8
OBJECT
  6
CONTINUOUS
  0
LWPOLYLINE
  5
707
100
AcDbEntity
  8
OBJECT
  6
CONTINUOUS
100
AcDbPolyline
 90
        5
 70
             128
 10
-777.5
 20
-619.5
 10
-779.53883864861814
 20
-622.55825797292721
 42
0.3575107650276908
 10
-779.0
 20
-628.0
 42
-0.3575107650276627
 10
-778.46116135138186
 20
-633.44174202707279
 10
-780.5
 20
-636.5
  0
DIMENSION
  5
708
100
AcDbEntity
  8
DIMENTION
  6
CONTINUOUS
100
AcDbDimension
  2
*D18
 10
-600.0
 20
935.0
 30
0.0
 11
-435.0
 21
935.99999999627471
 31
0.0
 70
             128
  1
327 (内寸)
  3
CAD
100
AcDbAlignedDimension
 13
-270.0
 23
820.0
 33
0.0
 14
-600.0
 24
820.0
 34
0.0
100
AcDbRotatedDimension
1001
ACAD
1000
DSTYLE
1002
{
1070
             271
1070
               0
1070
             340
1005
3D
1070
             147
1040
0.9999999962747097
1002
}
  0
DIMENSION
  5
709
100
AcDbEntity
  8
DIMENTION
  6
CONTINUOUS
100
AcDbDimension
  2
*D19
 10
-715.0
 20
820.0
 30
0.0
 11
-715.99999999627471
 21
600.0
 31
0.0
 70
             128
  1
437 (内寸)
  3
CAD
100
AcDbAlignedDimension
 13
-600.0
 23
380.0
 33
0.0
 14
-600.0
 24
820.0
 34
0.0
 50
90.0
100
AcDbRotatedDimension
1001
ACAD
1000
DSTYLE
1002
{
1070
             271
1070
               0
1070
             340
1005
3D
1070
             147
1040
0.9999999962747097
1002
}
  0
DIMENSION
  5
70A
100
AcDbEntity
  8
DIMENTION
  6
CONTINUOUS
100
AcDbDimension
  2
*D20
 10
-615.0
 20
265.0
 30
0.0
 11
-420.0
 21
265.99999999627471
 31
0.0
 70
             128
  3
CAD
100
AcDbAlignedDimension
 13
-225.0
 23
365.0
 33
0.0
 14
-615.0
 24
365.0
 34
0.0
100
AcDbRotatedDimension
1001
ACAD
1000
DSTYLE
1002
{
1070
             271
1070
               0
1070
             340
1005
3D
1070
             147
1040
0.9999999962747097
1002
}
  0
DIMENSION
  5
70B
100
AcDbEntity
  8
DIMENTION
  6
CONTINUOUS
100
AcDbDimension
  2
*D21
 10
-125.0
 20
835.0
 30
0.0
 11
-125.0
 21
600.0
 31
0.0
  3
CAD
100
AcDbAlignedDimension
 13
-225.0
 23
365.0
 33
0.0
 14
-225.0
 24
835.0
 34
0.0
 50
90.0
100
AcDbRotatedDimension
1001
ACAD
1000
DSTYLE
1002
{
1070
             271
1070
               0
1070
             340
1005
3D
1070
             147
1040
0.9999999962747097
1002
}
  0
LINE
  5
70C
100
AcDbEntity
  8
DIMENTION
  6
CONTINUOUS
100
AcDbLine
 10
-950.0
 20
-0.0000000000000036
 30
0.0
 11
-700.0
 21
-0.0000000000000036
 31
0.0
  0
LINE
  5
70D
100
AcDbEntity
  8
DIMENTION
  6
CONTINUOUS
100
AcDbLine
 10
-700.0
 20
-0.0000000000000036
 30
0.0
 11
-618.32946507711495
 21
-101.00083904664461
 31
0.0
  0
LINE
  5
70E
100
AcDbEntity
  8
DIMENTION
  6
CONTINUOUS
100
AcDbLine
 10
-618.32946507711495
 20
-101.00083904664461
 30
0.0
 11
-636.51813790926008
 21
-87.294690967986995
 31
0.0
  0
LINE
  5
70F
100
AcDbEntity
  8
DIMENTION
  6
CONTINUOUS
100
AcDbLine
 10
-618.32946507711495
 20
-101.00083904664461
 30
0.0
 11
-627.22824377154768
 21
-80.036630206423283
 31
0.0
  0
MTEXT
  5
710
100
AcDbEntity
  8
DIMENTION
100
AcDbMText
 10
-950.0
 20
45.0
 30
0.0
 40
33.866666666666667
 41
0.0
 71
               1
 72
               1
  1
収納式カバー
  7
________
  0
DIMENSION
  5
711
100
AcDbEntity
  8
DIMENTION
  6
CONTINUOUS
100
AcDbDimension
  2
*D22
 10
-700.0
 20
-145.0
 30
0.0
 11
-700.99999999627471
 21
-100.0
 31
0.0
 70
             128
  3
CAD
100
AcDbAlignedDimension
 13
-615.0
 23
-130.0
 33
0.0
 14
-556.0
 24
-145.0
 34
0.0
 50
90.0
100
AcDbRotatedDimension
1001
ACAD
1000
DSTYLE
1002
{
1070
             271
1070
               0
1070
             340
1005
3D
1070
             174
1070
               0
1070
             147
1040
0.9999999962747097
1002
}
  0
DIMENSION
  5
712
100
AcDbEntity
  8
DIMENTION
  6
CONTINUOUS
100
AcDbDimension
  2
*D23
 10
-700.0
 20
-610.0
 30
0.0
 11
-700.0
 21
-377.5
 31
0.0
  3
CAD
100
AcDbAlignedDimension
 13
-556.0
 23
-145.0
 33
0.0
 14
-556.0
 24
-610.0
 34
0.0
 50
90.0
100
AcDbRotatedDimension
1001
ACAD
1000
DSTYLE
1002
{
1070
             271
1070
               0
1070
             340
1005
3D
1070
               3
1000
<>（可動範囲
1070
             147
1040
0.9999999962747097
1002
}
  0
LINE
  5
713
100
AcDbEntity
  8
OBJECT
  6
CONTINUOUS
100
AcDbLine
 10
-270.0
 20
818.0
 30
0.0
 11
-270.0
 21
635.0
 31
0.0
  0
LINE
  5
714
100
AcDbEntity
  8
OBJECT
  6
CONTINUOUS
100
AcDbLine
 10
-270.0
 20
565.0
 30
0.0
 11
-270.0
 21
382.0
 31
0.0
  0
LINE
  5
715
100
AcDbEntity
  8
CENTER
  6
STYLE_03
100
AcDbLine
 10
-190.0
 20
600.0
 30
0.0
 11
-595.0
 21
600.0
 31
0.0
  0
LINE
  5
716
100
AcDbEntity
  8
HIDDEN
  6
STYLE_04
100
AcDbLine
 10
-556.0
 20
-790.0
 30
0.0
 11
-600.0
 21
-790.0
 31
0.0
  0
LINE
  5
717
100
AcDbEntity
  8
OBJECT
  6
CONTINUOUS
100
AcDbLine
 10
-600.0
 20
820.0
 30
0.0
 11
-270.0
 21
820.0
 31
0.0
  0
LINE
  5
718
100
AcDbEntity
  8
OBJECT
  6
CONTINUOUS
100
AcDbLine
 10
-600.0
 20
380.0
 30
0.0
 11
-600.0
 21
565.0
 31
0.0
  0
LINE
  5
719
100
AcDbEntity
  8
OBJECT
  6
CONTINUOUS
100
AcDbLine
 10
-600.0
 20
575.0
 30
0.0
 11
-600.0
 21
625.0
 31
0.0
  0
LINE
  5
71A
100
AcDbEntity
  8
OBJECT
  6
CONTINUOUS
100
AcDbLine
 10
-600.0
 20
635.0
 30
0.0
 11
-600.0
 21
820.0
 31
0.0
  0
LINE
  5
71B
100
AcDbEntity
  8
OBJECT
  6
CONTINUOUS
100
AcDbLine
 10
-270.0
 20
380.0
 30
0.0
 11
-600.0
 21
380.0
 31
0.0
  0
LINE
  5
71C
100
AcDbEntity
  8
OBJECT
  6
CONTINUOUS
100
AcDbLine
 10
-270.0
 20
565.0
 30
0.0
 11
-270.0
 21
380.0
 31
0.0
  0
CIRCLE
  5
71D
100
AcDbEntity
  8
OBJECT
  6
CONTINUOUS
100
AcDbCircle
 10
-260.0
 20
600.0
 30
0.0
 40
12.500010483595501
  0
LINE
  5
71E
100
AcDbEntity
  8
OBJECT
100
AcDbLine
 10
-270.0
 20
635.0
 30
0.0
 11
-270.0
 21
820.0
 31
0.0
  0
INSERT
  5
71F
100
AcDbEntity
  8
OBJECT
100
AcDbBlockReference
  2
*U24
 10
0.0
 20
19.999999999999996
 30
0.0
  0
INSERT
  5
720
100
AcDbEntity
  8
OBJECT
100
AcDbBlockReference
  2
*U25
 10
0.0
 20
19.999999999999996
 30
0.0
  0
INSERT
  5
721
100
AcDbEntity
  8
OBJECT
100
AcDbBlockReference
  2
*U26
 10
0.0
 20
19.999999999999996
 30
0.0
  0
INSERT
  5
722
100
AcDbEntity
  8
OBJECT
100
AcDbBlockReference
  2
*U27
 10
0.0
 20
19.999999999999996
 30
0.0
  0
INSERT
  5
723
100
AcDbEntity
  8
OBJECT
100
AcDbBlockReference
  2
*U28
 10
0.0
 20
19.999999999999996
 30
0.0
  0
INSERT
  5
724
100
AcDbEntity
  8
OBJECT
100
AcDbBlockReference
  2
*U29
 10
0.0
 20
19.999999999999996
 30
0.0
  0
CIRCLE
  5
725
100
AcDbEntity
  8
OBJECT
100
AcDbCircle
 10
-422.0
 20
778.0
 30
0.0
 40
15.0
  0
CIRCLE
  5
726
100
AcDbEntity
  8
OBJECT
100
AcDbCircle
 10
-472.0
 20
778.0
 30
0.0
 40
15.0
  0
CIRCLE
  5
727
100
AcDbEntity
  8
OBJECT
100
AcDbCircle
 10
-522.0
 20
778.0
 30
0.0
 40
15.0
  0
CIRCLE
  5
728
100
AcDbEntity
  8
OBJECT
100
AcDbCircle
 10
-372.0
 20
778.0
 30
0.0
 40
15.0
  0
CIRCLE
  5
729
100
AcDbEntity
  8
OBJECT
100
AcDbCircle
 10
-322.0
 20
778.0
 30
0.0
 40
15.0
  0
CIRCLE
  5
72A
100
AcDbEntity
  8
OBJECT
100
AcDbCircle
 10
-422.0
 20
422.0
 30
0.0
 40
15.0
  0
CIRCLE
  5
72B
100
AcDbEntity
  8
OBJECT
100
AcDbCircle
 10
-472.0
 20
422.0
 30
0.0
 40
15.0
  0
CIRCLE
  5
72C
100
AcDbEntity
  8
OBJECT
100
AcDbCircle
 10
-522.0
 20
422.0
 30
0.0
 40
15.0
  0
CIRCLE
  5
72D
100
AcDbEntity
  8
OBJECT
100
AcDbCircle
 10
-372.0
 20
422.0
 30
0.0
 40
15.0
  0
CIRCLE
  5
72E
100
AcDbEntity
  8
OBJECT
100
AcDbCircle
 10
-322.0
 20
422.0
 30
0.0
 40
15.0
  0
INSERT
  5
72F
100
AcDbEntity
  8
OUTLINE
100
AcDbBlockReference
  2
*U30
 10
0.0
 20
19.999999999999996
 30
0.0
  0
LINE
  5
730
100
AcDbEntity
  8
OBJECT
  6
CONTINUOUS
100
AcDbLine
 10
-616.00003066458885
 20
635.0
 30
0.0
 11
-595.00003074161486
 21
635.0
 31
0.0
  0
LINE
  5
731
100
AcDbEntity
  8
OBJECT
  6
CONTINUOUS
100
AcDbLine
 10
-611.50003066458885
 20
625.0
 30
0.0
 11
-595.00003074161486
 21
625.0
 31
0.0
  0
LINE
  5
732
100
AcDbEntity
  8
OBJECT
  6
CONTINUOUS
100
AcDbLine
 10
-592.00003074161395
 20
816.5
 30
0.0
 11
-590.77187476762992
 21
816.5
 31
0.0
  0
LINE
  5
733
100
AcDbEntity
  8
OBJECT
  6
CONTINUOUS
100
AcDbLine
 10
-591.00003074161395
 20
816.5
 30
0.0
 11
-591.00003074161395
 21
798.5
 31
0.0
  0
LINE
  5
734
100
AcDbEntity
  8
OBJECT
  6
CONTINUOUS
100
AcDbLine
 10
-583.00003074161395
 20
798.5
 30
0.0
 11
-583.00003074161395
 21
820.00004492210246
 31
0.0
  0
LINE
  5
735
100
AcDbEntity
  8
OBJECT
  6
CONTINUOUS
100
AcDbLine
 10
-582.00003074161395
 20
818.00004492210155
 30
0.0
 11
-582.00003074161395
 21
798.5
 31
0.0
  0
LINE
  5
736
100
AcDbEntity
  8
OBJECT
  6
CONTINUOUS
100
AcDbLine
 10
-592.00003074161486
 20
798.5
 30
0.0
 11
-582.00003074161395
 21
798.5
 31
0.0
  0
LINE
  5
737
100
AcDbEntity
  8
OBJECT
  6
CONTINUOUS
100
AcDbLine
 10
-595.00003074161486
 20
383.0
 30
0.0
 11
-595.00003074161486
 21
817.0
 31
0.0
  0
LINE
  5
738
100
AcDbEntity
  8
OBJECT
  6
CONTINUOUS
100
AcDbLine
 10
-592.00003074161486
 20
383.0
 30
0.0
 11
-592.00003074161486
 21
817.0
 31
0.0
  0
LINE
  5
739
100
AcDbEntity
  8
OBJECT
  6
CONTINUOUS
100
AcDbLine
 10
-595.00003074161486
 20
817.0
 30
0.0
 11
-592.00003074161486
 21
817.0
 31
0.0
  0
LINE
  5
73A
100
AcDbEntity
  8
OBJECT
  6
CONTINUOUS
100
AcDbLine
 10
-590.77187476762992
 20
812.00004492210155
 30
0.0
 11
-584.77187476762992
 21
812.00004492210155
 31
0.0
  0
LINE
  5
73B
100
AcDbEntity
  8
OBJECT
  6
CONTINUOUS
100
AcDbLine
 10
-574.74102884854437
 20
818.00004492210155
 30
0.0
 11
-574.74102884854437
 21
820.00004492210155
 31
0.0
  0
LINE
  5
73C
100
AcDbEntity
  8
OBJECT
  6
CONTINUOUS
100
AcDbLine
 10
-591.25897115145563
 20
818.00004492210155
 30
0.0
 11
-591.25897115145563
 21
820.00004492210155
 31
0.0
  0
LINE
  5
73D
100
AcDbEntity
  8
OBJECT
  6
CONTINUOUS
100
AcDbLine
 10
-607.00003066458885
 20
575.0
 30
0.0
 11
-607.00003066458885
 21
625.0
 31
0.0
  0
LINE
  5
73E
100
AcDbEntity
  8
OBJECT
  6
CONTINUOUS
100
AcDbLine
 10
-616.00003066458885
 20
635.0
 30
0.0
 11
-616.00003066458885
 21
565.0
 31
0.0
  0
LINE
  5
73F
100
AcDbEntity
  8
OBJECT
  6
CONTINUOUS
100
AcDbLine
 10
-590.77187476762992
 20
818.00004492210155
 30
0.0
 11
-590.77187476762992
 21
812.00004492210155
 31
0.0
  0
LINE
  5
740
100
AcDbEntity
  8
OBJECT
  6
CONTINUOUS
100
AcDbLine
 10
-584.77187476762992
 20
812.00004492210155
 30
0.0
 11
-584.77187476762992
 21
818.00004492210155
 31
0.0
  0
LINE
  5
741
100
AcDbEntity
  8
OBJECT
100
AcDbLine
 10
-591.25897115145563
 20
818.00004492210155
 30
0.0
 11
-574.74102884854437
 21
818.00004492210155
 31
0.0
  0
POINT
  5
742
100
AcDbEntity
  8
OBJECT
  6
CONTINUOUS
100
AcDbPoint
 10
-615.0
 20
600.0
 30
0.0
  0
LINE
  5
743
100
AcDbEntity
  8
OBJECT
  6
CONTINUOUS
100
AcDbLine
 10
-616.00003066458885
 20
565.0
 30
0.0
 11
-595.00003074161486
 21
565.0
 31
0.0
  0
LINE
  5
744
100
AcDbEntity
  8
OBJECT
  6
CONTINUOUS
100
AcDbLine
 10
-611.50003066458885
 20
575.0
 30
0.0
 11
-595.00003074161486
 21
575.0
 31
0.0
  0
LINE
  5
745
100
AcDbEntity
  8
OBJECT
  6
CONTINUOUS
100
AcDbLine
 10
-592.00003074161395
 20
383.5
 30
0.0
 11
-590.77187476762992
 21
383.5
 31
0.0
  0
LINE
  5
746
100
AcDbEntity
  8
OBJECT
  6
CONTINUOUS
100
AcDbLine
 10
-591.00003074161395
 20
383.5
 30
0.0
 11
-591.00003074161395
 21
401.5
 31
0.0
  0
LINE
  5
747
100
AcDbEntity
  8
OBJECT
  6
CONTINUOUS
100
AcDbLine
 10
-583.00003074161395
 20
401.5
 30
0.0
 11
-583.00003074161395
 21
379.99995507789754
 31
0.0
  0
LINE
  5
748
100
AcDbEntity
  8
OBJECT
  6
CONTINUOUS
100
AcDbLine
 10
-582.00003074161395
 20
381.99995507789845
 30
0.0
 11
-582.00003074161395
 21
401.5
 31
0.0
  0
LINE
  5
749
100
AcDbEntity
  8
OBJECT
  6
CONTINUOUS
100
AcDbLine
 10
-592.00003074161486
 20
401.5
 30
0.0
 11
-582.00003074161395
 21
401.5
 31
0.0
  0
LINE
  5
74A
100
AcDbEntity
  8
OBJECT
  6
CONTINUOUS
100
AcDbLine
 10
-595.00003074161486
 20
383.0
 30
0.0
 11
-592.00003074161486
 21
383.0
 31
0.0
  0
LINE
  5
74B
100
AcDbEntity
  8
OBJECT
  6
CONTINUOUS
100
AcDbLine
 10
-590.77187476762992
 20
387.99995507789845
 30
0.0
 11
-584.77187476762992
 21
387.99995507789845
 31
0.0
  0
LINE
  5
74C
100
AcDbEntity
  8
OBJECT
  6
CONTINUOUS
100
AcDbLine
 10
-574.74102884854437
 20
381.99995507789845
 30
0.0
 11
-574.74102884854437
 21
379.99995507789845
 31
0.0
  0
LINE
  5
74D
100
AcDbEntity
  8
OBJECT
  6
CONTINUOUS
100
AcDbLine
 10
-591.25897115145563
 20
381.99995507789845
 30
0.0
 11
-591.25897115145563
 21
379.99995507789845
 31
0.0
  0
LINE
  5
74E
100
AcDbEntity
  8
OBJECT
  6
CONTINUOUS
100
AcDbLine
 10
-590.77187476762992
 20
381.99995507789845
 30
0.0
 11
-590.77187476762992
 21
387.99995507789845
 31
0.0
  0
LINE
  5
74F
100
AcDbEntity
  8
OBJECT
  6
CONTINUOUS
100
AcDbLine
 10
-584.77187476762992
 20
387.99995507789845
 30
0.0
 11
-584.77187476762992
 21
381.99995507789845
 31
0.0
  0
LINE
  5
750
100
AcDbEntity
  8
OBJECT
100
AcDbLine
 10
-591.25897115145563
 20
381.99995507789845
 30
0.0
 11
-574.74102884854437
 21
381.99995507789845
 31
0.0
  0
LINE
  5
751
100
AcDbEntity
  8
OBJECT
  6
CONTINUOUS
100
AcDbLine
 10
-253.5
 20
-130.0
 30
0.0
 11
-253.5
 21
-129.19999999999982
 31
0.0
  0
LINE
  5
752
100
AcDbEntity
  8
OBJECT
  6
CONTINUOUS
100
AcDbLine
 10
-261.5
 20
-129.19999999999982
 30
0.0
 11
-261.5
 21
-130.0
 31
0.0
  0
LINE
  5
753
100
AcDbEntity
  8
OBJECT
  6
CONTINUOUS
100
AcDbLine
 10
-242.5
 20
-129.19999999999982
 30
0.0
 11
-242.5
 21
-125.19999999999982
 31
0.0
  0
LINE
  5
754
100
AcDbEntity
  8
OBJECT
  6
CONTINUOUS
100
AcDbLine
 10
-267.5
 20
-125.19999999999982
 30
0.0
 11
-267.5
 21
-129.19999999999982
 31
0.0
  0
ARC
  5
755
100
AcDbEntity
  8
OBJECT
  6
CONTINUOUS
100
AcDbCircle
 10
-245.5
 20
-125.19999999999982
 30
0.0
 40
3.0
100
AcDbArc
 50
0.0
 51
90.0
  0
ARC
  5
756
100
AcDbEntity
  8
OBJECT
  6
CONTINUOUS
100
AcDbCircle
 10
-264.5
 20
-125.19999999999982
 30
0.0
 40
3.0
100
AcDbArc
 50
90.0
 51
180.0
  0
POINT
  5
757
100
AcDbEntity
  8
OBJECT
  6
CONTINUOUS
100
AcDbPoint
 10
-225.0
 20
-130.0
 30
0.0
  0
LINE
  5
758
100
AcDbEntity
  8
OBJECT
100
AcDbLine
 10
-245.5
 20
-122.19999999999982
 30
0.0
 11
-264.5
 21
-122.19999999999982
 31
0.0
  0
LINE
  5
759
100
AcDbEntity
  8
OBJECT
100
AcDbLine
 10
-267.5
 20
-129.19999999999982
 30
0.0
 11
-242.5
 21
-129.19999999999982
 31
0.0
  0
LINE
  5
75A
100
AcDbEntity
  8
OBJECT
  6
CONTINUOUS
100
AcDbLine
 10
534.99995507789754
 20
-104.99999999997544
 30
0.0
 11
534.99995507789754
 21
-110.49999999997544
 31
0.0
  0
LINE
  5
75B
100
AcDbEntity
  8
OBJECT
  6
CONTINUOUS
100
AcDbLine
 10
524.99995507789754
 20
-104.99999999997544
 30
0.0
 11
524.99995507789754
 21
-110.4999999999759
 31
0.0
  0
LINE
  5
75C
100
AcDbEntity
  8
OBJECT
  6
CONTINUOUS
100
AcDbLine
 10
464.99995507789754
 20
-104.99999999997544
 30
0.0
 11
464.99995507789754
 21
-110.4999999999759
 31
0.0
  0
LINE
  5
75D
100
AcDbEntity
  8
OBJECT
  6
CONTINUOUS
100
AcDbLine
 10
474.99995507789754
 20
-104.99999999997544
 30
0.0
 11
474.99995507789754
 21
-110.4999999999759
 31
0.0
  0
LINE
  5
75E
100
AcDbEntity
  8
OBJECT
  6
CONTINUOUS
100
AcDbLine
 10
282.99995507789754
 20
-130.0
 30
0.0
 11
282.99995507789754
 21
-112.4999999999759
 31
0.0
  0
ARC
  5
75F
100
AcDbEntity
  8
OBJECT
  6
CONTINUOUS
100
AcDbCircle
 10
284.99995507789754
 20
-112.4999999999759
 30
0.0
 40
2.0
100
AcDbArc
 50
90.0
 51
179.99999999997399
  0
LINE
  5
760
100
AcDbEntity
  8
OBJECT
  6
CONTINUOUS
100
AcDbLine
 10
284.99995507789754
 20
-110.4999999999759
 30
0.0
 11
714.99995507789754
 21
-110.49999999997544
 31
0.0
  0
ARC
  5
761
100
AcDbEntity
  8
OBJECT
  6
CONTINUOUS
100
AcDbCircle
 10
714.99995507789754
 20
-112.49999999997544
 30
0.0
 40
2.0
100
AcDbArc
 50
0.0
 51
90.0
  0
LINE
  5
762
100
AcDbEntity
  8
OBJECT
  6
CONTINUOUS
100
AcDbLine
 10
716.99995507789754
 20
-112.49999999997544
 30
0.0
 11
716.99995507789754
 21
-130.0
 31
0.0
  0
LINE
  5
763
100
AcDbEntity
  8
OBJECT
  6
CONTINUOUS
100
AcDbLine
 10
512.5
 20
-129.19999999999982
 30
0.0
 11
487.5
 21
-129.19999999999982
 31
0.0
  0
LINE
  5
764
100
AcDbEntity
  8
OBJECT
  6
CONTINUOUS
100
AcDbLine
 10
509.49999989189746
 20
-122.19999999999982
 30
0.0
 11
490.5
 21
-122.19999999999982
 31
0.0
  0
LINE
  5
765
100
AcDbEntity
  8
OBJECT
  6
CONTINUOUS
100
AcDbLine
 10
504.0
 20
-130.0
 30
0.0
 11
504.0
 21
-129.19999999999982
 31
0.0
  0
LINE
  5
766
100
AcDbEntity
  8
OBJECT
  6
CONTINUOUS
100
AcDbLine
 10
496.0
 20
-129.19999999999982
 30
0.0
 11
496.0
 21
-130.0
 31
0.0
  0
LINE
  5
767
100
AcDbEntity
  8
OBJECT
  6
CONTINUOUS
100
AcDbLine
 10
512.5
 20
-129.19999999999982
 30
0.0
 11
512.5
 21
-125.19999999999982
 31
0.0
  0
LINE
  5
768
100
AcDbEntity
  8
OBJECT
  6
CONTINUOUS
100
AcDbLine
 10
487.5
 20
-125.19999999999982
 30
0.0
 11
487.5
 21
-129.19999999999982
 31
0.0
  0
ARC
  5
769
100
AcDbEntity
  8
OBJECT
  6
CONTINUOUS
100
AcDbCircle
 10
509.5
 20
-125.19999999999982
 30
0.0
 40
3.0
100
AcDbArc
 50
0.0
 51
90.0
  0
ARC
  5
76A
100
AcDbEntity
  8
OBJECT
  6
CONTINUOUS
100
AcDbCircle
 10
490.5
 20
-125.19999999999982
 30
0.0
 40
3.0
100
AcDbArc
 50
90.0
 51
180.0
  0
LINE
  5
76B
100
AcDbEntity
  8
OBJECT
100
AcDbLine
 10
464.99995507789754
 20
-104.99999999997544
 30
0.0
 11
534.99995507789754
 21
-104.99999999997544
 31
0.0
  0
POINT
  5
76C
100
AcDbEntity
  8
OBJECT
  6
CONTINUOUS
100
AcDbPoint
 10
500.0
 20
-130.0
 30
0.0
  0
MTEXT
  5
76D
100
AcDbEntity
  8
DIMENTION
100
AcDbMText
 10
1390.0
 20
110.0
 30
0.0
 40
33.866666666666667
 41
0.0
 71
               8
 72
               1
  1
落とし込み穴加工指示
  7
________
  0
MTEXT
  5
76E
100
AcDbEntity
  8
DIMENTION
100
AcDbMText
 10
1030.0
 20
90.0
 30
0.0
 40
33.866666666666667
 41
0.0
 71
               1
 72
               1
  1
テーブル面の強度を保つため、穴のフチを\P※5～6(mm)折り上げることを推奨します。
  7
________
  0
LINE
  5
76F
100
AcDbEntity
  8
DIMENTION
100
AcDbLine
 10
1010.0
 20
100.0
 30
0.0
 11
1790.0
 21
100.0
 31
0.0
  0
INSERT
  5
770
100
AcDbEntity
  8
HIDDEN
100
AcDbBlockReference
  2
*U31
 10
0.0
 20
19.999999999999996
 30
0.0
  0
MTEXT
  5
771
100
AcDbEntity
  8
TEXT
100
AcDbMText
 10
700.0
 20
1050.0000000000002
 30
0.0
 40
33.866666666666667
 41
399.99999999999955
 71
               4
 72
               1
  1
　{\H0.976x;\l適　用　食　器\P　ストック数量の目安}
  7
________
  0
MTEXT
  5
772
100
AcDbEntity
  8
TEXT
100
AcDbMText
 10
1099.9999999999995
 20
1050.0000000000002
 30
0.0
 40
33.866666666666667
 41
700.0
 71
               4
 72
               1
  1
　{\H0.976x;\l430×320トレイ80枚\P　トレイ併用グラス120個(6段)\P　トレイ併用カップ96個(8段)}
  7
________
  0
MTEXT
  5
773
100
AcDbEntity
  8
DIMENTION
100
AcDbMText
 10
1300.0
 20
-1100.0
 30
0.0
 40
33.866666666666667
 41
0.0
 71
               1
 72
               1
  1
注）指示なき寸法公差は±5とする
  7
________
  0
ENDSEC
  0
SECTION
  2
OBJECTS
  0
DICTIONARY
  5
19
100
AcDbDictionary
  3
ACAD_GROUP
350
1A
  3
ACAD_MLINESTYLE
350
1B
  0
DICTIONARY
  5
1A
102
{ACAD_REACTORS
330
19
102
}
100
AcDbDictionary
  0
DICTIONARY
  5
1B
102
{ACAD_REACTORS
330
19
102
}
100
AcDbDictionary
  3
STANDARD
350
1C
  0
MLINESTYLE
  5
1C
102
{ACAD_REACTORS
330
1B
102
}
100
AcDbMlineStyle
  2
STANDARD
 70
               0
  3

 62
               0
 51
90.0
 52
90.0
 71
               2
 49
0.5
 62
             256
  6
BYLAYER
 49
-0.5
 62
             256
  6
BYLAYER
  0
ENDSEC
  0
EOF
