  0
SECTION
  2
HEADER
  9
$ACADVER
  1
AC1014
  9
$ACADMAINTVER
 70
               0
  9
$DWGCODEPAGE
  3
ANSI_932
  9
$INSBASE
 10
0.0
 20
0.0
 30
0.0
  9
$EXTMIN
 10
-800.0
 20
-980.0
 30
0.0
  9
$EXTMAX
 10
3250.0
 20
1780.0
 30
0.0
  9
$LIMMIN
 10
0.0
 20
0.0
  9
$LIMMAX
 10
0.0
 20
0.0
  9
$ORTHOMODE
 70
               0
  9
$REGENMODE
 70
               1
  9
$FILLMODE
 70
               1
  9
$QTEXTMODE
 70
               0
  9
$MIRRTEXT
 70
               1
  9
$DRAGMODE
 70
               2
  9
$LTSCALE
 40
254.0
  9
$OSMODE
 70
               0
  9
$ATTMODE
 70
               1
  9
$TEXTSIZE
 40
0.2
  9
$TRACEWID
 40
1.0
  9
$TEXTSTYLE
  7
STANDARD
  9
$CLAYER
  8
0
  9
$CELTYPE
  6
CONTINUOUS
  9
$CECOLOR
 62
             256
  9
$CELTSCALE
 40
1.0
  9
$DELOBJ
 70
               1
  9
$DISPSILH
 70
               0
  9
$DIMSCALE
 40
1.0
  9
$DIMASZ
 40
31.75
  9
$DIMEXO
 40
9.9999999627470952
  9
$DIMDLI
 40
7.9999999938532707
  9
$DIMRND
 40
0.0
  9
$DIMDLE
 40
0.0
  9
$DIMEXE
 40
19.99999992549419
  9
$DIMTP
 40
0.0
  9
$DIMTM
 40
0.0
  9
$DIMTXT
 40
33.866666666666667
  9
$DIMCEN
 40
0.0
  9
$DIMTSZ
 40
0.0
  9
$DIMTOL
 70
               0
  9
$DIMLIM
 70
               0
  9
$DIMTIH
 70
               0
  9
$DIMTOH
 70
               0
  9
$DIMSE1
 70
               0
  9
$DIMSE2
 70
               0
  9
$DIMTAD
 70
               1
  9
$DIMZIN
 70
              11
  9
$DIMBLK
  1
VW_OPENARROW
  9
$DIMASO
 70
               1
  9
$DIMSHO
 70
               1
  9
$DIMPOST
  1
<>
  9
$DIMAPOST
  1
[]
  9
$DIMALT
 70
               0
  9
$DIMALTD
 70
               1
  9
$DIMALTF
 40
1.0
  9
$DIMLFAC
 40
1.0
  9
$DIMTOFL
 70
               1
  9
$DIMTVP
 40
0.0
  9
$DIMTIX
 70
               1
  9
$DIMSOXD
 70
               0
  9
$DIMSAH
 70
               0
  9
$DIMBLK1
  1

  9
$DIMBLK2
  1

  9
$DIMSTYLE
  2
CAD
  9
$DIMCLRD
 70
               0
  9
$DIMCLRE
 70
               0
  9
$DIMCLRT
 70
               0
  9
$DIMTFAC
 40
0.7
  9
$DIMGAP
 40
0.099999999627471
  9
$DIMJUST
 70
               0
  9
$DIMSD1
 70
               0
  9
$DIMSD2
 70
               0
  9
$DIMTOLJ
 70
               1
  9
$DIMTZIN
 70
              11
  9
$DIMALTZ
 70
              11
  9
$DIMALTTZ
 70
              11
  9
$DIMFIT
 70
               0
  9
$DIMUPT
 70
               0
  9
$DIMUNIT
 70
               2
  9
$DIMDEC
 70
               4
  9
$DIMTDEC
 70
               4
  9
$DIMALTU
 70
               2
  9
$DIMALTTD
 70
               2
  9
$DIMTXSTY
  7
________
  9
$DIMAUNIT
 70
               0
  9
$LUNITS
 70
               2
  9
$LUPREC
 70
               4
  9
$SKETCHINC
 40
0.1
  9
$FILLETRAD
 40
0.0
  9
$AUNITS
 70
               0
  9
$AUPREC
 70
               0
  9
$MENU
  1
acad
  9
$ELEVATION
 40
0.0
  9
$PELEVATION
 40
0.0
  9
$THICKNESS
 40
0.0
  9
$LIMCHECK
 70
               0
  9
$BLIPMODE
 70
               0
  9
$CHAMFERA
 40
0.0
  9
$CHAMFERB
 40
0.0
  9
$CHAMFERC
 40
0.0
  9
$CHAMFERD
 40
0.0
  9
$SKPOLY
 70
               0
  9
$TDCREATE
 40
2458913.592650463
  9
$TDUPDATE
 40
2458913.592650463
  9
$TDINDWG
 40
0.0000000000
  9
$TDUSRTIMER
 40
0.0000000000
  9
$USRTIMER
 70
               1
  9
$ANGBASE
 50
0.0
  9
$ANGDIR
 70
               0
  9
$PDMODE
 70
               1
  9
$PDSIZE
 40
-2.0
  9
$PLINEWID
 40
0.0
  9
$COORDS
 70
               0
  9
$SPLFRAME
 70
               0
  9
$SPLINETYPE
 70
               6
  9
$SPLINESEGS
 70
               8
  9
$ATTDIA
 70
               0
  9
$ATTREQ
 70
               1
  9
$HANDLING
 70
               1
  9
$HANDSEED
  5
6E5
  9
$SURFTAB1
 70
               6
  9
$SURFTAB2
 70
               6
  9
$SURFTYPE
 70
               6
  9
$SURFU
 70
               6
  9
$SURFV
 70
               6
  9
$UCSNAME
  2

  9
$UCSORG
 10
0.0
 20
0.0
 30
0.0
  9
$UCSXDIR
 10
1.0
 20
0.0
 30
0.0
  9
$UCSYDIR
 10
0.0
 20
1.0
 30
0.0
  9
$PUCSNAME
  2

  9
$PUCSORG
 10
0.0
 20
0.0
 30
0.0
  9
$PUCSXDIR
 10
1.0
 20
0.0
 30
0.0
  9
$PUCSYDIR
 10
0.0
 20
1.0
 30
0.0
  9
$USERI1
 70
               0
  9
$USERI2
 70
               0
  9
$USERI3
 70
               0
  9
$USERI4
 70
               0
  9
$USERI5
 70
               0
  9
$USERR1
 40
0.0
  9
$USERR2
 40
0.0
  9
$USERR3
 40
0.0
  9
$USERR4
 40
0.0
  9
$USERR5
 40
0.0
  9
$WORLDVIEW
 70
               1
  9
$SHADEDGE
 70
               3
  9
$SHADEDIF
 70
              70
  9
$TILEMODE
 70
               1
  9
$MAXACTVP
 70
              16
  9
$PINSBASE
 10
0.0
 20
0.0
 30
0.0
  9
$PLIMCHECK
 70
               0
  9
$PEXTMIN
 10
1.0000000000000000E+20
 20
1.0000000000000000E+20
 30
1.0000000000000000E+20
  9
$PEXTMAX
 10
-1.0000000000000000E+20
 20
-1.0000000000000000E+20
 30
-1.0000000000000000E+20
  9
$PLIMMIN
 10
0.0
 20
0.0
  9
$PLIMMAX
 10
12.0
 20
9.0
  9
$UNITMODE
 70
               0
  9
$VISRETAIN
 70
               0
  9
$PLINEGEN
 70
               1
  9
$PSLTSCALE
 70
               0
  9
$TREEDEPTH
 70
            3020
  9
$PICKSTYLE
 70
               1
  9
$CMLSTYLE
  2
STANDARD
  9
$CMLJUST
 70
               0
  9
$CMLSCALE
 40
1.0
  9
$PROXYGRAPHICS
 70
               0
  9
$MEASUREMENT
 70
               1
  0
ENDSEC
  0
SECTION
  2
CLASSES
  0
CLASS
  1
LWPOLYLINE
  2
AcDbPolyline
  3
"AutoCAD"
 90
        0
280
               0
281
               1
  0
CLASS
  1
IMAGE
  2
AcDbRasterImage
  3
ISM
 90
      127
280
               0
281
               1
  0
CLASS
  1
OLE2FRAME
  2
AcDbOle2Frame
  3
""
 90
        0
280
               0
281
               1
  0
CLASS
  1
HATCH
  2
AcDbHatch
  3
"ACAD_SEDONA"
 90
        0
280
               0
281
               1
  0
CLASS
  1
DICTIONARYVAR
  2
AcDbDictionaryVar
  3
"AutoCAD"
 90
        0
280
               0
281
               0
  0
CLASS
  1
RASTERVARIABLES
  2
AcDbRasterVariables
  3
ISM
 90
        0
280
               0
281
               0
  0
CLASS
  1
IMAGEDEF
  2
AcDbRasterImageDef
  3
ISM
 90
        0
280
               0
281
               0
  0
CLASS
  1
IMAGEDEF_REACTOR
  2
AcDbRasterImageDefReactor
  3
ISM
 90
        1
280
               0
281
               0
  0
CLASS
  1
IDBUFFER
  2
AcDbIdBuffer
  3
"Acad"
 90
        0
280
               0
281
               0
  0
CLASS
  1
SPATIAL_FILTER
  2
AcDbSpatialFilter
  3
"Acad"
 90
        0
280
               0
281
               0
  0
CLASS
  1
XRECORD
  2
AcDbXrecord
  3
"<Built In>"
 90
        0
280
               0
281
               0
  0
CLASS
  1
SORTENTSTABLE
  2
AcDbSortentsTable
  3
"AutoCAD"
 90
        0
280
               0
281
               0
  0
CLASS
  1
LAYER_INDEX
  2
AcDbLayerIndex
  3
"Acad"
 90
        0
280
               0
281
               0
  0
CLASS
  1
SPATIAL_INDEX
  2
AcDbSpatialIndex
  3
"Acad"
 90
        0
280
               0
281
               0
  0
CLASS
  1
OBJECT_PTR
  2
CAseDLPNTableRecord
  3
"ASE-LPNTableRecord"
 90
        1
280
               0
281
               0
  0
CLASS
  1
LAYOUT
  2
AcDbLayout
  3
"AutoCAD 2000"
 90
        1
280
               0
281
               0
  0
CLASS
  1
PLOTSETTINGS
  2
AcDbPlotSettings
  3
"AutoCAD 2000"
 90
        1
280
               0
281
               0
  0
CLASS
  1
ACDBDICTIONARYWDFLT
  2
AcDbDictionaryWithDefault
  3
"AutoCAD 2000"
 90
        1
280
               0
281
               0
  0
CLASS
  1
ACDBPLACEHOLDER
  2
AcDbPlaceHolder
  3
"AutoCAD 2000"
 90
        1
280
               0
281
               0
  0
ENDSEC
  0
SECTION
  2
TABLES
  0
TABLE
  2
VPORT
  5
7
100
AcDbSymbolTable
 70
               1
  0
VPORT
  5
15
100
AcDbSymbolTableRecord
100
AcDbViewportTableRecord
  2
*ACTIVE
 70
               0
 10
0.0
 20
0.0
 11
1.0
 21
1.0
 12
1225.0
 22
400.0
 13
0.0
 23
0.0
 14
1.0
 24
1.0
 15
0.0
 25
0.0
 16
0.0
 26
0.0
 36
1.0
 17
0.0
 27
0.0
 37
0.0
 40
2760.0
 41
0.688564
 42
50.0
 43
0.0
 44
0.0
 50
0.0
 51
0.0
 71
               0
 72
             100
 73
               1
 74
               1
 75
               0
 76
               0
 77
               0
 78
               0
  0
ENDTAB
  0
TABLE
  2
LTYPE
  5
4
100
AcDbSymbolTable
 70
              21
  0
LTYPE
  5
11
100
AcDbSymbolTableRecord
100
AcDbLinetypeTableRecord
  2
BYBLOCK
 70
              64
  3

 72
              65
 73
               0
 40
0.0
  0
LTYPE
  5
12
100
AcDbSymbolTableRecord
100
AcDbLinetypeTableRecord
  2
BYLAYER
 70
              64
  3

 72
              65
 73
               0
 40
0.0
  0
LTYPE
  5
13
100
AcDbSymbolTableRecord
100
AcDbLinetypeTableRecord
  2
CONTINUOUS
 70
              64
  3
Solid line
 72
              65
 73
               0
 40
0.0
  0
LTYPE
  5
64
100
AcDbSymbolTableRecord
100
AcDbLinetypeTableRecord
  2
STYLE_01
 70
               0
  3

 72
              65
 73
               2
 40
0.0833282470703125
 49
0.041656494140625
 74
               0
 49
-0.0416717529296875
 74
               0
  0
LTYPE
  5
65
100
AcDbSymbolTableRecord
100
AcDbLinetypeTableRecord
  2
STYLE_02
 70
               0
  3

 72
              65
 73
               2
 40
0.138885498046875
 49
0.0972137451171875
 74
               0
 49
-0.0416717529296875
 74
               0
  0
LTYPE
  5
66
100
AcDbSymbolTableRecord
100
AcDbLinetypeTableRecord
  2
STYLE_03
 70
               0
  3

 72
              65
 73
               2
 40
0.25
 49
0.2083282470703125
 74
               0
 49
-0.0416717529296875
 74
               0
  0
LTYPE
  5
67
100
AcDbSymbolTableRecord
100
AcDbLinetypeTableRecord
  2
STYLE_04
 70
               0
  3

 72
              65
 73
               2
 40
0.3055419921875
 49
0.263885498046875
 74
               0
 49
-0.041656494140625
 74
               0
  0
LTYPE
  5
68
100
AcDbSymbolTableRecord
100
AcDbLinetypeTableRecord
  2
STYLE_05
 70
               0
  3

 72
              65
 73
               2
 40
0.041656494140625
 49
0.013885498046875
 74
               0
 49
-0.02777099609375
 74
               0
  0
LTYPE
  5
69
100
AcDbSymbolTableRecord
100
AcDbLinetypeTableRecord
  2
STYLE_06
 70
               0
  3

 72
              65
 73
               4
 40
0.65277099609375
 49
0.0555572509765625
 74
               0
 49
-0.0555572509765625
 74
               0
 49
0.486114501953125
 74
               0
 49
-0.0555419921875
 74
               0
  0
LTYPE
  5
6A
100
AcDbSymbolTableRecord
100
AcDbLinetypeTableRecord
  2
STYLE_07
 70
               0
  3

 72
              65
 73
               6
 40
0.375
 49
0.125
 74
               0
 49
-0.041656494140625
 74
               0
 49
0.125
 74
               0
 49
-0.0416717529296875
 74
               0
 49
0.013885498046875
 74
               0
 49
-0.0277862548828125
 74
               0
  0
LTYPE
  5
6B
100
AcDbSymbolTableRecord
100
AcDbLinetypeTableRecord
  2
STYLE_08
 70
               0
  3

 72
              65
 73
               6
 40
0.25
 49
0.125
 74
               0
 49
-0.041656494140625
 74
               0
 49
0.013885498046875
 74
               0
 49
-0.0277862548828125
 74
               0
 49
0.013885498046875
 74
               0
 49
-0.0277862548828125
 74
               0
  0
LTYPE
  5
6C
100
AcDbSymbolTableRecord
100
AcDbLinetypeTableRecord
  2
STYLE_09
 70
               0
  3

 72
              65
 73
               4
 40
1.0
 49
0.75
 74
               0
 49
-0.0555572509765625
 74
               0
 49
0.138885498046875
 74
               0
 49
-0.0555572509765625
 74
               0
  0
LTYPE
  5
6D
100
AcDbSymbolTableRecord
100
AcDbLinetypeTableRecord
  2
STYLE_10
 70
               0
  3

 72
              65
 73
               6
 40
1.1875
 49
0.75
 74
               0
 49
-0.0555572509765625
 74
               0
 49
0.138885498046875
 74
               0
 49
-0.0555572509765625
 74
               0
 49
0.125
 74
               0
 49
-0.0625
 74
               0
  0
LTYPE
  5
6E
100
AcDbSymbolTableRecord
100
AcDbLinetypeTableRecord
  2
STYLE_11
 70
               0
  3

 72
              65
 73
               4
 40
1.5
 49
0.0833282470703125
 74
               0
 49
-0.0555572509765625
 74
               0
 49
1.3055572509765625
 74
               0
 49
-0.0555572509765625
 74
               0
  0
LTYPE
  5
6F
100
AcDbSymbolTableRecord
100
AcDbLinetypeTableRecord
  2
STYLE_12
 70
               0
  3

 72
              65
 73
               4
 40
1.34722900390625
 49
1.02777099609375
 74
               0
 49
-0.083343505859375
 74
               0
 49
0.125
 74
               0
 49
-0.111114501953125
 74
               0
  0
LTYPE
  5
70
100
AcDbSymbolTableRecord
100
AcDbLinetypeTableRecord
  2
STYLE_13
 70
               0
  3

 72
              65
 73
               4
 40
0.6805572509765625
 49
0.361114501953125
 74
               0
 49
-0.0833282470703125
 74
               0
 49
0.125
 74
               0
 49
-0.111114501953125
 74
               0
  0
LTYPE
  5
71
100
AcDbSymbolTableRecord
100
AcDbLinetypeTableRecord
  2
STYLE_14
 70
               0
  3

 72
              65
 73
               4
 40
1.4305572509765625
 49
1.1805572509765625
 74
               0
 49
-0.0555572509765625
 74
               0
 49
0.138885498046875
 74
               0
 49
-0.0555572509765625
 74
               0
  0
LTYPE
  5
72
100
AcDbSymbolTableRecord
100
AcDbLinetypeTableRecord
  2
STYLE_15
 70
               0
  3

 72
              65
 73
               6
 40
0.5694427490234375
 49
0.361114501953125
 74
               0
 49
-0.041656494140625
 74
               0
 49
0.0416717529296875
 74
               0
 49
-0.0416717529296875
 74
               0
 49
0.041656494140625
 74
               0
 49
-0.0416717529296875
 74
               0
  0
LTYPE
  5
73
100
AcDbSymbolTableRecord
100
AcDbLinetypeTableRecord
  2
STYLE_16
 70
               0
  3

 72
              65
 73
               4
 40
1.111114501953125
 49
0.7916717529296875
 74
               0
 49
-0.0833282470703125
 74
               0
 49
0.125
 74
               0
 49
-0.111114501953125
 74
               0
  0
LTYPE
  5
74
100
AcDbSymbolTableRecord
100
AcDbLinetypeTableRecord
  2
STYLE_17
 70
               0
  3

 72
              65
 73
               4
 40
0.2083282470703125
 49
0.125
 74
               0
 49
-0.041656494140625
 74
               0
 49
0.013885498046875
 74
               0
 49
-0.0277862548828125
 74
               0
  0
LTYPE
  5
75
100
AcDbSymbolTableRecord
100
AcDbLinetypeTableRecord
  2
STYLE_18
 70
               0
  3

 72
              65
 73
               6
 40
0.6111111111111112
 49
0.4027777777777778
 74
               0
 49
-0.0416666666666666
 74
               0
 49
0.0416666666666667
 74
               0
 49
-0.0416666666666667
 74
               0
 49
0.0416666666666666
 74
               0
 49
-0.0416666666666667
 74
               0
  0
ENDTAB
  0
TABLE
  2
LAYER
  5
2
100
AcDbSymbolTable
 70
               9
  0
LAYER
  5
14
100
AcDbSymbolTableRecord
100
AcDbLayerTableRecord
  2
0
 70
               0
 62
               7
  6
CONTINUOUS
  0
LAYER
  5
7D
100
AcDbSymbolTableRecord
100
AcDbLayerTableRecord
  2
DEFPOINTS
 70
               0
 62
               7
  6
CONTINUOUS
  0
LAYER
  5
7E
100
AcDbSymbolTableRecord
100
AcDbLayerTableRecord
  2
OBJECT
 70
               0
 62
               7
  6
CONTINUOUS
  0
LAYER
  5
7F
100
AcDbSymbolTableRecord
100
AcDbLayerTableRecord
  2
DIMENTION
 70
               0
 62
               7
  6
CONTINUOUS
  0
LAYER
  5
80
100
AcDbSymbolTableRecord
100
AcDbLayerTableRecord
  2
CENTER
 70
               0
 62
               7
  6
STYLE_09
  0
LAYER
  5
81
100
AcDbSymbolTableRecord
100
AcDbLayerTableRecord
  2
HIDDEN
 70
               0
 62
               7
  6
STYLE_02
  0
LAYER
  5
82
100
AcDbSymbolTableRecord
100
AcDbLayerTableRecord
  2
FRAME
 70
               0
 62
               7
  6
CONTINUOUS
  0
LAYER
  5
83
100
AcDbSymbolTableRecord
100
AcDbLayerTableRecord
  2
OUTLINE
 70
               0
 62
               7
  6
STYLE_15
  0
LAYER
  5
84
100
AcDbSymbolTableRecord
100
AcDbLayerTableRecord
  2
TEXT
 70
               0
 62
               7
  6
CONTINUOUS
  0
ENDTAB
  0
TABLE
  2
STYLE
  5
3
100
AcDbSymbolTable
 70
               2
  0
STYLE
  5
17
100
AcDbSymbolTableRecord
100
AcDbTextStyleTableRecord
  2
STANDARD
 70
               0
 40
0.0
 41
1.0
 50
0.0
 71
               0
 42
0.0
  3
txt
  4
BIGFONT.SHX
  0
STYLE
  5
63
100
AcDbSymbolTableRecord
100
AcDbTextStyleTableRecord
  2
________
 70
               0
 40
0.0
 41
1.0
 50
0.0
 71
               0
 42
0.0
  3
ＭＳ Ｐゴシック
  4

1001
ACAD
1000
ＭＳ Ｐゴシック
1071
        0
  0
ENDTAB
  0
TABLE
  2
VIEW
  5
5
100
AcDbSymbolTable
 70
               0
  0
ENDTAB
  0
TABLE
  2
UCS
  5
6
100
AcDbSymbolTable
 70
               0
  0
ENDTAB
  0
TABLE
  2
APPID
  5
8
100
AcDbSymbolTable
 70
               1
  0
APPID
  5
16
100
AcDbSymbolTableRecord
100
AcDbRegAppTableRecord
  2
ACAD
 70
               0
  0
ENDTAB
  0
TABLE
  2
DIMSTYLE
  5
9
100
AcDbSymbolTable
 70
               2
  0
DIMSTYLE
105
18
100
AcDbSymbolTableRecord
100
AcDbDimStyleTableRecord
  2
STANDARD
 70
               0
  3

  4

  5

  6

  7

 40
1.0
 41
0.18
 42
0.0625
 43
0.38
 44
0.18
 45
0.0
 46
0.0
 47
0.0
 48
0.0
 71
               0
 72
               0
 73
               1
 74
               1
 75
               0
 76
               0
 77
               0
 78
               0
140
0.18
141
0.09
142
0.0
143
25.399999999999999
144
1.0
145
0.0
146
1.0
147
0.09
170
               0
171
               2
172
               0
173
               0
174
               0
175
               0
176
               0
177
               0
178
               0
270
               2
271
               4
272
               4
273
               2
274
               2
275
               0
280
               0
281
               0
282
               0
283
               1
284
               0
285
               0
286
               0
287
               0
288
               0
340
17
  0
DIMSTYLE
105
7C
100
AcDbSymbolTableRecord
100
AcDbDimStyleTableRecord
  2
CAD
 70
               0
  3
<>
  4
[]
  5
VW_OPENARROW
  6

  7

 40
1.0
 41
31.75
 42
9.9999999627470952
 43
7.9999999938532707
 44
19.99999992549419
 45
0.0
 46
0.0
 47
0.0
 48
0.0
 71
               0
 72
               0
 73
               0
 74
               0
 75
               0
 76
               0
 77
               1
 78
              11
140
33.866666666666667
141
0.0
142
0.0
143
1.0
144
1.0
145
0.0
146
0.7
147
0.099999999627471
170
               0
171
               1
172
               1
173
               0
174
               1
175
               0
176
               0
177
               0
178
               0
270
               2
271
               4
272
               4
273
               2
274
               2
275
               0
280
               0
281
               0
282
               0
283
               1
284
              11
285
              11
286
              11
287
               0
288
               0
340
63
  0
ENDTAB
  0
TABLE
  2
BLOCK_RECORD
  5
1
100
AcDbSymbolTable
 70
              71
  0
BLOCK_RECORD
  5
A
100
AcDbSymbolTableRecord
100
AcDbBlockTableRecord
  2
*MODEL_SPACE
  0
BLOCK_RECORD
  5
B
100
AcDbSymbolTableRecord
100
AcDbBlockTableRecord
  2
*PAPER_SPACE
  0
BLOCK_RECORD
  5
76
100
AcDbSymbolTableRecord
100
AcDbBlockTableRecord
  2
VW_OPENARROW
  0
BLOCK_RECORD
  5
1D
100
AcDbSymbolTableRecord
100
AcDbBlockTableRecord
  2
*D1
  0
BLOCK_RECORD
  5
1E
100
AcDbSymbolTableRecord
100
AcDbBlockTableRecord
  2
*D2
  0
BLOCK_RECORD
  5
1F
100
AcDbSymbolTableRecord
100
AcDbBlockTableRecord
  2
*D3
  0
BLOCK_RECORD
  5
20
100
AcDbSymbolTableRecord
100
AcDbBlockTableRecord
  2
*D4
  0
BLOCK_RECORD
  5
21
100
AcDbSymbolTableRecord
100
AcDbBlockTableRecord
  2
*D5
  0
BLOCK_RECORD
  5
22
100
AcDbSymbolTableRecord
100
AcDbBlockTableRecord
  2
*D6
  0
BLOCK_RECORD
  5
23
100
AcDbSymbolTableRecord
100
AcDbBlockTableRecord
  2
*D7
  0
BLOCK_RECORD
  5
24
100
AcDbSymbolTableRecord
100
AcDbBlockTableRecord
  2
*D8
  0
BLOCK_RECORD
  5
25
100
AcDbSymbolTableRecord
100
AcDbBlockTableRecord
  2
*D9
  0
BLOCK_RECORD
  5
26
100
AcDbSymbolTableRecord
100
AcDbBlockTableRecord
  2
*D10
  0
BLOCK_RECORD
  5
27
100
AcDbSymbolTableRecord
100
AcDbBlockTableRecord
  2
*D11
  0
BLOCK_RECORD
  5
28
100
AcDbSymbolTableRecord
100
AcDbBlockTableRecord
  2
*D12
  0
BLOCK_RECORD
  5
29
100
AcDbSymbolTableRecord
100
AcDbBlockTableRecord
  2
*D13
  0
BLOCK_RECORD
  5
2A
100
AcDbSymbolTableRecord
100
AcDbBlockTableRecord
  2
*D14
  0
BLOCK_RECORD
  5
2B
100
AcDbSymbolTableRecord
100
AcDbBlockTableRecord
  2
*U15
  0
BLOCK_RECORD
  5
2C
100
AcDbSymbolTableRecord
100
AcDbBlockTableRecord
  2
*U16
  0
BLOCK_RECORD
  5
2D
100
AcDbSymbolTableRecord
100
AcDbBlockTableRecord
  2
*U17
  0
BLOCK_RECORD
  5
2E
100
AcDbSymbolTableRecord
100
AcDbBlockTableRecord
  2
*U18
  0
BLOCK_RECORD
  5
2F
100
AcDbSymbolTableRecord
100
AcDbBlockTableRecord
  2
*U19
  0
BLOCK_RECORD
  5
30
100
AcDbSymbolTableRecord
100
AcDbBlockTableRecord
  2
*U20
  0
BLOCK_RECORD
  5
31
100
AcDbSymbolTableRecord
100
AcDbBlockTableRecord
  2
*U21
  0
BLOCK_RECORD
  5
32
100
AcDbSymbolTableRecord
100
AcDbBlockTableRecord
  2
*U22
  0
BLOCK_RECORD
  5
33
100
AcDbSymbolTableRecord
100
AcDbBlockTableRecord
  2
*U23
  0
BLOCK_RECORD
  5
34
100
AcDbSymbolTableRecord
100
AcDbBlockTableRecord
  2
*U24
  0
BLOCK_RECORD
  5
35
100
AcDbSymbolTableRecord
100
AcDbBlockTableRecord
  2
*U25
  0
BLOCK_RECORD
  5
36
100
AcDbSymbolTableRecord
100
AcDbBlockTableRecord
  2
*U26
  0
BLOCK_RECORD
  5
37
100
AcDbSymbolTableRecord
100
AcDbBlockTableRecord
  2
*U27
  0
BLOCK_RECORD
  5
38
100
AcDbSymbolTableRecord
100
AcDbBlockTableRecord
  2
*U28
  0
BLOCK_RECORD
  5
39
100
AcDbSymbolTableRecord
100
AcDbBlockTableRecord
  2
*U29
  0
BLOCK_RECORD
  5
3A
100
AcDbSymbolTableRecord
100
AcDbBlockTableRecord
  2
*U30
  0
BLOCK_RECORD
  5
3B
100
AcDbSymbolTableRecord
100
AcDbBlockTableRecord
  2
*U31
  0
BLOCK_RECORD
  5
3C
100
AcDbSymbolTableRecord
100
AcDbBlockTableRecord
  2
*U32
  0
BLOCK_RECORD
  5
3D
100
AcDbSymbolTableRecord
100
AcDbBlockTableRecord
  2
*U33
  0
BLOCK_RECORD
  5
3E
100
AcDbSymbolTableRecord
100
AcDbBlockTableRecord
  2
*U34
  0
BLOCK_RECORD
  5
3F
100
AcDbSymbolTableRecord
100
AcDbBlockTableRecord
  2
*U35
  0
BLOCK_RECORD
  5
40
100
AcDbSymbolTableRecord
100
AcDbBlockTableRecord
  2
*U36
  0
BLOCK_RECORD
  5
41
100
AcDbSymbolTableRecord
100
AcDbBlockTableRecord
  2
*U37
  0
BLOCK_RECORD
  5
42
100
AcDbSymbolTableRecord
100
AcDbBlockTableRecord
  2
*U38
  0
BLOCK_RECORD
  5
43
100
AcDbSymbolTableRecord
100
AcDbBlockTableRecord
  2
*U39
  0
BLOCK_RECORD
  5
44
100
AcDbSymbolTableRecord
100
AcDbBlockTableRecord
  2
*U40
  0
BLOCK_RECORD
  5
45
100
AcDbSymbolTableRecord
100
AcDbBlockTableRecord
  2
*U41
  0
BLOCK_RECORD
  5
46
100
AcDbSymbolTableRecord
100
AcDbBlockTableRecord
  2
*U42
  0
BLOCK_RECORD
  5
47
100
AcDbSymbolTableRecord
100
AcDbBlockTableRecord
  2
*U43
  0
BLOCK_RECORD
  5
48
100
AcDbSymbolTableRecord
100
AcDbBlockTableRecord
  2
*U44
  0
BLOCK_RECORD
  5
49
100
AcDbSymbolTableRecord
100
AcDbBlockTableRecord
  2
*U45
  0
BLOCK_RECORD
  5
4A
100
AcDbSymbolTableRecord
100
AcDbBlockTableRecord
  2
*U46
  0
BLOCK_RECORD
  5
4B
100
AcDbSymbolTableRecord
100
AcDbBlockTableRecord
  2
*D47
  0
BLOCK_RECORD
  5
4C
100
AcDbSymbolTableRecord
100
AcDbBlockTableRecord
  2
*D48
  0
BLOCK_RECORD
  5
4D
100
AcDbSymbolTableRecord
100
AcDbBlockTableRecord
  2
*U49
  0
BLOCK_RECORD
  5
4E
100
AcDbSymbolTableRecord
100
AcDbBlockTableRecord
  2
*U50
  0
BLOCK_RECORD
  5
4F
100
AcDbSymbolTableRecord
100
AcDbBlockTableRecord
  2
*U51
  0
BLOCK_RECORD
  5
50
100
AcDbSymbolTableRecord
100
AcDbBlockTableRecord
  2
*U52
  0
BLOCK_RECORD
  5
51
100
AcDbSymbolTableRecord
100
AcDbBlockTableRecord
  2
*U53
  0
BLOCK_RECORD
  5
52
100
AcDbSymbolTableRecord
100
AcDbBlockTableRecord
  2
*D54
  0
BLOCK_RECORD
  5
53
100
AcDbSymbolTableRecord
100
AcDbBlockTableRecord
  2
*D55
  0
BLOCK_RECORD
  5
54
100
AcDbSymbolTableRecord
100
AcDbBlockTableRecord
  2
*D56
  0
BLOCK_RECORD
  5
55
100
AcDbSymbolTableRecord
100
AcDbBlockTableRecord
  2
*D57
  0
BLOCK_RECORD
  5
56
100
AcDbSymbolTableRecord
100
AcDbBlockTableRecord
  2
*U58
  0
BLOCK_RECORD
  5
57
100
AcDbSymbolTableRecord
100
AcDbBlockTableRecord
  2
*U59
  0
BLOCK_RECORD
  5
58
100
AcDbSymbolTableRecord
100
AcDbBlockTableRecord
  2
*U60
  0
BLOCK_RECORD
  5
59
100
AcDbSymbolTableRecord
100
AcDbBlockTableRecord
  2
*D61
  0
BLOCK_RECORD
  5
5A
100
AcDbSymbolTableRecord
100
AcDbBlockTableRecord
  2
*D62
  0
BLOCK_RECORD
  5
5B
100
AcDbSymbolTableRecord
100
AcDbBlockTableRecord
  2
*D63
  0
BLOCK_RECORD
  5
5C
100
AcDbSymbolTableRecord
100
AcDbBlockTableRecord
  2
*D64
  0
BLOCK_RECORD
  5
5D
100
AcDbSymbolTableRecord
100
AcDbBlockTableRecord
  2
*U65
  0
BLOCK_RECORD
  5
5E
100
AcDbSymbolTableRecord
100
AcDbBlockTableRecord
  2
*D66
  0
BLOCK_RECORD
  5
5F
100
AcDbSymbolTableRecord
100
AcDbBlockTableRecord
  2
*D67
  0
BLOCK_RECORD
  5
60
100
AcDbSymbolTableRecord
100
AcDbBlockTableRecord
  2
*U68
  0
BLOCK_RECORD
  5
61
100
AcDbSymbolTableRecord
100
AcDbBlockTableRecord
  2
*D69
  0
BLOCK_RECORD
  5
62
100
AcDbSymbolTableRecord
100
AcDbBlockTableRecord
  2
*U70
  0
ENDTAB
  0
ENDSEC
  0
SECTION
  2
BLOCKS
  0
BLOCK
  5
D
100
AcDbEntity
  8
0
100
AcDbBlockBegin
  2
*MODEL_SPACE
 70
               0
 10
0.0
 20
0.0
 30
0.0
  3
*MODEL_SPACE
  1

  0
ENDBLK
  5
E
100
AcDbEntity
  8
0
100
AcDbBlockEnd
  0
BLOCK
  5
F
100
AcDbEntity
 67
               1
  8
0
100
AcDbBlockBegin
  2
*PAPER_SPACE
 70
               0
 10
0.0
 20
0.0
 30
0.0
  3
*PAPER_SPACE
  1

  0
ENDBLK
  5
10
100
AcDbEntity
 67
               1
  8
0
100
AcDbBlockEnd
  0
BLOCK
  5
77
100
AcDbEntity
  8
0
  6
BYBLOCK
 62
               0
100
AcDbBlockBegin
  2
VW_OPENARROW
 70
               0
 10
0.0
 20
0.0
 30
0.0
  3
VW_OPENARROW
  1

  0
LINE
  5
78
100
AcDbEntity
  8
0
  6
BYBLOCK
 62
               0
100
AcDbLine
 10
0.0
 20
0.0
 30
0.0
 11
-1.0
 21
0.0
 31
0.0
  0
LINE
  5
79
100
AcDbEntity
  8
0
  6
BYBLOCK
 62
               0
100
AcDbLine
 10
0.0
 20
0.0
 30
0.0
 11
-0.9921874999999999
 21
-0.2658558393652545
 31
0.0
  0
LINE
  5
7A
100
AcDbEntity
  8
0
  6
BYBLOCK
 62
               0
100
AcDbLine
 10
0.0
 20
0.0
 30
0.0
 11
-0.9921874999999999
 21
0.2658558393652548
 31
0.0
  0
ENDBLK
  5
7B
100
AcDbEntity
  8
0
100
AcDbBlockEnd
  0
BLOCK
  5
85
100
AcDbEntity
  8
DIMENTION
100
AcDbBlockBegin
  2
*D1
 70
               1
 10
0.0
 20
0.0
 30
0.0
  3
*D1
  1

  0
LINE
  5
86
100
AcDbEntity
  8
DIMENTION
 62
               0
100
AcDbLine
 10
2766.9999999627471
 20
1165.0
 30
0.0
 11
2832.9999999254942
 21
1165.0
 31
0.0
  0
LINE
  5
87
100
AcDbEntity
  8
DIMENTION
 62
               0
100
AcDbLine
 10
2757.9999999627471
 20
870.0
 30
0.0
 11
2832.9999999254942
 21
870.0
 31
0.0
  0
LINE
  5
88
100
AcDbEntity
  8
DIMENTION
 62
               0
100
AcDbLine
 10
2813.0
 20
1165.0
 30
0.0
 11
2813.0
 21
870.0
 31
0.0
  0
LINE
  5
89
100
AcDbEntity
  8
DIMENTION
 62
               0
100
AcDbLine
 10
2813.0
 20
1165.0
 30
0.0
 11
2821.5073868596883
 21
1133.25
 31
0.0
  0
LINE
  5
8A
100
AcDbEntity
  8
DIMENTION
 62
               0
100
AcDbLine
 10
2813.0
 20
1165.0
 30
0.0
 11
2804.4926131403117
 21
1133.25
 31
0.0
  0
LINE
  5
8B
100
AcDbEntity
  8
DIMENTION
 62
               0
100
AcDbLine
 10
2813.0
 20
870.0
 30
0.0
 11
2804.4926131403117
 21
901.75
 31
0.0
  0
LINE
  5
8C
100
AcDbEntity
  8
DIMENTION
 62
               0
100
AcDbLine
 10
2813.0
 20
870.0
 30
0.0
 11
2821.5073868596883
 21
901.75
 31
0.0
  0
MTEXT
  5
8D
100
AcDbEntity
  8
DIMENTION
 62
               0
100
AcDbMText
 10
2769.6666666666665
 20
985.75
 30
0.0
 40
33.866666666666667
 41
0.0
 71
               1
 72
               1
  1
295
  7
________
 11
0.0
 21
1.0
 31
0.0
  0
POINT
  5
8E
100
AcDbEntity
  8
DEFPOINTS
 62
               0
100
AcDbPoint
 10
2748.0
 20
870.0
 30
0.0
  0
POINT
  5
8F
100
AcDbEntity
  8
DEFPOINTS
 62
               0
100
AcDbPoint
 10
2757.0
 20
1165.0
 30
0.0
  0
POINT
  5
90
100
AcDbEntity
  8
DEFPOINTS
 62
               0
100
AcDbPoint
 10
2813.0
 20
1165.0
 30
0.0
  0
ENDBLK
  5
91
100
AcDbEntity
  8
DIMENTION
100
AcDbBlockEnd
  0
BLOCK
  5
92
100
AcDbEntity
  8
DIMENTION
100
AcDbBlockBegin
  2
*D2
 70
               1
 10
0.0
 20
0.0
 30
0.0
  3
*D2
  1

  0
LINE
  5
93
100
AcDbEntity
  8
DIMENTION
 62
               0
100
AcDbLine
 10
2354.9999999627471
 20
1290.0
 30
0.0
 11
2533.9999999254942
 21
1290.0
 31
0.0
  0
LINE
  5
94
100
AcDbEntity
  8
DIMENTION
 62
               0
100
AcDbLine
 10
2376.7172999627473
 20
1165.0
 30
0.0
 11
2533.9999999254942
 21
1165.0
 31
0.0
  0
LINE
  5
95
100
AcDbEntity
  8
DIMENTION
 62
               0
100
AcDbLine
 10
2514.0
 20
1290.0
 30
0.0
 11
2514.0
 21
1165.0
 31
0.0
  0
LINE
  5
96
100
AcDbEntity
  8
DIMENTION
 62
               0
100
AcDbLine
 10
2514.0
 20
1290.0
 30
0.0
 11
2522.5073868596883
 21
1258.25
 31
0.0
  0
LINE
  5
97
100
AcDbEntity
  8
DIMENTION
 62
               0
100
AcDbLine
 10
2514.0
 20
1290.0
 30
0.0
 11
2505.4926131403117
 21
1258.25
 31
0.0
  0
LINE
  5
98
100
AcDbEntity
  8
DIMENTION
 62
               0
100
AcDbLine
 10
2514.0
 20
1165.0
 30
0.0
 11
2505.4926131403117
 21
1196.75
 31
0.0
  0
LINE
  5
99
100
AcDbEntity
  8
DIMENTION
 62
               0
100
AcDbLine
 10
2514.0
 20
1165.0
 30
0.0
 11
2522.5073868596883
 21
1196.75
 31
0.0
  0
MTEXT
  5
9A
100
AcDbEntity
  8
DIMENTION
 62
               0
100
AcDbMText
 10
2470.6666666666665
 20
1195.75
 30
0.0
 40
33.866666666666667
 41
0.0
 71
               1
 72
               1
  1
125
  7
________
 11
0.0
 21
1.0
 31
0.0
  0
POINT
  5
9B
100
AcDbEntity
  8
DEFPOINTS
 62
               0
100
AcDbPoint
 10
2366.7173000000003
 20
1165.0
 30
0.0
  0
POINT
  5
9C
100
AcDbEntity
  8
DEFPOINTS
 62
               0
100
AcDbPoint
 10
2345.0
 20
1290.0
 30
0.0
  0
POINT
  5
9D
100
AcDbEntity
  8
DEFPOINTS
 62
               0
100
AcDbPoint
 10
2514.0
 20
1290.0
 30
0.0
  0
ENDBLK
  5
9E
100
AcDbEntity
  8
DIMENTION
100
AcDbBlockEnd
  0
BLOCK
  5
9F
100
AcDbEntity
  8
DIMENTION
100
AcDbBlockBegin
  2
*D3
 70
               1
 10
0.0
 20
0.0
 30
0.0
  3
*D3
  1

  0
LINE
  5
A0
100
AcDbEntity
  8
DIMENTION
 62
               0
100
AcDbLine
 10
2440.0
 20
1260.0000000372529
 30
0.0
 11
2440.0
 21
1207.0000000745058
 31
0.0
  0
LINE
  5
A1
100
AcDbEntity
  8
DIMENTION
 62
               0
100
AcDbLine
 10
2370.0
 20
1280.0000000372529
 30
0.0
 11
2370.0
 21
1207.0000000745058
 31
0.0
  0
LINE
  5
A2
100
AcDbEntity
  8
DIMENTION
 62
               0
100
AcDbLine
 10
2440.0
 20
1227.0
 30
0.0
 11
2370.0
 21
1227.0
 31
0.0
  0
LINE
  5
A3
100
AcDbEntity
  8
DIMENTION
 62
               0
100
AcDbLine
 10
2440.0
 20
1227.0
 30
0.0
 11
2408.25
 21
1218.4926131403117
 31
0.0
  0
LINE
  5
A4
100
AcDbEntity
  8
DIMENTION
 62
               0
100
AcDbLine
 10
2440.0
 20
1227.0
 30
0.0
 11
2408.25
 21
1235.5073868596883
 31
0.0
  0
LINE
  5
A5
100
AcDbEntity
  8
DIMENTION
 62
               0
100
AcDbLine
 10
2370.0
 20
1227.0
 30
0.0
 11
2401.75
 21
1235.5073868596883
 31
0.0
  0
LINE
  5
A6
100
AcDbEntity
  8
DIMENTION
 62
               0
100
AcDbLine
 10
2370.0
 20
1227.0
 30
0.0
 11
2401.75
 21
1218.4926131403117
 31
0.0
  0
MTEXT
  5
A7
100
AcDbEntity
  8
DIMENTION
 62
               0
100
AcDbMText
 10
2383.833333333333
 20
1270.3333333333335
 30
0.0
 40
33.866666666666667
 41
0.0
 71
               1
 72
               1
  1
70
  7
________
  0
POINT
  5
A8
100
AcDbEntity
  8
DEFPOINTS
 62
               0
100
AcDbPoint
 10
2370.0
 20
1290.0
 30
0.0
  0
POINT
  5
A9
100
AcDbEntity
  8
DEFPOINTS
 62
               0
100
AcDbPoint
 10
2440.0
 20
1270.0
 30
0.0
  0
POINT
  5
AA
100
AcDbEntity
  8
DEFPOINTS
 62
               0
100
AcDbPoint
 10
2440.0
 20
1227.0
 30
0.0
  0
ENDBLK
  5
AB
100
AcDbEntity
  8
DIMENTION
100
AcDbBlockEnd
  0
BLOCK
  5
AC
100
AcDbEntity
  8
DIMENTION
100
AcDbBlockBegin
  2
*D4
 70
               1
 10
0.0
 20
0.0
 30
0.0
  3
*D4
  1

  0
LINE
  5
AD
100
AcDbEntity
  8
DIMENTION
 62
               0
100
AcDbLine
 10
2756.9999999627471
 20
870.0
 30
0.0
 11
2908.2826998509886
 21
870.0
 31
0.0
  0
LINE
  5
AE
100
AcDbEntity
  8
DIMENTION
 62
               0
100
AcDbLine
 10
2756.9999999627471
 20
1475.0
 30
0.0
 11
2908.2826998509886
 21
1475.0
 31
0.0
  0
LINE
  5
AF
100
AcDbEntity
  8
DIMENTION
 62
               0
100
AcDbLine
 10
2888.2826999254944
 20
870.0
 30
0.0
 11
2888.2826999254944
 21
1475.0
 31
0.0
  0
LINE
  5
B0
100
AcDbEntity
  8
DIMENTION
 62
               0
100
AcDbLine
 10
2888.2826999254944
 20
870.0
 30
0.0
 11
2879.7753130658066
 21
901.75
 31
0.0
  0
LINE
  5
B1
100
AcDbEntity
  8
DIMENTION
 62
               0
100
AcDbLine
 10
2888.2826999254944
 20
870.0
 30
0.0
 11
2896.7900867851822
 21
901.75
 31
0.0
  0
LINE
  5
B2
100
AcDbEntity
  8
DIMENTION
 62
               0
100
AcDbLine
 10
2888.2826999254944
 20
1475.0
 30
0.0
 11
2896.7900867851822
 21
1443.25
 31
0.0
  0
LINE
  5
B3
100
AcDbEntity
  8
DIMENTION
 62
               0
100
AcDbLine
 10
2888.2826999254944
 20
1475.0
 30
0.0
 11
2879.7753130658066
 21
1443.25
 31
0.0
  0
MTEXT
  5
B4
100
AcDbEntity
  8
DIMENTION
 62
               0
100
AcDbMText
 10
2844.9493665921609
 20
1140.75
 30
0.0
 40
33.866666666666667
 41
0.0
 71
               1
 72
               1
  1
605
  7
________
 11
0.0
 21
1.0
 31
0.0
  0
POINT
  5
B5
100
AcDbEntity
  8
DEFPOINTS
 62
               0
100
AcDbPoint
 10
2747.0
 20
1475.0
 30
0.0
  0
POINT
  5
B6
100
AcDbEntity
  8
DEFPOINTS
 62
               0
100
AcDbPoint
 10
2747.0
 20
870.0
 30
0.0
  0
POINT
  5
B7
100
AcDbEntity
  8
DEFPOINTS
 62
               0
100
AcDbPoint
 10
2888.2826999254944
 20
870.0
 30
0.0
  0
ENDBLK
  5
B8
100
AcDbEntity
  8
DIMENTION
100
AcDbBlockEnd
  0
BLOCK
  5
B9
100
AcDbEntity
  8
DIMENTION
100
AcDbBlockBegin
  2
*D5
 70
               1
 10
0.0
 20
0.0
 30
0.0
  3
*D5
  1

  0
LINE
  5
BA
100
AcDbEntity
  8
DIMENTION
 62
               0
100
AcDbLine
 10
2745.9999999627471
 20
858.0
 30
0.0
 11
2908.2858235491767
 21
858.0
 31
0.0
  0
LINE
  5
BB
100
AcDbEntity
  8
DIMENTION
 62
               0
100
AcDbLine
 10
2768.9999999627471
 20
870.0
 30
0.0
 11
2908.2858235491767
 21
870.0
 31
0.0
  0
LINE
  5
BC
100
AcDbEntity
  8
DIMENTION
 62
               0
100
AcDbLine
 10
2888.2858236236825
 20
870.0
 30
0.0
 11
2888.2858236236825
 21
858.0
 31
0.0
  0
LINE
  5
BD
100
AcDbEntity
  8
DIMENTION
 62
               0
100
AcDbLine
 10
2888.2858236236825
 20
858.0
 30
0.0
 11
2888.2858236236825
 21
763.86666690289894
 31
0.0
  0
LINE
  5
BE
100
AcDbEntity
  8
DIMENTION
 62
               0
100
AcDbLine
 10
2888.2858236236825
 20
858.0
 30
0.0
 11
2896.7932104833708
 21
826.25
 31
0.0
  0
LINE
  5
BF
100
AcDbEntity
  8
DIMENTION
 62
               0
100
AcDbLine
 10
2888.2858236236825
 20
858.0
 30
0.0
 11
2879.7784367639943
 21
826.25
 31
0.0
  0
LINE
  5
C0
100
AcDbEntity
  8
DIMENTION
 62
               0
100
AcDbLine
 10
2888.2858236236825
 20
870.0
 30
0.0
 11
2888.2858236236825
 21
930.00000001303852
 31
0.0
  0
LINE
  5
C1
100
AcDbEntity
  8
DIMENTION
 62
               0
100
AcDbLine
 10
2888.2858236236825
 20
870.0
 30
0.0
 11
2879.7784367639943
 21
901.75
 31
0.0
  0
LINE
  5
C2
100
AcDbEntity
  8
DIMENTION
 62
               0
100
AcDbLine
 10
2888.2858236236825
 20
870.0
 30
0.0
 11
2896.7932104833708
 21
901.75
 31
0.0
  0
MTEXT
  5
C3
100
AcDbEntity
  8
DIMENTION
 62
               0
100
AcDbMText
 10
2844.952490290349
 20
763.86666690289894
 30
0.0
 40
33.866666666666667
 41
0.0
 71
               1
 72
               1
  1
12
  7
________
 11
0.0
 21
1.0
 31
0.0
  0
POINT
  5
C4
100
AcDbEntity
  8
DEFPOINTS
 62
               0
100
AcDbPoint
 10
2759.0
 20
870.0
 30
0.0
  0
POINT
  5
C5
100
AcDbEntity
  8
DEFPOINTS
 62
               0
100
AcDbPoint
 10
2736.0
 20
858.0
 30
0.0
  0
POINT
  5
C6
100
AcDbEntity
  8
DEFPOINTS
 62
               0
100
AcDbPoint
 10
2888.2858236236825
 20
858.0
 30
0.0
  0
ENDBLK
  5
C7
100
AcDbEntity
  8
DIMENTION
100
AcDbBlockEnd
  0
BLOCK
  5
C8
100
AcDbEntity
  8
DIMENTION
100
AcDbBlockBegin
  2
*D6
 70
               1
 10
0.0
 20
0.0
 30
0.0
  3
*D6
  1

  0
LINE
  5
C9
100
AcDbEntity
  8
DIMENTION
 62
               0
100
AcDbLine
 10
2740.0
 20
848.0000000372529
 30
0.0
 11
2740.0
 21
734.50000007450581
 31
0.0
  0
LINE
  5
CA
100
AcDbEntity
  8
DIMENTION
 62
               0
100
AcDbLine
 10
2140.0
 20
848.0000000372529
 30
0.0
 11
2140.0
 21
734.50000007450581
 31
0.0
  0
LINE
  5
CB
100
AcDbEntity
  8
DIMENTION
 62
               0
100
AcDbLine
 10
2740.0
 20
754.5
 30
0.0
 11
2140.0
 21
754.5
 31
0.0
  0
LINE
  5
CC
100
AcDbEntity
  8
DIMENTION
 62
               0
100
AcDbLine
 10
2740.0
 20
754.5
 30
0.0
 11
2708.25
 21
745.99261314031185
 31
0.0
  0
LINE
  5
CD
100
AcDbEntity
  8
DIMENTION
 62
               0
100
AcDbLine
 10
2740.0
 20
754.5
 30
0.0
 11
2708.25
 21
763.00738685968815
 31
0.0
  0
LINE
  5
CE
100
AcDbEntity
  8
DIMENTION
 62
               0
100
AcDbLine
 10
2140.0
 20
754.5
 30
0.0
 11
2171.75
 21
763.00738685968815
 31
0.0
  0
LINE
  5
CF
100
AcDbEntity
  8
DIMENTION
 62
               0
100
AcDbLine
 10
2140.0
 20
754.5
 30
0.0
 11
2171.75
 21
745.99261314031185
 31
0.0
  0
MTEXT
  5
D0
100
AcDbEntity
  8
DIMENTION
 62
               0
100
AcDbMText
 10
2404.532958984375
 20
797.83333333333326
 30
0.0
 40
33.866666666666667
 41
0.0
 71
               1
 72
               1
  1
600
  7
________
  0
POINT
  5
D1
100
AcDbEntity
  8
DEFPOINTS
 62
               0
100
AcDbPoint
 10
2140.0
 20
858.0
 30
0.0
  0
POINT
  5
D2
100
AcDbEntity
  8
DEFPOINTS
 62
               0
100
AcDbPoint
 10
2740.0
 20
858.0
 30
0.0
  0
POINT
  5
D3
100
AcDbEntity
  8
DEFPOINTS
 62
               0
100
AcDbPoint
 10
2740.0
 20
754.5
 30
0.0
  0
ENDBLK
  5
D4
100
AcDbEntity
  8
DIMENTION
100
AcDbBlockEnd
  0
BLOCK
  5
D5
100
AcDbEntity
  8
DIMENTION
100
AcDbBlockBegin
  2
*D7
 70
               1
 10
0.0
 20
0.0
 30
0.0
  3
*D7
  1

  0
LINE
  5
D6
100
AcDbEntity
  8
DIMENTION
 62
               0
100
AcDbLine
 10
2749.4999999627471
 20
-580.0
 30
0.0
 11
2822.9999999254942
 21
-580.0
 31
0.0
  0
LINE
  5
D7
100
AcDbEntity
  8
DIMENTION
 62
               0
100
AcDbLine
 10
2719.4999999627471
 20
-800.0
 30
0.0
 11
2822.9999999254942
 21
-800.0
 31
0.0
  0
LINE
  5
D8
100
AcDbEntity
  8
DIMENTION
 62
               0
100
AcDbLine
 10
2803.0
 20
-580.0
 30
0.0
 11
2803.0
 21
-800.0
 31
0.0
  0
LINE
  5
D9
100
AcDbEntity
  8
DIMENTION
 62
               0
100
AcDbLine
 10
2803.0
 20
-580.0
 30
0.0
 11
2811.5073868596883
 21
-611.75
 31
0.0
  0
LINE
  5
DA
100
AcDbEntity
  8
DIMENTION
 62
               0
100
AcDbLine
 10
2803.0
 20
-580.0
 30
0.0
 11
2794.4926131403122
 21
-611.75
 31
0.0
  0
LINE
  5
DB
100
AcDbEntity
  8
DIMENTION
 62
               0
100
AcDbLine
 10
2803.0
 20
-800.0
 30
0.0
 11
2794.4926131403122
 21
-768.25
 31
0.0
  0
LINE
  5
DC
100
AcDbEntity
  8
DIMENTION
 62
               0
100
AcDbLine
 10
2803.0
 20
-800.0
 30
0.0
 11
2811.5073868596883
 21
-768.25
 31
0.0
  0
MTEXT
  5
DD
100
AcDbEntity
  8
DIMENTION
 62
               0
100
AcDbMText
 10
2759.666666666667
 20
-721.75
 30
0.0
 40
33.866666666666667
 41
0.0
 71
               1
 72
               1
  1
220
  7
________
 11
0.0
 21
1.0
 31
0.0
  0
POINT
  5
DE
100
AcDbEntity
  8
DEFPOINTS
 62
               0
100
AcDbPoint
 10
2709.5
 20
-800.0
 30
0.0
  0
POINT
  5
DF
100
AcDbEntity
  8
DEFPOINTS
 62
               0
100
AcDbPoint
 10
2739.5
 20
-580.0
 30
0.0
  0
POINT
  5
E0
100
AcDbEntity
  8
DEFPOINTS
 62
               0
100
AcDbPoint
 10
2803.0
 20
-580.0
 30
0.0
  0
ENDBLK
  5
E1
100
AcDbEntity
  8
DIMENTION
100
AcDbBlockEnd
  0
BLOCK
  5
E2
100
AcDbEntity
  8
DIMENTION
100
AcDbBlockBegin
  2
*D8
 70
               1
 10
0.0
 20
0.0
 30
0.0
  3
*D8
  1

  0
LINE
  5
E3
100
AcDbEntity
  8
DIMENTION
 62
               0
100
AcDbLine
 10
2337.0000000246919
 20
-620.0
 30
0.0
 11
2286.0000000619448
 21
-620.0
 31
0.0
  0
LINE
  5
E4
100
AcDbEntity
  8
DIMENTION
 62
               0
100
AcDbLine
 10
2310.0000000246919
 20
-800.0
 30
0.0
 11
2286.0000000619448
 21
-800.0
 31
0.0
  0
LINE
  5
E5
100
AcDbEntity
  8
DIMENTION
 62
               0
100
AcDbLine
 10
2305.999999987439
 20
-620.0
 30
0.0
 11
2305.999999987439
 21
-800.0
 31
0.0
  0
LINE
  5
E6
100
AcDbEntity
  8
DIMENTION
 62
               0
100
AcDbLine
 10
2305.999999987439
 20
-620.0
 30
0.0
 11
2314.5073868471268
 21
-651.75
 31
0.0
  0
LINE
  5
E7
100
AcDbEntity
  8
DIMENTION
 62
               0
100
AcDbLine
 10
2305.999999987439
 20
-620.0
 30
0.0
 11
2297.4926131277507
 21
-651.75
 31
0.0
  0
LINE
  5
E8
100
AcDbEntity
  8
DIMENTION
 62
               0
100
AcDbLine
 10
2305.999999987439
 20
-800.0
 30
0.0
 11
2297.4926131277507
 21
-768.25
 31
0.0
  0
LINE
  5
E9
100
AcDbEntity
  8
DIMENTION
 62
               0
100
AcDbLine
 10
2305.999999987439
 20
-800.0
 30
0.0
 11
2314.5073868471268
 21
-768.25
 31
0.0
  0
MTEXT
  5
EA
100
AcDbEntity
  8
DIMENTION
 62
               0
100
AcDbMText
 10
2262.666666654105
 20
-746.93865798579327
 30
0.0
 40
33.866666666666667
 41
0.0
 71
               1
 72
               1
  1
180
  7
________
 11
0.0
 21
1.0
 31
0.0
  0
POINT
  5
EB
100
AcDbEntity
  8
DEFPOINTS
 62
               0
100
AcDbPoint
 10
2319.999999987439
 20
-800.0
 30
0.0
  0
POINT
  5
EC
100
AcDbEntity
  8
DEFPOINTS
 62
               0
100
AcDbPoint
 10
2346.999999987439
 20
-620.0
 30
0.0
  0
POINT
  5
ED
100
AcDbEntity
  8
DEFPOINTS
 62
               0
100
AcDbPoint
 10
2305.999999987439
 20
-620.0
 30
0.0
  0
ENDBLK
  5
EE
100
AcDbEntity
  8
DIMENTION
100
AcDbBlockEnd
  0
BLOCK
  5
EF
100
AcDbEntity
  8
DIMENTION
100
AcDbBlockBegin
  2
*D9
 70
               1
 10
0.0
 20
0.0
 30
0.0
  3
*D9
  1

  0
LINE
  5
F0
100
AcDbEntity
  8
DIMENTION
 62
               0
100
AcDbLine
 10
2740.0
 20
860.0000000372529
 30
0.0
 11
2740.0
 21
734.50000007450581
 31
0.0
  0
LINE
  5
F1
100
AcDbEntity
  8
DIMENTION
 62
               0
100
AcDbLine
 10
2754.0
 20
860.0000000372529
 30
0.0
 11
2754.0
 21
734.50000007450581
 31
0.0
  0
LINE
  5
F2
100
AcDbEntity
  8
DIMENTION
 62
               0
100
AcDbLine
 10
2754.0
 20
754.5
 30
0.0
 11
2740.0
 21
754.5
 31
0.0
  0
LINE
  5
F3
100
AcDbEntity
  8
DIMENTION
 62
               0
100
AcDbLine
 10
2740.0
 20
754.5
 30
0.0
 11
2679.9999999869615
 21
754.5
 31
0.0
  0
LINE
  5
F4
100
AcDbEntity
  8
DIMENTION
 62
               0
100
AcDbLine
 10
2740.0
 20
754.5
 30
0.0
 11
2708.25
 21
745.99261314031185
 31
0.0
  0
LINE
  5
F5
100
AcDbEntity
  8
DIMENTION
 62
               0
100
AcDbLine
 10
2740.0
 20
754.5
 30
0.0
 11
2708.25
 21
763.00738685968815
 31
0.0
  0
LINE
  5
F6
100
AcDbEntity
  8
DIMENTION
 62
               0
100
AcDbLine
 10
2754.0
 20
754.5
 30
0.0
 11
2823.3333333333335
 21
754.5
 31
0.0
  0
LINE
  5
F7
100
AcDbEntity
  8
DIMENTION
 62
               0
100
AcDbLine
 10
2754.0
 20
754.5
 30
0.0
 11
2785.75
 21
763.00738685968815
 31
0.0
  0
LINE
  5
F8
100
AcDbEntity
  8
DIMENTION
 62
               0
100
AcDbLine
 10
2754.0
 20
754.5
 30
0.0
 11
2785.75
 21
745.99261314031185
 31
0.0
  0
MTEXT
  5
F9
100
AcDbEntity
  8
DIMENTION
 62
               0
100
AcDbMText
 10
2781.0
 20
797.83323333333328
 30
0.0
 40
33.866666666666667
 41
0.0
 71
               1
 72
               1
  1
12
  7
________
  0
POINT
  5
FA
100
AcDbEntity
  8
DEFPOINTS
 62
               0
100
AcDbPoint
 10
2754.0
 20
870.0
 30
0.0
  0
POINT
  5
FB
100
AcDbEntity
  8
DEFPOINTS
 62
               0
100
AcDbPoint
 10
2740.0
 20
870.0
 30
0.0
  0
POINT
  5
FC
100
AcDbEntity
  8
DEFPOINTS
 62
               0
100
AcDbPoint
 10
2740.0
 20
754.5
 30
0.0
  0
ENDBLK
  5
FD
100
AcDbEntity
  8
DIMENTION
100
AcDbBlockEnd
  0
BLOCK
  5
FE
100
AcDbEntity
  8
DIMENTION
100
AcDbBlockBegin
  2
*D10
 70
               1
 10
0.0
 20
0.0
 30
0.0
  3
*D10
  1

  0
LINE
  5
FF
100
AcDbEntity
  8
DIMENTION
 62
               0
100
AcDbLine
 10
2419.9999999564666
 20
-610.00000000000023
 30
0.0
 11
2514.9641762147448
 21
-610.00000000000023
 31
0.0
  0
LINE
  5
100
100
AcDbEntity
  8
DIMENTION
 62
               0
100
AcDbLine
 10
2449.9999999501861
 20
-800.0
 30
0.0
 11
2514.9641762147448
 21
-800.0
 31
0.0
  0
LINE
  5
101
100
AcDbEntity
  8
DIMENTION
 62
               0
100
AcDbLine
 10
2494.9641762892506
 20
-610.00000000000023
 30
0.0
 11
2494.9641762892506
 21
-800.0
 31
0.0
  0
LINE
  5
102
100
AcDbEntity
  8
DIMENTION
 62
               0
100
AcDbLine
 10
2494.9641762892506
 20
-610.00000000000023
 30
0.0
 11
2503.4715631489389
 21
-641.75000000000023
 31
0.0
  0
LINE
  5
103
100
AcDbEntity
  8
DIMENTION
 62
               0
100
AcDbLine
 10
2494.9641762892506
 20
-610.00000000000023
 30
0.0
 11
2486.4567894295628
 21
-641.75000000000023
 31
0.0
  0
LINE
  5
104
100
AcDbEntity
  8
DIMENTION
 62
               0
100
AcDbLine
 10
2494.9641762892506
 20
-800.0
 30
0.0
 11
2486.4567894295628
 21
-768.25
 31
0.0
  0
LINE
  5
105
100
AcDbEntity
  8
DIMENTION
 62
               0
100
AcDbLine
 10
2494.9641762892506
 20
-800.0
 30
0.0
 11
2503.4715631489389
 21
-768.25
 31
0.0
  0
MTEXT
  5
106
100
AcDbEntity
  8
DIMENTION
 62
               0
100
AcDbMText
 10
2451.6308429596429
 20
-736.75
 30
0.0
 40
33.866666666666667
 41
0.0
 71
               1
 72
               1
  1
190
  7
________
 11
0.0
 21
1.0
 31
0.0
  0
POINT
  5
107
100
AcDbEntity
  8
DEFPOINTS
 62
               0
100
AcDbPoint
 10
2439.999999987439
 20
-800.0
 30
0.0
  0
POINT
  5
108
100
AcDbEntity
  8
DEFPOINTS
 62
               0
100
AcDbPoint
 10
2409.9999999937195
 20
-610.00000000000023
 30
0.0
  0
POINT
  5
109
100
AcDbEntity
  8
DEFPOINTS
 62
               0
100
AcDbPoint
 10
2494.9641762892506
 20
-610.00000000000023
 30
0.0
  0
ENDBLK
  5
10A
100
AcDbEntity
  8
DIMENTION
100
AcDbBlockEnd
  0
BLOCK
  5
10B
100
AcDbEntity
  8
DIMENTION
100
AcDbBlockBegin
  2
*D11
 70
               1
 10
0.0
 20
0.0
 30
0.0
  3
*D11
  1

  0
LINE
  5
10C
100
AcDbEntity
  8
DIMENTION
 62
               0
100
AcDbLine
 10
2358.9641762645588
 20
1165.0
 30
0.0
 11
2533.9999999254942
 21
1165.0
 31
0.0
  0
LINE
  5
10D
100
AcDbEntity
  8
DIMENTION
 62
               0
100
AcDbLine
 10
2409.9999999627471
 20
1045.0
 30
0.0
 11
2533.9999999254942
 21
1045.0
 31
0.0
  0
LINE
  5
10E
100
AcDbEntity
  8
DIMENTION
 62
               0
100
AcDbLine
 10
2514.0
 20
1165.0
 30
0.0
 11
2514.0
 21
1045.0
 31
0.0
  0
LINE
  5
10F
100
AcDbEntity
  8
DIMENTION
 62
               0
100
AcDbLine
 10
2514.0
 20
1165.0
 30
0.0
 11
2522.5073868596883
 21
1133.25
 31
0.0
  0
LINE
  5
110
100
AcDbEntity
  8
DIMENTION
 62
               0
100
AcDbLine
 10
2514.0
 20
1165.0
 30
0.0
 11
2505.4926131403117
 21
1133.25
 31
0.0
  0
LINE
  5
111
100
AcDbEntity
  8
DIMENTION
 62
               0
100
AcDbLine
 10
2514.0
 20
1045.0
 30
0.0
 11
2505.4926131403117
 21
1076.75
 31
0.0
  0
LINE
  5
112
100
AcDbEntity
  8
DIMENTION
 62
               0
100
AcDbLine
 10
2514.0
 20
1045.0
 30
0.0
 11
2522.5073868596883
 21
1076.75
 31
0.0
  0
MTEXT
  5
113
100
AcDbEntity
  8
DIMENTION
 62
               0
100
AcDbMText
 10
2470.6666666703918
 20
1073.25
 30
0.0
 40
33.866666666666667
 41
0.0
 71
               1
 72
               1
  1
120
  7
________
 11
0.0
 21
1.0
 31
0.0
  0
POINT
  5
114
100
AcDbEntity
  8
DEFPOINTS
 62
               0
100
AcDbPoint
 10
2400.0
 20
1045.0
 30
0.0
  0
POINT
  5
115
100
AcDbEntity
  8
DEFPOINTS
 62
               0
100
AcDbPoint
 10
2348.9641763018117
 20
1165.0
 30
0.0
  0
POINT
  5
116
100
AcDbEntity
  8
DEFPOINTS
 62
               0
100
AcDbPoint
 10
2514.0
 20
1165.0
 30
0.0
  0
ENDBLK
  5
117
100
AcDbEntity
  8
DIMENTION
100
AcDbBlockEnd
  0
BLOCK
  5
118
100
AcDbEntity
  8
DIMENTION
100
AcDbBlockBegin
  2
*D12
 70
               1
 10
0.0
 20
0.0
 30
0.0
  3
*D12
  1

  0
LINE
  5
119
100
AcDbEntity
  8
DIMENTION
 62
               0
100
AcDbLine
 10
2400.0
 20
1024.0000000372529
 30
0.0
 11
2400.0
 21
921.56000038524382
 31
0.0
  0
LINE
  5
11A
100
AcDbEntity
  8
DIMENTION
 62
               0
100
AcDbLine
 10
2440.0
 20
987.20000027348487
 30
0.0
 11
2440.0
 21
921.56000038524382
 31
0.0
  0
LINE
  5
11B
100
AcDbEntity
  8
DIMENTION
 62
               0
100
AcDbLine
 10
2440.0
 20
941.56000031073802
 30
0.0
 11
2400.0
 21
941.56000031073802
 31
0.0
  0
LINE
  5
11C
100
AcDbEntity
  8
DIMENTION
 62
               0
100
AcDbLine
 10
2400.0
 20
941.56000031073802
 30
0.0
 11
2338.666666666667
 21
941.56000031073802
 31
0.0
  0
LINE
  5
11D
100
AcDbEntity
  8
DIMENTION
 62
               0
100
AcDbLine
 10
2400.0
 20
941.56000031073802
 30
0.0
 11
2368.25
 21
933.05261345104987
 31
0.0
  0
LINE
  5
11E
100
AcDbEntity
  8
DIMENTION
 62
               0
100
AcDbLine
 10
2400.0
 20
941.56000031073802
 30
0.0
 11
2368.25
 21
950.06738717042617
 31
0.0
  0
LINE
  5
11F
100
AcDbEntity
  8
DIMENTION
 62
               0
100
AcDbLine
 10
2440.0
 20
941.56000031073802
 30
0.0
 11
2500.0000000130385
 21
941.56000031073802
 31
0.0
  0
LINE
  5
120
100
AcDbEntity
  8
DIMENTION
 62
               0
100
AcDbLine
 10
2440.0
 20
941.56000031073802
 30
0.0
 11
2471.75
 21
950.06738717042617
 31
0.0
  0
LINE
  5
121
100
AcDbEntity
  8
DIMENTION
 62
               0
100
AcDbLine
 10
2440.0
 20
941.56000031073802
 30
0.0
 11
2471.75
 21
933.05261345104987
 31
0.0
  0
MTEXT
  5
122
100
AcDbEntity
  8
DIMENTION
 62
               0
100
AcDbMText
 10
2338.6666666666665
 20
984.8933336403461
 30
0.0
 40
33.866666666666667
 41
0.0
 71
               1
 72
               1
  1
40
  7
________
  0
POINT
  5
123
100
AcDbEntity
  8
DEFPOINTS
 62
               0
100
AcDbPoint
 10
2440.0
 20
997.20000023623197
 30
0.0
  0
POINT
  5
124
100
AcDbEntity
  8
DEFPOINTS
 62
               0
100
AcDbPoint
 10
2400.0
 20
1034.0
 30
0.0
  0
POINT
  5
125
100
AcDbEntity
  8
DEFPOINTS
 62
               0
100
AcDbPoint
 10
2400.0
 20
941.56000031073802
 30
0.0
  0
ENDBLK
  5
126
100
AcDbEntity
  8
DIMENTION
100
AcDbBlockEnd
  0
BLOCK
  5
127
100
AcDbEntity
  8
DIMENTION
100
AcDbBlockBegin
  2
*D13
 70
               1
 10
0.0
 20
0.0
 30
0.0
  3
*D13
  1

  0
LINE
  5
128
100
AcDbEntity
  8
DIMENTION
 62
               0
100
AcDbLine
 10
2785.0
 20
530.00009996274684
 30
0.0
 11
2785.0
 21
663.99999992549374
 31
0.0
  0
LINE
  5
129
100
AcDbEntity
  8
DIMENTION
 62
               0
100
AcDbLine
 10
2095.0
 20
530.00009996274684
 30
0.0
 11
2095.0
 21
663.99999992549374
 31
0.0
  0
LINE
  5
12A
100
AcDbEntity
  8
DIMENTION
 62
               0
100
AcDbLine
 10
2785.0
 20
643.99999999999955
 30
0.0
 11
2095.0
 21
643.99999999999955
 31
0.0
  0
LINE
  5
12B
100
AcDbEntity
  8
DIMENTION
 62
               0
100
AcDbLine
 10
2785.0
 20
643.99999999999955
 30
0.0
 11
2753.25
 21
635.49261314031128
 31
0.0
  0
LINE
  5
12C
100
AcDbEntity
  8
DIMENTION
 62
               0
100
AcDbLine
 10
2785.0
 20
643.99999999999955
 30
0.0
 11
2753.25
 21
652.50738685968759
 31
0.0
  0
LINE
  5
12D
100
AcDbEntity
  8
DIMENTION
 62
               0
100
AcDbLine
 10
2095.0
 20
643.99999999999955
 30
0.0
 11
2126.75
 21
652.50738685968759
 31
0.0
  0
LINE
  5
12E
100
AcDbEntity
  8
DIMENTION
 62
               0
100
AcDbLine
 10
2095.0
 20
643.99999999999955
 30
0.0
 11
2126.75
 21
635.49261314031128
 31
0.0
  0
MTEXT
  5
12F
100
AcDbEntity
  8
DIMENTION
 62
               0
100
AcDbMText
 10
2408.25
 20
687.3333333333328
 30
0.0
 40
33.866666666666667
 41
0.0
 71
               1
 72
               1
  1
690
  7
________
  0
POINT
  5
130
100
AcDbEntity
  8
DEFPOINTS
 62
               0
100
AcDbPoint
 10
2095.0
 20
520.00009999999975
 30
0.0
  0
POINT
  5
131
100
AcDbEntity
  8
DEFPOINTS
 62
               0
100
AcDbPoint
 10
2785.0
 20
520.00009999999975
 30
0.0
  0
POINT
  5
132
100
AcDbEntity
  8
DEFPOINTS
 62
               0
100
AcDbPoint
 10
2785.0
 20
643.99999999999955
 30
0.0
  0
ENDBLK
  5
133
100
AcDbEntity
  8
DIMENTION
100
AcDbBlockEnd
  0
BLOCK
  5
134
100
AcDbEntity
  8
DIMENTION
100
AcDbBlockBegin
  2
*D14
 70
               1
 10
0.0
 20
0.0
 30
0.0
  3
*D14
  1

  0
LINE
  5
135
100
AcDbEntity
  8
DIMENTION
 62
               0
100
AcDbLine
 10
2118.0000000372529
 20
0.0
 30
0.0
 11
2020.0000000745058
 21
0.0
 31
0.0
  0
LINE
  5
136
100
AcDbEntity
  8
DIMENTION
 62
               0
100
AcDbLine
 10
2101.0000000372529
 20
220.0
 30
0.0
 11
2020.0000000745058
 21
220.0
 31
0.0
  0
LINE
  5
137
100
AcDbEntity
  8
DIMENTION
 62
               0
100
AcDbLine
 10
2040.0
 20
0.0
 30
0.0
 11
2040.0
 21
220.0
 31
0.0
  0
LINE
  5
138
100
AcDbEntity
  8
DIMENTION
 62
               0
100
AcDbLine
 10
2040.0
 20
0.0
 30
0.0
 11
2031.4926131403117
 21
31.75
 31
0.0
  0
LINE
  5
139
100
AcDbEntity
  8
DIMENTION
 62
               0
100
AcDbLine
 10
2040.0
 20
0.0
 30
0.0
 11
2048.5073868596883
 21
31.75
 31
0.0
  0
LINE
  5
13A
100
AcDbEntity
  8
DIMENTION
 62
               0
100
AcDbLine
 10
2040.0
 20
220.0
 30
0.0
 11
2048.5073868596883
 21
188.25
 31
0.0
  0
LINE
  5
13B
100
AcDbEntity
  8
DIMENTION
 62
               0
100
AcDbLine
 10
2040.0
 20
220.0
 30
0.0
 11
2031.4926131403117
 21
188.25
 31
0.0
  0
MTEXT
  5
13C
100
AcDbEntity
  8
DIMENTION
 62
               0
100
AcDbMText
 10
1996.6667666666667
 20
78.25
 30
0.0
 40
33.866666666666667
 41
0.0
 71
               1
 72
               1
  1
220
  7
________
 11
0.0
 21
1.0
 31
0.0
  0
POINT
  5
13D
100
AcDbEntity
  8
DEFPOINTS
 62
               0
100
AcDbPoint
 10
2111.0
 20
220.0
 30
0.0
  0
POINT
  5
13E
100
AcDbEntity
  8
DEFPOINTS
 62
               0
100
AcDbPoint
 10
2128.0
 20
0.0
 30
0.0
  0
POINT
  5
13F
100
AcDbEntity
  8
DEFPOINTS
 62
               0
100
AcDbPoint
 10
2040.0
 20
0.0
 30
0.0
  0
ENDBLK
  5
140
100
AcDbEntity
  8
DIMENTION
100
AcDbBlockEnd
  0
BLOCK
  5
141
100
AcDbEntity
  8
HIDDEN
100
AcDbBlockBegin
  2
*U15
 70
               1
 10
0.0
 20
0.0
 30
0.0
  3
*U15
  1

  0
POLYLINE
  5
142
100
AcDbEntity
  8
HIDDEN
 62
               0
100
AcDb2dPolyline
 66
               1
 10
0.0
 20
0.0
 30
0.0
 75
               5
  0
VERTEX
  5
143
100
AcDbEntity
  8
HIDDEN
 62
               0
100
AcDbVertex
100
AcDb2dVertex
 10
911.88270000000011
 20
876.0
 30
0.0
  0
VERTEX
  5
144
100
AcDbEntity
  8
HIDDEN
 62
               0
100
AcDbVertex
100
AcDb2dVertex
 10
911.88270000000011
 20
1076.0
 30
0.0
  0
VERTEX
  5
145
100
AcDbEntity
  8
HIDDEN
 62
               0
100
AcDbVertex
100
AcDb2dVertex
 10
889.88270000000011
 20
1076.0
 30
0.0
  0
VERTEX
  5
146
100
AcDbEntity
  8
HIDDEN
 62
               0
100
AcDbVertex
100
AcDb2dVertex
 10
889.88270000000011
 20
876.0
 30
0.0
  0
SEQEND
  5
147
100
AcDbEntity
  8
HIDDEN
 62
               0
  0
POLYLINE
  5
148
100
AcDbEntity
  8
HIDDEN
 62
               0
100
AcDb2dPolyline
 66
               1
 10
0.0
 20
0.0
 30
0.0
 75
               5
  0
VERTEX
  5
149
100
AcDbEntity
  8
HIDDEN
 62
               0
100
AcDbVertex
100
AcDb2dVertex
 10
1561.8827000000001
 20
876.0
 30
0.0
  0
VERTEX
  5
14A
100
AcDbEntity
  8
HIDDEN
 62
               0
100
AcDbVertex
100
AcDb2dVertex
 10
1561.8827000000001
 20
1076.0
 30
0.0
  0
VERTEX
  5
14B
100
AcDbEntity
  8
HIDDEN
 62
               0
100
AcDbVertex
100
AcDb2dVertex
 10
1539.8827000000001
 20
1076.0
 30
0.0
  0
VERTEX
  5
14C
100
AcDbEntity
  8
HIDDEN
 62
               0
100
AcDbVertex
100
AcDb2dVertex
 10
1539.8827000000001
 20
876.0
 30
0.0
  0
SEQEND
  5
14D
100
AcDbEntity
  8
HIDDEN
 62
               0
  0
ENDBLK
  5
14E
100
AcDbEntity
  8
HIDDEN
100
AcDbBlockEnd
  0
BLOCK
  5
14F
100
AcDbEntity
  8
OBJECT
100
AcDbBlockBegin
  2
*U16
 70
               1
 10
0.0
 20
0.0
 30
0.0
  3
*U16
  1

  0
LINE
  5
150
100
AcDbEntity
  8
OBJECT
 62
               0
100
AcDbLine
 10
935.88270000000011
 20
-426.0
 30
0.0
 11
935.88270000000011
 21
-387.0
 31
0.0
  0
LINE
  5
151
100
AcDbEntity
  8
OBJECT
 62
               0
100
AcDbLine
 10
928.88270000000011
 20
-429.0
 30
0.0
 11
932.88270000000011
 21
-429.0
 31
0.0
  0
LINE
  5
152
100
AcDbEntity
  8
OBJECT
 62
               0
100
AcDbLine
 10
925.88270000000011
 20
-387.0
 30
0.0
 11
925.88270000000011
 21
-426.0
 31
0.0
  0
LINE
  5
153
100
AcDbEntity
  8
OBJECT
 62
               0
100
AcDbLine
 10
932.88270000000011
 20
-384.0
 30
0.0
 11
928.88270000000011
 21
-384.0
 31
0.0
  0
ARC
  5
154
100
AcDbEntity
  8
OBJECT
 62
               0
100
AcDbCircle
 10
932.88270000000011
 20
-387.0
 30
0.0
 40
3.0
100
AcDbArc
 50
0.0
 51
90.0
  0
ARC
  5
155
100
AcDbEntity
  8
OBJECT
 62
               0
100
AcDbCircle
 10
928.88270000000011
 20
-387.0
 30
0.0
 40
3.0
100
AcDbArc
 50
90.0
 51
180.0
  0
ARC
  5
156
100
AcDbEntity
  8
OBJECT
 62
               0
100
AcDbCircle
 10
932.88270000000011
 20
-426.0
 30
0.0
 40
3.0
100
AcDbArc
 50
270.0
 51
0.0
  0
ARC
  5
157
100
AcDbEntity
  8
OBJECT
 62
               0
100
AcDbCircle
 10
928.88270000000011
 20
-426.0
 30
0.0
 40
3.0
100
AcDbArc
 50
180.0
 51
270.0
  0
ENDBLK
  5
158
100
AcDbEntity
  8
OBJECT
100
AcDbBlockEnd
  0
BLOCK
  5
159
100
AcDbEntity
  8
OBJECT
100
AcDbBlockBegin
  2
*U17
 70
               1
 10
0.0
 20
0.0
 30
0.0
  3
*U17
  1

  0
LINE
  5
15A
100
AcDbEntity
  8
OBJECT
 62
               0
100
AcDbLine
 10
1515.8827000000003
 20
-426.0
 30
0.0
 11
1515.8827000000003
 21
-387.0
 31
0.0
  0
LINE
  5
15B
100
AcDbEntity
  8
OBJECT
 62
               0
100
AcDbLine
 10
1522.8827000000003
 20
-429.0
 30
0.0
 11
1518.8827000000003
 21
-429.0
 31
0.0
  0
LINE
  5
15C
100
AcDbEntity
  8
OBJECT
 62
               0
100
AcDbLine
 10
1525.8827000000003
 20
-387.0
 30
0.0
 11
1525.8827000000003
 21
-426.0
 31
0.0
  0
LINE
  5
15D
100
AcDbEntity
  8
OBJECT
 62
               0
100
AcDbLine
 10
1518.8827000000003
 20
-384.0
 30
0.0
 11
1522.8827000000003
 21
-384.0
 31
0.0
  0
ARC
  5
15E
100
AcDbEntity
  8
OBJECT
 62
               0
100
AcDbCircle
 10
1518.8827000000003
 20
-387.0
 30
0.0
 40
3.0
100
AcDbArc
 50
90.0
 51
180.0
  0
ARC
  5
15F
100
AcDbEntity
  8
OBJECT
 62
               0
100
AcDbCircle
 10
1522.8827000000003
 20
-387.0
 30
0.0
 40
3.0
100
AcDbArc
 50
0.0
 51
90.0
  0
ARC
  5
160
100
AcDbEntity
  8
OBJECT
 62
               0
100
AcDbCircle
 10
1518.8827000000003
 20
-426.0
 30
0.0
 40
3.0
100
AcDbArc
 50
180.0
 51
270.0
  0
ARC
  5
161
100
AcDbEntity
  8
OBJECT
 62
               0
100
AcDbCircle
 10
1522.8827000000003
 20
-426.0
 30
0.0
 40
3.0
100
AcDbArc
 50
270.0
 51
0.0
  0
ENDBLK
  5
162
100
AcDbEntity
  8
OBJECT
100
AcDbBlockEnd
  0
BLOCK
  5
163
100
AcDbEntity
  8
OBJECT
100
AcDbBlockBegin
  2
*U18
 70
               1
 10
0.0
 20
0.0
 30
0.0
  3
*U18
  1

  0
LINE
  5
164
100
AcDbEntity
  8
OBJECT
 62
               0
100
AcDbLine
 10
946.88270000000011
 20
-1227.0
 30
0.0
 11
946.88270000000011
 21
-1210.0
 31
0.0
  0
LINE
  5
165
100
AcDbEntity
  8
OBJECT
 62
               0
100
AcDbLine
 10
964.38270000000011
 20
-1227.0
 30
0.0
 11
964.38270000000011
 21
-1210.0
 31
0.0
  0
SPLINE
  5
166
100
AcDbEntity
  8
OBJECT
 62
               0
100
AcDbSpline
210
0.0
220
0.0
230
1.0
 70
               8
 71
               2
 72
              10
 73
               7
 74
               0
 42
0.000001
 43
0.000001
 40
0.0
 40
0.0
 40
0.0
 40
0.2391095954640664
 40
0.2391095954640664
 40
0.7708424925849841
 40
0.7708424925849841
 40
1.0
 40
1.0
 40
1.0
 10
971.88270000000011
 20
-1207.0
 30
0.0
 10
969.88270000000011
 20
-1206.0
 30
0.0
 10
964.38270000000011
 20
-1210.0
 30
0.0
 10
955.38270000000011
 20
-1204.5
 30
0.0
 10
946.88270000000011
 20
-1210.0
 30
0.0
 10
942.88270000000011
 20
-1206.0
 30
0.0
 10
939.88270000000011
 20
-1207.0
 30
0.0
  0
ENDBLK
  5
167
100
AcDbEntity
  8
OBJECT
100
AcDbBlockEnd
  0
BLOCK
  5
168
100
AcDbEntity
  8
OBJECT
100
AcDbBlockBegin
  2
*U19
 70
               1
 10
0.0
 20
0.0
 30
0.0
  3
*U19
  1

  0
LWPOLYLINE
  5
169
100
AcDbEntity
  8
OBJECT
 62
               0
100
AcDbPolyline
 90
        6
 70
             129
 10
972.88270000000011
 20
-1189.0
 10
938.88270000000011
 20
-1189.0
 10
938.88270000000011
 20
-1224.0
 42
0.414213562373095
 10
943.88270000000011
 20
-1229.0
 10
967.88270000000011
 20
-1229.0
 42
0.414213562373095
 10
972.88270000000011
 20
-1224.0
  0
INSERT
  5
16A
100
AcDbEntity
  8
OBJECT
 62
               0
100
AcDbBlockReference
  2
*U18
 10
0.0
 20
0.0
 30
0.0
  0
ENDBLK
  5
16B
100
AcDbEntity
  8
OBJECT
100
AcDbBlockEnd
  0
BLOCK
  5
16C
100
AcDbEntity
  8
OBJECT
100
AcDbBlockBegin
  2
*U20
 70
               1
 10
0.0
 20
0.0
 30
0.0
  3
*U20
  1

  0
LINE
  5
16D
100
AcDbEntity
  8
OBJECT
 62
               0
100
AcDbLine
 10
1486.8827000000003
 20
-1227.0
 30
0.0
 11
1486.8827000000003
 21
-1210.0
 31
0.0
  0
LINE
  5
16E
100
AcDbEntity
  8
OBJECT
 62
               0
100
AcDbLine
 10
1504.3827000000003
 20
-1227.0
 30
0.0
 11
1504.3827000000003
 21
-1210.0
 31
0.0
  0
SPLINE
  5
16F
100
AcDbEntity
  8
OBJECT
 62
               0
100
AcDbSpline
210
0.0
220
0.0
230
1.0
 70
               8
 71
               2
 72
              10
 73
               7
 74
               0
 42
0.000001
 43
0.000001
 40
0.0
 40
0.0
 40
0.0
 40
0.2391095954640664
 40
0.2391095954640664
 40
0.7708424925849841
 40
0.7708424925849841
 40
1.0
 40
1.0
 40
1.0
 10
1511.8827000000003
 20
-1207.0
 30
0.0
 10
1509.8827000000003
 20
-1206.0
 30
0.0
 10
1504.3827000000003
 20
-1210.0
 30
0.0
 10
1495.3827000000003
 20
-1204.5
 30
0.0
 10
1486.8827000000003
 20
-1210.0
 30
0.0
 10
1482.8827000000003
 20
-1206.0
 30
0.0
 10
1479.8827000000003
 20
-1207.0
 30
0.0
  0
ENDBLK
  5
170
100
AcDbEntity
  8
OBJECT
100
AcDbBlockEnd
  0
BLOCK
  5
171
100
AcDbEntity
  8
OBJECT
100
AcDbBlockBegin
  2
*U21
 70
               1
 10
0.0
 20
0.0
 30
0.0
  3
*U21
  1

  0
LWPOLYLINE
  5
172
100
AcDbEntity
  8
OBJECT
 62
               0
100
AcDbPolyline
 90
        6
 70
             129
 10
1512.8827000000003
 20
-1189.0
 10
1478.8827000000003
 20
-1189.0
 10
1478.8827000000003
 20
-1224.0
 42
0.4142135623731084
 10
1483.8827000000003
 20
-1229.0
 10
1507.8827000000003
 20
-1229.0
 42
0.414213562373095
 10
1512.8827000000003
 20
-1224.0
  0
INSERT
  5
173
100
AcDbEntity
  8
OBJECT
 62
               0
100
AcDbBlockReference
  2
*U20
 10
0.0
 20
0.0
 30
0.0
  0
ENDBLK
  5
174
100
AcDbEntity
  8
OBJECT
100
AcDbBlockEnd
  0
BLOCK
  5
175
100
AcDbEntity
  8
FRAME
100
AcDbBlockBegin
  2
*U22
 70
               1
 10
0.0
 20
0.0
 30
0.0
  3
*U22
  1

  0
ENDBLK
  5
176
100
AcDbEntity
  8
FRAME
100
AcDbBlockEnd
  0
BLOCK
  5
177
100
AcDbEntity
  8
FRAME
100
AcDbBlockBegin
  2
*U23
 70
               1
 10
0.0
 20
0.0
 30
0.0
  3
*U23
  1

  0
ENDBLK
  5
178
100
AcDbEntity
  8
FRAME
100
AcDbBlockEnd
  0
BLOCK
  5
179
100
AcDbEntity
  8
FRAME
100
AcDbBlockBegin
  2
*U24
 70
               1
 10
0.0
 20
0.0
 30
0.0
  3
*U24
  1

  0
ENDBLK
  5
17A
100
AcDbEntity
  8
FRAME
100
AcDbBlockEnd
  0
BLOCK
  5
17B
100
AcDbEntity
  8
FRAME
100
AcDbBlockBegin
  2
*U25
 70
               1
 10
0.0
 20
0.0
 30
0.0
  3
*U25
  1

  0
ENDBLK
  5
17C
100
AcDbEntity
  8
FRAME
100
AcDbBlockEnd
  0
BLOCK
  5
17D
100
AcDbEntity
  8
FRAME
100
AcDbBlockBegin
  2
*U26
 70
               1
 10
0.0
 20
0.0
 30
0.0
  3
*U26
  1

  0
ENDBLK
  5
17E
100
AcDbEntity
  8
FRAME
100
AcDbBlockEnd
  0
BLOCK
  5
17F
100
AcDbEntity
  8
FRAME
100
AcDbBlockBegin
  2
*U27
 70
               1
 10
0.0
 20
0.0
 30
0.0
  3
*U27
  1

  0
INSERT
  5
180
100
AcDbEntity
  8
FRAME
 62
               0
100
AcDbBlockReference
  2
*U22
 10
0.0
 20
0.0
 30
0.0
  0
INSERT
  5
181
100
AcDbEntity
  8
FRAME
 62
               0
100
AcDbBlockReference
  2
*U23
 10
0.0
 20
0.0
 30
0.0
  0
INSERT
  5
182
100
AcDbEntity
  8
FRAME
 62
               0
100
AcDbBlockReference
  2
*U24
 10
0.0
 20
0.0
 30
0.0
  0
INSERT
  5
183
100
AcDbEntity
  8
FRAME
 62
               0
100
AcDbBlockReference
  2
*U25
 10
0.0
 20
0.0
 30
0.0
  0
INSERT
  5
184
100
AcDbEntity
  8
FRAME
 62
               0
100
AcDbBlockReference
  2
*U26
 10
0.0
 20
0.0
 30
0.0
  0
LWPOLYLINE
  5
185
100
AcDbEntity
  8
FRAME
 62
               0
100
AcDbPolyline
 90
       12
 70
             129
 10
-1750.7947244513989
 20
-1321.3072089781044
 10
-1763.7553303353866
 20
-1321.3072089781044
 10
-1796.970072421454
 20
-1321.3072089781044
 10
-1809.755638404743
 20
-1321.3072089781044
 10
-1811.3091598649826
 20
-1321.3072089781044
 10
-1811.3091598649826
 20
-1378.91881468869
 10
-1796.970072421454
 20
-1378.91881468869
 10
-1796.970072421454
 20
-1376.0232783148867
 10
-1763.7553303353866
 20
-1376.0232783148867
 10
-1763.7553303353866
 20
-1378.91881468869
 10
-1749.4198948491471
 20
-1378.91881468869
 10
-1749.4198948491471
 20
-1321.3072089781044
  0
ENDBLK
  5
186
100
AcDbEntity
  8
FRAME
100
AcDbBlockEnd
  0
BLOCK
  5
187
100
AcDbEntity
  8
OBJECT
100
AcDbBlockBegin
  2
*U28
 70
               1
 10
0.0
 20
0.0
 30
0.0
  3
*U28
  1

  0
LINE
  5
188
100
AcDbEntity
  8
OBJECT
 62
               0
100
AcDbLine
 10
1049.5860000000002
 20
-1064.6495000000004
 30
0.0
 11
1051.5493000000001
 21
-1064.6977000000006
 31
0.0
  0
LINE
  5
189
100
AcDbEntity
  8
OBJECT
 62
               0
100
AcDbLine
 10
1047.6280000000002
 20
-1064.5050000000001
 30
0.0
 11
1049.5860000000002
 21
-1064.6495000000004
 31
0.0
  0
LINE
  5
18A
100
AcDbEntity
  8
OBJECT
 62
               0
100
AcDbLine
 10
1045.6789000000001
 20
-1064.2646000000004
 30
0.0
 11
1047.6280000000002
 21
-1064.5050000000001
 31
0.0
  0
LINE
  5
18B
100
AcDbEntity
  8
OBJECT
 62
               0
100
AcDbLine
 10
1043.7445000000002
 20
-1063.9288999999999
 30
0.0
 11
1045.6789000000001
 21
-1064.2646000000004
 31
0.0
  0
LINE
  5
18C
100
AcDbEntity
  8
OBJECT
 62
               0
100
AcDbLine
 10
1041.8283000000001
 20
-1063.4985000000006
 30
0.0
 11
1043.7445000000002
 21
-1063.9288999999999
 31
0.0
  0
LINE
  5
18D
100
AcDbEntity
  8
OBJECT
 62
               0
100
AcDbLine
 10
1039.9361000000001
 20
-1062.9748
 30
0.0
 11
1041.8283000000001
 21
-1063.4985000000006
 31
0.0
  0
LINE
  5
18E
100
AcDbEntity
  8
OBJECT
 62
               0
100
AcDbLine
 10
1038.0714
 20
-1062.3586000000005
 30
0.0
 11
1039.9361000000001
 21
-1062.9748
 31
0.0
  0
LINE
  5
18F
100
AcDbEntity
  8
OBJECT
 62
               0
100
AcDbLine
 10
1036.2397000000001
 20
-1061.6518999999998
 30
0.0
 11
1038.0714
 21
-1062.3586000000005
 31
0.0
  0
LINE
  5
190
100
AcDbEntity
  8
OBJECT
 62
               0
100
AcDbLine
 10
1034.4443000000001
 20
-1060.8559000000005
 30
0.0
 11
1036.2397000000001
 21
-1061.6518999999998
 31
0.0
  0
LINE
  5
191
100
AcDbEntity
  8
OBJECT
 62
               0
100
AcDbLine
 10
1032.6907000000001
 20
-1059.9731000000002
 30
0.0
 11
1034.4443000000001
 21
-1060.8559000000005
 31
0.0
  0
LINE
  5
192
100
AcDbEntity
  8
OBJECT
 62
               0
100
AcDbLine
 10
1030.9820000000002
 20
-1059.0048999999999
 30
0.0
 11
1032.6907000000001
 21
-1059.9731000000002
 31
0.0
  0
LINE
  5
193
100
AcDbEntity
  8
OBJECT
 62
               0
100
AcDbLine
 10
1029.3234
 20
-1057.9544000000005
 30
0.0
 11
1030.9820000000002
 21
-1059.0048999999999
 31
0.0
  0
LINE
  5
194
100
AcDbEntity
  8
OBJECT
 62
               0
100
AcDbLine
 10
1027.7178000000001
 20
-1056.8234000000002
 30
0.0
 11
1029.3234
 21
-1057.9544000000005
 31
0.0
  0
LINE
  5
195
100
AcDbEntity
  8
OBJECT
 62
               0
100
AcDbLine
 10
1026.1702000000002
 20
-1055.6154000000006
 30
0.0
 11
1027.7178000000001
 21
-1056.8234000000002
 31
0.0
  0
LINE
  5
196
100
AcDbEntity
  8
OBJECT
 62
               0
100
AcDbLine
 10
1024.6833000000001
 20
-1054.3324000000002
 30
0.0
 11
1026.1702000000002
 21
-1055.6154000000006
 31
0.0
  0
LINE
  5
197
100
AcDbEntity
  8
OBJECT
 62
               0
100
AcDbLine
 10
1023.2616
 20
-1052.9786000000004
 30
0.0
 11
1024.6833000000001
 21
-1054.3324000000002
 31
0.0
  0
LINE
  5
198
100
AcDbEntity
  8
OBJECT
 62
               0
100
AcDbLine
 10
1021.9076000000002
 20
-1051.5560000000005
 30
0.0
 11
1023.2616
 21
-1052.9786000000004
 31
0.0
  0
LINE
  5
199
100
AcDbEntity
  8
OBJECT
 62
               0
100
AcDbLine
 10
1020.6254000000001
 20
-1050.0691999999999
 30
0.0
 11
1021.9076000000002
 21
-1051.5560000000005
 31
0.0
  0
LINE
  5
19A
100
AcDbEntity
  8
OBJECT
 62
               0
100
AcDbLine
 10
1019.4174
 20
-1048.5208000000002
 30
0.0
 11
1020.6254000000001
 21
-1050.0691999999999
 31
0.0
  0
LINE
  5
19B
100
AcDbEntity
  8
OBJECT
 62
               0
100
AcDbLine
 10
1018.2872
 20
-1046.9155000000001
 30
0.0
 11
1019.4174
 21
-1048.5208000000002
 31
0.0
  0
LINE
  5
19C
100
AcDbEntity
  8
OBJECT
 62
               0
100
AcDbLine
 10
1017.2367000000002
 20
-1045.2561000000005
 30
0.0
 11
1018.2872
 21
-1046.9155000000001
 31
0.0
  0
LINE
  5
19D
100
AcDbEntity
  8
OBJECT
 62
               0
100
AcDbLine
 10
1016.2693000000002
 20
-1043.5477000000001
 30
0.0
 11
1017.2367000000002
 21
-1045.2561000000005
 31
0.0
  0
LINE
  5
19E
100
AcDbEntity
  8
OBJECT
 62
               0
100
AcDbLine
 10
1015.3866
 20
-1041.7933000000003
 30
0.0
 11
1016.2693000000002
 21
-1043.5477000000001
 31
0.0
  0
LINE
  5
19F
100
AcDbEntity
  8
OBJECT
 62
               0
100
AcDbLine
 10
1014.5913000000003
 20
-1039.9983000000002
 30
0.0
 11
1015.3866
 21
-1041.7933000000003
 31
0.0
  0
LINE
  5
1A0
100
AcDbEntity
  8
OBJECT
 62
               0
100
AcDbLine
 10
1013.8849000000002
 20
-1038.1659
 30
0.0
 11
1014.5913000000003
 21
-1039.9983000000002
 31
0.0
  0
LINE
  5
1A1
100
AcDbEntity
  8
OBJECT
 62
               0
100
AcDbLine
 10
1013.2694000000001
 20
-1036.3015000000005
 30
0.0
 11
1013.8849000000002
 21
-1038.1659
 31
0.0
  0
LINE
  5
1A2
100
AcDbEntity
  8
OBJECT
 62
               0
100
AcDbLine
 10
1012.7460000000001
 20
-1034.4086000000007
 30
0.0
 11
1013.2694000000001
 21
-1036.3015000000005
 31
0.0
  0
LINE
  5
1A3
100
AcDbEntity
  8
OBJECT
 62
               0
100
AcDbLine
 10
1012.3162
 20
-1032.4929000000002
 30
0.0
 11
1012.7460000000001
 21
-1034.4086000000007
 31
0.0
  0
LINE
  5
1A4
100
AcDbEntity
  8
OBJECT
 62
               0
100
AcDbLine
 10
1011.9809000000002
 20
-1030.5579000000007
 30
0.0
 11
1012.3162
 21
-1032.4929000000002
 31
0.0
  0
LINE
  5
1A5
100
AcDbEntity
  8
OBJECT
 62
               0
100
AcDbLine
 10
1011.7410000000002
 20
-1028.6093000000001
 30
0.0
 11
1011.9809000000002
 21
-1030.5579000000007
 31
0.0
  0
LINE
  5
1A6
100
AcDbEntity
  8
OBJECT
 62
               0
100
AcDbLine
 10
1011.597
 20
-1026.6505999999999
 30
0.0
 11
1011.7410000000002
 21
-1028.6093000000001
 31
0.0
  0
LINE
  5
1A7
100
AcDbEntity
  8
OBJECT
 62
               0
100
AcDbLine
 10
1011.5493000000001
 20
-1024.6977000000006
 30
0.0
 11
1011.597
 21
-1026.6505999999999
 31
0.0
  0
LINE
  5
1A8
100
AcDbEntity
  8
OBJECT
 62
               0
100
AcDbLine
 10
1011.5493000000001
 20
-1009.0
 30
0.0
 11
1011.5493000000001
 21
-1024.6977000000006
 31
0.0
  0
LINE
  5
1A9
100
AcDbEntity
  8
OBJECT
 62
               0
100
AcDbLine
 10
999.88270000000011
 20
-1009.0
 30
0.0
 11
1011.5493000000001
 21
-1009.0
 31
0.0
  0
ENDBLK
  5
1AA
100
AcDbEntity
  8
OBJECT
100
AcDbBlockEnd
  0
BLOCK
  5
1AB
100
AcDbEntity
  8
OBJECT
100
AcDbBlockBegin
  2
*U29
 70
               1
 10
0.0
 20
0.0
 30
0.0
  3
*U29
  1

  0
LINE
  5
1AC
100
AcDbEntity
  8
OBJECT
 62
               0
100
AcDbLine
 10
1047.4286000000002
 20
-1073.9396999999999
 30
0.0
 11
1049.8827000000001
 21
-1074.0
 31
0.0
  0
LINE
  5
1AD
100
AcDbEntity
  8
OBJECT
 62
               0
100
AcDbLine
 10
1044.9811000000002
 20
-1073.7592000000004
 30
0.0
 11
1047.4286000000002
 21
-1073.9396999999999
 31
0.0
  0
LINE
  5
1AE
100
AcDbEntity
  8
OBJECT
 62
               0
100
AcDbLine
 10
1042.5447000000001
 20
-1073.4585999999999
 30
0.0
 11
1044.9811000000002
 21
-1073.7592000000004
 31
0.0
  0
LINE
  5
1AF
100
AcDbEntity
  8
OBJECT
 62
               0
100
AcDbLine
 10
1040.1267
 20
-1073.0390000000007
 30
0.0
 11
1042.5447000000001
 21
-1073.4585999999999
 31
0.0
  0
LINE
  5
1B0
100
AcDbEntity
  8
OBJECT
 62
               0
100
AcDbLine
 10
1037.7315000000001
 20
-1072.5010000000002
 30
0.0
 11
1040.1267
 21
-1073.0390000000007
 31
0.0
  0
LINE
  5
1B1
100
AcDbEntity
  8
OBJECT
 62
               0
100
AcDbLine
 10
1035.3662000000002
 20
-1071.8463000000002
 30
0.0
 11
1037.7315000000001
 21
-1072.5010000000002
 31
0.0
  0
LINE
  5
1B2
100
AcDbEntity
  8
OBJECT
 62
               0
100
AcDbLine
 10
1033.0353000000002
 20
-1071.0762000000004
 30
0.0
 11
1035.3662000000002
 21
-1071.8463000000002
 31
0.0
  0
LINE
  5
1B3
100
AcDbEntity
  8
OBJECT
 62
               0
100
AcDbLine
 10
1030.7456
 20
-1070.1927999999998
 30
0.0
 11
1033.0353000000002
 21
-1071.0762000000004
 31
0.0
  0
LINE
  5
1B4
100
AcDbEntity
  8
OBJECT
 62
               0
100
AcDbLine
 10
1028.5014000000001
 20
-1069.1977999999999
 30
0.0
 11
1030.7456
 21
-1070.1927999999998
 31
0.0
  0
LINE
  5
1B5
100
AcDbEntity
  8
OBJECT
 62
               0
100
AcDbLine
 10
1026.3094000000001
 20
-1068.0942000000005
 30
0.0
 11
1028.5014000000001
 21
-1069.1977999999999
 31
0.0
  0
LINE
  5
1B6
100
AcDbEntity
  8
OBJECT
 62
               0
100
AcDbLine
 10
1024.1735000000001
 20
-1066.884
 30
0.0
 11
1026.3094000000001
 21
-1068.0942000000005
 31
0.0
  0
LINE
  5
1B7
100
AcDbEntity
  8
OBJECT
 62
               0
100
AcDbLine
 10
1022.1003000000003
 20
-1065.5709000000006
 30
0.0
 11
1024.1735000000001
 21
-1066.884
 31
0.0
  0
LINE
  5
1B8
100
AcDbEntity
  8
OBJECT
 62
               0
100
AcDbLine
 10
1020.0934
 20
-1064.1571000000004
 30
0.0
 11
1022.1003000000003
 21
-1065.5709000000006
 31
0.0
  0
LINE
  5
1B9
100
AcDbEntity
  8
OBJECT
 62
               0
100
AcDbLine
 10
1018.1589000000001
 20
-1062.6471000000001
 30
0.0
 11
1020.0934
 21
-1064.1571000000004
 31
0.0
  0
LINE
  5
1BA
100
AcDbEntity
  8
OBJECT
 62
               0
100
AcDbLine
 10
1016.3002000000001
 20
-1061.0434000000005
 30
0.0
 11
1018.1589000000001
 21
-1062.6471000000001
 31
0.0
  0
LINE
  5
1BB
100
AcDbEntity
  8
OBJECT
 62
               0
100
AcDbLine
 10
1014.5231000000001
 20
-1059.3510999999999
 30
0.0
 11
1016.3002000000001
 21
-1061.0434000000005
 31
0.0
  0
LINE
  5
1BC
100
AcDbEntity
  8
OBJECT
 62
               0
100
AcDbLine
 10
1012.8306
 20
-1057.5729000000001
 30
0.0
 11
1014.5231000000001
 21
-1059.3510999999999
 31
0.0
  0
LINE
  5
1BD
100
AcDbEntity
  8
OBJECT
 62
               0
100
AcDbLine
 10
1011.2279000000001
 20
-1055.7143999999998
 30
0.0
 11
1012.8306
 21
-1057.5729000000001
 31
0.0
  0
LINE
  5
1BE
100
AcDbEntity
  8
OBJECT
 62
               0
100
AcDbLine
 10
1009.7178000000001
 20
-1053.7789000000002
 30
0.0
 11
1011.2279000000001
 21
-1055.7143999999998
 31
0.0
  0
LINE
  5
1BF
100
AcDbEntity
  8
OBJECT
 62
               0
100
AcDbLine
 10
1008.3050000000001
 20
-1051.7722000000003
 30
0.0
 11
1009.7178000000001
 21
-1053.7789000000002
 31
0.0
  0
LINE
  5
1C0
100
AcDbEntity
  8
OBJECT
 62
               0
100
AcDbLine
 10
1006.9920000000002
 20
-1049.6980000000003
 30
0.0
 11
1008.3050000000001
 21
-1051.7722000000003
 31
0.0
  0
LINE
  5
1C1
100
AcDbEntity
  8
OBJECT
 62
               0
100
AcDbLine
 10
1005.7827
 20
-1047.5625
 30
0.0
 11
1006.9920000000002
 21
-1049.6980000000003
 31
0.0
  0
LINE
  5
1C2
100
AcDbEntity
  8
OBJECT
 62
               0
100
AcDbLine
 10
1004.6793
 20
-1045.3696
 30
0.0
 11
1005.7827
 21
-1047.5625
 31
0.0
  0
LINE
  5
1C3
100
AcDbEntity
  8
OBJECT
 62
               0
100
AcDbLine
 10
1003.6852000000001
 20
-1043.1257999999998
 30
0.0
 11
1004.6793
 21
-1045.3696
 31
0.0
  0
LINE
  5
1C4
100
AcDbEntity
  8
OBJECT
 62
               0
100
AcDbLine
 10
1002.8022000000001
 20
-1040.8352000000004
 30
0.0
 11
1003.6852000000001
 21
-1043.1257999999998
 31
0.0
  0
LINE
  5
1C5
100
AcDbEntity
  8
OBJECT
 62
               0
100
AcDbLine
 10
1002.0328000000002
 20
-1038.5048000000006
 30
0.0
 11
1002.8022000000001
 21
-1040.8352000000004
 31
0.0
  0
LINE
  5
1C6
100
AcDbEntity
  8
OBJECT
 62
               0
100
AcDbLine
 10
1001.3785
 20
-1036.1387000000004
 30
0.0
 11
1002.0328000000002
 21
-1038.5048000000006
 31
0.0
  0
LINE
  5
1C7
100
AcDbEntity
  8
OBJECT
 62
               0
100
AcDbLine
 10
1000.8414
 20
-1033.7440000000006
 30
0.0
 11
1001.3785
 21
-1036.1387000000004
 31
0.0
  0
LINE
  5
1C8
100
AcDbEntity
  8
OBJECT
 62
               0
100
AcDbLine
 10
1000.4222000000002
 20
-1031.3252000000002
 30
0.0
 11
1000.8414
 21
-1033.7440000000006
 31
0.0
  0
LINE
  5
1C9
100
AcDbEntity
  8
OBJECT
 62
               0
100
AcDbLine
 10
1000.1223000000002
 20
-1028.8895000000002
 30
0.0
 11
1000.4222000000002
 21
-1031.3252000000002
 31
0.0
  0
LINE
  5
1CA
100
AcDbEntity
  8
OBJECT
 62
               0
100
AcDbLine
 10
999.94230000000016
 20
-1026.4412000000002
 30
0.0
 11
1000.1223000000002
 21
-1028.8895000000002
 31
0.0
  0
LINE
  5
1CB
100
AcDbEntity
  8
OBJECT
 62
               0
100
AcDbLine
 10
999.88270000000011
 20
-1024.0
 30
0.0
 11
999.94230000000016
 21
-1026.4412000000002
 31
0.0
  0
LINE
  5
1CC
100
AcDbEntity
  8
OBJECT
 62
               0
100
AcDbLine
 10
999.88270000000011
 20
-1012.0
 30
0.0
 11
999.88270000000011
 21
-1024.0
 31
0.0
  0
ENDBLK
  5
1CD
100
AcDbEntity
  8
OBJECT
100
AcDbBlockEnd
  0
BLOCK
  5
1CE
100
AcDbEntity
  8
OBJECT
100
AcDbBlockBegin
  2
*U30
 70
               1
 10
0.0
 20
0.0
 30
0.0
  3
*U30
  1

  0
LINE
  5
1CF
100
AcDbEntity
  8
OBJECT
 62
               0
100
AcDbLine
 10
1049.8827000000001
 20
-1074.0
 30
0.0
 11
1474.3827000000003
 21
-1074.0
 31
0.0
  0
LINE
  5
1D0
100
AcDbEntity
  8
OBJECT
 62
               0
100
AcDbLine
 10
1051.5493000000001
 20
-1064.6977000000006
 30
0.0
 11
1474.3827000000003
 21
-1064.6977000000006
 31
0.0
  0
INSERT
  5
1D1
100
AcDbEntity
  8
OBJECT
 62
               0
100
AcDbBlockReference
  2
*U28
 10
0.0
 20
0.0
 30
0.0
  0
INSERT
  5
1D2
100
AcDbEntity
  8
OBJECT
 62
               0
100
AcDbBlockReference
  2
*U29
 10
0.0
 20
0.0
 30
0.0
  0
ENDBLK
  5
1D3
100
AcDbEntity
  8
OBJECT
100
AcDbBlockEnd
  0
BLOCK
  5
1D4
100
AcDbEntity
  8
OBJECT
100
AcDbBlockBegin
  2
*U31
 70
               1
 10
0.0
 20
0.0
 30
0.0
  3
*U31
  1

  0
LINE
  5
1D5
100
AcDbEntity
  8
OBJECT
 62
               0
100
AcDbLine
 10
1052.3826954874394
 20
-687.49999999999955
 30
0.0
 11
1052.3826954874394
 21
-682.49999999999955
 31
0.0
  0
LINE
  5
1D6
100
AcDbEntity
  8
OBJECT
 62
               0
100
AcDbLine
 10
1062.3826954874394
 20
-692.49999999999955
 30
0.0
 11
1057.3826954874394
 21
-692.49999999999955
 31
0.0
  0
LINE
  5
1D7
100
AcDbEntity
  8
OBJECT
 62
               0
100
AcDbLine
 10
1067.3826954874394
 20
-682.49999999999955
 30
0.0
 11
1067.3826954874394
 21
-687.49999999999955
 31
0.0
  0
LINE
  5
1D8
100
AcDbEntity
  8
OBJECT
 62
               0
100
AcDbLine
 10
1057.3826954874394
 20
-677.49999999999955
 30
0.0
 11
1062.3826954874394
 21
-677.49999999999955
 31
0.0
  0
ARC
  5
1D9
100
AcDbEntity
  8
OBJECT
 62
               0
100
AcDbCircle
 10
1057.3826954874394
 20
-682.49999999999955
 30
0.0
 40
5.0
100
AcDbArc
 50
90.0
 51
180.0
  0
ARC
  5
1DA
100
AcDbEntity
  8
OBJECT
 62
               0
100
AcDbCircle
 10
1057.3826954874394
 20
-687.49999999999955
 30
0.0
 40
5.0
100
AcDbArc
 50
180.0
 51
270.0
  0
ARC
  5
1DB
100
AcDbEntity
  8
OBJECT
 62
               0
100
AcDbCircle
 10
1062.3826954874394
 20
-687.49999999999955
 30
0.0
 40
5.0
100
AcDbArc
 50
270.0
 51
0.0
  0
ARC
  5
1DC
100
AcDbEntity
  8
OBJECT
 62
               0
100
AcDbCircle
 10
1062.3826954874394
 20
-682.49999999999955
 30
0.0
 40
5.0
100
AcDbArc
 50
0.0
 51
90.0
  0
POINT
  5
1DD
100
AcDbEntity
  8
OBJECT
  6
CONTINUOUS
 62
               0
100
AcDbPoint
 10
1059.8826954874394
 20
-684.99999999999955
 30
0.0
  0
ENDBLK
  5
1DE
100
AcDbEntity
  8
OBJECT
100
AcDbBlockEnd
  0
BLOCK
  5
1DF
100
AcDbEntity
  8
OBJECT
100
AcDbBlockBegin
  2
*U32
 70
               1
 10
0.0
 20
0.0
 30
0.0
  3
*U32
  1

  0
LWPOLYLINE
  5
1E0
100
AcDbEntity
  8
OBJECT
 62
               0
100
AcDbPolyline
 90
        7
 70
             128
 10
1001.4625415010319
 20
-662.56206633641887
 10
1005.845564232141
 20
-662.56206633641887
 10
1006.0405566366067
 20
-662.78806460025089
 10
1005.4238845447467
 20
-663.28484736922383
 10
1001.6733813447295
 20
-663.28484736922383
 10
1001.1859003335662
 20
-662.78806460025089
 10
1001.4625415010319
 20
-662.56206633641887
  0
LWPOLYLINE
  5
1E1
100
AcDbEntity
  8
OBJECT
 62
               0
100
AcDbPolyline
 90
        7
 70
             128
 10
1006.3168532945233
 20
-663.07400752552667
 10
1006.5276931382209
 20
-663.28484736922383
 10
1005.9592523831548
 20
-667.32181025883983
 10
1005.5051887981986
 20
-667.68354528479085
 10
1005.1641243451591
 20
-667.32181025883983
 10
1005.6994921835662
 20
-663.586637733732
 10
1006.3168532945233
 20
-663.07400752552667
  0
LWPOLYLINE
  5
1E2
100
AcDbEntity
  8
OBJECT
 62
               0
100
AcDbPolyline
 90
        7
 70
             128
 10
1000.8455248996238
 20
-663.07400752552667
 10
1001.316124942909
 20
-663.586637733732
 10
1000.7966045437329
 20
-667.32181025883983
 10
1000.3418519396805
 20
-667.68354528479085
 10
1000.000787486641
 20
-667.32181025883983
 10
1000.5695727512552
 20
-663.28484736922383
 10
1000.8455248996238
 20
-663.07400752552667
  0
LWPOLYLINE
  5
1E3
100
AcDbEntity
  8
OBJECT
 62
               0
100
AcDbPolyline
 90
        7
 70
             128
 10
1000.6178040880491
 20
-667.97017722916371
 10
1001.0563647433214
 20
-667.60844220321269
 10
1004.8065234337896
 20
-667.60844220321269
 10
1005.1475878868291
 20
-667.97017722916371
 10
1004.7100607602029
 20
-668.3312232360181
 10
1000.9588685410886
 20
-668.3312232360181
 10
1000.6178040880491
 20
-667.97017722916371
  0
LWPOLYLINE
  5
1E4
100
AcDbEntity
  8
OBJECT
 62
               0
100
AcDbPolyline
 90
        7
 70
             128
 10
1000.2608921957767
 20
-668.25543113534241
 10
1000.6019566488162
 20
-668.61716616129388
 10
1000.0820917400929
 20
-672.35302770549879
 10
999.44888318990388
 20
-672.86496889460705
 10
999.23769883665727
 20
-672.63897063077457
 10
999.82302055960145
 20
-668.61716616129388
 10
1000.2608921957767
 20
-668.25543113534241
  0
LWPOLYLINE
  5
1E5
100
AcDbEntity
  8
OBJECT
 62
               0
100
AcDbPolyline
 90
        7
 70
             128
 10
1005.4238845447467
 20
-668.25543113534241
 10
1005.7649489977862
 20
-668.61716616129388
 10
1005.1958192236229
 20
-672.63897063077457
 10
1004.9202115848034
 20
-672.86496889460705
 10
1004.4496115415182
 20
-672.35302770549879
 10
1004.9856683990224
 20
-668.61716616129388
 10
1005.4238845447467
 20
-668.25543113534241
  0
LWPOLYLINE
  5
1E6
100
AcDbEntity
  8
OBJECT
 62
               0
100
AcDbPolyline
 90
        7
 70
             128
 10
999.72483533827244
 20
-673.15160083897945
 10
1000.3418519396805
 20
-672.63897063077457
 10
1004.0921828849237
 20
-672.63897063077457
 10
1004.579147131763
 20
-673.15160083897945
 10
1004.3035394929434
 20
-673.36175166357998
 10
999.93636420106623
 20
-673.36175166357998
 10
999.72483533827244
 20
-673.15160083897945
  0
ENDBLK
  5
1E7
100
AcDbEntity
  8
OBJECT
100
AcDbBlockEnd
  0
BLOCK
  5
1E8
100
AcDbEntity
  8
OBJECT
100
AcDbBlockBegin
  2
*U33
 70
               1
 10
0.0
 20
0.0
 30
0.0
  3
*U33
  1

  0
LWPOLYLINE
  5
1E9
100
AcDbEntity
  8
OBJECT
 62
               0
100
AcDbPolyline
 90
        7
 70
             128
 10
1011.4625415010319
 20
-662.56206633641887
 10
1015.845564232141
 20
-662.56206633641887
 10
1016.0405566366067
 20
-662.78806460025089
 10
1015.4238845447467
 20
-663.28484736922383
 10
1011.6733813447295
 20
-663.28484736922383
 10
1011.1859003335662
 20
-662.78806460025089
 10
1011.4625415010319
 20
-662.56206633641887
  0
LWPOLYLINE
  5
1EA
100
AcDbEntity
  8
OBJECT
 62
               0
100
AcDbPolyline
 90
        7
 70
             128
 10
1016.3168532945233
 20
-663.07400752552667
 10
1016.5276931382209
 20
-663.28484736922383
 10
1015.9592523831548
 20
-667.32181025883983
 10
1015.5051887981986
 20
-667.68354528479085
 10
1015.1641243451591
 20
-667.32181025883983
 10
1015.6994921835662
 20
-663.586637733732
 10
1016.3168532945233
 20
-663.07400752552667
  0
LWPOLYLINE
  5
1EB
100
AcDbEntity
  8
OBJECT
 62
               0
100
AcDbPolyline
 90
        7
 70
             128
 10
1010.8455248996238
 20
-663.07400752552667
 10
1011.316124942909
 20
-663.586637733732
 10
1010.7966045437329
 20
-667.32181025883983
 10
1010.3418519396805
 20
-667.68354528479085
 10
1010.000787486641
 20
-667.32181025883983
 10
1010.5695727512552
 20
-663.28484736922383
 10
1010.8455248996238
 20
-663.07400752552667
  0
LWPOLYLINE
  5
1EC
100
AcDbEntity
  8
OBJECT
 62
               0
100
AcDbPolyline
 90
        7
 70
             128
 10
1010.6178040880491
 20
-667.97017722916371
 10
1011.0563647433214
 20
-667.60844220321269
 10
1014.8065234337896
 20
-667.60844220321269
 10
1015.1475878868291
 20
-667.97017722916371
 10
1014.7100607602029
 20
-668.3312232360181
 10
1010.9588685410886
 20
-668.3312232360181
 10
1010.6178040880491
 20
-667.97017722916371
  0
LWPOLYLINE
  5
1ED
100
AcDbEntity
  8
OBJECT
 62
               0
100
AcDbPolyline
 90
        7
 70
             128
 10
1010.2608921957767
 20
-668.25543113534241
 10
1010.6019566488162
 20
-668.61716616129388
 10
1010.0820917400929
 20
-672.35302770549879
 10
1009.4488831899039
 20
-672.86496889460705
 10
1009.2376988366573
 20
-672.63897063077457
 10
1009.8230205596014
 20
-668.61716616129388
 10
1010.2608921957767
 20
-668.25543113534241
  0
LWPOLYLINE
  5
1EE
100
AcDbEntity
  8
OBJECT
 62
               0
100
AcDbPolyline
 90
        7
 70
             128
 10
1015.4238845447467
 20
-668.25543113534241
 10
1015.7649489977862
 20
-668.61716616129388
 10
1015.1958192236229
 20
-672.63897063077457
 10
1014.9202115848034
 20
-672.86496889460705
 10
1014.4496115415182
 20
-672.35302770549879
 10
1014.9856683990224
 20
-668.61716616129388
 10
1015.4238845447467
 20
-668.25543113534241
  0
LWPOLYLINE
  5
1EF
100
AcDbEntity
  8
OBJECT
 62
               0
100
AcDbPolyline
 90
        7
 70
             128
 10
1009.7248353382724
 20
-673.15160083897945
 10
1010.3418519396805
 20
-672.63897063077457
 10
1014.0921828849237
 20
-672.63897063077457
 10
1014.579147131763
 20
-673.15160083897945
 10
1014.3035394929434
 20
-673.36175166357998
 10
1009.9363642010662
 20
-673.36175166357998
 10
1009.7248353382724
 20
-673.15160083897945
  0
ENDBLK
  5
1F0
100
AcDbEntity
  8
OBJECT
100
AcDbBlockEnd
  0
BLOCK
  5
1F1
100
AcDbEntity
  8
OBJECT
100
AcDbBlockBegin
  2
*U34
 70
               1
 10
0.0
 20
0.0
 30
0.0
  3
*U34
  1

  0
LWPOLYLINE
  5
1F2
100
AcDbEntity
  8
OBJECT
 62
               0
100
AcDbPolyline
 90
        5
 70
             128
 10
1018.8826959874391
 20
-674.46190899999965
 10
996.88269598743909
 20
-674.46190899999965
 10
996.88269598743909
 20
-661.46190899999965
 10
1018.8826959874391
 20
-661.46190899999965
 10
1018.8826959874391
 20
-674.46190899999965
  0
INSERT
  5
1F3
100
AcDbEntity
  8
OBJECT
 62
               0
100
AcDbBlockReference
  2
*U32
 10
0.0
 20
0.0
 30
0.0
  0
INSERT
  5
1F4
100
AcDbEntity
  8
OBJECT
 62
               0
100
AcDbBlockReference
  2
*U33
 10
0.0
 20
0.0
 30
0.0
  0
POINT
  5
1F5
100
AcDbEntity
  8
OBJECT
  6
CONTINUOUS
 62
               0
100
AcDbPoint
 10
1007.8826959874391
 20
-667.96190899999965
 30
0.0
  0
ENDBLK
  5
1F6
100
AcDbEntity
  8
OBJECT
100
AcDbBlockEnd
  0
BLOCK
  5
1F7
100
AcDbEntity
  8
OBJECT
100
AcDbBlockBegin
  2
*U35
 70
               1
 10
0.0
 20
0.0
 30
0.0
  3
*U35
  1

  0
LWPOLYLINE
  5
1F8
100
AcDbEntity
  8
OBJECT
 62
               0
100
AcDbPolyline
 90
        7
 70
             128
 10
1001.4625415010319
 20
-679.60015633641888
 10
1005.845564232141
 20
-679.60015633641888
 10
1006.0405566366067
 20
-679.8261546002509
 10
1005.4238845447467
 20
-680.32293736922384
 10
1001.6733813447295
 20
-680.32293736922384
 10
1001.1859003335662
 20
-679.8261546002509
 10
1001.4625415010319
 20
-679.60015633641888
  0
LWPOLYLINE
  5
1F9
100
AcDbEntity
  8
OBJECT
 62
               0
100
AcDbPolyline
 90
        7
 70
             128
 10
1006.3168532945233
 20
-680.11209752552668
 10
1006.5276931382209
 20
-680.32293736922384
 10
1005.9592523831548
 20
-684.35990025883984
 10
1005.5051887981986
 20
-684.72163528479086
 10
1005.1641243451591
 20
-684.35990025883984
 10
1005.6994921835662
 20
-680.62472773373202
 10
1006.3168532945233
 20
-680.11209752552668
  0
LWPOLYLINE
  5
1FA
100
AcDbEntity
  8
OBJECT
 62
               0
100
AcDbPolyline
 90
        7
 70
             128
 10
1000.8455248996238
 20
-680.11209752552668
 10
1001.316124942909
 20
-680.62472773373202
 10
1000.7966045437329
 20
-684.35990025883984
 10
1000.3418519396805
 20
-684.72163528479086
 10
1000.000787486641
 20
-684.35990025883984
 10
1000.5695727512552
 20
-680.32293736922384
 10
1000.8455248996238
 20
-680.11209752552668
  0
LWPOLYLINE
  5
1FB
100
AcDbEntity
  8
OBJECT
 62
               0
100
AcDbPolyline
 90
        7
 70
             128
 10
1000.6178040880491
 20
-685.00826722916372
 10
1001.0563647433214
 20
-684.6465322032127
 10
1004.8065234337896
 20
-684.6465322032127
 10
1005.1475878868291
 20
-685.00826722916372
 10
1004.7100607602029
 20
-685.36931323601812
 10
1000.9588685410886
 20
-685.36931323601812
 10
1000.6178040880491
 20
-685.00826722916372
  0
LWPOLYLINE
  5
1FC
100
AcDbEntity
  8
OBJECT
 62
               0
100
AcDbPolyline
 90
        7
 70
             128
 10
1000.2608921957767
 20
-685.29352113534242
 10
1000.6019566488162
 20
-685.65525616129389
 10
1000.0820917400929
 20
-689.3911177054988
 10
999.44888318990388
 20
-689.90305889460706
 10
999.23769883665727
 20
-689.67706063077458
 10
999.82302055960145
 20
-685.65525616129389
 10
1000.2608921957767
 20
-685.29352113534242
  0
LWPOLYLINE
  5
1FD
100
AcDbEntity
  8
OBJECT
 62
               0
100
AcDbPolyline
 90
        7
 70
             128
 10
1005.4238845447467
 20
-685.29352113534242
 10
1005.7649489977862
 20
-685.65525616129389
 10
1005.1958192236229
 20
-689.67706063077458
 10
1004.9202115848034
 20
-689.90305889460706
 10
1004.4496115415182
 20
-689.3911177054988
 10
1004.9856683990224
 20
-685.65525616129389
 10
1005.4238845447467
 20
-685.29352113534242
  0
LWPOLYLINE
  5
1FE
100
AcDbEntity
  8
OBJECT
 62
               0
100
AcDbPolyline
 90
        7
 70
             128
 10
999.72483533827244
 20
-690.18969083897946
 10
1000.3418519396805
 20
-689.67706063077458
 10
1004.0921828849237
 20
-689.67706063077458
 10
1004.579147131763
 20
-690.18969083897946
 10
1004.3035394929434
 20
-690.39984166357999
 10
999.93636420106623
 20
-690.39984166357999
 10
999.72483533827244
 20
-690.18969083897946
  0
ENDBLK
  5
1FF
100
AcDbEntity
  8
OBJECT
100
AcDbBlockEnd
  0
BLOCK
  5
200
100
AcDbEntity
  8
OBJECT
100
AcDbBlockBegin
  2
*U36
 70
               1
 10
0.0
 20
0.0
 30
0.0
  3
*U36
  1

  0
LWPOLYLINE
  5
201
100
AcDbEntity
  8
OBJECT
 62
               0
100
AcDbPolyline
 90
        7
 70
             128
 10
1011.4625415010319
 20
-679.60015633641888
 10
1015.845564232141
 20
-679.60015633641888
 10
1016.0405566366067
 20
-679.8261546002509
 10
1015.4238845447467
 20
-680.32293736922384
 10
1011.6733813447295
 20
-680.32293736922384
 10
1011.1859003335662
 20
-679.8261546002509
 10
1011.4625415010319
 20
-679.60015633641888
  0
LWPOLYLINE
  5
202
100
AcDbEntity
  8
OBJECT
 62
               0
100
AcDbPolyline
 90
        7
 70
             128
 10
1016.3168532945233
 20
-680.11209752552668
 10
1016.5276931382209
 20
-680.32293736922384
 10
1015.9592523831548
 20
-684.35990025883984
 10
1015.5051887981986
 20
-684.72163528479086
 10
1015.1641243451591
 20
-684.35990025883984
 10
1015.6994921835662
 20
-680.62472773373202
 10
1016.3168532945233
 20
-680.11209752552668
  0
LWPOLYLINE
  5
203
100
AcDbEntity
  8
OBJECT
 62
               0
100
AcDbPolyline
 90
        7
 70
             128
 10
1010.8455248996238
 20
-680.11209752552668
 10
1011.316124942909
 20
-680.62472773373202
 10
1010.7966045437329
 20
-684.35990025883984
 10
1010.3418519396805
 20
-684.72163528479086
 10
1010.000787486641
 20
-684.35990025883984
 10
1010.5695727512552
 20
-680.32293736922384
 10
1010.8455248996238
 20
-680.11209752552668
  0
LWPOLYLINE
  5
204
100
AcDbEntity
  8
OBJECT
 62
               0
100
AcDbPolyline
 90
        7
 70
             128
 10
1010.6178040880491
 20
-685.00826722916372
 10
1011.0563647433214
 20
-684.6465322032127
 10
1014.8065234337896
 20
-684.6465322032127
 10
1015.1475878868291
 20
-685.00826722916372
 10
1014.7100607602029
 20
-685.36931323601812
 10
1010.9588685410886
 20
-685.36931323601812
 10
1010.6178040880491
 20
-685.00826722916372
  0
LWPOLYLINE
  5
205
100
AcDbEntity
  8
OBJECT
 62
               0
100
AcDbPolyline
 90
        7
 70
             128
 10
1010.2608921957767
 20
-685.29352113534242
 10
1010.6019566488162
 20
-685.65525616129389
 10
1010.0820917400929
 20
-689.3911177054988
 10
1009.4488831899039
 20
-689.90305889460706
 10
1009.2376988366573
 20
-689.67706063077458
 10
1009.8230205596014
 20
-685.65525616129389
 10
1010.2608921957767
 20
-685.29352113534242
  0
LWPOLYLINE
  5
206
100
AcDbEntity
  8
OBJECT
 62
               0
100
AcDbPolyline
 90
        7
 70
             128
 10
1015.4238845447467
 20
-685.29352113534242
 10
1015.7649489977862
 20
-685.65525616129389
 10
1015.1958192236229
 20
-689.67706063077458
 10
1014.9202115848034
 20
-689.90305889460706
 10
1014.4496115415182
 20
-689.3911177054988
 10
1014.9856683990224
 20
-685.65525616129389
 10
1015.4238845447467
 20
-685.29352113534242
  0
LWPOLYLINE
  5
207
100
AcDbEntity
  8
OBJECT
 62
               0
100
AcDbPolyline
 90
        7
 70
             128
 10
1009.7248353382724
 20
-690.18969083897946
 10
1010.3418519396805
 20
-689.67706063077458
 10
1014.0921828849237
 20
-689.67706063077458
 10
1014.579147131763
 20
-690.18969083897946
 10
1014.3035394929434
 20
-690.39984166357999
 10
1009.9363642010662
 20
-690.39984166357999
 10
1009.7248353382724
 20
-690.18969083897946
  0
ENDBLK
  5
208
100
AcDbEntity
  8
OBJECT
100
AcDbBlockEnd
  0
BLOCK
  5
209
100
AcDbEntity
  8
OBJECT
100
AcDbBlockBegin
  2
*U37
 70
               1
 10
0.0
 20
0.0
 30
0.0
  3
*U37
  1

  0
LWPOLYLINE
  5
20A
100
AcDbEntity
  8
OBJECT
 62
               0
100
AcDbPolyline
 90
        5
 70
             128
 10
1018.8826959874391
 20
-691.49999899999966
 10
996.88269598743909
 20
-691.49999899999966
 10
996.88269598743909
 20
-678.49999899999966
 10
1018.8826959874391
 20
-678.49999899999966
 10
1018.8826959874391
 20
-691.49999899999966
  0
INSERT
  5
20B
100
AcDbEntity
  8
OBJECT
 62
               0
100
AcDbBlockReference
  2
*U35
 10
0.0
 20
0.0
 30
0.0
  0
INSERT
  5
20C
100
AcDbEntity
  8
OBJECT
 62
               0
100
AcDbBlockReference
  2
*U36
 10
0.0
 20
0.0
 30
0.0
  0
POINT
  5
20D
100
AcDbEntity
  8
OBJECT
  6
CONTINUOUS
 62
               0
100
AcDbPoint
 10
1007.8826959874391
 20
-684.99999899999966
 30
0.0
  0
ENDBLK
  5
20E
100
AcDbEntity
  8
OBJECT
100
AcDbBlockEnd
  0
BLOCK
  5
20F
100
AcDbEntity
  8
OBJECT
100
AcDbBlockBegin
  2
*U38
 70
               1
 10
0.0
 20
0.0
 30
0.0
  3
*U38
  1

  0
LINE
  5
210
100
AcDbEntity
  8
OBJECT
 62
               0
100
AcDbLine
 10
1029.3826954874394
 20
-687.49999999999955
 30
0.0
 11
1029.3826954874394
 21
-682.49999999999955
 31
0.0
  0
LINE
  5
211
100
AcDbEntity
  8
OBJECT
 62
               0
100
AcDbLine
 10
1039.3826954874394
 20
-692.49999999999955
 30
0.0
 11
1034.3826954874394
 21
-692.49999999999955
 31
0.0
  0
LINE
  5
212
100
AcDbEntity
  8
OBJECT
 62
               0
100
AcDbLine
 10
1044.3826954874394
 20
-682.49999999999955
 30
0.0
 11
1044.3826954874394
 21
-687.49999999999955
 31
0.0
  0
LINE
  5
213
100
AcDbEntity
  8
OBJECT
 62
               0
100
AcDbLine
 10
1034.3826954874394
 20
-677.49999999999955
 30
0.0
 11
1039.3826954874394
 21
-677.49999999999955
 31
0.0
  0
ARC
  5
214
100
AcDbEntity
  8
OBJECT
 62
               0
100
AcDbCircle
 10
1034.3826954874394
 20
-682.49999999999955
 30
0.0
 40
5.0
100
AcDbArc
 50
90.0
 51
180.0
  0
ARC
  5
215
100
AcDbEntity
  8
OBJECT
 62
               0
100
AcDbCircle
 10
1034.3826954874394
 20
-687.49999999999955
 30
0.0
 40
5.0
100
AcDbArc
 50
180.0
 51
270.0
  0
ARC
  5
216
100
AcDbEntity
  8
OBJECT
 62
               0
100
AcDbCircle
 10
1039.3826954874394
 20
-687.49999999999955
 30
0.0
 40
5.0
100
AcDbArc
 50
270.0
 51
0.0
  0
ARC
  5
217
100
AcDbEntity
  8
OBJECT
 62
               0
100
AcDbCircle
 10
1039.3826954874394
 20
-682.49999999999955
 30
0.0
 40
5.0
100
AcDbArc
 50
0.0
 51
90.0
  0
POINT
  5
218
100
AcDbEntity
  8
OBJECT
  6
CONTINUOUS
 62
               0
100
AcDbPoint
 10
1036.8826954874394
 20
-684.99999999999955
 30
0.0
  0
ENDBLK
  5
219
100
AcDbEntity
  8
OBJECT
100
AcDbBlockEnd
  0
BLOCK
  5
21A
100
AcDbEntity
  8
OBJECT
100
AcDbBlockBegin
  2
*U39
 70
               1
 10
0.0
 20
0.0
 30
0.0
  3
*U39
  1

  0
LINE
  5
21B
100
AcDbEntity
  8
OBJECT
 62
               0
100
AcDbLine
 10
1052.3826954874394
 20
-667.49999999999955
 30
0.0
 11
1052.3826954874394
 21
-662.49999999999955
 31
0.0
  0
LINE
  5
21C
100
AcDbEntity
  8
OBJECT
 62
               0
100
AcDbLine
 10
1062.3826954874394
 20
-672.49999999999955
 30
0.0
 11
1057.3826954874394
 21
-672.49999999999955
 31
0.0
  0
LINE
  5
21D
100
AcDbEntity
  8
OBJECT
 62
               0
100
AcDbLine
 10
1067.3826954874394
 20
-662.49999999999955
 30
0.0
 11
1067.3826954874394
 21
-667.49999999999955
 31
0.0
  0
LINE
  5
21E
100
AcDbEntity
  8
OBJECT
 62
               0
100
AcDbLine
 10
1057.3826954874394
 20
-657.49999999999955
 30
0.0
 11
1062.3826954874394
 21
-657.49999999999955
 31
0.0
  0
ARC
  5
21F
100
AcDbEntity
  8
OBJECT
 62
               0
100
AcDbCircle
 10
1057.3826954874394
 20
-662.49999999999955
 30
0.0
 40
5.0
100
AcDbArc
 50
90.0
 51
180.0
  0
ARC
  5
220
100
AcDbEntity
  8
OBJECT
 62
               0
100
AcDbCircle
 10
1057.3826954874394
 20
-667.49999999999955
 30
0.0
 40
5.0
100
AcDbArc
 50
180.0
 51
270.0
  0
ARC
  5
221
100
AcDbEntity
  8
OBJECT
 62
               0
100
AcDbCircle
 10
1062.3826954874394
 20
-667.49999999999955
 30
0.0
 40
5.0
100
AcDbArc
 50
270.0
 51
0.0
  0
ARC
  5
222
100
AcDbEntity
  8
OBJECT
 62
               0
100
AcDbCircle
 10
1062.3826954874394
 20
-662.49999999999955
 30
0.0
 40
5.0
100
AcDbArc
 50
0.0
 51
90.0
  0
POINT
  5
223
100
AcDbEntity
  8
OBJECT
  6
CONTINUOUS
 62
               0
100
AcDbPoint
 10
1059.8826954874394
 20
-664.99999999999955
 30
0.0
  0
ENDBLK
  5
224
100
AcDbEntity
  8
OBJECT
100
AcDbBlockEnd
  0
BLOCK
  5
225
100
AcDbEntity
  8
OBJECT
100
AcDbBlockBegin
  2
*U40
 70
               1
 10
0.0
 20
0.0
 30
0.0
  3
*U40
  1

  0
LINE
  5
226
100
AcDbEntity
  8
OBJECT
 62
               0
100
AcDbLine
 10
1052.3826954874394
 20
-639.49999999999955
 30
0.0
 11
1052.3826954874394
 21
-634.49999999999955
 31
0.0
  0
LINE
  5
227
100
AcDbEntity
  8
OBJECT
 62
               0
100
AcDbLine
 10
1062.3826954874394
 20
-644.49999999999955
 30
0.0
 11
1057.3826954874394
 21
-644.49999999999955
 31
0.0
  0
LINE
  5
228
100
AcDbEntity
  8
OBJECT
 62
               0
100
AcDbLine
 10
1067.3826954874394
 20
-634.49999999999955
 30
0.0
 11
1067.3826954874394
 21
-639.49999999999955
 31
0.0
  0
LINE
  5
229
100
AcDbEntity
  8
OBJECT
 62
               0
100
AcDbLine
 10
1057.3826954874394
 20
-629.49999999999955
 30
0.0
 11
1062.3826954874394
 21
-629.49999999999955
 31
0.0
  0
ARC
  5
22A
100
AcDbEntity
  8
OBJECT
 62
               0
100
AcDbCircle
 10
1057.3826954874394
 20
-634.49999999999955
 30
0.0
 40
5.0
100
AcDbArc
 50
90.0
 51
180.0
  0
ARC
  5
22B
100
AcDbEntity
  8
OBJECT
 62
               0
100
AcDbCircle
 10
1057.3826954874394
 20
-639.49999999999955
 30
0.0
 40
5.0
100
AcDbArc
 50
180.0
 51
270.0
  0
ARC
  5
22C
100
AcDbEntity
  8
OBJECT
 62
               0
100
AcDbCircle
 10
1062.3826954874394
 20
-639.49999999999955
 30
0.0
 40
5.0
100
AcDbArc
 50
270.0
 51
0.0
  0
ARC
  5
22D
100
AcDbEntity
  8
OBJECT
 62
               0
100
AcDbCircle
 10
1062.3826954874394
 20
-634.49999999999955
 30
0.0
 40
5.0
100
AcDbArc
 50
0.0
 51
90.0
  0
POINT
  5
22E
100
AcDbEntity
  8
OBJECT
  6
CONTINUOUS
 62
               0
100
AcDbPoint
 10
1059.8826954874394
 20
-636.99999999999955
 30
0.0
  0
ENDBLK
  5
22F
100
AcDbEntity
  8
OBJECT
100
AcDbBlockEnd
  0
BLOCK
  5
230
100
AcDbEntity
  8
OBJECT
100
AcDbBlockBegin
  2
*U41
 70
               1
 10
0.0
 20
0.0
 30
0.0
  3
*U41
  1

  0
LINE
  5
231
100
AcDbEntity
  8
OBJECT
 62
               0
100
AcDbLine
 10
994.88269998743908
 20
-695.49999999999955
 30
0.0
 11
994.88269998743908
 21
-620.49999999999955
 31
0.0
  0
LINE
  5
232
100
AcDbEntity
  8
OBJECT
 62
               0
100
AcDbLine
 10
1015.8826999874391
 20
-700.49999999999955
 30
0.0
 11
999.88269998743908
 21
-700.49999999999955
 31
0.0
  0
LINE
  5
233
100
AcDbEntity
  8
OBJECT
 62
               0
100
AcDbLine
 10
1020.8826999874391
 20
-620.49999999999955
 30
0.0
 11
1020.8826999874391
 21
-695.49999999999955
 31
0.0
  0
LINE
  5
234
100
AcDbEntity
  8
OBJECT
 62
               0
100
AcDbLine
 10
999.88269998743908
 20
-615.49999999999955
 30
0.0
 11
1015.8826999874391
 21
-615.49999999999955
 31
0.0
  0
ARC
  5
235
100
AcDbEntity
  8
OBJECT
 62
               0
100
AcDbCircle
 10
999.88269998743908
 20
-620.49999999999955
 30
0.0
 40
5.0
100
AcDbArc
 50
90.0
 51
180.0
  0
ARC
  5
236
100
AcDbEntity
  8
OBJECT
 62
               0
100
AcDbCircle
 10
1015.8826999874391
 20
-620.49999999999955
 30
0.0
 40
5.0
100
AcDbArc
 50
0.0
 51
90.0
  0
ARC
  5
237
100
AcDbEntity
  8
OBJECT
 62
               0
100
AcDbCircle
 10
1015.8826999874391
 20
-695.49999999999955
 30
0.0
 40
5.0
100
AcDbArc
 50
270.0
 51
0.0
  0
ARC
  5
238
100
AcDbEntity
  8
OBJECT
 62
               0
100
AcDbCircle
 10
999.88269998743908
 20
-695.49999999999955
 30
0.0
 40
5.0
100
AcDbArc
 50
180.0
 51
270.0
  0
ENDBLK
  5
239
100
AcDbEntity
  8
OBJECT
100
AcDbBlockEnd
  0
BLOCK
  5
23A
100
AcDbEntity
  8
OBJECT
100
AcDbBlockBegin
  2
*U42
 70
               1
 10
0.0
 20
0.0
 30
0.0
  3
*U42
  1

  0
LINE
  5
23B
100
AcDbEntity
  8
OBJECT
 62
               0
100
AcDbLine
 10
1022.8826999874391
 20
-695.49999999999955
 30
0.0
 11
1022.8826999874391
 21
-620.49999999999955
 31
0.0
  0
LINE
  5
23C
100
AcDbEntity
  8
OBJECT
 62
               0
100
AcDbLine
 10
1043.8826999874391
 20
-700.49999999999955
 30
0.0
 11
1027.8826999874391
 21
-700.49999999999955
 31
0.0
  0
LINE
  5
23D
100
AcDbEntity
  8
OBJECT
 62
               0
100
AcDbLine
 10
1048.8826999874391
 20
-620.49999999999955
 30
0.0
 11
1048.8826999874391
 21
-695.49999999999955
 31
0.0
  0
LINE
  5
23E
100
AcDbEntity
  8
OBJECT
 62
               0
100
AcDbLine
 10
1027.8826999874391
 20
-615.49999999999955
 30
0.0
 11
1043.8826999874391
 21
-615.49999999999955
 31
0.0
  0
ARC
  5
23F
100
AcDbEntity
  8
OBJECT
 62
               0
100
AcDbCircle
 10
1027.8826999874391
 20
-620.49999999999955
 30
0.0
 40
5.0
100
AcDbArc
 50
90.0
 51
180.0
  0
ARC
  5
240
100
AcDbEntity
  8
OBJECT
 62
               0
100
AcDbCircle
 10
1043.8826999874391
 20
-620.49999999999955
 30
0.0
 40
5.0
100
AcDbArc
 50
0.0
 51
90.0
  0
ARC
  5
241
100
AcDbEntity
  8
OBJECT
 62
               0
100
AcDbCircle
 10
1043.8826999874391
 20
-695.49999999999955
 30
0.0
 40
5.0
100
AcDbArc
 50
270.0
 51
0.0
  0
ARC
  5
242
100
AcDbEntity
  8
OBJECT
 62
               0
100
AcDbCircle
 10
1027.8826999874391
 20
-695.49999999999955
 30
0.0
 40
5.0
100
AcDbArc
 50
180.0
 51
270.0
  0
ENDBLK
  5
243
100
AcDbEntity
  8
OBJECT
100
AcDbBlockEnd
  0
BLOCK
  5
244
100
AcDbEntity
  8
OBJECT
100
AcDbBlockBegin
  2
*U43
 70
               1
 10
0.0
 20
0.0
 30
0.0
  3
*U43
  1

  0
INSERT
  5
245
100
AcDbEntity
  8
OBJECT
 62
               0
100
AcDbBlockReference
  2
*U31
 10
0.0
 20
0.0
 30
0.0
  0
POLYLINE
  5
246
100
AcDbEntity
  8
OBJECT
 62
               0
100
AcDb2dPolyline
 66
               1
 10
0.0
 20
0.0
 30
0.0
 70
               1
 75
               5
  0
VERTEX
  5
247
100
AcDbEntity
  8
OBJECT
 62
               0
100
AcDbVertex
100
AcDb2dVertex
 10
986.88269998743908
 20
-702.99999999999955
 30
0.0
  0
VERTEX
  5
248
100
AcDbEntity
  8
OBJECT
 62
               0
100
AcDbVertex
100
AcDb2dVertex
 10
1076.8826999874391
 20
-702.99999999999955
 30
0.0
  0
VERTEX
  5
249
100
AcDbEntity
  8
OBJECT
 62
               0
100
AcDbVertex
100
AcDb2dVertex
 10
1076.8826999874391
 20
-612.99999999999955
 30
0.0
  0
VERTEX
  5
24A
100
AcDbEntity
  8
OBJECT
 62
               0
100
AcDbVertex
100
AcDb2dVertex
 10
986.88269998743908
 20
-612.99999999999955
 30
0.0
  0
SEQEND
  5
24B
100
AcDbEntity
  8
OBJECT
 62
               0
  0
CIRCLE
  5
24C
100
AcDbEntity
  8
OBJECT
 62
               0
100
AcDbCircle
 10
1042.8826999874391
 20
-636.99999999999955
 30
0.0
 40
2.5
  0
CIRCLE
  5
24D
100
AcDbEntity
  8
OBJECT
 62
               0
100
AcDbCircle
 10
1042.8826999874391
 20
-650.99999999999955
 30
0.0
 40
2.5
  0
CIRCLE
  5
24E
100
AcDbEntity
  8
OBJECT
 62
               0
100
AcDbCircle
 10
1042.8826999874391
 20
-664.99999999999955
 30
0.0
 40
2.5
  0
CIRCLE
  5
24F
100
AcDbEntity
  8
OBJECT
 62
               0
100
AcDbCircle
 10
1059.8826999874391
 20
-622.99999999999955
 30
0.0
 40
2.4999999999999956
  0
CIRCLE
  5
250
100
AcDbEntity
  8
OBJECT
 62
               0
100
AcDbCircle
 10
1015.8826959874391
 20
-622.99999999999955
 30
0.0
 40
2.5000000000000946
  0
CIRCLE
  5
251
100
AcDbEntity
  8
OBJECT
 62
               0
100
AcDbCircle
 10
1015.8826959874391
 20
-636.99999999999955
 30
0.0
 40
2.5
  0
CIRCLE
  5
252
100
AcDbEntity
  8
OBJECT
 62
               0
100
AcDbCircle
 10
1059.8826959874391
 20
-650.99999999999955
 30
0.0
 40
2.5
  0
CIRCLE
  5
253
100
AcDbEntity
  8
OBJECT
 62
               0
100
AcDbCircle
 10
1015.8826959874391
 20
-650.99999999999955
 30
0.0
 40
2.5000019999997676
  0
CIRCLE
  5
254
100
AcDbEntity
  8
OBJECT
 62
               0
100
AcDbCircle
 10
1042.8826989874392
 20
-622.99999999999955
 30
0.0
 40
2.5000000000000488
  0
INSERT
  5
255
100
AcDbEntity
  8
OBJECT
 62
               0
100
AcDbBlockReference
  2
*U34
 10
0.0
 20
0.0
 30
0.0
  0
INSERT
  5
256
100
AcDbEntity
  8
OBJECT
 62
               0
100
AcDbBlockReference
  2
*U37
 10
0.0
 20
0.0
 30
0.0
  0
CIRCLE
  5
257
100
AcDbEntity
  8
OBJECT
 62
               0
100
AcDbCircle
 10
1015.8826959874391
 20
-622.99999999999955
 30
0.0
 40
4.0000000000000604
  0
CIRCLE
  5
258
100
AcDbEntity
  8
OBJECT
 62
               0
100
AcDbCircle
 10
1015.8826959874391
 20
-636.99999999999955
 30
0.0
 40
4.0000000000000604
  0
CIRCLE
  5
259
100
AcDbEntity
  8
OBJECT
 62
               0
100
AcDbCircle
 10
1015.8826959874391
 20
-650.99999999999955
 30
0.0
 40
4.0000000000000604
  0
CIRCLE
  5
25A
100
AcDbEntity
  8
OBJECT
 62
               0
100
AcDbCircle
 10
1042.8826989874392
 20
-622.99999999999955
 30
0.0
 40
4.0000000000000604
  0
CIRCLE
  5
25B
100
AcDbEntity
  8
OBJECT
 62
               0
100
AcDbCircle
 10
1059.8826999874391
 20
-622.99999999999955
 30
0.0
 40
4.0000000000000604
  0
CIRCLE
  5
25C
100
AcDbEntity
  8
OBJECT
 62
               0
100
AcDbCircle
 10
1059.8826959874391
 20
-650.99999999999955
 30
0.0
 40
4.0000000000000604
  0
CIRCLE
  5
25D
100
AcDbEntity
  8
OBJECT
 62
               0
100
AcDbCircle
 10
1042.8826999874391
 20
-636.99999999999955
 30
0.0
 40
4.0000000000000604
  0
CIRCLE
  5
25E
100
AcDbEntity
  8
OBJECT
 62
               0
100
AcDbCircle
 10
1042.8826999874391
 20
-650.99999999999955
 30
0.0
 40
4.0000000000000604
  0
CIRCLE
  5
25F
100
AcDbEntity
  8
OBJECT
 62
               0
100
AcDbCircle
 10
1042.8826999874391
 20
-664.99999999999955
 30
0.0
 40
4.0000000000000604
  0
INSERT
  5
260
100
AcDbEntity
  8
OBJECT
 62
               0
100
AcDbBlockReference
  2
*U38
 10
0.0
 20
0.0
 30
0.0
  0
INSERT
  5
261
100
AcDbEntity
  8
OBJECT
 62
               0
100
AcDbBlockReference
  2
*U39
 10
0.0
 20
0.0
 30
0.0
  0
INSERT
  5
262
100
AcDbEntity
  8
OBJECT
 62
               0
100
AcDbBlockReference
  2
*U40
 10
0.0
 20
0.0
 30
0.0
  0
INSERT
  5
263
100
AcDbEntity
  8
OBJECT
 62
               0
100
AcDbBlockReference
  2
*U41
 10
0.0
 20
0.0
 30
0.0
  0
INSERT
  5
264
100
AcDbEntity
  8
OBJECT
 62
               0
100
AcDbBlockReference
  2
*U42
 10
0.0
 20
0.0
 30
0.0
  0
ENDBLK
  5
265
100
AcDbEntity
  8
OBJECT
100
AcDbBlockEnd
  0
BLOCK
  5
266
100
AcDbEntity
  8
OBJECT
100
AcDbBlockBegin
  2
*U44
 70
               1
 10
0.0
 20
0.0
 30
0.0
  3
*U44
  1

  0
LINE
  5
267
100
AcDbEntity
  8
OBJECT
 62
               0
100
AcDbLine
 10
1174.8826999937196
 20
-1023.0000000000002
 30
0.0
 11
1196.8826999937196
 21
-1023.0000000000002
 31
0.0
  0
LINE
  5
268
100
AcDbEntity
  8
OBJECT
 62
               0
100
AcDbLine
 10
1180.8826999937196
 20
-1039.0000000000002
 30
0.0
 11
1179.8826999937196
 21
-1023.0000000000002
 31
0.0
  0
LINE
  5
269
100
AcDbEntity
  8
OBJECT
 62
               0
100
AcDbLine
 10
1190.8826999937196
 20
-1039.0000000000002
 30
0.0
 11
1191.8826999937196
 21
-1023.0000000000002
 31
0.0
  0
POLYLINE
  5
26A
100
AcDbEntity
  8
OBJECT
 62
               0
100
AcDb2dPolyline
 66
               1
 10
0.0
 20
0.0
 30
0.0
 75
               5
  0
VERTEX
  5
26B
100
AcDbEntity
  8
OBJECT
 62
               0
100
AcDbVertex
100
AcDb2dVertex
 10
1196.8826999937196
 20
-1009.0000000000002
 30
0.0
  0
VERTEX
  5
26C
100
AcDbEntity
  8
OBJECT
 62
               0
100
AcDbVertex
100
AcDb2dVertex
 10
1196.8826999937196
 20
-1023.0000000000002
 30
0.0
  0
VERTEX
  5
26D
100
AcDbEntity
  8
OBJECT
 62
               0
100
AcDbVertex
100
AcDb2dVertex
 10
1195.8826999937196
 20
-1039.0000000000002
 30
0.0
  0
VERTEX
  5
26E
100
AcDbEntity
  8
OBJECT
 62
               0
100
AcDbVertex
100
AcDb2dVertex
 10
1175.8826999937196
 20
-1039.0000000000002
 30
0.0
  0
VERTEX
  5
26F
100
AcDbEntity
  8
OBJECT
 62
               0
100
AcDbVertex
100
AcDb2dVertex
 10
1174.8826999937196
 20
-1023.0000000000002
 30
0.0
  0
VERTEX
  5
270
100
AcDbEntity
  8
OBJECT
 62
               0
100
AcDbVertex
100
AcDb2dVertex
 10
1174.8826999937196
 20
-1009.0000000000002
 30
0.0
  0
SEQEND
  5
271
100
AcDbEntity
  8
OBJECT
 62
               0
  0
ENDBLK
  5
272
100
AcDbEntity
  8
OBJECT
100
AcDbBlockEnd
  0
BLOCK
  5
273
100
AcDbEntity
  8
CENTER
100
AcDbBlockBegin
  2
*U45
 70
               1
 10
0.0
 20
0.0
 30
0.0
  3
*U45
  1

  0
LINE
  5
274
100
AcDbEntity
  8
CENTER
 62
               0
100
AcDbLine
 10
1115.8826999999999
 20
861.0
 30
0.0
 11
1195.8827000000001
 21
861.0
 31
0.0
  0
LINE
  5
275
100
AcDbEntity
  8
CENTER
 62
               0
100
AcDbLine
 10
1155.8827000000001
 20
901.0
 30
0.0
 11
1155.8827000000001
 21
821.0
 31
0.0
  0
ENDBLK
  5
276
100
AcDbEntity
  8
CENTER
100
AcDbBlockEnd
  0
BLOCK
  5
277
100
AcDbEntity
  8
OBJECT
100
AcDbBlockBegin
  2
*U46
 70
               1
 10
0.0
 20
0.0
 30
0.0
  3
*U46
  1

  0
LINE
  5
278
100
AcDbEntity
  8
OBJECT
 62
               0
100
AcDbLine
 10
-855.11729999999989
 20
-1008.9999999999999
 30
0.0
 11
-855.11729999999989
 21
-1189.0
 31
0.0
  0
LINE
  5
279
100
AcDbEntity
  8
OBJECT
 62
               0
100
AcDbLine
 10
-817.11729999999989
 20
-1008.9999999999999
 30
0.0
 11
-817.11729999999989
 21
-1189.0
 31
0.0
  0
ENDBLK
  5
27A
100
AcDbEntity
  8
OBJECT
100
AcDbBlockEnd
  0
BLOCK
  5
27B
100
AcDbEntity
  8
DIMENTION
100
AcDbBlockBegin
  2
*D47
 70
               1
 10
0.0
 20
0.0
 30
0.0
  3
*D47
  1

  0
LINE
  5
27C
100
AcDbEntity
  8
DIMENTION
 62
               0
100
AcDbLine
 10
914.9999999627471
 20
0.0
 30
0.0
 11
1184.9999999254942
 21
0.0
 31
0.0
  0
LINE
  5
27D
100
AcDbEntity
  8
DIMENTION
 62
               0
100
AcDbLine
 10
903.88269996274721
 20
-800.0
 30
0.0
 11
1184.9999999254942
 21
-800.0
 31
0.0
  0
LINE
  5
27E
100
AcDbEntity
  8
DIMENTION
 62
               0
100
AcDbLine
 10
1165.0
 20
0.0
 30
0.0
 11
1165.0
 21
-800.0
 31
0.0
  0
LINE
  5
27F
100
AcDbEntity
  8
DIMENTION
 62
               0
100
AcDbLine
 10
1165.0
 20
0.0
 30
0.0
 11
1173.507386859688
 21
-31.75
 31
0.0
  0
LINE
  5
280
100
AcDbEntity
  8
DIMENTION
 62
               0
100
AcDbLine
 10
1165.0
 20
0.0
 30
0.0
 11
1156.492613140312
 21
-31.75
 31
0.0
  0
LINE
  5
281
100
AcDbEntity
  8
DIMENTION
 62
               0
100
AcDbLine
 10
1165.0
 20
-800.0
 30
0.0
 11
1156.492613140312
 21
-768.25
 31
0.0
  0
LINE
  5
282
100
AcDbEntity
  8
DIMENTION
 62
               0
100
AcDbLine
 10
1165.0
 20
-800.0
 30
0.0
 11
1173.507386859688
 21
-768.25
 31
0.0
  0
MTEXT
  5
283
100
AcDbEntity
  8
DIMENTION
 62
               0
100
AcDbMText
 10
1121.6666666666667
 20
-532.71499623192688
 30
0.0
 40
33.866666666666667
 41
0.0
 71
               1
 72
               1
  1
800（基準高さ）
  7
________
 11
0.0
 21
1.0
 31
0.0
  0
POINT
  5
284
100
AcDbEntity
  8
DEFPOINTS
 62
               0
100
AcDbPoint
 10
893.88270000000011
 20
-800.0
 30
0.0
  0
POINT
  5
285
100
AcDbEntity
  8
DEFPOINTS
 62
               0
100
AcDbPoint
 10
905.0
 20
0.0
 30
0.0
  0
POINT
  5
286
100
AcDbEntity
  8
DEFPOINTS
 62
               0
100
AcDbPoint
 10
1165.0
 20
0.0
 30
0.0
  0
ENDBLK
  5
287
100
AcDbEntity
  8
DIMENTION
100
AcDbBlockEnd
  0
BLOCK
  5
288
100
AcDbEntity
  8
DIMENTION
100
AcDbBlockBegin
  2
*D48
 70
               1
 10
0.0
 20
0.0
 30
0.0
  3
*D48
  1

  0
LINE
  5
289
100
AcDbEntity
  8
DIMENTION
 62
               0
100
AcDbLine
 10
1108.9999999627471
 20
-800.0
 30
0.0
 11
1245.9999999254942
 21
-800.0
 31
0.0
  0
LINE
  5
28A
100
AcDbEntity
  8
DIMENTION
 62
               0
100
AcDbLine
 10
604.9999999627471
 20
565.0
 30
0.0
 11
1245.9999999254942
 21
565.0
 31
0.0
  0
LINE
  5
28B
100
AcDbEntity
  8
DIMENTION
 62
               0
100
AcDbLine
 10
1226.0
 20
-800.0
 30
0.0
 11
1226.0
 21
565.0
 31
0.0
  0
LINE
  5
28C
100
AcDbEntity
  8
DIMENTION
 62
               0
100
AcDbLine
 10
1226.0
 20
-800.0
 30
0.0
 11
1217.492613140312
 21
-768.25
 31
0.0
  0
LINE
  5
28D
100
AcDbEntity
  8
DIMENTION
 62
               0
100
AcDbLine
 10
1226.0
 20
-800.0
 30
0.0
 11
1234.507386859688
 21
-768.25
 31
0.0
  0
LINE
  5
28E
100
AcDbEntity
  8
DIMENTION
 62
               0
100
AcDbLine
 10
1226.0
 20
565.0
 30
0.0
 11
1234.507386859688
 21
533.25
 31
0.0
  0
LINE
  5
28F
100
AcDbEntity
  8
DIMENTION
 62
               0
100
AcDbLine
 10
1226.0
 20
565.0
 30
0.0
 11
1217.492613140312
 21
533.25
 31
0.0
  0
MTEXT
  5
290
100
AcDbEntity
  8
DIMENTION
 62
               0
100
AcDbMText
 10
1182.6666666666667
 20
-159.33345540364576
 30
0.0
 40
33.866666666666667
 41
0.0
 71
               1
 72
               1
  1
1365
  7
________
 11
0.0
 21
1.0
 31
0.0
  0
POINT
  5
291
100
AcDbEntity
  8
DEFPOINTS
 62
               0
100
AcDbPoint
 10
595.0
 20
565.0
 30
0.0
  0
POINT
  5
292
100
AcDbEntity
  8
DEFPOINTS
 62
               0
100
AcDbPoint
 10
1099.0
 20
-800.0
 30
0.0
  0
POINT
  5
293
100
AcDbEntity
  8
DEFPOINTS
 62
               0
100
AcDbPoint
 10
1226.0
 20
-800.0
 30
0.0
  0
ENDBLK
  5
294
100
AcDbEntity
  8
DIMENTION
100
AcDbBlockEnd
  0
BLOCK
  5
295
100
AcDbEntity
  8
OBJECT
100
AcDbBlockBegin
  2
*U49
 70
               1
 10
0.0
 20
0.0
 30
0.0
  3
*U49
  1

  0
LWPOLYLINE
  5
296
100
AcDbEntity
  8
OBJECT
 62
               0
100
AcDbPolyline
 90
        6
 70
             129
 10
-819.11729999999989
 20
-1189.0
 10
-853.11729999999989
 20
-1189.0
 10
-853.11729999999989
 20
-1224.0
 42
0.414213562373095
 10
-848.11729999999989
 20
-1229.0
 10
-824.11729999999989
 20
-1229.0
 42
0.414213562373095
 10
-819.11729999999989
 20
-1224.0
  0
LINE
  5
297
100
AcDbEntity
  8
OBJECT
 62
               0
100
AcDbLine
 10
-843.72256315789491
 20
-1227.0
 30
0.0
 11
-843.72256315789491
 21
-1210.0
 31
0.0
  0
LINE
  5
298
100
AcDbEntity
  8
OBJECT
 62
               0
100
AcDbLine
 10
-828.06466842105237
 20
-1227.0
 30
0.0
 11
-828.06466842105237
 21
-1210.0
 31
0.0
  0
SPLINE
  5
299
100
AcDbEntity
  8
OBJECT
 62
               0
100
AcDbSpline
210
0.0
220
0.0
230
1.0
 70
               8
 71
               2
 72
              10
 73
               7
 74
               0
 42
0.000001
 43
0.000001
 40
0.0
 40
0.0
 40
0.0
 40
0.2401007557892703
 40
0.2401007557892703
 40
0.7689566801389397
 40
0.7689566801389397
 40
1.0
 40
1.0
 40
1.0
 10
-821.35414210526324
 20
-1207.0
 30
0.0
 10
-823.14361578947319
 20
-1206.0
 30
0.0
 10
-828.06466842105237
 20
-1210.0
 30
0.0
 10
-836.11729999999989
 20
-1204.5
 30
0.0
 10
-843.72256315789491
 20
-1210.0
 30
0.0
 10
-847.30151052631572
 20
-1206.0
 30
0.0
 10
-849.98572105263156
 20
-1207.0
 30
0.0
  0
ENDBLK
  5
29A
100
AcDbEntity
  8
OBJECT
100
AcDbBlockEnd
  0
BLOCK
  5
29B
100
AcDbEntity
  8
OBJECT
100
AcDbBlockBegin
  2
*U50
 70
               1
 10
0.0
 20
0.0
 30
0.0
  3
*U50
  1

  0
LINE
  5
29C
100
AcDbEntity
  8
OBJECT
 62
               0
100
AcDbLine
 10
-375.11729999999989
 20
-1008.9999999999999
 30
0.0
 11
-375.11729999999989
 21
-1189.0
 31
0.0
  0
LINE
  5
29D
100
AcDbEntity
  8
OBJECT
 62
               0
100
AcDbLine
 10
-337.11729999999989
 20
-1008.9999999999999
 30
0.0
 11
-337.11729999999989
 21
-1189.0
 31
0.0
  0
ENDBLK
  5
29E
100
AcDbEntity
  8
OBJECT
100
AcDbBlockEnd
  0
BLOCK
  5
29F
100
AcDbEntity
  8
OBJECT
100
AcDbBlockBegin
  2
*U51
 70
               1
 10
0.0
 20
0.0
 30
0.0
  3
*U51
  1

  0
LWPOLYLINE
  5
2A0
100
AcDbEntity
  8
OBJECT
 62
               0
100
AcDbPolyline
 90
        6
 70
             129
 10
-339.11729999999989
 20
-1189.0
 10
-373.11729999999989
 20
-1189.0
 10
-373.11729999999989
 20
-1224.0
 42
0.414213562373095
 10
-368.11729999999989
 20
-1229.0
 10
-344.11729999999989
 20
-1229.0
 42
0.414213562373095
 10
-339.11729999999989
 20
-1224.0
  0
LINE
  5
2A1
100
AcDbEntity
  8
OBJECT
 62
               0
100
AcDbLine
 10
-363.72256315789491
 20
-1227.0
 30
0.0
 11
-363.72256315789491
 21
-1210.0
 31
0.0
  0
LINE
  5
2A2
100
AcDbEntity
  8
OBJECT
 62
               0
100
AcDbLine
 10
-348.06466842105237
 20
-1227.0
 30
0.0
 11
-348.06466842105237
 21
-1210.0
 31
0.0
  0
SPLINE
  5
2A3
100
AcDbEntity
  8
OBJECT
 62
               0
100
AcDbSpline
210
0.0
220
0.0
230
1.0
 70
               8
 71
               2
 72
              10
 73
               7
 74
               0
 42
0.000001
 43
0.000001
 40
0.0
 40
0.0
 40
0.0
 40
0.2401007557892701
 40
0.2401007557892701
 40
0.7689566801389398
 40
0.7689566801389398
 40
1.0
 40
1.0
 40
1.0
 10
-341.35414210526324
 20
-1207.0
 30
0.0
 10
-343.14361578947319
 20
-1206.0
 30
0.0
 10
-348.06466842105237
 20
-1210.0
 30
0.0
 10
-356.11729999999989
 20
-1204.5
 30
0.0
 10
-363.72256315789491
 20
-1210.0
 30
0.0
 10
-367.30151052631572
 20
-1206.0
 30
0.0
 10
-369.98572105263156
 20
-1207.0
 30
0.0
  0
ENDBLK
  5
2A4
100
AcDbEntity
  8
OBJECT
100
AcDbBlockEnd
  0
BLOCK
  5
2A5
100
AcDbEntity
  8
OBJECT
100
AcDbBlockBegin
  2
*U52
 70
               1
 10
0.0
 20
0.0
 30
0.0
  3
*U52
  1

  0
POLYLINE
  5
2A6
100
AcDbEntity
  8
OBJECT
 62
               0
100
AcDb2dPolyline
 66
               1
 10
0.0
 20
0.0
 30
0.0
 75
               5
  0
VERTEX
  5
2A7
100
AcDbEntity
  8
OBJECT
 62
               0
100
AcDbVertex
100
AcDb2dVertex
 10
-514.61729999999989
 20
-942.98999999020543
 30
0.0
  0
VERTEX
  5
2A8
100
AcDbEntity
  8
OBJECT
 62
               0
100
AcDbVertex
100
AcDb2dVertex
 10
-514.61729999999989
 20
-957.98999999020543
 30
0.0
  0
VERTEX
  5
2A9
100
AcDbEntity
  8
OBJECT
 62
               0
100
AcDbVertex
100
AcDb2dVertex
 10
-497.61729999999989
 20
-957.98999999020543
 30
0.0
  0
VERTEX
  5
2AA
100
AcDbEntity
  8
OBJECT
 62
               0
100
AcDbVertex
100
AcDb2dVertex
 10
-497.61729999999989
 20
-942.99000000979458
 30
0.0
  0
SEQEND
  5
2AB
100
AcDbEntity
  8
OBJECT
 62
               0
  0
LINE
  5
2AC
100
AcDbEntity
  8
OBJECT
 62
               0
100
AcDbLine
 10
-497.61729999999989
 20
-942.99000000979458
 30
0.0
 11
-514.61729999999989
 21
-942.98999999020543
 31
0.0
  0
ENDBLK
  5
2AD
100
AcDbEntity
  8
OBJECT
100
AcDbBlockEnd
  0
BLOCK
  5
2AE
100
AcDbEntity
  8
OBJECT
100
AcDbBlockBegin
  2
*U53
 70
               1
 10
0.0
 20
0.0
 30
0.0
  3
*U53
  1

  0
LINE
  5
2AF
100
AcDbEntity
  8
OBJECT
 62
               0
100
AcDbLine
 10
-890.11729999999989
 20
-573.99999999999955
 30
0.0
 11
-890.11729999999989
 21
-613.99999999999955
 31
0.0
  0
LINE
  5
2B0
100
AcDbEntity
  8
OBJECT
 62
               0
100
AcDbLine
 10
-948.61729999999989
 20
-678.99999999999955
 30
0.0
 11
-923.61729999999989
 21
-678.99999999999955
 31
0.0
  0
LINE
  5
2B1
100
AcDbEntity
  8
OBJECT
 62
               0
100
AcDbLine
 10
-890.11729999999989
 20
-573.99999999999955
 30
0.0
 11
-886.11729999999989
 21
-573.99999999999955
 31
0.0
  0
LINE
  5
2B2
100
AcDbEntity
  8
OBJECT
 62
               0
100
AcDbLine
 10
-923.61729999999989
 20
-638.99999999999955
 30
0.0
 11
-923.61729999999989
 21
-678.99999999999955
 31
0.0
  0
LINE
  5
2B3
100
AcDbEntity
  8
OBJECT
 62
               0
100
AcDbLine
 10
-890.11729999999989
 20
-613.99999999999955
 30
0.0
 11
-886.11729999999989
 21
-613.99999999999955
 31
0.0
  0
LINE
  5
2B4
100
AcDbEntity
  8
OBJECT
 62
               0
100
AcDbLine
 10
-891.11729999999989
 20
-581.49999999999955
 30
0.0
 11
-890.11729999999989
 21
-581.49999999999955
 31
0.0
  0
LINE
  5
2B5
100
AcDbEntity
  8
OBJECT
 62
               0
100
AcDbLine
 10
-891.11729999999989
 20
-606.49999999999955
 30
0.0
 11
-890.11729999999989
 21
-606.49999999999955
 31
0.0
  0
LINE
  5
2B6
100
AcDbEntity
  8
OBJECT
 62
               0
100
AcDbLine
 10
-948.61729999999989
 20
-638.99999999999955
 30
0.0
 11
-948.61729999999989
 21
-678.99999999999955
 31
0.0
  0
ARC
  5
2B7
100
AcDbEntity
  8
OBJECT
 62
               0
100
AcDbCircle
 10
-891.11729999999989
 20
-638.99999999999955
 30
0.0
 40
57.5
100
AcDbArc
 50
90.0
 51
180.0
  0
ARC
  5
2B8
100
AcDbEntity
  8
OBJECT
 62
               0
100
AcDbCircle
 10
-891.11729999999989
 20
-638.99999999999955
 30
0.0
 40
32.5
100
AcDbArc
 50
90.0
 51
180.0
  0
ENDBLK
  5
2B9
100
AcDbEntity
  8
OBJECT
100
AcDbBlockEnd
  0
BLOCK
  5
2BA
100
AcDbEntity
  8
DIMENTION
100
AcDbBlockBegin
  2
*D54
 70
               1
 10
0.0
 20
0.0
 30
0.0
  3
*D54
  1

  0
LINE
  5
2BB
100
AcDbEntity
  8
DIMENTION
 62
               0
100
AcDbLine
 10
879.9999999627471
 20
-800.0
 30
0.0
 11
1309.9999999254942
 21
-800.0
 31
0.0
  0
LINE
  5
2BC
100
AcDbEntity
  8
DIMENTION
 62
               0
100
AcDbLine
 10
604.9999999627471
 20
995.0
 30
0.0
 11
1309.9999999254942
 21
995.0
 31
0.0
  0
LINE
  5
2BD
100
AcDbEntity
  8
DIMENTION
 62
               0
100
AcDbLine
 10
1290.0
 20
-800.0
 30
0.0
 11
1290.0
 21
995.0
 31
0.0
  0
LINE
  5
2BE
100
AcDbEntity
  8
DIMENTION
 62
               0
100
AcDbLine
 10
1290.0
 20
-800.0
 30
0.0
 11
1281.4926131403117
 21
-768.25
 31
0.0
  0
LINE
  5
2BF
100
AcDbEntity
  8
DIMENTION
 62
               0
100
AcDbLine
 10
1290.0
 20
-800.0
 30
0.0
 11
1298.507386859688
 21
-768.25
 31
0.0
  0
LINE
  5
2C0
100
AcDbEntity
  8
DIMENTION
 62
               0
100
AcDbLine
 10
1290.0
 20
995.0
 30
0.0
 11
1298.507386859688
 21
963.25
 31
0.0
  0
LINE
  5
2C1
100
AcDbEntity
  8
DIMENTION
 62
               0
100
AcDbLine
 10
1290.0
 20
995.0
 30
0.0
 11
1281.492613140312
 21
963.25
 31
0.0
  0
MTEXT
  5
2C2
100
AcDbEntity
  8
DIMENTION
 62
               0
100
AcDbMText
 10
1246.666666670392
 20
-63.57833279503717
 30
0.0
 40
33.866666666666667
 41
0.0
 71
               1
 72
               1
  1
1795（ドア開放時）
  7
________
 11
0.0
 21
1.0
 31
0.0
  0
POINT
  5
2C3
100
AcDbEntity
  8
DEFPOINTS
 62
               0
100
AcDbPoint
 10
595.0
 20
995.0
 30
0.0
  0
POINT
  5
2C4
100
AcDbEntity
  8
DEFPOINTS
 62
               0
100
AcDbPoint
 10
870.0
 20
-800.0
 30
0.0
  0
POINT
  5
2C5
100
AcDbEntity
  8
DEFPOINTS
 62
               0
100
AcDbPoint
 10
1290.0
 20
-800.0
 30
0.0
  0
ENDBLK
  5
2C6
100
AcDbEntity
  8
DIMENTION
100
AcDbBlockEnd
  0
BLOCK
  5
2C7
100
AcDbEntity
  8
DIMENTION
100
AcDbBlockBegin
  2
*D55
 70
               1
 10
0.0
 20
0.0
 30
0.0
  3
*D55
  1

  0
LINE
  5
2C8
100
AcDbEntity
  8
DIMENTION
 62
               0
100
AcDbLine
 10
914.9999999627471
 20
-0.0000000000002274
 30
0.0
 11
1184.9999999254942
 21
-0.0000000000002274
 31
0.0
  0
LINE
  5
2C9
100
AcDbEntity
  8
DIMENTION
 62
               0
100
AcDbLine
 10
892.13494805963273
 20
409.99999999999955
 30
0.0
 11
1184.9999999254942
 21
409.99999999999955
 31
0.0
  0
LINE
  5
2CA
100
AcDbEntity
  8
DIMENTION
 62
               0
100
AcDbLine
 10
1165.0
 20
-0.0000000000002274
 30
0.0
 11
1165.0
 21
409.99999999999955
 31
0.0
  0
LINE
  5
2CB
100
AcDbEntity
  8
DIMENTION
 62
               0
100
AcDbLine
 10
1165.0
 20
-0.0000000000002274
 30
0.0
 11
1156.492613140312
 21
31.749999999999773
 31
0.0
  0
LINE
  5
2CC
100
AcDbEntity
  8
DIMENTION
 62
               0
100
AcDbLine
 10
1165.0
 20
-0.0000000000002274
 30
0.0
 11
1173.507386859688
 21
31.749999999999773
 31
0.0
  0
LINE
  5
2CD
100
AcDbEntity
  8
DIMENTION
 62
               0
100
AcDbLine
 10
1165.0
 20
409.99999999999955
 30
0.0
 11
1173.507386859688
 21
378.24999999999955
 31
0.0
  0
LINE
  5
2CE
100
AcDbEntity
  8
DIMENTION
 62
               0
100
AcDbLine
 10
1165.0
 20
409.99999999999955
 30
0.0
 11
1156.492613140312
 21
378.24999999999955
 31
0.0
  0
MTEXT
  5
2CF
100
AcDbEntity
  8
DIMENTION
 62
               0
100
AcDbMText
 10
1117.6666666666667
 20
109.74999999999966
 30
0.0
 40
33.866666666666667
 41
0.0
 71
               1
 72
               1
  1
410（開口）
  7
________
 11
0.0
 21
1.0
 31
0.0
  0
POINT
  5
2D0
100
AcDbEntity
  8
DEFPOINTS
 62
               0
100
AcDbPoint
 10
882.13494809688564
 20
409.99999999999955
 30
0.0
  0
POINT
  5
2D1
100
AcDbEntity
  8
DEFPOINTS
 62
               0
100
AcDbPoint
 10
905.0
 20
-0.0000000000002274
 30
0.0
  0
POINT
  5
2D2
100
AcDbEntity
  8
DEFPOINTS
 62
               0
100
AcDbPoint
 10
1165.0
 20
-0.0000000000002274
 30
0.0
  0
ENDBLK
  5
2D3
100
AcDbEntity
  8
DIMENTION
100
AcDbBlockEnd
  0
BLOCK
  5
2D4
100
AcDbEntity
  8
DIMENTION
100
AcDbBlockBegin
  2
*D56
 70
               1
 10
0.0
 20
0.0
 30
0.0
  3
*D56
  1

  0
LINE
  5
2D5
100
AcDbEntity
  8
DIMENTION
 62
               0
100
AcDbLine
 10
914.9999999627471
 20
0.0
 30
0.0
 11
1112.9999999254942
 21
0.0
 31
0.0
  0
LINE
  5
2D6
100
AcDbEntity
  8
DIMENTION
 62
               0
100
AcDbLine
 10
956.0317051883103
 20
175.26791798131035
 30
0.0
 11
1112.9999999254942
 21
175.26791798131035
 31
0.0
  0
LINE
  5
2D7
100
AcDbEntity
  8
DIMENTION
 62
               0
100
AcDbLine
 10
1093.0
 20
0.0
 30
0.0
 11
1093.0
 21
175.26791798131035
 31
0.0
  0
LINE
  5
2D8
100
AcDbEntity
  8
DIMENTION
 62
               0
100
AcDbLine
 10
1093.0
 20
0.0
 30
0.0
 11
1084.4926131403117
 21
31.75
 31
0.0
  0
LINE
  5
2D9
100
AcDbEntity
  8
DIMENTION
 62
               0
100
AcDbLine
 10
1093.0
 20
0.0
 30
0.0
 11
1101.507386859688
 21
31.75
 31
0.0
  0
LINE
  5
2DA
100
AcDbEntity
  8
DIMENTION
 62
               0
100
AcDbLine
 10
1093.0
 20
175.26791798131035
 30
0.0
 11
1101.507386859688
 21
143.51791798131035
 31
0.0
  0
LINE
  5
2DB
100
AcDbEntity
  8
DIMENTION
 62
               0
100
AcDbLine
 10
1093.0
 20
175.26791798131035
 30
0.0
 11
1084.4926131403117
 21
143.51791798131035
 31
0.0
  0
MTEXT
  5
2DC
100
AcDbEntity
  8
DIMENTION
 62
               0
100
AcDbMText
 10
1045.6666666666667
 20
55.883958990655174
 30
0.0
 40
33.866666666666667
 41
0.0
 71
               1
 72
               1
  1
175
  7
________
 11
0.0
 21
1.0
 31
0.0
  0
POINT
  5
2DD
100
AcDbEntity
  8
DEFPOINTS
 62
               0
100
AcDbPoint
 10
946.0317052255632
 20
175.26791798131035
 30
0.0
  0
POINT
  5
2DE
100
AcDbEntity
  8
DEFPOINTS
 62
               0
100
AcDbPoint
 10
905.0
 20
0.0
 30
0.0
  0
POINT
  5
2DF
100
AcDbEntity
  8
DEFPOINTS
 62
               0
100
AcDbPoint
 10
1093.0
 20
0.0
 30
0.0
  0
ENDBLK
  5
2E0
100
AcDbEntity
  8
DIMENTION
100
AcDbBlockEnd
  0
BLOCK
  5
2E1
100
AcDbEntity
  8
DIMENTION
100
AcDbBlockBegin
  2
*D57
 70
               1
 10
0.0
 20
0.0
 30
0.0
  3
*D57
  1

  0
LINE
  5
2E2
100
AcDbEntity
  8
DIMENTION
 62
               0
100
AcDbLine
 10
893.0
 20
-42.999999962747324
 30
0.0
 11
893.0
 21
-119.99999992549442
 31
0.0
  0
LINE
  5
2E3
100
AcDbEntity
  8
DIMENTION
 62
               0
100
AcDbLine
 10
1036.6999999999989
 20
510.0000000372529
 30
0.0
 11
1036.6999999999989
 21
-119.99999992549442
 31
0.0
  0
LINE
  5
2E4
100
AcDbEntity
  8
DIMENTION
 62
               0
100
AcDbLine
 10
893.0
 20
-100.00000000000023
 30
0.0
 11
1036.6999999999989
 21
-100.00000000000023
 31
0.0
  0
LINE
  5
2E5
100
AcDbEntity
  8
DIMENTION
 62
               0
100
AcDbLine
 10
893.0
 20
-100.00000000000023
 30
0.0
 11
924.75
 21
-91.492613140312073
 31
0.0
  0
LINE
  5
2E6
100
AcDbEntity
  8
DIMENTION
 62
               0
100
AcDbLine
 10
893.0
 20
-100.00000000000023
 30
0.0
 11
924.75
 21
-108.50738685968838
 31
0.0
  0
LINE
  5
2E7
100
AcDbEntity
  8
DIMENTION
 62
               0
100
AcDbLine
 10
1036.6999999999989
 20
-100.00000000000023
 30
0.0
 11
1004.9499999999989
 21
-108.50738685968838
 31
0.0
  0
LINE
  5
2E8
100
AcDbEntity
  8
DIMENTION
 62
               0
100
AcDbLine
 10
1036.6999999999989
 20
-100.00000000000023
 30
0.0
 11
1004.9499999999989
 21
-91.492613140312073
 31
0.0
  0
MTEXT
  5
2E9
100
AcDbEntity
  8
DIMENTION
 62
               0
100
AcDbMText
 10
933.09999999999945
 20
-56.666766666666888
 30
0.0
 40
33.866666666666667
 41
0.0
 71
               1
 72
               1
  1
145
  7
________
  0
POINT
  5
2EA
100
AcDbEntity
  8
DEFPOINTS
 62
               0
100
AcDbPoint
 10
1036.6999999999989
 20
520.0
 30
0.0
  0
POINT
  5
2EB
100
AcDbEntity
  8
DEFPOINTS
 62
               0
100
AcDbPoint
 10
893.0
 20
-33.000000000000227
 30
0.0
  0
POINT
  5
2EC
100
AcDbEntity
  8
DEFPOINTS
 62
               0
100
AcDbPoint
 10
893.0
 20
-100.00000000000023
 30
0.0
  0
ENDBLK
  5
2ED
100
AcDbEntity
  8
DIMENTION
100
AcDbBlockEnd
  0
BLOCK
  5
2EE
100
AcDbEntity
  8
OBJECT
100
AcDbBlockBegin
  2
*U58
 70
               1
 10
0.0
 20
0.0
 30
0.0
  3
*U58
  1

  0
LINE
  5
2EF
100
AcDbEntity
  8
OBJECT
 62
               0
100
AcDbLine
 10
-443.1252561154306
 20
-406.9877191790622
 30
0.0
 11
-435.47190057111584
 21
-171.72992774066574
 31
0.0
  0
LINE
  5
2F0
100
AcDbEntity
  8
OBJECT
 62
               0
100
AcDbLine
 10
-465.00933178871674
 20
-157.02309993417543
 30
0.0
 11
-473.10939395062724
 21
-406.01228169773844
 31
0.0
  0
ARC
  5
2F1
100
AcDbEntity
  8
OBJECT
 62
               0
100
AcDbCircle
 10
-449.79359185906469
 20
-150.63535757806198
 30
0.0
 40
15.000000000000036
100
AcDbArc
 50
29.973757936583699
 51
97.08837746025813
  0
ARC
  5
2F2
100
AcDbEntity
  8
OBJECT
 62
               0
100
AcDbCircle
 10
-458.11732503302846
 20
-406.50000043840032
 30
0.0
 40
15.000000000000801
100
AcDbArc
 50
178.13672323087457
 51
358.13672323087434
  0
CIRCLE
  5
2F3
100
AcDbEntity
  8
OBJECT
 62
               0
100
AcDbCircle
 10
-449.79359185906469
 20
-150.63535757806198
 30
0.0
 40
6.499999999999841
  0
LINE
  5
2F4
100
AcDbEntity
  8
OBJECT
  6
CONTINUOUS
 62
               0
100
AcDbLine
 10
-458.11643428062234
 20
-414.00483414868336
 30
0.0
 11
-451.61688996204975
 21
-410.25126824620452
 31
0.0
  0
LINE
  5
2F5
100
AcDbEntity
  8
OBJECT
  6
CONTINUOUS
 62
               0
100
AcDbLine
 10
-464.61688986623449
 20
-410.25284660701595
 30
0.0
 11
-458.11643428062234
 21
-414.00483414868336
 31
0.0
  0
LINE
  5
2F6
100
AcDbEntity
  8
OBJECT
  6
CONTINUOUS
 62
               0
100
AcDbLine
 10
-458.11825681470145
 20
-398.99372726039223
 30
0.0
 11
-464.61780113327222
 21
-402.74729316287062
 31
0.0
  0
LINE
  5
2F7
100
AcDbEntity
  8
OBJECT
  6
CONTINUOUS
 62
               0
100
AcDbLine
 10
-451.61780122908931
 20
-402.74571480205873
 30
0.0
 11
-458.11825681470145
 21
-398.99372726039223
 31
0.0
  0
LINE
  5
2F8
100
AcDbEntity
  8
OBJECT
  6
CONTINUOUS
 62
               0
100
AcDbLine
 10
-451.61688996204975
 20
-410.25126824620452
 30
0.0
 11
-451.61780122908931
 21
-402.74571480205873
 31
0.0
  0
LINE
  5
2F9
100
AcDbEntity
  8
OBJECT
  6
CONTINUOUS
 62
               0
100
AcDbLine
 10
-464.61780113327222
 20
-402.74729316287062
 30
0.0
 11
-464.61688986623449
 21
-410.25284660701595
 31
0.0
  0
ARC
  5
2FA
100
AcDbEntity
  8
OBJECT
  6
CONTINUOUS
 62
               0
100
AcDbCircle
 10
-458.11732512240815
 20
-406.49928041223734
 30
0.0
 40
22.500000000000099
100
AcDbArc
 50
268.38141067657267
 51
46.326328036623124
  0
ARC
  5
2FB
100
AcDbEntity
  8
OBJECT
  6
CONTINUOUS
 62
               0
100
AcDbCircle
 10
-458.11732512240815
 20
-406.49928041223734
 30
0.0
 40
22.500000000000171
100
AcDbArc
 50
130.19171943141438
 51
268.38140453563494
  0
POINT
  5
2FC
100
AcDbEntity
  8
OBJECT
  6
CONTINUOUS
 62
               0
100
AcDbPoint
 10
-458.11732503302846
 20
-406.50000043840032
 30
0.0
  0
LINE
  5
2FD
100
AcDbEntity
  8
OBJECT
  6
CONTINUOUS
 62
               0
100
AcDbLine
 10
-449.79270110665857
 20
-158.14019128834457
 30
0.0
 11
-443.29315678808598
 21
-154.38662538586573
 31
0.0
  0
LINE
  5
2FE
100
AcDbEntity
  8
OBJECT
  6
CONTINUOUS
 62
               0
100
AcDbLine
 10
-456.2931566922698
 20
-154.38820374667762
 30
0.0
 11
-449.79270110665857
 21
-158.14019128834457
 31
0.0
  0
LINE
  5
2FF
100
AcDbEntity
  8
OBJECT
  6
CONTINUOUS
 62
               0
100
AcDbLine
 10
-449.79452364073677
 20
-143.12908440005344
 30
0.0
 11
-456.29406795930845
 21
-146.88265030253206
 31
0.0
  0
LINE
  5
300
100
AcDbEntity
  8
OBJECT
  6
CONTINUOUS
 62
               0
100
AcDbLine
 10
-443.29406805512554
 20
-146.88107194172039
 30
0.0
 11
-449.79452364073677
 21
-143.12908440005344
 31
0.0
  0
LINE
  5
301
100
AcDbEntity
  8
OBJECT
  6
CONTINUOUS
 62
               0
100
AcDbLine
 10
-443.29315678808598
 20
-154.38662538586573
 30
0.0
 11
-443.29406805512554
 21
-146.88107194172039
 31
0.0
  0
LINE
  5
302
100
AcDbEntity
  8
OBJECT
  6
CONTINUOUS
 62
               0
100
AcDbLine
 10
-456.29406795930845
 20
-146.88265030253206
 30
0.0
 11
-456.2931566922698
 21
-154.38820374667762
 31
0.0
  0
CIRCLE
  5
303
100
AcDbEntity
  8
OBJECT
 62
               0
100
AcDbCircle
 10
-458.11732512240815
 20
-406.49928041223734
 30
0.0
 40
6.5000000000007425
  0
ENDBLK
  5
304
100
AcDbEntity
  8
OBJECT
100
AcDbBlockEnd
  0
BLOCK
  5
305
100
AcDbEntity
  8
OBJECT
100
AcDbBlockBegin
  2
*U59
 70
               1
 10
0.0
 20
0.0
 30
0.0
  3
*U59
  1

  0
CIRCLE
  5
306
100
AcDbEntity
  8
OBJECT
 62
               0
100
AcDbCircle
 10
-891.79590805074986
 20
18.339574971749698
 30
0.0
 40
4.0999999999988042
  0
POINT
  5
307
100
AcDbEntity
  8
OBJECT
  6
CONTINUOUS
 62
               0
100
AcDbPoint
 10
-891.79590805074986
 20
18.339574971749698
 30
0.0
  0
POINT
  5
308
100
AcDbEntity
  8
OBJECT
  6
CONTINUOUS
 62
               0
100
AcDbPoint
 10
-891.79594513584198
 20
18.338405502241585
 30
0.0
  0
POINT
  5
309
100
AcDbEntity
  8
OBJECT
  6
CONTINUOUS
 62
               0
100
AcDbPoint
 10
-449.75707970430904
 20
-150.65354392398126
 30
0.0
  0
LINE
  5
30A
100
AcDbEntity
  8
OBJECT
 62
               0
100
AcDbLine
 10
-883.73643917464324
 20
9.8516446330252165
 30
0.0
 11
-867.00395061034942
 21
43.411648006772566
 31
0.0
  0
ARC
  5
30B
100
AcDbEntity
  8
OBJECT
 62
               0
100
AcDbCircle
 10
-892.68577341696891
 20
14.313641678849763
 30
0.0
 40
10.000000050888174
100
AcDbArc
 50
216.8125306078166
 51
333.4998790488354
  0
LINE
  5
30C
100
AcDbEntity
  8
OBJECT
 62
               0
100
AcDbLine
 10
-940.38849132093674
 20
80.000023000693318
 30
0.0
 11
-945.96598750903468
 21
68.813355209444808
 31
0.0
  0
LINE
  5
30D
100
AcDbEntity
  8
OBJECT
 62
               0
100
AcDbLine
 10
-942.65750029423907
 20
109.06635400890741
 30
0.0
 11
-953.81249267043495
 21
86.693018426410617
 31
0.0
  0
ARC
  5
30E
100
AcDbEntity
  8
OBJECT
 62
               0
100
AcDbCircle
 10
-268.08559477443669
 20
-241.23208201868965
 30
0.0
 40
12.500000000000163
100
AcDbArc
 50
243.49988567053671
 51
63.499879513886761
  0
LINE
  5
30F
100
AcDbEntity
  8
OBJECT
 62
               0
100
AcDbLine
 10
-273.66309096253462
 20
-252.41874980993839
 30
0.0
 11
-953.81249267043495
 21
86.693018426410617
 31
0.0
  0
LINE
  5
310
100
AcDbEntity
  8
OBJECT
 62
               0
100
AcDbLine
 10
-942.65750029423907
 20
109.06635400890741
 30
0.0
 11
-262.50809858633875
 21
-230.04541422744092
 31
0.0
  0
LINE
  5
311
100
AcDbEntity
  8
OBJECT
 62
               0
100
AcDbLine
 10
-900.69177690892502
 20
8.3216546040514459
 30
0.0
 11
-945.96598750903468
 21
68.813355209444808
 31
0.0
  0
ENDBLK
  5
312
100
AcDbEntity
  8
OBJECT
100
AcDbBlockEnd
  0
BLOCK
  5
313
100
AcDbEntity
  8
OUTLINE
100
AcDbBlockBegin
  2
*U60
 70
               1
 10
0.0
 20
0.0
 30
0.0
  3
*U60
  1

  0
CIRCLE
  5
314
100
AcDbEntity
  8
OUTLINE
 62
               0
100
AcDbCircle
 10
-852.49788634091055
 20
72.398062976702931
 30
0.0
 40
4.0999999999992882
  0
POINT
  5
315
100
AcDbEntity
  8
OUTLINE
  6
CONTINUOUS
 62
               0
100
AcDbPoint
 10
-852.49788634091055
 20
72.398062976702931
 30
0.0
  0
POINT
  5
316
100
AcDbEntity
  8
OUTLINE
  6
CONTINUOUS
 62
               0
100
AcDbPoint
 10
-852.49706220314056
 20
72.397232415946746
 30
0.0
  0
POINT
  5
317
100
AcDbEntity
  8
OUTLINE
  6
CONTINUOUS
 62
               0
100
AcDbPoint
 10
-425.97057211198717
 20
277.41379460884195
 30
0.0
  0
LINE
  5
318
100
AcDbEntity
  8
OUTLINE
 62
               0
100
AcDbLine
 10
-840.7932082651987
 20
72.420671468326645
 30
0.0
 11
-853.67662223711159
 21
107.63810528211411
 31
0.0
  0
ARC
  5
319
100
AcDbEntity
  8
OUTLINE
 62
               0
100
AcDbCircle
 10
-850.18452402455205
 20
68.985094467893077
 30
0.0
 40
10.000000050888303
100
AcDbArc
 50
263.4064287109116
 51
20.093777151927782
  0
LINE
  5
31A
100
AcDbEntity
  8
OUTLINE
 62
               0
100
AcDbLine
 10
-930.68541084325261
 20
79.466373396864583
 30
0.0
 11
-926.39093951928135
 21
67.727228792270125
 31
0.0
  0
LINE
  5
31B
100
AcDbEntity
  8
OUTLINE
 62
               0
100
AcDbLine
 10
-953.36132701670886
 20
97.791297017289253
 30
0.0
 11
-944.77238436876723
 21
74.313007808099883
 31
0.0
  0
ARC
  5
31C
100
AcDbEntity
  8
OUTLINE
 62
               0
100
AcDbCircle
 10
-235.32686373336583
 20
347.15600891013128
 30
0.0
 40
12.500000000000163
100
AcDbArc
 50
290.09378377363078
 51
110.09377761698263
  0
LINE
  5
31D
100
AcDbEntity
  8
OUTLINE
 62
               0
100
AcDbLine
 10
-231.03239240939547
 20
335.41686430553591
 30
0.0
 11
-944.77238436876723
 21
74.313007808099883
 31
0.0
  0
LINE
  5
31E
100
AcDbEntity
  8
OUTLINE
 62
               0
100
AcDbLine
 10
-953.36132701670886
 20
97.791297017289253
 30
0.0
 11
-239.62133505733709
 21
358.89515351472619
 31
0.0
  0
LINE
  5
31F
100
AcDbEntity
  8
OUTLINE
 62
               0
100
AcDbLine
 10
-851.33278094227171
 20
59.051237861887785
 30
0.0
 11
-926.39093951928135
 21
67.727228792270125
 31
0.0
  0
ENDBLK
  5
320
100
AcDbEntity
  8
OUTLINE
100
AcDbBlockEnd
  0
BLOCK
  5
321
100
AcDbEntity
  8
DIMENTION
100
AcDbBlockBegin
  2
*D61
 70
               1
 10
0.0
 20
0.0
 30
0.0
  3
*D61
  1

  0
LINE
  5
322
100
AcDbEntity
  8
DIMENTION
 62
               0
100
AcDbLine
 10
2041.5000000372538
 20
-528.99999999999977
 30
0.0
 11
1943.4232046001353
 21
-528.99999999999977
 31
0.0
  0
LINE
  5
323
100
AcDbEntity
  8
DIMENTION
 62
               0
100
AcDbLine
 10
2041.5000000372538
 20
-800.00000000000023
 30
0.0
 11
1943.4232046001353
 21
-800.00000000000023
 31
0.0
  0
LINE
  5
324
100
AcDbEntity
  8
DIMENTION
 62
               0
100
AcDbLine
 10
1963.4232045256294
 20
-528.99999999999977
 30
0.0
 11
1963.4232045256294
 21
-800.00000000000023
 31
0.0
  0
LINE
  5
325
100
AcDbEntity
  8
DIMENTION
 62
               0
100
AcDbLine
 10
1963.4232045256294
 20
-528.99999999999977
 30
0.0
 11
1971.9305913853177
 21
-560.74999999999977
 31
0.0
  0
LINE
  5
326
100
AcDbEntity
  8
DIMENTION
 62
               0
100
AcDbLine
 10
1963.4232045256294
 20
-528.99999999999977
 30
0.0
 11
1954.9158176659412
 21
-560.74999999999977
 31
0.0
  0
LINE
  5
327
100
AcDbEntity
  8
DIMENTION
 62
               0
100
AcDbLine
 10
1963.4232045256294
 20
-800.00000000000023
 30
0.0
 11
1954.9158176659412
 21
-768.25000000000023
 31
0.0
  0
LINE
  5
328
100
AcDbEntity
  8
DIMENTION
 62
               0
100
AcDbLine
 10
1963.4232045256294
 20
-800.00000000000023
 30
0.0
 11
1971.9305913853177
 21
-768.25000000000023
 31
0.0
  0
MTEXT
  5
329
100
AcDbEntity
  8
DIMENTION
 62
               0
100
AcDbMText
 10
1920.0898711960215
 20
-696.25
 30
0.0
 40
33.866666666666667
 41
0.0
 71
               1
 72
               1
  1
270
  7
________
 11
0.0
 21
1.0
 31
0.0
  0
POINT
  5
32A
100
AcDbEntity
  8
DEFPOINTS
 62
               0
100
AcDbPoint
 10
2051.5000000000009
 20
-800.00000000000023
 30
0.0
  0
POINT
  5
32B
100
AcDbEntity
  8
DEFPOINTS
 62
               0
100
AcDbPoint
 10
2051.5000000000009
 20
-528.99999999999977
 30
0.0
  0
POINT
  5
32C
100
AcDbEntity
  8
DEFPOINTS
 62
               0
100
AcDbPoint
 10
1963.4232045256294
 20
-528.99999999999977
 30
0.0
  0
ENDBLK
  5
32D
100
AcDbEntity
  8
DIMENTION
100
AcDbBlockEnd
  0
BLOCK
  5
32E
100
AcDbEntity
  8
DIMENTION
100
AcDbBlockBegin
  2
*D62
 70
               1
 10
0.0
 20
0.0
 30
0.0
  3
*D62
  1

  0
LINE
  5
32F
100
AcDbEntity
  8
DIMENTION
 62
               0
100
AcDbLine
 10
1989.4983867485103
 20
-514.99999986990156
 30
0.0
 11
1885.4232046001353
 21
-514.99999986990156
 31
0.0
  0
LINE
  5
330
100
AcDbEntity
  8
DIMENTION
 62
               0
100
AcDbLine
 10
1989.4983867485103
 20
-800.00000000000023
 30
0.0
 11
1885.4232046001353
 21
-800.00000000000023
 31
0.0
  0
LINE
  5
331
100
AcDbEntity
  8
DIMENTION
 62
               0
100
AcDbLine
 10
1905.4232045256294
 20
-514.99999986990156
 30
0.0
 11
1905.4232045256294
 21
-800.00000000000023
 31
0.0
  0
LINE
  5
332
100
AcDbEntity
  8
DIMENTION
 62
               0
100
AcDbLine
 10
1905.4232045256294
 20
-514.99999986990156
 30
0.0
 11
1913.9305913853177
 21
-546.74999986990156
 31
0.0
  0
LINE
  5
333
100
AcDbEntity
  8
DIMENTION
 62
               0
100
AcDbLine
 10
1905.4232045256294
 20
-514.99999986990156
 30
0.0
 11
1896.9158176659412
 21
-546.74999986990156
 31
0.0
  0
LINE
  5
334
100
AcDbEntity
  8
DIMENTION
 62
               0
100
AcDbLine
 10
1905.4232045256294
 20
-800.00000000000023
 30
0.0
 11
1896.9158176659412
 21
-768.25000000000023
 31
0.0
  0
LINE
  5
335
100
AcDbEntity
  8
DIMENTION
 62
               0
100
AcDbLine
 10
1905.4232045256294
 20
-800.00000000000023
 30
0.0
 11
1913.9305913853177
 21
-768.25000000000023
 31
0.0
  0
MTEXT
  5
336
100
AcDbEntity
  8
DIMENTION
 62
               0
100
AcDbMText
 10
1862.0898711960215
 20
-689.24999993495089
 30
0.0
 40
33.866666666666667
 41
0.0
 71
               1
 72
               1
  1
285
  7
________
 11
0.0
 21
1.0
 31
0.0
  0
POINT
  5
337
100
AcDbEntity
  8
DEFPOINTS
 62
               0
100
AcDbPoint
 10
1999.4983867112574
 20
-800.00000000000023
 30
0.0
  0
POINT
  5
338
100
AcDbEntity
  8
DEFPOINTS
 62
               0
100
AcDbPoint
 10
1999.4983867112574
 20
-514.99999986990156
 30
0.0
  0
POINT
  5
339
100
AcDbEntity
  8
DEFPOINTS
 62
               0
100
AcDbPoint
 10
1905.4232045256294
 20
-514.99999986990156
 30
0.0
  0
ENDBLK
  5
33A
100
AcDbEntity
  8
DIMENTION
100
AcDbBlockEnd
  0
BLOCK
  5
33B
100
AcDbEntity
  8
DIMENTION
100
AcDbBlockBegin
  2
*D63
 70
               1
 10
0.0
 20
0.0
 30
0.0
  3
*D63
  1

  0
LINE
  5
33C
100
AcDbEntity
  8
DIMENTION
 62
               0
100
AcDbLine
 10
1978.7000000372541
 20
-109.19999999999959
 30
0.0
 11
1831.9232046001353
 21
-109.19999999999959
 31
0.0
  0
LINE
  5
33D
100
AcDbEntity
  8
DIMENTION
 62
               0
100
AcDbLine
 10
1863.9232045628823
 20
-800.00000000000023
 30
0.0
 11
1831.9232046001353
 21
-800.00000000000023
 31
0.0
  0
LINE
  5
33E
100
AcDbEntity
  8
DIMENTION
 62
               0
100
AcDbLine
 10
1851.9232045256294
 20
-109.19999999999959
 30
0.0
 11
1851.9232045256294
 21
-800.00000000000023
 31
0.0
  0
LINE
  5
33F
100
AcDbEntity
  8
DIMENTION
 62
               0
100
AcDbLine
 10
1851.9232045256294
 20
-109.19999999999959
 30
0.0
 11
1860.4305913853177
 21
-140.94999999999959
 31
0.0
  0
LINE
  5
340
100
AcDbEntity
  8
DIMENTION
 62
               0
100
AcDbLine
 10
1851.9232045256294
 20
-109.19999999999959
 30
0.0
 11
1843.4158176659412
 21
-140.94999999999959
 31
0.0
  0
LINE
  5
341
100
AcDbEntity
  8
DIMENTION
 62
               0
100
AcDbLine
 10
1851.9232045256294
 20
-800.00000000000023
 30
0.0
 11
1843.4158176659412
 21
-768.25000000000023
 31
0.0
  0
LINE
  5
342
100
AcDbEntity
  8
DIMENTION
 62
               0
100
AcDbLine
 10
1851.9232045256294
 20
-800.00000000000023
 30
0.0
 11
1860.4305913853177
 21
-768.25000000000023
 31
0.0
  0
MTEXT
  5
343
100
AcDbEntity
  8
DIMENTION
 62
               0
100
AcDbMText
 10
1808.5898711960215
 20
-486.34999999999991
 30
0.0
 40
33.866666666666667
 41
0.0
 71
               1
 72
               1
  1
690
  7
________
 11
0.0
 21
1.0
 31
0.0
  0
POINT
  5
344
100
AcDbEntity
  8
DEFPOINTS
 62
               0
100
AcDbPoint
 10
1873.9232045256294
 20
-800.00000000000023
 30
0.0
  0
POINT
  5
345
100
AcDbEntity
  8
DEFPOINTS
 62
               0
100
AcDbPoint
 10
1988.7000000000012
 20
-109.19999999999959
 30
0.0
  0
POINT
  5
346
100
AcDbEntity
  8
DEFPOINTS
 62
               0
100
AcDbPoint
 10
1851.9232045256294
 20
-109.19999999999959
 30
0.0
  0
ENDBLK
  5
347
100
AcDbEntity
  8
DIMENTION
100
AcDbBlockEnd
  0
BLOCK
  5
348
100
AcDbEntity
  8
DIMENTION
100
AcDbBlockBegin
  2
*D64
 70
               1
 10
0.0
 20
0.0
 30
0.0
  3
*D64
  1

  0
LINE
  5
349
100
AcDbEntity
  8
DIMENTION
 62
               0
100
AcDbLine
 10
2761.9999999627471
 20
1475.0
 30
0.0
 11
2908.2826998509881
 21
1475.0
 31
0.0
  0
LINE
  5
34A
100
AcDbEntity
  8
DIMENTION
 62
               0
100
AcDbLine
 10
2761.9999999627471
 20
1525.0
 30
0.0
 11
2908.2826998509881
 21
1525.0
 31
0.0
  0
LINE
  5
34B
100
AcDbEntity
  8
DIMENTION
 62
               0
100
AcDbLine
 10
2888.2826999254939
 20
1525.0
 30
0.0
 11
2888.2826999254939
 21
1475.0
 31
0.0
  0
LINE
  5
34C
100
AcDbEntity
  8
DIMENTION
 62
               0
100
AcDbLine
 10
2888.2826999254939
 20
1475.0
 30
0.0
 11
2888.2826999254939
 21
1414.9999999869615
 31
0.0
  0
LINE
  5
34D
100
AcDbEntity
  8
DIMENTION
 62
               0
100
AcDbLine
 10
2888.2826999254939
 20
1475.0
 30
0.0
 11
2896.7900867851822
 21
1443.25
 31
0.0
  0
LINE
  5
34E
100
AcDbEntity
  8
DIMENTION
 62
               0
100
AcDbLine
 10
2888.2826999254939
 20
1475.0
 30
0.0
 11
2879.7753130658057
 21
1443.25
 31
0.0
  0
LINE
  5
34F
100
AcDbEntity
  8
DIMENTION
 62
               0
100
AcDbLine
 10
2888.2826999254939
 20
1525.0
 30
0.0
 11
2888.2826999254939
 21
1697.4750011213109
 31
0.0
  0
LINE
  5
350
100
AcDbEntity
  8
DIMENTION
 62
               0
100
AcDbLine
 10
2888.2826999254939
 20
1525.0
 30
0.0
 11
2879.7753130658057
 21
1556.75
 31
0.0
  0
LINE
  5
351
100
AcDbEntity
  8
DIMENTION
 62
               0
100
AcDbLine
 10
2888.2826999254939
 20
1525.0
 30
0.0
 11
2896.7900867851822
 21
1556.75
 31
0.0
  0
MTEXT
  5
352
100
AcDbEntity
  8
DIMENTION
 62
               0
100
AcDbMText
 10
2844.9493665921605
 20
1570.4750011213109
 30
0.0
 40
33.866666666666667
 41
0.0
 71
               1
 72
               1
  1
50以上
  7
________
 11
0.0
 21
1.0
 31
0.0
  0
POINT
  5
353
100
AcDbEntity
  8
DEFPOINTS
 62
               0
100
AcDbPoint
 10
2752.0
 20
1525.0
 30
0.0
  0
POINT
  5
354
100
AcDbEntity
  8
DEFPOINTS
 62
               0
100
AcDbPoint
 10
2752.0
 20
1475.0
 30
0.0
  0
POINT
  5
355
100
AcDbEntity
  8
DEFPOINTS
 62
               0
100
AcDbPoint
 10
2888.2826999254939
 20
1475.0
 30
0.0
  0
ENDBLK
  5
356
100
AcDbEntity
  8
DIMENTION
100
AcDbBlockEnd
  0
BLOCK
  5
357
100
AcDbEntity
  8
OBJECT
100
AcDbBlockBegin
  2
*U65
 70
               1
 10
0.0
 20
0.0
 30
0.0
  3
*U65
  1

  0
LWPOLYLINE
  5
358
100
AcDbEntity
  8
OBJECT
 62
               0
100
AcDbPolyline
 90
        5
 70
             129
 10
1168.8827000000001
 20
1066.0
 42
-0.414213562373095
 10
1175.8827000000001
 20
1073.0
 42
-0.414213562373095
 10
1182.8827000000001
 20
1066.0
 10
1182.8827000000001
 20
1046.0
 10
1168.8827000000001
 20
1046.0
  0
POLYLINE
  5
359
100
AcDbEntity
  8
OBJECT
 62
               0
100
AcDb2dPolyline
 66
               1
 10
0.0
 20
0.0
 30
0.0
 75
               5
  0
VERTEX
  5
35A
100
AcDbEntity
  8
OBJECT
 62
               0
100
AcDbVertex
100
AcDb2dVertex
 10
1168.8827000000001
 20
1055.0
 30
0.0
  0
VERTEX
  5
35B
100
AcDbEntity
  8
OBJECT
 62
               0
100
AcDbVertex
100
AcDb2dVertex
 10
1168.8827000000001
 20
1055.0
 30
0.0
  0
VERTEX
  5
35C
100
AcDbEntity
  8
OBJECT
 62
               0
100
AcDbVertex
100
AcDb2dVertex
 10
1168.8827000000001
 20
1046.0
 30
0.0
  0
VERTEX
  5
35D
100
AcDbEntity
  8
OBJECT
 62
               0
100
AcDbVertex
100
AcDb2dVertex
 10
1165.8827000000001
 20
1046.0
 30
0.0
  0
VERTEX
  5
35E
100
AcDbEntity
  8
OBJECT
 62
               0
100
AcDbVertex
100
AcDb2dVertex
 10
1165.8827000000001
 20
1058.0
 30
0.0
  0
VERTEX
  5
35F
100
AcDbEntity
  8
OBJECT
 62
               0
100
AcDbVertex
100
AcDb2dVertex
 10
1168.8827000000001
 20
1058.0
 30
0.0
  0
SEQEND
  5
360
100
AcDbEntity
  8
OBJECT
 62
               0
  0
POLYLINE
  5
361
100
AcDbEntity
  8
OBJECT
 62
               0
100
AcDb2dPolyline
 66
               1
 10
0.0
 20
0.0
 30
0.0
 75
               5
  0
VERTEX
  5
362
100
AcDbEntity
  8
OBJECT
 62
               0
100
AcDbVertex
100
AcDb2dVertex
 10
1182.8827000000001
 20
1055.0
 30
0.0
  0
VERTEX
  5
363
100
AcDbEntity
  8
OBJECT
 62
               0
100
AcDbVertex
100
AcDb2dVertex
 10
1222.8827000000001
 20
1055.0
 30
0.0
  0
VERTEX
  5
364
100
AcDbEntity
  8
OBJECT
 62
               0
100
AcDbVertex
100
AcDb2dVertex
 10
1222.8827000000001
 20
1046.0
 30
0.0
  0
VERTEX
  5
365
100
AcDbEntity
  8
OBJECT
 62
               0
100
AcDbVertex
100
AcDb2dVertex
 10
1225.8827000000001
 20
1046.0
 30
0.0
  0
VERTEX
  5
366
100
AcDbEntity
  8
OBJECT
 62
               0
100
AcDbVertex
100
AcDb2dVertex
 10
1225.8827000000001
 20
1058.0
 30
0.0
  0
VERTEX
  5
367
100
AcDbEntity
  8
OBJECT
 62
               0
100
AcDbVertex
100
AcDb2dVertex
 10
1182.8827000000001
 20
1058.0
 30
0.0
  0
SEQEND
  5
368
100
AcDbEntity
  8
OBJECT
 62
               0
  0
ENDBLK
  5
369
100
AcDbEntity
  8
OBJECT
100
AcDbBlockEnd
  0
BLOCK
  5
36A
100
AcDbEntity
  8
DIMENTION
100
AcDbBlockBegin
  2
*D66
 70
               1
 10
0.0
 20
0.0
 30
0.0
  3
*D66
  1

  0
LINE
  5
36B
100
AcDbEntity
  8
DIMENTION
 62
               0
100
AcDbLine
 10
2140.0
 20
860.0000000372529
 30
0.0
 11
2140.0
 21
717.00000007450581
 31
0.0
  0
LINE
  5
36C
100
AcDbEntity
  8
DIMENTION
 62
               0
100
AcDbLine
 10
1986.3000000000002
 20
923.80000003725286
 30
0.0
 11
1986.3000000000002
 21
717.00000007450581
 31
0.0
  0
LINE
  5
36D
100
AcDbEntity
  8
DIMENTION
 62
               0
100
AcDbLine
 10
2140.0
 20
737.0
 30
0.0
 11
1986.3000000000002
 21
737.0
 31
0.0
  0
LINE
  5
36E
100
AcDbEntity
  8
DIMENTION
 62
               0
100
AcDbLine
 10
2140.0
 20
737.0
 30
0.0
 11
2108.25
 21
728.49261314031185
 31
0.0
  0
LINE
  5
36F
100
AcDbEntity
  8
DIMENTION
 62
               0
100
AcDbLine
 10
2140.0
 20
737.0
 30
0.0
 11
2108.25
 21
745.50738685968815
 31
0.0
  0
LINE
  5
370
100
AcDbEntity
  8
DIMENTION
 62
               0
100
AcDbLine
 10
1986.3000000000002
 20
737.0
 30
0.0
 11
2018.0500000000002
 21
745.50738685968815
 31
0.0
  0
LINE
  5
371
100
AcDbEntity
  8
DIMENTION
 62
               0
100
AcDbLine
 10
1986.3000000000002
 20
737.0
 30
0.0
 11
2018.0500000000002
 21
728.49261314031185
 31
0.0
  0
MTEXT
  5
372
100
AcDbEntity
  8
DIMENTION
 62
               0
100
AcDbMText
 10
2031.4000000000001
 20
780.33333332960797
 30
0.0
 40
33.866666666666667
 41
0.0
 71
               1
 72
               1
  1
160
  7
________
  0
POINT
  5
373
100
AcDbEntity
  8
DEFPOINTS
 62
               0
100
AcDbPoint
 10
1986.3000000000002
 20
933.79999999999995
 30
0.0
  0
POINT
  5
374
100
AcDbEntity
  8
DEFPOINTS
 62
               0
100
AcDbPoint
 10
2140.0
 20
870.0
 30
0.0
  0
POINT
  5
375
100
AcDbEntity
  8
DEFPOINTS
 62
               0
100
AcDbPoint
 10
2140.0
 20
737.0
 30
0.0
  0
ENDBLK
  5
376
100
AcDbEntity
  8
DIMENTION
100
AcDbBlockEnd
  0
BLOCK
  5
377
100
AcDbEntity
  8
DIMENTION
100
AcDbBlockBegin
  2
*D67
 70
               1
 10
0.0
 20
0.0
 30
0.0
  3
*D67
  1

  0
LINE
  5
378
100
AcDbEntity
  8
DIMENTION
 62
               0
100
AcDbLine
 10
1977.5000000372529
 20
1165.0
 30
0.0
 11
1866.9232046001355
 21
1165.0
 31
0.0
  0
LINE
  5
379
100
AcDbEntity
  8
DIMENTION
 62
               0
100
AcDbLine
 10
2050.0000000372538
 20
1054.8000000000002
 30
0.0
 11
1866.9232046001355
 21
1054.8000000000002
 31
0.0
  0
LINE
  5
37A
100
AcDbEntity
  8
DIMENTION
 62
               0
100
AcDbLine
 10
1886.9232045256297
 20
1165.0
 30
0.0
 11
1886.9232045256297
 21
1054.8000000000002
 31
0.0
  0
LINE
  5
37B
100
AcDbEntity
  8
DIMENTION
 62
               0
100
AcDbLine
 10
1886.9232045256297
 20
1165.0
 30
0.0
 11
1895.4305913853177
 21
1133.25
 31
0.0
  0
LINE
  5
37C
100
AcDbEntity
  8
DIMENTION
 62
               0
100
AcDbLine
 10
1886.9232045256297
 20
1165.0
 30
0.0
 11
1878.4158176659416
 21
1133.25
 31
0.0
  0
LINE
  5
37D
100
AcDbEntity
  8
DIMENTION
 62
               0
100
AcDbLine
 10
1886.9232045256297
 20
1054.8000000000002
 30
0.0
 11
1878.4158176659416
 21
1086.5500000000002
 31
0.0
  0
LINE
  5
37E
100
AcDbEntity
  8
DIMENTION
 62
               0
100
AcDbLine
 10
1886.9232045256297
 20
1054.8000000000002
 30
0.0
 11
1895.4305913853177
 21
1086.5500000000002
 31
0.0
  0
MTEXT
  5
37F
100
AcDbEntity
  8
DIMENTION
 62
               0
100
AcDbMText
 10
1843.5898711960217
 20
1078.1500000000001
 30
0.0
 40
33.866666666666667
 41
0.0
 71
               1
 72
               1
  1
110
  7
________
 11
0.0
 21
1.0
 31
0.0
  0
POINT
  5
380
100
AcDbEntity
  8
DEFPOINTS
 62
               0
100
AcDbPoint
 10
2060.0000000000009
 20
1054.8000000000002
 30
0.0
  0
POINT
  5
381
100
AcDbEntity
  8
DEFPOINTS
 62
               0
100
AcDbPoint
 10
1987.5
 20
1165.0
 30
0.0
  0
POINT
  5
382
100
AcDbEntity
  8
DEFPOINTS
 62
               0
100
AcDbPoint
 10
1886.9232045256297
 20
1165.0
 30
0.0
  0
ENDBLK
  5
383
100
AcDbEntity
  8
DIMENTION
100
AcDbBlockEnd
  0
BLOCK
  5
384
100
AcDbEntity
  8
DIMENTION
100
AcDbBlockBegin
  2
*U68
 70
               1
 10
0.0
 20
0.0
 30
0.0
  3
*U68
  1

  0
LINE
  5
385
100
AcDbEntity
  8
CENTER
 62
               0
100
AcDbLine
 10
860.88270000000102
 20
625.80000000000018
 30
0.0
 11
830.88270000000102
 21
625.80000000000018
 31
0.0
  0
LINE
  5
386
100
AcDbEntity
  8
CENTER
 62
               0
100
AcDbLine
 10
845.88270000000102
 20
625.30000000000018
 30
0.0
 11
845.88270000000102
 21
626.30000000000018
 31
0.0
  0
ENDBLK
  5
387
100
AcDbEntity
  8
DIMENTION
100
AcDbBlockEnd
  0
BLOCK
  5
388
100
AcDbEntity
  8
DIMENTION
100
AcDbBlockBegin
  2
*D69
 70
               1
 10
0.0
 20
0.0
 30
0.0
  3
*D69
  1

  0
LINE
  5
389
100
AcDbEntity
  8
DIMENTION
 62
               0
100
AcDbLine
 10
2140.0
 20
860.0000000372529
 30
0.0
 11
2140.0
 21
786.47500119581673
 31
0.0
  0
LINE
  5
38A
100
AcDbEntity
  8
DIMENTION
 62
               0
100
AcDbLine
 10
2060.0000000000009
 20
923.80000003725286
 30
0.0
 11
2060.0000000000009
 21
786.47500119581673
 31
0.0
  0
LINE
  5
38B
100
AcDbEntity
  8
DIMENTION
 62
               0
100
AcDbLine
 10
2140.0
 20
806.47500112131092
 30
0.0
 11
2060.0000000000009
 21
806.47500112131092
 31
0.0
  0
LINE
  5
38C
100
AcDbEntity
  8
DIMENTION
 62
               0
100
AcDbLine
 10
2140.0
 20
806.47500112131092
 30
0.0
 11
2108.25
 21
797.96761426162277
 31
0.0
  0
LINE
  5
38D
100
AcDbEntity
  8
DIMENTION
 62
               0
100
AcDbLine
 10
2140.0
 20
806.47500112131092
 30
0.0
 11
2108.25
 21
814.98238798099908
 31
0.0
  0
LINE
  5
38E
100
AcDbEntity
  8
DIMENTION
 62
               0
100
AcDbLine
 10
2060.0000000000009
 20
806.47500112131092
 30
0.0
 11
2091.7500000000009
 21
814.98238798099908
 31
0.0
  0
LINE
  5
38F
100
AcDbEntity
  8
DIMENTION
 62
               0
100
AcDbLine
 10
2060.0000000000009
 20
806.47500112131092
 30
0.0
 11
2091.7500000000009
 21
797.96761426162277
 31
0.0
  0
MTEXT
  5
390
100
AcDbEntity
  8
DIMENTION
 62
               0
100
AcDbMText
 10
2078.8333333333339
 20
849.80833445091889
 30
0.0
 40
33.866666666666667
 41
0.0
 71
               1
 72
               1
  1
80
  7
________
  0
POINT
  5
391
100
AcDbEntity
  8
DEFPOINTS
 62
               0
100
AcDbPoint
 10
2060.0000000000009
 20
933.79999999999995
 30
0.0
  0
POINT
  5
392
100
AcDbEntity
  8
DEFPOINTS
 62
               0
100
AcDbPoint
 10
2140.0
 20
870.0
 30
0.0
  0
POINT
  5
393
100
AcDbEntity
  8
DEFPOINTS
 62
               0
100
AcDbPoint
 10
2140.0
 20
806.47500112131092
 30
0.0
  0
ENDBLK
  5
394
100
AcDbEntity
  8
DIMENTION
100
AcDbBlockEnd
  0
BLOCK
  5
395
100
AcDbEntity
  8
OBJECT
100
AcDbBlockBegin
  2
*U70
 70
               1
 10
0.0
 20
0.0
 30
0.0
  3
*U70
  1

  0
LINE
  5
396
100
AcDbEntity
  8
OBJECT
 62
               0
100
AcDbLine
 10
865.88270000000102
 20
1011.1000000000149
 30
0.0
 11
825.88270000000102
 21
1011.1000000000149
 31
0.0
  0
LINE
  5
397
100
AcDbEntity
  8
OBJECT
 62
               0
100
AcDbLine
 10
865.88270000000102
 20
1011.1000000000149
 30
0.0
 11
865.88270000000102
 21
1007.1000000000149
 31
0.0
  0
LINE
  5
398
100
AcDbEntity
  8
OBJECT
 62
               0
100
AcDbLine
 10
825.88270000000102
 20
1007.1000000000149
 30
0.0
 11
825.88270000000102
 21
1011.1000000000149
 31
0.0
  0
LINE
  5
399
100
AcDbEntity
  8
OBJECT
 62
               0
100
AcDbLine
 10
858.38270000000102
 20
1011.1000000000149
 30
0.0
 11
858.38270000000102
 21
1056.1175062990933
 31
0.0
  0
LINE
  5
39A
100
AcDbEntity
  8
OBJECT
 62
               0
100
AcDbLine
 10
833.38270000000102
 20
1011.1000000000149
 30
0.0
 11
833.38270000000102
 21
1057.1000000000149
 31
0.0
  0
ARC
  5
39B
100
AcDbEntity
  8
OBJECT
 62
               0
100
AcDbCircle
 10
845.88270000000102
 20
1056.1174974602582
 30
0.0
 40
12.500000000000396
100
AcDbArc
 50
359.99995948576617
 51
180.00004051423375
  0
ENDBLK
  5
39C
100
AcDbEntity
  8
OBJECT
100
AcDbBlockEnd
  0
ENDSEC
  0
SECTION
  2
ENTITIES
  0
MTEXT
  5
39D
100
AcDbEntity
  8
TEXT
100
AcDbMText
 10
563.47729999999979
 20
-845.13000000000011
 30
0.0
 40
28.2224
 41
109.36099999999999
 71
               1
 72
               1
  1
品　名
  7
________
  0
MTEXT
  5
39E
100
AcDbEntity
  8
TEXT
100
AcDbMText
 10
1678.4772999999998
 20
-850.13000000000011
 30
0.0
 40
28.2224
 41
0.0
 71
               1
 72
               1
  1
形　式
  7
________
  0
MTEXT
  5
39F
100
AcDbEntity
  8
TEXT
100
AcDbMText
 10
2283.4772999999996
 20
-850.13000000000011
 30
0.0
 40
28.2224
 41
0.0
 71
               1
 72
               1
  1
尺　度
  7
________
  0
MTEXT
  5
3A0
100
AcDbEntity
  8
TEXT
100
AcDbMText
 10
2503.4772999999996
 20
-850.13000000000011
 30
0.0
 40
28.2224
 41
0.0
 71
               1
 72
               1
  1
図　番
  7
________
  0
MTEXT
  5
3A1
100
AcDbEntity
  8
TEXT
100
AcDbMText
 10
2329.4292999999998
 20
-905.01400000000012
 30
0.0
 40
39.51111111111112
 41
0.0
 71
               1
 72
               1
  1
1：10
  7
________
  0
MTEXT
  5
3A2
100
AcDbEntity
  8
TEXT
100
AcDbMText
 10
134.97730000000001
 20
-848.10879999999997
 30
0.0
 40
28.222222222222225
 41
0.0
 71
               1
 72
               1
  1
検  図
  7
________
  0
MTEXT
  5
3A3
100
AcDbEntity
  8
TEXT
100
AcDbMText
 10
134.97730000000001
 20
-893.19000000000051
 30
0.0
 40
28.222222222222225
 41
0.0
 71
               1
 72
               1
  1
担  当
  7
________
  0
MTEXT
  5
3A4
100
AcDbEntity
  8
TEXT
100
AcDbMText
 10
134.97730000000001
 20
-938.0600000000004
 30
0.0
 40
28.222222222222225
 41
0.0
 71
               1
 72
               1
  1
年月日
  7
________
  0
MTEXT
  5
3A5
100
AcDbEntity
  8
TEXT
100
AcDbMText
 10
1174.9283
 20
-889.91800000000057
 30
0.0
 40
50.799999999999997
 41
0.0
 71
               1
 72
               1
  1
自動食器洗浄機
  7
________
  0
MTEXT
  5
3A6
100
AcDbEntity
  8
TEXT
100
AcDbMText
 10
303.11730000000011
 20
-939.3125
 30
0.0
 40
28.222222222222225
 41
0.0
 71
               1
 72
               1
  1
19.12.26
  7
________
  0
MTEXT
  5
3A7
100
AcDbEntity
  8
TEXT
100
AcDbMText
 10
318.94929999999999
 20
-895.15950000000066
 30
0.0
 40
28.222222222222225
 41
0.0
 71
               1
 72
               1
  1
下　野
  7
________
  0
MTEXT
  5
3A8
100
AcDbEntity
  8
TEXT
100
AcDbMText
 10
318.94929999999999
 20
-849.15950000000066
 30
0.0
 40
28.222222222222225
 41
0.0
 71
               1
 72
               1
  1
大　谷
  7
________
  0
LINE
  5
3A9
100
AcDbEntity
  8
OBJECT
100
AcDbLine
 10
2754.0
 20
870.0
 30
0.0
 11
2754.0
 21
1475.0
 31
0.0
  0
LINE
  5
3AA
100
AcDbEntity
  8
OBJECT
100
AcDbLine
 10
2742.0
 20
858.0
 30
0.0
 11
2754.0
 21
870.0
 31
0.0
  0
LINE
  5
3AB
100
AcDbEntity
  8
OBJECT
100
AcDbLine
 10
2140.0
 20
858.0
 30
0.0
 11
2740.0
 21
858.0
 31
0.0
  0
LINE
  5
3AC
100
AcDbEntity
  8
OBJECT
100
AcDbLine
 10
2128.0
 20
870.0
 30
0.0
 11
2140.0
 21
858.0
 31
0.0
  0
LINE
  5
3AD
100
AcDbEntity
  8
OBJECT
100
AcDbLine
 10
2128.0
 20
1475.0
 30
0.0
 11
2128.0
 21
870.0
 31
0.0
  0
LINE
  5
3AE
100
AcDbEntity
  8
OBJECT
100
AcDbLine
 10
2754.0
 20
1475.0
 30
0.0
 11
2128.0
 21
1475.0
 31
0.0
  0
POLYLINE
  5
3AF
100
AcDbEntity
  8
OBJECT
100
AcDb2dPolyline
 66
               1
 10
0.0
 20
0.0
 30
0.0
 70
               1
 75
               5
  0
VERTEX
  5
3B0
100
AcDbEntity
  8
OBJECT
100
AcDbVertex
100
AcDb2dVertex
 10
2140.0
 20
1475.0
 30
0.0
  0
VERTEX
  5
3B1
100
AcDbEntity
  8
OBJECT
100
AcDbVertex
100
AcDb2dVertex
 10
2740.0
 20
1475.0
 30
0.0
  0
VERTEX
  5
3B2
100
AcDbEntity
  8
OBJECT
100
AcDbVertex
100
AcDb2dVertex
 10
2740.0
 20
870.0
 30
0.0
  0
VERTEX
  5
3B3
100
AcDbEntity
  8
OBJECT
100
AcDbVertex
100
AcDb2dVertex
 10
2140.0
 20
870.0
 30
0.0
  0
SEQEND
  5
3B4
100
AcDbEntity
  8
OBJECT
  0
LINE
  5
3B5
100
AcDbEntity
  8
CENTER
100
AcDbLine
 10
2440.0
 20
1522.5
 30
0.0
 11
2440.0
 21
822.5
 31
0.0
  0
LWPOLYLINE
  5
3B6
100
AcDbEntity
  8
HIDDEN
100
AcDbPolyline
 90
        5
 70
             129
 10
2345.0
 20
1290.0
 42
-0.414213562373095
 10
2370.0
 20
1315.0
 42
-0.414213562373095
 10
2395.0
 20
1290.0
 42
-0.414213562373095
 10
2370.0
 20
1265.0
 42
-0.414213562373095
 10
2345.0
 20
1290.0
 42
-0.414213562373095
  0
POLYLINE
  5
3B7
100
AcDbEntity
  8
OBJECT
100
AcDb2dPolyline
 66
               1
 10
0.0
 20
0.0
 30
0.0
 70
               1
 75
               5
  0
VERTEX
  5
3B8
100
AcDbEntity
  8
OBJECT
100
AcDbVertex
100
AcDb2dVertex
 10
2736.0
 20
1426.0
 30
0.0
  0
VERTEX
  5
3B9
100
AcDbEntity
  8
OBJECT
100
AcDbVertex
100
AcDb2dVertex
 10
2740.0
 20
1430.0
 30
0.0
  0
VERTEX
  5
3BA
100
AcDbEntity
  8
OBJECT
100
AcDbVertex
100
AcDb2dVertex
 10
2740.0
 20
1475.0
 30
0.0
  0
VERTEX
  5
3BB
100
AcDbEntity
  8
OBJECT
100
AcDbVertex
100
AcDb2dVertex
 10
2140.0
 20
1475.0
 30
0.0
  0
VERTEX
  5
3BC
100
AcDbEntity
  8
OBJECT
100
AcDbVertex
100
AcDb2dVertex
 10
2140.0
 20
1430.0
 30
0.0
  0
VERTEX
  5
3BD
100
AcDbEntity
  8
OBJECT
100
AcDbVertex
100
AcDb2dVertex
 10
2144.0
 20
1426.0
 30
0.0
  0
VERTEX
  5
3BE
100
AcDbEntity
  8
OBJECT
100
AcDbVertex
100
AcDb2dVertex
 10
2146.8284000000003
 20
1428.8283999999994
 30
0.0
  0
VERTEX
  5
3BF
100
AcDbEntity
  8
OBJECT
100
AcDbVertex
100
AcDb2dVertex
 10
2144.0
 20
1431.6567999999997
 30
0.0
  0
VERTEX
  5
3C0
100
AcDbEntity
  8
OBJECT
100
AcDbVertex
100
AcDb2dVertex
 10
2144.0
 20
1471.0
 30
0.0
  0
VERTEX
  5
3C1
100
AcDbEntity
  8
OBJECT
100
AcDbVertex
100
AcDb2dVertex
 10
2736.0
 20
1471.0
 30
0.0
  0
VERTEX
  5
3C2
100
AcDbEntity
  8
OBJECT
100
AcDbVertex
100
AcDb2dVertex
 10
2736.0
 20
1431.6567999999997
 30
0.0
  0
VERTEX
  5
3C3
100
AcDbEntity
  8
OBJECT
100
AcDbVertex
100
AcDb2dVertex
 10
2733.1715999999997
 20
1428.8283999999994
 30
0.0
  0
SEQEND
  5
3C4
100
AcDbEntity
  8
OBJECT
  0
POLYLINE
  5
3C5
100
AcDbEntity
  8
OUTLINE
  6
STYLE_15
100
AcDb2dPolyline
 66
               1
 10
0.0
 20
0.0
 30
0.0
 75
               5
  0
VERTEX
  5
3C6
100
AcDbEntity
  8
OUTLINE
  6
STYLE_15
100
AcDbVertex
100
AcDb2dVertex
 10
2344.6046000000001
 20
1458.0
 30
0.0
  0
VERTEX
  5
3C7
100
AcDbEntity
  8
OUTLINE
  6
STYLE_15
100
AcDbVertex
100
AcDb2dVertex
 10
2730.0
 20
1458.0
 30
0.0
  0
VERTEX
  5
3C8
100
AcDbEntity
  8
OUTLINE
  6
STYLE_15
100
AcDbVertex
100
AcDb2dVertex
 10
2730.0
 20
880.0
 30
0.0
  0
VERTEX
  5
3C9
100
AcDbEntity
  8
OUTLINE
  6
STYLE_15
100
AcDbVertex
100
AcDb2dVertex
 10
2150.0
 20
880.0
 30
0.0
  0
VERTEX
  5
3CA
100
AcDbEntity
  8
OUTLINE
  6
STYLE_15
100
AcDbVertex
100
AcDb2dVertex
 10
2150.0
 20
1458.0
 30
0.0
  0
VERTEX
  5
3CB
100
AcDbEntity
  8
OUTLINE
  6
STYLE_15
100
AcDbVertex
100
AcDb2dVertex
 10
2325.3953000000001
 20
1458.0
 30
0.0
  0
SEQEND
  5
3CC
100
AcDbEntity
  8
OUTLINE
  6
STYLE_15
  0
LINE
  5
3CD
100
AcDbEntity
  8
CENTER
100
AcDbLine
 10
2440.0
 20
620.0
 30
0.0
 11
2440.0
 21
-821.0
 31
0.0
  0
LINE
  5
3CE
100
AcDbEntity
  8
CENTER
100
AcDbLine
 10
1924.0
 20
1165.0
 30
0.0
 11
2826.0
 21
1165.0
 31
0.0
  0
LINE
  5
3CF
100
AcDbEntity
  8
OBJECT
100
AcDbLine
 10
2740.0
 20
1475.0
 30
0.0
 11
2740.0
 21
1487.0
 31
0.0
  0
LINE
  5
3D0
100
AcDbEntity
  8
OBJECT
100
AcDbLine
 10
2140.0
 20
1475.0
 30
0.0
 11
2740.0
 21
1475.0
 31
0.0
  0
LINE
  5
3D1
100
AcDbEntity
  8
OBJECT
100
AcDbLine
 10
2740.0
 20
1487.0
 30
0.0
 11
2397.0
 21
1487.0
 31
0.0
  0
LINE
  5
3D2
100
AcDbEntity
  8
OBJECT
100
AcDbLine
 10
2383.0
 20
1487.0
 30
0.0
 11
2140.0
 21
1487.0
 31
0.0
  0
DIMENSION
  5
3D3
100
AcDbEntity
  8
DIMENTION
100
AcDbDimension
  2
*D1
 10
2813.0
 20
1165.0
 30
0.0
 11
2813.0
 21
1017.5
 31
0.0
  3
CAD
100
AcDbAlignedDimension
 13
2748.0
 23
870.0
 33
0.0
 14
2757.0
 24
1165.0
 34
0.0
 50
90.0
100
AcDbRotatedDimension
1001
ACAD
1000
DSTYLE
1002
{
1070
             271
1070
               0
1070
             340
1005
63
1070
             147
1040
0.9999999999999999
1002
}
  0
DIMENSION
  5
3D4
100
AcDbEntity
  8
DIMENTION
100
AcDbDimension
  2
*D2
 10
2514.0
 20
1290.0
 30
0.0
 11
2514.0
 21
1227.5
 31
0.0
  3
CAD
100
AcDbAlignedDimension
 13
2366.7173000000003
 23
1165.0
 33
0.0
 14
2345.0
 24
1290.0
 34
0.0
 50
90.0
100
AcDbRotatedDimension
1001
ACAD
1000
DSTYLE
1002
{
1070
             271
1070
               0
1070
             340
1005
63
1070
             147
1040
0.9999999999999999
1002
}
  0
DIMENSION
  5
3D5
100
AcDbEntity
  8
DIMENTION
100
AcDbDimension
  2
*D3
 10
2440.0
 20
1227.0
 30
0.0
 11
2405.0
 21
1227.0
 31
0.0
  3
CAD
100
AcDbAlignedDimension
 13
2370.0
 23
1290.0
 33
0.0
 14
2440.0
 24
1270.0
 34
0.0
100
AcDbRotatedDimension
1001
ACAD
1000
DSTYLE
1002
{
1070
             271
1070
               0
1070
             340
1005
63
1070
             147
1040
0.9999999999999999
1002
}
  0
DIMENSION
  5
3D6
100
AcDbEntity
  8
DIMENTION
100
AcDbDimension
  2
*D4
 10
2888.2826999254944
 20
870.0
 30
0.0
 11
2888.2826999254944
 21
1172.5
 31
0.0
  3
CAD
100
AcDbAlignedDimension
 13
2747.0
 23
1475.0
 33
0.0
 14
2747.0
 24
870.0
 34
0.0
 50
90.0
100
AcDbRotatedDimension
1001
ACAD
1000
DSTYLE
1002
{
1070
             271
1070
               0
1070
             340
1005
63
1070
             147
1040
0.9999999999999999
1002
}
  0
DIMENSION
  5
3D7
100
AcDbEntity
  8
DIMENTION
100
AcDbDimension
  2
*D5
 10
2888.2858236236825
 20
858.0
 30
0.0
 11
2889.2858236236825
 21
806.2000002362322
 31
0.0
 70
             128
  3
CAD
100
AcDbAlignedDimension
 13
2759.0
 23
870.0
 33
0.0
 14
2736.0
 24
858.0
 34
0.0
 50
90.0
100
AcDbRotatedDimension
1001
ACAD
1000
DSTYLE
1002
{
1070
             271
1070
               0
1070
             340
1005
63
1070
             174
1070
               0
1070
             147
1040
0.9999999999999999
1002
}
  0
DIMENSION
  5
3D8
100
AcDbEntity
  8
DIMENTION
100
AcDbDimension
  2
*D6
 10
2740.0
 20
754.5
 30
0.0
 11
2436.282958984375
 21
755.5
 31
0.0
 70
             128
  3
CAD
100
AcDbAlignedDimension
 13
2140.0
 23
858.0
 33
0.0
 14
2740.0
 24
858.0
 34
0.0
100
AcDbRotatedDimension
1001
ACAD
1000
DSTYLE
1002
{
1070
             271
1070
               0
1070
             340
1005
63
1070
             147
1040
0.9999999999999999
1002
}
  0
LINE
  5
3D9
100
AcDbEntity
  8
DIMENTION
100
AcDbLine
 10
2811.0
 20
-71.0
 30
0.0
 11
2991.0
 21
-71.0
 31
0.0
  0
LINE
  5
3DA
100
AcDbEntity
  8
DIMENTION
100
AcDbLine
 10
2811.0
 20
-71.0
 30
0.0
 11
2290.999999987439
 21
-228.99999999999955
 31
0.0
  0
LINE
  5
3DB
100
AcDbEntity
  8
DIMENTION
100
AcDbLine
 10
2290.999999987439
 20
-228.99999999999955
 30
0.0
 11
2310.5217159626782
 21
-217.27016965463702
 31
0.0
  0
LINE
  5
3DC
100
AcDbEntity
  8
DIMENTION
100
AcDbLine
 10
2290.999999987439
 20
-228.99999999999955
 30
0.0
 11
2313.771217120142
 21
-228.60252692645372
 31
0.0
  0
MTEXT
  5
3DD
100
AcDbEntity
  8
DIMENTION
100
AcDbMText
 10
2813.1046111111109
 20
-31.436000000000149
 30
0.0
 40
28.222222222222225
 41
0.0
 71
               1
 72
               1
  1
操作パネル
  7
________
  0
DIMENSION
  5
3DE
100
AcDbEntity
  8
DIMENTION
100
AcDbDimension
  2
*D7
 10
2803.0
 20
-580.0
 30
0.0
 11
2803.0
 21
-690.0
 31
0.0
  3
CAD
100
AcDbAlignedDimension
 13
2709.5
 23
-800.0
 33
0.0
 14
2739.5
 24
-580.0
 34
0.0
 50
90.0
100
AcDbRotatedDimension
1001
ACAD
1000
DSTYLE
1002
{
1070
             271
1070
               0
1070
             340
1005
63
1070
             147
1040
0.9999999999999999
1002
}
  0
DIMENSION
  5
3DF
100
AcDbEntity
  8
DIMENTION
100
AcDbDimension
  2
*D8
 10
2305.999999987439
 20
-620.0
 30
0.0
 11
2304.999999987439
 21
-715.18865798579327
 31
0.0
 70
             128
  3
CAD
100
AcDbAlignedDimension
 13
2319.999999987439
 23
-800.0
 33
0.0
 14
2346.999999987439
 24
-620.0
 34
0.0
 50
90.0
100
AcDbRotatedDimension
1001
ACAD
1000
DSTYLE
1002
{
1070
             271
1070
               0
1070
             340
1005
63
1070
             147
1040
0.9999999999999999
1002
}
  0
MTEXT
  5
3E0
100
AcDbEntity
  8
TEXT
100
AcDbMText
 10
1799.125
 20
-879.76389999999992
 30
0.0
 40
50.800000000000004
 41
0.0
 71
               1
 72
               1
  1
SD113E3B-LB\P
  7
________
  0
LINE
  5
3E1
100
AcDbEntity
  8
DIMENTION
100
AcDbLine
 10
2560.982491773937
 20
1655.0
 30
0.0
 11
2780.982491773937
 21
1655.0
 31
0.0
  0
MTEXT
  5
3E2
100
AcDbEntity
  8
DIMENTION
100
AcDbMText
 10
2571.8111111111111
 20
1701.4278999999997
 30
0.0
 40
33.866666666666667
 41
0.0
 71
               1
 72
               1
  1
排水口 40A\Pおすねじ
  7
________
  0
LINE
  5
3E3
100
AcDbEntity
  8
DIMENTION
100
AcDbLine
 10
2561.3436000000002
 20
1605.0
 30
0.0
 11
2781.3436000000002
 21
1605.0
 31
0.0
  0
LINE
  5
3E4
100
AcDbEntity
  8
DIMENTION
100
AcDbLine
 10
2561.3436000000002
 20
1605.0
 30
0.0
 11
2561.3436000000002
 21
1655.0
 31
0.0
  0
LINE
  5
3E5
100
AcDbEntity
  8
DIMENTION
100
AcDbLine
 10
2383.6789612724442
 20
1310.9257262360354
 30
0.0
 11
2560.982491773937
 21
1655.0
 31
0.0
  0
LINE
  5
3E6
100
AcDbEntity
  8
DIMENTION
100
AcDbLine
 10
2383.6789612724442
 20
1310.9257262360354
 30
0.0
 11
2391.0731066416147
 21
1342.9532885135482
 31
0.0
  0
LINE
  5
3E7
100
AcDbEntity
  8
DIMENTION
100
AcDbLine
 10
2383.6789612724442
 20
1310.9257262360354
 30
0.0
 11
2406.096260140177
 21
1334.9653361050644
 31
0.0
  0
DIMENSION
  5
3E8
100
AcDbEntity
  8
DIMENTION
100
AcDbDimension
  2
*D9
 10
2740.0
 20
754.5
 30
0.0
 11
2781.0
 21
755.49990000000003
 31
0.0
 70
             128
  1
12
  3
CAD
100
AcDbAlignedDimension
 13
2754.0
 23
870.0
 33
0.0
 14
2740.0
 24
870.0
 34
0.0
100
AcDbRotatedDimension
1001
ACAD
1000
DSTYLE
1002
{
1070
             340
1005
63
1070
             174
1070
               0
1070
             147
1040
0.9998999999999999
1002
}
  0
MTEXT
  5
3E9
100
AcDbEntity
  8
DIMENTION
100
AcDbMText
 10
1596.0533435609605
 20
1416.1666666666667
 30
0.0
 40
33.866666666666667
 41
0.0
 71
               1
 72
               1
  1
ラック通過センター
  7
________
  0
LINE
  5
3EA
100
AcDbEntity
  8
DIMENTION
100
AcDbLine
 10
2440.0
 20
1165.0
 30
0.0
 11
1931.6033435609606
 21
1368.9666666666669
 31
0.0
  0
LINE
  5
3EB
100
AcDbEntity
  8
DIMENTION
100
AcDbLine
 10
2440.0
 20
1165.0
 30
0.0
 11
2407.3749894071252
 21
1169.0058476000986
 31
0.0
  0
LINE
  5
3EC
100
AcDbEntity
  8
DIMENTION
100
AcDbLine
 10
2440.0
 20
1165.0
 30
0.0
 11
2413.7488358278833
 21
1184.7816710818117
 31
0.0
  0
LINE
  5
3ED
100
AcDbEntity
  8
DIMENTION
100
AcDbLine
 10
1931.6033435609606
 20
1368.9666666666669
 30
0.0
 11
1591.6033435609606
 21
1368.9666666666669
 31
0.0
  0
LINE
  5
3EE
100
AcDbEntity
  8
OBJECT
100
AcDbLine
 10
2140.0
 20
1475.0
 30
0.0
 11
2140.0
 21
1487.0
 31
0.0
  0
MTEXT
  5
3EF
100
AcDbEntity
  8
DIMENTION
100
AcDbMText
 10
2941.7300096351455
 20
948.64166666666642
 30
0.0
 40
33.866666666666667
 41
0.0
 71
               1
 72
               1
  1
給水（湯）口\P15Aおすねじ
  7
________
  0
DIMENSION
  5
3F0
100
AcDbEntity
  8
DIMENTION
100
AcDbDimension
  2
*D10
 10
2494.9641762892506
 20
-610.00000000000023
 30
0.0
 11
2494.9641762892506
 21
-705.0
 31
0.0
  3
CAD
100
AcDbAlignedDimension
 13
2439.999999987439
 23
-800.0
 33
0.0
 14
2409.9999999937195
 24
-610.00000000000023
 34
0.0
 50
90.0
100
AcDbRotatedDimension
1001
ACAD
1000
DSTYLE
1002
{
1070
             340
1005
63
1070
             147
1040
0.9999999962747097
1002
}
  0
LINE
  5
3F1
100
AcDbEntity
  8
CENTER
100
AcDbLine
 10
2440.0
 20
1045.0
 30
0.0
 11
2360.0
 21
1045.0
 31
0.0
  0
LINE
  5
3F2
100
AcDbEntity
  8
CENTER
100
AcDbLine
 10
2400.0
 20
1005.0
 30
0.0
 11
2400.0
 21
1085.0
 31
0.0
  0
CIRCLE
  5
3F3
100
AcDbEntity
  8
HIDDEN
100
AcDbCircle
 10
2400.0
 20
1045.0
 30
0.0
 40
11.0
  0
DIMENSION
  5
3F4
100
AcDbEntity
  8
DIMENTION
100
AcDbDimension
  2
*D11
 10
2514.0
 20
1165.0
 30
0.0
 11
2514.0
 21
1105.0
 31
0.0
  3
CAD
100
AcDbAlignedDimension
 13
2400.0
 23
1045.0
 33
0.0
 14
2348.9641763018117
 24
1165.0
 34
0.0
 50
90.0
100
AcDbRotatedDimension
1001
ACAD
1000
DSTYLE
1002
{
1070
             340
1005
63
1070
             147
1040
0.9999999962747097
1002
}
  0
DIMENSION
  5
3F5
100
AcDbEntity
  8
DIMENTION
100
AcDbDimension
  2
*D12
 10
2400.0
 20
941.56000031073802
 30
0.0
 11
2381.0
 21
942.56000030701273
 31
0.0
 70
             128
  3
CAD
100
AcDbAlignedDimension
 13
2440.0
 23
997.20000023623197
 33
0.0
 14
2400.0
 24
1034.0
 34
0.0
100
AcDbRotatedDimension
1001
ACAD
1000
DSTYLE
1002
{
1070
             340
1005
63
1070
             174
1070
               0
1070
             147
1040
0.9999999962747097
1002
}
  0
LINE
  5
3F6
100
AcDbEntity
  8
DIMENTION
100
AcDbLine
 10
2937.0
 20
903.0
 30
0.0
 11
3177.0
 21
903.0
 31
0.0
  0
LINE
  5
3F7
100
AcDbEntity
  8
DIMENTION
100
AcDbLine
 10
2937.0
 20
853.0
 30
0.0
 11
3177.0
 21
853.0
 31
0.0
  0
LINE
  5
3F8
100
AcDbEntity
  8
DIMENTION
100
AcDbLine
 10
2937.0
 20
903.0
 30
0.0
 11
2937.0
 21
853.0
 31
0.0
  0
LINE
  5
3F9
100
AcDbEntity
  8
DIMENTION
100
AcDbLine
 10
2937.0
 20
903.0
 30
0.0
 11
2410.6344775764319
 21
1042.1879035086552
 31
0.0
  0
LINE
  5
3FA
100
AcDbEntity
  8
DIMENTION
100
AcDbLine
 10
2410.6344775764319
 20
1042.1879035086552
 30
0.0
 11
2443.504496304452
 21
1042.1879035086552
 31
0.0
  0
LINE
  5
3FB
100
AcDbEntity
  8
DIMENTION
100
AcDbLine
 10
2410.6344775764319
 20
1042.1879035086552
 30
0.0
 11
2439.1007488177679
 21
1025.7528941446451
 31
0.0
  0
DIMENSION
  5
3FC
100
AcDbEntity
  8
DIMENTION
100
AcDbDimension
  2
*D13
 10
2785.0
 20
643.99999999999955
 30
0.0
 11
2440.0
 21
643.99999999999955
 31
0.0
  3
CAD
100
AcDbAlignedDimension
 13
2095.0
 23
520.00009999999975
 33
0.0
 14
2785.0
 24
520.00009999999975
 34
0.0
100
AcDbRotatedDimension
1001
ACAD
1000
DSTYLE
1002
{
1070
             271
1070
               0
1070
             340
1005
63
1070
             147
1040
0.9999999999999999
1002
}
  0
DIMENSION
  5
3FD
100
AcDbEntity
  8
DIMENTION
100
AcDbDimension
  2
*D14
 10
2040.0
 20
0.0
 30
0.0
 11
2040.0
 21
110.0
 31
0.0
  3
CAD
100
AcDbAlignedDimension
 13
2111.0
 23
220.0
 33
0.0
 14
2128.0
 24
0.0
 34
0.0
 50
90.0
100
AcDbRotatedDimension
1001
ACAD
1000
DSTYLE
1002
{
1070
             340
1005
63
1070
             147
1040
0.9998999999999999
1002
}
  0
LINE
  5
3FE
100
AcDbEntity
  8
HIDDEN
100
AcDbLine
 10
2119.0
 20
237.0
 30
0.0
 11
2119.0
 21
223.0
 31
0.0
  0
LINE
  5
3FF
100
AcDbEntity
  8
HIDDEN
100
AcDbLine
 10
2119.0
 20
226.0
 30
0.0
 11
2116.0
 21
226.0
 31
0.0
  0
LINE
  5
400
100
AcDbEntity
  8
HIDDEN
100
AcDbLine
 10
2114.0
 20
220.0
 30
0.0
 11
2114.0
 21
250.0
 31
0.0
  0
LINE
  5
401
100
AcDbEntity
  8
HIDDEN
100
AcDbLine
 10
2111.0
 20
220.0
 30
0.0
 11
2114.0
 21
220.0
 31
0.0
  0
LINE
  5
402
100
AcDbEntity
  8
HIDDEN
100
AcDbLine
 10
2111.0
 20
240.0
 30
0.0
 11
2111.0
 21
220.0
 31
0.0
  0
LINE
  5
403
100
AcDbEntity
  8
HIDDEN
100
AcDbLine
 10
2116.0
 20
225.0
 30
0.0
 11
2116.0
 21
235.0
 31
0.0
  0
LINE
  5
404
100
AcDbEntity
  8
HIDDEN
100
AcDbLine
 10
2109.0
 20
225.0
 30
0.0
 11
2111.0
 21
225.0
 31
0.0
  0
LINE
  5
405
100
AcDbEntity
  8
HIDDEN
100
AcDbLine
 10
2114.0
 20
225.0
 30
0.0
 11
2116.0
 21
225.0
 31
0.0
  0
LINE
  5
406
100
AcDbEntity
  8
HIDDEN
100
AcDbLine
 10
2109.0
 20
235.0
 30
0.0
 11
2109.0
 21
225.0
 31
0.0
  0
LINE
  5
407
100
AcDbEntity
  8
HIDDEN
100
AcDbLine
 10
2116.0
 20
235.0
 30
0.0
 11
2114.0
 21
235.0
 31
0.0
  0
ARC
  5
408
100
AcDbEntity
  8
HIDDEN
100
AcDbCircle
 10
2121.0
 20
223.0
 30
0.0
 40
2.0
100
AcDbArc
 50
180.0
 51
270.0
  0
LINE
  5
409
100
AcDbEntity
  8
HIDDEN
100
AcDbLine
 10
2119.0
 20
234.0
 30
0.0
 11
2116.0
 21
234.0
 31
0.0
  0
LINE
  5
40A
100
AcDbEntity
  8
HIDDEN
100
AcDbLine
 10
2111.0
 20
240.0
 30
0.0
 11
2114.0
 21
240.0
 31
0.0
  0
LINE
  5
40B
100
AcDbEntity
  8
HIDDEN
100
AcDbLine
 10
2109.0
 20
235.0
 30
0.0
 11
2111.0
 21
235.0
 31
0.0
  0
LINE
  5
40C
100
AcDbEntity
  8
HIDDEN
100
AcDbLine
 10
2114.0
 20
235.0
 30
0.0
 11
2116.0
 21
235.0
 31
0.0
  0
ARC
  5
40D
100
AcDbEntity
  8
HIDDEN
100
AcDbCircle
 10
2121.0
 20
237.0
 30
0.0
 40
2.0
100
AcDbArc
 50
90.0
 51
180.0
  0
LINE
  5
40E
100
AcDbEntity
  8
HIDDEN
100
AcDbLine
 10
2761.0
 20
237.0
 30
0.0
 11
2761.0
 21
223.0
 31
0.0
  0
LINE
  5
40F
100
AcDbEntity
  8
HIDDEN
100
AcDbLine
 10
2761.0
 20
226.0
 30
0.0
 11
2764.0
 21
226.0
 31
0.0
  0
LINE
  5
410
100
AcDbEntity
  8
HIDDEN
100
AcDbLine
 10
2766.0
 20
220.0
 30
0.0
 11
2766.0
 21
250.0
 31
0.0
  0
LINE
  5
411
100
AcDbEntity
  8
HIDDEN
100
AcDbLine
 10
2769.0
 20
220.0
 30
0.0
 11
2766.0
 21
220.0
 31
0.0
  0
LINE
  5
412
100
AcDbEntity
  8
HIDDEN
100
AcDbLine
 10
2769.0
 20
240.0
 30
0.0
 11
2769.0
 21
220.0
 31
0.0
  0
LINE
  5
413
100
AcDbEntity
  8
HIDDEN
100
AcDbLine
 10
2764.0
 20
225.0
 30
0.0
 11
2764.0
 21
235.0
 31
0.0
  0
LINE
  5
414
100
AcDbEntity
  8
HIDDEN
100
AcDbLine
 10
2771.0
 20
225.0
 30
0.0
 11
2769.0
 21
225.0
 31
0.0
  0
LINE
  5
415
100
AcDbEntity
  8
HIDDEN
100
AcDbLine
 10
2766.0
 20
225.0
 30
0.0
 11
2764.0
 21
225.0
 31
0.0
  0
LINE
  5
416
100
AcDbEntity
  8
HIDDEN
100
AcDbLine
 10
2771.0
 20
235.0
 30
0.0
 11
2771.0
 21
225.0
 31
0.0
  0
LINE
  5
417
100
AcDbEntity
  8
HIDDEN
100
AcDbLine
 10
2764.0
 20
235.0
 30
0.0
 11
2766.0
 21
235.0
 31
0.0
  0
ARC
  5
418
100
AcDbEntity
  8
HIDDEN
100
AcDbCircle
 10
2759.0
 20
223.0
 30
0.0
 40
2.0
100
AcDbArc
 50
270.0
 51
0.0
  0
LINE
  5
419
100
AcDbEntity
  8
HIDDEN
100
AcDbLine
 10
2761.0
 20
234.0
 30
0.0
 11
2764.0
 21
234.0
 31
0.0
  0
LINE
  5
41A
100
AcDbEntity
  8
HIDDEN
100
AcDbLine
 10
2769.0
 20
240.0
 30
0.0
 11
2766.0
 21
240.0
 31
0.0
  0
LINE
  5
41B
100
AcDbEntity
  8
HIDDEN
100
AcDbLine
 10
2771.0
 20
235.0
 30
0.0
 11
2769.0
 21
235.0
 31
0.0
  0
LINE
  5
41C
100
AcDbEntity
  8
HIDDEN
100
AcDbLine
 10
2766.0
 20
235.0
 30
0.0
 11
2764.0
 21
235.0
 31
0.0
  0
ARC
  5
41D
100
AcDbEntity
  8
HIDDEN
100
AcDbCircle
 10
2759.0
 20
237.0
 30
0.0
 40
2.0
100
AcDbArc
 50
0.0
 51
90.0
  0
INSERT
  5
41E
100
AcDbEntity
  8
HIDDEN
100
AcDbBlockReference
  2
*U15
 10
1214.1172999999999
 20
429.0
 30
0.0
  0
POINT
  5
41F
100
AcDbEntity
  8
DIMENTION
  6
CONTINUOUS
100
AcDbPoint
 10
2440.0
 20
1165.0
 30
0.0
  0
ARC
  5
420
100
AcDbEntity
  8
OBJECT
  6
CONTINUOUS
100
AcDbCircle
 10
2520.0000000000036
 20
-508.50000000000773
 30
0.0
 40
8.0
100
AcDbArc
 50
270.0
 51
90.0
  0
ARC
  5
421
100
AcDbEntity
  8
OBJECT
  6
CONTINUOUS
100
AcDbCircle
 10
2520.0000000000036
 20
-508.50000000000773
 30
0.0
 40
8.0
100
AcDbArc
 50
90.0
 51
269.99999385906278
  0
LINE
  5
422
100
AcDbEntity
  8
OBJECT
  6
CONTINUOUS
100
AcDbLine
 10
2545.9959866220734
 20
-475.0
 30
0.0
 11
2540.0
 21
-475.0
 31
0.0
  0
LINE
  5
423
100
AcDbEntity
  8
OBJECT
  6
CONTINUOUS
100
AcDbLine
 10
2540.0
 20
-475.0
 30
0.0
 11
2540.0
 21
-470.0
 31
0.0
  0
LINE
  5
424
100
AcDbEntity
  8
OBJECT
  6
CONTINUOUS
100
AcDbLine
 10
2540.0
 20
-470.0
 30
0.0
 11
2500.0
 21
-470.0
 31
0.0
  0
LINE
  5
425
100
AcDbEntity
  8
OBJECT
  6
CONTINUOUS
100
AcDbLine
 10
2500.0
 20
-470.0
 30
0.0
 11
2500.0
 21
-475.0
 31
0.0
  0
LINE
  5
426
100
AcDbEntity
  8
OBJECT
  6
CONTINUOUS
100
AcDbLine
 10
2500.0
 20
-475.0
 30
0.0
 11
2494.0040133779266
 21
-475.0
 31
0.0
  0
ARC
  5
427
100
AcDbEntity
  8
OBJECT
  6
CONTINUOUS
100
AcDbCircle
 10
2494.0040133779266
 20
-475.00401337792619
 30
0.0
 40
0.0040133779261851
100
AcDbArc
 50
90.0
 51
180.0
  0
LINE
  5
428
100
AcDbEntity
  8
OBJECT
  6
CONTINUOUS
100
AcDbLine
 10
2494.0
 20
-475.00401337792619
 30
0.0
 11
2494.0
 21
-537.99598662207381
 31
0.0
  0
LINE
  5
429
100
AcDbEntity
  8
OBJECT
  6
CONTINUOUS
100
AcDbLine
 10
2494.0040133779266
 20
-538.00000000000045
 30
0.0
 11
2545.9959866220734
 21
-538.00000000000045
 31
0.0
  0
ARC
  5
42A
100
AcDbEntity
  8
OBJECT
  6
CONTINUOUS
100
AcDbCircle
 10
2545.9959866220734
 20
-537.99598662207381
 30
0.0
 40
0.0040133779266398
100
AcDbArc
 50
270.0
 51
0.0
  0
LINE
  5
42B
100
AcDbEntity
  8
OBJECT
  6
CONTINUOUS
100
AcDbLine
 10
2546.0
 20
-537.99598662207381
 30
0.0
 11
2546.0
 21
-475.00401337792619
 31
0.0
  0
LINE
  5
42C
100
AcDbEntity
  8
OBJECT
  6
CONTINUOUS
100
AcDbLine
 10
2740.0
 20
-580.00000000000045
 30
0.0
 11
2139.999999987439
 21
-580.0
 31
0.0
  0
LINE
  5
42D
100
AcDbEntity
  8
OBJECT
  6
CONTINUOUS
100
AcDbLine
 10
2139.999999987439
 20
-15.0
 30
0.0
 11
2139.999999987439
 21
-580.0
 31
0.0
  0
LINE
  5
42E
100
AcDbEntity
  8
OBJECT
  6
CONTINUOUS
100
AcDbLine
 10
2139.999999987439
 20
-170.00000000000091
 30
0.0
 11
2740.0
 21
-170.00000000000091
 31
0.0
  0
LINE
  5
42F
100
AcDbEntity
  8
OBJECT
  6
CONTINUOUS
100
AcDbLine
 10
2139.999999987439
 20
-160.00000000000091
 30
0.0
 11
2737.9999999999995
 21
-160.00000000000091
 31
0.0
  0
LINE
  5
430
100
AcDbEntity
  8
OBJECT
  6
CONTINUOUS
100
AcDbLine
 10
2750.8000000000002
 20
0.0
 30
0.0
 11
2129.1999999999998
 21
-0.0000000000004547
 31
0.0
  0
LINE
  5
431
100
AcDbEntity
  8
OBJECT
  6
CONTINUOUS
100
AcDbLine
 10
2129.1999999999998
 20
-10.000000000000909
 30
0.0
 11
2129.1999999999998
 21
-0.0000000000004547
 31
0.0
  0
ARC
  5
432
100
AcDbEntity
  8
OBJECT
  6
CONTINUOUS
100
AcDbCircle
 10
2134.1999999999998
 20
-10.000000000000909
 30
0.0
 40
5.0
100
AcDbArc
 50
180.0
 51
270.00000000000261
  0
LINE
  5
433
100
AcDbEntity
  8
OBJECT
  6
CONTINUOUS
100
AcDbLine
 10
2745.8000000000002
 20
-15.0
 30
0.0
 11
2134.2000000000003
 21
-15.000000000000909
 31
0.0
  0
ARC
  5
434
100
AcDbEntity
  8
OBJECT
  6
CONTINUOUS
100
AcDbCircle
 10
2745.8000000000002
 20
-10.0
 30
0.0
 40
5.0
100
AcDbArc
 50
270.0
 51
0.0
  0
LINE
  5
435
100
AcDbEntity
  8
OBJECT
  6
CONTINUOUS
100
AcDbLine
 10
2750.8000000000002
 20
-10.0
 30
0.0
 11
2750.8000000000002
 21
0.0
 31
0.0
  0
LINE
  5
436
100
AcDbEntity
  8
OBJECT
  6
CONTINUOUS
100
AcDbLine
 10
2740.0
 20
-580.00000000000045
 30
0.0
 11
2740.0
 21
-15.0
 31
0.0
  0
LINE
  5
437
100
AcDbEntity
  8
OBJECT
  6
CONTINUOUS
100
AcDbLine
 10
2151.0
 20
-760.0
 30
0.0
 11
2150.9999999874381
 21
-580.0
 31
0.0
  0
LINE
  5
438
100
AcDbEntity
  8
OBJECT
  6
CONTINUOUS
100
AcDbLine
 10
2188.9999999874381
 20
-580.0
 30
0.0
 11
2189.0
 21
-760.0
 31
0.0
  0
LINE
  5
439
100
AcDbEntity
  8
OBJECT
  6
CONTINUOUS
100
AcDbLine
 10
2691.0
 20
-760.0
 30
0.0
 11
2690.9999999874381
 21
-580.00000000000045
 31
0.0
  0
LINE
  5
43A
100
AcDbEntity
  8
OBJECT
  6
CONTINUOUS
100
AcDbLine
 10
2728.9999999874381
 20
-580.00000000000045
 30
0.0
 11
2729.0
 21
-760.0
 31
0.0
  0
LINE
  5
43B
100
AcDbEntity
  8
OBJECT
100
AcDbLine
 10
2730.0
 20
485.0
 30
0.0
 11
2150.0
 21
485.0
 31
0.0
  0
POLYLINE
  5
43C
100
AcDbEntity
  8
OBJECT
100
AcDb2dPolyline
 66
               1
 10
0.0
 20
0.0
 30
0.0
 70
               1
 75
               5
  0
VERTEX
  5
43D
100
AcDbEntity
  8
OBJECT
100
AcDbVertex
100
AcDb2dVertex
 10
2096.2804999999989
 20
270.79439999999977
 30
0.0
  0
VERTEX
  5
43E
100
AcDbEntity
  8
OBJECT
100
AcDbVertex
100
AcDb2dVertex
 10
2096.2804999999989
 20
270.79439999999977
 30
0.0
  0
VERTEX
  5
43F
100
AcDbEntity
  8
OBJECT
100
AcDbVertex
100
AcDb2dVertex
 10
2102.5
 20
270.79439999999977
 30
0.0
  0
VERTEX
  5
440
100
AcDbEntity
  8
OBJECT
100
AcDbVertex
100
AcDb2dVertex
 10
2102.5
 20
271.79999999999973
 30
0.0
  0
VERTEX
  5
441
100
AcDbEntity
  8
OBJECT
100
AcDbVertex
100
AcDb2dVertex
 10
2102.5
 20
284.79999999999973
 30
0.0
  0
VERTEX
  5
442
100
AcDbEntity
  8
OBJECT
100
AcDbVertex
100
AcDb2dVertex
 10
2102.5
 20
285.80559999999969
 30
0.0
  0
VERTEX
  5
443
100
AcDbEntity
  8
OBJECT
100
AcDbVertex
100
AcDb2dVertex
 10
2096.2804999999989
 20
285.80559999999969
 30
0.0
  0
VERTEX
  5
444
100
AcDbEntity
  8
OBJECT
100
AcDbVertex
100
AcDb2dVertex
 10
2095.6998999999996
 20
284.79999999999973
 30
0.0
  0
VERTEX
  5
445
100
AcDbEntity
  8
OBJECT
100
AcDbVertex
100
AcDb2dVertex
 10
2095.6998999999996
 20
271.79999999999973
 30
0.0
  0
SEQEND
  5
446
100
AcDbEntity
  8
OBJECT
  0
SPLINE
  5
447
100
AcDbEntity
  8
OBJECT
100
AcDbSpline
210
0.0
220
0.0
230
1.0
 70
               8
 71
               2
 72
               6
 73
               3
 74
               0
 42
0.000001
 43
0.000001
 40
0.0
 40
0.0
 40
0.0
 40
1.0
 40
1.0
 40
1.0
 10
2096.2804999999989
 20
285.80559999999969
 30
0.0
 10
2095.1216893004121
 20
283.92919999999958
 30
0.0
 10
2096.2804999999989
 20
282.05279999999948
 30
0.0
  0
SPLINE
  5
448
100
AcDbEntity
  8
OBJECT
100
AcDbSpline
210
0.0
220
0.0
230
1.0
 70
               8
 71
               2
 72
               6
 73
               3
 74
               0
 42
0.000001
 43
0.000001
 40
0.0
 40
0.0
 40
0.0
 40
1.0
 40
1.0
 40
1.0
 10
2096.2804999999989
 20
282.05279999999948
 30
0.0
 10
2095.1216893004121
 20
278.29999999999973
 30
0.0
 10
2096.2804999999989
 20
274.54719999999998
 30
0.0
  0
SPLINE
  5
449
100
AcDbEntity
  8
OBJECT
100
AcDbSpline
210
0.0
220
0.0
230
1.0
 70
               8
 71
               2
 72
               6
 73
               3
 74
               0
 42
0.000001
 43
0.000001
 40
0.0
 40
0.0
 40
0.0
 40
1.0
 40
1.0
 40
1.0
 10
2096.2804999999989
 20
274.54719999999998
 30
0.0
 10
2095.1216893004121
 20
272.67079999999987
 30
0.0
 10
2096.2804999999989
 20
270.79439999999977
 30
0.0
  0
LINE
  5
44A
100
AcDbEntity
  8
OBJECT
100
AcDbLine
 10
2096.2804999999989
 20
282.05279999999948
 30
0.0
 11
2102.4804999999997
 21
282.05279999999948
 31
0.0
  0
LINE
  5
44B
100
AcDbEntity
  8
OBJECT
100
AcDbLine
 10
2096.2804999999989
 20
274.54719999999998
 30
0.0
 11
2102.4804999999997
 21
274.54719999999998
 31
0.0
  0
POLYLINE
  5
44C
100
AcDbEntity
  8
OBJECT
100
AcDb2dPolyline
 66
               1
 10
0.0
 20
0.0
 30
0.0
 75
               5
  0
VERTEX
  5
44D
100
AcDbEntity
  8
OBJECT
100
AcDbVertex
100
AcDb2dVertex
 10
2140.0
 20
526.0
 30
0.0
  0
VERTEX
  5
44E
100
AcDbEntity
  8
OBJECT
100
AcDbVertex
100
AcDb2dVertex
 10
2128.0
 20
526.0
 30
0.0
  0
VERTEX
  5
44F
100
AcDbEntity
  8
OBJECT
100
AcDbVertex
100
AcDb2dVertex
 10
2128.0
 20
514.0
 30
0.0
  0
VERTEX
  5
450
100
AcDbEntity
  8
OBJECT
100
AcDbVertex
100
AcDb2dVertex
 10
2140.0
 20
514.0
 30
0.0
  0
SEQEND
  5
451
100
AcDbEntity
  8
OBJECT
  0
POLYLINE
  5
452
100
AcDbEntity
  8
OBJECT
100
AcDb2dPolyline
 66
               1
 10
0.0
 20
0.0
 30
0.0
 75
               5
  0
VERTEX
  5
453
100
AcDbEntity
  8
OBJECT
100
AcDbVertex
100
AcDb2dVertex
 10
2127.5
 20
525.0
 30
0.0
  0
VERTEX
  5
454
100
AcDbEntity
  8
OBJECT
100
AcDbVertex
100
AcDb2dVertex
 10
2128.0
 20
525.0
 30
0.0
  0
VERTEX
  5
455
100
AcDbEntity
  8
OBJECT
100
AcDbVertex
100
AcDb2dVertex
 10
2128.0
 20
515.0
 30
0.0
  0
VERTEX
  5
456
100
AcDbEntity
  8
OBJECT
100
AcDbVertex
100
AcDb2dVertex
 10
2127.5
 20
515.0
 30
0.0
  0
SEQEND
  5
457
100
AcDbEntity
  8
OBJECT
  0
LINE
  5
458
100
AcDbEntity
  8
OBJECT
100
AcDbLine
 10
2140.0
 20
540.0
 30
0.0
 11
2150.0
 21
540.0
 31
0.0
  0
LINE
  5
459
100
AcDbEntity
  8
OBJECT
100
AcDbLine
 10
2140.0
 20
203.91046790712699
 30
0.0
 11
2140.0
 21
540.0
 31
0.0
  0
LINE
  5
45A
100
AcDbEntity
  8
OBJECT
100
AcDbLine
 10
2147.0
 20
540.0
 30
0.0
 11
2147.0
 21
202.2009126126668
 31
0.0
  0
LINE
  5
45B
100
AcDbEntity
  8
OBJECT
100
AcDbLine
 10
2150.0
 20
565.0
 30
0.0
 11
2150.0
 21
201.66937132331987
 31
0.0
  0
LINE
  5
45C
100
AcDbEntity
  8
OBJECT
100
AcDbLine
 10
2150.0
 20
176.77698742992334
 30
0.0
 11
2150.0
 21
0.0
 31
0.0
  0
LINE
  5
45D
100
AcDbEntity
  8
OBJECT
100
AcDbLine
 10
2730.0
 20
565.0
 30
0.0
 11
2150.0
 21
565.0
 31
0.0
  0
LINE
  5
45E
100
AcDbEntity
  8
OBJECT
100
AcDbLine
 10
2140.0
 20
0.0
 30
0.0
 11
2140.0
 21
178.99694229263423
 31
0.0
  0
LINE
  5
45F
100
AcDbEntity
  8
OBJECT
100
AcDbLine
 10
2147.0
 20
177.32926292534194
 30
0.0
 11
2147.0
 21
45.0
 31
0.0
  0
LINE
  5
460
100
AcDbEntity
  8
OBJECT
100
AcDbLine
 10
2127.5
 20
213.2439770436531
 30
0.0
 11
2127.5
 21
535.70160000000033
 31
0.0
  0
LINE
  5
461
100
AcDbEntity
  8
OBJECT
100
AcDbLine
 10
2711.3864262983807
 20
200.26791798131035
 30
0.0
 11
2168.586426298381
 21
200.26791798131035
 31
0.0
  0
LINE
  5
462
100
AcDbEntity
  8
OBJECT
100
AcDbLine
 10
2168.5864262983814
 20
175.26791798131035
 30
0.0
 11
2711.3864262983807
 21
175.26791798131035
 31
0.0
  0
LINE
  5
463
100
AcDbEntity
  8
OBJECT
100
AcDbLine
 10
2102.5
 20
535.70160000000033
 30
0.0
 11
2102.5
 21
213.2439770436531
 31
0.0
  0
LINE
  5
464
100
AcDbEntity
  8
OBJECT
100
AcDbLine
 10
2127.5
 20
535.70160000000033
 30
0.0
 11
2102.5
 21
535.70160000000033
 31
0.0
  0
LINE
  5
465
100
AcDbEntity
  8
OBJECT
100
AcDbLine
 10
2138.0
 20
275.0
 30
0.0
 11
2140.0
 21
275.0
 31
0.0
  0
LINE
  5
466
100
AcDbEntity
  8
OBJECT
100
AcDbLine
 10
2138.0
 20
0.0
 30
0.0
 11
2138.0
 21
179.57607433725934
 31
0.0
  0
LINE
  5
467
100
AcDbEntity
  8
OBJECT
100
AcDbLine
 10
2138.0
 20
204.56584701689553
 30
0.0
 11
2138.0
 21
275.0
 31
0.0
  0
LINE
  5
468
100
AcDbEntity
  8
OBJECT
100
AcDbLine
 10
2136.0
 20
217.5
 30
0.0
 11
2138.0
 21
217.5
 31
0.0
  0
LINE
  5
469
100
AcDbEntity
  8
OBJECT
100
AcDbLine
 10
2136.0
 20
241.65826745345339
 30
0.0
 11
2136.0
 21
217.5
 31
0.0
  0
LINE
  5
46A
100
AcDbEntity
  8
OBJECT
100
AcDbLine
 10
2134.0
 20
239.0
 30
0.0
 11
2134.0
 21
221.0
 31
0.0
  0
LINE
  5
46B
100
AcDbEntity
  8
OBJECT
100
AcDbLine
 10
2132.5
 20
239.0
 30
0.0
 11
2132.5
 21
221.0
 31
0.0
  0
LINE
  5
46C
100
AcDbEntity
  8
OBJECT
100
AcDbLine
 10
2136.0
 20
221.0
 30
0.0
 11
2134.0
 21
221.0
 31
0.0
  0
LINE
  5
46D
100
AcDbEntity
  8
OBJECT
100
AcDbLine
 10
2127.5
 20
221.0
 30
0.0
 11
2132.5
 21
221.0
 31
0.0
  0
LINE
  5
46E
100
AcDbEntity
  8
OBJECT
100
AcDbLine
 10
2134.0
 20
222.0
 30
0.0
 11
2132.5
 21
222.0
 31
0.0
  0
INSERT
  5
46F
100
AcDbEntity
  8
OBJECT
100
AcDbBlockReference
  2
*U16
 10
1214.1172999999999
 20
429.0
 30
0.0
  0
LINE
  5
470
100
AcDbEntity
  8
OBJECT
100
AcDbLine
 10
2136.0
 20
239.0
 30
0.0
 11
2134.0
 21
239.0
 31
0.0
  0
LINE
  5
471
100
AcDbEntity
  8
OBJECT
100
AcDbLine
 10
2127.5
 20
239.0
 30
0.0
 11
2132.5
 21
239.0
 31
0.0
  0
LINE
  5
472
100
AcDbEntity
  8
OBJECT
100
AcDbLine
 10
2134.0
 20
238.0
 30
0.0
 11
2132.5
 21
238.0
 31
0.0
  0
SPLINE
  5
473
100
AcDbEntity
  8
OBJECT
100
AcDbSpline
210
0.0
220
0.0
230
1.0
 70
               8
 71
               2
 72
              10
 73
               7
 74
               0
 42
0.000001
 43
0.000001
 40
0.0
 40
0.0
 40
0.0
 40
0.4547777859909586
 40
0.4547777859909586
 40
0.8035774133482032
 40
0.8035774133482032
 40
1.0
 40
1.0
 40
1.0
 10
2168.586426298381
 20
200.26791798131035
 30
0.0
 10
2157.573714489462
 20
200.26791798131035
 30
0.0
 10
2148.0364262983812
 20
202.00638025465696
 30
0.0
 10
2138.4991381073
 20
203.74484252800357
 30
0.0
 10
2132.9927822028403
 20
206.75594751248173
 30
0.0
 10
2127.486426298381
 20
209.76705249695988
 30
0.0
 10
2127.486426298381
 20
213.2439770436531
 30
0.0
  0
SPLINE
  5
474
100
AcDbEntity
  8
OBJECT
100
AcDbSpline
210
0.0
220
0.0
230
1.0
 70
               8
 71
               2
 72
              10
 73
               7
 74
               0
 42
0.000001
 43
0.000001
 40
0.0
 40
0.0
 40
0.0
 40
0.4032987358771508
 40
0.4032987358771508
 40
0.7414284095754498
 40
0.7414284095754498
 40
1.0
 40
1.0
 40
1.0
 10
2168.5864262983814
 20
175.26791798131035
 30
0.0
 10
2150.8749846786841
 20
175.26791798131035
 30
0.0
 10
2135.5364262983812
 20
180.3557451600459
 30
0.0
 10
2120.1978679180784
 20
185.44357233878145
 30
0.0
 10
2111.3421471082297
 20
194.25594751248173
 30
0.0
 10
2102.486426298381
 20
203.068322686182
 30
0.0
 10
2102.486426298381
 20
213.2439770436531
 30
0.0
  0
POLYLINE
  5
475
100
AcDbEntity
  8
OBJECT
100
AcDb2dPolyline
 66
               1
 10
0.0
 20
0.0
 30
0.0
 70
               1
 75
               5
  0
VERTEX
  5
476
100
AcDbEntity
  8
OBJECT
100
AcDbVertex
100
AcDb2dVertex
 10
2096.2804999999989
 20
512.49439999999959
 30
0.0
  0
VERTEX
  5
477
100
AcDbEntity
  8
OBJECT
100
AcDbVertex
100
AcDb2dVertex
 10
2096.2804999999989
 20
512.49439999999959
 30
0.0
  0
VERTEX
  5
478
100
AcDbEntity
  8
OBJECT
100
AcDbVertex
100
AcDb2dVertex
 10
2102.5
 20
512.49439999999959
 30
0.0
  0
VERTEX
  5
479
100
AcDbEntity
  8
OBJECT
100
AcDbVertex
100
AcDb2dVertex
 10
2102.5
 20
513.5
 30
0.0
  0
VERTEX
  5
47A
100
AcDbEntity
  8
OBJECT
100
AcDbVertex
100
AcDb2dVertex
 10
2102.5
 20
526.5
 30
0.0
  0
VERTEX
  5
47B
100
AcDbEntity
  8
OBJECT
100
AcDbVertex
100
AcDb2dVertex
 10
2102.5
 20
527.50560000000041
 30
0.0
  0
VERTEX
  5
47C
100
AcDbEntity
  8
OBJECT
100
AcDbVertex
100
AcDb2dVertex
 10
2096.2804999999989
 20
527.50560000000041
 30
0.0
  0
VERTEX
  5
47D
100
AcDbEntity
  8
OBJECT
100
AcDbVertex
100
AcDb2dVertex
 10
2095.6998999999996
 20
526.5
 30
0.0
  0
VERTEX
  5
47E
100
AcDbEntity
  8
OBJECT
100
AcDbVertex
100
AcDb2dVertex
 10
2095.6998999999996
 20
513.5
 30
0.0
  0
SEQEND
  5
47F
100
AcDbEntity
  8
OBJECT
  0
SPLINE
  5
480
100
AcDbEntity
  8
OBJECT
100
AcDbSpline
210
0.0
220
0.0
230
1.0
 70
               8
 71
               2
 72
               6
 73
               3
 74
               0
 42
0.000001
 43
0.000001
 40
0.0
 40
0.0
 40
0.0
 40
1.0
 40
1.0
 40
1.0
 10
2096.2804999999989
 20
527.50560000000041
 30
0.0
 10
2095.1216893004121
 20
525.62919999999872
 30
0.0
 10
2096.2804999999989
 20
523.75279999999975
 30
0.0
  0
SPLINE
  5
481
100
AcDbEntity
  8
OBJECT
100
AcDbSpline
210
0.0
220
0.0
230
1.0
 70
               8
 71
               2
 72
               6
 73
               3
 74
               0
 42
0.000001
 43
0.000001
 40
0.0
 40
0.0
 40
0.0
 40
1.0
 40
1.0
 40
1.0
 10
2096.2804999999989
 20
523.75279999999975
 30
0.0
 10
2095.1216893004121
 20
520.00000000000023
 30
0.0
 10
2096.2804999999989
 20
516.24719999999979
 30
0.0
  0
SPLINE
  5
482
100
AcDbEntity
  8
OBJECT
100
AcDbSpline
210
0.0
220
0.0
230
1.0
 70
               8
 71
               2
 72
               6
 73
               3
 74
               0
 42
0.000001
 43
0.000001
 40
0.0
 40
0.0
 40
0.0
 40
1.0
 40
1.0
 40
1.0
 10
2096.2804999999989
 20
516.24719999999979
 30
0.0
 10
2095.1216893004121
 20
514.37079999999969
 30
0.0
 10
2096.2804999999989
 20
512.49439999999959
 30
0.0
  0
LINE
  5
483
100
AcDbEntity
  8
OBJECT
100
AcDbLine
 10
2096.2804999999989
 20
523.75279999999975
 30
0.0
 11
2102.4804999999997
 21
523.75279999999975
 31
0.0
  0
LINE
  5
484
100
AcDbEntity
  8
OBJECT
100
AcDbLine
 10
2096.2804999999989
 20
516.24719999999979
 30
0.0
 11
2102.4804999999997
 21
516.24719999999979
 31
0.0
  0
POLYLINE
  5
485
100
AcDbEntity
  8
OBJECT
100
AcDb2dPolyline
 66
               1
 10
0.0
 20
0.0
 30
0.0
 70
               1
 75
               5
  0
VERTEX
  5
486
100
AcDbEntity
  8
OBJECT
100
AcDbVertex
100
AcDb2dVertex
 10
2783.7195000000011
 20
270.79439999999977
 30
0.0
  0
VERTEX
  5
487
100
AcDbEntity
  8
OBJECT
100
AcDbVertex
100
AcDb2dVertex
 10
2783.7195000000011
 20
270.79439999999977
 30
0.0
  0
VERTEX
  5
488
100
AcDbEntity
  8
OBJECT
100
AcDbVertex
100
AcDb2dVertex
 10
2777.5
 20
270.79439999999977
 30
0.0
  0
VERTEX
  5
489
100
AcDbEntity
  8
OBJECT
100
AcDbVertex
100
AcDb2dVertex
 10
2777.5
 20
271.79999999999973
 30
0.0
  0
VERTEX
  5
48A
100
AcDbEntity
  8
OBJECT
100
AcDbVertex
100
AcDb2dVertex
 10
2777.5
 20
284.79999999999973
 30
0.0
  0
VERTEX
  5
48B
100
AcDbEntity
  8
OBJECT
100
AcDbVertex
100
AcDb2dVertex
 10
2777.5
 20
285.80559999999969
 30
0.0
  0
VERTEX
  5
48C
100
AcDbEntity
  8
OBJECT
100
AcDbVertex
100
AcDb2dVertex
 10
2783.7195000000011
 20
285.80559999999969
 30
0.0
  0
VERTEX
  5
48D
100
AcDbEntity
  8
OBJECT
100
AcDbVertex
100
AcDb2dVertex
 10
2784.3001000000004
 20
284.79999999999973
 30
0.0
  0
VERTEX
  5
48E
100
AcDbEntity
  8
OBJECT
100
AcDbVertex
100
AcDb2dVertex
 10
2784.3001000000004
 20
271.79999999999973
 30
0.0
  0
SEQEND
  5
48F
100
AcDbEntity
  8
OBJECT
  0
SPLINE
  5
490
100
AcDbEntity
  8
OBJECT
100
AcDbSpline
210
0.0
220
0.0
230
1.0
 70
               8
 71
               2
 72
               6
 73
               3
 74
               0
 42
0.000001
 43
0.000001
 40
0.0
 40
0.0
 40
0.0
 40
1.0
 40
1.0
 40
1.0
 10
2783.7195000000011
 20
285.80559999999969
 30
0.0
 10
2784.8783106995884
 20
283.92919999999958
 30
0.0
 10
2783.7195000000011
 20
282.05279999999948
 30
0.0
  0
SPLINE
  5
491
100
AcDbEntity
  8
OBJECT
100
AcDbSpline
210
0.0
220
0.0
230
1.0
 70
               8
 71
               2
 72
               6
 73
               3
 74
               0
 42
0.000001
 43
0.000001
 40
0.0
 40
0.0
 40
0.0
 40
1.0
 40
1.0
 40
1.0
 10
2783.7195000000011
 20
282.05279999999948
 30
0.0
 10
2784.8783106995884
 20
278.29999999999973
 30
0.0
 10
2783.7195000000011
 20
274.54719999999998
 30
0.0
  0
SPLINE
  5
492
100
AcDbEntity
  8
OBJECT
100
AcDbSpline
210
0.0
220
0.0
230
1.0
 70
               8
 71
               2
 72
               6
 73
               3
 74
               0
 42
0.000001
 43
0.000001
 40
0.0
 40
0.0
 40
0.0
 40
1.0
 40
1.0
 40
1.0
 10
2783.7195000000011
 20
274.54719999999998
 30
0.0
 10
2784.8783106995884
 20
272.67079999999987
 30
0.0
 10
2783.7195000000011
 20
270.79439999999977
 30
0.0
  0
LINE
  5
493
100
AcDbEntity
  8
OBJECT
100
AcDbLine
 10
2783.7195000000011
 20
282.05279999999948
 30
0.0
 11
2777.5195000000003
 21
282.05279999999948
 31
0.0
  0
LINE
  5
494
100
AcDbEntity
  8
OBJECT
100
AcDbLine
 10
2783.7195000000011
 20
274.54719999999998
 30
0.0
 11
2777.5195000000003
 21
274.54719999999998
 31
0.0
  0
POLYLINE
  5
495
100
AcDbEntity
  8
OBJECT
100
AcDb2dPolyline
 66
               1
 10
0.0
 20
0.0
 30
0.0
 75
               5
  0
VERTEX
  5
496
100
AcDbEntity
  8
OBJECT
100
AcDbVertex
100
AcDb2dVertex
 10
2740.0
 20
526.0
 30
0.0
  0
VERTEX
  5
497
100
AcDbEntity
  8
OBJECT
100
AcDbVertex
100
AcDb2dVertex
 10
2752.0
 20
526.0
 30
0.0
  0
VERTEX
  5
498
100
AcDbEntity
  8
OBJECT
100
AcDbVertex
100
AcDb2dVertex
 10
2752.0
 20
514.0
 30
0.0
  0
VERTEX
  5
499
100
AcDbEntity
  8
OBJECT
100
AcDbVertex
100
AcDb2dVertex
 10
2740.0
 20
514.0
 30
0.0
  0
SEQEND
  5
49A
100
AcDbEntity
  8
OBJECT
  0
POLYLINE
  5
49B
100
AcDbEntity
  8
OBJECT
100
AcDb2dPolyline
 66
               1
 10
0.0
 20
0.0
 30
0.0
 75
               5
  0
VERTEX
  5
49C
100
AcDbEntity
  8
OBJECT
100
AcDbVertex
100
AcDb2dVertex
 10
2752.5
 20
525.0
 30
0.0
  0
VERTEX
  5
49D
100
AcDbEntity
  8
OBJECT
100
AcDbVertex
100
AcDb2dVertex
 10
2752.0
 20
525.0
 30
0.0
  0
VERTEX
  5
49E
100
AcDbEntity
  8
OBJECT
100
AcDbVertex
100
AcDb2dVertex
 10
2752.0
 20
515.0
 30
0.0
  0
VERTEX
  5
49F
100
AcDbEntity
  8
OBJECT
100
AcDbVertex
100
AcDb2dVertex
 10
2752.5
 20
515.0
 30
0.0
  0
SEQEND
  5
4A0
100
AcDbEntity
  8
OBJECT
  0
LINE
  5
4A1
100
AcDbEntity
  8
OBJECT
100
AcDbLine
 10
2740.0
 20
540.0
 30
0.0
 11
2730.0
 21
540.0
 31
0.0
  0
LINE
  5
4A2
100
AcDbEntity
  8
OBJECT
100
AcDbLine
 10
2740.0
 20
203.91841082392784
 30
0.0
 11
2740.0
 21
540.0
 31
0.0
  0
LINE
  5
4A3
100
AcDbEntity
  8
OBJECT
100
AcDbLine
 10
2733.0
 20
540.0
 30
0.0
 11
2733.0
 21
202.20661921536112
 31
0.0
  0
LINE
  5
4A4
100
AcDbEntity
  8
OBJECT
100
AcDbLine
 10
2730.0
 20
565.0
 30
0.0
 11
2730.0
 21
201.67349224788632
 31
0.0
  0
LINE
  5
4A5
100
AcDbEntity
  8
OBJECT
100
AcDbLine
 10
2730.0
 20
176.78103734972319
 30
0.0
 11
2730.0
 21
0.0
 31
0.0
  0
LINE
  5
4A6
100
AcDbEntity
  8
OBJECT
100
AcDbLine
 10
2740.0
 20
0.0
 30
0.0
 11
2740.0
 21
179.00447894012541
 31
0.0
  0
LINE
  5
4A7
100
AcDbEntity
  8
OBJECT
100
AcDbLine
 10
2733.0
 20
177.33469872849855
 30
0.0
 11
2733.0
 21
45.0
 31
0.0
  0
LINE
  5
4A8
100
AcDbEntity
  8
OBJECT
100
AcDbLine
 10
2752.486426298381
 20
213.2439770436531
 30
0.0
 11
2752.5
 21
535.70160000000033
 31
0.0
  0
LINE
  5
4A9
100
AcDbEntity
  8
OBJECT
100
AcDbLine
 10
2777.5
 20
535.70160000000033
 30
0.0
 11
2777.5
 21
213.2439770436531
 31
0.0
  0
LINE
  5
4AA
100
AcDbEntity
  8
OBJECT
100
AcDbLine
 10
2752.5
 20
535.70160000000033
 30
0.0
 11
2777.5
 21
535.70160000000033
 31
0.0
  0
LINE
  5
4AB
100
AcDbEntity
  8
OBJECT
100
AcDbLine
 10
2742.0
 20
0.0
 30
0.0
 11
2742.0
 21
179.58410619642382
 31
0.0
  0
INSERT
  5
4AC
100
AcDbEntity
  8
OBJECT
100
AcDbBlockReference
  2
*U17
 10
1214.1172999999999
 20
429.0
 30
0.0
  0
SPLINE
  5
4AD
100
AcDbEntity
  8
OBJECT
100
AcDbSpline
210
0.0
220
0.0
230
1.0
 70
               8
 71
               2
 72
              10
 73
               7
 74
               0
 42
0.000001
 43
0.000001
 40
0.0
 40
0.0
 40
0.0
 40
0.4547777859909579
 40
0.4547777859909579
 40
0.803577413348206
 40
0.803577413348206
 40
1.0
 40
1.0
 40
1.0
 10
2711.3864262983816
 20
200.26791798131035
 30
0.0
 10
2722.3991381073001
 20
200.26791798131035
 30
0.0
 10
2731.9364262983818
 20
202.00638025465696
 30
0.0
 10
2741.4737144894625
 20
203.74484252800357
 30
0.0
 10
2746.9800703939218
 20
206.75594751248173
 30
0.0
 10
2752.486426298381
 20
209.76705249695988
 30
0.0
 10
2752.486426298381
 20
213.2439770436531
 30
0.0
  0
SPLINE
  5
4AE
100
AcDbEntity
  8
OBJECT
100
AcDbSpline
210
0.0
220
0.0
230
1.0
 70
               8
 71
               2
 72
              10
 73
               7
 74
               0
 42
0.000001
 43
0.000001
 40
0.0
 40
0.0
 40
0.0
 40
0.4032987358771507
 40
0.4032987358771507
 40
0.7414284095754495
 40
0.7414284095754495
 40
1.0
 40
1.0
 40
1.0
 10
2711.3864262983807
 20
175.26791798131035
 30
0.0
 10
2729.097867918078
 20
175.26791798131035
 30
0.0
 10
2744.4364262983809
 20
180.3557451600459
 30
0.0
 10
2759.7749846786837
 20
185.44357233878145
 30
0.0
 10
2768.6307054885328
 20
194.25594751248173
 30
0.0
 10
2777.486426298381
 20
203.068322686182
 30
0.0
 10
2777.486426298381
 20
213.2439770436531
 30
0.0
  0
POLYLINE
  5
4AF
100
AcDbEntity
  8
OBJECT
100
AcDb2dPolyline
 66
               1
 10
0.0
 20
0.0
 30
0.0
 70
               1
 75
               5
  0
VERTEX
  5
4B0
100
AcDbEntity
  8
OBJECT
100
AcDbVertex
100
AcDb2dVertex
 10
2783.7195000000011
 20
512.49439999999959
 30
0.0
  0
VERTEX
  5
4B1
100
AcDbEntity
  8
OBJECT
100
AcDbVertex
100
AcDb2dVertex
 10
2783.7195000000011
 20
512.49439999999959
 30
0.0
  0
VERTEX
  5
4B2
100
AcDbEntity
  8
OBJECT
100
AcDbVertex
100
AcDb2dVertex
 10
2777.5
 20
512.49439999999959
 30
0.0
  0
VERTEX
  5
4B3
100
AcDbEntity
  8
OBJECT
100
AcDbVertex
100
AcDb2dVertex
 10
2777.5
 20
513.5
 30
0.0
  0
VERTEX
  5
4B4
100
AcDbEntity
  8
OBJECT
100
AcDbVertex
100
AcDb2dVertex
 10
2777.5
 20
526.5
 30
0.0
  0
VERTEX
  5
4B5
100
AcDbEntity
  8
OBJECT
100
AcDbVertex
100
AcDb2dVertex
 10
2777.5
 20
527.50560000000041
 30
0.0
  0
VERTEX
  5
4B6
100
AcDbEntity
  8
OBJECT
100
AcDbVertex
100
AcDb2dVertex
 10
2783.7195000000011
 20
527.50560000000041
 30
0.0
  0
VERTEX
  5
4B7
100
AcDbEntity
  8
OBJECT
100
AcDbVertex
100
AcDb2dVertex
 10
2784.3001000000004
 20
526.5
 30
0.0
  0
VERTEX
  5
4B8
100
AcDbEntity
  8
OBJECT
100
AcDbVertex
100
AcDb2dVertex
 10
2784.3001000000004
 20
513.5
 30
0.0
  0
SEQEND
  5
4B9
100
AcDbEntity
  8
OBJECT
  0
SPLINE
  5
4BA
100
AcDbEntity
  8
OBJECT
100
AcDbSpline
210
0.0
220
0.0
230
1.0
 70
               8
 71
               2
 72
               6
 73
               3
 74
               0
 42
0.000001
 43
0.000001
 40
0.0
 40
0.0
 40
0.0
 40
1.0
 40
1.0
 40
1.0
 10
2783.7195000000011
 20
527.50560000000041
 30
0.0
 10
2784.8783106995884
 20
525.62919999999872
 30
0.0
 10
2783.7195000000011
 20
523.75279999999975
 30
0.0
  0
SPLINE
  5
4BB
100
AcDbEntity
  8
OBJECT
100
AcDbSpline
210
0.0
220
0.0
230
1.0
 70
               8
 71
               2
 72
               6
 73
               3
 74
               0
 42
0.000001
 43
0.000001
 40
0.0
 40
0.0
 40
0.0
 40
1.0
 40
1.0
 40
1.0
 10
2783.7195000000011
 20
523.75279999999975
 30
0.0
 10
2784.8783106995884
 20
520.00000000000023
 30
0.0
 10
2783.7195000000011
 20
516.24719999999979
 30
0.0
  0
SPLINE
  5
4BC
100
AcDbEntity
  8
OBJECT
100
AcDbSpline
210
0.0
220
0.0
230
1.0
 70
               8
 71
               2
 72
               6
 73
               3
 74
               0
 42
0.000001
 43
0.000001
 40
0.0
 40
0.0
 40
0.0
 40
1.0
 40
1.0
 40
1.0
 10
2783.7195000000011
 20
516.24719999999979
 30
0.0
 10
2784.8783106995884
 20
514.37079999999969
 30
0.0
 10
2783.7195000000011
 20
512.49439999999959
 30
0.0
  0
LINE
  5
4BD
100
AcDbEntity
  8
OBJECT
100
AcDbLine
 10
2783.7195000000011
 20
523.75279999999975
 30
0.0
 11
2777.5195000000003
 21
523.75279999999975
 31
0.0
  0
LINE
  5
4BE
100
AcDbEntity
  8
OBJECT
100
AcDbLine
 10
2783.7195000000011
 20
516.24719999999979
 30
0.0
 11
2777.5195000000003
 21
516.24719999999979
 31
0.0
  0
LINE
  5
4BF
100
AcDbEntity
  8
OBJECT
100
AcDbLine
 10
2742.0
 20
275.0
 30
0.0
 11
2740.0
 21
275.0
 31
0.0
  0
LINE
  5
4C0
100
AcDbEntity
  8
OBJECT
100
AcDbLine
 10
2742.0
 20
204.57537711484019
 30
0.0
 11
2742.0
 21
275.0
 31
0.0
  0
LINE
  5
4C1
100
AcDbEntity
  8
OBJECT
100
AcDbLine
 10
2744.0
 20
217.5
 30
0.0
 11
2742.0
 21
217.5
 31
0.0
  0
LINE
  5
4C2
100
AcDbEntity
  8
OBJECT
100
AcDbLine
 10
2744.0
 20
241.65826745345339
 30
0.0
 11
2744.0
 21
217.5
 31
0.0
  0
LINE
  5
4C3
100
AcDbEntity
  8
OBJECT
100
AcDbLine
 10
2746.0
 20
239.0
 30
0.0
 11
2746.0
 21
221.0
 31
0.0
  0
LINE
  5
4C4
100
AcDbEntity
  8
OBJECT
100
AcDbLine
 10
2747.5
 20
239.0
 30
0.0
 11
2747.5
 21
221.0
 31
0.0
  0
LINE
  5
4C5
100
AcDbEntity
  8
OBJECT
100
AcDbLine
 10
2744.0
 20
221.0
 30
0.0
 11
2746.0
 21
221.0
 31
0.0
  0
LINE
  5
4C6
100
AcDbEntity
  8
OBJECT
100
AcDbLine
 10
2752.5
 20
221.0
 30
0.0
 11
2747.5
 21
221.0
 31
0.0
  0
LINE
  5
4C7
100
AcDbEntity
  8
OBJECT
100
AcDbLine
 10
2746.0
 20
222.0
 30
0.0
 11
2747.5
 21
222.0
 31
0.0
  0
LINE
  5
4C8
100
AcDbEntity
  8
OBJECT
100
AcDbLine
 10
2744.0
 20
239.0
 30
0.0
 11
2746.0
 21
239.0
 31
0.0
  0
LINE
  5
4C9
100
AcDbEntity
  8
OBJECT
100
AcDbLine
 10
2752.5
 20
239.0
 30
0.0
 11
2747.5
 21
239.0
 31
0.0
  0
LINE
  5
4CA
100
AcDbEntity
  8
OBJECT
100
AcDbLine
 10
2746.0
 20
238.0
 30
0.0
 11
2747.5
 21
238.0
 31
0.0
  0
LINE
  5
4CB
100
AcDbEntity
  8
OBJECT
100
AcDbLine
 10
2744.0
 20
241.65826745345339
 30
0.0
 11
2742.0
 21
241.65826745345339
 31
0.0
  0
LINE
  5
4CC
100
AcDbEntity
  8
OBJECT
100
AcDbLine
 10
2136.0
 20
241.65826745345339
 30
0.0
 11
2138.0
 21
241.65826745345339
 31
0.0
  0
LINE
  5
4CD
100
AcDbEntity
  8
OBJECT
100
AcDbLine
 10
2965.0
 20
-800.0
 30
0.0
 11
1691.0358237726939
 21
-800.0
 31
0.0
  0
LINE
  5
4CE
100
AcDbEntity
  8
OBJECT
100
AcDbLine
 10
2189.0
 20
-760.0
 30
0.0
 11
2151.0
 21
-760.0
 31
0.0
  0
INSERT
  5
4CF
100
AcDbEntity
  8
OBJECT
100
AcDbBlockReference
  2
*U19
 10
1214.1172999999999
 20
429.0
 30
0.0
  0
LINE
  5
4D0
100
AcDbEntity
  8
OBJECT
100
AcDbLine
 10
2729.0
 20
-760.0
 30
0.0
 11
2691.0
 21
-760.0
 31
0.0
  0
INSERT
  5
4D1
100
AcDbEntity
  8
OBJECT
100
AcDbBlockReference
  2
*U21
 10
1214.1172999999999
 20
429.0
 30
0.0
  0
LINE
  5
4D2
100
AcDbEntity
  8
FRAME
  6
CONTINUOUS
100
AcDbLine
 10
-800.0
 20
-980.0
 30
0.0
 11
-800.0
 21
1780.0
 31
0.0
  0
LINE
  5
4D3
100
AcDbEntity
  8
FRAME
  6
CONTINUOUS
100
AcDbLine
 10
3250.0
 20
-980.0
 30
0.0
 11
-800.0
 21
-980.0
 31
0.0
  0
LINE
  5
4D4
100
AcDbEntity
  8
FRAME
  6
CONTINUOUS
100
AcDbLine
 10
3250.0
 20
1780.0
 30
0.0
 11
3250.0
 21
-980.0
 31
0.0
  0
LINE
  5
4D5
100
AcDbEntity
  8
FRAME
  6
CONTINUOUS
100
AcDbLine
 10
-800.0
 20
1780.0
 30
0.0
 11
3250.0
 21
1780.0
 31
0.0
  0
LINE
  5
4D6
100
AcDbEntity
  8
FRAME
  6
CONTINUOUS
100
AcDbLine
 10
2489.7599999999998
 20
-980.0
 30
0.0
 11
2489.7599999999998
 21
-840.0
 31
0.0
  0
LINE
  5
4D7
100
AcDbEntity
  8
FRAME
  6
CONTINUOUS
100
AcDbLine
 10
2269.7599999999998
 20
-980.0
 30
0.0
 11
2269.7599999999998
 21
-840.0
 31
0.0
  0
LINE
  5
4D8
100
AcDbEntity
  8
FRAME
  6
CONTINUOUS
100
AcDbLine
 10
1669.76
 20
-980.0
 30
0.0
 11
1669.76
 21
-840.0
 31
0.0
  0
LINE
  5
4D9
100
AcDbEntity
  8
FRAME
  6
CONTINUOUS
100
AcDbLine
 10
550.00000000000011
 20
-980.0
 30
0.0
 11
550.00000000000011
 21
-840.0
 31
0.0
  0
LINE
  5
4DA
100
AcDbEntity
  8
FRAME
  6
CONTINUOUS
100
AcDbLine
 10
130.0
 20
-980.0
 30
0.0
 11
130.0
 21
-840.0
 31
0.0
  0
LINE
  5
4DB
100
AcDbEntity
  8
FRAME
  6
CONTINUOUS
100
AcDbLine
 10
-800.0
 20
-840.0
 30
0.0
 11
3250.0
 21
-840.0
 31
0.0
  0
LINE
  5
4DC
100
AcDbEntity
  8
FRAME
  6
CONTINUOUS
100
AcDbLine
 10
130.0
 20
-888.94000000000051
 30
0.0
 11
550.00000000000011
 21
-888.94000000000051
 31
0.0
  0
LINE
  5
4DD
100
AcDbEntity
  8
FRAME
  6
CONTINUOUS
100
AcDbLine
 10
130.0
 20
-933.32999999999993
 30
0.0
 11
550.00000000000011
 21
-933.32999999999993
 31
0.0
  0
INSERT
  5
4DE
100
AcDbEntity
  8
FRAME
100
AcDbBlockReference
  2
*U27
 10
1214.1172999999999
 20
429.0
 30
0.0
  0
LINE
  5
4DF
100
AcDbEntity
  8
OBJECT
100
AcDbLine
 10
2848.0
 20
-645.0
 30
0.0
 11
2730.5
 21
-645.0
 31
0.0
  0
LINE
  5
4E0
100
AcDbEntity
  8
OBJECT
100
AcDbLine
 10
2730.5
 20
-635.0
 30
0.0
 11
2848.0
 21
-635.0
 31
0.0
  0
INSERT
  5
4E1
100
AcDbEntity
  8
OBJECT
100
AcDbBlockReference
  2
*U30
 10
1214.1172999999999
 20
429.0
 30
0.0
  0
LINE
  5
4E2
100
AcDbEntity
  8
OBJECT
100
AcDbLine
 10
2908.0
 20
-585.0
 30
0.0
 11
2908.0
 21
-533.0
 31
0.0
  0
LINE
  5
4E3
100
AcDbEntity
  8
OBJECT
100
AcDbLine
 10
2898.0
 20
-533.0
 30
0.0
 11
2898.0
 21
-585.0
 31
0.0
  0
ARC
  5
4E4
100
AcDbEntity
  8
OBJECT
100
AcDbCircle
 10
2848.0
 20
-585.0
 30
0.0
 40
50.0
100
AcDbArc
 50
270.0
 51
0.0
  0
ARC
  5
4E5
100
AcDbEntity
  8
OBJECT
100
AcDbCircle
 10
2848.0
 20
-585.0
 30
0.0
 40
60.0
100
AcDbArc
 50
270.0
 51
0.0
  0
LINE
  5
4E6
100
AcDbEntity
  8
OBJECT
100
AcDbLine
 10
2904.0
 20
-533.0
 30
0.0
 11
2904.0
 21
-518.0
 31
0.0
  0
LINE
  5
4E7
100
AcDbEntity
  8
OBJECT
100
AcDbLine
 10
2906.0
 20
-533.0
 30
0.0
 11
2906.0
 21
-518.0
 31
0.0
  0
LINE
  5
4E8
100
AcDbEntity
  8
OBJECT
100
AcDbLine
 10
2900.0
 20
-533.0
 30
0.0
 11
2900.0
 21
-518.0
 31
0.0
  0
LINE
  5
4E9
100
AcDbEntity
  8
OBJECT
100
AcDbLine
 10
2902.0
 20
-533.0
 30
0.0
 11
2902.0
 21
-518.0
 31
0.0
  0
LINE
  5
4EA
100
AcDbEntity
  8
OBJECT
100
AcDbLine
 10
2908.0
 20
-533.0
 30
0.0
 11
2898.0
 21
-533.0
 31
0.0
  0
LINE
  5
4EB
100
AcDbEntity
  8
OBJECT
100
AcDbLine
 10
2907.0
 20
-533.0
 30
0.0
 11
2913.8000000000002
 21
-517.40000000000009
 31
0.0
  0
INSERT
  5
4EC
100
AcDbEntity
  8
OBJECT
100
AcDbBlockReference
  2
*U43
 10
1214.1172999999999
 20
429.0
 30
0.0
  0
POINT
  5
4ED
100
AcDbEntity
  8
HIDDEN
  6
CONTINUOUS
100
AcDbPoint
 10
2440.0
 20
-0.0000000000002274
 30
0.0
  0
MTEXT
  5
4EE
100
AcDbEntity
  8
TEXT
100
AcDbMText
 10
-708.65763090230462
 20
1147.4528758455617
 30
0.0
 40
33.866666666666667
 41
0.0
 71
               1
 72
               1
  1
※洗剤，リンス剤及び供給装置については、\P　　洗剤メーカーにご相談ください。
  7
________
  0
MTEXT
  5
4EF
100
AcDbEntity
  8
TEXT
100
AcDbMText
 10
-710.0
 20
-672.13892222222194
 30
0.0
 40
33.866666666666667
 41
0.0
 71
               1
 72
               1
  1
注）指示なき寸法公差は±5とする
  7
________
  0
MTEXT
  5
4F0
100
AcDbEntity
  8
TEXT
100
AcDbMText
 10
-710.0
 20
-526.22222222222217
 30
0.0
 40
33.866666666666667
 41
0.0
 71
               1
 72
               1
  1
注）アジャスト調整範囲：\P　　基準高さ（800）に対して-30，+60
  7
________
  0
LINE
  5
4F1
100
AcDbEntity
  8
CENTER
100
AcDbLine
 10
2369.9999999937195
 20
-561.50000000000023
 30
0.0
 11
2369.9999999937195
 21
-641.50000000000023
 31
0.0
  0
POINT
  5
4F2
100
AcDbEntity
  8
CENTER
  6
CONTINUOUS
100
AcDbPoint
 10
2439.9999999937195
 20
-580.00000000000023
 30
0.0
  0
LINE
  5
4F3
100
AcDbEntity
  8
CENTER
100
AcDbLine
 10
2399.9999999937195
 20
-560.00000000000023
 30
0.0
 11
2399.9999999937195
 21
-620.00000000000023
 31
0.0
  0
LINE
  5
4F4
100
AcDbEntity
  8
OBJECT
100
AcDbLine
 10
2344.999999993719
 20
-595.93020000000092
 30
0.0
 11
2344.999999993719
 21
-580.00000000000023
 31
0.0
  0
LINE
  5
4F5
100
AcDbEntity
  8
OBJECT
100
AcDbLine
 10
2346.999999993719
 20
-620.00000000000023
 30
0.0
 11
2344.999999993719
 21
-595.93020000000092
 31
0.0
  0
LINE
  5
4F6
100
AcDbEntity
  8
OBJECT
100
AcDbLine
 10
2392.9999999937195
 20
-620.00000000000023
 30
0.0
 11
2346.999999993719
 21
-620.00000000000023
 31
0.0
  0
LINE
  5
4F7
100
AcDbEntity
  8
OBJECT
100
AcDbLine
 10
2393.8309167441703
 20
-610.00000000000023
 30
0.0
 11
2392.9999999937195
 21
-620.00000000000023
 31
0.0
  0
LINE
  5
4F8
100
AcDbEntity
  8
OBJECT
100
AcDbLine
 10
2344.999999993719
 20
-595.93020000000092
 30
0.0
 11
2389.1206374937196
 21
-595.93020000000092
 31
0.0
  0
LINE
  5
4F9
100
AcDbEntity
  8
OBJECT
100
AcDbLine
 10
2351.999999993719
 20
-620.00000000000023
 30
0.0
 11
2349.999999993719
 21
-595.93020000000092
 31
0.0
  0
LINE
  5
4FA
100
AcDbEntity
  8
OBJECT
100
AcDbLine
 10
2387.9999999937195
 20
-620.00000000000023
 30
0.0
 11
2389.4981326783372
 21
-601.97012295388981
 31
0.0
  0
INSERT
  5
4FB
100
AcDbEntity
  8
OBJECT
100
AcDbBlockReference
  2
*U44
 10
1214.1172999999999
 20
429.0
 30
0.0
  0
MTEXT
  5
4FC
100
AcDbEntity
  8
TEXT
100
AcDbMText
 10
2664.5
 20
-871.66666666666652
 30
0.0
 40
67.733333333333334
 41
0.0
 71
               1
 72
               1
  1
A301-317A
  7
________
  0
INSERT
  5
4FD
100
AcDbEntity
  8
CENTER
100
AcDbBlockReference
  2
*U45
 10
1214.1172999999999
 20
429.0
 30
0.0
  0
LINE
  5
4FE
100
AcDbEntity
  8
OBJECT
100
AcDbLine
 10
1299.8827000000001
 20
-800.0
 30
0.0
 11
66.0
 21
-800.0
 31
0.0
  0
POLYLINE
  5
4FF
100
AcDbEntity
  8
OBJECT
100
AcDb2dPolyline
 66
               1
 10
0.0
 20
0.0
 30
0.0
 70
               1
 75
               5
  0
VERTEX
  5
500
100
AcDbEntity
  8
OBJECT
100
AcDbVertex
100
AcDb2dVertex
 10
893.0
 20
-160.0
 30
0.0
  0
VERTEX
  5
501
100
AcDbEntity
  8
OBJECT
100
AcDbVertex
100
AcDb2dVertex
 10
891.0
 20
-160.0
 30
0.0
  0
VERTEX
  5
502
100
AcDbEntity
  8
OBJECT
100
AcDbVertex
100
AcDb2dVertex
 10
888.0
 20
-160.0
 30
0.0
  0
VERTEX
  5
503
100
AcDbEntity
  8
OBJECT
100
AcDbVertex
100
AcDb2dVertex
 10
888.0
 20
-162.0
 30
0.0
  0
VERTEX
  5
504
100
AcDbEntity
  8
OBJECT
100
AcDbVertex
100
AcDb2dVertex
 10
891.0
 20
-162.0
 30
0.0
  0
VERTEX
  5
505
100
AcDbEntity
  8
OBJECT
100
AcDbVertex
100
AcDb2dVertex
 10
891.0
 20
-170.0
 30
0.0
  0
VERTEX
  5
506
100
AcDbEntity
  8
OBJECT
100
AcDbVertex
100
AcDb2dVertex
 10
893.0
 20
-170.0
 30
0.0
  0
SEQEND
  5
507
100
AcDbEntity
  8
OBJECT
  0
LWPOLYLINE
  5
508
100
AcDbEntity
  8
OBJECT
100
AcDbPolyline
 90
        6
 70
             129
 10
888.0
 20
-162.0
 10
885.0
 20
-162.0
 42
0.414213562373095
 10
882.0
 20
-165.0
 10
882.0
 20
-576.99999999999989
 42
0.414213562373095
 10
885.0
 20
-579.99999999999989
 10
888.0
 20
-579.99999999999989
  0
LINE
  5
509
100
AcDbEntity
  8
OBJECT
100
AcDbLine
 10
893.0
 20
-160.0
 30
0.0
 11
828.0
 21
-160.0
 31
0.0
  0
LINE
  5
50A
100
AcDbEntity
  8
OBJECT
100
AcDbLine
 10
893.0
 20
-5.0
 30
0.0
 11
893.0
 21
-160.0
 31
0.0
  0
LINE
  5
50B
100
AcDbEntity
  8
OBJECT
100
AcDbLine
 10
888.0
 20
-579.99999999999989
 30
0.0
 11
348.0
 21
-579.99999999999989
 31
0.0
  0
INSERT
  5
50C
100
AcDbEntity
  8
OBJECT
100
AcDbBlockReference
  2
*U46
 10
1214.1172999999999
 20
429.0
 30
0.0
  0
LINE
  5
50D
100
AcDbEntity
  8
OBJECT
100
AcDbLine
 10
288.0
 20
-439.99999999999989
 30
0.0
 11
288.0
 21
-249.99999999999955
 31
0.0
  0
LINE
  5
50E
100
AcDbEntity
  8
OBJECT
100
AcDbLine
 10
288.0
 20
-164.37928102276294
 30
0.0
 11
288.0
 21
-5.0
 31
0.0
  0
DIMENSION
  5
50F
100
AcDbEntity
  8
DIMENTION
100
AcDbDimension
  2
*D47
 10
1165.0
 20
0.0
 30
0.0
 11
1166.0
 21
-400.00000000000011
 31
0.0
 70
             128
  3
CAD
100
AcDbAlignedDimension
 13
893.88270000000011
 23
-800.0
 33
0.0
 14
905.0
 24
0.0
 34
0.0
 50
90.0
100
AcDbRotatedDimension
1001
ACAD
1000
DSTYLE
1002
{
1070
             271
1070
               0
1070
             340
1005
63
1070
               3
1000
<>（基準高さ
1070
             147
1040
0.9999999999999999
1002
}
  0
DIMENSION
  5
510
100
AcDbEntity
  8
DIMENTION
100
AcDbDimension
  2
*D48
 10
1226.0
 20
-800.0
 30
0.0
 11
1227.0
 21
-117.0001220703125
 31
0.0
 70
             128
  3
CAD
100
AcDbAlignedDimension
 13
595.0
 23
565.0
 33
0.0
 14
1099.0
 24
-800.0
 34
0.0
 50
90.0
100
AcDbRotatedDimension
1001
ACAD
1000
DSTYLE
1002
{
1070
             271
1070
               0
1070
             340
1005
63
1070
             147
1040
0.9999999999999999
1002
}
  0
LINE
  5
511
100
AcDbEntity
  8
OBJECT
100
AcDbLine
 10
348.0
 20
-579.99999999999989
 30
0.0
 11
348.0
 21
-500.0
 31
0.0
  0
LINE
  5
512
100
AcDbEntity
  8
OBJECT
100
AcDbLine
 10
328.0
 20
-439.99999999999989
 30
0.0
 11
288.0
 21
-439.99999999999989
 31
0.0
  0
LINE
  5
513
100
AcDbEntity
  8
OBJECT
100
AcDbLine
 10
288.0
 20
-466.99999999999989
 30
0.0
 11
328.0
 21
-466.99999999999989
 31
0.0
  0
LINE
  5
514
100
AcDbEntity
  8
OBJECT
100
AcDbLine
 10
288.0
 20
-452.99999999999989
 30
0.0
 11
328.0
 21
-452.99999999999989
 31
0.0
  0
LINE
  5
515
100
AcDbEntity
  8
OBJECT
100
AcDbLine
 10
261.0
 20
5.0
 30
0.0
 11
261.0
 21
-439.99999999999989
 31
0.0
  0
LINE
  5
516
100
AcDbEntity
  8
OBJECT
100
AcDbLine
 10
275.0
 20
5.0
 30
0.0
 11
275.0
 21
-178.34166776344614
 31
0.0
  0
LINE
  5
517
100
AcDbEntity
  8
OBJECT
100
AcDbLine
 10
275.0
 20
-249.99999999999955
 30
0.0
 11
275.0
 21
-439.99999999999989
 31
0.0
  0
ARC
  5
518
100
AcDbEntity
  8
OBJECT
100
AcDbCircle
 10
288.0
 20
-439.99999999999989
 30
0.0
 40
13.0
100
AcDbArc
 50
180.0
 51
270.0
  0
ARC
  5
519
100
AcDbEntity
  8
OBJECT
100
AcDbCircle
 10
288.0
 20
-439.99999999999989
 30
0.0
 40
27.0
100
AcDbArc
 50
180.0
 51
270.0
  0
LINE
  5
51A
100
AcDbEntity
  8
OBJECT
100
AcDbLine
 10
888.0
 20
-160.0
 30
0.0
 11
888.0
 21
-579.99999999999989
 31
0.0
  0
LINE
  5
51B
100
AcDbEntity
  8
OBJECT
100
AcDbLine
 10
397.0
 20
-760.0
 30
0.0
 11
359.0
 21
-760.0
 31
0.0
  0
LINE
  5
51C
100
AcDbEntity
  8
OBJECT
100
AcDbLine
 10
275.0
 20
-255.99999999999989
 30
0.0
 11
275.0
 21
-409.99999999999989
 31
0.0
  0
LINE
  5
51D
100
AcDbEntity
  8
DIMENTION
100
AcDbLine
 10
111.0
 20
-383.99999999999989
 30
0.0
 11
-169.0
 21
-383.99999999999989
 31
0.0
  0
LINE
  5
51E
100
AcDbEntity
  8
DIMENTION
100
AcDbLine
 10
111.0
 20
-383.99999999999989
 30
0.0
 11
280.02320452562981
 21
-249.99999999999955
 31
0.0
  0
LINE
  5
51F
100
AcDbEntity
  8
DIMENTION
100
AcDbLine
 10
280.02320452562981
 20
-249.99999999999955
 30
0.0
 11
260.24153344381807
 21
-276.25116417211598
 31
0.0
  0
LINE
  5
520
100
AcDbEntity
  8
DIMENTION
100
AcDbLine
 10
280.02320452562981
 20
-249.99999999999955
 30
0.0
 11
249.76619275341466
 21
-262.84333951106237
 31
0.0
  0
MTEXT
  5
521
100
AcDbEntity
  8
DIMENTION
100
AcDbMText
 10
-169.93144444444442
 20
-339.05009999999993
 30
0.0
 40
33.866666666666667
 41
0.0
 71
               1
 72
               1
  1
オーバーフロー
  7
________
  0
INSERT
  5
522
100
AcDbEntity
  8
OBJECT
100
AcDbBlockReference
  2
*U49
 10
1214.1172999999999
 20
429.0
 30
0.0
  0
INSERT
  5
523
100
AcDbEntity
  8
OBJECT
100
AcDbBlockReference
  2
*U50
 10
1214.1172999999999
 20
429.0
 30
0.0
  0
LINE
  5
524
100
AcDbEntity
  8
OBJECT
100
AcDbLine
 10
877.0
 20
-760.0
 30
0.0
 11
839.0
 21
-760.0
 31
0.0
  0
INSERT
  5
525
100
AcDbEntity
  8
OBJECT
100
AcDbBlockReference
  2
*U51
 10
1214.1172999999999
 20
429.0
 30
0.0
  0
POINT
  5
526
100
AcDbEntity
  8
OBJECT
  6
CONTINUOUS
100
AcDbPoint
 10
288.0
 20
-439.99999999999989
 30
0.0
  0
POINT
  5
527
100
AcDbEntity
  8
CENTER
  6
CONTINUOUS
100
AcDbPoint
 10
328.0
 20
-500.0
 30
0.0
  0
LINE
  5
528
100
AcDbEntity
  8
OBJECT
100
AcDbLine
 10
728.0
 20
-187.19274881007323
 30
0.0
 11
761.5
 21
-174.99974596215543
 31
0.0
  0
LINE
  5
529
100
AcDbEntity
  8
OBJECT
100
AcDbLine
 10
761.5
 20
-174.99974596215543
 30
0.0
 11
761.5
 21
-168.70020753820927
 31
0.0
  0
LINE
  5
52A
100
AcDbEntity
  8
OBJECT
100
AcDbLine
 10
728.0
 20
-187.91910702802261
 30
0.0
 11
728.0
 21
-187.19274881007323
 31
0.0
  0
LINE
  5
52B
100
AcDbEntity
  8
OBJECT
100
AcDbLine
 10
701.10000000000036
 20
-510.0
 30
0.0
 11
714.89999999999964
 21
-510.0
 31
0.0
  0
CIRCLE
  5
52C
100
AcDbEntity
  8
OBJECT
100
AcDbCircle
 10
708.0
 20
-199.99999999999955
 30
0.0
 40
7.0
  0
SPLINE
  5
52D
100
AcDbEntity
  8
OBJECT
100
AcDbSpline
210
0.0
220
0.0
230
1.0
 70
               8
 71
               2
 72
              10
 73
               7
 74
               0
 42
0.000001
 43
0.000001
 40
0.0
 40
0.0
 40
0.0
 40
0.0131184557542371
 40
0.0131184557542371
 40
0.986881544245763
 40
0.986881544245763
 40
1.0
 40
1.0
 40
1.0
 10
708.75
 20
-203.08068597791362
 30
0.0
 10
708.7401682020909
 20
-203.0811932985323
 30
0.0
 10
708.7303364041818
 20
-203.08170061915098
 30
0.0
 10
707.99954646486367
 20
-203.11731722781906
 30
0.0
 10
707.2696635958182
 20
-203.08170061915098
 30
0.0
 10
707.2598317979091
 20
-203.0811932985323
 30
0.0
 10
707.25
 20
-203.08068597791362
 30
0.0
  0
LINE
  5
52E
100
AcDbEntity
  8
OBJECT
100
AcDbLine
 10
707.25
 20
-200.74999999999955
 30
0.0
 11
704.91931402208684
 21
-200.74999999999955
 31
0.0
  0
SPLINE
  5
52F
100
AcDbEntity
  8
OBJECT
100
AcDbSpline
210
0.0
220
0.0
230
1.0
 70
               8
 71
               2
 72
              10
 73
               7
 74
               0
 42
0.000001
 43
0.000001
 40
0.0
 40
0.0
 40
0.0
 40
0.0131184557419237
 40
0.0131184557419237
 40
0.9868815442580762
 40
0.9868815442580762
 40
1.0
 40
1.0
 40
1.0
 10
704.91931402208684
 20
-200.74999999999955
 30
0.0
 10
704.91880670146793
 20
-200.74016820209067
 30
0.0
 10
704.91829938084902
 20
-200.7303364041818
 30
0.0
 10
704.8826827438952
 20
-199.99954772939191
 30
0.0
 10
704.91829938084902
 20
-199.26966359581729
 30
0.0
 10
704.91880670146793
 20
-199.25983179790842
 30
0.0
 10
704.91931402208684
 20
-199.24999999999955
 30
0.0
  0
LINE
  5
530
100
AcDbEntity
  8
OBJECT
100
AcDbLine
 10
707.25
 20
-199.24999999999955
 30
0.0
 11
704.91931402208684
 21
-199.24999999999955
 31
0.0
  0
LINE
  5
531
100
AcDbEntity
  8
OBJECT
100
AcDbLine
 10
707.25
 20
-199.24999999999955
 30
0.0
 11
707.25
 21
-196.91931402208547
 31
0.0
  0
SPLINE
  5
532
100
AcDbEntity
  8
OBJECT
100
AcDbSpline
210
0.0
220
0.0
230
1.0
 70
               8
 71
               2
 72
              10
 73
               7
 74
               0
 42
0.000001
 43
0.000001
 40
0.0
 40
0.0
 40
0.0
 40
0.0131184557422115
 40
0.0131184557422115
 40
0.9868815442577886
 40
0.9868815442577886
 40
1.0
 40
1.0
 40
1.0
 10
707.25
 20
-196.91931402208547
 30
0.0
 10
707.2598317979091
 20
-196.91880670146679
 30
0.0
 10
707.2696635958182
 20
-196.91829938084811
 30
0.0
 10
708.00045227060764
 20
-196.8826827438952
 30
0.0
 10
708.7303364041818
 20
-196.91829938084811
 30
0.0
 10
708.7401682020909
 20
-196.91880670146679
 30
0.0
 10
708.75
 20
-196.91931402208547
 30
0.0
  0
LINE
  5
533
100
AcDbEntity
  8
OBJECT
100
AcDbLine
 10
708.75
 20
-199.24999999999955
 30
0.0
 11
708.75
 21
-196.91931402208547
 31
0.0
  0
LINE
  5
534
100
AcDbEntity
  8
OBJECT
100
AcDbLine
 10
711.08068597791407
 20
-199.24999999999955
 30
0.0
 11
708.75
 21
-199.24999999999955
 31
0.0
  0
SPLINE
  5
535
100
AcDbEntity
  8
OBJECT
100
AcDbSpline
210
0.0
220
0.0
230
1.0
 70
               8
 71
               2
 72
              10
 73
               7
 74
               0
 42
0.000001
 43
0.000001
 40
0.0
 40
0.0
 40
0.0
 40
0.0131184557419241
 40
0.0131184557419241
 40
0.9868815442580758
 40
0.9868815442580758
 40
1.0
 40
1.0
 40
1.0
 10
711.08068597791407
 20
-199.24999999999955
 30
0.0
 10
711.08119329853298
 20
-199.25983179790842
 30
0.0
 10
711.08170061915189
 20
-199.26966359581729
 30
0.0
 10
711.1173172561048
 20
-200.00045227060718
 30
0.0
 10
711.08170061915189
 20
-200.7303364041818
 30
0.0
 10
711.08119329853298
 20
-200.74016820209067
 30
0.0
 10
711.08068597791407
 20
-200.74999999999955
 30
0.0
  0
LINE
  5
536
100
AcDbEntity
  8
OBJECT
100
AcDbLine
 10
711.08068597791407
 20
-200.74999999999955
 30
0.0
 11
708.75
 21
-200.74999999999955
 31
0.0
  0
LINE
  5
537
100
AcDbEntity
  8
OBJECT
100
AcDbLine
 10
708.75
 20
-203.08068597791362
 30
0.0
 11
708.75
 21
-200.74999999999955
 31
0.0
  0
LINE
  5
538
100
AcDbEntity
  8
OBJECT
100
AcDbLine
 10
707.25
 20
-203.08068597791362
 30
0.0
 11
707.25
 21
-200.74999999999955
 31
0.0
  0
LINE
  5
539
100
AcDbEntity
  8
OBJECT
100
AcDbLine
 10
708.75
 20
-199.24999999999955
 30
0.0
 11
707.25
 21
-199.24999999999955
 31
0.0
  0
LINE
  5
53A
100
AcDbEntity
  8
OBJECT
100
AcDbLine
 10
707.25
 20
-199.24999999999955
 30
0.0
 11
707.25
 21
-200.74999999999955
 31
0.0
  0
LINE
  5
53B
100
AcDbEntity
  8
OBJECT
100
AcDbLine
 10
708.75
 20
-199.24999999999955
 30
0.0
 11
708.75
 21
-200.74999999999955
 31
0.0
  0
LINE
  5
53C
100
AcDbEntity
  8
OBJECT
100
AcDbLine
 10
708.75
 20
-200.74999999999955
 30
0.0
 11
707.25
 21
-200.74999999999955
 31
0.0
  0
ARC
  5
53D
100
AcDbEntity
  8
OBJECT
100
AcDbCircle
 10
708.0
 20
-199.99999999999955
 30
0.0
 40
15.0
100
AcDbArc
 50
180.0
 51
0.0
  0
ARC
  5
53E
100
AcDbEntity
  8
OBJECT
100
AcDbCircle
 10
708.0
 20
-199.99999999999955
 30
0.0
 40
15.0
100
AcDbArc
 50
0.0
 51
180.0
  0
ARC
  5
53F
100
AcDbEntity
  8
OBJECT
100
AcDbCircle
 10
708.0
 20
-199.99999999999955
 30
0.0
 40
9.6000000000003638
100
AcDbArc
 50
0.0
 51
180.0
  0
ARC
  5
540
100
AcDbEntity
  8
OBJECT
100
AcDbCircle
 10
708.0
 20
-199.99999999999955
 30
0.0
 40
9.6000000000003638
100
AcDbArc
 50
180.0
 51
0.0
  0
CIRCLE
  5
541
100
AcDbEntity
  8
OBJECT
100
AcDbCircle
 10
708.0
 20
-294.99999999999955
 30
0.0
 40
7.0
  0
SPLINE
  5
542
100
AcDbEntity
  8
OBJECT
100
AcDbSpline
210
0.0
220
0.0
230
1.0
 70
               8
 71
               2
 72
              10
 73
               7
 74
               0
 42
0.000001
 43
0.000001
 40
0.0
 40
0.0
 40
0.0
 40
0.0131184557542371
 40
0.0131184557542371
 40
0.986881544245763
 40
0.986881544245763
 40
1.0
 40
1.0
 40
1.0
 10
708.75
 20
-298.08068597791362
 30
0.0
 10
708.7401682020909
 20
-298.0811932985323
 30
0.0
 10
708.7303364041818
 20
-298.08170061915098
 30
0.0
 10
707.99954646486276
 20
-298.11731722781906
 30
0.0
 10
707.2696635958182
 20
-298.08170061915098
 30
0.0
 10
707.2598317979091
 20
-298.0811932985323
 30
0.0
 10
707.25
 20
-298.08068597791362
 30
0.0
  0
LINE
  5
543
100
AcDbEntity
  8
OBJECT
100
AcDbLine
 10
707.25
 20
-295.74999999999955
 30
0.0
 11
704.91931402208593
 21
-295.74999999999955
 31
0.0
  0
SPLINE
  5
544
100
AcDbEntity
  8
OBJECT
100
AcDbSpline
210
0.0
220
0.0
230
1.0
 70
               8
 71
               2
 72
              10
 73
               7
 74
               0
 42
0.000001
 43
0.000001
 40
0.0
 40
0.0
 40
0.0
 40
0.0131184557539499
 40
0.0131184557539499
 40
0.9868815442460499
 40
0.9868815442460499
 40
1.0
 40
1.0
 40
1.0
 10
704.91931402208593
 20
-295.74999999999955
 30
0.0
 10
704.91880670146702
 20
-295.74016820209067
 30
0.0
 10
704.91829938084811
 20
-295.7303364041818
 30
0.0
 10
704.88268277218049
 20
-294.99954646486276
 30
0.0
 10
704.91829938084811
 20
-294.26966359581729
 30
0.0
 10
704.91880670146702
 20
-294.25983179790842
 30
0.0
 10
704.91931402208593
 20
-294.24999999999955
 30
0.0
  0
SPLINE
  5
545
100
AcDbEntity
  8
OBJECT
100
AcDbSpline
210
0.0
220
0.0
230
1.0
 70
               8
 71
               2
 72
              10
 73
               7
 74
               0
 42
0.000001
 43
0.000001
 40
0.0
 40
0.0
 40
0.0
 40
0.0131184557422267
 40
0.0131184557422267
 40
0.9868815442577733
 40
0.9868815442577733
 40
1.0
 40
1.0
 40
1.0
 10
707.25
 20
-291.91931402208593
 30
0.0
 10
707.2598317979091
 20
-291.91880670146702
 30
0.0
 10
707.2696635958182
 20
-291.91829938084811
 30
0.0
 10
708.00045227060764
 20
-291.8826827438952
 30
0.0
 10
708.7303364041818
 20
-291.91829938084811
 30
0.0
 10
708.7401682020909
 20
-291.91880670146702
 30
0.0
 10
708.75
 20
-291.91931402208593
 30
0.0
  0
SPLINE
  5
546
100
AcDbEntity
  8
OBJECT
100
AcDbSpline
210
0.0
220
0.0
230
1.0
 70
               8
 71
               2
 72
              10
 73
               7
 74
               0
 42
0.000001
 43
0.000001
 40
0.0
 40
0.0
 40
0.0
 40
0.0131184557419241
 40
0.0131184557419241
 40
0.9868815442580758
 40
0.9868815442580758
 40
1.0
 40
1.0
 40
1.0
 10
711.08068597791407
 20
-294.24999999999955
 30
0.0
 10
711.08119329853298
 20
-294.25983179790842
 30
0.0
 10
711.08170061915189
 20
-294.26966359581729
 30
0.0
 10
711.1173172561048
 20
-295.00045227060718
 30
0.0
 10
711.08170061915189
 20
-295.7303364041818
 30
0.0
 10
711.08119329853298
 20
-295.74016820209067
 30
0.0
 10
711.08068597791407
 20
-295.74999999999955
 30
0.0
  0
LINE
  5
547
100
AcDbEntity
  8
OBJECT
100
AcDbLine
 10
708.75
 20
-294.24999999999955
 30
0.0
 11
708.75
 21
-291.91931402208593
 31
0.0
  0
LINE
  5
548
100
AcDbEntity
  8
OBJECT
100
AcDbLine
 10
707.25
 20
-294.24999999999955
 30
0.0
 11
704.91931402208593
 21
-294.24999999999955
 31
0.0
  0
LINE
  5
549
100
AcDbEntity
  8
OBJECT
100
AcDbLine
 10
708.75
 20
-298.08068597791362
 30
0.0
 11
708.75
 21
-295.74999999999955
 31
0.0
  0
LINE
  5
54A
100
AcDbEntity
  8
OBJECT
100
AcDbLine
 10
707.25
 20
-298.08068597791362
 30
0.0
 11
707.25
 21
-295.74999999999955
 31
0.0
  0
LINE
  5
54B
100
AcDbEntity
  8
OBJECT
100
AcDbLine
 10
711.08068597791407
 20
-295.74999999999955
 30
0.0
 11
708.75
 21
-295.74999999999955
 31
0.0
  0
LINE
  5
54C
100
AcDbEntity
  8
OBJECT
100
AcDbLine
 10
711.08068597791407
 20
-294.24999999999955
 30
0.0
 11
708.75
 21
-294.24999999999955
 31
0.0
  0
LINE
  5
54D
100
AcDbEntity
  8
OBJECT
100
AcDbLine
 10
707.25
 20
-294.24999999999955
 30
0.0
 11
707.25
 21
-291.91931402208547
 31
0.0
  0
LINE
  5
54E
100
AcDbEntity
  8
OBJECT
100
AcDbLine
 10
708.75
 20
-294.24999999999955
 30
0.0
 11
708.75
 21
-295.74999999999955
 31
0.0
  0
LINE
  5
54F
100
AcDbEntity
  8
OBJECT
100
AcDbLine
 10
708.75
 20
-294.24999999999955
 30
0.0
 11
707.25
 21
-294.24999999999955
 31
0.0
  0
LINE
  5
550
100
AcDbEntity
  8
OBJECT
100
AcDbLine
 10
708.75
 20
-295.74999999999955
 30
0.0
 11
707.25
 21
-295.74999999999955
 31
0.0
  0
LINE
  5
551
100
AcDbEntity
  8
OBJECT
100
AcDbLine
 10
707.25
 20
-294.24999999999955
 30
0.0
 11
707.25
 21
-295.74999999999955
 31
0.0
  0
ARC
  5
552
100
AcDbEntity
  8
OBJECT
100
AcDbCircle
 10
708.0
 20
-294.99999999999955
 30
0.0
 40
15.0
100
AcDbArc
 50
180.0
 51
0.0
  0
ARC
  5
553
100
AcDbEntity
  8
OBJECT
100
AcDbCircle
 10
708.0
 20
-294.99999999999955
 30
0.0
 40
15.0
100
AcDbArc
 50
0.0
 51
180.0
  0
ARC
  5
554
100
AcDbEntity
  8
OBJECT
100
AcDbCircle
 10
708.0
 20
-294.99999999999955
 30
0.0
 40
9.6000000000003638
100
AcDbArc
 50
0.0
 51
180.0
  0
ARC
  5
555
100
AcDbEntity
  8
OBJECT
100
AcDbCircle
 10
708.0
 20
-294.99999999999955
 30
0.0
 40
9.6000000000003638
100
AcDbArc
 50
180.0
 51
0.0
  0
LINE
  5
556
100
AcDbEntity
  8
OBJECT
100
AcDbLine
 10
726.0
 20
-500.0
 30
0.0
 11
328.0
 21
-500.0
 31
0.0
  0
LINE
  5
557
100
AcDbEntity
  8
OBJECT
100
AcDbLine
 10
728.0
 20
-121.19999999999982
 30
0.0
 11
728.0
 21
-187.19274881007323
 31
0.0
  0
LINE
  5
558
100
AcDbEntity
  8
OBJECT
100
AcDbLine
 10
728.0
 20
-187.19274881007323
 30
0.0
 11
728.0
 21
-187.91910702802261
 31
0.0
  0
LINE
  5
559
100
AcDbEntity
  8
OBJECT
100
AcDbLine
 10
328.0
 20
-121.19999999999982
 30
0.0
 11
328.0
 21
-500.0
 31
0.0
  0
CIRCLE
  5
55A
100
AcDbEntity
  8
OBJECT
100
AcDbCircle
 10
645.57268417933028
 20
-170.91601644271032
 30
0.0
 40
2.25
  0
CIRCLE
  5
55B
100
AcDbEntity
  8
OBJECT
100
AcDbCircle
 10
660.8551007389342
 20
-149.88157458896148
 30
0.0
 40
2.25
  0
LINE
  5
55C
100
AcDbEntity
  8
OBJECT
100
AcDbLine
 10
777.99999999998636
 20
-514.99999999949887
 30
0.0
 11
776.49999999998636
 21
-514.99999999949887
 31
0.0
  0
LINE
  5
55D
100
AcDbEntity
  8
OBJECT
100
AcDbLine
 10
777.99999999998636
 20
-514.99999987044112
 30
0.0
 11
776.49999999998636
 21
-514.99999987044112
 31
0.0
  0
LINE
  5
55E
100
AcDbEntity
  8
OBJECT
100
AcDbLine
 10
618.0
 20
-501.5
 30
0.0
 11
618.0
 21
-507.0
 31
0.0
  0
LINE
  5
55F
100
AcDbEntity
  8
OBJECT
100
AcDbLine
 10
726.82055052817941
 20
-501.5
 30
0.0
 11
618.0
 21
-501.5
 31
0.0
  0
LINE
  5
560
100
AcDbEntity
  8
OBJECT
100
AcDbLine
 10
517.99999999998636
 20
-500.0
 30
0.0
 11
517.99999999998636
 21
-507.0
 31
0.0
  0
ARC
  5
561
100
AcDbEntity
  8
OBJECT
100
AcDbCircle
 10
520.99999999998636
 20
-507.0
 30
0.0
 40
3.0
100
AcDbArc
 50
180.0
 51
270.0
  0
LINE
  5
562
100
AcDbEntity
  8
OBJECT
100
AcDbLine
 10
615.0
 20
-510.0
 30
0.0
 11
520.99999999998636
 21
-510.0
 31
0.0
  0
LINE
  5
563
100
AcDbEntity
  8
OBJECT
100
AcDbLine
 10
776.49999999998636
 20
-502.00000000003683
 30
0.0
 11
776.49999999998636
 21
-514.99999987044112
 31
0.0
  0
ARC
  5
564
100
AcDbEntity
  8
OBJECT
100
AcDbCircle
 10
615.0
 20
-507.0
 30
0.0
 40
3.0
100
AcDbArc
 50
270.0
 51
0.0
  0
LINE
  5
565
100
AcDbEntity
  8
OBJECT
100
AcDbLine
 10
719.00000000000455
 20
-501.49999999999409
 30
0.0
 11
719.00000000000455
 21
-502.99999999999409
 31
0.0
  0
LINE
  5
566
100
AcDbEntity
  8
OBJECT
100
AcDbLine
 10
719.00000000000455
 20
-502.99999999999409
 30
0.0
 11
714.89999999999964
 21
-502.99999999999454
 31
0.0
  0
LINE
  5
567
100
AcDbEntity
  8
OBJECT
100
AcDbLine
 10
701.10000000000036
 20
-502.99999999999454
 30
0.0
 11
618.0
 21
-502.99999999999454
 31
0.0
  0
LINE
  5
568
100
AcDbEntity
  8
OBJECT
100
AcDbLine
 10
517.99999999998636
 20
-502.99999999999454
 30
0.0
 11
398.99999963883602
 21
-502.99999999999409
 31
0.0
  0
LINE
  5
569
100
AcDbEntity
  8
OBJECT
100
AcDbLine
 10
517.99999999998636
 20
-501.49999999999454
 30
0.0
 11
398.99999963883602
 21
-501.49999999999409
 31
0.0
  0
LINE
  5
56A
100
AcDbEntity
  8
OBJECT
100
AcDbLine
 10
394.00000000000364
 20
-501.49999999999409
 30
0.0
 11
394.00000000000364
 21
-502.99999999999454
 31
0.0
  0
LINE
  5
56B
100
AcDbEntity
  8
OBJECT
100
AcDbLine
 10
394.00000000000364
 20
-502.99999999999454
 30
0.0
 11
398.99999963883602
 21
-502.99999999999409
 31
0.0
  0
LINE
  5
56C
100
AcDbEntity
  8
OBJECT
100
AcDbLine
 10
394.00000000000364
 20
-501.49999999999409
 30
0.0
 11
398.99999963883602
 21
-501.49999999999409
 31
0.0
  0
LINE
  5
56D
100
AcDbEntity
  8
OBJECT
100
AcDbLine
 10
744.00000000000364
 20
-502.00000000003683
 30
0.0
 11
744.00000000000364
 21
-502.99999999999409
 31
0.0
  0
LINE
  5
56E
100
AcDbEntity
  8
OBJECT
100
AcDbLine
 10
719.00000000000455
 20
-502.99999999999409
 30
0.0
 11
744.00000000000364
 21
-502.99999999999409
 31
0.0
  0
CIRCLE
  5
56F
100
AcDbEntity
  8
OBJECT
100
AcDbCircle
 10
719.00000000000364
 20
-514.99999999999454
 30
0.0
 40
3.0
  0
ARC
  5
570
100
AcDbEntity
  8
OBJECT
100
AcDbCircle
 10
734.00000000000364
 20
-516.49999999999454
 30
0.0
 40
10.0
100
AcDbArc
 50
270.0
 51
0.0
  0
ARC
  5
571
100
AcDbEntity
  8
OBJECT
100
AcDbCircle
 10
403.99999981593555
 20
-516.499999999995
 30
0.0
 40
9.9999998159319148
100
AcDbArc
 50
179.99999999999744
 51
269.99999894536757
  0
LINE
  5
572
100
AcDbEntity
  8
OBJECT
100
AcDbLine
 10
734.00000000000364
 20
-526.49999999999454
 30
0.0
 11
403.99999963186747
 21
-526.49999981592646
 31
0.0
  0
CIRCLE
  5
573
100
AcDbEntity
  8
OBJECT
100
AcDbCircle
 10
419.00000000000455
 20
-514.99999999999454
 30
0.0
 40
3.0
  0
LINE
  5
574
100
AcDbEntity
  8
OBJECT
100
AcDbLine
 10
744.00000000000364
 20
-516.49999999999454
 30
0.0
 11
744.00000000000364
 21
-502.99999999999454
 31
0.0
  0
LINE
  5
575
100
AcDbEntity
  8
OBJECT
100
AcDbLine
 10
394.00000000000364
 20
-516.49999999999454
 30
0.0
 11
394.00000000000364
 21
-502.99999999999454
 31
0.0
  0
LINE
  5
576
100
AcDbEntity
  8
OBJECT
100
AcDbLine
 10
326.69999999998618
 20
-121.19999999999936
 30
0.0
 11
326.69999999998618
 21
-109.19999999999936
 31
0.0
  0
LINE
  5
577
100
AcDbEntity
  8
OBJECT
100
AcDbLine
 10
729.30000000000018
 20
-121.19999999999982
 30
0.0
 11
326.69999999998618
 21
-121.19999999999936
 31
0.0
  0
LINE
  5
578
100
AcDbEntity
  8
OBJECT
100
AcDbLine
 10
729.30000000000018
 20
-109.19999999999982
 30
0.0
 11
729.30000000000018
 21
-121.19999999999982
 31
0.0
  0
LINE
  5
579
100
AcDbEntity
  8
OBJECT
100
AcDbLine
 10
729.30000000000018
 20
-109.19999999999982
 30
0.0
 11
326.69999999998618
 21
-109.19999999999936
 31
0.0
  0
LINE
  5
57A
100
AcDbEntity
  8
OBJECT
100
AcDbLine
 10
779.0
 20
-502.00000000003683
 30
0.0
 11
779.0
 21
-505.00000000003683
 31
0.0
  0
LINE
  5
57B
100
AcDbEntity
  8
OBJECT
100
AcDbLine
 10
778.0
 20
-505.00000000003683
 30
0.0
 11
778.0
 21
-502.00000000003683
 31
0.0
  0
LINE
  5
57C
100
AcDbEntity
  8
OBJECT
100
AcDbLine
 10
778.0
 20
-514.99999986990179
 30
0.0
 11
779.0
 21
-514.99999986990179
 31
0.0
  0
LINE
  5
57D
100
AcDbEntity
  8
OBJECT
100
AcDbLine
 10
778.0
 20
-505.00000000003683
 30
0.0
 11
778.0
 21
-514.99999986990179
 31
0.0
  0
LINE
  5
57E
100
AcDbEntity
  8
OBJECT
100
AcDbLine
 10
779.0
 20
-505.00000000003683
 30
0.0
 11
779.0
 21
-514.99999986990179
 31
0.0
  0
CIRCLE
  5
57F
100
AcDbEntity
  8
OBJECT
100
AcDbCircle
 10
744.0
 20
-240.00000000003683
 30
0.0
 40
7.5
  0
CIRCLE
  5
580
100
AcDbEntity
  8
OBJECT
100
AcDbCircle
 10
744.0
 20
-300.00000000003638
 30
0.0
 40
7.5
  0
CIRCLE
  5
581
100
AcDbEntity
  8
OBJECT
100
AcDbCircle
 10
744.0
 20
-340.00000000003638
 30
0.0
 40
7.5
  0
CIRCLE
  5
582
100
AcDbEntity
  8
OBJECT
100
AcDbCircle
 10
744.0
 20
-280.00000000003638
 30
0.0
 40
7.5
  0
CIRCLE
  5
583
100
AcDbEntity
  8
OBJECT
100
AcDbCircle
 10
744.0
 20
-200.00000000003683
 30
0.0
 40
7.5
  0
CIRCLE
  5
584
100
AcDbEntity
  8
OBJECT
100
AcDbCircle
 10
744.0
 20
-220.00000000003683
 30
0.0
 40
7.5
  0
CIRCLE
  5
585
100
AcDbEntity
  8
OBJECT
100
AcDbCircle
 10
744.0
 20
-320.00000000003683
 30
0.0
 40
7.5
  0
CIRCLE
  5
586
100
AcDbEntity
  8
OBJECT
100
AcDbCircle
 10
744.0
 20
-260.00000000003683
 30
0.0
 40
7.5
  0
LINE
  5
587
100
AcDbEntity
  8
OBJECT
100
AcDbLine
 10
828.0
 20
-502.00000000003683
 30
0.0
 11
729.0
 21
-502.00000000003638
 31
0.0
  0
LINE
  5
588
100
AcDbEntity
  8
OBJECT
100
AcDbLine
 10
828.0
 20
-502.00000000003683
 30
0.0
 11
828.0
 21
-168.99999999999955
 31
0.0
  0
LINE
  5
589
100
AcDbEntity
  8
OBJECT
100
AcDbLine
 10
763.0
 20
-175.18014882870557
 30
0.0
 11
763.0
 21
-168.99999999999955
 31
0.0
  0
LINE
  5
58A
100
AcDbEntity
  8
OBJECT
100
AcDbLine
 10
726.0
 20
-188.64704749655539
 30
0.0
 11
763.0
 21
-175.18014882870557
 31
0.0
  0
LINE
  5
58B
100
AcDbEntity
  8
OBJECT
100
AcDbLine
 10
726.0
 20
-501.00000000003774
 30
0.0
 11
726.0
 21
-188.64704749655539
 31
0.0
  0
ARC
  5
58C
100
AcDbEntity
  8
OBJECT
100
AcDbCircle
 10
728.99999999999636
 20
-497.00000000004047
 30
0.0
 40
4.9999999999956346
100
AcDbArc
 50
233.13010235417053
 51
270.00000000004167
  0
LINE
  5
58D
100
AcDbEntity
  8
OBJECT
100
AcDbLine
 10
761.5010000000002
 20
-168.99999999999955
 30
0.0
 11
828.0010000000002
 21
-168.99999999999955
 31
0.0
  0
LINE
  5
58E
100
AcDbEntity
  8
OBJECT
100
AcDbLine
 10
828.0010000000002
 20
-158.99999999999955
 30
0.0
 11
761.5010000000002
 21
-158.99999999999955
 31
0.0
  0
LINE
  5
58F
100
AcDbEntity
  8
OBJECT
100
AcDbLine
 10
761.5010000000002
 20
-168.99999999999955
 30
0.0
 11
761.5010000000002
 21
-158.99999999999955
 31
0.0
  0
LINE
  5
590
100
AcDbEntity
  8
OBJECT
100
AcDbLine
 10
730.42983613485103
 20
-178.94464458642096
 30
0.0
 11
760.5
 21
-167.99999999999955
 31
0.0
  0
LINE
  5
591
100
AcDbEntity
  8
OBJECT
100
AcDbLine
 10
730.77185627817744
 20
-179.88433720720695
 30
0.0
 11
730.42983613485103
 21
-178.94464458642096
 31
0.0
  0
LINE
  5
592
100
AcDbEntity
  8
OBJECT
100
AcDbLine
 10
761.5
 20
-168.70020753820927
 30
0.0
 11
730.77185627817744
 21
-179.88433720720695
 31
0.0
  0
LINE
  5
593
100
AcDbEntity
  8
OBJECT
100
AcDbLine
 10
761.5
 20
-159.99999999999955
 30
0.0
 11
761.5
 21
-168.70020753820927
 31
0.0
  0
LINE
  5
594
100
AcDbEntity
  8
OBJECT
100
AcDbLine
 10
761.5010000000002
 20
-159.99999999999955
 30
0.0
 11
761.5
 21
-159.99999999999955
 31
0.0
  0
LINE
  5
595
100
AcDbEntity
  8
OBJECT
100
AcDbLine
 10
760.5
 20
-167.99999999999955
 30
0.0
 11
760.5
 21
-158.99999999999955
 31
0.0
  0
LINE
  5
596
100
AcDbEntity
  8
OBJECT
100
AcDbLine
 10
760.5
 20
-158.99999999999955
 30
0.0
 11
761.5010000000002
 21
-158.99999999999955
 31
0.0
  0
LINE
  5
597
100
AcDbEntity
  8
OBJECT
100
AcDbLine
 10
829.0
 20
-168.99999999999955
 30
0.0
 11
829.0
 21
-158.99999999999955
 31
0.0
  0
LINE
  5
598
100
AcDbEntity
  8
OBJECT
100
AcDbLine
 10
828.0010000000002
 20
-158.99999999999955
 30
0.0
 11
829.0
 21
-158.99999999999955
 31
0.0
  0
LINE
  5
599
100
AcDbEntity
  8
OBJECT
100
AcDbLine
 10
828.0010000000002
 20
-168.99999999999955
 30
0.0
 11
829.0
 21
-168.99999999999955
 31
0.0
  0
CIRCLE
  5
59A
100
AcDbEntity
  8
OBJECT
100
AcDbCircle
 10
348.00000000000091
 20
-135.00000000000045
 30
0.0
 40
3.0
  0
CIRCLE
  5
59B
100
AcDbEntity
  8
OBJECT
100
AcDbCircle
 10
518.00000000000091
 20
-135.00000000000045
 30
0.0
 40
3.0
  0
CIRCLE
  5
59C
100
AcDbEntity
  8
OBJECT
100
AcDbCircle
 10
688.00000000000091
 20
-135.00000000000045
 30
0.0
 40
3.0
  0
LINE
  5
59D
100
AcDbEntity
  8
OBJECT
100
AcDbLine
 10
701.10000000000036
 20
-510.0
 30
0.0
 11
701.10000000000036
 21
-501.49999999999454
 31
0.0
  0
LINE
  5
59E
100
AcDbEntity
  8
OBJECT
100
AcDbLine
 10
714.89999999999964
 20
-501.49999999999454
 30
0.0
 11
714.89999999999964
 21
-510.0
 31
0.0
  0
LINE
  5
59F
100
AcDbEntity
  8
OBJECT
100
AcDbLine
 10
714.70318750000024
 20
-510.0
 30
0.0
 11
714.5783167680629
 21
-513.99586342199109
 31
0.0
  0
LINE
  5
5A0
100
AcDbEntity
  8
OBJECT
100
AcDbLine
 10
701.42149999976391
 20
-513.9899999924196
 30
0.0
 11
701.29681250000067
 21
-510.0
 31
0.0
  0
INSERT
  5
5A1
100
AcDbEntity
  8
OBJECT
100
AcDbBlockReference
  2
*U52
 10
1214.1172999999999
 20
429.0
 30
0.0
  0
INSERT
  5
5A2
100
AcDbEntity
  8
OBJECT
100
AcDbBlockReference
  2
*U53
 10
1214.1172999999999
 20
429.0
 30
0.0
  0
DIMENSION
  5
5A3
100
AcDbEntity
  8
DIMENTION
100
AcDbDimension
  2
*D54
 10
1290.0
 20
-800.0
 30
0.0
 11
1290.0
 21
97.5
 31
0.0
  3
CAD
100
AcDbAlignedDimension
 13
595.0
 23
995.0
 33
0.0
 14
870.0
 24
-800.0
 34
0.0
 50
90.0
100
AcDbRotatedDimension
1001
ACAD
1000
DSTYLE
1002
{
1070
             340
1005
63
1070
               3
1000
<>（ドア開放
1070
             147
1040
0.9999999962747097
1002
}
  0
DIMENSION
  5
5A4
100
AcDbEntity
  8
DIMENTION
100
AcDbDimension
  2
*D55
 10
1165.0
 20
-0.0000000000002274
 30
0.0
 11
1165.0
 21
204.99999999999966
 31
0.0
  3
CAD
100
AcDbAlignedDimension
 13
882.13494809688564
 23
409.99999999999955
 33
0.0
 14
905.0
 24
-0.0000000000002274
 34
0.0
 50
90.0
100
AcDbRotatedDimension
1001
ACAD
1000
DSTYLE
1002
{
1070
             340
1005
63
1070
               3
1000
<>（開口）
1070
             147
1040
5.0
1002
}
  0
LINE
  5
5A5
100
AcDbEntity
  8
OBJECT
100
AcDbLine
 10
288.0
 20
-20.0
 30
0.0
 11
288.0
 21
-5.0
 31
0.0
  0
DIMENSION
  5
5A6
100
AcDbEntity
  8
DIMENTION
100
AcDbDimension
  2
*D56
 10
1093.0
 20
0.0
 30
0.0
 11
1093.0
 21
87.633958990655174
 31
0.0
  3
CAD
100
AcDbAlignedDimension
 13
946.0317052255632
 23
175.26791798131035
 33
0.0
 14
905.0
 24
0.0
 34
0.0
 50
90.0
100
AcDbRotatedDimension
1001
ACAD
1000
DSTYLE
1002
{
1070
             271
1070
               0
1070
             340
1005
63
1070
             147
1040
5.0
1002
}
  0
LINE
  5
5A7
100
AcDbEntity
  8
OBJECT
100
AcDbLine
 10
905.0
 20
-15.000000000000227
 30
0.0
 11
905.0
 21
0.0
 31
0.0
  0
LINE
  5
5A8
100
AcDbEntity
  8
OBJECT
100
AcDbLine
 10
276.0
 20
-5.0
 30
0.0
 11
900.0
 21
-5.0
 31
0.0
  0
LINE
  5
5A9
100
AcDbEntity
  8
OBJECT
100
AcDbLine
 10
276.0
 20
0.0
 30
0.0
 11
276.0
 21
-5.0
 31
0.0
  0
LINE
  5
5AA
100
AcDbEntity
  8
OBJECT
100
AcDbLine
 10
900.0
 20
-5.0
 30
0.0
 11
900.0
 21
-15.000000000000227
 31
0.0
  0
LINE
  5
5AB
100
AcDbEntity
  8
OBJECT
100
AcDbLine
 10
905.0
 20
-15.000000000000227
 30
0.0
 11
900.0
 21
-15.000000000000227
 31
0.0
  0
DIMENSION
  5
5AC
100
AcDbEntity
  8
DIMENTION
100
AcDbDimension
  2
*D57
 10
893.0
 20
-100.00000000000023
 30
0.0
 11
964.84999999999945
 21
-100.00000000000023
 31
0.0
  1
145
  3
CAD
100
AcDbAlignedDimension
 13
1036.6999999999989
 23
520.0
 33
0.0
 14
893.0
 24
-33.000000000000227
 34
0.0
100
AcDbRotatedDimension
1001
ACAD
1000
DSTYLE
1002
{
1070
             271
1070
               0
1070
             340
1005
63
1070
             147
1040
0.9998999999999999
1002
}
  0
LINE
  5
5AD
100
AcDbEntity
  8
OBJECT
100
AcDbLine
 10
884.0
 20
496.86288349425604
 30
0.0
 11
884.0
 21
232.94730340209935
 31
0.0
  0
LINE
  5
5AE
100
AcDbEntity
  8
OBJECT
100
AcDbLine
 10
884.0
 20
204.72842874084313
 30
0.0
 11
884.0
 21
0.0
 31
0.0
  0
LINE
  5
5AF
100
AcDbEntity
  8
OBJECT
100
AcDbLine
 10
595.0
 20
565.0
 30
0.0
 11
876.0327774039506
 21
506.65409465661924
 31
0.0
  0
LINE
  5
5B0
100
AcDbEntity
  8
OBJECT
100
AcDbLine
 10
306.0
 20
540.0
 30
0.0
 11
595.0
 21
565.0
 31
0.0
  0
LINE
  5
5B1
100
AcDbEntity
  8
OBJECT
100
AcDbLine
 10
337.60000000000036
 20
537.0
 30
0.0
 11
337.60000000000036
 21
505.08989292996603
 31
0.0
  0
LINE
  5
5B2
100
AcDbEntity
  8
OBJECT
100
AcDbLine
 10
288.0
 20
540.0
 30
0.0
 11
334.60000000000036
 21
540.0
 31
0.0
  0
LINE
  5
5B3
100
AcDbEntity
  8
OBJECT
100
AcDbLine
 10
288.0
 20
277.0
 30
0.0
 11
308.31486083770506
 21
277.0
 31
0.0
  0
LINE
  5
5B4
100
AcDbEntity
  8
OBJECT
100
AcDbLine
 10
333.0
 20
0.0
 30
0.0
 11
333.0
 21
266.54643361266699
 31
0.0
  0
LINE
  5
5B5
100
AcDbEntity
  8
OBJECT
100
AcDbLine
 10
905.0
 20
0.0
 30
0.0
 11
276.0
 21
0.0
 31
0.0
  0
LINE
  5
5B6
100
AcDbEntity
  8
OBJECT
100
AcDbLine
 10
337.60000000000036
 20
453.30464243349343
 30
0.0
 11
337.60000000000036
 21
0.0
 31
0.0
  0
LINE
  5
5B7
100
AcDbEntity
  8
OBJECT
100
AcDbLine
 10
288.0
 20
0.0
 30
0.0
 11
288.0
 21
471.01639674577746
 31
0.0
  0
LINE
  5
5B8
100
AcDbEntity
  8
OBJECT
100
AcDbLine
 10
288.0
 20
529.8196709203412
 30
0.0
 11
288.0
 21
540.0
 31
0.0
  0
ARC
  5
5B9
100
AcDbEntity
  8
OBJECT
100
AcDbCircle
 10
334.60000000000036
 20
537.0
 30
0.0
 40
3.0
100
AcDbArc
 50
0.0
 51
90.0
  0
POINT
  5
5BA
100
AcDbEntity
  8
OBJECT
  6
CONTINUOUS
100
AcDbPoint
 10
884.0
 20
505.0
 30
0.0
  0
ARC
  5
5BB
100
AcDbEntity
  8
OBJECT
100
AcDbCircle
 10
874.0
 20
496.86288349425604
 30
0.0
 40
10.0
100
AcDbArc
 50
0.0
 51
78.271301843543256
  0
ARC
  5
5BC
100
AcDbEntity
  8
DIMENTION
  6
STYLE_18
100
AcDbCircle
 10
279.2118344042492
 20
520.21450902884089
 30
0.0
 40
757.50000000000011
100
AcDbArc
 50
333.52481219502835
 51
20.095345117025829
  0
POINT
  5
5BD
100
AcDbEntity
  8
OUTLINE
  6
CONTINUOUS
100
AcDbPoint
 10
288.0
 20
540.0
 30
0.0
  0
LINE
  5
5BE
100
AcDbEntity
  8
OBJECT
100
AcDbLine
 10
272.19999999999891
 20
540.0
 30
0.0
 11
289.19999999999891
 21
540.0
 31
0.0
  0
LINE
  5
5BF
100
AcDbEntity
  8
OBJECT
100
AcDbLine
 10
262.19999999999891
 20
500.00000000000023
 30
0.0
 11
262.19999999999891
 21
514.49842955455256
 31
0.0
  0
LINE
  5
5C0
100
AcDbEntity
  8
OBJECT
100
AcDbLine
 10
262.19999999999891
 20
519.50810759190381
 30
0.0
 11
262.19999999999891
 21
530.0
 31
0.0
  0
LINE
  5
5C1
100
AcDbEntity
  8
OBJECT
100
AcDbLine
 10
274.96937999999864
 20
443.21032000000014
 30
0.0
 11
262.19999999999891
 21
500.00000000000023
 31
0.0
  0
LINE
  5
5C2
100
AcDbEntity
  8
OBJECT
100
AcDbLine
 10
288.0
 20
440.00000000000023
 30
0.0
 11
279.63810999999805
 21
440.00000000000023
 31
0.0
  0
CIRCLE
  5
5C3
100
AcDbEntity
  8
OBJECT
100
AcDbCircle
 10
279.19999999999891
 20
520.0
 30
0.0
 40
5.1000000000003638
  0
ARC
  5
5C4
100
AcDbEntity
  8
OBJECT
100
AcDbCircle
 10
272.19999999999891
 20
530.0
 30
0.0
 40
10.0
100
AcDbArc
 50
90.0
 51
180.0
  0
ARC
  5
5C5
100
AcDbEntity
  8
OBJECT
100
AcDbCircle
 10
279.63810999999805
 20
445.00000000000023
 30
0.0
 40
4.9999999999995079
100
AcDbArc
 50
200.97345418826998
 51
270.0
  0
POINT
  5
5C6
100
AcDbEntity
  8
OBJECT
  6
CONTINUOUS
100
AcDbPoint
 10
319.19999999999891
 20
232.00000000000045
 30
0.0
  0
POINT
  5
5C7
100
AcDbEntity
  8
OBJECT
  6
CONTINUOUS
100
AcDbPoint
 10
319.19999999999891
 20
232.00000000000045
 30
0.0
  0
INSERT
  5
5C8
100
AcDbEntity
  8
OBJECT
100
AcDbBlockReference
  2
*U58
 10
1214.1172999999999
 20
429.0
 30
0.0
  0
POINT
  5
5C9
100
AcDbEntity
  8
OBJECT
  6
CONTINUOUS
100
AcDbPoint
 10
319.19999999999891
 20
232.00000000000045
 30
0.0
  0
LINE
  5
5CA
100
AcDbEntity
  8
OBJECT
  6
CONTINUOUS
100
AcDbLine
 10
332.04066981955657
 20
255.8194738386253
 30
0.0
 11
334.06377294457434
 21
397.80506132462892
 31
0.0
  0
LINE
  5
5CB
100
AcDbEntity
  8
OBJECT
  6
CONTINUOUS
100
AcDbLine
 10
307.07170164420404
 20
258.17545097311449
 30
0.0
 11
332.06916422976792
 21
257.81927084547056
 31
0.0
  0
LINE
  5
5CC
100
AcDbEntity
  8
OBJECT
  6
CONTINUOUS
100
AcDbLine
 10
334.06377294457434
 20
397.80506132462892
 30
0.0
 11
309.06631035901046
 21
398.16124145227286
 31
0.0
  0
LINE
  5
5CD
100
AcDbEntity
  8
OBJECT
  6
CONTINUOUS
100
AcDbLine
 10
332.04066981955657
 20
255.8194738386253
 30
0.0
 11
307.04320723399178
 21
256.17565396626946
 31
0.0
  0
LINE
  5
5CE
100
AcDbEntity
  8
OBJECT
  6
CONTINUOUS
100
AcDbLine
 10
316.92571285376926
 20
423.3318217605065
 30
0.0
 11
310.88358021677141
 21
420.41760948032061
 31
0.0
  0
LINE
  5
5CF
100
AcDbEntity
  8
OBJECT
  6
CONTINUOUS
100
AcDbLine
 10
326.92469788799463
 20
423.18934970944883
 30
0.0
 11
316.92571285376926
 21
423.3318217605065
 31
0.0
  0
CIRCLE
  5
5D0
100
AcDbEntity
  8
OBJECT
  6
CONTINUOUS
100
AcDbCircle
 10
319.19999999999891
 20
232.00000000000045
 30
0.0
 40
3.9999999999991451
  0
LINE
  5
5D1
100
AcDbEntity
  8
OBJECT
  6
CONTINUOUS
100
AcDbLine
 10
307.04320723399178
 20
256.17565396626946
 30
0.0
 11
309.06631035901046
 21
398.16124145227286
 31
0.0
  0
LINE
  5
5D2
100
AcDbEntity
  8
OBJECT
100
AcDbLine
 10
314.30655766366817
 20
436.218162643597
 30
0.0
 11
316.92571285376926
 21
423.3318217605065
 31
0.0
  0
LINE
  5
5D3
100
AcDbEntity
  8
OBJECT
100
AcDbLine
 10
310.88358021677141
 20
420.41760948032061
 30
0.0
 11
310.56615248560138
 21
398.13987072481336
 31
0.0
  0
LINE
  5
5D4
100
AcDbEntity
  8
OBJECT
  6
CONTINUOUS
100
AcDbLine
 10
326.92469788799463
 20
423.18934970944883
 30
0.0
 11
332.88134729321246
 21
420.10417096854667
 31
0.0
  0
LINE
  5
5D5
100
AcDbEntity
  8
OBJECT
100
AcDbLine
 10
330.70137250536663
 20
439.39102058536241
 30
0.0
 11
326.92469788799463
 21
423.18934970944883
 31
0.0
  0
LINE
  5
5D6
100
AcDbEntity
  8
OBJECT
100
AcDbLine
 10
332.88134729208377
 20
420.10417096913125
 30
0.0
 11
332.56391956089738
 21
397.82643221248668
 31
0.0
  0
LINE
  5
5D7
100
AcDbEntity
  8
OBJECT
100
AcDbLine
 10
328.99963369657871
 20
233.99177795270202
 30
0.0
 11
324.54143104388731
 21
255.92632787691855
 31
0.0
  0
LINE
  5
5D8
100
AcDbEntity
  8
OBJECT
100
AcDbLine
 10
309.46109335051369
 20
234.27017580090819
 30
0.0
 11
314.54243475257499
 21
256.06880008837447
 31
0.0
  0
ARC
  5
5D9
100
AcDbEntity
  8
OBJECT
100
AcDbCircle
 10
319.19999999999891
 20
232.00000000000045
 30
0.0
 40
9.9999999999992664
100
AcDbArc
 50
166.87845250952412
 51
11.488882864531888
  0
INSERT
  5
5DA
100
AcDbEntity
  8
OBJECT
100
AcDbBlockReference
  2
*U59
 10
1214.1172999999999
 20
429.0
 30
0.0
  0
LINE
  5
5DB
100
AcDbEntity
  8
OUTLINE
100
AcDbLine
 10
770.88027116896592
 20
450.60929477566765
 30
0.0
 11
802.35203664543042
 21
698.30028105217002
 31
0.0
  0
LINE
  5
5DC
100
AcDbEntity
  8
OUTLINE
100
AcDbLine
 10
770.63664779084502
 20
686.69800230425403
 30
0.0
 11
741.11954379485815
 21
454.3907106697493
 31
0.0
  0
ARC
  5
5DD
100
AcDbEntity
  8
OUTLINE
100
AcDbCircle
 10
788.26798977807448
 20
706.45820964843097
 30
0.0
 40
14.999999999999673
100
AcDbArc
 50
76.536114686661477
 51
143.26535776132803
  0
ARC
  5
5DE
100
AcDbEntity
  8
OUTLINE
100
AcDbCircle
 10
755.99990748191158
 20
452.50000272270836
 30
0.0
 40
14.999999999999376
100
AcDbArc
 50
172.75876593271462
 51
352.75876593271505
  0
CIRCLE
  5
5DF
100
AcDbEntity
  8
OUTLINE
100
AcDbCircle
 10
788.26798977807448
 20
706.45820964843097
 30
0.0
 40
6.4999999999990408
  0
LINE
  5
5E0
100
AcDbEntity
  8
OUTLINE
  6
CONTINUOUS
100
AcDbLine
 10
755.2974015521504
 20
445.02812108345006
 30
0.0
 11
762.1201395763801
 21
448.15599243407746
 31
0.0
  0
LINE
  5
5E1
100
AcDbEntity
  8
OUTLINE
  6
CONTINUOUS
100
AcDbLine
 10
749.17721649062332
 20
449.37284986048508
 30
0.0
 11
755.2974015521504
 21
445.02812108345006
 31
0.0
  0
LINE
  5
5E2
100
AcDbEntity
  8
OUTLINE
  6
CONTINUOUS
100
AcDbLine
 10
756.70250747755381
 20
459.97332133877376
 30
0.0
 11
749.87976945332593
 21
456.84544998814681
 31
0.0
  0
LINE
  5
5E3
100
AcDbEntity
  8
OUTLINE
  6
CONTINUOUS
100
AcDbLine
 10
762.8226925390818
 20
455.6285925617392
 30
0.0
 11
756.70250747755381
 21
459.97332133877376
 31
0.0
  0
LINE
  5
5E4
100
AcDbEntity
  8
OUTLINE
  6
CONTINUOUS
100
AcDbLine
 10
762.1201395763801
 20
448.15599243407746
 30
0.0
 11
762.8226925390818
 21
455.6285925617392
 31
0.0
  0
LINE
  5
5E5
100
AcDbEntity
  8
OUTLINE
  6
CONTINUOUS
100
AcDbLine
 10
749.87976945332593
 20
456.84544998814681
 30
0.0
 11
749.17721649062332
 21
449.37284986048508
 31
0.0
  0
ARC
  5
5E6
100
AcDbEntity
  8
OUTLINE
  6
CONTINUOUS
100
AcDbCircle
 10
755.99997487759174
 20
452.50071958776266
 30
0.0
 40
22.500000000000028
100
AcDbArc
 50
263.00345337841259
 51
40.94837073846233
  0
ARC
  5
5E7
100
AcDbEntity
  8
OUTLINE
  6
CONTINUOUS
100
AcDbCircle
 10
755.99997487759174
 20
452.50071958776266
 30
0.0
 40
22.500000000000188
100
AcDbArc
 50
124.81376213325505
 51
263.00344723747577
  0
POINT
  5
5E8
100
AcDbEntity
  8
OUTLINE
  6
CONTINUOUS
100
AcDbPoint
 10
755.99990748191158
 20
452.50000272270836
 30
0.0
  0
LINE
  5
5E9
100
AcDbEntity
  8
OUTLINE
  6
CONTINUOUS
100
AcDbLine
 10
787.56548384831331
 20
698.98632800917244
 30
0.0
 11
794.388221872543
 21
702.11419935979984
 31
0.0
  0
LINE
  5
5EA
100
AcDbEntity
  8
OUTLINE
  6
CONTINUOUS
100
AcDbLine
 10
781.44529878678622
 20
703.33105678620745
 30
0.0
 11
787.56548384831331
 21
698.98632800917244
 31
0.0
  0
LINE
  5
5EB
100
AcDbEntity
  8
OUTLINE
  6
CONTINUOUS
100
AcDbLine
 10
788.97058977371671
 20
713.93152826449614
 30
0.0
 11
782.14785174948884
 21
710.80365691386896
 31
0.0
  0
LINE
  5
5EC
100
AcDbEntity
  8
OUTLINE
  6
CONTINUOUS
100
AcDbLine
 10
795.09077483524379
 20
709.58679948746158
 30
0.0
 11
788.97058977371671
 21
713.93152826449614
 31
0.0
  0
LINE
  5
5ED
100
AcDbEntity
  8
OUTLINE
  6
CONTINUOUS
100
AcDbLine
 10
794.388221872543
 20
702.11419935979984
 30
0.0
 11
795.09077483524379
 21
709.58679948746158
 31
0.0
  0
LINE
  5
5EE
100
AcDbEntity
  8
OUTLINE
  6
CONTINUOUS
100
AcDbLine
 10
782.14785174948884
 20
710.80365691386896
 30
0.0
 11
781.44529878678622
 21
703.33105678620745
 31
0.0
  0
CIRCLE
  5
5EF
100
AcDbEntity
  8
OUTLINE
100
AcDbCircle
 10
755.99997487759174
 20
452.50071958776266
 30
0.0
 40
6.5000000000008455
  0
LINE
  5
5F0
100
AcDbEntity
  8
OUTLINE
100
AcDbLine
 10
884.0
 20
926.86288349425581
 30
0.0
 11
884.0
 21
754.78947678345639
 31
0.0
  0
LINE
  5
5F1
100
AcDbEntity
  8
OUTLINE
100
AcDbLine
 10
884.0
 20
728.16913854538006
 30
0.0
 11
884.0
 21
410.0
 31
0.0
  0
LINE
  5
5F2
100
AcDbEntity
  8
OUTLINE
100
AcDbLine
 10
595.0
 20
995.0
 30
0.0
 11
876.0327774039506
 21
936.65409465661924
 31
0.0
  0
LINE
  5
5F3
100
AcDbEntity
  8
OUTLINE
100
AcDbLine
 10
306.0
 20
970.0
 30
0.0
 11
595.0
 21
995.0
 31
0.0
  0
POINT
  5
5F4
100
AcDbEntity
  8
OUTLINE
  6
CONTINUOUS
100
AcDbPoint
 10
884.0
 20
935.0
 30
0.0
  0
ARC
  5
5F5
100
AcDbEntity
  8
OUTLINE
100
AcDbCircle
 10
874.0
 20
926.86288349425581
 30
0.0
 40
10.0
100
AcDbArc
 50
0.0
 51
78.271301843543483
  0
LINE
  5
5F6
100
AcDbEntity
  8
OUTLINE
100
AcDbLine
 10
884.0
 20
410.0
 30
0.0
 11
306.0
 21
410.0
 31
0.0
  0
LINE
  5
5F7
100
AcDbEntity
  8
OUTLINE
100
AcDbLine
 10
306.0
 20
970.0
 30
0.0
 11
306.0
 21
410.0
 31
0.0
  0
INSERT
  5
5F8
100
AcDbEntity
  8
OUTLINE
100
AcDbBlockReference
  2
*U60
 10
1214.1172999999999
 20
429.0
 30
0.0
  0
ARC
  5
5F9
100
AcDbEntity
  8
OBJECT
100
AcDbCircle
 10
319.19999999999891
 20
232.00000000000045
 30
0.0
 40
12.499999999999631
100
AcDbArc
 50
130.00855514843624
 51
48.358780510606508
  0
LINE
  5
5FA
100
AcDbEntity
  8
OBJECT
100
AcDbLine
 10
273.0
 20
451.96880788260023
 30
0.0
 11
273.0
 21
45.0
 31
0.0
  0
LINE
  5
5FB
100
AcDbEntity
  8
OBJECT
100
AcDbLine
 10
263.0
 20
480.0
 30
0.0
 11
263.0
 21
45.0
 31
0.0
  0
LINE
  5
5FC
100
AcDbEntity
  8
OBJECT
100
AcDbLine
 10
259.35000000000036
 20
5.0
 30
0.0
 11
259.35000000000036
 21
45.0
 31
0.0
  0
LINE
  5
5FD
100
AcDbEntity
  8
OBJECT
100
AcDbLine
 10
276.64999999999964
 20
5.0
 30
0.0
 11
276.64999999999964
 21
45.0
 31
0.0
  0
LINE
  5
5FE
100
AcDbEntity
  8
OBJECT
100
AcDbLine
 10
276.64999999999964
 20
45.0
 30
0.0
 11
259.35000000000036
 21
45.0
 31
0.0
  0
LINE
  5
5FF
100
AcDbEntity
  8
OBJECT
100
AcDbLine
 10
276.64999999999964
 20
5.0
 30
0.0
 11
259.35000000000036
 21
5.0
 31
0.0
  0
ARC
  5
600
100
AcDbEntity
  8
OBJECT
100
AcDbCircle
 10
288.0
 20
480.0
 30
0.0
 40
24.999999999999581
100
AcDbArc
 50
158.91106701008732
 51
180.0
  0
POINT
  5
601
100
AcDbEntity
  8
DIMENTION
  6
CONTINUOUS
100
AcDbPoint
 10
905.0
 20
0.0
 30
0.0
  0
MTEXT
  5
602
100
AcDbEntity
  8
DIMENTION
100
AcDbMText
 10
2783.2394888888884
 20
-391.72562222222257
 30
0.0
 40
33.866666666666667
 41
0.0
 71
               1
 72
               1
  1
電源コード\P3m，VCT，5.5mm ×４
  7
________
  0
MTEXT
  5
603
100
AcDbEntity
  8
DIMENTION
100
AcDbMText
 10
3085.8854111111114
 20
-442.91666666666674
 30
0.0
 40
16.933333333333334
 41
0.0
 71
               1
 72
               1
  1
2
  7
________
  0
LINE
  5
604
100
AcDbEntity
  8
DIMENTION
100
AcDbLine
 10
1790.8962999999999
 20
-649.26210000000015
 30
0.0
 11
1570.8962999999999
 21
-649.26210000000015
 31
0.0
  0
MTEXT
  5
605
100
AcDbEntity
  8
DIMENTION
100
AcDbMText
 10
1575.6621333333333
 20
-604.06349999999998
 30
0.0
 40
33.866666666666667
 41
0.0
 71
               1
 72
               1
  1
タンクドレン\P8Aおすねじ
  7
________
  0
LINE
  5
606
100
AcDbEntity
  8
DIMENTION
100
AcDbLine
 10
1790.8962999999999
 20
-699.26210000000015
 30
0.0
 11
1570.8962999999999
 21
-699.26210000000015
 31
0.0
  0
LINE
  5
607
100
AcDbEntity
  8
DIMENTION
100
AcDbLine
 10
1790.8962999999999
 20
-649.26210000000015
 30
0.0
 11
1790.8962999999999
 21
-699.26210000000015
 31
0.0
  0
LINE
  5
608
100
AcDbEntity
  8
DIMENTION
100
AcDbLine
 10
2060.0000000000009
 20
-528.99999999999977
 30
0.0
 11
1790.5417128395766
 21
-649.26210000000015
 31
0.0
  0
LINE
  5
609
100
AcDbEntity
  8
DIMENTION
100
AcDbLine
 10
2060.0000000000009
 20
-528.99999999999977
 30
0.0
 11
2034.455197692505
 21
-549.68577303973291
 31
0.0
  0
LINE
  5
60A
100
AcDbEntity
  8
DIMENTION
100
AcDbLine
 10
2060.0000000000009
 20
-528.99999999999977
 30
0.0
 11
2027.5346657471916
 21
-534.14200379557997
 31
0.0
  0
DIMENSION
  5
60B
100
AcDbEntity
  8
DIMENTION
100
AcDbDimension
  2
*D61
 10
1963.4232045256294
 20
-528.99999999999977
 30
0.0
 11
1963.4232045256294
 21
-664.5
 31
0.0
  1
270
  3
CAD
100
AcDbAlignedDimension
 13
2051.5000000000009
 23
-800.00000000000023
 33
0.0
 14
2051.5000000000009
 24
-528.99999999999977
 34
0.0
 50
90.0
100
AcDbRotatedDimension
1001
ACAD
1000
DSTYLE
1002
{
1070
             340
1005
63
1070
             147
1040
0.9999999962747097
1002
}
  0
DIMENSION
  5
60C
100
AcDbEntity
  8
DIMENTION
100
AcDbDimension
  2
*D62
 10
1905.4232045256294
 20
-514.99999986990156
 30
0.0
 11
1905.4232045256294
 21
-657.49999993495089
 31
0.0
  3
CAD
100
AcDbAlignedDimension
 13
1999.4983867112574
 23
-800.00000000000023
 33
0.0
 14
1999.4983867112574
 24
-514.99999986990156
 34
0.0
 50
90.0
100
AcDbRotatedDimension
1001
ACAD
1000
DSTYLE
1002
{
1070
             340
1005
63
1070
             147
1040
0.9999999962747097
1002
}
  0
DIMENSION
  5
60D
100
AcDbEntity
  8
DIMENTION
100
AcDbDimension
  2
*D63
 10
1851.9232045256294
 20
-109.19999999999959
 30
0.0
 11
1851.9232045256294
 21
-454.59999999999991
 31
0.0
  1
690
  3
CAD
100
AcDbAlignedDimension
 13
1873.9232045256294
 23
-800.00000000000023
 33
0.0
 14
1988.7000000000012
 24
-109.19999999999959
 34
0.0
 50
90.0
100
AcDbRotatedDimension
1001
ACAD
1000
DSTYLE
1002
{
1070
             340
1005
63
1070
             147
1040
0.9999999962747097
1002
}
  0
LINE
  5
60E
100
AcDbEntity
  8
OBJECT
100
AcDbLine
 10
2138.0000000000009
 20
-294.99999999999932
 30
0.0
 11
2138.0000000000009
 21
-307.55736835487346
 31
0.0
  0
LWPOLYLINE
  5
60F
100
AcDbEntity
  8
OBJECT
100
AcDbPolyline
 90
        4
 70
             128
 10
2136.7049122365843
 20
-303.37157890324875
 10
2137.2358544363333
 20
-301.33517044808445
 10
2137.7974283200256
 20
-298.20907691890784
 10
2138.0000000000009
 20
-294.99999999999932
  0
LWPOLYLINE
  5
610
100
AcDbEntity
  8
OBJECT
100
AcDbPolyline
 90
        5
 70
             128
 10
2138.0000000000009
 20
-307.55736835487346
 10
2137.9929446236938
 20
-307.25965323445212
 10
2137.8711707272369
 20
-306.28267974781033
 10
2137.6078875665594
 20
-305.31254890030755
 10
2136.7049122365843
 20
-303.37157890324875
  0
LWPOLYLINE
  5
611
100
AcDbEntity
  8
OBJECT
100
AcDbPolyline
 90
        5
 70
             128
 10
2136.7049122365843
 20
-286.62842109674989
 10
2137.2359355052376
 20
-285.609940377474
 10
2137.6445365697246
 20
-284.57768455275232
 10
2137.9084862251234
 20
-283.51365053255472
 10
2138.0000000000009
 20
-282.44263164512472
  0
LWPOLYLINE
  5
612
100
AcDbEntity
  8
OBJECT
100
AcDbPolyline
 90
        5
 70
             128
 10
2138.0000000000009
 20
-282.44263164512472
 10
2137.9929446236938
 20
-282.14491652470338
 10
2137.8711707272369
 20
-281.16794303806159
 10
2137.6078875665594
 20
-280.19781219055881
 10
2136.7049122365843
 20
-278.25684219350001
  0
LINE
  5
613
100
AcDbEntity
  8
OBJECT
100
AcDbLine
 10
2136.7049122365843
 20
-278.25684219350001
 30
0.0
 11
2131.5000000000014
 21
-278.25684219350001
 31
0.0
  0
LINE
  5
614
100
AcDbEntity
  8
OBJECT
100
AcDbLine
 10
2136.7049122365843
 20
-286.62842109674989
 30
0.0
 11
2131.5000000000014
 21
-286.62842109674989
 31
0.0
  0
LWPOLYLINE
  5
615
100
AcDbEntity
  8
OBJECT
100
AcDbPolyline
 90
        4
 70
             128
 10
2138.0000000000009
 20
-294.99999999999932
 10
2137.9029719433715
 20
-292.78597391100652
 10
2137.4570738687908
 20
-289.69385261905995
 10
2136.7049122365843
 20
-286.62842109674989
  0
LINE
  5
616
100
AcDbEntity
  8
OBJECT
100
AcDbLine
 10
2136.7049122365843
 20
-303.37157890324875
 30
0.0
 11
2131.5000000000014
 21
-303.37157890324875
 31
0.0
  0
LINE
  5
617
100
AcDbEntity
  8
OBJECT
100
AcDbLine
 10
2138.0000000000009
 20
-282.44263164512472
 30
0.0
 11
2138.0000000000009
 21
-294.99999999999932
 31
0.0
  0
LWPOLYLINE
  5
618
100
AcDbEntity
  8
OBJECT
100
AcDbPolyline
 90
        5
 70
             128
 10
2136.7049122365843
 20
-311.74315780649863
 10
2137.2359355052376
 20
-310.72467708722274
 10
2137.6445365697246
 20
-309.69242126250106
 10
2137.9084862251234
 20
-308.62838724230346
 10
2138.0000000000009
 20
-307.55736835487346
  0
LINE
  5
619
100
AcDbEntity
  8
OBJECT
100
AcDbLine
 10
2136.7049122365843
 20
-311.74315780649863
 30
0.0
 11
2131.5000000000014
 21
-311.74315780649863
 31
0.0
  0
LINE
  5
61A
100
AcDbEntity
  8
OBJECT
100
AcDbLine
 10
2138.0000000000009
 20
-280.49999999999932
 30
0.0
 11
2138.0000000000009
 21
-282.44263164512472
 31
0.0
  0
LINE
  5
61B
100
AcDbEntity
  8
OBJECT
100
AcDbLine
 10
2138.0000000000009
 20
-307.55736835487346
 30
0.0
 11
2138.0000000000009
 21
-309.49999999999932
 31
0.0
  0
LINE
  5
61C
100
AcDbEntity
  8
OBJECT
100
AcDbLine
 10
1983.6443002029987
 20
-196.89999999999941
 30
0.0
 11
1983.6702360569079
 21
-196.91931402208525
 31
0.0
  0
LINE
  5
61D
100
AcDbEntity
  8
OBJECT
100
AcDbLine
 10
1983.6702360569079
 20
-203.08068597791339
 30
0.0
 11
1983.6443002029987
 21
-203.09999999999923
 31
0.0
  0
ARC
  5
61E
100
AcDbEntity
  8
OBJECT
100
AcDbCircle
 10
1992.2000000574817
 20
-199.99999999999932
 30
0.0
 40
9.0690407430996114
100
AcDbArc
 50
160.14185363307874
 51
175.25628247141606
  0
LINE
  5
61F
100
AcDbEntity
  8
OBJECT
100
AcDbLine
 10
1983.6702360569079
 20
-199.24999999999932
 30
0.0
 11
1983.1620246204716
 21
-199.24999999999932
 31
0.0
  0
SPLINE
  5
620
100
AcDbEntity
  8
OBJECT
100
AcDbSpline
210
0.0
220
0.0
230
1.0
 70
               8
 71
               2
 72
              10
 73
               7
 74
               0
 42
0.000001
 43
0.000001
 40
0.0
 40
0.0
 40
0.0
 40
0.0131293983497681
 40
0.0131293983497681
 40
0.986870601650232
 40
0.986870601650232
 40
1.0
 40
1.0
 40
1.0
 10
1983.6702360569079
 20
-200.74999999999932
 30
0.0
 10
1983.6695548009066
 20
-200.74016820209044
 30
0.0
 10
1983.6688735449052
 20
-200.73033640418157
 30
0.0
 10
1983.6210457462712
 20
-199.99954646486253
 30
0.0
 10
1983.6688735449052
 20
-199.26966359581706
 30
0.0
 10
1983.6695548009066
 20
-199.25983179790819
 30
0.0
 10
1983.6702360569079
 20
-199.24999999999932
 30
0.0
  0
LINE
  5
621
100
AcDbEntity
  8
OBJECT
100
AcDbLine
 10
1983.6702360569079
 20
-200.74999999999932
 30
0.0
 11
1983.1620246204716
 21
-200.74999999999932
 31
0.0
  0
ARC
  5
622
100
AcDbEntity
  8
OBJECT
100
AcDbCircle
 10
1992.2000000574817
 20
-199.99999999999932
 30
0.0
 40
9.0690407430994728
100
AcDbArc
 50
184.74371752858394
 51
199.85814636692129
  0
LINE
  5
623
100
AcDbEntity
  8
OBJECT
100
AcDbLine
 10
1986.3000000574821
 20
-187.2999999999995
 30
0.0
 11
1986.3000000574821
 21
-212.69999999999959
 31
0.0
  0
LINE
  5
624
100
AcDbEntity
  8
OBJECT
100
AcDbLine
 10
1983.6443002029982
 20
-291.89999999999941
 30
0.0
 11
1983.6702360569079
 21
-291.91931402208525
 31
0.0
  0
LINE
  5
625
100
AcDbEntity
  8
OBJECT
100
AcDbLine
 10
1983.6702360569079
 20
-298.08068597791339
 30
0.0
 11
1983.6443002029987
 21
-298.09999999999923
 31
0.0
  0
ARC
  5
626
100
AcDbEntity
  8
OBJECT
100
AcDbCircle
 10
1992.2000000574817
 20
-294.99999999999932
 30
0.0
 40
9.0690407430996114
100
AcDbArc
 50
160.14185363307874
 51
175.25628247141628
  0
LINE
  5
627
100
AcDbEntity
  8
OBJECT
100
AcDbLine
 10
1983.6702360569079
 20
-294.24999999999932
 30
0.0
 11
1983.1620246204711
 21
-294.24999999999932
 31
0.0
  0
SPLINE
  5
628
100
AcDbEntity
  8
OBJECT
100
AcDbSpline
210
0.0
220
0.0
230
1.0
 70
               8
 71
               2
 72
              10
 73
               7
 74
               0
 42
0.000001
 43
0.000001
 40
0.0
 40
0.0
 40
0.0
 40
0.0131293983497679
 40
0.0131293983497679
 40
0.9868706016502321
 40
0.9868706016502321
 40
1.0
 40
1.0
 40
1.0
 10
1983.6702360569079
 20
-295.74999999999932
 30
0.0
 10
1983.6695548009066
 20
-295.74016820209044
 30
0.0
 10
1983.6688735449052
 20
-295.73033640418157
 30
0.0
 10
1983.6210457462707
 20
-294.99954646486253
 30
0.0
 10
1983.6688735449052
 20
-294.26966359581706
 30
0.0
 10
1983.6695548009066
 20
-294.25983179790819
 30
0.0
 10
1983.6702360569079
 20
-294.24999999999932
 30
0.0
  0
LINE
  5
629
100
AcDbEntity
  8
OBJECT
100
AcDbLine
 10
1983.6702360569079
 20
-295.74999999999932
 30
0.0
 11
1983.1620246204711
 21
-295.74999999999932
 31
0.0
  0
ARC
  5
62A
100
AcDbEntity
  8
OBJECT
100
AcDbCircle
 10
1992.2000000574817
 20
-294.99999999999932
 30
0.0
 40
9.0690407430999258
100
AcDbArc
 50
184.74371752858369
 51
199.85814636692129
  0
LINE
  5
62B
100
AcDbEntity
  8
OBJECT
100
AcDbLine
 10
1986.3000000574816
 20
-282.2999999999995
 30
0.0
 11
1986.3000000574816
 21
-307.69999999999959
 31
0.0
  0
LINE
  5
62C
100
AcDbEntity
  8
OBJECT
100
AcDbLine
 10
2138.8000000000011
 20
-210.47749999999928
 30
0.0
 11
2138.8000000000011
 21
-189.52249999999935
 31
0.0
  0
LINE
  5
62D
100
AcDbEntity
  8
OBJECT
100
AcDbLine
 10
1990.0000000000009
 20
-121.19999999999959
 30
0.0
 11
1990.0000000000009
 21
-158.99999999999932
 31
0.0
  0
LINE
  5
62E
100
AcDbEntity
  8
OBJECT
100
AcDbLine
 10
2130.0000000000009
 20
-158.99999999999932
 30
0.0
 11
2130.0000000000009
 21
-143.00000000000023
 31
0.0
  0
LINE
  5
62F
100
AcDbEntity
  8
OBJECT
100
AcDbLine
 10
2130.0000000000009
 20
-128.00000000000023
 30
0.0
 11
2130.0000000000009
 21
-121.19999999999959
 31
0.0
  0
CIRCLE
  5
630
100
AcDbEntity
  8
OBJECT
100
AcDbCircle
 10
2059.9991933556294
 20
-508.99999993496908
 30
0.0
 40
2.0
  0
LINE
  5
631
100
AcDbEntity
  8
OBJECT
100
AcDbLine
 10
2139.9999999874808
 20
-526.49999999999432
 30
0.0
 11
2138.4999999874808
 21
-526.49999999999432
 31
0.0
  0
LINE
  5
632
100
AcDbEntity
  8
OBJECT
100
AcDbLine
 10
2138.4999999874808
 20
-516.49999999999432
 30
0.0
 11
2138.4999999874808
 21
-526.49999999999432
 31
0.0
  0
LINE
  5
633
100
AcDbEntity
  8
OBJECT
100
AcDbLine
 10
2139.9999999874808
 20
-516.49999999999432
 30
0.0
 11
2139.9999999874808
 21
-526.49999999999432
 31
0.0
  0
LINE
  5
634
100
AcDbEntity
  8
OBJECT
100
AcDbLine
 10
2138.4999999874808
 20
-516.49999999999432
 30
0.0
 11
2138.4999999874808
 21
-502.99999999999432
 31
0.0
  0
LINE
  5
635
100
AcDbEntity
  8
OBJECT
100
AcDbLine
 10
2134.9999999874799
 20
-501.49999999999432
 30
0.0
 11
2139.9999999874808
 21
-501.49999999999432
 31
0.0
  0
LINE
  5
636
100
AcDbEntity
  8
OBJECT
100
AcDbLine
 10
2138.4999999874808
 20
-502.99999999999432
 30
0.0
 11
2134.9999999874799
 21
-502.99999999999386
 31
0.0
  0
LINE
  5
637
100
AcDbEntity
  8
OBJECT
100
AcDbLine
 10
2139.9999999874808
 20
-501.49999999999432
 30
0.0
 11
2139.9999999874808
 21
-516.49999999999432
 31
0.0
  0
LINE
  5
638
100
AcDbEntity
  8
OBJECT
100
AcDbLine
 10
2131.5000000000014
 20
-501.49999999999386
 30
0.0
 11
2134.9999999874799
 21
-501.49999999999386
 31
0.0
  0
LINE
  5
639
100
AcDbEntity
  8
OBJECT
100
AcDbLine
 10
2130.5000000000014
 20
-502.99999999999386
 30
0.0
 11
2134.9999999874799
 21
-502.99999999999386
 31
0.0
  0
LINE
  5
63A
100
AcDbEntity
  8
OBJECT
100
AcDbLine
 10
2131.3000000000011
 20
-121.19999999999959
 30
0.0
 11
2131.3000000000011
 21
-109.19999999999959
 31
0.0
  0
LINE
  5
63B
100
AcDbEntity
  8
OBJECT
100
AcDbLine
 10
1988.7000000000012
 20
-109.19999999999959
 30
0.0
 11
1988.7000000000012
 21
-121.19999999999959
 31
0.0
  0
LINE
  5
63C
100
AcDbEntity
  8
OBJECT
100
AcDbLine
 10
2131.3000000000011
 20
-109.19999999999959
 30
0.0
 11
1988.7000000000012
 21
-109.19999999999959
 31
0.0
  0
LINE
  5
63D
100
AcDbEntity
  8
OBJECT
100
AcDbLine
 10
1988.7000000000012
 20
-121.19999999999959
 30
0.0
 11
2131.3000000000011
 21
-121.19999999999959
 31
0.0
  0
ARC
  5
63E
100
AcDbEntity
  8
OBJECT
100
AcDbCircle
 10
1999.5000000000009
 20
-505.00000000003661
 30
0.0
 40
10.0
100
AcDbArc
 50
180.0
 51
269.99075653634571
  0
LINE
  5
63F
100
AcDbEntity
  8
OBJECT
100
AcDbLine
 10
2120.5000000000014
 20
-515.00000000003615
 30
0.0
 11
1999.4983867112574
 21
-514.99999986990156
 31
0.0
  0
ARC
  5
640
100
AcDbEntity
  8
OBJECT
100
AcDbCircle
 10
2120.5000000000014
 20
-505.00000000003615
 30
0.0
 40
10.000000000000455
100
AcDbArc
 50
270.0
 51
359.99999999999739
  0
LINE
  5
641
100
AcDbEntity
  8
OBJECT
100
AcDbLine
 10
2130.5000000000014
 20
-502.00000000003661
 30
0.0
 11
2130.5000000000014
 21
-505.00000000003661
 31
0.0
  0
LINE
  5
642
100
AcDbEntity
  8
OBJECT
100
AcDbLine
 10
1989.5000000000009
 20
-502.00000000003661
 30
0.0
 11
1989.5000000000009
 21
-505.00000000003661
 31
0.0
  0
LINE
  5
643
100
AcDbEntity
  8
OBJECT
100
AcDbLine
 10
1988.5000000000014
 20
-502.00000000003661
 30
0.0
 11
1988.5000000000014
 21
-168.99999999999932
 31
0.0
  0
LINE
  5
644
100
AcDbEntity
  8
OBJECT
100
AcDbLine
 10
2131.5000000000014
 20
-502.00000000003661
 30
0.0
 11
1988.5000000000014
 21
-502.00000000003661
 31
0.0
  0
LINE
  5
645
100
AcDbEntity
  8
OBJECT
100
AcDbLine
 10
2131.5000000000014
 20
-502.00000000003661
 30
0.0
 11
2131.5000000000014
 21
-168.99999999999932
 31
0.0
  0
LINE
  5
646
100
AcDbEntity
  8
OBJECT
100
AcDbLine
 10
2131.5000000000014
 20
-158.99999999999932
 30
0.0
 11
1988.5000000000014
 21
-158.99999999999932
 31
0.0
  0
LINE
  5
647
100
AcDbEntity
  8
OBJECT
100
AcDbLine
 10
2131.5000000000014
 20
-168.99999999999932
 30
0.0
 11
1988.5000000000014
 21
-168.99999999999932
 31
0.0
  0
LINE
  5
648
100
AcDbEntity
  8
OBJECT
100
AcDbLine
 10
2132.5000000000014
 20
-168.99999999999932
 30
0.0
 11
2132.5000000000014
 21
-158.99999999999932
 31
0.0
  0
LINE
  5
649
100
AcDbEntity
  8
OBJECT
100
AcDbLine
 10
2131.5000000000014
 20
-158.99999999999932
 30
0.0
 11
2132.5000000000014
 21
-158.99999999999932
 31
0.0
  0
LINE
  5
64A
100
AcDbEntity
  8
OBJECT
100
AcDbLine
 10
2131.5000000000014
 20
-168.99999999999932
 30
0.0
 11
2132.5000000000014
 21
-168.99999999999932
 31
0.0
  0
LINE
  5
64B
100
AcDbEntity
  8
OBJECT
100
AcDbLine
 10
1987.5000000000009
 20
-168.99999999999932
 30
0.0
 11
1987.5000000000014
 21
-158.99999999999932
 31
0.0
  0
LINE
  5
64C
100
AcDbEntity
  8
OBJECT
100
AcDbLine
 10
1987.5000000000014
 20
-158.99999999999932
 30
0.0
 11
1988.5000000000014
 21
-158.99999999999932
 31
0.0
  0
LINE
  5
64D
100
AcDbEntity
  8
OBJECT
100
AcDbLine
 10
1987.5000000000009
 20
-168.99999999999932
 30
0.0
 11
1988.5000000000014
 21
-168.99999999999932
 31
0.0
  0
LINE
  5
64E
100
AcDbEntity
  8
OBJECT
100
AcDbLine
 10
2131.5
 20
-131.00000000000023
 30
0.0
 11
2130.0
 21
-131.00000000000023
 31
0.0
  0
LINE
  5
64F
100
AcDbEntity
  8
OBJECT
100
AcDbLine
 10
2131.5
 20
-143.00000000000023
 30
0.0
 11
2130.0
 21
-143.00000000000023
 31
0.0
  0
LINE
  5
650
100
AcDbEntity
  8
OBJECT
100
AcDbLine
 10
2131.5
 20
-131.00000000000023
 30
0.0
 11
2131.5
 21
-143.00000000000023
 31
0.0
  0
LINE
  5
651
100
AcDbEntity
  8
OBJECT
100
AcDbLine
 10
2130.0
 20
-143.00000000000023
 30
0.0
 11
2130.0
 21
-131.00000000000023
 31
0.0
  0
LINE
  5
652
100
AcDbEntity
  8
OBJECT
100
AcDbLine
 10
2140.0
 20
-74.000000000000227
 30
0.0
 11
2140.0
 21
-123.50000000000023
 31
0.0
  0
LINE
  5
653
100
AcDbEntity
  8
OBJECT
100
AcDbLine
 10
2138.5
 20
-123.50000000000023
 30
0.0
 11
2138.5
 21
-74.000000000000227
 31
0.0
  0
ARC
  5
654
100
AcDbEntity
  8
OBJECT
100
AcDbCircle
 10
2137.0
 20
-123.50000000000023
 30
0.0
 40
1.5
100
AcDbArc
 50
270.0
 51
0.0
  0
LINE
  5
655
100
AcDbEntity
  8
OBJECT
100
AcDbLine
 10
2137.0
 20
-126.50000000000023
 30
0.0
 11
2133.0
 21
-126.50000000000023
 31
0.0
  0
LINE
  5
656
100
AcDbEntity
  8
OBJECT
100
AcDbLine
 10
2133.0
 20
-125.00000000000023
 30
0.0
 11
2137.0
 21
-125.00000000000023
 31
0.0
  0
ARC
  5
657
100
AcDbEntity
  8
OBJECT
100
AcDbCircle
 10
2133.0
 20
-128.00000000000023
 30
0.0
 40
1.5
100
AcDbArc
 50
90.0
 51
180.0
  0
ARC
  5
658
100
AcDbEntity
  8
OBJECT
100
AcDbCircle
 10
2133.0
 20
-128.00000000000023
 30
0.0
 40
3.0
100
AcDbArc
 50
90.0
 51
180.0
  0
ARC
  5
659
100
AcDbEntity
  8
OBJECT
100
AcDbCircle
 10
2137.0
 20
-123.50000000000023
 30
0.0
 40
3.0
100
AcDbArc
 50
270.0
 51
0.0
  0
LINE
  5
65A
100
AcDbEntity
  8
OBJECT
100
AcDbLine
 10
2131.5
 20
-128.00000000000023
 30
0.0
 11
2131.5
 21
-131.00000000000023
 31
0.0
  0
LINE
  5
65B
100
AcDbEntity
  8
OBJECT
100
AcDbLine
 10
2130.0
 20
-131.00000000000023
 30
0.0
 11
2130.0
 21
-128.00000000000023
 31
0.0
  0
LINE
  5
65C
100
AcDbEntity
  8
OBJECT
100
AcDbLine
 10
2138.0000000000009
 20
-286.39999999999941
 30
0.0
 11
2140.0
 21
-286.39999999999941
 31
0.0
  0
LINE
  5
65D
100
AcDbEntity
  8
OBJECT
100
AcDbLine
 10
2140.0
 20
-303.59999999999923
 30
0.0
 11
2138.0000000000009
 21
-303.59999999999923
 31
0.0
  0
LINE
  5
65E
100
AcDbEntity
  8
OBJECT
100
AcDbLine
 10
2136.7049122365843
 20
-278.25684219350001
 30
0.0
 11
2138.0000000000009
 21
-280.49999999999932
 31
0.0
  0
LINE
  5
65F
100
AcDbEntity
  8
OBJECT
100
AcDbLine
 10
2138.0000000000009
 20
-309.49999999999932
 30
0.0
 11
2136.7049122365843
 21
-311.74315780649863
 31
0.0
  0
ARC
  5
660
100
AcDbEntity
  8
OBJECT
100
AcDbCircle
 10
1992.2000000574817
 20
-199.99999999999932
 30
0.0
 40
9.0999999999996479
100
AcDbArc
 50
130.41743820570909
 51
160.08295025219925
  0
ARC
  5
661
100
AcDbEntity
  8
OBJECT
100
AcDbCircle
 10
1992.2000000574817
 20
-199.99999999999932
 30
0.0
 40
9.1000000000000014
100
AcDbArc
 50
199.91704974780075
 51
229.58256179429279
  0
ARC
  5
662
100
AcDbEntity
  8
OBJECT
100
AcDbCircle
 10
1988.6000000091103
 20
-212.70000004837061
 30
0.0
 40
2.2999999516287066
100
AcDbArc
 50
179.99999939750401
 51
267.50809335144993
  0
ARC
  5
663
100
AcDbEntity
  8
OBJECT
100
AcDbCircle
 10
1988.6000000091103
 20
-187.29999995162802
 30
0.0
 40
2.2999999516287164
100
AcDbArc
 50
92.491906648550071
 51
180.00000060249596
  0
ARC
  5
664
100
AcDbEntity
  8
OBJECT
100
AcDbCircle
 10
1992.2000000574817
 20
-294.99999999999932
 30
0.0
 40
9.0999999999999446
100
AcDbArc
 50
130.41743820571128
 51
160.08295025220025
  0
ARC
  5
665
100
AcDbEntity
  8
OBJECT
100
AcDbCircle
 10
1992.2000000574817
 20
-294.99999999999932
 30
0.0
 40
9.1000000000000014
100
AcDbArc
 50
199.91704974780075
 51
229.58256179429054
  0
ARC
  5
666
100
AcDbEntity
  8
OBJECT
100
AcDbCircle
 10
1988.6000000091099
 20
-307.70000004837061
 30
0.0
 40
2.2999999516282514
100
AcDbArc
 50
179.99999939750401
 51
267.5080933514613
  0
ARC
  5
667
100
AcDbEntity
  8
OBJECT
100
AcDbCircle
 10
1988.6000000091099
 20
-282.29999995162802
 30
0.0
 40
2.2999999516286964
100
AcDbArc
 50
92.49190664853873
 51
180.00000060249596
  0
LINE
  5
668
100
AcDbEntity
  8
OBJECT
100
AcDbLine
 10
2131.5000000000014
 20
-189.52249999999935
 30
0.0
 11
2138.8000000000011
 21
-189.52249999999935
 31
0.0
  0
LINE
  5
669
100
AcDbEntity
  8
OBJECT
100
AcDbLine
 10
2138.8000000000011
 20
-210.47749999999928
 30
0.0
 11
2131.5000000000014
 21
-210.47749999999928
 31
0.0
  0
LINE
  5
66A
100
AcDbEntity
  8
OBJECT
100
AcDbLine
 10
2138.8000000000011
 20
-193.10000000000741
 30
0.0
 11
2140.0
 21
-193.10000000000741
 31
0.0
  0
LINE
  5
66B
100
AcDbEntity
  8
OBJECT
100
AcDbLine
 10
2140.0
 20
-206.90000000000714
 30
0.0
 11
2138.8000000000011
 21
-206.90000000000714
 31
0.0
  0
POLYLINE
  5
66C
100
AcDbEntity
  8
OBJECT
100
AcDb2dPolyline
 66
               1
 10
0.0
 20
0.0
 30
0.0
 75
               5
  0
VERTEX
  5
66D
100
AcDbEntity
  8
OBJECT
100
AcDbVertex
100
AcDb2dVertex
 10
2051.5000000000009
 20
-514.99999992582821
 30
0.0
  0
VERTEX
  5
66E
100
AcDbEntity
  8
OBJECT
100
AcDbVertex
100
AcDb2dVertex
 10
2051.5000000000009
 20
-528.99999999999977
 30
0.0
  0
VERTEX
  5
66F
100
AcDbEntity
  8
OBJECT
100
AcDbVertex
100
AcDb2dVertex
 10
2068.5000000000009
 20
-528.99999999999977
 30
0.0
  0
VERTEX
  5
670
100
AcDbEntity
  8
OBJECT
100
AcDbVertex
100
AcDb2dVertex
 10
2068.5000000000009
 20
-514.99999994411132
 30
0.0
  0
SEQEND
  5
671
100
AcDbEntity
  8
OBJECT
  0
LINE
  5
672
100
AcDbEntity
  8
CENTER
100
AcDbLine
 10
2060.0000000000009
 20
-81.524998878689303
 30
0.0
 11
2060.0000000000009
 21
-562.5249988786893
 31
0.0
  0
LINE
  5
673
100
AcDbEntity
  8
OBJECT
100
AcDbLine
 10
2960.0
 20
1525.0
 30
0.0
 11
1918.0
 21
1525.0
 31
0.0
  0
DIMENSION
  5
674
100
AcDbEntity
  8
DIMENTION
100
AcDbDimension
  2
*D64
 10
2888.2826999254939
 20
1475.0
 30
0.0
 11
2889.2826999254939
 21
1570.4750011213109
 31
0.0
 70
             128
  3
CAD
100
AcDbAlignedDimension
 13
2752.0
 23
1525.0
 33
0.0
 14
2752.0
 24
1475.0
 34
0.0
 50
90.0
100
AcDbRotatedDimension
1001
ACAD
1000
DSTYLE
1002
{
1070
             271
1070
               0
1070
             340
1005
63
1070
               3
1000
<>以上
1070
             174
1070
               0
1070
             147
1040
0.9999999999999999
1002
}
  0
INSERT
  5
675
100
AcDbEntity
  8
OBJECT
100
AcDbBlockReference
  2
*U65
 10
1214.1172999999999
 20
429.0
 30
0.0
  0
DIMENSION
  5
676
100
AcDbEntity
  8
DIMENTION
100
AcDbDimension
  2
*D66
 10
2140.0
 20
737.0
 30
0.0
 11
2063.1500000000001
 21
737.0
 31
0.0
  1
160
  3
CAD
100
AcDbAlignedDimension
 13
1986.3000000000002
 23
933.79999999999995
 33
0.0
 14
2140.0
 24
870.0
 34
0.0
100
AcDbRotatedDimension
1001
ACAD
1000
DSTYLE
1002
{
1070
             340
1005
63
1070
             147
1040
0.9999999962747097
1002
}
  0
DIMENSION
  5
677
100
AcDbEntity
  8
DIMENTION
100
AcDbDimension
  2
*D67
 10
1886.9232045256297
 20
1165.0
 30
0.0
 11
1886.9232045256297
 21
1220.0999999999999
 31
0.0
  1
110
  3
CAD
100
AcDbAlignedDimension
 13
2060.0000000000009
 23
1054.8000000000002
 33
0.0
 14
1987.5
 24
1165.0
 34
0.0
 50
90.0
100
AcDbRotatedDimension
1001
ACAD
1000
DSTYLE
1002
{
1070
             340
1005
63
1070
             147
1040
0.9999999962747097
1002
}
  0
LINE
  5
678
100
AcDbEntity
  8
OBJECT
100
AcDbLine
 10
1988.7999999999911
 20
1033.5
 30
0.0
 11
1988.7999999999911
 21
1032.3701638651492
 31
0.0
  0
LINE
  5
679
100
AcDbEntity
  8
OBJECT
100
AcDbLine
 10
1982.4443002029975
 20
1057.9000000000005
 30
0.0
 11
1982.4702360569067
 21
1057.8806859779143
 31
0.0
  0
ARC
  5
67A
100
AcDbEntity
  8
OBJECT
100
AcDbCircle
 10
1991.0000000574805
 20
1054.8000000000002
 30
0.0
 40
9.0690407430996114
100
AcDbArc
 50
160.14185363307874
 51
175.25628247141606
  0
LINE
  5
67B
100
AcDbEntity
  8
OBJECT
100
AcDbLine
 10
1981.9620246204704
 20
1055.5500000000002
 30
0.0
 11
1982.4702360569067
 21
1055.5500000000002
 31
0.0
  0
SPLINE
  5
67C
100
AcDbEntity
  8
OBJECT
100
AcDbSpline
210
0.0
220
0.0
230
1.0
 70
               8
 71
               2
 72
              10
 73
               7
 74
               0
 42
0.000001
 43
0.000001
 40
0.0
 40
0.0
 40
0.0
 40
0.0131293983500703
 40
0.0131293983500703
 40
0.9868706016499298
 40
0.9868706016499298
 40
1.0
 40
1.0
 40
1.0
 10
1982.4702360569067
 20
1054.0500000000002
 30
0.0
 10
1982.4695548009054
 20
1054.0598317979093
 30
0.0
 10
1982.468873544904
 20
1054.0696635958184
 30
0.0
 10
1982.42104574627
 20
1054.8004535351374
 30
0.0
 10
1982.468873544904
 20
1055.530336404182
 30
0.0
 10
1982.4695548009054
 20
1055.5401682020911
 30
0.0
 10
1982.4702360569067
 20
1055.5500000000002
 30
0.0
  0
LINE
  5
67D
100
AcDbEntity
  8
OBJECT
100
AcDbLine
 10
1981.9620246204704
 20
1054.0500000000002
 30
0.0
 11
1982.4702360569067
 21
1054.0500000000002
 31
0.0
  0
ARC
  5
67E
100
AcDbEntity
  8
OBJECT
100
AcDbCircle
 10
1991.0000000574805
 20
1054.8000000000002
 30
0.0
 40
9.0690407430994728
100
AcDbArc
 50
184.74371752858394
 51
199.85814636692129
  0
LINE
  5
67F
100
AcDbEntity
  8
OBJECT
100
AcDbLine
 10
1982.4702360569067
 20
1051.7193140220861
 30
0.0
 11
1982.4443002029975
 21
1051.6999999999998
 31
0.0
  0
LINE
  5
680
100
AcDbEntity
  8
OBJECT
100
AcDbLine
 10
1985.1000000574804
 20
1067.5
 30
0.0
 11
1985.1000000574804
 21
1042.1000000158583
 31
0.0
  0
LINE
  5
681
100
AcDbEntity
  8
OBJECT
100
AcDbLine
 10
2128.0
 20
1033.5
 30
0.0
 11
1987.5
 21
1033.5
 31
0.0
  0
LINE
  5
682
100
AcDbEntity
  8
OBJECT
100
AcDbLine
 10
1987.5
 20
1436.1000000000149
 30
0.0
 11
2128.0
 21
1436.1000000000149
 31
0.0
  0
LINE
  5
683
100
AcDbEntity
  8
OBJECT
100
AcDbLine
 10
1987.5
 20
1033.5
 30
0.0
 11
1987.5
 21
1436.1000000000149
 31
0.0
  0
LINE
  5
684
100
AcDbEntity
  8
OBJECT
100
AcDbLine
 10
1987.5
 20
1038.8000000000002
 30
0.0
 11
1987.3000000000466
 21
1038.8000000000002
 31
0.0
  0
LINE
  5
685
100
AcDbEntity
  8
OBJECT
100
AcDbLine
 10
1987.3000000000466
 20
1038.8000000000002
 30
0.0
 11
1987.3000000000466
 21
1032.3701638651492
 31
0.0
  0
LINE
  5
686
100
AcDbEntity
  8
OBJECT
100
AcDbLine
 10
1988.3000000000002
 20
1032.3701638651492
 30
0.0
 11
1988.3000000000002
 21
1033.5
 31
0.0
  0
LINE
  5
687
100
AcDbEntity
  8
OBJECT
100
AcDbLine
 10
1987.3000000000002
 20
1001.299
 30
0.0
 11
1986.2999999999997
 21
1001.299
 31
0.0
  0
LINE
  5
688
100
AcDbEntity
  8
OBJECT
100
AcDbLine
 10
1986.3000000000002
 20
933.79999999999995
 30
0.0
 11
1986.2999999999997
 21
1001.299
 31
0.0
  0
LINE
  5
689
100
AcDbEntity
  8
OBJECT
100
AcDbLine
 10
2128.0
 20
933.79999999999995
 30
0.0
 11
1986.3000000000002
 21
933.79999999999995
 31
0.0
  0
LINE
  5
68A
100
AcDbEntity
  8
OBJECT
100
AcDbLine
 10
2128.0
 20
1002.3000000000002
 30
0.0
 11
1987.3000000000002
 21
1002.3000000000002
 31
0.0
  0
LINE
  5
68B
100
AcDbEntity
  8
OBJECT
100
AcDbLine
 10
1987.3000000000002
 20
1002.3000000000002
 30
0.0
 11
1987.3000000000002
 21
1001.299
 31
0.0
  0
LINE
  5
68C
100
AcDbEntity
  8
OBJECT
100
AcDbLine
 10
2128.0
 20
1032.3701638651492
 30
0.0
 11
1987.3000000000002
 21
1032.3701638651492
 31
0.0
  0
LINE
  5
68D
100
AcDbEntity
  8
OBJECT
100
AcDbLine
 10
1987.3000000000002
 20
1032.3701638651492
 30
0.0
 11
1987.3000000000002
 21
1002.3000000000002
 31
0.0
  0
ARC
  5
68E
100
AcDbEntity
  8
OBJECT
100
AcDbCircle
 10
1991.0000000574805
 20
1054.8000000000002
 30
0.0
 40
9.0999999999999446
100
AcDbArc
 50
130.41743820571128
 51
160.08295025219658
  0
ARC
  5
68F
100
AcDbEntity
  8
OBJECT
100
AcDbCircle
 10
1991.0000000574805
 20
1054.8000000000002
 30
0.0
 40
9.100000000000156
100
AcDbArc
 50
199.91704974780342
 51
229.58256179428869
  0
LINE
  5
690
100
AcDbEntity
  8
OBJECT
100
AcDbLine
 10
1987.5
 20
1039.8000000000002
 30
0.0
 11
1987.3999999607377
 21
1039.8000000000002
 31
0.0
  0
LINE
  5
691
100
AcDbEntity
  8
OBJECT
100
AcDbLine
 10
1987.3999999607377
 20
1069.8000000000002
 30
0.0
 11
1987.5
 21
1069.8000000000002
 31
0.0
  0
ARC
  5
692
100
AcDbEntity
  8
OBJECT
100
AcDbCircle
 10
1987.4000000091091
 20
1042.0999999516289
 30
0.0
 40
2.2999999516287066
100
AcDbArc
 50
179.99999939751535
 51
269.99999879500803
  0
ARC
  5
693
100
AcDbEntity
  8
OBJECT
100
AcDbCircle
 10
1987.4000000091091
 20
1067.5000000483715
 30
0.0
 40
2.2999999516287066
100
AcDbArc
 50
90.000001204991946
 51
180.00000060248465
  0
LINE
  5
694
100
AcDbEntity
  8
CENTER
100
AcDbLine
 10
2060.0000000000009
 20
910.47500112131092
 30
0.0
 11
2060.0000000000009
 21
1504.4750011213109
 31
0.0
  0
CIRCLE
  5
695
100
AcDbEntity
  8
HIDDEN
100
AcDbCircle
 10
2060.0000000000009
 20
1054.8000000000002
 30
0.0
 40
7.5
  0
INSERT
  5
696
100
AcDbEntity
  8
DIMENTION
100
AcDbBlockReference
  2
*U68
 10
1214.1172999999999
 20
429.0
 30
0.0
  0
DIMENSION
  5
697
100
AcDbEntity
  8
DIMENTION
100
AcDbDimension
  2
*D69
 10
2140.0
 20
806.47500112131092
 30
0.0
 11
2100.0000000000005
 21
806.47500112131092
 31
0.0
  3
CAD
100
AcDbAlignedDimension
 13
2060.0000000000009
 23
933.79999999999995
 33
0.0
 14
2140.0
 24
870.0
 34
0.0
100
AcDbRotatedDimension
1001
ACAD
1000
DSTYLE
1002
{
1070
             340
1005
63
1070
             147
1040
0.9999999962747097
1002
}
  0
INSERT
  5
698
100
AcDbEntity
  8
OBJECT
100
AcDbBlockReference
  2
*U70
 10
1214.1172999999999
 20
429.0
 30
0.0
  0
MTEXT
  5
699
100
AcDbEntity
  8
TEXT
100
AcDbMText
 10
-460.45330000000013
 20
1679.8032000000003
 30
0.0
 40
25.400000000000002
 41
0.0
 71
               1
 72
               1
  1
上部 回転ノズル\P下部 ４バルブ４アーム回転ノズル
  7
________
  0
MTEXT
  5
69A
100
AcDbEntity
  8
TEXT
100
AcDbMText
 10
581.44450000000029
 20
1239.8833000000002
 30
0.0
 40
25.400000000000002
 41
0.0
 71
               1
 72
               1
  1
電気ヒーター：3.0 kW\P温度制御　：サーミスター方式\P　　　　　　デジタル設定（85 ℃）
  7
________
  0
LINE
  5
69B
100
AcDbEntity
  8
TEXT
100
AcDbLine
 10
-785.0
 20
1205.0000000000002
 30
0.0
 11
-785.0
 21
1765.0
 31
0.0
  0
LINE
  5
69C
100
AcDbEntity
  8
TEXT
100
AcDbLine
 10
255.00000000000023
 20
1765.0
 30
0.0
 11
1484.9999999999993
 21
1765.0
 31
0.0
  0
LINE
  5
69D
100
AcDbEntity
  8
TEXT
100
AcDbLine
 10
-615.0
 20
1765.0
 30
0.0
 11
-615.0
 21
1485.0
 31
0.0
  0
LINE
  5
69E
100
AcDbEntity
  8
TEXT
100
AcDbLine
 10
-485.0
 20
1765.0
 30
0.0
 11
-485.0
 21
1205.0000000000002
 31
0.0
  0
LINE
  5
69F
100
AcDbEntity
  8
TEXT
100
AcDbLine
 10
255.00000000000023
 20
1125.0000000000002
 30
0.0
 11
255.00000000000023
 21
1765.0
 31
0.0
  0
LINE
  5
6A0
100
AcDbEntity
  8
TEXT
100
AcDbLine
 10
1484.9999999999993
 20
1765.0
 30
0.0
 11
1484.9999999999993
 21
1125.0000000000002
 31
0.0
  0
LINE
  5
6A1
100
AcDbEntity
  8
TEXT
100
AcDbLine
 10
565.00000000000023
 20
1765.0
 30
0.0
 11
565.00000000000023
 21
1125.0000000000002
 31
0.0
  0
MTEXT
  5
6A2
100
AcDbEntity
  8
TEXT
100
AcDbMText
 10
-767.36110000000008
 20
1740.75
 30
0.0
 40
25.400000000000002
 41
0.0
 71
               1
 72
               1
  1
洗浄方式
  7
________
  0
MTEXT
  5
6A3
100
AcDbEntity
  8
TEXT
100
AcDbMText
 10
-600.65029999999979
 20
1739.6921000000002
 30
0.0
 40
25.400000000000002
 41
0.0
 71
               1
 72
               1
  1
洗　浄
  7
________
  0
MTEXT
  5
6A4
100
AcDbEntity
  8
TEXT
100
AcDbMText
 10
-600.65029999999979
 20
1660.5
 30
0.0
 40
25.400000000000002
 41
0.0
 71
               1
 72
               1
  1
すすぎ
  7
________
  0
MTEXT
  5
6A5
100
AcDbEntity
  8
TEXT
100
AcDbMText
 10
-460.45330000000013
 20
1761.2199000000001
 30
0.0
 40
25.400000000000002
 41
0.0
 71
               1
 72
               1
  1
上部 ４エンドアーム回転ノズル\P下部 トリプルアーム回転ノズル
  7
________
  0
MTEXT
  5
6A6
100
AcDbEntity
  8
TEXT
100
AcDbMText
 10
-772.35930000000008
 20
1595.4143000000004
 30
0.0
 40
25.400000000000002
 41
0.0
 71
               1
 72
               1
  1
洗浄時間
  7
________
  0
MTEXT
  5
6A7
100
AcDbEntity
  8
TEXT
100
AcDbMText
 10
-768.36999999999989
 20
1482.1365999999998
 30
0.0
 40
25.400000000000002
 41
0.0
 71
               1
 72
               1
  1
ラ ッ ク 処 理 数
  7
________
  0
MTEXT
  5
6A8
100
AcDbEntity
  8
TEXT
100
AcDbMText
 10
-768.36999999999989
 20
1357.7477000000001
 30
0.0
 40
25.400000000000002
 41
0.0
 71
               1
 72
               1
  1
必要給水(湯)能力
  7
________
  0
MTEXT
  5
6A9
100
AcDbEntity
  8
TEXT
100
AcDbMText
 10
267.64070000000004
 20
1759.3554999999997
 30
0.0
 40
25.400000000000002
 41
0.0
 71
               1
 72
               1
  1
すすぎ湯消費量
  7
________
  0
MTEXT
  5
6AA
100
AcDbEntity
  8
TEXT
100
AcDbMText
 10
276.27499326672319
 20
1639.3749999983129
 30
0.0
 40
25.400000000000002
 41
0.0
 71
               1
 72
               1
  1
洗　　浄　　槽
  7
________
  0
MTEXT
  5
6AB
100
AcDbEntity
  8
TEXT
100
AcDbMText
 10
271.00000000000023
 20
1519.9699000000001
 30
0.0
 40
25.400000000000002
 41
0.0
 71
               1
 72
               1
  1
すすぎ湯タンク
  7
________
  0
MTEXT
  5
6AC
100
AcDbEntity
  8
TEXT
100
AcDbMText
 10
-458.38889999999992
 20
1482.1365999999998
 30
0.0
 40
25.400000000000002
 41
0.0
 71
               1
 72
               1
  1
　短　：65ﾗｯｸ／ h（500 mm角形ラック）\P標　準：60ﾗｯｸ／ h（500 mm角形ラック）\P　長　：40ﾗｯｸ／ h（500 mm角形ラック）\P
  7
________
  0
MTEXT
  5
6AD
100
AcDbEntity
  8
TEXT
100
AcDbMText
 10
-458.38889999999992
 20
1355.4722000000004
 30
0.0
 40
25.400000000000002
 41
0.0
 71
               1
 72
               1
  1
温　　度：65 ℃以上\P流　　量：3.4 L／ min以上\P給  湯  圧：49.1kPa ～491kPa\P　　　　　（0.5 ～ 5.0 kgf／ cm ）
  7
________
  0
MTEXT
  5
6AE
100
AcDbEntity
  8
TEXT
100
AcDbMText
 10
578.08340000000021
 20
1758.0532000000003
 30
0.0
 40
25.400000000000002
 41
0.0
 71
               1
 72
               1
  1
　短　：1.8 L／ ﾗｯｸ\P標　準：2.2 L／ ﾗｯｸ\P　長　：2.6 L／ ﾗｯｸ
  7
________
  0
MTEXT
  5
6AF
100
AcDbEntity
  8
TEXT
100
AcDbMText
 10
584.89182019068107
 20
1639.3888000000006
 30
0.0
 40
25.400000000000002
 41
0.0
 71
               1
 72
               1
  1
容　　量：62 L\P加熱方式：電気ヒーター　4.0 kW\P温度制御：サーミスター方式（65 ℃）
  7
________
  0
MTEXT
  5
6B0
100
AcDbEntity
  8
TEXT
100
AcDbMText
 10
581.44450000000029
 20
1519.9699000000001
 30
0.0
 40
25.400000000000002
 41
0.0
 71
               1
 72
               1
  1
容　　量：17 L（有効　5.5 L）
  7
________
  0
MTEXT
  5
6B1
100
AcDbEntity
  8
TEXT
100
AcDbMText
 10
271.00000000000023
 20
1479.8199000000004
 30
0.0
 40
25.400000000000002
 41
0.0
 71
               1
 72
               1
  1
洗  浄  ポ  ン  プ
  7
________
  0
MTEXT
  5
6B2
100
AcDbEntity
  8
TEXT
100
AcDbMText
 10
271.00000000000023
 20
1441.3464741288665
 30
0.0
 40
25.400000000000002
 41
0.0
 71
               1
 72
               1
  1
すすぎ ポ ン プ
  7
________
  0
MTEXT
  5
6B3
100
AcDbEntity
  8
TEXT
100
AcDbMText
 10
271.00000000000023
 20
1399.9421000000004
 30
0.0
 40
25.400000000000002
 41
0.0
 71
               1
 72
               1
  1
電　　　　　源
  7
________
  0
MTEXT
  5
6B4
100
AcDbEntity
  8
TEXT
100
AcDbMText
 10
271.00000000000023
 20
1359.2779999954707
 30
0.0
 40
25.400000000000002
 41
0.0
 71
               1
 72
               1
  1
消　費　電　力
  7
________
  0
MTEXT
  5
6B5
100
AcDbEntity
  8
TEXT
100
AcDbMText
 10
271.00000000000023
 20
1280.6366
 30
0.0
 40
25.400000000000002
 41
0.0
 71
               1
 72
               1
  1
質　　　　　量
  7
________
  0
MTEXT
  5
6B6
100
AcDbEntity
  8
TEXT
100
AcDbMText
 10
271.52499999542556
 20
1237.1588000000004
 30
0.0
 40
25.400000000000002
 41
0.0
 71
               1
 72
               1
  1
電気ブースター
  7
________
  0
MTEXT
  5
6B7
100
AcDbEntity
  8
TEXT
100
AcDbMText
 10
581.44450000000029
 20
1479.8199000000004
 30
0.0
 40
25.400000000000002
 41
0.0
 71
               1
 72
               1
  1
電動機定格出力　750 W
  7
________
  0
MTEXT
  5
6B8
100
AcDbEntity
  8
TEXT
100
AcDbMText
 10
581.44450000000029
 20
1440.3464741288665
 30
0.0
 40
25.400000000000002
 41
0.0
 71
               1
 72
               1
  1
電動機定格出力　90 W
  7
________
  0
MTEXT
  5
6B9
100
AcDbEntity
  8
TEXT
100
AcDbMText
 10
581.44450000000029
 20
1399.3750000017228
 30
0.0
 40
25.400000000000002
 41
0.0
 71
               1
 72
               1
  1
三相 200 V　50・60 Hz
  7
________
  0
MTEXT
  5
6BA
100
AcDbEntity
  8
TEXT
100
AcDbMText
 10
581.44450000000029
 20
1359.3750000017228
 30
0.0
 40
25.400000000000002
 41
0.0
 71
               1
 72
               1
  1
8.0 kW
  7
________
  0
MTEXT
  5
6BB
100
AcDbEntity
  8
TEXT
100
AcDbMText
 10
581.44450000000029
 20
1279.3750000017233
 30
0.0
 40
25.400000000000002
 41
0.0
 71
               1
 72
               1
  1
95 kg
  7
________
  0
MTEXT
  5
6BC
100
AcDbEntity
  8
TEXT
100
AcDbMText
 10
271.00000000000023
 20
1320.0532000000001
 30
0.0
 40
25.400000000000002
 41
0.0
 71
               1
 72
               1
  1
最  大  電  流  値
  7
________
  0
MTEXT
  5
6BD
100
AcDbEntity
  8
TEXT
100
AcDbMText
 10
581.44450000000029
 20
1319.8750000017228
 30
0.0
 40
25.400000000000002
 41
0.0
 71
               1
 72
               1
  1
23.5 A
  7
________
  0
MTEXT
  5
6BE
100
AcDbEntity
  8
TEXT
100
AcDbMText
 10
-82.909722222222172
 20
1239.36010814931
 30
0.0
 40
14.111111111111112
 41
0.0
 71
               1
 72
               1
  1
2
  7
________
  0
LINE
  5
6BF
100
AcDbEntity
  8
TEXT
100
AcDbLine
 10
-615.0
 20
1685.0
 30
0.0
 11
255.00000000000023
 21
1685.0
 31
0.0
  0
LINE
  5
6C0
100
AcDbEntity
  8
TEXT
100
AcDbLine
 10
-785.0
 20
1605.0
 30
0.0
 11
255.00000000000023
 21
1605.0
 31
0.0
  0
LINE
  5
6C1
100
AcDbEntity
  8
TEXT
100
AcDbLine
 10
-785.0
 20
1485.0
 30
0.0
 11
255.00000000000023
 21
1485.0
 31
0.0
  0
LINE
  5
6C2
100
AcDbEntity
  8
TEXT
100
AcDbLine
 10
-785.0
 20
1365.0000000000002
 30
0.0
 11
255.00000000000023
 21
1365.0000000000002
 31
0.0
  0
LINE
  5
6C3
100
AcDbEntity
  8
TEXT
100
AcDbLine
 10
-785.0
 20
1205.0000000000002
 30
0.0
 11
255.00000000000023
 21
1205.0000000000002
 31
0.0
  0
MTEXT
  5
6C4
100
AcDbEntity
  8
TEXT
100
AcDbMText
 10
-463.69920000000002
 20
1599.9422000016875
 30
0.0
 40
25.400000000000002
 41
0.0
 71
               1
 72
               1
  1
1ラック55秒  洗浄45秒、水切5秒、すすぎ5秒\P1ラック60秒  洗浄49秒、水切5秒、すすぎ6秒\P1ラック90秒  洗浄78秒、水切5秒、すすぎ7秒
  7
________
  0
MTEXT
  5
6C5
100
AcDbEntity
  8
TEXT
100
AcDbMText
 10
-584.65029999999979
 20
1597.375
 30
0.0
 40
25.400000000000002
 41
0.0
 71
               1
 72
               1
  1
 短\P標準\P 長
  7
________
  0
LINE
  5
6C6
100
AcDbEntity
  8
TEXT
100
AcDbLine
 10
255.00000000000023
 20
1525.0
 30
0.0
 11
1484.9999999999993
 21
1525.0
 31
0.0
  0
LINE
  5
6C7
100
AcDbEntity
  8
TEXT
100
AcDbLine
 10
255.00000000000023
 20
1485.0
 30
0.0
 11
1484.9999999999993
 21
1485.0
 31
0.0
  0
LINE
  5
6C8
100
AcDbEntity
  8
TEXT
100
AcDbLine
 10
255.00000000000023
 20
1445.0000000000002
 30
0.0
 11
1484.9999999999993
 21
1445.0000000000002
 31
0.0
  0
LINE
  5
6C9
100
AcDbEntity
  8
TEXT
100
AcDbLine
 10
255.00000000000023
 20
1405.0000000000002
 30
0.0
 11
1484.9999999999993
 21
1405.0000000000002
 31
0.0
  0
LINE
  5
6CA
100
AcDbEntity
  8
TEXT
100
AcDbLine
 10
255.00000000000023
 20
1405.0000000000002
 30
0.0
 11
1484.9999999999993
 21
1405.0000000000002
 31
0.0
  0
LINE
  5
6CB
100
AcDbEntity
  8
TEXT
100
AcDbLine
 10
255.00000000000023
 20
1365.0000000000002
 30
0.0
 11
1484.9999999999993
 21
1365.0000000000002
 31
0.0
  0
LINE
  5
6CC
100
AcDbEntity
  8
TEXT
100
AcDbLine
 10
255.00000000000023
 20
1325.0000000000002
 30
0.0
 11
1484.9999999999993
 21
1325.0000000000002
 31
0.0
  0
LINE
  5
6CD
100
AcDbEntity
  8
TEXT
100
AcDbLine
 10
255.00000000000023
 20
1285.0000000000002
 30
0.0
 11
1484.9999999999993
 21
1285.0000000000002
 31
0.0
  0
LINE
  5
6CE
100
AcDbEntity
  8
TEXT
100
AcDbLine
 10
255.00000000000023
 20
1245.0000000000002
 30
0.0
 11
1484.9999999999993
 21
1245.0000000000002
 31
0.0
  0
LINE
  5
6CF
100
AcDbEntity
  8
TEXT
100
AcDbLine
 10
255.00000000000023
 20
1125.0000000000002
 30
0.0
 11
1484.9999999999993
 21
1125.0000000000002
 31
0.0
  0
LINE
  5
6D0
100
AcDbEntity
  8
TEXT
100
AcDbLine
 10
255.00000000000023
 20
1645.0
 30
0.0
 11
1484.9999999999993
 21
1645.0
 31
0.0
  0
LINE
  5
6D1
100
AcDbEntity
  8
TEXT
100
AcDbLine
 10
-785.0
 20
1765.0
 30
0.0
 11
255.00000000000023
 21
1765.0
 31
0.0
  0
MTEXT
  5
6D2
100
AcDbEntity
  8
TEXT
100
AcDbMText
 10
-580.0
 20
910.0
 30
0.0
 40
33.866666666666667
 41
0.0
 71
               1
 72
               1
  1
給水装置　形式認証番号\P　　　　　     TW4003
  7
________
  0
MTEXT
  5
6D3
100
AcDbEntity
  8
TEXT
100
AcDbMText
 10
-635.0
 20
752.66666666666629
 30
0.0
 40
33.866666666666667
 41
0.0
 71
               1
 72
               1
  1
可燃物からの離隔距離（cm）
  7
________
  0
LINE
  5
6D4
100
AcDbEntity
  8
TEXT
100
AcDbLine
 10
-668.0
 20
698.66666666666629
 30
0.0
 11
-108.0
 21
698.66666666666629
 31
0.0
  0
LINE
  5
6D5
100
AcDbEntity
  8
TEXT
100
AcDbLine
 10
-668.0
 20
768.66666666666629
 30
0.0
 11
-108.0
 21
768.66666666666629
 31
0.0
  0
LINE
  5
6D6
100
AcDbEntity
  8
TEXT
100
AcDbLine
 10
-668.0
 20
628.66666666666629
 30
0.0
 11
-108.0
 21
628.66666666666629
 31
0.0
  0
LINE
  5
6D7
100
AcDbEntity
  8
TEXT
100
AcDbLine
 10
-668.0
 20
558.66666666666652
 30
0.0
 11
-108.0
 21
558.66666666666652
 31
0.0
  0
LINE
  5
6D8
100
AcDbEntity
  8
TEXT
100
AcDbLine
 10
-668.0
 20
558.66666666666652
 30
0.0
 11
-668.0
 21
768.66666666666629
 31
0.0
  0
LINE
  5
6D9
100
AcDbEntity
  8
TEXT
100
AcDbLine
 10
-108.0
 20
558.66666666666652
 30
0.0
 11
-108.0
 21
768.66666666666629
 31
0.0
  0
LINE
  5
6DA
100
AcDbEntity
  8
TEXT
100
AcDbLine
 10
-528.0
 20
558.66666666666652
 30
0.0
 11
-528.0
 21
698.66666666666629
 31
0.0
  0
LINE
  5
6DB
100
AcDbEntity
  8
TEXT
100
AcDbLine
 10
-388.0
 20
558.66666666666652
 30
0.0
 11
-388.0
 21
698.66666666666629
 31
0.0
  0
LINE
  5
6DC
100
AcDbEntity
  8
TEXT
100
AcDbLine
 10
-248.0
 20
558.66666666666652
 30
0.0
 11
-248.0
 21
698.66666666666629
 31
0.0
  0
MTEXT
  5
6DD
100
AcDbEntity
  8
TEXT
100
AcDbMText
 10
-646.0
 20
685.66666666666629
 30
0.0
 40
33.866666666666667
 41
0.0
 71
               1
 72
               1
  1
上方
  7
________
  0
MTEXT
  5
6DE
100
AcDbEntity
  8
TEXT
100
AcDbMText
 10
-650.0
 20
615.66666666666629
 30
0.0
 40
33.866666666666667
 41
0.0
 71
               1
 72
               1
  1
フード
  7
________
  0
MTEXT
  5
6DF
100
AcDbEntity
  8
TEXT
100
AcDbMText
 10
-501.0
 20
685.66666666666629
 30
0.0
 40
33.866666666666667
 41
0.0
 71
               1
 72
               1
  1
側方
  7
________
  0
MTEXT
  5
6E0
100
AcDbEntity
  8
TEXT
100
AcDbMText
 10
-515.0
 20
617.66666666666629
 30
0.0
 40
33.866666666666667
 41
0.0
 71
               1
 72
               1
  1
０以上
  7
________
  0
MTEXT
  5
6E1
100
AcDbEntity
  8
TEXT
100
AcDbMText
 10
-361.0
 20
685.66666666666629
 30
0.0
 40
33.866666666666667
 41
0.0
 71
               1
 72
               1
  1
前方
  7
________
  0
MTEXT
  5
6E2
100
AcDbEntity
  8
TEXT
100
AcDbMText
 10
-221.0
 20
685.66666666666629
 30
0.0
 40
33.866666666666667
 41
0.0
 71
               1
 72
               1
  1
後方
  7
________
  0
MTEXT
  5
6E3
100
AcDbEntity
  8
TEXT
100
AcDbMText
 10
-235.0
 20
617.66666666666629
 30
0.0
 40
33.866666666666667
 41
0.0
 71
               1
 72
               1
  1
０以上
  7
________
  0
LINE
  5
6E4
100
AcDbEntity
  8
TEXT
100
AcDbLine
 10
-388.0
 20
558.66666666666652
 30
0.0
 11
-248.0
 21
628.66666666666629
 31
0.0
  0
ENDSEC
  0
SECTION
  2
OBJECTS
  0
DICTIONARY
  5
19
100
AcDbDictionary
  3
ACAD_GROUP
350
1A
  3
ACAD_MLINESTYLE
350
1B
  0
DICTIONARY
  5
1A
102
{ACAD_REACTORS
330
19
102
}
100
AcDbDictionary
  0
DICTIONARY
  5
1B
102
{ACAD_REACTORS
330
19
102
}
100
AcDbDictionary
  3
STANDARD
350
1C
  0
MLINESTYLE
  5
1C
102
{ACAD_REACTORS
330
1B
102
}
100
AcDbMlineStyle
  2
STANDARD
 70
               0
  3

 62
               0
 51
90.0
 52
90.0
 71
               2
 49
0.5
 62
             256
  6
BYLAYER
 49
-0.5
 62
             256
  6
BYLAYER
  0
ENDSEC
  0
EOF
