  0
SECTION
  2
HEADER
  9
$ACADVER
  1
AC1014
  9
$ACADMAINTVER
 70
               0
  9
$DWGCODEPAGE
  3
ANSI_932
  9
$INSBASE
 10
0.0
 20
0.0
 30
0.0
  9
$EXTMIN
 10
-1000.0
 20
-979.99999999999977
 30
0.0
  9
$EXTMAX
 10
3050.0
 20
1739.9999999999998
 30
0.0
  9
$LIMMIN
 10
0.0
 20
0.0
  9
$LIMMAX
 10
0.0
 20
0.0
  9
$ORTHOMODE
 70
               0
  9
$REGENMODE
 70
               1
  9
$FILLMODE
 70
               1
  9
$QTEXTMODE
 70
               0
  9
$MIRRTEXT
 70
               1
  9
$DRAGMODE
 70
               2
  9
$LTSCALE
 40
254.0
  9
$OSMODE
 70
               0
  9
$ATTMODE
 70
               1
  9
$TEXTSIZE
 40
0.2
  9
$TRACEWID
 40
1.0
  9
$TEXTSTYLE
  7
STANDARD
  9
$CLAYER
  8
0
  9
$CELTYPE
  6
CONTINUOUS
  9
$CECOLOR
 62
             256
  9
$CELTSCALE
 40
1.0
  9
$DELOBJ
 70
               1
  9
$DISPSILH
 70
               0
  9
$DIMSCALE
 40
1.0
  9
$DIMASZ
 40
31.75
  9
$DIMEXO
 40
9.9999999627470952
  9
$DIMDLI
 40
7.9999999938532707
  9
$DIMRND
 40
0.0
  9
$DIMDLE
 40
0.0
  9
$DIMEXE
 40
19.99999992549419
  9
$DIMTP
 40
0.0
  9
$DIMTM
 40
0.0
  9
$DIMTXT
 40
33.866666666666667
  9
$DIMCEN
 40
0.0
  9
$DIMTSZ
 40
0.0
  9
$DIMTOL
 70
               0
  9
$DIMLIM
 70
               0
  9
$DIMTIH
 70
               0
  9
$DIMTOH
 70
               0
  9
$DIMSE1
 70
               0
  9
$DIMSE2
 70
               0
  9
$DIMTAD
 70
               1
  9
$DIMZIN
 70
              11
  9
$DIMBLK
  1
VW_OPENARROW
  9
$DIMASO
 70
               1
  9
$DIMSHO
 70
               1
  9
$DIMPOST
  1
<>
  9
$DIMAPOST
  1
[]
  9
$DIMALT
 70
               0
  9
$DIMALTD
 70
               1
  9
$DIMALTF
 40
1.0
  9
$DIMLFAC
 40
1.0
  9
$DIMTOFL
 70
               1
  9
$DIMTVP
 40
0.0
  9
$DIMTIX
 70
               1
  9
$DIMSOXD
 70
               0
  9
$DIMSAH
 70
               0
  9
$DIMBLK1
  1

  9
$DIMBLK2
  1

  9
$DIMSTYLE
  2
CAD
  9
$DIMCLRD
 70
               0
  9
$DIMCLRE
 70
               0
  9
$DIMCLRT
 70
               0
  9
$DIMTFAC
 40
0.7
  9
$DIMGAP
 40
0.099999999627471
  9
$DIMJUST
 70
               0
  9
$DIMSD1
 70
               0
  9
$DIMSD2
 70
               0
  9
$DIMTOLJ
 70
               1
  9
$DIMTZIN
 70
              11
  9
$DIMALTZ
 70
              11
  9
$DIMALTTZ
 70
              11
  9
$DIMFIT
 70
               0
  9
$DIMUPT
 70
               0
  9
$DIMUNIT
 70
               2
  9
$DIMDEC
 70
               4
  9
$DIMTDEC
 70
               4
  9
$DIMALTU
 70
               2
  9
$DIMALTTD
 70
               2
  9
$DIMTXSTY
  7
________
  9
$DIMAUNIT
 70
               0
  9
$LUNITS
 70
               2
  9
$LUPREC
 70
               4
  9
$SKETCHINC
 40
0.1
  9
$FILLETRAD
 40
0.0
  9
$AUNITS
 70
               0
  9
$AUPREC
 70
               0
  9
$MENU
  1
acad
  9
$ELEVATION
 40
0.0
  9
$PELEVATION
 40
0.0
  9
$THICKNESS
 40
0.0
  9
$LIMCHECK
 70
               0
  9
$BLIPMODE
 70
               0
  9
$CHAMFERA
 40
0.0
  9
$CHAMFERB
 40
0.0
  9
$CHAMFERC
 40
0.0
  9
$CHAMFERD
 40
0.0
  9
$SKPOLY
 70
               0
  9
$TDCREATE
 40
2458913.597094907
  9
$TDUPDATE
 40
2458913.597094907
  9
$TDINDWG
 40
0.0000000000
  9
$TDUSRTIMER
 40
0.0000000000
  9
$USRTIMER
 70
               1
  9
$ANGBASE
 50
0.0
  9
$ANGDIR
 70
               0
  9
$PDMODE
 70
               1
  9
$PDSIZE
 40
-2.0
  9
$PLINEWID
 40
0.0
  9
$COORDS
 70
               0
  9
$SPLFRAME
 70
               0
  9
$SPLINETYPE
 70
               6
  9
$SPLINESEGS
 70
               8
  9
$ATTDIA
 70
               0
  9
$ATTREQ
 70
               1
  9
$HANDLING
 70
               1
  9
$HANDSEED
  5
705
  9
$SURFTAB1
 70
               6
  9
$SURFTAB2
 70
               6
  9
$SURFTYPE
 70
               6
  9
$SURFU
 70
               6
  9
$SURFV
 70
               6
  9
$UCSNAME
  2

  9
$UCSORG
 10
0.0
 20
0.0
 30
0.0
  9
$UCSXDIR
 10
1.0
 20
0.0
 30
0.0
  9
$UCSYDIR
 10
0.0
 20
1.0
 30
0.0
  9
$PUCSNAME
  2

  9
$PUCSORG
 10
0.0
 20
0.0
 30
0.0
  9
$PUCSXDIR
 10
1.0
 20
0.0
 30
0.0
  9
$PUCSYDIR
 10
0.0
 20
1.0
 30
0.0
  9
$USERI1
 70
               0
  9
$USERI2
 70
               0
  9
$USERI3
 70
               0
  9
$USERI4
 70
               0
  9
$USERI5
 70
               0
  9
$USERR1
 40
0.0
  9
$USERR2
 40
0.0
  9
$USERR3
 40
0.0
  9
$USERR4
 40
0.0
  9
$USERR5
 40
0.0
  9
$WORLDVIEW
 70
               1
  9
$SHADEDGE
 70
               3
  9
$SHADEDIF
 70
              70
  9
$TILEMODE
 70
               1
  9
$MAXACTVP
 70
              16
  9
$PINSBASE
 10
0.0
 20
0.0
 30
0.0
  9
$PLIMCHECK
 70
               0
  9
$PEXTMIN
 10
1.0000000000000000E+20
 20
1.0000000000000000E+20
 30
1.0000000000000000E+20
  9
$PEXTMAX
 10
-1.0000000000000000E+20
 20
-1.0000000000000000E+20
 30
-1.0000000000000000E+20
  9
$PLIMMIN
 10
0.0
 20
0.0
  9
$PLIMMAX
 10
12.0
 20
9.0
  9
$UNITMODE
 70
               0
  9
$VISRETAIN
 70
               0
  9
$PLINEGEN
 70
               1
  9
$PSLTSCALE
 70
               0
  9
$TREEDEPTH
 70
            3020
  9
$PICKSTYLE
 70
               1
  9
$CMLSTYLE
  2
STANDARD
  9
$CMLJUST
 70
               0
  9
$CMLSCALE
 40
1.0
  9
$PROXYGRAPHICS
 70
               0
  9
$MEASUREMENT
 70
               1
  0
ENDSEC
  0
SECTION
  2
CLASSES
  0
CLASS
  1
LWPOLYLINE
  2
AcDbPolyline
  3
"AutoCAD"
 90
        0
280
               0
281
               1
  0
CLASS
  1
IMAGE
  2
AcDbRasterImage
  3
ISM
 90
      127
280
               0
281
               1
  0
CLASS
  1
OLE2FRAME
  2
AcDbOle2Frame
  3
""
 90
        0
280
               0
281
               1
  0
CLASS
  1
HATCH
  2
AcDbHatch
  3
"ACAD_SEDONA"
 90
        0
280
               0
281
               1
  0
CLASS
  1
DICTIONARYVAR
  2
AcDbDictionaryVar
  3
"AutoCAD"
 90
        0
280
               0
281
               0
  0
CLASS
  1
RASTERVARIABLES
  2
AcDbRasterVariables
  3
ISM
 90
        0
280
               0
281
               0
  0
CLASS
  1
IMAGEDEF
  2
AcDbRasterImageDef
  3
ISM
 90
        0
280
               0
281
               0
  0
CLASS
  1
IMAGEDEF_REACTOR
  2
AcDbRasterImageDefReactor
  3
ISM
 90
        1
280
               0
281
               0
  0
CLASS
  1
IDBUFFER
  2
AcDbIdBuffer
  3
"Acad"
 90
        0
280
               0
281
               0
  0
CLASS
  1
SPATIAL_FILTER
  2
AcDbSpatialFilter
  3
"Acad"
 90
        0
280
               0
281
               0
  0
CLASS
  1
XRECORD
  2
AcDbXrecord
  3
"<Built In>"
 90
        0
280
               0
281
               0
  0
CLASS
  1
SORTENTSTABLE
  2
AcDbSortentsTable
  3
"AutoCAD"
 90
        0
280
               0
281
               0
  0
CLASS
  1
LAYER_INDEX
  2
AcDbLayerIndex
  3
"Acad"
 90
        0
280
               0
281
               0
  0
CLASS
  1
SPATIAL_INDEX
  2
AcDbSpatialIndex
  3
"Acad"
 90
        0
280
               0
281
               0
  0
CLASS
  1
OBJECT_PTR
  2
CAseDLPNTableRecord
  3
"ASE-LPNTableRecord"
 90
        1
280
               0
281
               0
  0
CLASS
  1
LAYOUT
  2
AcDbLayout
  3
"AutoCAD 2000"
 90
        1
280
               0
281
               0
  0
CLASS
  1
PLOTSETTINGS
  2
AcDbPlotSettings
  3
"AutoCAD 2000"
 90
        1
280
               0
281
               0
  0
CLASS
  1
ACDBDICTIONARYWDFLT
  2
AcDbDictionaryWithDefault
  3
"AutoCAD 2000"
 90
        1
280
               0
281
               0
  0
CLASS
  1
ACDBPLACEHOLDER
  2
AcDbPlaceHolder
  3
"AutoCAD 2000"
 90
        1
280
               0
281
               0
  0
ENDSEC
  0
SECTION
  2
TABLES
  0
TABLE
  2
VPORT
  5
7
100
AcDbSymbolTable
 70
               1
  0
VPORT
  5
15
100
AcDbSymbolTableRecord
100
AcDbViewportTableRecord
  2
*ACTIVE
 70
               0
 10
0.0
 20
0.0
 11
1.0
 21
1.0
 12
1025.0
 22
380.0
 13
0.0
 23
0.0
 14
1.0
 24
1.0
 15
0.0
 25
0.0
 16
0.0
 26
0.0
 36
1.0
 17
0.0
 27
0.0
 37
0.0
 40
2719.9999999999995
 41
0.688564
 42
50.0
 43
0.0
 44
0.0
 50
0.0
 51
0.0
 71
               0
 72
             100
 73
               1
 74
               1
 75
               0
 76
               0
 77
               0
 78
               0
  0
ENDTAB
  0
TABLE
  2
LTYPE
  5
4
100
AcDbSymbolTable
 70
              21
  0
LTYPE
  5
11
100
AcDbSymbolTableRecord
100
AcDbLinetypeTableRecord
  2
BYBLOCK
 70
              64
  3

 72
              65
 73
               0
 40
0.0
  0
LTYPE
  5
12
100
AcDbSymbolTableRecord
100
AcDbLinetypeTableRecord
  2
BYLAYER
 70
              64
  3

 72
              65
 73
               0
 40
0.0
  0
LTYPE
  5
13
100
AcDbSymbolTableRecord
100
AcDbLinetypeTableRecord
  2
CONTINUOUS
 70
              64
  3
Solid line
 72
              65
 73
               0
 40
0.0
  0
LTYPE
  5
65
100
AcDbSymbolTableRecord
100
AcDbLinetypeTableRecord
  2
STYLE_01
 70
               0
  3

 72
              65
 73
               2
 40
0.047244094488189
 49
0.0236220472440945
 74
               0
 49
-0.0236220472440945
 74
               0
  0
LTYPE
  5
66
100
AcDbSymbolTableRecord
100
AcDbLinetypeTableRecord
  2
STYLE_02
 70
               0
  3

 72
              65
 73
               6
 40
1.5157480314960627
 49
1.1811023622047243
 74
               0
 49
-0.0590551181102361
 74
               0
 49
0.078740157480315
 74
               0
 49
-0.0590551181102361
 74
               0
 49
0.078740157480315
 74
               0
 49
-0.0590551181102361
 74
               0
  0
LTYPE
  5
67
100
AcDbSymbolTableRecord
100
AcDbLinetypeTableRecord
  2
STYLE_03
 70
               0
  3

 72
              65
 73
               4
 40
1.417322834645669
 49
1.1811023622047243
 74
               0
 49
-0.0590551181102361
 74
               0
 49
0.1181102362204725
 74
               0
 49
-0.0590551181102361
 74
               0
  0
LTYPE
  5
68
100
AcDbSymbolTableRecord
100
AcDbLinetypeTableRecord
  2
STYLE_04
 70
               0
  3

 72
              65
 73
               2
 40
0.2283464566929133
 49
0.1574803149606299
 74
               0
 49
-0.0708661417322835
 74
               0
  0
LTYPE
  5
69
100
AcDbSymbolTableRecord
100
AcDbLinetypeTableRecord
  2
STYLE_05
 70
               0
  3

 72
              65
 73
               6
 40
1.5157480314960627
 49
1.1811023622047243
 74
               0
 49
-0.0590551181102361
 74
               0
 49
0.078740157480315
 74
               0
 49
-0.0590551181102361
 74
               0
 49
0.078740157480315
 74
               0
 49
-0.0590551181102361
 74
               0
  0
LTYPE
  5
6A
100
AcDbSymbolTableRecord
100
AcDbLinetypeTableRecord
  2
STYLE_06
 70
               0
  3

 72
              65
 73
               4
 40
0.65277099609375
 49
0.0555572509765625
 74
               0
 49
-0.0555572509765625
 74
               0
 49
0.486114501953125
 74
               0
 49
-0.0555419921875
 74
               0
  0
LTYPE
  5
6B
100
AcDbSymbolTableRecord
100
AcDbLinetypeTableRecord
  2
STYLE_07
 70
               0
  3

 72
              65
 73
               6
 40
0.375
 49
0.125
 74
               0
 49
-0.041656494140625
 74
               0
 49
0.125
 74
               0
 49
-0.0416717529296875
 74
               0
 49
0.013885498046875
 74
               0
 49
-0.0277862548828125
 74
               0
  0
LTYPE
  5
6C
100
AcDbSymbolTableRecord
100
AcDbLinetypeTableRecord
  2
STYLE_08
 70
               0
  3

 72
              65
 73
               6
 40
0.25
 49
0.125
 74
               0
 49
-0.041656494140625
 74
               0
 49
0.013885498046875
 74
               0
 49
-0.0277862548828125
 74
               0
 49
0.013885498046875
 74
               0
 49
-0.0277862548828125
 74
               0
  0
LTYPE
  5
6D
100
AcDbSymbolTableRecord
100
AcDbLinetypeTableRecord
  2
STYLE_09
 70
               0
  3

 72
              65
 73
               4
 40
1.0
 49
0.75
 74
               0
 49
-0.0555572509765625
 74
               0
 49
0.138885498046875
 74
               0
 49
-0.0555572509765625
 74
               0
  0
LTYPE
  5
6E
100
AcDbSymbolTableRecord
100
AcDbLinetypeTableRecord
  2
STYLE_10
 70
               0
  3

 72
              65
 73
               6
 40
1.1875
 49
0.75
 74
               0
 49
-0.0555572509765625
 74
               0
 49
0.138885498046875
 74
               0
 49
-0.0555572509765625
 74
               0
 49
0.125
 74
               0
 49
-0.0625
 74
               0
  0
LTYPE
  5
6F
100
AcDbSymbolTableRecord
100
AcDbLinetypeTableRecord
  2
STYLE_11
 70
               0
  3

 72
              65
 73
               4
 40
1.5
 49
0.0833282470703125
 74
               0
 49
-0.0555572509765625
 74
               0
 49
1.3055572509765625
 74
               0
 49
-0.0555572509765625
 74
               0
  0
LTYPE
  5
70
100
AcDbSymbolTableRecord
100
AcDbLinetypeTableRecord
  2
STYLE_12
 70
               0
  3

 72
              65
 73
               4
 40
1.34722900390625
 49
1.02777099609375
 74
               0
 49
-0.083343505859375
 74
               0
 49
0.125
 74
               0
 49
-0.111114501953125
 74
               0
  0
LTYPE
  5
71
100
AcDbSymbolTableRecord
100
AcDbLinetypeTableRecord
  2
STYLE_13
 70
               0
  3

 72
              65
 73
               4
 40
0.6805572509765625
 49
0.361114501953125
 74
               0
 49
-0.0833282470703125
 74
               0
 49
0.125
 74
               0
 49
-0.111114501953125
 74
               0
  0
LTYPE
  5
72
100
AcDbSymbolTableRecord
100
AcDbLinetypeTableRecord
  2
STYLE_14
 70
               0
  3

 72
              65
 73
               4
 40
1.4305572509765625
 49
1.1805572509765625
 74
               0
 49
-0.0555572509765625
 74
               0
 49
0.138885498046875
 74
               0
 49
-0.0555572509765625
 74
               0
  0
LTYPE
  5
73
100
AcDbSymbolTableRecord
100
AcDbLinetypeTableRecord
  2
STYLE_15
 70
               0
  3

 72
              65
 73
               6
 40
0.5694427490234375
 49
0.361114501953125
 74
               0
 49
-0.041656494140625
 74
               0
 49
0.0416717529296875
 74
               0
 49
-0.0416717529296875
 74
               0
 49
0.041656494140625
 74
               0
 49
-0.0416717529296875
 74
               0
  0
LTYPE
  5
74
100
AcDbSymbolTableRecord
100
AcDbLinetypeTableRecord
  2
STYLE_16
 70
               0
  3

 72
              65
 73
               4
 40
1.111114501953125
 49
0.7916717529296875
 74
               0
 49
-0.0833282470703125
 74
               0
 49
0.125
 74
               0
 49
-0.111114501953125
 74
               0
  0
LTYPE
  5
75
100
AcDbSymbolTableRecord
100
AcDbLinetypeTableRecord
  2
STYLE_17
 70
               0
  3

 72
              65
 73
               4
 40
0.2083282470703125
 49
0.125
 74
               0
 49
-0.041656494140625
 74
               0
 49
0.013885498046875
 74
               0
 49
-0.0277862548828125
 74
               0
  0
LTYPE
  5
76
100
AcDbSymbolTableRecord
100
AcDbLinetypeTableRecord
  2
STYLE_18
 70
               0
  3

 72
              65
 73
               6
 40
0.6111111111111112
 49
0.4027777777777778
 74
               0
 49
-0.0416666666666666
 74
               0
 49
0.0416666666666667
 74
               0
 49
-0.0416666666666667
 74
               0
 49
0.0416666666666666
 74
               0
 49
-0.0416666666666667
 74
               0
  0
ENDTAB
  0
TABLE
  2
LAYER
  5
2
100
AcDbSymbolTable
 70
               9
  0
LAYER
  5
14
100
AcDbSymbolTableRecord
100
AcDbLayerTableRecord
  2
0
 70
               0
 62
               7
  6
CONTINUOUS
  0
LAYER
  5
7E
100
AcDbSymbolTableRecord
100
AcDbLayerTableRecord
  2
DEFPOINTS
 70
               0
 62
               7
  6
CONTINUOUS
  0
LAYER
  5
7F
100
AcDbSymbolTableRecord
100
AcDbLayerTableRecord
  2
OBJECT
 70
               0
 62
               7
  6
CONTINUOUS
  0
LAYER
  5
80
100
AcDbSymbolTableRecord
100
AcDbLayerTableRecord
  2
DIMENTION
 70
               0
 62
               7
  6
CONTINUOUS
  0
LAYER
  5
81
100
AcDbSymbolTableRecord
100
AcDbLayerTableRecord
  2
CENTER
 70
               0
 62
               7
  6
STYLE_09
  0
LAYER
  5
82
100
AcDbSymbolTableRecord
100
AcDbLayerTableRecord
  2
HIDDEN
 70
               0
 62
               7
  6
STYLE_04
  0
LAYER
  5
83
100
AcDbSymbolTableRecord
100
AcDbLayerTableRecord
  2
FRAME
 70
               0
 62
               7
  6
CONTINUOUS
  0
LAYER
  5
84
100
AcDbSymbolTableRecord
100
AcDbLayerTableRecord
  2
OUTLINE
 70
               0
 62
               7
  6
STYLE_15
  0
LAYER
  5
85
100
AcDbSymbolTableRecord
100
AcDbLayerTableRecord
  2
TEXT
 70
               0
 62
               7
  6
CONTINUOUS
  0
ENDTAB
  0
TABLE
  2
STYLE
  5
3
100
AcDbSymbolTable
 70
               2
  0
STYLE
  5
17
100
AcDbSymbolTableRecord
100
AcDbTextStyleTableRecord
  2
STANDARD
 70
               0
 40
0.0
 41
1.0
 50
0.0
 71
               0
 42
0.0
  3
txt
  4
BIGFONT.SHX
  0
STYLE
  5
64
100
AcDbSymbolTableRecord
100
AcDbTextStyleTableRecord
  2
________
 70
               0
 40
0.0
 41
1.0
 50
0.0
 71
               0
 42
0.0
  3
ＭＳ Ｐゴシック
  4

1001
ACAD
1000
ＭＳ Ｐゴシック
1071
        0
  0
ENDTAB
  0
TABLE
  2
VIEW
  5
5
100
AcDbSymbolTable
 70
               0
  0
ENDTAB
  0
TABLE
  2
UCS
  5
6
100
AcDbSymbolTable
 70
               0
  0
ENDTAB
  0
TABLE
  2
APPID
  5
8
100
AcDbSymbolTable
 70
               1
  0
APPID
  5
16
100
AcDbSymbolTableRecord
100
AcDbRegAppTableRecord
  2
ACAD
 70
               0
  0
ENDTAB
  0
TABLE
  2
DIMSTYLE
  5
9
100
AcDbSymbolTable
 70
               2
  0
DIMSTYLE
105
18
100
AcDbSymbolTableRecord
100
AcDbDimStyleTableRecord
  2
STANDARD
 70
               0
  3

  4

  5

  6

  7

 40
1.0
 41
0.18
 42
0.0625
 43
0.38
 44
0.18
 45
0.0
 46
0.0
 47
0.0
 48
0.0
 71
               0
 72
               0
 73
               1
 74
               1
 75
               0
 76
               0
 77
               0
 78
               0
140
0.18
141
0.09
142
0.0
143
25.399999999999999
144
1.0
145
0.0
146
1.0
147
0.09
170
               0
171
               2
172
               0
173
               0
174
               0
175
               0
176
               0
177
               0
178
               0
270
               2
271
               4
272
               4
273
               2
274
               2
275
               0
280
               0
281
               0
282
               0
283
               1
284
               0
285
               0
286
               0
287
               0
288
               0
340
17
  0
DIMSTYLE
105
7D
100
AcDbSymbolTableRecord
100
AcDbDimStyleTableRecord
  2
CAD
 70
               0
  3
<>
  4
[]
  5
VW_OPENARROW
  6

  7

 40
1.0
 41
31.75
 42
9.9999999627470952
 43
7.9999999938532707
 44
19.99999992549419
 45
0.0
 46
0.0
 47
0.0
 48
0.0
 71
               0
 72
               0
 73
               0
 74
               0
 75
               0
 76
               0
 77
               1
 78
              11
140
33.866666666666667
141
0.0
142
0.0
143
1.0
144
1.0
145
0.0
146
0.7
147
0.099999999627471
170
               0
171
               1
172
               1
173
               0
174
               1
175
               0
176
               0
177
               0
178
               0
270
               2
271
               4
272
               4
273
               2
274
               2
275
               0
280
               0
281
               0
282
               0
283
               1
284
              11
285
              11
286
              11
287
               0
288
               0
340
64
  0
ENDTAB
  0
TABLE
  2
BLOCK_RECORD
  5
1
100
AcDbSymbolTable
 70
              72
  0
BLOCK_RECORD
  5
A
100
AcDbSymbolTableRecord
100
AcDbBlockTableRecord
  2
*MODEL_SPACE
  0
BLOCK_RECORD
  5
B
100
AcDbSymbolTableRecord
100
AcDbBlockTableRecord
  2
*PAPER_SPACE
  0
BLOCK_RECORD
  5
77
100
AcDbSymbolTableRecord
100
AcDbBlockTableRecord
  2
VW_OPENARROW
  0
BLOCK_RECORD
  5
1D
100
AcDbSymbolTableRecord
100
AcDbBlockTableRecord
  2
*U1
  0
BLOCK_RECORD
  5
1E
100
AcDbSymbolTableRecord
100
AcDbBlockTableRecord
  2
*U2
  0
BLOCK_RECORD
  5
1F
100
AcDbSymbolTableRecord
100
AcDbBlockTableRecord
  2
*U3
  0
BLOCK_RECORD
  5
20
100
AcDbSymbolTableRecord
100
AcDbBlockTableRecord
  2
*U4
  0
BLOCK_RECORD
  5
21
100
AcDbSymbolTableRecord
100
AcDbBlockTableRecord
  2
*D5
  0
BLOCK_RECORD
  5
22
100
AcDbSymbolTableRecord
100
AcDbBlockTableRecord
  2
*D6
  0
BLOCK_RECORD
  5
23
100
AcDbSymbolTableRecord
100
AcDbBlockTableRecord
  2
*D7
  0
BLOCK_RECORD
  5
24
100
AcDbSymbolTableRecord
100
AcDbBlockTableRecord
  2
*D8
  0
BLOCK_RECORD
  5
25
100
AcDbSymbolTableRecord
100
AcDbBlockTableRecord
  2
*D9
  0
BLOCK_RECORD
  5
26
100
AcDbSymbolTableRecord
100
AcDbBlockTableRecord
  2
*D10
  0
BLOCK_RECORD
  5
27
100
AcDbSymbolTableRecord
100
AcDbBlockTableRecord
  2
*D11
  0
BLOCK_RECORD
  5
28
100
AcDbSymbolTableRecord
100
AcDbBlockTableRecord
  2
*D12
  0
BLOCK_RECORD
  5
29
100
AcDbSymbolTableRecord
100
AcDbBlockTableRecord
  2
*D13
  0
BLOCK_RECORD
  5
2A
100
AcDbSymbolTableRecord
100
AcDbBlockTableRecord
  2
*D14
  0
BLOCK_RECORD
  5
2B
100
AcDbSymbolTableRecord
100
AcDbBlockTableRecord
  2
*D15
  0
BLOCK_RECORD
  5
2C
100
AcDbSymbolTableRecord
100
AcDbBlockTableRecord
  2
*D16
  0
BLOCK_RECORD
  5
2D
100
AcDbSymbolTableRecord
100
AcDbBlockTableRecord
  2
*U17
  0
BLOCK_RECORD
  5
2E
100
AcDbSymbolTableRecord
100
AcDbBlockTableRecord
  2
*U18
  0
BLOCK_RECORD
  5
2F
100
AcDbSymbolTableRecord
100
AcDbBlockTableRecord
  2
*U19
  0
BLOCK_RECORD
  5
30
100
AcDbSymbolTableRecord
100
AcDbBlockTableRecord
  2
*U20
  0
BLOCK_RECORD
  5
31
100
AcDbSymbolTableRecord
100
AcDbBlockTableRecord
  2
*U21
  0
BLOCK_RECORD
  5
32
100
AcDbSymbolTableRecord
100
AcDbBlockTableRecord
  2
*U22
  0
BLOCK_RECORD
  5
33
100
AcDbSymbolTableRecord
100
AcDbBlockTableRecord
  2
*U23
  0
BLOCK_RECORD
  5
34
100
AcDbSymbolTableRecord
100
AcDbBlockTableRecord
  2
*U24
  0
BLOCK_RECORD
  5
35
100
AcDbSymbolTableRecord
100
AcDbBlockTableRecord
  2
*U25
  0
BLOCK_RECORD
  5
36
100
AcDbSymbolTableRecord
100
AcDbBlockTableRecord
  2
*U26
  0
BLOCK_RECORD
  5
37
100
AcDbSymbolTableRecord
100
AcDbBlockTableRecord
  2
*D27
  0
BLOCK_RECORD
  5
38
100
AcDbSymbolTableRecord
100
AcDbBlockTableRecord
  2
*D28
  0
BLOCK_RECORD
  5
39
100
AcDbSymbolTableRecord
100
AcDbBlockTableRecord
  2
*D29
  0
BLOCK_RECORD
  5
3A
100
AcDbSymbolTableRecord
100
AcDbBlockTableRecord
  2
*D30
  0
BLOCK_RECORD
  5
3B
100
AcDbSymbolTableRecord
100
AcDbBlockTableRecord
  2
*D31
  0
BLOCK_RECORD
  5
3C
100
AcDbSymbolTableRecord
100
AcDbBlockTableRecord
  2
*U32
  0
BLOCK_RECORD
  5
3D
100
AcDbSymbolTableRecord
100
AcDbBlockTableRecord
  2
*U33
  0
BLOCK_RECORD
  5
3E
100
AcDbSymbolTableRecord
100
AcDbBlockTableRecord
  2
*D34
  0
BLOCK_RECORD
  5
3F
100
AcDbSymbolTableRecord
100
AcDbBlockTableRecord
  2
*D35
  0
BLOCK_RECORD
  5
40
100
AcDbSymbolTableRecord
100
AcDbBlockTableRecord
  2
*D36
  0
BLOCK_RECORD
  5
41
100
AcDbSymbolTableRecord
100
AcDbBlockTableRecord
  2
*D37
  0
BLOCK_RECORD
  5
42
100
AcDbSymbolTableRecord
100
AcDbBlockTableRecord
  2
*U38
  0
BLOCK_RECORD
  5
43
100
AcDbSymbolTableRecord
100
AcDbBlockTableRecord
  2
*U39
  0
BLOCK_RECORD
  5
44
100
AcDbSymbolTableRecord
100
AcDbBlockTableRecord
  2
*D40
  0
BLOCK_RECORD
  5
45
100
AcDbSymbolTableRecord
100
AcDbBlockTableRecord
  2
*D41
  0
BLOCK_RECORD
  5
46
100
AcDbSymbolTableRecord
100
AcDbBlockTableRecord
  2
*U42
  0
BLOCK_RECORD
  5
47
100
AcDbSymbolTableRecord
100
AcDbBlockTableRecord
  2
*D43
  0
BLOCK_RECORD
  5
48
100
AcDbSymbolTableRecord
100
AcDbBlockTableRecord
  2
*D44
  0
BLOCK_RECORD
  5
49
100
AcDbSymbolTableRecord
100
AcDbBlockTableRecord
  2
*U45
  0
BLOCK_RECORD
  5
4A
100
AcDbSymbolTableRecord
100
AcDbBlockTableRecord
  2
*U46
  0
BLOCK_RECORD
  5
4B
100
AcDbSymbolTableRecord
100
AcDbBlockTableRecord
  2
*D47
  0
BLOCK_RECORD
  5
4C
100
AcDbSymbolTableRecord
100
AcDbBlockTableRecord
  2
*D48
  0
BLOCK_RECORD
  5
4D
100
AcDbSymbolTableRecord
100
AcDbBlockTableRecord
  2
*U49
  0
BLOCK_RECORD
  5
4E
100
AcDbSymbolTableRecord
100
AcDbBlockTableRecord
  2
*U50
  0
BLOCK_RECORD
  5
4F
100
AcDbSymbolTableRecord
100
AcDbBlockTableRecord
  2
*U51
  0
BLOCK_RECORD
  5
50
100
AcDbSymbolTableRecord
100
AcDbBlockTableRecord
  2
*U52
  0
BLOCK_RECORD
  5
51
100
AcDbSymbolTableRecord
100
AcDbBlockTableRecord
  2
*U53
  0
BLOCK_RECORD
  5
52
100
AcDbSymbolTableRecord
100
AcDbBlockTableRecord
  2
*U54
  0
BLOCK_RECORD
  5
53
100
AcDbSymbolTableRecord
100
AcDbBlockTableRecord
  2
*U55
  0
BLOCK_RECORD
  5
54
100
AcDbSymbolTableRecord
100
AcDbBlockTableRecord
  2
*U56
  0
BLOCK_RECORD
  5
55
100
AcDbSymbolTableRecord
100
AcDbBlockTableRecord
  2
*U57
  0
BLOCK_RECORD
  5
56
100
AcDbSymbolTableRecord
100
AcDbBlockTableRecord
  2
*U58
  0
BLOCK_RECORD
  5
57
100
AcDbSymbolTableRecord
100
AcDbBlockTableRecord
  2
*U59
  0
BLOCK_RECORD
  5
58
100
AcDbSymbolTableRecord
100
AcDbBlockTableRecord
  2
*U60
  0
BLOCK_RECORD
  5
59
100
AcDbSymbolTableRecord
100
AcDbBlockTableRecord
  2
*U61
  0
BLOCK_RECORD
  5
5A
100
AcDbSymbolTableRecord
100
AcDbBlockTableRecord
  2
*U62
  0
BLOCK_RECORD
  5
5B
100
AcDbSymbolTableRecord
100
AcDbBlockTableRecord
  2
*U63
  0
BLOCK_RECORD
  5
5C
100
AcDbSymbolTableRecord
100
AcDbBlockTableRecord
  2
*U64
  0
BLOCK_RECORD
  5
5D
100
AcDbSymbolTableRecord
100
AcDbBlockTableRecord
  2
*U65
  0
BLOCK_RECORD
  5
5E
100
AcDbSymbolTableRecord
100
AcDbBlockTableRecord
  2
*U66
  0
BLOCK_RECORD
  5
5F
100
AcDbSymbolTableRecord
100
AcDbBlockTableRecord
  2
*U67
  0
BLOCK_RECORD
  5
60
100
AcDbSymbolTableRecord
100
AcDbBlockTableRecord
  2
*U68
  0
BLOCK_RECORD
  5
61
100
AcDbSymbolTableRecord
100
AcDbBlockTableRecord
  2
*U69
  0
BLOCK_RECORD
  5
62
100
AcDbSymbolTableRecord
100
AcDbBlockTableRecord
  2
*U70
  0
BLOCK_RECORD
  5
63
100
AcDbSymbolTableRecord
100
AcDbBlockTableRecord
  2
*U71
  0
ENDTAB
  0
ENDSEC
  0
SECTION
  2
BLOCKS
  0
BLOCK
  5
D
100
AcDbEntity
  8
0
100
AcDbBlockBegin
  2
*MODEL_SPACE
 70
               0
 10
0.0
 20
0.0
 30
0.0
  3
*MODEL_SPACE
  1

  0
ENDBLK
  5
E
100
AcDbEntity
  8
0
100
AcDbBlockEnd
  0
BLOCK
  5
F
100
AcDbEntity
 67
               1
  8
0
100
AcDbBlockBegin
  2
*PAPER_SPACE
 70
               0
 10
0.0
 20
0.0
 30
0.0
  3
*PAPER_SPACE
  1

  0
ENDBLK
  5
10
100
AcDbEntity
 67
               1
  8
0
100
AcDbBlockEnd
  0
BLOCK
  5
78
100
AcDbEntity
  8
0
  6
BYBLOCK
 62
               0
100
AcDbBlockBegin
  2
VW_OPENARROW
 70
               0
 10
0.0
 20
0.0
 30
0.0
  3
VW_OPENARROW
  1

  0
LINE
  5
79
100
AcDbEntity
  8
0
  6
BYBLOCK
 62
               0
100
AcDbLine
 10
0.0
 20
0.0
 30
0.0
 11
-1.0
 21
0.0
 31
0.0
  0
LINE
  5
7A
100
AcDbEntity
  8
0
  6
BYBLOCK
 62
               0
100
AcDbLine
 10
0.0
 20
0.0
 30
0.0
 11
-0.9921874999999999
 21
-0.2658558393652545
 31
0.0
  0
LINE
  5
7B
100
AcDbEntity
  8
0
  6
BYBLOCK
 62
               0
100
AcDbLine
 10
0.0
 20
0.0
 30
0.0
 11
-0.9921874999999999
 21
0.2658558393652548
 31
0.0
  0
ENDBLK
  5
7C
100
AcDbEntity
  8
0
100
AcDbBlockEnd
  0
BLOCK
  5
86
100
AcDbEntity
  8
OBJECT
100
AcDbBlockBegin
  2
*U1
 70
               1
 10
0.0
 20
0.0
 30
0.0
  3
*U1
  1

  0
LINE
  5
87
100
AcDbEntity
  8
OBJECT
 62
               0
100
AcDbLine
 10
896.88269999999989
 20
-1008.9999999999999
 30
0.0
 11
896.88269999999989
 21
-1189.0
 31
0.0
  0
LINE
  5
88
100
AcDbEntity
  8
OBJECT
 62
               0
100
AcDbLine
 10
858.88269999999989
 20
-1008.9999999999999
 30
0.0
 11
858.88269999999989
 21
-1189.0
 31
0.0
  0
ENDBLK
  5
89
100
AcDbEntity
  8
OBJECT
100
AcDbBlockEnd
  0
BLOCK
  5
8A
100
AcDbEntity
  8
OBJECT
100
AcDbBlockBegin
  2
*U2
 70
               1
 10
0.0
 20
0.0
 30
0.0
  3
*U2
  1

  0
LINE
  5
8B
100
AcDbEntity
  8
OBJECT
 62
               0
100
AcDbLine
 10
-937.8205999999999
 20
-1064.6495
 30
0.0
 11
-939.7838999999999
 21
-1064.6976999999999
 31
0.0
  0
LINE
  5
8C
100
AcDbEntity
  8
OBJECT
 62
               0
100
AcDbLine
 10
-935.86259999999993
 20
-1064.5049999999999
 30
0.0
 11
-937.8205999999999
 21
-1064.6495
 31
0.0
  0
LINE
  5
8D
100
AcDbEntity
  8
OBJECT
 62
               0
100
AcDbLine
 10
-933.91349999999989
 20
-1064.2646
 30
0.0
 11
-935.86259999999993
 21
-1064.5049999999999
 31
0.0
  0
LINE
  5
8E
100
AcDbEntity
  8
OBJECT
 62
               0
100
AcDbLine
 10
-931.9790999999999
 20
-1063.9288999999999
 30
0.0
 11
-933.91349999999989
 21
-1064.2646
 31
0.0
  0
LINE
  5
8F
100
AcDbEntity
  8
OBJECT
 62
               0
100
AcDbLine
 10
-930.0628999999999
 20
-1063.4984999999999
 30
0.0
 11
-931.9790999999999
 21
-1063.9288999999999
 31
0.0
  0
LINE
  5
90
100
AcDbEntity
  8
OBJECT
 62
               0
100
AcDbLine
 10
-928.1706999999999
 20
-1062.9748
 30
0.0
 11
-930.0628999999999
 21
-1063.4984999999999
 31
0.0
  0
LINE
  5
91
100
AcDbEntity
  8
OBJECT
 62
               0
100
AcDbLine
 10
-926.30599999999993
 20
-1062.3585999999998
 30
0.0
 11
-928.1706999999999
 21
-1062.9748
 31
0.0
  0
LINE
  5
92
100
AcDbEntity
  8
OBJECT
 62
               0
100
AcDbLine
 10
-924.47429999999997
 20
-1061.6518999999998
 30
0.0
 11
-926.30599999999993
 21
-1062.3585999999998
 31
0.0
  0
LINE
  5
93
100
AcDbEntity
  8
OBJECT
 62
               0
100
AcDbLine
 10
-922.67889999999989
 20
-1060.8559
 30
0.0
 11
-924.47429999999997
 21
-1061.6518999999998
 31
0.0
  0
LINE
  5
94
100
AcDbEntity
  8
OBJECT
 62
               0
100
AcDbLine
 10
-920.92529999999988
 20
-1059.9730999999999
 30
0.0
 11
-922.67889999999989
 21
-1060.8559
 31
0.0
  0
LINE
  5
95
100
AcDbEntity
  8
OBJECT
 62
               0
100
AcDbLine
 10
-919.21659999999997
 20
-1059.0048999999999
 30
0.0
 11
-920.92529999999988
 21
-1059.9730999999999
 31
0.0
  0
LINE
  5
96
100
AcDbEntity
  8
OBJECT
 62
               0
100
AcDbLine
 10
-917.55799999999988
 20
-1057.9543999999999
 30
0.0
 11
-919.21659999999997
 21
-1059.0048999999999
 31
0.0
  0
LINE
  5
97
100
AcDbEntity
  8
OBJECT
 62
               0
100
AcDbLine
 10
-915.9523999999999
 20
-1056.8234
 30
0.0
 11
-917.55799999999988
 21
-1057.9543999999999
 31
0.0
  0
LINE
  5
98
100
AcDbEntity
  8
OBJECT
 62
               0
100
AcDbLine
 10
-914.40479999999991
 20
-1055.6153999999999
 30
0.0
 11
-915.9523999999999
 21
-1056.8234
 31
0.0
  0
LINE
  5
99
100
AcDbEntity
  8
OBJECT
 62
               0
100
AcDbLine
 10
-912.91789999999992
 20
-1054.3324
 30
0.0
 11
-914.40479999999991
 21
-1055.6153999999999
 31
0.0
  0
LINE
  5
9A
100
AcDbEntity
  8
OBJECT
 62
               0
100
AcDbLine
 10
-911.49619999999993
 20
-1052.9785999999999
 30
0.0
 11
-912.91789999999992
 21
-1054.3324
 31
0.0
  0
LINE
  5
9B
100
AcDbEntity
  8
OBJECT
 62
               0
100
AcDbLine
 10
-910.14219999999989
 20
-1051.5559999999998
 30
0.0
 11
-911.49619999999993
 21
-1052.9785999999999
 31
0.0
  0
LINE
  5
9C
100
AcDbEntity
  8
OBJECT
 62
               0
100
AcDbLine
 10
-908.8599999999999
 20
-1050.0691999999999
 30
0.0
 11
-910.14219999999989
 21
-1051.5559999999998
 31
0.0
  0
LINE
  5
9D
100
AcDbEntity
  8
OBJECT
 62
               0
100
AcDbLine
 10
-907.65199999999993
 20
-1048.5208
 30
0.0
 11
-908.8599999999999
 21
-1050.0691999999999
 31
0.0
  0
LINE
  5
9E
100
AcDbEntity
  8
OBJECT
 62
               0
100
AcDbLine
 10
-906.52179999999998
 20
-1046.9154999999998
 30
0.0
 11
-907.65199999999993
 21
-1048.5208
 31
0.0
  0
LINE
  5
9F
100
AcDbEntity
  8
OBJECT
 62
               0
100
AcDbLine
 10
-905.47129999999993
 20
-1045.2560999999998
 30
0.0
 11
-906.52179999999998
 21
-1046.9154999999998
 31
0.0
  0
LINE
  5
A0
100
AcDbEntity
  8
OBJECT
 62
               0
100
AcDbLine
 10
-904.50389999999993
 20
-1043.5476999999998
 30
0.0
 11
-905.47129999999993
 21
-1045.2560999999998
 31
0.0
  0
LINE
  5
A1
100
AcDbEntity
  8
OBJECT
 62
               0
100
AcDbLine
 10
-903.62119999999993
 20
-1041.7932999999998
 30
0.0
 11
-904.50389999999993
 21
-1043.5476999999998
 31
0.0
  0
LINE
  5
A2
100
AcDbEntity
  8
OBJECT
 62
               0
100
AcDbLine
 10
-902.82589999999993
 20
-1039.9983
 30
0.0
 11
-903.62119999999993
 21
-1041.7932999999998
 31
0.0
  0
LINE
  5
A3
100
AcDbEntity
  8
OBJECT
 62
               0
100
AcDbLine
 10
-902.1194999999999
 20
-1038.1659
 30
0.0
 11
-902.82589999999993
 21
-1039.9983
 31
0.0
  0
LINE
  5
A4
100
AcDbEntity
  8
OBJECT
 62
               0
100
AcDbLine
 10
-901.50399999999991
 20
-1036.3014999999998
 30
0.0
 11
-902.1194999999999
 21
-1038.1659
 31
0.0
  0
LINE
  5
A5
100
AcDbEntity
  8
OBJECT
 62
               0
100
AcDbLine
 10
-900.98059999999998
 20
-1034.4086
 30
0.0
 11
-901.50399999999991
 21
-1036.3014999999998
 31
0.0
  0
LINE
  5
A6
100
AcDbEntity
  8
OBJECT
 62
               0
100
AcDbLine
 10
-900.55079999999998
 20
-1032.4929
 30
0.0
 11
-900.98059999999998
 21
-1034.4086
 31
0.0
  0
LINE
  5
A7
100
AcDbEntity
  8
OBJECT
 62
               0
100
AcDbLine
 10
-900.21549999999991
 20
-1030.5579
 30
0.0
 11
-900.55079999999998
 21
-1032.4929
 31
0.0
  0
LINE
  5
A8
100
AcDbEntity
  8
OBJECT
 62
               0
100
AcDbLine
 10
-899.97559999999999
 20
-1028.6092999999998
 30
0.0
 11
-900.21549999999991
 21
-1030.5579
 31
0.0
  0
LINE
  5
A9
100
AcDbEntity
  8
OBJECT
 62
               0
100
AcDbLine
 10
-899.83159999999998
 20
-1026.6505999999999
 30
0.0
 11
-899.97559999999999
 21
-1028.6092999999998
 31
0.0
  0
LINE
  5
AA
100
AcDbEntity
  8
OBJECT
 62
               0
100
AcDbLine
 10
-899.7838999999999
 20
-1024.6976999999999
 30
0.0
 11
-899.83159999999998
 21
-1026.6505999999999
 31
0.0
  0
LINE
  5
AB
100
AcDbEntity
  8
OBJECT
 62
               0
100
AcDbLine
 10
-899.7838999999999
 20
-1008.9999999999999
 30
0.0
 11
-899.7838999999999
 21
-1024.6976999999999
 31
0.0
  0
LINE
  5
AC
100
AcDbEntity
  8
OBJECT
 62
               0
100
AcDbLine
 10
-888.11729999999989
 20
-1008.9999999999999
 30
0.0
 11
-899.7838999999999
 21
-1008.9999999999999
 31
0.0
  0
ENDBLK
  5
AD
100
AcDbEntity
  8
OBJECT
100
AcDbBlockEnd
  0
BLOCK
  5
AE
100
AcDbEntity
  8
OBJECT
100
AcDbBlockBegin
  2
*U3
 70
               1
 10
0.0
 20
0.0
 30
0.0
  3
*U3
  1

  0
LINE
  5
AF
100
AcDbEntity
  8
OBJECT
 62
               0
100
AcDbLine
 10
-935.66319999999996
 20
-1073.9396999999999
 30
0.0
 11
-938.11729999999989
 21
-1074.0
 31
0.0
  0
LINE
  5
B0
100
AcDbEntity
  8
OBJECT
 62
               0
100
AcDbLine
 10
-933.21569999999997
 20
-1073.7592
 30
0.0
 11
-935.66319999999996
 21
-1073.9396999999999
 31
0.0
  0
LINE
  5
B1
100
AcDbEntity
  8
OBJECT
 62
               0
100
AcDbLine
 10
-930.77929999999992
 20
-1073.4585999999999
 30
0.0
 11
-933.21569999999997
 21
-1073.7592
 31
0.0
  0
LINE
  5
B2
100
AcDbEntity
  8
OBJECT
 62
               0
100
AcDbLine
 10
-928.36129999999991
 20
-1073.039
 30
0.0
 11
-930.77929999999992
 21
-1073.4585999999999
 31
0.0
  0
LINE
  5
B3
100
AcDbEntity
  8
OBJECT
 62
               0
100
AcDbLine
 10
-925.96609999999998
 20
-1072.501
 30
0.0
 11
-928.36129999999991
 21
-1073.039
 31
0.0
  0
LINE
  5
B4
100
AcDbEntity
  8
OBJECT
 62
               0
100
AcDbLine
 10
-923.60079999999994
 20
-1071.8462999999999
 30
0.0
 11
-925.96609999999998
 21
-1072.501
 31
0.0
  0
LINE
  5
B5
100
AcDbEntity
  8
OBJECT
 62
               0
100
AcDbLine
 10
-921.26989999999989
 20
-1071.0762
 30
0.0
 11
-923.60079999999994
 21
-1071.8462999999999
 31
0.0
  0
LINE
  5
B6
100
AcDbEntity
  8
OBJECT
 62
               0
100
AcDbLine
 10
-918.98019999999997
 20
-1070.1927999999998
 30
0.0
 11
-921.26989999999989
 21
-1071.0762
 31
0.0
  0
LINE
  5
B7
100
AcDbEntity
  8
OBJECT
 62
               0
100
AcDbLine
 10
-916.73599999999988
 20
-1069.1977999999999
 30
0.0
 11
-918.98019999999997
 21
-1070.1927999999998
 31
0.0
  0
LINE
  5
B8
100
AcDbEntity
  8
OBJECT
 62
               0
100
AcDbLine
 10
-914.54399999999998
 20
-1068.0942
 30
0.0
 11
-916.73599999999988
 21
-1069.1977999999999
 31
0.0
  0
LINE
  5
B9
100
AcDbEntity
  8
OBJECT
 62
               0
100
AcDbLine
 10
-912.40809999999988
 20
-1066.884
 30
0.0
 11
-914.54399999999998
 21
-1068.0942
 31
0.0
  0
LINE
  5
BA
100
AcDbEntity
  8
OBJECT
 62
               0
100
AcDbLine
 10
-910.33489999999995
 20
-1065.5708999999999
 30
0.0
 11
-912.40809999999988
 21
-1066.884
 31
0.0
  0
LINE
  5
BB
100
AcDbEntity
  8
OBJECT
 62
               0
100
AcDbLine
 10
-908.32799999999997
 20
-1064.1570999999999
 30
0.0
 11
-910.33489999999995
 21
-1065.5708999999999
 31
0.0
  0
LINE
  5
BC
100
AcDbEntity
  8
OBJECT
 62
               0
100
AcDbLine
 10
-906.3934999999999
 20
-1062.6470999999999
 30
0.0
 11
-908.32799999999997
 21
-1064.1570999999999
 31
0.0
  0
LINE
  5
BD
100
AcDbEntity
  8
OBJECT
 62
               0
100
AcDbLine
 10
-904.5347999999999
 20
-1061.0434
 30
0.0
 11
-906.3934999999999
 21
-1062.6470999999999
 31
0.0
  0
LINE
  5
BE
100
AcDbEntity
  8
OBJECT
 62
               0
100
AcDbLine
 10
-902.75769999999989
 20
-1059.3510999999999
 30
0.0
 11
-904.5347999999999
 21
-1061.0434
 31
0.0
  0
LINE
  5
BF
100
AcDbEntity
  8
OBJECT
 62
               0
100
AcDbLine
 10
-901.06519999999989
 20
-1057.5728999999999
 30
0.0
 11
-902.75769999999989
 21
-1059.3510999999999
 31
0.0
  0
LINE
  5
C0
100
AcDbEntity
  8
OBJECT
 62
               0
100
AcDbLine
 10
-899.46249999999998
 20
-1055.7143999999998
 30
0.0
 11
-901.06519999999989
 21
-1057.5728999999999
 31
0.0
  0
LINE
  5
C1
100
AcDbEntity
  8
OBJECT
 62
               0
100
AcDbLine
 10
-897.9523999999999
 20
-1053.7788999999998
 30
0.0
 11
-899.46249999999998
 21
-1055.7143999999998
 31
0.0
  0
LINE
  5
C2
100
AcDbEntity
  8
OBJECT
 62
               0
100
AcDbLine
 10
-896.53959999999995
 20
-1051.7721999999999
 30
0.0
 11
-897.9523999999999
 21
-1053.7788999999998
 31
0.0
  0
LINE
  5
C3
100
AcDbEntity
  8
OBJECT
 62
               0
100
AcDbLine
 10
-895.22659999999996
 20
-1049.6979999999999
 30
0.0
 11
-896.53959999999995
 21
-1051.7721999999999
 31
0.0
  0
LINE
  5
C4
100
AcDbEntity
  8
OBJECT
 62
               0
100
AcDbLine
 10
-894.01729999999998
 20
-1047.5625
 30
0.0
 11
-895.22659999999996
 21
-1049.6979999999999
 31
0.0
  0
LINE
  5
C5
100
AcDbEntity
  8
OBJECT
 62
               0
100
AcDbLine
 10
-892.9138999999999
 20
-1045.3696
 30
0.0
 11
-894.01729999999998
 21
-1047.5625
 31
0.0
  0
LINE
  5
C6
100
AcDbEntity
  8
OBJECT
 62
               0
100
AcDbLine
 10
-891.9197999999999
 20
-1043.1257999999998
 30
0.0
 11
-892.9138999999999
 21
-1045.3696
 31
0.0
  0
LINE
  5
C7
100
AcDbEntity
  8
OBJECT
 62
               0
100
AcDbLine
 10
-891.03679999999997
 20
-1040.8352
 30
0.0
 11
-891.9197999999999
 21
-1043.1257999999998
 31
0.0
  0
LINE
  5
C8
100
AcDbEntity
  8
OBJECT
 62
               0
100
AcDbLine
 10
-890.26739999999995
 20
-1038.5047999999999
 30
0.0
 11
-891.03679999999997
 21
-1040.8352
 31
0.0
  0
LINE
  5
C9
100
AcDbEntity
  8
OBJECT
 62
               0
100
AcDbLine
 10
-889.61309999999992
 20
-1036.1387
 30
0.0
 11
-890.26739999999995
 21
-1038.5047999999999
 31
0.0
  0
LINE
  5
CA
100
AcDbEntity
  8
OBJECT
 62
               0
100
AcDbLine
 10
-889.07599999999991
 20
-1033.7439999999999
 30
0.0
 11
-889.61309999999992
 21
-1036.1387
 31
0.0
  0
LINE
  5
CB
100
AcDbEntity
  8
OBJECT
 62
               0
100
AcDbLine
 10
-888.65679999999998
 20
-1031.3252
 30
0.0
 11
-889.07599999999991
 21
-1033.7439999999999
 31
0.0
  0
LINE
  5
CC
100
AcDbEntity
  8
OBJECT
 62
               0
100
AcDbLine
 10
-888.35689999999988
 20
-1028.8895
 30
0.0
 11
-888.65679999999998
 21
-1031.3252
 31
0.0
  0
LINE
  5
CD
100
AcDbEntity
  8
OBJECT
 62
               0
100
AcDbLine
 10
-888.17689999999993
 20
-1026.4412
 30
0.0
 11
-888.35689999999988
 21
-1028.8895
 31
0.0
  0
LINE
  5
CE
100
AcDbEntity
  8
OBJECT
 62
               0
100
AcDbLine
 10
-888.11729999999989
 20
-1023.9999999999999
 30
0.0
 11
-888.17689999999993
 21
-1026.4412
 31
0.0
  0
LINE
  5
CF
100
AcDbEntity
  8
OBJECT
 62
               0
100
AcDbLine
 10
-888.11729999999989
 20
-1011.9999999999999
 30
0.0
 11
-888.11729999999989
 21
-1023.9999999999999
 31
0.0
  0
ENDBLK
  5
D0
100
AcDbEntity
  8
OBJECT
100
AcDbBlockEnd
  0
BLOCK
  5
D1
100
AcDbEntity
  8
OBJECT
100
AcDbBlockBegin
  2
*U4
 70
               1
 10
0.0
 20
0.0
 30
0.0
  3
*U4
  1

  0
LINE
  5
D2
100
AcDbEntity
  8
OBJECT
 62
               0
100
AcDbLine
 10
-938.11729999999989
 20
-1074.0
 30
0.0
 11
-1362.6172999999999
 21
-1074.0
 31
0.0
  0
LINE
  5
D3
100
AcDbEntity
  8
OBJECT
 62
               0
100
AcDbLine
 10
-939.7838999999999
 20
-1064.6976999999999
 30
0.0
 11
-1362.6172999999999
 21
-1064.6976999999999
 31
0.0
  0
INSERT
  5
D4
100
AcDbEntity
  8
OBJECT
 62
               0
100
AcDbBlockReference
  2
*U2
 10
0.0
 20
0.0
 30
0.0
  0
INSERT
  5
D5
100
AcDbEntity
  8
OBJECT
 62
               0
100
AcDbBlockReference
  2
*U3
 10
0.0
 20
0.0
 30
0.0
  0
ENDBLK
  5
D6
100
AcDbEntity
  8
OBJECT
100
AcDbBlockEnd
  0
BLOCK
  5
D7
100
AcDbEntity
  8
DIMENTION
100
AcDbBlockBegin
  2
*D5
 70
               1
 10
0.0
 20
0.0
 30
0.0
  3
*D5
  1

  0
LINE
  5
D8
100
AcDbEntity
  8
DIMENTION
 62
               0
100
AcDbLine
 10
1355.0000000372527
 20
0.0
 30
0.0
 11
1123.002222296728
 21
0.0
 31
0.0
  0
LINE
  5
D9
100
AcDbEntity
  8
DIMENTION
 62
               0
100
AcDbLine
 10
1366.1173000372528
 20
-800.0
 30
0.0
 11
1123.002222296728
 21
-800.0
 31
0.0
  0
LINE
  5
DA
100
AcDbEntity
  8
DIMENTION
 62
               0
100
AcDbLine
 10
1143.0022222222221
 20
0.0
 30
0.0
 11
1143.0022222222221
 21
-800.0
 31
0.0
  0
LINE
  5
DB
100
AcDbEntity
  8
DIMENTION
 62
               0
100
AcDbLine
 10
1143.0022222222221
 20
0.0
 30
0.0
 11
1151.5096090819102
 21
-31.75
 31
0.0
  0
LINE
  5
DC
100
AcDbEntity
  8
DIMENTION
 62
               0
100
AcDbLine
 10
1143.0022222222221
 20
0.0
 30
0.0
 11
1134.4948353625339
 21
-31.75
 31
0.0
  0
LINE
  5
DD
100
AcDbEntity
  8
DIMENTION
 62
               0
100
AcDbLine
 10
1143.0022222222221
 20
-800.0
 30
0.0
 11
1134.4948353625339
 21
-768.25
 31
0.0
  0
LINE
  5
DE
100
AcDbEntity
  8
DIMENTION
 62
               0
100
AcDbLine
 10
1143.0022222222221
 20
-800.0
 30
0.0
 11
1151.5096090819102
 21
-768.25
 31
0.0
  0
MTEXT
  5
DF
100
AcDbEntity
  8
DIMENTION
 62
               0
100
AcDbMText
 10
1099.6688888888887
 20
-532.71499623192676
 30
0.0
 40
33.866666666666667
 41
0.0
 71
               1
 72
               1
  1
800（基準高さ）
  7
________
 11
0.0
 21
1.0
 31
0.0
  0
POINT
  5
E0
100
AcDbEntity
  8
DEFPOINTS
 62
               0
100
AcDbPoint
 10
1376.1172999999999
 20
-800.0
 30
0.0
  0
POINT
  5
E1
100
AcDbEntity
  8
DEFPOINTS
 62
               0
100
AcDbPoint
 10
1364.9999999999998
 20
0.0
 30
0.0
  0
POINT
  5
E2
100
AcDbEntity
  8
DEFPOINTS
 62
               0
100
AcDbPoint
 10
1143.0022222222221
 20
0.0
 30
0.0
  0
ENDBLK
  5
E3
100
AcDbEntity
  8
DIMENTION
100
AcDbBlockEnd
  0
BLOCK
  5
E4
100
AcDbEntity
  8
DIMENTION
100
AcDbBlockBegin
  2
*D6
 70
               1
 10
0.0
 20
0.0
 30
0.0
  3
*D6
  1

  0
LINE
  5
E5
100
AcDbEntity
  8
DIMENTION
 62
               0
100
AcDbLine
 10
1161.0000000372529
 20
-800.0
 30
0.0
 11
1054.0000000745058
 21
-800.0
 31
0.0
  0
LINE
  5
E6
100
AcDbEntity
  8
DIMENTION
 62
               0
100
AcDbLine
 10
1665.0000000372529
 20
565.0
 30
0.0
 11
1054.0000000745058
 21
565.0
 31
0.0
  0
LINE
  5
E7
100
AcDbEntity
  8
DIMENTION
 62
               0
100
AcDbLine
 10
1074.0
 20
-800.0
 30
0.0
 11
1074.0
 21
565.0
 31
0.0
  0
LINE
  5
E8
100
AcDbEntity
  8
DIMENTION
 62
               0
100
AcDbLine
 10
1074.0
 20
-800.0
 30
0.0
 11
1065.4926131403117
 21
-768.25
 31
0.0
  0
LINE
  5
E9
100
AcDbEntity
  8
DIMENTION
 62
               0
100
AcDbLine
 10
1074.0
 20
-800.0
 30
0.0
 11
1082.507386859688
 21
-768.25
 31
0.0
  0
LINE
  5
EA
100
AcDbEntity
  8
DIMENTION
 62
               0
100
AcDbLine
 10
1074.0
 20
565.0
 30
0.0
 11
1082.507386859688
 21
533.25
 31
0.0
  0
LINE
  5
EB
100
AcDbEntity
  8
DIMENTION
 62
               0
100
AcDbLine
 10
1074.0
 20
565.0
 30
0.0
 11
1065.4926131403117
 21
533.25
 31
0.0
  0
MTEXT
  5
EC
100
AcDbEntity
  8
DIMENTION
 62
               0
100
AcDbMText
 10
1030.6666666666665
 20
-159.33345540364581
 30
0.0
 40
33.866666666666667
 41
0.0
 71
               1
 72
               1
  1
1365
  7
________
 11
0.0
 21
1.0
 31
0.0
  0
POINT
  5
ED
100
AcDbEntity
  8
DEFPOINTS
 62
               0
100
AcDbPoint
 10
1675.0
 20
565.0
 30
0.0
  0
POINT
  5
EE
100
AcDbEntity
  8
DEFPOINTS
 62
               0
100
AcDbPoint
 10
1171.0
 20
-800.0
 30
0.0
  0
POINT
  5
EF
100
AcDbEntity
  8
DEFPOINTS
 62
               0
100
AcDbPoint
 10
1074.0
 20
-800.0
 30
0.0
  0
ENDBLK
  5
F0
100
AcDbEntity
  8
DIMENTION
100
AcDbBlockEnd
  0
BLOCK
  5
F1
100
AcDbEntity
  8
DIMENTION
100
AcDbBlockBegin
  2
*D7
 70
               1
 10
0.0
 20
0.0
 30
0.0
  3
*D7
  1

  0
LINE
  5
F2
100
AcDbEntity
  8
DIMENTION
 62
               0
100
AcDbLine
 10
-426.9999999627471
 20
1204.9999999999998
 30
0.0
 11
-484.28269992549417
 21
1204.9999999999998
 31
0.0
  0
LINE
  5
F3
100
AcDbEntity
  8
DIMENTION
 62
               0
100
AcDbLine
 10
-417.9999999627471
 20
910.0
 30
0.0
 11
-484.28269992549417
 21
910.0
 31
0.0
  0
LINE
  5
F4
100
AcDbEntity
  8
DIMENTION
 62
               0
100
AcDbLine
 10
-464.28269999999998
 20
1204.9999999999998
 30
0.0
 11
-464.28269999999998
 21
910.0
 31
0.0
  0
LINE
  5
F5
100
AcDbEntity
  8
DIMENTION
 62
               0
100
AcDbLine
 10
-464.28269999999998
 20
1204.9999999999998
 30
0.0
 11
-455.77531314031194
 21
1173.2499999999998
 31
0.0
  0
LINE
  5
F6
100
AcDbEntity
  8
DIMENTION
 62
               0
100
AcDbLine
 10
-464.28269999999998
 20
1204.9999999999998
 30
0.0
 11
-472.79008685968802
 21
1173.2499999999998
 31
0.0
  0
LINE
  5
F7
100
AcDbEntity
  8
DIMENTION
 62
               0
100
AcDbLine
 10
-464.28269999999998
 20
910.0
 30
0.0
 11
-472.79008685968802
 21
941.75
 31
0.0
  0
LINE
  5
F8
100
AcDbEntity
  8
DIMENTION
 62
               0
100
AcDbLine
 10
-464.28269999999998
 20
910.0
 30
0.0
 11
-455.77531314031194
 21
941.75
 31
0.0
  0
MTEXT
  5
F9
100
AcDbEntity
  8
DIMENTION
 62
               0
100
AcDbMText
 10
-507.61603333333346
 20
1025.75
 30
0.0
 40
33.866666666666667
 41
0.0
 71
               1
 72
               1
  1
295
  7
________
 11
0.0
 21
1.0
 31
0.0
  0
POINT
  5
FA
100
AcDbEntity
  8
DEFPOINTS
 62
               0
100
AcDbPoint
 10
-408.0
 20
910.0
 30
0.0
  0
POINT
  5
FB
100
AcDbEntity
  8
DEFPOINTS
 62
               0
100
AcDbPoint
 10
-417.0
 20
1204.9999999999998
 30
0.0
  0
POINT
  5
FC
100
AcDbEntity
  8
DEFPOINTS
 62
               0
100
AcDbPoint
 10
-464.28269999999998
 20
1204.9999999999998
 30
0.0
  0
ENDBLK
  5
FD
100
AcDbEntity
  8
DIMENTION
100
AcDbBlockEnd
  0
BLOCK
  5
FE
100
AcDbEntity
  8
DIMENTION
100
AcDbBlockBegin
  2
*D8
 70
               1
 10
0.0
 20
0.0
 30
0.0
  3
*D8
  1

  0
LINE
  5
FF
100
AcDbEntity
  8
DIMENTION
 62
               0
100
AcDbLine
 10
-204.9999999627471
 20
1329.9999999999998
 30
0.0
 11
-253.28269992549417
 21
1329.9999999999998
 31
0.0
  0
LINE
  5
100
100
AcDbEntity
  8
DIMENTION
 62
               0
100
AcDbLine
 10
-183.28269996274707
 20
1204.9999999999998
 30
0.0
 11
-253.28269992549417
 21
1204.9999999999998
 31
0.0
  0
LINE
  5
101
100
AcDbEntity
  8
DIMENTION
 62
               0
100
AcDbLine
 10
-233.28269999999998
 20
1329.9999999999998
 30
0.0
 11
-233.28269999999998
 21
1204.9999999999998
 31
0.0
  0
LINE
  5
102
100
AcDbEntity
  8
DIMENTION
 62
               0
100
AcDbLine
 10
-233.28269999999998
 20
1329.9999999999998
 30
0.0
 11
-224.77531314031194
 21
1298.2499999999998
 31
0.0
  0
LINE
  5
103
100
AcDbEntity
  8
DIMENTION
 62
               0
100
AcDbLine
 10
-233.28269999999998
 20
1329.9999999999998
 30
0.0
 11
-241.79008685968802
 21
1298.2499999999998
 31
0.0
  0
LINE
  5
104
100
AcDbEntity
  8
DIMENTION
 62
               0
100
AcDbLine
 10
-233.28269999999998
 20
1204.9999999999998
 30
0.0
 11
-241.79008685968802
 21
1236.7499999999998
 31
0.0
  0
LINE
  5
105
100
AcDbEntity
  8
DIMENTION
 62
               0
100
AcDbLine
 10
-233.28269999999998
 20
1204.9999999999998
 30
0.0
 11
-224.77531314031194
 21
1236.7499999999998
 31
0.0
  0
MTEXT
  5
106
100
AcDbEntity
  8
DIMENTION
 62
               0
100
AcDbMText
 10
-276.61603333333346
 20
1235.7499999999998
 30
0.0
 40
33.866666666666667
 41
0.0
 71
               1
 72
               1
  1
125
  7
________
 11
0.0
 21
1.0
 31
0.0
  0
POINT
  5
107
100
AcDbEntity
  8
DEFPOINTS
 62
               0
100
AcDbPoint
 10
-173.28269999999998
 20
1204.9999999999998
 30
0.0
  0
POINT
  5
108
100
AcDbEntity
  8
DEFPOINTS
 62
               0
100
AcDbPoint
 10
-195.0
 20
1329.9999999999998
 30
0.0
  0
POINT
  5
109
100
AcDbEntity
  8
DEFPOINTS
 62
               0
100
AcDbPoint
 10
-233.28269999999998
 20
1329.9999999999998
 30
0.0
  0
ENDBLK
  5
10A
100
AcDbEntity
  8
DIMENTION
100
AcDbBlockEnd
  0
BLOCK
  5
10B
100
AcDbEntity
  8
DIMENTION
100
AcDbBlockBegin
  2
*D9
 70
               1
 10
0.0
 20
0.0
 30
0.0
  3
*D9
  1

  0
LINE
  5
10C
100
AcDbEntity
  8
DIMENTION
 62
               0
100
AcDbLine
 10
-100.0
 20
1300.0000000372527
 30
0.0
 11
-100.0
 21
1247.0000000745056
 31
0.0
  0
LINE
  5
10D
100
AcDbEntity
  8
DIMENTION
 62
               0
100
AcDbLine
 10
-170.0
 20
1320.0000000372527
 30
0.0
 11
-170.0
 21
1247.0000000745056
 31
0.0
  0
LINE
  5
10E
100
AcDbEntity
  8
DIMENTION
 62
               0
100
AcDbLine
 10
-100.0
 20
1266.9999999999998
 30
0.0
 11
-170.0
 21
1266.9999999999998
 31
0.0
  0
LINE
  5
10F
100
AcDbEntity
  8
DIMENTION
 62
               0
100
AcDbLine
 10
-100.0
 20
1266.9999999999998
 30
0.0
 11
-131.75
 21
1258.4926131403117
 31
0.0
  0
LINE
  5
110
100
AcDbEntity
  8
DIMENTION
 62
               0
100
AcDbLine
 10
-100.0
 20
1266.9999999999998
 30
0.0
 11
-131.75
 21
1275.507386859688
 31
0.0
  0
LINE
  5
111
100
AcDbEntity
  8
DIMENTION
 62
               0
100
AcDbLine
 10
-170.0
 20
1266.9999999999998
 30
0.0
 11
-138.25
 21
1275.507386859688
 31
0.0
  0
LINE
  5
112
100
AcDbEntity
  8
DIMENTION
 62
               0
100
AcDbLine
 10
-170.0
 20
1266.9999999999998
 30
0.0
 11
-138.25
 21
1258.4926131403117
 31
0.0
  0
MTEXT
  5
113
100
AcDbEntity
  8
DIMENTION
 62
               0
100
AcDbMText
 10
-156.16666666666674
 20
1310.3333333333333
 30
0.0
 40
33.866666666666667
 41
0.0
 71
               1
 72
               1
  1
70
  7
________
  0
POINT
  5
114
100
AcDbEntity
  8
DEFPOINTS
 62
               0
100
AcDbPoint
 10
-170.0
 20
1329.9999999999998
 30
0.0
  0
POINT
  5
115
100
AcDbEntity
  8
DEFPOINTS
 62
               0
100
AcDbPoint
 10
-100.0
 20
1309.9999999999998
 30
0.0
  0
POINT
  5
116
100
AcDbEntity
  8
DEFPOINTS
 62
               0
100
AcDbPoint
 10
-100.0
 20
1266.9999999999998
 30
0.0
  0
ENDBLK
  5
117
100
AcDbEntity
  8
DIMENTION
100
AcDbBlockEnd
  0
BLOCK
  5
118
100
AcDbEntity
  8
DIMENTION
100
AcDbBlockBegin
  2
*D10
 70
               1
 10
0.0
 20
0.0
 30
0.0
  3
*D10
  1

  0
LINE
  5
119
100
AcDbEntity
  8
DIMENTION
 62
               0
100
AcDbLine
 10
-416.9999999627471
 20
910.0
 30
0.0
 11
-548.28269992549417
 21
910.0
 31
0.0
  0
LINE
  5
11A
100
AcDbEntity
  8
DIMENTION
 62
               0
100
AcDbLine
 10
-416.9999999627471
 20
1515.0
 30
0.0
 11
-548.28269992549417
 21
1515.0
 31
0.0
  0
LINE
  5
11B
100
AcDbEntity
  8
DIMENTION
 62
               0
100
AcDbLine
 10
-528.28269999999998
 20
910.0
 30
0.0
 11
-528.28269999999998
 21
1515.0
 31
0.0
  0
LINE
  5
11C
100
AcDbEntity
  8
DIMENTION
 62
               0
100
AcDbLine
 10
-528.28269999999998
 20
910.0
 30
0.0
 11
-536.79008685968802
 21
941.75
 31
0.0
  0
LINE
  5
11D
100
AcDbEntity
  8
DIMENTION
 62
               0
100
AcDbLine
 10
-528.28269999999998
 20
910.0
 30
0.0
 11
-519.77531314031194
 21
941.75
 31
0.0
  0
LINE
  5
11E
100
AcDbEntity
  8
DIMENTION
 62
               0
100
AcDbLine
 10
-528.28269999999998
 20
1515.0
 30
0.0
 11
-519.77531314031194
 21
1483.25
 31
0.0
  0
LINE
  5
11F
100
AcDbEntity
  8
DIMENTION
 62
               0
100
AcDbLine
 10
-528.28269999999998
 20
1515.0
 30
0.0
 11
-536.79008685968802
 21
1483.25
 31
0.0
  0
MTEXT
  5
120
100
AcDbEntity
  8
DIMENTION
 62
               0
100
AcDbMText
 10
-571.61603333333346
 20
1180.75
 30
0.0
 40
33.866666666666667
 41
0.0
 71
               1
 72
               1
  1
605
  7
________
 11
0.0
 21
1.0
 31
0.0
  0
POINT
  5
121
100
AcDbEntity
  8
DEFPOINTS
 62
               0
100
AcDbPoint
 10
-407.0
 20
1515.0
 30
0.0
  0
POINT
  5
122
100
AcDbEntity
  8
DEFPOINTS
 62
               0
100
AcDbPoint
 10
-407.0
 20
910.0
 30
0.0
  0
POINT
  5
123
100
AcDbEntity
  8
DEFPOINTS
 62
               0
100
AcDbPoint
 10
-528.28269999999998
 20
910.0
 30
0.0
  0
ENDBLK
  5
124
100
AcDbEntity
  8
DIMENTION
100
AcDbBlockEnd
  0
BLOCK
  5
125
100
AcDbEntity
  8
DIMENTION
100
AcDbBlockBegin
  2
*D11
 70
               1
 10
0.0
 20
0.0
 30
0.0
  3
*D11
  1

  0
LINE
  5
126
100
AcDbEntity
  8
DIMENTION
 62
               0
100
AcDbLine
 10
-405.9999999627471
 20
898.0
 30
0.0
 11
-548.28269992549417
 21
898.0
 31
0.0
  0
LINE
  5
127
100
AcDbEntity
  8
DIMENTION
 62
               0
100
AcDbLine
 10
-428.9999999627471
 20
910.0
 30
0.0
 11
-548.28269992549417
 21
910.0
 31
0.0
  0
LINE
  5
128
100
AcDbEntity
  8
DIMENTION
 62
               0
100
AcDbLine
 10
-528.28269999999998
 20
910.0
 30
0.0
 11
-528.28269999999998
 21
898.0
 31
0.0
  0
LINE
  5
129
100
AcDbEntity
  8
DIMENTION
 62
               0
100
AcDbLine
 10
-528.28269999999998
 20
898.0
 30
0.0
 11
-528.28269999999998
 21
830.66666666666663
 31
0.0
  0
LINE
  5
12A
100
AcDbEntity
  8
DIMENTION
 62
               0
100
AcDbLine
 10
-528.28269999999998
 20
898.0
 30
0.0
 11
-519.77531314031194
 21
866.25
 31
0.0
  0
LINE
  5
12B
100
AcDbEntity
  8
DIMENTION
 62
               0
100
AcDbLine
 10
-528.28269999999998
 20
898.0
 30
0.0
 11
-536.79008685968802
 21
866.25
 31
0.0
  0
LINE
  5
12C
100
AcDbEntity
  8
DIMENTION
 62
               0
100
AcDbLine
 10
-528.28269999999998
 20
910.0
 30
0.0
 11
-528.28269999999998
 21
970.00000001303852
 31
0.0
  0
LINE
  5
12D
100
AcDbEntity
  8
DIMENTION
 62
               0
100
AcDbLine
 10
-528.28269999999998
 20
910.0
 30
0.0
 11
-536.79008685968802
 21
941.75
 31
0.0
  0
LINE
  5
12E
100
AcDbEntity
  8
DIMENTION
 62
               0
100
AcDbLine
 10
-528.28269999999998
 20
910.0
 30
0.0
 11
-519.77531314031194
 21
941.75
 31
0.0
  0
MTEXT
  5
12F
100
AcDbEntity
  8
DIMENTION
 62
               0
100
AcDbMText
 10
-571.61603333333346
 20
830.66666666666663
 30
0.0
 40
33.866666666666667
 41
0.0
 71
               1
 72
               1
  1
12
  7
________
 11
0.0
 21
1.0
 31
0.0
  0
POINT
  5
130
100
AcDbEntity
  8
DEFPOINTS
 62
               0
100
AcDbPoint
 10
-419.0
 20
910.0
 30
0.0
  0
POINT
  5
131
100
AcDbEntity
  8
DEFPOINTS
 62
               0
100
AcDbPoint
 10
-396.0
 20
898.0
 30
0.0
  0
POINT
  5
132
100
AcDbEntity
  8
DEFPOINTS
 62
               0
100
AcDbPoint
 10
-528.28269999999998
 20
898.0
 30
0.0
  0
ENDBLK
  5
133
100
AcDbEntity
  8
DIMENTION
100
AcDbBlockEnd
  0
BLOCK
  5
134
100
AcDbEntity
  8
DIMENTION
100
AcDbBlockBegin
  2
*D12
 70
               1
 10
0.0
 20
0.0
 30
0.0
  3
*D12
  1

  0
LINE
  5
135
100
AcDbEntity
  8
DIMENTION
 62
               0
100
AcDbLine
 10
-400.0
 20
888.0000000372529
 30
0.0
 11
-400.0
 21
757.00000007450581
 31
0.0
  0
LINE
  5
136
100
AcDbEntity
  8
DIMENTION
 62
               0
100
AcDbLine
 10
200.0
 20
888.0000000372529
 30
0.0
 11
200.0
 21
757.00000007450581
 31
0.0
  0
LINE
  5
137
100
AcDbEntity
  8
DIMENTION
 62
               0
100
AcDbLine
 10
-400.0
 20
777.0
 30
0.0
 11
200.0
 21
777.0
 31
0.0
  0
LINE
  5
138
100
AcDbEntity
  8
DIMENTION
 62
               0
100
AcDbLine
 10
-400.0
 20
777.0
 30
0.0
 11
-368.25
 21
785.50738685968804
 31
0.0
  0
LINE
  5
139
100
AcDbEntity
  8
DIMENTION
 62
               0
100
AcDbLine
 10
-400.0
 20
777.0
 30
0.0
 11
-368.25
 21
768.49261314031173
 31
0.0
  0
LINE
  5
13A
100
AcDbEntity
  8
DIMENTION
 62
               0
100
AcDbLine
 10
200.0
 20
777.0
 30
0.0
 11
168.25
 21
768.49261314031173
 31
0.0
  0
LINE
  5
13B
100
AcDbEntity
  8
DIMENTION
 62
               0
100
AcDbLine
 10
200.0
 20
777.0
 30
0.0
 11
168.25
 21
785.50738685968804
 31
0.0
  0
MTEXT
  5
13C
100
AcDbEntity
  8
DIMENTION
 62
               0
100
AcDbMText
 10
-128.032958984375
 20
820.33333333333326
 30
0.0
 40
33.866666666666667
 41
0.0
 71
               1
 72
               1
  1
600
  7
________
  0
POINT
  5
13D
100
AcDbEntity
  8
DEFPOINTS
 62
               0
100
AcDbPoint
 10
200.0
 20
898.0
 30
0.0
  0
POINT
  5
13E
100
AcDbEntity
  8
DEFPOINTS
 62
               0
100
AcDbPoint
 10
-400.0
 20
898.0
 30
0.0
  0
POINT
  5
13F
100
AcDbEntity
  8
DEFPOINTS
 62
               0
100
AcDbPoint
 10
-400.0
 20
777.0
 30
0.0
  0
ENDBLK
  5
140
100
AcDbEntity
  8
DIMENTION
100
AcDbBlockEnd
  0
BLOCK
  5
141
100
AcDbEntity
  8
DIMENTION
100
AcDbBlockBegin
  2
*D13
 70
               1
 10
0.0
 20
0.0
 30
0.0
  3
*D13
  1

  0
LINE
  5
142
100
AcDbEntity
  8
DIMENTION
 62
               0
100
AcDbLine
 10
-421.9999999627471
 20
1515.0
 30
0.0
 11
-548.28269992549417
 21
1515.0
 31
0.0
  0
LINE
  5
143
100
AcDbEntity
  8
DIMENTION
 62
               0
100
AcDbLine
 10
-421.9999999627471
 20
1565.0
 30
0.0
 11
-548.28269992549417
 21
1565.0
 31
0.0
  0
LINE
  5
144
100
AcDbEntity
  8
DIMENTION
 62
               0
100
AcDbLine
 10
-528.28269999999998
 20
1565.0
 30
0.0
 11
-528.28269999999998
 21
1515.0
 31
0.0
  0
LINE
  5
145
100
AcDbEntity
  8
DIMENTION
 62
               0
100
AcDbLine
 10
-528.28269999999998
 20
1515.0
 30
0.0
 11
-528.28269999999998
 21
1454.9999999869615
 31
0.0
  0
LINE
  5
146
100
AcDbEntity
  8
DIMENTION
 62
               0
100
AcDbLine
 10
-528.28269999999998
 20
1515.0
 30
0.0
 11
-519.77531314031194
 21
1483.25
 31
0.0
  0
LINE
  5
147
100
AcDbEntity
  8
DIMENTION
 62
               0
100
AcDbLine
 10
-528.28269999999998
 20
1515.0
 30
0.0
 11
-536.79008685968802
 21
1483.25
 31
0.0
  0
LINE
  5
148
100
AcDbEntity
  8
DIMENTION
 62
               0
100
AcDbLine
 10
-528.28269999999998
 20
1565.0
 30
0.0
 11
-528.28269999999998
 21
1737.4750011213109
 31
0.0
  0
LINE
  5
149
100
AcDbEntity
  8
DIMENTION
 62
               0
100
AcDbLine
 10
-528.28269999999998
 20
1565.0
 30
0.0
 11
-536.79008685968802
 21
1596.75
 31
0.0
  0
LINE
  5
14A
100
AcDbEntity
  8
DIMENTION
 62
               0
100
AcDbLine
 10
-528.28269999999998
 20
1565.0
 30
0.0
 11
-519.77531314031194
 21
1596.75
 31
0.0
  0
MTEXT
  5
14B
100
AcDbEntity
  8
DIMENTION
 62
               0
100
AcDbMText
 10
-571.61603333333346
 20
1610.4750011213109
 30
0.0
 40
33.866666666666667
 41
0.0
 71
               1
 72
               1
  1
50以上
  7
________
 11
0.0
 21
1.0
 31
0.0
  0
POINT
  5
14C
100
AcDbEntity
  8
DEFPOINTS
 62
               0
100
AcDbPoint
 10
-412.0
 20
1565.0
 30
0.0
  0
POINT
  5
14D
100
AcDbEntity
  8
DEFPOINTS
 62
               0
100
AcDbPoint
 10
-412.0
 20
1515.0
 30
0.0
  0
POINT
  5
14E
100
AcDbEntity
  8
DEFPOINTS
 62
               0
100
AcDbPoint
 10
-528.28269999999998
 20
1515.0
 30
0.0
  0
ENDBLK
  5
14F
100
AcDbEntity
  8
DIMENTION
100
AcDbBlockEnd
  0
BLOCK
  5
150
100
AcDbEntity
  8
DIMENTION
100
AcDbBlockBegin
  2
*D14
 70
               1
 10
0.0
 20
0.0
 30
0.0
  3
*D14
  1

  0
LINE
  5
151
100
AcDbEntity
  8
DIMENTION
 62
               0
100
AcDbLine
 10
-409.4999999627471
 20
-580.0
 30
0.0
 11
-482.99999992549419
 21
-580.0
 31
0.0
  0
LINE
  5
152
100
AcDbEntity
  8
DIMENTION
 62
               0
100
AcDbLine
 10
-379.4999999627471
 20
-800.0
 30
0.0
 11
-482.99999992549419
 21
-800.0
 31
0.0
  0
LINE
  5
153
100
AcDbEntity
  8
DIMENTION
 62
               0
100
AcDbLine
 10
-463.0
 20
-580.0
 30
0.0
 11
-463.0
 21
-800.0
 31
0.0
  0
LINE
  5
154
100
AcDbEntity
  8
DIMENTION
 62
               0
100
AcDbLine
 10
-463.0
 20
-580.0
 30
0.0
 11
-454.49261314031196
 21
-611.75
 31
0.0
  0
LINE
  5
155
100
AcDbEntity
  8
DIMENTION
 62
               0
100
AcDbLine
 10
-463.0
 20
-580.0
 30
0.0
 11
-471.50738685968804
 21
-611.75
 31
0.0
  0
LINE
  5
156
100
AcDbEntity
  8
DIMENTION
 62
               0
100
AcDbLine
 10
-463.0
 20
-800.0
 30
0.0
 11
-471.50738685968804
 21
-768.25
 31
0.0
  0
LINE
  5
157
100
AcDbEntity
  8
DIMENTION
 62
               0
100
AcDbLine
 10
-463.0
 20
-800.0
 30
0.0
 11
-454.49261314031196
 21
-768.25
 31
0.0
  0
MTEXT
  5
158
100
AcDbEntity
  8
DIMENTION
 62
               0
100
AcDbMText
 10
-506.33333333333348
 20
-721.75
 30
0.0
 40
33.866666666666667
 41
0.0
 71
               1
 72
               1
  1
220
  7
________
 11
0.0
 21
1.0
 31
0.0
  0
POINT
  5
159
100
AcDbEntity
  8
DEFPOINTS
 62
               0
100
AcDbPoint
 10
-369.5
 20
-800.0
 30
0.0
  0
POINT
  5
15A
100
AcDbEntity
  8
DEFPOINTS
 62
               0
100
AcDbPoint
 10
-399.5
 20
-580.0
 30
0.0
  0
POINT
  5
15B
100
AcDbEntity
  8
DEFPOINTS
 62
               0
100
AcDbPoint
 10
-463.0
 20
-580.0
 30
0.0
  0
ENDBLK
  5
15C
100
AcDbEntity
  8
DIMENTION
100
AcDbBlockEnd
  0
BLOCK
  5
15D
100
AcDbEntity
  8
DIMENTION
100
AcDbBlockBegin
  2
*D15
 70
               1
 10
0.0
 20
0.0
 30
0.0
  3
*D15
  1

  0
LINE
  5
15E
100
AcDbEntity
  8
DIMENTION
 62
               0
100
AcDbLine
 10
-202.9999999627471
 20
-620.0
 30
0.0
 11
-252.49999992549419
 21
-620.0
 31
0.0
  0
LINE
  5
15F
100
AcDbEntity
  8
DIMENTION
 62
               0
100
AcDbLine
 10
-229.9999999627471
 20
-800.0
 30
0.0
 11
-252.49999992549419
 21
-800.0
 31
0.0
  0
LINE
  5
160
100
AcDbEntity
  8
DIMENTION
 62
               0
100
AcDbLine
 10
-232.5
 20
-620.0
 30
0.0
 11
-232.5
 21
-800.0
 31
0.0
  0
LINE
  5
161
100
AcDbEntity
  8
DIMENTION
 62
               0
100
AcDbLine
 10
-232.5
 20
-620.0
 30
0.0
 11
-223.99261314031196
 21
-651.75
 31
0.0
  0
LINE
  5
162
100
AcDbEntity
  8
DIMENTION
 62
               0
100
AcDbLine
 10
-232.5
 20
-620.0
 30
0.0
 11
-241.00738685968804
 21
-651.75
 31
0.0
  0
LINE
  5
163
100
AcDbEntity
  8
DIMENTION
 62
               0
100
AcDbLine
 10
-232.5
 20
-800.0
 30
0.0
 11
-241.00738685968804
 21
-768.25
 31
0.0
  0
LINE
  5
164
100
AcDbEntity
  8
DIMENTION
 62
               0
100
AcDbLine
 10
-232.5
 20
-800.0
 30
0.0
 11
-223.99261314031196
 21
-768.25
 31
0.0
  0
MTEXT
  5
165
100
AcDbEntity
  8
DIMENTION
 62
               0
100
AcDbMText
 10
-275.83333333333348
 20
-741.75
 30
0.0
 40
33.866666666666667
 41
0.0
 71
               1
 72
               1
  1
180
  7
________
 11
0.0
 21
1.0
 31
0.0
  0
POINT
  5
166
100
AcDbEntity
  8
DEFPOINTS
 62
               0
100
AcDbPoint
 10
-220.0
 20
-800.0
 30
0.0
  0
POINT
  5
167
100
AcDbEntity
  8
DEFPOINTS
 62
               0
100
AcDbPoint
 10
-193.0
 20
-620.0
 30
0.0
  0
POINT
  5
168
100
AcDbEntity
  8
DEFPOINTS
 62
               0
100
AcDbPoint
 10
-232.5
 20
-620.0
 30
0.0
  0
ENDBLK
  5
169
100
AcDbEntity
  8
DIMENTION
100
AcDbBlockEnd
  0
BLOCK
  5
16A
100
AcDbEntity
  8
DIMENTION
100
AcDbBlockBegin
  2
*D16
 70
               1
 10
0.0
 20
0.0
 30
0.0
  3
*D16
  1

  0
LINE
  5
16B
100
AcDbEntity
  8
DIMENTION
 62
               0
100
AcDbLine
 10
-400.0
 20
900.0000000372529
 30
0.0
 11
-400.0
 21
757.00000007450581
 31
0.0
  0
LINE
  5
16C
100
AcDbEntity
  8
DIMENTION
 62
               0
100
AcDbLine
 10
-414.0
 20
900.0000000372529
 30
0.0
 11
-414.0
 21
757.00000007450581
 31
0.0
  0
LINE
  5
16D
100
AcDbEntity
  8
DIMENTION
 62
               0
100
AcDbLine
 10
-414.0
 20
777.0
 30
0.0
 11
-400.0
 21
777.0
 31
0.0
  0
LINE
  5
16E
100
AcDbEntity
  8
DIMENTION
 62
               0
100
AcDbLine
 10
-400.0
 20
777.0
 30
0.0
 11
-339.99999998696148
 21
777.0
 31
0.0
  0
LINE
  5
16F
100
AcDbEntity
  8
DIMENTION
 62
               0
100
AcDbLine
 10
-400.0
 20
777.0
 30
0.0
 11
-368.25
 21
785.50738685968804
 31
0.0
  0
LINE
  5
170
100
AcDbEntity
  8
DIMENTION
 62
               0
100
AcDbLine
 10
-400.0
 20
777.0
 30
0.0
 11
-368.25
 21
768.49261314031173
 31
0.0
  0
LINE
  5
171
100
AcDbEntity
  8
DIMENTION
 62
               0
100
AcDbLine
 10
-414.0
 20
777.0
 30
0.0
 11
-483.33333333333326
 21
777.0
 31
0.0
  0
LINE
  5
172
100
AcDbEntity
  8
DIMENTION
 62
               0
100
AcDbLine
 10
-414.0
 20
777.0
 30
0.0
 11
-445.75
 21
768.49261314031173
 31
0.0
  0
LINE
  5
173
100
AcDbEntity
  8
DIMENTION
 62
               0
100
AcDbLine
 10
-414.0
 20
777.0
 30
0.0
 11
-445.75
 21
785.50738685968804
 31
0.0
  0
MTEXT
  5
174
100
AcDbEntity
  8
DIMENTION
 62
               0
100
AcDbMText
 10
-483.33333333333348
 20
820.33323333333328
 30
0.0
 40
33.866666666666667
 41
0.0
 71
               1
 72
               1
  1
12
  7
________
  0
POINT
  5
175
100
AcDbEntity
  8
DEFPOINTS
 62
               0
100
AcDbPoint
 10
-414.0
 20
910.0
 30
0.0
  0
POINT
  5
176
100
AcDbEntity
  8
DEFPOINTS
 62
               0
100
AcDbPoint
 10
-400.0
 20
910.0
 30
0.0
  0
POINT
  5
177
100
AcDbEntity
  8
DEFPOINTS
 62
               0
100
AcDbPoint
 10
-400.0
 20
777.0
 30
0.0
  0
ENDBLK
  5
178
100
AcDbEntity
  8
DIMENTION
100
AcDbBlockEnd
  0
BLOCK
  5
179
100
AcDbEntity
  8
OBJECT
100
AcDbBlockBegin
  2
*U17
 70
               1
 10
0.0
 20
0.0
 30
0.0
  3
*U17
  1

  0
LWPOLYLINE
  5
17A
100
AcDbEntity
  8
OBJECT
 62
               0
100
AcDbPolyline
 90
        5
 70
             129
 10
-1057.1172999999999
 20
1106.0
 42
0.414213562373095
 10
-1064.1172999999999
 20
1113.0
 42
0.414213562373095
 10
-1071.1172999999999
 20
1106.0
 10
-1071.1172999999999
 20
1086.0
 10
-1057.1172999999999
 20
1086.0
  0
POLYLINE
  5
17B
100
AcDbEntity
  8
OBJECT
 62
               0
100
AcDb2dPolyline
 66
               1
 10
0.0
 20
0.0
 30
0.0
 75
               5
  0
VERTEX
  5
17C
100
AcDbEntity
  8
OBJECT
 62
               0
100
AcDbVertex
100
AcDb2dVertex
 10
-1057.1172999999999
 20
1095.0
 30
0.0
  0
VERTEX
  5
17D
100
AcDbEntity
  8
OBJECT
 62
               0
100
AcDbVertex
100
AcDb2dVertex
 10
-1057.1172999999999
 20
1095.0
 30
0.0
  0
VERTEX
  5
17E
100
AcDbEntity
  8
OBJECT
 62
               0
100
AcDbVertex
100
AcDb2dVertex
 10
-1057.1172999999999
 20
1086.0
 30
0.0
  0
VERTEX
  5
17F
100
AcDbEntity
  8
OBJECT
 62
               0
100
AcDbVertex
100
AcDb2dVertex
 10
-1054.1172999999999
 20
1086.0
 30
0.0
  0
VERTEX
  5
180
100
AcDbEntity
  8
OBJECT
 62
               0
100
AcDbVertex
100
AcDb2dVertex
 10
-1054.1172999999999
 20
1098.0
 30
0.0
  0
VERTEX
  5
181
100
AcDbEntity
  8
OBJECT
 62
               0
100
AcDbVertex
100
AcDb2dVertex
 10
-1057.1172999999999
 20
1098.0
 30
0.0
  0
SEQEND
  5
182
100
AcDbEntity
  8
OBJECT
 62
               0
  0
POLYLINE
  5
183
100
AcDbEntity
  8
OBJECT
 62
               0
100
AcDb2dPolyline
 66
               1
 10
0.0
 20
0.0
 30
0.0
 75
               5
  0
VERTEX
  5
184
100
AcDbEntity
  8
OBJECT
 62
               0
100
AcDbVertex
100
AcDb2dVertex
 10
-1071.1172999999999
 20
1095.0
 30
0.0
  0
VERTEX
  5
185
100
AcDbEntity
  8
OBJECT
 62
               0
100
AcDbVertex
100
AcDb2dVertex
 10
-1111.1172999999999
 20
1095.0
 30
0.0
  0
VERTEX
  5
186
100
AcDbEntity
  8
OBJECT
 62
               0
100
AcDbVertex
100
AcDb2dVertex
 10
-1111.1172999999999
 20
1086.0
 30
0.0
  0
VERTEX
  5
187
100
AcDbEntity
  8
OBJECT
 62
               0
100
AcDbVertex
100
AcDb2dVertex
 10
-1114.1172999999999
 20
1086.0
 30
0.0
  0
VERTEX
  5
188
100
AcDbEntity
  8
OBJECT
 62
               0
100
AcDbVertex
100
AcDb2dVertex
 10
-1114.1172999999999
 20
1098.0
 30
0.0
  0
VERTEX
  5
189
100
AcDbEntity
  8
OBJECT
 62
               0
100
AcDbVertex
100
AcDb2dVertex
 10
-1071.1172999999999
 20
1098.0
 30
0.0
  0
SEQEND
  5
18A
100
AcDbEntity
  8
OBJECT
 62
               0
  0
ENDBLK
  5
18B
100
AcDbEntity
  8
OBJECT
100
AcDbBlockEnd
  0
BLOCK
  5
18C
100
AcDbEntity
  8
OBJECT
100
AcDbBlockBegin
  2
*U18
 70
               1
 10
0.0
 20
0.0
 30
0.0
  3
*U18
  1

  0
LWPOLYLINE
  5
18D
100
AcDbEntity
  8
OBJECT
 62
               0
100
AcDbPolyline
 90
        6
 70
             129
 10
860.88269999999989
 20
-1189.0
 10
894.88269999999989
 20
-1189.0
 10
894.88269999999989
 20
-1224.0
 42
-0.414213562373095
 10
889.88269999999989
 20
-1229.0
 10
865.88269999999989
 20
-1229.0
 42
-0.4142135623730817
 10
860.88269999999989
 20
-1224.0
  0
LINE
  5
18E
100
AcDbEntity
  8
OBJECT
 62
               0
100
AcDbLine
 10
885.48796315789457
 20
-1227.0
 30
0.0
 11
885.48796315789457
 21
-1210.0
 31
0.0
  0
LINE
  5
18F
100
AcDbEntity
  8
OBJECT
 62
               0
100
AcDbLine
 10
869.83006842105249
 20
-1227.0
 30
0.0
 11
869.83006842105249
 21
-1210.0
 31
0.0
  0
SPLINE
  5
190
100
AcDbEntity
  8
OBJECT
 62
               0
100
AcDbSpline
210
0.0
220
0.0
230
1.0
 70
               8
 71
               2
 72
              10
 73
               7
 74
               0
 42
0.000001
 43
0.000001
 40
0.0
 40
0.0
 40
0.0
 40
0.2401007557892801
 40
0.2401007557892801
 40
0.7689566801389349
 40
0.7689566801389349
 40
1.0
 40
1.0
 40
1.0
 10
863.11954210526301
 20
-1207.0
 30
0.0
 10
864.90901578947353
 20
-1206.0
 30
0.0
 10
869.83006842105249
 20
-1210.0
 30
0.0
 10
877.88269999999989
 20
-1204.5
 30
0.0
 10
885.48796315789457
 20
-1210.0
 30
0.0
 10
889.06691052631572
 20
-1206.0
 30
0.0
 10
891.75112105263145
 20
-1207.0
 30
0.0
  0
ENDBLK
  5
191
100
AcDbEntity
  8
OBJECT
100
AcDbBlockEnd
  0
BLOCK
  5
192
100
AcDbEntity
  8
OBJECT
100
AcDbBlockBegin
  2
*U19
 70
               1
 10
0.0
 20
0.0
 30
0.0
  3
*U19
  1

  0
LINE
  5
193
100
AcDbEntity
  8
OBJECT
 62
               0
100
AcDbLine
 10
416.88269999999989
 20
-1008.9999999999999
 30
0.0
 11
416.88269999999989
 21
-1189.0
 31
0.0
  0
LINE
  5
194
100
AcDbEntity
  8
OBJECT
 62
               0
100
AcDbLine
 10
378.88269999999989
 20
-1008.9999999999999
 30
0.0
 11
378.88269999999989
 21
-1189.0
 31
0.0
  0
ENDBLK
  5
195
100
AcDbEntity
  8
OBJECT
100
AcDbBlockEnd
  0
BLOCK
  5
196
100
AcDbEntity
  8
OBJECT
100
AcDbBlockBegin
  2
*U20
 70
               1
 10
0.0
 20
0.0
 30
0.0
  3
*U20
  1

  0
LWPOLYLINE
  5
197
100
AcDbEntity
  8
OBJECT
 62
               0
100
AcDbPolyline
 90
        6
 70
             129
 10
380.88269999999989
 20
-1189.0
 10
414.88269999999989
 20
-1189.0
 10
414.88269999999989
 20
-1224.0
 42
-0.414213562373095
 10
409.88269999999989
 20
-1229.0
 10
385.88269999999989
 20
-1229.0
 42
-0.414213562373095
 10
380.88269999999989
 20
-1224.0
  0
LINE
  5
198
100
AcDbEntity
  8
OBJECT
 62
               0
100
AcDbLine
 10
405.48796315789468
 20
-1227.0
 30
0.0
 11
405.48796315789468
 21
-1210.0
 31
0.0
  0
LINE
  5
199
100
AcDbEntity
  8
OBJECT
 62
               0
100
AcDbLine
 10
389.8300684210526
 20
-1227.0
 30
0.0
 11
389.8300684210526
 21
-1210.0
 31
0.0
  0
SPLINE
  5
19A
100
AcDbEntity
  8
OBJECT
 62
               0
100
AcDbSpline
210
0.0
220
0.0
230
1.0
 70
               8
 71
               2
 72
              10
 73
               7
 74
               0
 42
0.000001
 43
0.000001
 40
0.0
 40
0.0
 40
0.0
 40
0.2401007557892838
 40
0.2401007557892838
 40
0.7689566801389404
 40
0.7689566801389404
 40
1.0
 40
1.0
 40
1.0
 10
383.11954210526301
 20
-1207.0
 30
0.0
 10
384.90901578947341
 20
-1206.0
 30
0.0
 10
389.8300684210526
 20
-1210.0
 30
0.0
 10
397.88269999999989
 20
-1204.5
 30
0.0
 10
405.48796315789468
 20
-1210.0
 30
0.0
 10
409.06691052631572
 20
-1206.0
 30
0.0
 10
411.75112105263133
 20
-1207.0
 30
0.0
  0
ENDBLK
  5
19B
100
AcDbEntity
  8
OBJECT
100
AcDbBlockEnd
  0
BLOCK
  5
19C
100
AcDbEntity
  8
OBJECT
100
AcDbBlockBegin
  2
*U21
 70
               1
 10
0.0
 20
0.0
 30
0.0
  3
*U21
  1

  0
LINE
  5
19D
100
AcDbEntity
  8
OBJECT
 62
               0
100
AcDbLine
 10
-825.11729999999989
 20
-1008.9999999999999
 30
0.0
 11
-825.11729999999989
 21
-1189.0
 31
0.0
  0
LINE
  5
19E
100
AcDbEntity
  8
OBJECT
 62
               0
100
AcDbLine
 10
-863.11729999999989
 20
-1008.9999999999999
 30
0.0
 11
-863.11729999999989
 21
-1189.0
 31
0.0
  0
ENDBLK
  5
19F
100
AcDbEntity
  8
OBJECT
100
AcDbBlockEnd
  0
BLOCK
  5
1A0
100
AcDbEntity
  8
OBJECT
100
AcDbBlockBegin
  2
*U22
 70
               1
 10
0.0
 20
0.0
 30
0.0
  3
*U22
  1

  0
LINE
  5
1A1
100
AcDbEntity
  8
OBJECT
 62
               0
100
AcDbLine
 10
-835.11729999999989
 20
-1227.0
 30
0.0
 11
-835.11729999999989
 21
-1210.0
 31
0.0
  0
LINE
  5
1A2
100
AcDbEntity
  8
OBJECT
 62
               0
100
AcDbLine
 10
-852.61729999999989
 20
-1227.0
 30
0.0
 11
-852.61729999999989
 21
-1210.0
 31
0.0
  0
SPLINE
  5
1A3
100
AcDbEntity
  8
OBJECT
 62
               0
100
AcDbSpline
210
0.0
220
0.0
230
1.0
 70
               8
 71
               2
 72
              10
 73
               7
 74
               0
 42
0.000001
 43
0.000001
 40
0.0
 40
0.0
 40
0.0
 40
0.2391095954640664
 40
0.2391095954640664
 40
0.7708424925849841
 40
0.7708424925849841
 40
1.0
 40
1.0
 40
1.0
 10
-860.11729999999989
 20
-1207.0
 30
0.0
 10
-858.11729999999989
 20
-1206.0
 30
0.0
 10
-852.61729999999989
 20
-1210.0
 30
0.0
 10
-843.61729999999989
 20
-1204.5
 30
0.0
 10
-835.11729999999989
 20
-1210.0
 30
0.0
 10
-831.11729999999989
 20
-1206.0
 30
0.0
 10
-828.11729999999989
 20
-1207.0
 30
0.0
  0
ENDBLK
  5
1A4
100
AcDbEntity
  8
OBJECT
100
AcDbBlockEnd
  0
BLOCK
  5
1A5
100
AcDbEntity
  8
OBJECT
100
AcDbBlockBegin
  2
*U23
 70
               1
 10
0.0
 20
0.0
 30
0.0
  3
*U23
  1

  0
LWPOLYLINE
  5
1A6
100
AcDbEntity
  8
OBJECT
 62
               0
100
AcDbPolyline
 90
        6
 70
             129
 10
-861.11729999999989
 20
-1189.0
 10
-827.11729999999989
 20
-1189.0
 10
-827.11729999999989
 20
-1224.0
 42
-0.414213562373095
 10
-832.11729999999989
 20
-1229.0
 10
-856.11729999999989
 20
-1229.0
 42
-0.414213562373095
 10
-861.11729999999989
 20
-1224.0
  0
INSERT
  5
1A7
100
AcDbEntity
  8
OBJECT
 62
               0
100
AcDbBlockReference
  2
*U22
 10
0.0
 20
0.0
 30
0.0
  0
ENDBLK
  5
1A8
100
AcDbEntity
  8
OBJECT
100
AcDbBlockEnd
  0
BLOCK
  5
1A9
100
AcDbEntity
  8
OBJECT
100
AcDbBlockBegin
  2
*U24
 70
               1
 10
0.0
 20
0.0
 30
0.0
  3
*U24
  1

  0
LINE
  5
1AA
100
AcDbEntity
  8
OBJECT
 62
               0
100
AcDbLine
 10
-1365.1172999999999
 20
-1008.9999999999999
 30
0.0
 11
-1365.1172999999999
 21
-1189.0
 31
0.0
  0
LINE
  5
1AB
100
AcDbEntity
  8
OBJECT
 62
               0
100
AcDbLine
 10
-1403.1172999999999
 20
-1008.9999999999999
 30
0.0
 11
-1403.1172999999999
 21
-1189.0
 31
0.0
  0
ENDBLK
  5
1AC
100
AcDbEntity
  8
OBJECT
100
AcDbBlockEnd
  0
BLOCK
  5
1AD
100
AcDbEntity
  8
OBJECT
100
AcDbBlockBegin
  2
*U25
 70
               1
 10
0.0
 20
0.0
 30
0.0
  3
*U25
  1

  0
LINE
  5
1AE
100
AcDbEntity
  8
OBJECT
 62
               0
100
AcDbLine
 10
-1375.1172999999999
 20
-1227.0
 30
0.0
 11
-1375.1172999999999
 21
-1210.0
 31
0.0
  0
LINE
  5
1AF
100
AcDbEntity
  8
OBJECT
 62
               0
100
AcDbLine
 10
-1392.6172999999999
 20
-1227.0
 30
0.0
 11
-1392.6172999999999
 21
-1210.0
 31
0.0
  0
SPLINE
  5
1B0
100
AcDbEntity
  8
OBJECT
 62
               0
100
AcDbSpline
210
0.0
220
0.0
230
1.0
 70
               8
 71
               2
 72
              10
 73
               7
 74
               0
 42
0.000001
 43
0.000001
 40
0.0
 40
0.0
 40
0.0
 40
0.2391095954640664
 40
0.2391095954640664
 40
0.7708424925849841
 40
0.7708424925849841
 40
1.0
 40
1.0
 40
1.0
 10
-1400.1172999999999
 20
-1207.0
 30
0.0
 10
-1398.1172999999999
 20
-1206.0
 30
0.0
 10
-1392.6172999999999
 20
-1210.0
 30
0.0
 10
-1383.6172999999999
 20
-1204.5
 30
0.0
 10
-1375.1172999999999
 20
-1210.0
 30
0.0
 10
-1371.1172999999999
 20
-1206.0
 30
0.0
 10
-1368.1172999999999
 20
-1207.0
 30
0.0
  0
ENDBLK
  5
1B1
100
AcDbEntity
  8
OBJECT
100
AcDbBlockEnd
  0
BLOCK
  5
1B2
100
AcDbEntity
  8
OBJECT
100
AcDbBlockBegin
  2
*U26
 70
               1
 10
0.0
 20
0.0
 30
0.0
  3
*U26
  1

  0
LWPOLYLINE
  5
1B3
100
AcDbEntity
  8
OBJECT
 62
               0
100
AcDbPolyline
 90
        6
 70
             129
 10
-1401.1172999999999
 20
-1189.0
 10
-1367.1172999999999
 20
-1189.0
 10
-1367.1172999999999
 20
-1224.0
 42
-0.414213562373095
 10
-1372.1172999999999
 20
-1229.0
 10
-1396.1172999999999
 20
-1229.0
 42
-0.414213562373095
 10
-1401.1172999999999
 20
-1224.0
  0
INSERT
  5
1B4
100
AcDbEntity
  8
OBJECT
 62
               0
100
AcDbBlockReference
  2
*U25
 10
0.0
 20
0.0
 30
0.0
  0
ENDBLK
  5
1B5
100
AcDbEntity
  8
OBJECT
100
AcDbBlockEnd
  0
BLOCK
  5
1B6
100
AcDbEntity
  8
DIMENTION
100
AcDbBlockBegin
  2
*D27
 70
               1
 10
0.0
 20
0.0
 30
0.0
  3
*D27
  1

  0
LINE
  5
1B7
100
AcDbEntity
  8
DIMENTION
 62
               0
100
AcDbLine
 10
298.49999996274619
 20
-528.99999999999955
 30
0.0
 11
396.57679539986464
 21
-528.99999999999955
 31
0.0
  0
LINE
  5
1B8
100
AcDbEntity
  8
DIMENTION
 62
               0
100
AcDbLine
 10
298.49999996274619
 20
-800.0
 30
0.0
 11
396.57679539986464
 21
-800.0
 31
0.0
  0
LINE
  5
1B9
100
AcDbEntity
  8
DIMENTION
 62
               0
100
AcDbLine
 10
376.57679547437044
 20
-528.99999999999955
 30
0.0
 11
376.57679547437044
 21
-800.0
 31
0.0
  0
LINE
  5
1BA
100
AcDbEntity
  8
DIMENTION
 62
               0
100
AcDbLine
 10
376.57679547437044
 20
-528.99999999999955
 30
0.0
 11
385.0841823340586
 21
-560.74999999999955
 31
0.0
  0
LINE
  5
1BB
100
AcDbEntity
  8
DIMENTION
 62
               0
100
AcDbLine
 10
376.57679547437044
 20
-528.99999999999955
 30
0.0
 11
368.06940861468229
 21
-560.74999999999955
 31
0.0
  0
LINE
  5
1BC
100
AcDbEntity
  8
DIMENTION
 62
               0
100
AcDbLine
 10
376.57679547437044
 20
-800.0
 30
0.0
 11
368.06940861468229
 21
-768.25
 31
0.0
  0
LINE
  5
1BD
100
AcDbEntity
  8
DIMENTION
 62
               0
100
AcDbLine
 10
376.57679547437044
 20
-800.0
 30
0.0
 11
385.0841823340586
 21
-768.25
 31
0.0
  0
MTEXT
  5
1BE
100
AcDbEntity
  8
DIMENTION
 62
               0
100
AcDbMText
 10
333.24346214476247
 20
-696.24999999999977
 30
0.0
 40
33.866666666666667
 41
0.0
 71
               1
 72
               1
  1
270
  7
________
 11
0.0
 21
1.0
 31
0.0
  0
POINT
  5
1BF
100
AcDbEntity
  8
DEFPOINTS
 62
               0
100
AcDbPoint
 10
288.49999999999909
 20
-800.0
 30
0.0
  0
POINT
  5
1C0
100
AcDbEntity
  8
DEFPOINTS
 62
               0
100
AcDbPoint
 10
288.49999999999909
 20
-528.99999999999955
 30
0.0
  0
POINT
  5
1C1
100
AcDbEntity
  8
DEFPOINTS
 62
               0
100
AcDbPoint
 10
376.57679547437044
 20
-528.99999999999955
 30
0.0
  0
ENDBLK
  5
1C2
100
AcDbEntity
  8
DIMENTION
100
AcDbBlockEnd
  0
BLOCK
  5
1C3
100
AcDbEntity
  8
DIMENTION
100
AcDbBlockBegin
  2
*D28
 70
               1
 10
0.0
 20
0.0
 30
0.0
  3
*D28
  1

  0
LINE
  5
1C4
100
AcDbEntity
  8
DIMENTION
 62
               0
100
AcDbLine
 10
350.50161325148963
 20
-514.99999986990133
 30
0.0
 11
454.57679539986464
 21
-514.99999986990133
 31
0.0
  0
LINE
  5
1C5
100
AcDbEntity
  8
DIMENTION
 62
               0
100
AcDbLine
 10
350.50161325148963
 20
-800.0
 30
0.0
 11
454.57679539986464
 21
-800.0
 31
0.0
  0
LINE
  5
1C6
100
AcDbEntity
  8
DIMENTION
 62
               0
100
AcDbLine
 10
434.57679547437044
 20
-514.99999986990133
 30
0.0
 11
434.57679547437044
 21
-800.0
 31
0.0
  0
LINE
  5
1C7
100
AcDbEntity
  8
DIMENTION
 62
               0
100
AcDbLine
 10
434.57679547437044
 20
-514.99999986990133
 30
0.0
 11
443.0841823340586
 21
-546.74999986990133
 31
0.0
  0
LINE
  5
1C8
100
AcDbEntity
  8
DIMENTION
 62
               0
100
AcDbLine
 10
434.57679547437044
 20
-514.99999986990133
 30
0.0
 11
426.06940861468229
 21
-546.74999986990133
 31
0.0
  0
LINE
  5
1C9
100
AcDbEntity
  8
DIMENTION
 62
               0
100
AcDbLine
 10
434.57679547437044
 20
-800.0
 30
0.0
 11
426.06940861468229
 21
-768.25
 31
0.0
  0
LINE
  5
1CA
100
AcDbEntity
  8
DIMENTION
 62
               0
100
AcDbLine
 10
434.57679547437044
 20
-800.0
 30
0.0
 11
443.0841823340586
 21
-768.25
 31
0.0
  0
MTEXT
  5
1CB
100
AcDbEntity
  8
DIMENTION
 62
               0
100
AcDbMText
 10
391.24346214476247
 20
-689.24999993495067
 30
0.0
 40
33.866666666666667
 41
0.0
 71
               1
 72
               1
  1
285
  7
________
 11
0.0
 21
1.0
 31
0.0
  0
POINT
  5
1CC
100
AcDbEntity
  8
DEFPOINTS
 62
               0
100
AcDbPoint
 10
340.50161328874253
 20
-800.0
 30
0.0
  0
POINT
  5
1CD
100
AcDbEntity
  8
DEFPOINTS
 62
               0
100
AcDbPoint
 10
340.50161328874253
 20
-514.99999986990133
 30
0.0
  0
POINT
  5
1CE
100
AcDbEntity
  8
DEFPOINTS
 62
               0
100
AcDbPoint
 10
434.57679547437044
 20
-514.99999986990133
 30
0.0
  0
ENDBLK
  5
1CF
100
AcDbEntity
  8
DIMENTION
100
AcDbBlockEnd
  0
BLOCK
  5
1D0
100
AcDbEntity
  8
DIMENTION
100
AcDbBlockBegin
  2
*D29
 70
               1
 10
0.0
 20
0.0
 30
0.0
  3
*D29
  1

  0
LINE
  5
1D1
100
AcDbEntity
  8
DIMENTION
 62
               0
100
AcDbLine
 10
361.29999996274603
 20
-109.19999999999942
 30
0.0
 11
508.07679539986464
 21
-109.19999999999942
 31
0.0
  0
LINE
  5
1D2
100
AcDbEntity
  8
DIMENTION
 62
               0
100
AcDbLine
 10
476.07679543711754
 20
-800.0
 30
0.0
 11
508.07679539986464
 21
-800.0
 31
0.0
  0
LINE
  5
1D3
100
AcDbEntity
  8
DIMENTION
 62
               0
100
AcDbLine
 10
488.07679547437044
 20
-109.19999999999942
 30
0.0
 11
488.07679547437044
 21
-800.0
 31
0.0
  0
LINE
  5
1D4
100
AcDbEntity
  8
DIMENTION
 62
               0
100
AcDbLine
 10
488.07679547437044
 20
-109.19999999999942
 30
0.0
 11
496.5841823340586
 21
-140.94999999999942
 31
0.0
  0
LINE
  5
1D5
100
AcDbEntity
  8
DIMENTION
 62
               0
100
AcDbLine
 10
488.07679547437044
 20
-109.19999999999942
 30
0.0
 11
479.56940861468229
 21
-140.94999999999942
 31
0.0
  0
LINE
  5
1D6
100
AcDbEntity
  8
DIMENTION
 62
               0
100
AcDbLine
 10
488.07679547437044
 20
-800.0
 30
0.0
 11
479.56940861468229
 21
-768.25
 31
0.0
  0
LINE
  5
1D7
100
AcDbEntity
  8
DIMENTION
 62
               0
100
AcDbLine
 10
488.07679547437044
 20
-800.0
 30
0.0
 11
496.5841823340586
 21
-768.25
 31
0.0
  0
MTEXT
  5
1D8
100
AcDbEntity
  8
DIMENTION
 62
               0
100
AcDbMText
 10
444.74346214476247
 20
-486.34999999999974
 30
0.0
 40
33.866666666666667
 41
0.0
 71
               1
 72
               1
  1
690
  7
________
 11
0.0
 21
1.0
 31
0.0
  0
POINT
  5
1D9
100
AcDbEntity
  8
DEFPOINTS
 62
               0
100
AcDbPoint
 10
466.07679547437044
 20
-800.0
 30
0.0
  0
POINT
  5
1DA
100
AcDbEntity
  8
DEFPOINTS
 62
               0
100
AcDbPoint
 10
351.29999999999893
 20
-109.19999999999942
 30
0.0
  0
POINT
  5
1DB
100
AcDbEntity
  8
DEFPOINTS
 62
               0
100
AcDbPoint
 10
488.07679547437044
 20
-109.19999999999942
 30
0.0
  0
ENDBLK
  5
1DC
100
AcDbEntity
  8
DIMENTION
100
AcDbBlockEnd
  0
BLOCK
  5
1DD
100
AcDbEntity
  8
DIMENTION
100
AcDbBlockBegin
  2
*D30
 70
               1
 10
0.0
 20
0.0
 30
0.0
  3
*D30
  1

  0
LINE
  5
1DE
100
AcDbEntity
  8
DIMENTION
 62
               0
100
AcDbLine
 10
200.0
 20
900.0000000372529
 30
0.0
 11
200.0
 21
757.00000007450581
 31
0.0
  0
LINE
  5
1DF
100
AcDbEntity
  8
DIMENTION
 62
               0
100
AcDbLine
 10
353.70000000000005
 20
963.80000003725286
 30
0.0
 11
353.70000000000005
 21
757.00000007450581
 31
0.0
  0
LINE
  5
1E0
100
AcDbEntity
  8
DIMENTION
 62
               0
100
AcDbLine
 10
200.0
 20
777.0
 30
0.0
 11
353.70000000000005
 21
777.0
 31
0.0
  0
LINE
  5
1E1
100
AcDbEntity
  8
DIMENTION
 62
               0
100
AcDbLine
 10
200.0
 20
777.0
 30
0.0
 11
231.75
 21
785.50738685968804
 31
0.0
  0
LINE
  5
1E2
100
AcDbEntity
  8
DIMENTION
 62
               0
100
AcDbLine
 10
200.0
 20
777.0
 30
0.0
 11
231.75
 21
768.49261314031173
 31
0.0
  0
LINE
  5
1E3
100
AcDbEntity
  8
DIMENTION
 62
               0
100
AcDbLine
 10
353.70000000000005
 20
777.0
 30
0.0
 11
321.95000000000005
 21
768.49261314031173
 31
0.0
  0
LINE
  5
1E4
100
AcDbEntity
  8
DIMENTION
 62
               0
100
AcDbLine
 10
353.70000000000005
 20
777.0
 30
0.0
 11
321.95000000000005
 21
785.50738685968804
 31
0.0
  0
MTEXT
  5
1E5
100
AcDbEntity
  8
DIMENTION
 62
               0
100
AcDbMText
 10
245.10000000000002
 20
820.33333332960797
 30
0.0
 40
33.866666666666667
 41
0.0
 71
               1
 72
               1
  1
160
  7
________
  0
POINT
  5
1E6
100
AcDbEntity
  8
DEFPOINTS
 62
               0
100
AcDbPoint
 10
353.70000000000005
 20
973.79999999999995
 30
0.0
  0
POINT
  5
1E7
100
AcDbEntity
  8
DEFPOINTS
 62
               0
100
AcDbPoint
 10
200.0
 20
910.0
 30
0.0
  0
POINT
  5
1E8
100
AcDbEntity
  8
DEFPOINTS
 62
               0
100
AcDbPoint
 10
200.0
 20
777.0
 30
0.0
  0
ENDBLK
  5
1E9
100
AcDbEntity
  8
DIMENTION
100
AcDbBlockEnd
  0
BLOCK
  5
1EA
100
AcDbEntity
  8
DIMENTION
100
AcDbBlockBegin
  2
*D31
 70
               1
 10
0.0
 20
0.0
 30
0.0
  3
*D31
  1

  0
LINE
  5
1EB
100
AcDbEntity
  8
DIMENTION
 62
               0
100
AcDbLine
 10
362.49999996274732
 20
1204.9999999999998
 30
0.0
 11
473.07679539986464
 21
1204.9999999999998
 31
0.0
  0
LINE
  5
1EC
100
AcDbEntity
  8
DIMENTION
 62
               0
100
AcDbLine
 10
289.99999996274596
 20
1094.8
 30
0.0
 11
473.07679539986464
 21
1094.8
 31
0.0
  0
LINE
  5
1ED
100
AcDbEntity
  8
DIMENTION
 62
               0
100
AcDbLine
 10
453.07679547437044
 20
1204.9999999999998
 30
0.0
 11
453.07679547437044
 21
1094.8
 31
0.0
  0
LINE
  5
1EE
100
AcDbEntity
  8
DIMENTION
 62
               0
100
AcDbLine
 10
453.07679547437044
 20
1204.9999999999998
 30
0.0
 11
461.5841823340586
 21
1173.2499999999998
 31
0.0
  0
LINE
  5
1EF
100
AcDbEntity
  8
DIMENTION
 62
               0
100
AcDbLine
 10
453.07679547437044
 20
1204.9999999999998
 30
0.0
 11
444.56940861468229
 21
1173.2499999999998
 31
0.0
  0
LINE
  5
1F0
100
AcDbEntity
  8
DIMENTION
 62
               0
100
AcDbLine
 10
453.07679547437044
 20
1094.8
 30
0.0
 11
444.56940861468229
 21
1126.55
 31
0.0
  0
LINE
  5
1F1
100
AcDbEntity
  8
DIMENTION
 62
               0
100
AcDbLine
 10
453.07679547437044
 20
1094.8
 30
0.0
 11
461.5841823340586
 21
1126.55
 31
0.0
  0
MTEXT
  5
1F2
100
AcDbEntity
  8
DIMENTION
 62
               0
100
AcDbMText
 10
409.74346214476247
 20
1118.1499999999999
 30
0.0
 40
33.866666666666667
 41
0.0
 71
               1
 72
               1
  1
110
  7
________
 11
0.0
 21
1.0
 31
0.0
  0
POINT
  5
1F3
100
AcDbEntity
  8
DEFPOINTS
 62
               0
100
AcDbPoint
 10
279.99999999999886
 20
1094.8
 30
0.0
  0
POINT
  5
1F4
100
AcDbEntity
  8
DEFPOINTS
 62
               0
100
AcDbPoint
 10
352.50000000000023
 20
1204.9999999999998
 30
0.0
  0
POINT
  5
1F5
100
AcDbEntity
  8
DEFPOINTS
 62
               0
100
AcDbPoint
 10
453.07679547437044
 20
1204.9999999999998
 30
0.0
  0
ENDBLK
  5
1F6
100
AcDbEntity
  8
DIMENTION
100
AcDbBlockEnd
  0
BLOCK
  5
1F7
100
AcDbEntity
  8
OBJECT
100
AcDbBlockBegin
  2
*U32
 70
               1
 10
0.0
 20
0.0
 30
0.0
  3
*U32
  1

  0
POLYLINE
  5
1F8
100
AcDbEntity
  8
OBJECT
 62
               0
100
AcDb2dPolyline
 66
               1
 10
0.0
 20
0.0
 30
0.0
 75
               5
  0
VERTEX
  5
1F9
100
AcDbEntity
  8
OBJECT
 62
               0
100
AcDbVertex
100
AcDb2dVertex
 10
556.38269999999989
 20
-942.98999999020543
 30
0.0
  0
VERTEX
  5
1FA
100
AcDbEntity
  8
OBJECT
 62
               0
100
AcDbVertex
100
AcDb2dVertex
 10
556.38269999999989
 20
-957.98999999020543
 30
0.0
  0
VERTEX
  5
1FB
100
AcDbEntity
  8
OBJECT
 62
               0
100
AcDbVertex
100
AcDb2dVertex
 10
539.38269999999989
 20
-957.98999999020543
 30
0.0
  0
VERTEX
  5
1FC
100
AcDbEntity
  8
OBJECT
 62
               0
100
AcDbVertex
100
AcDb2dVertex
 10
539.38269999999989
 20
-942.99000000979458
 30
0.0
  0
SEQEND
  5
1FD
100
AcDbEntity
  8
OBJECT
 62
               0
  0
LINE
  5
1FE
100
AcDbEntity
  8
OBJECT
 62
               0
100
AcDbLine
 10
539.38269999999989
 20
-942.99000000979458
 30
0.0
 11
556.38269999999989
 21
-942.98999999020543
 31
0.0
  0
ENDBLK
  5
1FF
100
AcDbEntity
  8
OBJECT
100
AcDbBlockEnd
  0
BLOCK
  5
200
100
AcDbEntity
  8
DIMENTION
100
AcDbBlockBegin
  2
*U33
 70
               1
 10
0.0
 20
0.0
 30
0.0
  3
*U33
  1

  0
LINE
  5
201
100
AcDbEntity
  8
CENTER
 62
               0
100
AcDbLine
 10
-749.11730000000102
 20
665.79999999999995
 30
0.0
 11
-719.11730000000102
 21
665.79999999999995
 31
0.0
  0
LINE
  5
202
100
AcDbEntity
  8
CENTER
 62
               0
100
AcDbLine
 10
-734.11730000000102
 20
665.29999999999995
 30
0.0
 11
-734.11730000000102
 21
666.29999999999995
 31
0.0
  0
ENDBLK
  5
203
100
AcDbEntity
  8
DIMENTION
100
AcDbBlockEnd
  0
BLOCK
  5
204
100
AcDbEntity
  8
DIMENTION
100
AcDbBlockBegin
  2
*D34
 70
               1
 10
0.0
 20
0.0
 30
0.0
  3
*D34
  1

  0
LINE
  5
205
100
AcDbEntity
  8
DIMENTION
 62
               0
100
AcDbLine
 10
-199.42320448837677
 20
1204.9999999999998
 30
0.0
 11
-253.28269992549417
 21
1204.9999999999998
 31
0.0
  0
LINE
  5
206
100
AcDbEntity
  8
DIMENTION
 62
               0
100
AcDbLine
 10
-160.9999999627471
 20
1084.9999999999998
 30
0.0
 11
-253.28269992549417
 21
1084.9999999999998
 31
0.0
  0
LINE
  5
207
100
AcDbEntity
  8
DIMENTION
 62
               0
100
AcDbLine
 10
-233.28269999999998
 20
1204.9999999999998
 30
0.0
 11
-233.28269999999998
 21
1084.9999999999998
 31
0.0
  0
LINE
  5
208
100
AcDbEntity
  8
DIMENTION
 62
               0
100
AcDbLine
 10
-233.28269999999998
 20
1204.9999999999998
 30
0.0
 11
-224.77531314031194
 21
1173.2499999999998
 31
0.0
  0
LINE
  5
209
100
AcDbEntity
  8
DIMENTION
 62
               0
100
AcDbLine
 10
-233.28269999999998
 20
1204.9999999999998
 30
0.0
 11
-241.79008685968802
 21
1173.2499999999998
 31
0.0
  0
LINE
  5
20A
100
AcDbEntity
  8
DIMENTION
 62
               0
100
AcDbLine
 10
-233.28269999999998
 20
1084.9999999999998
 30
0.0
 11
-241.79008685968802
 21
1116.7499999999998
 31
0.0
  0
LINE
  5
20B
100
AcDbEntity
  8
DIMENTION
 62
               0
100
AcDbLine
 10
-233.28269999999998
 20
1084.9999999999998
 30
0.0
 11
-224.77531314031194
 21
1116.7499999999998
 31
0.0
  0
MTEXT
  5
20C
100
AcDbEntity
  8
DIMENTION
 62
               0
100
AcDbMText
 10
-276.61603332960817
 20
1113.2499999999998
 30
0.0
 40
33.866666666666667
 41
0.0
 71
               1
 72
               1
  1
120
  7
________
 11
0.0
 21
1.0
 31
0.0
  0
POINT
  5
20D
100
AcDbEntity
  8
DEFPOINTS
 62
               0
100
AcDbPoint
 10
-151.0
 20
1084.9999999999998
 30
0.0
  0
POINT
  5
20E
100
AcDbEntity
  8
DEFPOINTS
 62
               0
100
AcDbPoint
 10
-189.42320452562967
 20
1204.9999999999998
 30
0.0
  0
POINT
  5
20F
100
AcDbEntity
  8
DEFPOINTS
 62
               0
100
AcDbPoint
 10
-233.28269999999998
 20
1204.9999999999998
 30
0.0
  0
ENDBLK
  5
210
100
AcDbEntity
  8
DIMENTION
100
AcDbBlockEnd
  0
BLOCK
  5
211
100
AcDbEntity
  8
DIMENTION
100
AcDbBlockBegin
  2
*D35
 70
               1
 10
0.0
 20
0.0
 30
0.0
  3
*D35
  1

  0
LINE
  5
212
100
AcDbEntity
  8
DIMENTION
 62
               0
100
AcDbLine
 10
-140.0
 20
1061.4750011585638
 30
0.0
 11
-140.0
 21
982.10500119581661
 31
0.0
  0
LINE
  5
213
100
AcDbEntity
  8
DIMENTION
 62
               0
100
AcDbLine
 10
-100.0
 20
1021.4750011585638
 30
0.0
 11
-100.0
 21
982.10500119581661
 31
0.0
  0
LINE
  5
214
100
AcDbEntity
  8
DIMENTION
 62
               0
100
AcDbLine
 10
-100.0
 20
1002.1050011213108
 30
0.0
 11
-140.0
 21
1002.1050011213108
 31
0.0
  0
LINE
  5
215
100
AcDbEntity
  8
DIMENTION
 62
               0
100
AcDbLine
 10
-140.0
 20
1002.1050011213108
 30
0.0
 11
-200.00000001303852
 21
1002.1050011213108
 31
0.0
  0
LINE
  5
216
100
AcDbEntity
  8
DIMENTION
 62
               0
100
AcDbLine
 10
-140.0
 20
1002.1050011213108
 30
0.0
 11
-171.75
 21
993.59761426162277
 31
0.0
  0
LINE
  5
217
100
AcDbEntity
  8
DIMENTION
 62
               0
100
AcDbLine
 10
-140.0
 20
1002.1050011213108
 30
0.0
 11
-171.75
 21
1010.6123879809991
 31
0.0
  0
LINE
  5
218
100
AcDbEntity
  8
DIMENTION
 62
               0
100
AcDbLine
 10
-100.0
 20
1002.1050011213108
 30
0.0
 11
-39.999999986961484
 21
1002.1050011213108
 31
0.0
  0
LINE
  5
219
100
AcDbEntity
  8
DIMENTION
 62
               0
100
AcDbLine
 10
-100.0
 20
1002.1050011213108
 30
0.0
 11
-68.25
 21
1010.6123879809991
 31
0.0
  0
LINE
  5
21A
100
AcDbEntity
  8
DIMENTION
 62
               0
100
AcDbLine
 10
-100.0
 20
1002.1050011213108
 30
0.0
 11
-68.25
 21
993.59761426162277
 31
0.0
  0
MTEXT
  5
21B
100
AcDbEntity
  8
DIMENTION
 62
               0
100
AcDbMText
 10
-142.58987119229641
 20
1045.438334450919
 30
0.0
 40
33.866666666666667
 41
0.0
 71
               1
 72
               1
  1
40
  7
________
  0
POINT
  5
21C
100
AcDbEntity
  8
DEFPOINTS
 62
               0
100
AcDbPoint
 10
-100.0
 20
1031.4750011213109
 30
0.0
  0
POINT
  5
21D
100
AcDbEntity
  8
DEFPOINTS
 62
               0
100
AcDbPoint
 10
-140.0
 20
1071.4750011213109
 30
0.0
  0
POINT
  5
21E
100
AcDbEntity
  8
DEFPOINTS
 62
               0
100
AcDbPoint
 10
-140.0
 20
1002.1050011213108
 30
0.0
  0
ENDBLK
  5
21F
100
AcDbEntity
  8
DIMENTION
100
AcDbBlockEnd
  0
BLOCK
  5
220
100
AcDbEntity
  8
DIMENTION
100
AcDbBlockBegin
  2
*D36
 70
               1
 10
0.0
 20
0.0
 30
0.0
  3
*D36
  1

  0
LINE
  5
221
100
AcDbEntity
  8
DIMENTION
 62
               0
100
AcDbLine
 10
-120.0000000372529
 20
-610.0
 30
0.0
 11
-11.439872384389218
 21
-610.0
 31
0.0
  0
LINE
  5
222
100
AcDbEntity
  8
DIMENTION
 62
               0
100
AcDbLine
 10
-90.000000037252903
 20
-800.0
 30
0.0
 11
-11.439872384389218
 21
-800.0
 31
0.0
  0
LINE
  5
223
100
AcDbEntity
  8
DIMENTION
 62
               0
100
AcDbLine
 10
-31.439872309883413
 20
-610.0
 30
0.0
 11
-31.439872309883413
 21
-800.0
 31
0.0
  0
LINE
  5
224
100
AcDbEntity
  8
DIMENTION
 62
               0
100
AcDbLine
 10
-31.439872309883413
 20
-610.0
 30
0.0
 11
-22.932485450195372
 21
-641.75
 31
0.0
  0
LINE
  5
225
100
AcDbEntity
  8
DIMENTION
 62
               0
100
AcDbLine
 10
-31.439872309883413
 20
-610.0
 30
0.0
 11
-39.947259169571453
 21
-641.75
 31
0.0
  0
LINE
  5
226
100
AcDbEntity
  8
DIMENTION
 62
               0
100
AcDbLine
 10
-31.439872309883413
 20
-800.0
 30
0.0
 11
-39.947259169571453
 21
-768.25
 31
0.0
  0
LINE
  5
227
100
AcDbEntity
  8
DIMENTION
 62
               0
100
AcDbLine
 10
-31.439872309883413
 20
-800.0
 30
0.0
 11
-22.932485450195372
 21
-768.25
 31
0.0
  0
MTEXT
  5
228
100
AcDbEntity
  8
DIMENTION
 62
               0
100
AcDbMText
 10
-74.773205639491607
 20
-736.75
 30
0.0
 40
33.866666666666667
 41
0.0
 71
               1
 72
               1
  1
190
  7
________
 11
0.0
 21
1.0
 31
0.0
  0
POINT
  5
229
100
AcDbEntity
  8
DEFPOINTS
 62
               0
100
AcDbPoint
 10
-100.0
 20
-800.0
 30
0.0
  0
POINT
  5
22A
100
AcDbEntity
  8
DEFPOINTS
 62
               0
100
AcDbPoint
 10
-130.0
 20
-610.0
 30
0.0
  0
POINT
  5
22B
100
AcDbEntity
  8
DEFPOINTS
 62
               0
100
AcDbPoint
 10
-31.439872309883413
 20
-610.0
 30
0.0
  0
ENDBLK
  5
22C
100
AcDbEntity
  8
DIMENTION
100
AcDbBlockEnd
  0
BLOCK
  5
22D
100
AcDbEntity
  8
DIMENTION
100
AcDbBlockBegin
  2
*D37
 70
               1
 10
0.0
 20
0.0
 30
0.0
  3
*D37
  1

  0
LINE
  5
22E
100
AcDbEntity
  8
DIMENTION
 62
               0
100
AcDbLine
 10
200.0
 20
900.0000000372529
 30
0.0
 11
200.0
 21
826.47500119581673
 31
0.0
  0
LINE
  5
22F
100
AcDbEntity
  8
DIMENTION
 62
               0
100
AcDbLine
 10
279.99999999999886
 20
963.80000003725286
 30
0.0
 11
279.99999999999886
 21
826.47500119581673
 31
0.0
  0
LINE
  5
230
100
AcDbEntity
  8
DIMENTION
 62
               0
100
AcDbLine
 10
200.0
 20
846.47500112131092
 30
0.0
 11
279.99999999999886
 21
846.47500112131092
 31
0.0
  0
LINE
  5
231
100
AcDbEntity
  8
DIMENTION
 62
               0
100
AcDbLine
 10
200.0
 20
846.47500112131092
 30
0.0
 11
231.75
 21
854.98238798099908
 31
0.0
  0
LINE
  5
232
100
AcDbEntity
  8
DIMENTION
 62
               0
100
AcDbLine
 10
200.0
 20
846.47500112131092
 30
0.0
 11
231.75
 21
837.96761426162277
 31
0.0
  0
LINE
  5
233
100
AcDbEntity
  8
DIMENTION
 62
               0
100
AcDbLine
 10
279.99999999999886
 20
846.47500112131092
 30
0.0
 11
248.24999999999886
 21
837.96761426162277
 31
0.0
  0
LINE
  5
234
100
AcDbEntity
  8
DIMENTION
 62
               0
100
AcDbLine
 10
279.99999999999886
 20
846.47500112131092
 30
0.0
 11
248.24999999999886
 21
854.98238798099908
 31
0.0
  0
MTEXT
  5
235
100
AcDbEntity
  8
DIMENTION
 62
               0
100
AcDbMText
 10
218.8333333333328
 20
889.80833445091889
 30
0.0
 40
33.866666666666667
 41
0.0
 71
               1
 72
               1
  1
80
  7
________
  0
POINT
  5
236
100
AcDbEntity
  8
DEFPOINTS
 62
               0
100
AcDbPoint
 10
279.99999999999886
 20
973.79999999999995
 30
0.0
  0
POINT
  5
237
100
AcDbEntity
  8
DEFPOINTS
 62
               0
100
AcDbPoint
 10
200.0
 20
910.0
 30
0.0
  0
POINT
  5
238
100
AcDbEntity
  8
DEFPOINTS
 62
               0
100
AcDbPoint
 10
200.0
 20
846.47500112131092
 30
0.0
  0
ENDBLK
  5
239
100
AcDbEntity
  8
DIMENTION
100
AcDbBlockEnd
  0
BLOCK
  5
23A
100
AcDbEntity
  8
OBJECT
100
AcDbBlockBegin
  2
*U38
 70
               1
 10
0.0
 20
0.0
 30
0.0
  3
*U38
  1

  0
LINE
  5
23B
100
AcDbEntity
  8
OBJECT
 62
               0
100
AcDbLine
 10
931.88269999999989
 20
-573.99999999999955
 30
0.0
 11
931.88269999999989
 21
-613.99999999999955
 31
0.0
  0
LINE
  5
23C
100
AcDbEntity
  8
OBJECT
 62
               0
100
AcDbLine
 10
990.38269999999989
 20
-678.99999999999955
 30
0.0
 11
965.38269999999989
 21
-678.99999999999955
 31
0.0
  0
LINE
  5
23D
100
AcDbEntity
  8
OBJECT
 62
               0
100
AcDbLine
 10
931.88269999999989
 20
-573.99999999999955
 30
0.0
 11
927.88269999999989
 21
-573.99999999999955
 31
0.0
  0
LINE
  5
23E
100
AcDbEntity
  8
OBJECT
 62
               0
100
AcDbLine
 10
965.38269999999989
 20
-638.99999999999955
 30
0.0
 11
965.38269999999989
 21
-678.99999999999955
 31
0.0
  0
LINE
  5
23F
100
AcDbEntity
  8
OBJECT
 62
               0
100
AcDbLine
 10
931.88269999999989
 20
-613.99999999999955
 30
0.0
 11
927.88269999999989
 21
-613.99999999999955
 31
0.0
  0
LINE
  5
240
100
AcDbEntity
  8
OBJECT
 62
               0
100
AcDbLine
 10
932.88269999999989
 20
-581.49999999999955
 30
0.0
 11
931.88269999999989
 21
-581.49999999999955
 31
0.0
  0
LINE
  5
241
100
AcDbEntity
  8
OBJECT
 62
               0
100
AcDbLine
 10
932.88269999999989
 20
-606.49999999999955
 30
0.0
 11
931.88269999999989
 21
-606.49999999999955
 31
0.0
  0
LINE
  5
242
100
AcDbEntity
  8
OBJECT
 62
               0
100
AcDbLine
 10
990.38269999999989
 20
-638.99999999999955
 30
0.0
 11
990.38269999999989
 21
-678.99999999999955
 31
0.0
  0
ARC
  5
243
100
AcDbEntity
  8
OBJECT
 62
               0
100
AcDbCircle
 10
932.88269999999989
 20
-638.99999999999955
 30
0.0
 40
57.5
100
AcDbArc
 50
0.0
 51
90.0
  0
ARC
  5
244
100
AcDbEntity
  8
OBJECT
 62
               0
100
AcDbCircle
 10
932.88269999999989
 20
-638.99999999999955
 30
0.0
 40
32.5
100
AcDbArc
 50
0.0
 51
90.0
  0
ENDBLK
  5
245
100
AcDbEntity
  8
OBJECT
100
AcDbBlockEnd
  0
BLOCK
  5
246
100
AcDbEntity
  8
OBJECT
100
AcDbBlockBegin
  2
*U39
 70
               1
 10
0.0
 20
0.0
 30
0.0
  3
*U39
  1

  0
LINE
  5
247
100
AcDbEntity
  8
OBJECT
 62
               0
100
AcDbLine
 10
-754.11730000000102
 20
1051.1000000000147
 30
0.0
 11
-714.11730000000102
 21
1051.1000000000147
 31
0.0
  0
LINE
  5
248
100
AcDbEntity
  8
OBJECT
 62
               0
100
AcDbLine
 10
-754.11730000000102
 20
1051.1000000000147
 30
0.0
 11
-754.11730000000102
 21
1047.1000000000147
 31
0.0
  0
LINE
  5
249
100
AcDbEntity
  8
OBJECT
 62
               0
100
AcDbLine
 10
-714.11730000000102
 20
1047.1000000000147
 30
0.0
 11
-714.11730000000102
 21
1051.1000000000147
 31
0.0
  0
LINE
  5
24A
100
AcDbEntity
  8
OBJECT
 62
               0
100
AcDbLine
 10
-746.61730000000102
 20
1051.1000000000147
 30
0.0
 11
-746.61730000000102
 21
1096.1175062990931
 31
0.0
  0
LINE
  5
24B
100
AcDbEntity
  8
OBJECT
 62
               0
100
AcDbLine
 10
-721.61730000000102
 20
1051.1000000000147
 30
0.0
 11
-721.61730000000102
 21
1097.1000000000147
 31
0.0
  0
ARC
  5
24C
100
AcDbEntity
  8
OBJECT
 62
               0
100
AcDbCircle
 10
-734.11730000000102
 20
1096.1174974602584
 30
0.0
 40
12.499999999999941
100
AcDbArc
 50
359.99995948576515
 51
180.00004051423483
  0
ENDBLK
  5
24D
100
AcDbEntity
  8
OBJECT
100
AcDbBlockEnd
  0
BLOCK
  5
24E
100
AcDbEntity
  8
DIMENTION
100
AcDbBlockBegin
  2
*D40
 70
               1
 10
0.0
 20
0.0
 30
0.0
  3
*D40
  1

  0
LINE
  5
24F
100
AcDbEntity
  8
DIMENTION
 62
               0
100
AcDbLine
 10
1390.0000000372527
 20
-800.0
 30
0.0
 11
991.00000007450569
 21
-800.0
 31
0.0
  0
LINE
  5
250
100
AcDbEntity
  8
DIMENTION
 62
               0
100
AcDbLine
 10
1665.0000000372529
 20
995.0
 30
0.0
 11
991.00000007450569
 21
995.0
 31
0.0
  0
LINE
  5
251
100
AcDbEntity
  8
DIMENTION
 62
               0
100
AcDbLine
 10
1010.9999999999999
 20
-800.0
 30
0.0
 11
1010.9999999999999
 21
995.0
 31
0.0
  0
LINE
  5
252
100
AcDbEntity
  8
DIMENTION
 62
               0
100
AcDbLine
 10
1010.9999999999999
 20
-800.0
 30
0.0
 11
1002.4926131403117
 21
-768.25
 31
0.0
  0
LINE
  5
253
100
AcDbEntity
  8
DIMENTION
 62
               0
100
AcDbLine
 10
1010.9999999999999
 20
-800.0
 30
0.0
 11
1019.507386859688
 21
-768.25
 31
0.0
  0
LINE
  5
254
100
AcDbEntity
  8
DIMENTION
 62
               0
100
AcDbLine
 10
1010.9999999999999
 20
995.0
 30
0.0
 11
1019.507386859688
 21
963.25
 31
0.0
  0
LINE
  5
255
100
AcDbEntity
  8
DIMENTION
 62
               0
100
AcDbLine
 10
1010.9999999999999
 20
995.0
 30
0.0
 11
1002.4926131403117
 21
963.25
 31
0.0
  0
MTEXT
  5
256
100
AcDbEntity
  8
DIMENTION
 62
               0
100
AcDbMText
 10
967.66666667039181
 20
-63.578332795037227
 30
0.0
 40
33.866666666666667
 41
0.0
 71
               1
 72
               1
  1
1795（ドア開放時）
  7
________
 11
0.0
 21
1.0
 31
0.0
  0
POINT
  5
257
100
AcDbEntity
  8
DEFPOINTS
 62
               0
100
AcDbPoint
 10
1675.0
 20
995.0
 30
0.0
  0
POINT
  5
258
100
AcDbEntity
  8
DEFPOINTS
 62
               0
100
AcDbPoint
 10
1399.9999999999998
 20
-800.0
 30
0.0
  0
POINT
  5
259
100
AcDbEntity
  8
DEFPOINTS
 62
               0
100
AcDbPoint
 10
1010.9999999999999
 20
-800.0
 30
0.0
  0
ENDBLK
  5
25A
100
AcDbEntity
  8
DIMENTION
100
AcDbBlockEnd
  0
BLOCK
  5
25B
100
AcDbEntity
  8
DIMENTION
100
AcDbBlockBegin
  2
*D41
 70
               1
 10
0.0
 20
0.0
 30
0.0
  3
*D41
  1

  0
LINE
  5
25C
100
AcDbEntity
  8
DIMENTION
 62
               0
100
AcDbLine
 10
1355.0000000372529
 20
-0.0000000000002274
 30
0.0
 11
1124.0000000745056
 21
-0.0000000000002274
 31
0.0
  0
LINE
  5
25D
100
AcDbEntity
  8
DIMENTION
 62
               0
100
AcDbLine
 10
1377.8650519403673
 20
409.99999999999955
 30
0.0
 11
1124.0000000745056
 21
409.99999999999955
 31
0.0
  0
LINE
  5
25E
100
AcDbEntity
  8
DIMENTION
 62
               0
100
AcDbLine
 10
1143.9999999999998
 20
-0.0000000000002274
 30
0.0
 11
1143.9999999999998
 21
409.99999999999955
 31
0.0
  0
LINE
  5
25F
100
AcDbEntity
  8
DIMENTION
 62
               0
100
AcDbLine
 10
1143.9999999999998
 20
-0.0000000000002274
 30
0.0
 11
1135.4926131403117
 21
31.749999999999773
 31
0.0
  0
LINE
  5
260
100
AcDbEntity
  8
DIMENTION
 62
               0
100
AcDbLine
 10
1143.9999999999998
 20
-0.0000000000002274
 30
0.0
 11
1152.507386859688
 21
31.749999999999773
 31
0.0
  0
LINE
  5
261
100
AcDbEntity
  8
DIMENTION
 62
               0
100
AcDbLine
 10
1143.9999999999998
 20
409.99999999999955
 30
0.0
 11
1152.507386859688
 21
378.24999999999955
 31
0.0
  0
LINE
  5
262
100
AcDbEntity
  8
DIMENTION
 62
               0
100
AcDbLine
 10
1143.9999999999998
 20
409.99999999999955
 30
0.0
 11
1135.4926131403117
 21
378.24999999999955
 31
0.0
  0
MTEXT
  5
263
100
AcDbEntity
  8
DIMENTION
 62
               0
100
AcDbMText
 10
1096.6666666666665
 20
109.74999999999972
 30
0.0
 40
33.866666666666667
 41
0.0
 71
               1
 72
               1
  1
410（開口）
  7
________
 11
0.0
 21
1.0
 31
0.0
  0
POINT
  5
264
100
AcDbEntity
  8
DEFPOINTS
 62
               0
100
AcDbPoint
 10
1387.8650519031144
 20
409.99999999999955
 30
0.0
  0
POINT
  5
265
100
AcDbEntity
  8
DEFPOINTS
 62
               0
100
AcDbPoint
 10
1365.0
 20
-0.0000000000002274
 30
0.0
  0
POINT
  5
266
100
AcDbEntity
  8
DEFPOINTS
 62
               0
100
AcDbPoint
 10
1143.9999999999998
 20
-0.0000000000002274
 30
0.0
  0
ENDBLK
  5
267
100
AcDbEntity
  8
DIMENTION
100
AcDbBlockEnd
  0
BLOCK
  5
268
100
AcDbEntity
  8
HIDDEN
100
AcDbBlockBegin
  2
*U42
 70
               1
 10
0.0
 20
0.0
 30
0.0
  3
*U42
  1

  0
POLYLINE
  5
269
100
AcDbEntity
  8
HIDDEN
 62
               0
100
AcDb2dPolyline
 66
               1
 10
0.0
 20
0.0
 30
0.0
 75
               5
  0
VERTEX
  5
26A
100
AcDbEntity
  8
HIDDEN
 62
               0
100
AcDbVertex
100
AcDb2dVertex
 10
-800.11729999999989
 20
916.0
 30
0.0
  0
VERTEX
  5
26B
100
AcDbEntity
  8
HIDDEN
 62
               0
100
AcDbVertex
100
AcDb2dVertex
 10
-800.11729999999989
 20
1116.0
 30
0.0
  0
VERTEX
  5
26C
100
AcDbEntity
  8
HIDDEN
 62
               0
100
AcDbVertex
100
AcDb2dVertex
 10
-778.11729999999989
 20
1116.0
 30
0.0
  0
VERTEX
  5
26D
100
AcDbEntity
  8
HIDDEN
 62
               0
100
AcDbVertex
100
AcDb2dVertex
 10
-778.11729999999989
 20
916.0
 30
0.0
  0
SEQEND
  5
26E
100
AcDbEntity
  8
HIDDEN
 62
               0
  0
POLYLINE
  5
26F
100
AcDbEntity
  8
HIDDEN
 62
               0
100
AcDb2dPolyline
 66
               1
 10
0.0
 20
0.0
 30
0.0
 75
               5
  0
VERTEX
  5
270
100
AcDbEntity
  8
HIDDEN
 62
               0
100
AcDbVertex
100
AcDb2dVertex
 10
-1450.1172999999999
 20
916.0
 30
0.0
  0
VERTEX
  5
271
100
AcDbEntity
  8
HIDDEN
 62
               0
100
AcDbVertex
100
AcDb2dVertex
 10
-1450.1172999999999
 20
1116.0
 30
0.0
  0
VERTEX
  5
272
100
AcDbEntity
  8
HIDDEN
 62
               0
100
AcDbVertex
100
AcDb2dVertex
 10
-1428.1172999999999
 20
1116.0
 30
0.0
  0
VERTEX
  5
273
100
AcDbEntity
  8
HIDDEN
 62
               0
100
AcDbVertex
100
AcDb2dVertex
 10
-1428.1172999999999
 20
916.0
 30
0.0
  0
SEQEND
  5
274
100
AcDbEntity
  8
HIDDEN
 62
               0
  0
ENDBLK
  5
275
100
AcDbEntity
  8
HIDDEN
100
AcDbBlockEnd
  0
BLOCK
  5
276
100
AcDbEntity
  8
DIMENTION
100
AcDbBlockBegin
  2
*D43
 70
               1
 10
0.0
 20
0.0
 30
0.0
  3
*D43
  1

  0
LINE
  5
277
100
AcDbEntity
  8
DIMENTION
 62
               0
100
AcDbLine
 10
-445.0
 20
530.00009996274707
 30
0.0
 11
-445.0
 21
663.99999992549397
 31
0.0
  0
LINE
  5
278
100
AcDbEntity
  8
DIMENTION
 62
               0
100
AcDbLine
 10
245.0
 20
530.00009996274707
 30
0.0
 11
245.0
 21
663.99999992549397
 31
0.0
  0
LINE
  5
279
100
AcDbEntity
  8
DIMENTION
 62
               0
100
AcDbLine
 10
-445.0
 20
643.99999999999977
 30
0.0
 11
245.0
 21
643.99999999999977
 31
0.0
  0
LINE
  5
27A
100
AcDbEntity
  8
DIMENTION
 62
               0
100
AcDbLine
 10
-445.0
 20
643.99999999999977
 30
0.0
 11
-413.25
 21
652.50738685968781
 31
0.0
  0
LINE
  5
27B
100
AcDbEntity
  8
DIMENTION
 62
               0
100
AcDbLine
 10
-445.0
 20
643.99999999999977
 30
0.0
 11
-413.25
 21
635.49261314031151
 31
0.0
  0
LINE
  5
27C
100
AcDbEntity
  8
DIMENTION
 62
               0
100
AcDbLine
 10
245.0
 20
643.99999999999977
 30
0.0
 11
213.25
 21
635.49261314031151
 31
0.0
  0
LINE
  5
27D
100
AcDbEntity
  8
DIMENTION
 62
               0
100
AcDbLine
 10
245.0
 20
643.99999999999977
 30
0.0
 11
213.25
 21
652.50738685968781
 31
0.0
  0
MTEXT
  5
27E
100
AcDbEntity
  8
DIMENTION
 62
               0
100
AcDbMText
 10
-131.75
 20
687.33333333333303
 30
0.0
 40
33.866666666666667
 41
0.0
 71
               1
 72
               1
  1
690
  7
________
  0
POINT
  5
27F
100
AcDbEntity
  8
DEFPOINTS
 62
               0
100
AcDbPoint
 10
245.0
 20
520.00009999999997
 30
0.0
  0
POINT
  5
280
100
AcDbEntity
  8
DEFPOINTS
 62
               0
100
AcDbPoint
 10
-445.0
 20
520.00009999999997
 30
0.0
  0
POINT
  5
281
100
AcDbEntity
  8
DEFPOINTS
 62
               0
100
AcDbPoint
 10
-445.0
 20
643.99999999999977
 30
0.0
  0
ENDBLK
  5
282
100
AcDbEntity
  8
DIMENTION
100
AcDbBlockEnd
  0
BLOCK
  5
283
100
AcDbEntity
  8
DIMENTION
100
AcDbBlockBegin
  2
*D44
 70
               1
 10
0.0
 20
0.0
 30
0.0
  3
*D44
  1

  0
LINE
  5
284
100
AcDbEntity
  8
DIMENTION
 62
               0
100
AcDbLine
 10
221.9999999627471
 20
0.0
 30
0.0
 11
319.99999992549419
 21
0.0
 31
0.0
  0
LINE
  5
285
100
AcDbEntity
  8
DIMENTION
 62
               0
100
AcDbLine
 10
238.9999999627471
 20
220.0
 30
0.0
 11
319.99999992549419
 21
220.0
 31
0.0
  0
LINE
  5
286
100
AcDbEntity
  8
DIMENTION
 62
               0
100
AcDbLine
 10
300.0
 20
0.0
 30
0.0
 11
300.0
 21
220.0
 31
0.0
  0
LINE
  5
287
100
AcDbEntity
  8
DIMENTION
 62
               0
100
AcDbLine
 10
300.0
 20
0.0
 30
0.0
 11
291.49261314031185
 21
31.75
 31
0.0
  0
LINE
  5
288
100
AcDbEntity
  8
DIMENTION
 62
               0
100
AcDbLine
 10
300.0
 20
0.0
 30
0.0
 11
308.50738685968815
 21
31.75
 31
0.0
  0
LINE
  5
289
100
AcDbEntity
  8
DIMENTION
 62
               0
100
AcDbLine
 10
300.0
 20
220.0
 30
0.0
 11
308.50738685968815
 21
188.25
 31
0.0
  0
LINE
  5
28A
100
AcDbEntity
  8
DIMENTION
 62
               0
100
AcDbLine
 10
300.0
 20
220.0
 30
0.0
 11
291.49261314031185
 21
188.25
 31
0.0
  0
MTEXT
  5
28B
100
AcDbEntity
  8
DIMENTION
 62
               0
100
AcDbMText
 10
256.66676666666672
 20
78.25
 30
0.0
 40
33.866666666666667
 41
0.0
 71
               1
 72
               1
  1
220
  7
________
 11
0.0
 21
1.0
 31
0.0
  0
POINT
  5
28C
100
AcDbEntity
  8
DEFPOINTS
 62
               0
100
AcDbPoint
 10
229.0
 20
220.0
 30
0.0
  0
POINT
  5
28D
100
AcDbEntity
  8
DEFPOINTS
 62
               0
100
AcDbPoint
 10
212.0
 20
0.0
 30
0.0
  0
POINT
  5
28E
100
AcDbEntity
  8
DEFPOINTS
 62
               0
100
AcDbPoint
 10
300.0
 20
0.0
 30
0.0
  0
ENDBLK
  5
28F
100
AcDbEntity
  8
DIMENTION
100
AcDbBlockEnd
  0
BLOCK
  5
290
100
AcDbEntity
  8
OBJECT
100
AcDbBlockBegin
  2
*U45
 70
               1
 10
0.0
 20
0.0
 30
0.0
  3
*U45
  1

  0
LINE
  5
291
100
AcDbEntity
  8
OBJECT
 62
               0
100
AcDbLine
 10
-824.11729999999989
 20
-425.99999999999994
 30
0.0
 11
-824.11729999999989
 21
-386.99999999999994
 31
0.0
  0
LINE
  5
292
100
AcDbEntity
  8
OBJECT
 62
               0
100
AcDbLine
 10
-817.11729999999989
 20
-428.99999999999994
 30
0.0
 11
-821.11729999999989
 21
-428.99999999999994
 31
0.0
  0
LINE
  5
293
100
AcDbEntity
  8
OBJECT
 62
               0
100
AcDbLine
 10
-814.11729999999989
 20
-386.99999999999994
 30
0.0
 11
-814.11729999999989
 21
-425.99999999999994
 31
0.0
  0
LINE
  5
294
100
AcDbEntity
  8
OBJECT
 62
               0
100
AcDbLine
 10
-821.11729999999989
 20
-383.99999999999994
 30
0.0
 11
-817.11729999999989
 21
-383.99999999999994
 31
0.0
  0
ARC
  5
295
100
AcDbEntity
  8
OBJECT
 62
               0
100
AcDbCircle
 10
-821.11729999999989
 20
-386.99999999999994
 30
0.0
 40
3.0
100
AcDbArc
 50
90.0
 51
180.0
  0
ARC
  5
296
100
AcDbEntity
  8
OBJECT
 62
               0
100
AcDbCircle
 10
-817.11729999999989
 20
-386.99999999999994
 30
0.0
 40
3.0
100
AcDbArc
 50
0.0
 51
90.0
  0
ARC
  5
297
100
AcDbEntity
  8
OBJECT
 62
               0
100
AcDbCircle
 10
-821.11729999999989
 20
-425.99999999999994
 30
0.0
 40
3.0
100
AcDbArc
 50
180.0
 51
270.0
  0
ARC
  5
298
100
AcDbEntity
  8
OBJECT
 62
               0
100
AcDbCircle
 10
-817.11729999999989
 20
-425.99999999999994
 30
0.0
 40
3.0
100
AcDbArc
 50
270.0
 51
0.0
  0
ENDBLK
  5
299
100
AcDbEntity
  8
OBJECT
100
AcDbBlockEnd
  0
BLOCK
  5
29A
100
AcDbEntity
  8
OBJECT
100
AcDbBlockBegin
  2
*U46
 70
               1
 10
0.0
 20
0.0
 30
0.0
  3
*U46
  1

  0
LINE
  5
29B
100
AcDbEntity
  8
OBJECT
 62
               0
100
AcDbLine
 10
-1404.1172999999999
 20
-425.99999999999994
 30
0.0
 11
-1404.1172999999999
 21
-386.99999999999994
 31
0.0
  0
LINE
  5
29C
100
AcDbEntity
  8
OBJECT
 62
               0
100
AcDbLine
 10
-1411.1172999999999
 20
-428.99999999999994
 30
0.0
 11
-1407.1172999999999
 21
-428.99999999999994
 31
0.0
  0
LINE
  5
29D
100
AcDbEntity
  8
OBJECT
 62
               0
100
AcDbLine
 10
-1414.1172999999999
 20
-386.99999999999994
 30
0.0
 11
-1414.1172999999999
 21
-425.99999999999994
 31
0.0
  0
LINE
  5
29E
100
AcDbEntity
  8
OBJECT
 62
               0
100
AcDbLine
 10
-1407.1172999999999
 20
-383.99999999999994
 30
0.0
 11
-1411.1172999999999
 21
-383.99999999999994
 31
0.0
  0
ARC
  5
29F
100
AcDbEntity
  8
OBJECT
 62
               0
100
AcDbCircle
 10
-1407.1172999999999
 20
-386.99999999999994
 30
0.0
 40
3.0
100
AcDbArc
 50
0.0
 51
90.0
  0
ARC
  5
2A0
100
AcDbEntity
  8
OBJECT
 62
               0
100
AcDbCircle
 10
-1411.1172999999999
 20
-386.99999999999994
 30
0.0
 40
3.0
100
AcDbArc
 50
90.0
 51
180.0
  0
ARC
  5
2A1
100
AcDbEntity
  8
OBJECT
 62
               0
100
AcDbCircle
 10
-1407.1172999999999
 20
-425.99999999999994
 30
0.0
 40
3.0
100
AcDbArc
 50
270.0
 51
0.0
  0
ARC
  5
2A2
100
AcDbEntity
  8
OBJECT
 62
               0
100
AcDbCircle
 10
-1411.1172999999999
 20
-425.99999999999994
 30
0.0
 40
3.0
100
AcDbArc
 50
180.0
 51
270.0
  0
ENDBLK
  5
2A3
100
AcDbEntity
  8
OBJECT
100
AcDbBlockEnd
  0
BLOCK
  5
2A4
100
AcDbEntity
  8
DIMENTION
100
AcDbBlockBegin
  2
*D47
 70
               1
 10
0.0
 20
0.0
 30
0.0
  3
*D47
  1

  0
LINE
  5
2A5
100
AcDbEntity
  8
DIMENTION
 62
               0
100
AcDbLine
 10
1355.0000000372529
 20
0.0
 30
0.0
 11
1175.5767955488764
 21
0.0
 31
0.0
  0
LINE
  5
2A6
100
AcDbEntity
  8
DIMENTION
 62
               0
100
AcDbLine
 10
1313.9682948116892
 20
175.26791798131035
 30
0.0
 11
1175.5767955488764
 21
175.26791798131035
 31
0.0
  0
LINE
  5
2A7
100
AcDbEntity
  8
DIMENTION
 62
               0
100
AcDbLine
 10
1195.5767954743706
 20
0.0
 30
0.0
 11
1195.5767954743706
 21
175.26791798131035
 31
0.0
  0
LINE
  5
2A8
100
AcDbEntity
  8
DIMENTION
 62
               0
100
AcDbLine
 10
1195.5767954743706
 20
0.0
 30
0.0
 11
1187.0694086146823
 21
31.75
 31
0.0
  0
LINE
  5
2A9
100
AcDbEntity
  8
DIMENTION
 62
               0
100
AcDbLine
 10
1195.5767954743706
 20
0.0
 30
0.0
 11
1204.0841823340586
 21
31.75
 31
0.0
  0
LINE
  5
2AA
100
AcDbEntity
  8
DIMENTION
 62
               0
100
AcDbLine
 10
1195.5767954743706
 20
175.26791798131035
 30
0.0
 11
1204.0841823340586
 21
143.51791798131035
 31
0.0
  0
LINE
  5
2AB
100
AcDbEntity
  8
DIMENTION
 62
               0
100
AcDbLine
 10
1195.5767954743706
 20
175.26791798131035
 30
0.0
 11
1187.0694086146823
 21
143.51791798131035
 31
0.0
  0
MTEXT
  5
2AC
100
AcDbEntity
  8
DIMENTION
 62
               0
100
AcDbMText
 10
1148.2434621410371
 20
55.883958990655174
 30
0.0
 40
33.866666666666667
 41
0.0
 71
               1
 72
               1
  1
175
  7
________
 11
0.0
 21
1.0
 31
0.0
  0
POINT
  5
2AD
100
AcDbEntity
  8
DEFPOINTS
 62
               0
100
AcDbPoint
 10
1323.9682947744363
 20
175.26791798131035
 30
0.0
  0
POINT
  5
2AE
100
AcDbEntity
  8
DEFPOINTS
 62
               0
100
AcDbPoint
 10
1365.0
 20
0.0
 30
0.0
  0
POINT
  5
2AF
100
AcDbEntity
  8
DEFPOINTS
 62
               0
100
AcDbPoint
 10
1195.5767954743706
 20
0.0
 30
0.0
  0
ENDBLK
  5
2B0
100
AcDbEntity
  8
DIMENTION
100
AcDbBlockEnd
  0
BLOCK
  5
2B1
100
AcDbEntity
  8
DIMENTION
100
AcDbBlockBegin
  2
*D48
 70
               1
 10
0.0
 20
0.0
 30
0.0
  3
*D48
  1

  0
LINE
  5
2B2
100
AcDbEntity
  8
DIMENTION
 62
               0
100
AcDbLine
 10
1377.0
 20
-42.999999962747324
 30
0.0
 11
1377.0
 21
-119.99999992549448
 31
0.0
  0
LINE
  5
2B3
100
AcDbEntity
  8
DIMENTION
 62
               0
100
AcDbLine
 10
1233.3000000000015
 20
510.0000000372529
 30
0.0
 11
1233.3000000000015
 21
-119.99999992549448
 31
0.0
  0
LINE
  5
2B4
100
AcDbEntity
  8
DIMENTION
 62
               0
100
AcDbLine
 10
1377.0
 20
-100.00000000000028
 30
0.0
 11
1233.3000000000015
 21
-100.00000000000028
 31
0.0
  0
LINE
  5
2B5
100
AcDbEntity
  8
DIMENTION
 62
               0
100
AcDbLine
 10
1377.0
 20
-100.00000000000028
 30
0.0
 11
1345.25
 21
-108.50738685968844
 31
0.0
  0
LINE
  5
2B6
100
AcDbEntity
  8
DIMENTION
 62
               0
100
AcDbLine
 10
1377.0
 20
-100.00000000000028
 30
0.0
 11
1345.25
 21
-91.49261314031213
 31
0.0
  0
LINE
  5
2B7
100
AcDbEntity
  8
DIMENTION
 62
               0
100
AcDbLine
 10
1233.3000000000015
 20
-100.00000000000028
 30
0.0
 11
1265.0500000000015
 21
-91.49261314031213
 31
0.0
  0
LINE
  5
2B8
100
AcDbEntity
  8
DIMENTION
 62
               0
100
AcDbLine
 10
1233.3000000000015
 20
-100.00000000000028
 30
0.0
 11
1265.0500000000015
 21
-108.50738685968844
 31
0.0
  0
MTEXT
  5
2B9
100
AcDbEntity
  8
DIMENTION
 62
               0
100
AcDbMText
 10
1273.4000000000008
 20
-56.666766666666945
 30
0.0
 40
33.866666666666667
 41
0.0
 71
               1
 72
               1
  1
145
  7
________
  0
POINT
  5
2BA
100
AcDbEntity
  8
DEFPOINTS
 62
               0
100
AcDbPoint
 10
1233.3000000000015
 20
520.0
 30
0.0
  0
POINT
  5
2BB
100
AcDbEntity
  8
DEFPOINTS
 62
               0
100
AcDbPoint
 10
1377.0
 20
-33.000000000000227
 30
0.0
  0
POINT
  5
2BC
100
AcDbEntity
  8
DEFPOINTS
 62
               0
100
AcDbPoint
 10
1377.0
 20
-100.00000000000028
 30
0.0
  0
ENDBLK
  5
2BD
100
AcDbEntity
  8
DIMENTION
100
AcDbBlockEnd
  0
BLOCK
  5
2BE
100
AcDbEntity
  8
OBJECT
100
AcDbBlockBegin
  2
*U49
 70
               1
 10
0.0
 20
0.0
 30
0.0
  3
*U49
  1

  0
LINE
  5
2BF
100
AcDbEntity
  8
OBJECT
 62
               0
100
AcDbLine
 10
484.89065611543128
 20
-406.98771917906214
 30
0.0
 11
477.23730057111607
 21
-171.72992774066569
 31
0.0
  0
LINE
  5
2C0
100
AcDbEntity
  8
OBJECT
 62
               0
100
AcDbLine
 10
506.77473178871696
 20
-157.02309993417538
 30
0.0
 11
514.87479395062746
 21
-406.01228169773839
 31
0.0
  0
ARC
  5
2C1
100
AcDbEntity
  8
OBJECT
 62
               0
100
AcDbCircle
 10
491.55899185906492
 20
-150.63535757806193
 30
0.0
 40
14.999999999999837
100
AcDbArc
 50
82.91162253974359
 51
150.0262420634163
  0
ARC
  5
2C2
100
AcDbEntity
  8
OBJECT
 62
               0
100
AcDbCircle
 10
499.88272503302915
 20
-406.50000043840026
 30
0.0
 40
14.999999999999892
100
AcDbArc
 50
181.86327676912555
 51
1.8632767691254912
  0
CIRCLE
  5
2C3
100
AcDbEntity
  8
OBJECT
 62
               0
100
AcDbCircle
 10
491.55899185906492
 20
-150.63535757806193
 30
0.0
 40
6.499999999999841
  0
LINE
  5
2C4
100
AcDbEntity
  8
OBJECT
  6
CONTINUOUS
 62
               0
100
AcDbLine
 10
499.88183428062257
 20
-414.0048341486833
 30
0.0
 11
493.38228996204998
 21
-410.25126824620446
 31
0.0
  0
LINE
  5
2C5
100
AcDbEntity
  8
OBJECT
  6
CONTINUOUS
 62
               0
100
AcDbLine
 10
506.38228986623471
 20
-410.2528466070159
 30
0.0
 11
499.88183428062257
 21
-414.0048341486833
 31
0.0
  0
LINE
  5
2C6
100
AcDbEntity
  8
OBJECT
  6
CONTINUOUS
 62
               0
100
AcDbLine
 10
499.88365681470168
 20
-398.99372726039218
 30
0.0
 11
506.38320113327291
 21
-402.74729316287056
 31
0.0
  0
LINE
  5
2C7
100
AcDbEntity
  8
OBJECT
  6
CONTINUOUS
 62
               0
100
AcDbLine
 10
493.38320122908954
 20
-402.74571480205867
 30
0.0
 11
499.88365681470168
 21
-398.99372726039218
 31
0.0
  0
LINE
  5
2C8
100
AcDbEntity
  8
OBJECT
  6
CONTINUOUS
 62
               0
100
AcDbLine
 10
493.38228996204998
 20
-410.25126824620446
 30
0.0
 11
493.38320122908954
 21
-402.74571480205867
 31
0.0
  0
LINE
  5
2C9
100
AcDbEntity
  8
OBJECT
  6
CONTINUOUS
 62
               0
100
AcDbLine
 10
506.38320113327291
 20
-402.74729316287056
 30
0.0
 11
506.38228986623471
 21
-410.2528466070159
 31
0.0
  0
ARC
  5
2CA
100
AcDbEntity
  8
OBJECT
  6
CONTINUOUS
 62
               0
100
AcDbCircle
 10
499.88272512240883
 20
-406.49928041223728
 30
0.0
 40
22.500000000000028
100
AcDbArc
 50
133.67367196337779
 51
271.61858932342614
  0
ARC
  5
2CB
100
AcDbEntity
  8
OBJECT
  6
CONTINUOUS
 62
               0
100
AcDbCircle
 10
499.88272512240883
 20
-406.49928041223728
 30
0.0
 40
22.500000000000334
100
AcDbArc
 50
271.61859546436392
 51
49.808280568586525
  0
POINT
  5
2CC
100
AcDbEntity
  8
OBJECT
  6
CONTINUOUS
 62
               0
100
AcDbPoint
 10
499.88272503302915
 20
-406.50000043840026
 30
0.0
  0
LINE
  5
2CD
100
AcDbEntity
  8
OBJECT
  6
CONTINUOUS
 62
               0
100
AcDbLine
 10
491.55810110665834
 20
-158.14019128834451
 30
0.0
 11
485.05855678808575
 21
-154.38662538586567
 31
0.0
  0
LINE
  5
2CE
100
AcDbEntity
  8
OBJECT
  6
CONTINUOUS
 62
               0
100
AcDbLine
 10
498.05855669227003
 20
-154.38820374667756
 30
0.0
 11
491.55810110665834
 21
-158.14019128834451
 31
0.0
  0
LINE
  5
2CF
100
AcDbEntity
  8
OBJECT
  6
CONTINUOUS
 62
               0
100
AcDbLine
 10
491.559923640737
 20
-143.12908440005339
 30
0.0
 11
498.05946795930868
 21
-146.882650302532
 31
0.0
  0
LINE
  5
2D0
100
AcDbEntity
  8
OBJECT
  6
CONTINUOUS
 62
               0
100
AcDbLine
 10
485.05946805512531
 20
-146.88107194172034
 30
0.0
 11
491.559923640737
 21
-143.12908440005339
 31
0.0
  0
LINE
  5
2D1
100
AcDbEntity
  8
OBJECT
  6
CONTINUOUS
 62
               0
100
AcDbLine
 10
485.05855678808575
 20
-154.38662538586567
 30
0.0
 11
485.05946805512531
 21
-146.88107194172034
 31
0.0
  0
LINE
  5
2D2
100
AcDbEntity
  8
OBJECT
  6
CONTINUOUS
 62
               0
100
AcDbLine
 10
498.05946795930868
 20
-146.882650302532
 30
0.0
 11
498.05855669227003
 21
-154.38820374667756
 31
0.0
  0
CIRCLE
  5
2D3
100
AcDbEntity
  8
OBJECT
 62
               0
100
AcDbCircle
 10
499.88272512240883
 20
-406.49928041223728
 30
0.0
 40
6.499999999999833
  0
ENDBLK
  5
2D4
100
AcDbEntity
  8
OBJECT
100
AcDbBlockEnd
  0
BLOCK
  5
2D5
100
AcDbEntity
  8
OBJECT
100
AcDbBlockBegin
  2
*U50
 70
               1
 10
0.0
 20
0.0
 30
0.0
  3
*U50
  1

  0
CIRCLE
  5
2D6
100
AcDbEntity
  8
OBJECT
 62
               0
100
AcDbCircle
 10
933.56130805074963
 20
18.339574971749641
 30
0.0
 40
4.0999999999988042
  0
POINT
  5
2D7
100
AcDbEntity
  8
OBJECT
  6
CONTINUOUS
 62
               0
100
AcDbPoint
 10
933.56130805074963
 20
18.339574971749641
 30
0.0
  0
POINT
  5
2D8
100
AcDbEntity
  8
OBJECT
  6
CONTINUOUS
 62
               0
100
AcDbPoint
 10
933.56134513584266
 20
18.338405502241528
 30
0.0
  0
POINT
  5
2D9
100
AcDbEntity
  8
OBJECT
  6
CONTINUOUS
 62
               0
100
AcDbPoint
 10
491.52247970430926
 20
-150.6535439239812
 30
0.0
  0
LINE
  5
2DA
100
AcDbEntity
  8
OBJECT
 62
               0
100
AcDbLine
 10
925.50183917464392
 20
9.8516446330251597
 30
0.0
 11
908.76935061034919
 21
43.411648006772509
 31
0.0
  0
ARC
  5
2DB
100
AcDbEntity
  8
OBJECT
 62
               0
100
AcDbCircle
 10
934.45117341696914
 20
14.313641678849706
 30
0.0
 40
10.000000050890087
100
AcDbArc
 50
206.50012095116574
 51
323.1874693921834
  0
LINE
  5
2DC
100
AcDbEntity
  8
OBJECT
 62
               0
100
AcDbLine
 10
982.15389132093696
 20
80.000023000693261
 30
0.0
 11
987.73138750903445
 21
68.813355209444751
 31
0.0
  0
LINE
  5
2DD
100
AcDbEntity
  8
OBJECT
 62
               0
100
AcDbLine
 10
984.4229002942393
 20
109.06635400890747
 30
0.0
 11
995.57789267043472
 21
86.693018426410674
 31
0.0
  0
ARC
  5
2DE
100
AcDbEntity
  8
OBJECT
 62
               0
100
AcDbCircle
 10
309.85099477443646
 20
-241.2320820186896
 30
0.0
 40
12.49999999999995
100
AcDbArc
 50
116.50012048611325
 51
296.50011432946326
  0
LINE
  5
2DF
100
AcDbEntity
  8
OBJECT
 62
               0
100
AcDbLine
 10
315.4284909625344
 20
-252.41874980993833
 30
0.0
 11
995.57789267043472
 21
86.693018426410674
 31
0.0
  0
LINE
  5
2E0
100
AcDbEntity
  8
OBJECT
 62
               0
100
AcDbLine
 10
984.4229002942393
 20
109.06635400890747
 30
0.0
 11
304.27349858633852
 21
-230.04541422744086
 31
0.0
  0
LINE
  5
2E1
100
AcDbEntity
  8
OBJECT
 62
               0
100
AcDbLine
 10
942.45717690892525
 20
8.321654604051389
 30
0.0
 11
987.73138750903445
 21
68.813355209444751
 31
0.0
  0
ENDBLK
  5
2E2
100
AcDbEntity
  8
OBJECT
100
AcDbBlockEnd
  0
BLOCK
  5
2E3
100
AcDbEntity
  8
OUTLINE
100
AcDbBlockBegin
  2
*U51
 70
               1
 10
0.0
 20
0.0
 30
0.0
  3
*U51
  1

  0
CIRCLE
  5
2E4
100
AcDbEntity
  8
OUTLINE
 62
               0
100
AcDbCircle
 10
894.26328634091078
 20
72.398062976702988
 30
0.0
 40
4.0999999999992678
  0
POINT
  5
2E5
100
AcDbEntity
  8
OUTLINE
  6
CONTINUOUS
 62
               0
100
AcDbPoint
 10
894.26328634091078
 20
72.398062976702988
 30
0.0
  0
POINT
  5
2E6
100
AcDbEntity
  8
OUTLINE
  6
CONTINUOUS
 62
               0
100
AcDbPoint
 10
894.26246220314079
 20
72.397232415946689
 30
0.0
  0
POINT
  5
2E7
100
AcDbEntity
  8
OUTLINE
  6
CONTINUOUS
 62
               0
100
AcDbPoint
 10
467.73597211198739
 20
277.41379460884201
 30
0.0
  0
LINE
  5
2E8
100
AcDbEntity
  8
OUTLINE
 62
               0
100
AcDbLine
 10
882.55860826519847
 20
72.420671468326702
 30
0.0
 11
895.44202223711227
 21
107.63810528211405
 31
0.0
  0
ARC
  5
2E9
100
AcDbEntity
  8
OUTLINE
 62
               0
100
AcDbCircle
 10
891.94992402455227
 20
68.98509446789302
 30
0.0
 40
10.000000050889799
100
AcDbArc
 50
159.9062228480725
 51
276.59357128909096
  0
LINE
  5
2EA
100
AcDbEntity
  8
OUTLINE
 62
               0
100
AcDbLine
 10
972.45081084325329
 20
79.46637339686464
 30
0.0
 11
968.15633951928157
 21
67.727228792270068
 31
0.0
  0
LINE
  5
2EB
100
AcDbEntity
  8
OUTLINE
 62
               0
100
AcDbLine
 10
995.12672701670908
 20
97.791297017289196
 30
0.0
 11
986.53778436876701
 21
74.313007808099826
 31
0.0
  0
ARC
  5
2EC
100
AcDbEntity
  8
OUTLINE
 62
               0
100
AcDbCircle
 10
277.09226373336605
 20
347.15600891013116
 30
0.0
 40
12.500000000000055
100
AcDbArc
 50
69.906222383017379
 51
249.90621622636885
  0
LINE
  5
2ED
100
AcDbEntity
  8
OUTLINE
 62
               0
100
AcDbLine
 10
272.79779240939524
 20
335.41686430553602
 30
0.0
 11
986.53778436876701
 21
74.313007808099826
 31
0.0
  0
LINE
  5
2EE
100
AcDbEntity
  8
OUTLINE
 62
               0
100
AcDbLine
 10
995.12672701670908
 20
97.791297017289196
 30
0.0
 11
281.38673505733732
 21
358.8951535147263
 31
0.0
  0
LINE
  5
2EF
100
AcDbEntity
  8
OUTLINE
 62
               0
100
AcDbLine
 10
893.09818094227239
 20
59.051237861887728
 30
0.0
 11
968.15633951928157
 21
67.727228792270068
 31
0.0
  0
ENDBLK
  5
2F0
100
AcDbEntity
  8
OUTLINE
100
AcDbBlockEnd
  0
BLOCK
  5
2F1
100
AcDbEntity
  8
OBJECT
100
AcDbBlockBegin
  2
*U52
 70
               1
 10
0.0
 20
0.0
 30
0.0
  3
*U52
  1

  0
LINE
  5
2F2
100
AcDbEntity
  8
OBJECT
 62
               0
100
AcDbLine
 10
-942.61730448743856
 20
-687.49999999999932
 30
0.0
 11
-942.61730448743856
 21
-682.49999999999932
 31
0.0
  0
LINE
  5
2F3
100
AcDbEntity
  8
OBJECT
 62
               0
100
AcDbLine
 10
-932.61730448743856
 20
-692.49999999999932
 30
0.0
 11
-937.61730448743856
 21
-692.49999999999932
 31
0.0
  0
LINE
  5
2F4
100
AcDbEntity
  8
OBJECT
 62
               0
100
AcDbLine
 10
-927.61730448743856
 20
-682.49999999999932
 30
0.0
 11
-927.61730448743856
 21
-687.49999999999932
 31
0.0
  0
LINE
  5
2F5
100
AcDbEntity
  8
OBJECT
 62
               0
100
AcDbLine
 10
-937.61730448743856
 20
-677.49999999999932
 30
0.0
 11
-932.61730448743856
 21
-677.49999999999932
 31
0.0
  0
ARC
  5
2F6
100
AcDbEntity
  8
OBJECT
 62
               0
100
AcDbCircle
 10
-937.61730448743856
 20
-682.49999999999932
 30
0.0
 40
5.0
100
AcDbArc
 50
90.0
 51
180.0
  0
ARC
  5
2F7
100
AcDbEntity
  8
OBJECT
 62
               0
100
AcDbCircle
 10
-937.61730448743856
 20
-687.49999999999932
 30
0.0
 40
5.0
100
AcDbArc
 50
180.0
 51
270.0
  0
ARC
  5
2F8
100
AcDbEntity
  8
OBJECT
 62
               0
100
AcDbCircle
 10
-932.61730448743856
 20
-687.49999999999932
 30
0.0
 40
5.0
100
AcDbArc
 50
270.0
 51
0.0
  0
ARC
  5
2F9
100
AcDbEntity
  8
OBJECT
 62
               0
100
AcDbCircle
 10
-932.61730448743856
 20
-682.49999999999932
 30
0.0
 40
5.0
100
AcDbArc
 50
0.0
 51
90.0
  0
POINT
  5
2FA
100
AcDbEntity
  8
OBJECT
  6
CONTINUOUS
 62
               0
100
AcDbPoint
 10
-935.11730448743856
 20
-684.99999999999932
 30
0.0
  0
ENDBLK
  5
2FB
100
AcDbEntity
  8
OBJECT
100
AcDbBlockEnd
  0
BLOCK
  5
2FC
100
AcDbEntity
  8
OBJECT
100
AcDbBlockBegin
  2
*U53
 70
               1
 10
0.0
 20
0.0
 30
0.0
  3
*U53
  1

  0
LWPOLYLINE
  5
2FD
100
AcDbEntity
  8
OBJECT
 62
               0
100
AcDbPolyline
 90
        7
 70
             128
 10
-993.53745847384562
 20
-662.56206633641864
 10
-989.1544357427365
 20
-662.56206633641864
 10
-988.95944333827083
 20
-662.78806460025066
 10
-989.57611543013081
 20
-663.2848473692236
 10
-993.326618630148
 20
-663.2848473692236
 10
-993.81409964131126
 20
-662.78806460025066
 10
-993.53745847384562
 20
-662.56206633641864
  0
LWPOLYLINE
  5
2FE
100
AcDbEntity
  8
OBJECT
 62
               0
100
AcDbPolyline
 90
        7
 70
             128
 10
-988.68314668035418
 20
-663.07400752552644
 10
-988.47230683665657
 20
-663.2848473692236
 10
-989.04074759172272
 20
-667.32181025883961
 10
-989.49481117667892
 20
-667.68354528479063
 10
-989.83587562971843
 20
-667.32181025883961
 10
-989.30050779131125
 20
-663.58663773373178
 10
-988.68314668035418
 20
-663.07400752552644
  0
LWPOLYLINE
  5
2FF
100
AcDbEntity
  8
OBJECT
 62
               0
100
AcDbPolyline
 90
        7
 70
             128
 10
-994.15447507525369
 20
-663.07400752552644
 10
-993.68387503196846
 20
-663.58663773373178
 10
-994.2033954311446
 20
-667.32181025883961
 10
-994.65814803519697
 20
-667.68354528479063
 10
-994.99921248823648
 20
-667.32181025883961
 10
-994.43042722362225
 20
-663.2848473692236
 10
-994.15447507525369
 20
-663.07400752552644
  0
LWPOLYLINE
  5
300
100
AcDbEntity
  8
OBJECT
 62
               0
100
AcDbPolyline
 90
        7
 70
             128
 10
-994.38219588682841
 20
-667.97017722916348
 10
-993.94363523155607
 20
-667.60844220321246
 10
-990.19347654108788
 20
-667.60844220321246
 10
-989.85241208804837
 20
-667.97017722916348
 10
-990.28993921467463
 20
-668.33122323601788
 10
-994.04113143378891
 20
-668.33122323601788
 10
-994.38219588682841
 20
-667.97017722916348
  0
LWPOLYLINE
  5
301
100
AcDbEntity
  8
OBJECT
 62
               0
100
AcDbPolyline
 90
        7
 70
             128
 10
-994.73910777910078
 20
-668.25543113534218
 10
-994.39804332606127
 20
-668.61716616129365
 10
-994.91790823478459
 20
-672.35302770549856
 10
-995.5511167849736
 20
-672.86496889460682
 10
-995.76230113822021
 20
-672.63897063077434
 10
-995.17697941527604
 20
-668.61716616129365
 10
-994.73910777910078
 20
-668.25543113534218
  0
LWPOLYLINE
  5
302
100
AcDbEntity
  8
OBJECT
 62
               0
100
AcDbPolyline
 90
        7
 70
             128
 10
-989.57611543013081
 20
-668.25543113534218
 10
-989.2350509770913
 20
-668.61716616129365
 10
-989.80418075125453
 20
-672.63897063077434
 10
-990.0797883900741
 20
-672.86496889460682
 10
-990.55038843335933
 20
-672.35302770549856
 10
-990.01433157585507
 20
-668.61716616129365
 10
-989.57611543013081
 20
-668.25543113534218
  0
LWPOLYLINE
  5
303
100
AcDbEntity
  8
OBJECT
 62
               0
100
AcDbPolyline
 90
        7
 70
             128
 10
-995.27516463660504
 20
-673.15160083897922
 10
-994.65814803519697
 20
-672.63897063077434
 10
-990.90781708995382
 20
-672.63897063077434
 10
-990.42085284311452
 20
-673.15160083897922
 10
-990.69646048193408
 20
-673.36175166357975
 10
-995.06363577381126
 20
-673.36175166357975
 10
-995.27516463660504
 20
-673.15160083897922
  0
ENDBLK
  5
304
100
AcDbEntity
  8
OBJECT
100
AcDbBlockEnd
  0
BLOCK
  5
305
100
AcDbEntity
  8
OBJECT
100
AcDbBlockBegin
  2
*U54
 70
               1
 10
0.0
 20
0.0
 30
0.0
  3
*U54
  1

  0
LWPOLYLINE
  5
306
100
AcDbEntity
  8
OBJECT
 62
               0
100
AcDbPolyline
 90
        7
 70
             128
 10
-983.53745847384562
 20
-662.56206633641864
 10
-979.1544357427365
 20
-662.56206633641864
 10
-978.95944333827083
 20
-662.78806460025066
 10
-979.57611543013081
 20
-663.2848473692236
 10
-983.326618630148
 20
-663.2848473692236
 10
-983.81409964131126
 20
-662.78806460025066
 10
-983.53745847384562
 20
-662.56206633641864
  0
LWPOLYLINE
  5
307
100
AcDbEntity
  8
OBJECT
 62
               0
100
AcDbPolyline
 90
        7
 70
             128
 10
-978.68314668035418
 20
-663.07400752552644
 10
-978.47230683665657
 20
-663.2848473692236
 10
-979.04074759172272
 20
-667.32181025883961
 10
-979.49481117667892
 20
-667.68354528479063
 10
-979.83587562971843
 20
-667.32181025883961
 10
-979.30050779131125
 20
-663.58663773373178
 10
-978.68314668035418
 20
-663.07400752552644
  0
LWPOLYLINE
  5
308
100
AcDbEntity
  8
OBJECT
 62
               0
100
AcDbPolyline
 90
        7
 70
             128
 10
-984.15447507525369
 20
-663.07400752552644
 10
-983.68387503196846
 20
-663.58663773373178
 10
-984.2033954311446
 20
-667.32181025883961
 10
-984.65814803519697
 20
-667.68354528479063
 10
-984.99921248823648
 20
-667.32181025883961
 10
-984.43042722362225
 20
-663.2848473692236
 10
-984.15447507525369
 20
-663.07400752552644
  0
LWPOLYLINE
  5
309
100
AcDbEntity
  8
OBJECT
 62
               0
100
AcDbPolyline
 90
        7
 70
             128
 10
-984.38219588682841
 20
-667.97017722916348
 10
-983.94363523155607
 20
-667.60844220321246
 10
-980.19347654108788
 20
-667.60844220321246
 10
-979.85241208804837
 20
-667.97017722916348
 10
-980.28993921467463
 20
-668.33122323601788
 10
-984.04113143378891
 20
-668.33122323601788
 10
-984.38219588682841
 20
-667.97017722916348
  0
LWPOLYLINE
  5
30A
100
AcDbEntity
  8
OBJECT
 62
               0
100
AcDbPolyline
 90
        7
 70
             128
 10
-984.73910777910078
 20
-668.25543113534218
 10
-984.39804332606127
 20
-668.61716616129365
 10
-984.91790823478459
 20
-672.35302770549856
 10
-985.5511167849736
 20
-672.86496889460682
 10
-985.76230113822021
 20
-672.63897063077434
 10
-985.17697941527604
 20
-668.61716616129365
 10
-984.73910777910078
 20
-668.25543113534218
  0
LWPOLYLINE
  5
30B
100
AcDbEntity
  8
OBJECT
 62
               0
100
AcDbPolyline
 90
        7
 70
             128
 10
-979.57611543013081
 20
-668.25543113534218
 10
-979.2350509770913
 20
-668.61716616129365
 10
-979.80418075125453
 20
-672.63897063077434
 10
-980.0797883900741
 20
-672.86496889460682
 10
-980.55038843335933
 20
-672.35302770549856
 10
-980.01433157585507
 20
-668.61716616129365
 10
-979.57611543013081
 20
-668.25543113534218
  0
LWPOLYLINE
  5
30C
100
AcDbEntity
  8
OBJECT
 62
               0
100
AcDbPolyline
 90
        7
 70
             128
 10
-985.27516463660504
 20
-673.15160083897922
 10
-984.65814803519697
 20
-672.63897063077434
 10
-980.90781708995382
 20
-672.63897063077434
 10
-980.42085284311452
 20
-673.15160083897922
 10
-980.69646048193408
 20
-673.36175166357975
 10
-985.06363577381126
 20
-673.36175166357975
 10
-985.27516463660504
 20
-673.15160083897922
  0
ENDBLK
  5
30D
100
AcDbEntity
  8
OBJECT
100
AcDbBlockEnd
  0
BLOCK
  5
30E
100
AcDbEntity
  8
OBJECT
100
AcDbBlockBegin
  2
*U55
 70
               1
 10
0.0
 20
0.0
 30
0.0
  3
*U55
  1

  0
LWPOLYLINE
  5
30F
100
AcDbEntity
  8
OBJECT
 62
               0
100
AcDbPolyline
 90
        5
 70
             128
 10
-976.11730398743839
 20
-674.46190899999942
 10
-998.11730398743839
 20
-674.46190899999942
 10
-998.11730398743839
 20
-661.46190899999942
 10
-976.11730398743839
 20
-661.46190899999942
 10
-976.11730398743839
 20
-674.46190899999942
  0
INSERT
  5
310
100
AcDbEntity
  8
OBJECT
 62
               0
100
AcDbBlockReference
  2
*U53
 10
0.0
 20
0.0
 30
0.0
  0
INSERT
  5
311
100
AcDbEntity
  8
OBJECT
 62
               0
100
AcDbBlockReference
  2
*U54
 10
0.0
 20
0.0
 30
0.0
  0
POINT
  5
312
100
AcDbEntity
  8
OBJECT
  6
CONTINUOUS
 62
               0
100
AcDbPoint
 10
-987.11730398743839
 20
-667.96190899999942
 30
0.0
  0
ENDBLK
  5
313
100
AcDbEntity
  8
OBJECT
100
AcDbBlockEnd
  0
BLOCK
  5
314
100
AcDbEntity
  8
OBJECT
100
AcDbBlockBegin
  2
*U56
 70
               1
 10
0.0
 20
0.0
 30
0.0
  3
*U56
  1

  0
LWPOLYLINE
  5
315
100
AcDbEntity
  8
OBJECT
 62
               0
100
AcDbPolyline
 90
        7
 70
             128
 10
-993.53745847384562
 20
-679.60015633641865
 10
-989.1544357427365
 20
-679.60015633641865
 10
-988.95944333827083
 20
-679.82615460025067
 10
-989.57611543013081
 20
-680.32293736922361
 10
-993.326618630148
 20
-680.32293736922361
 10
-993.81409964131126
 20
-679.82615460025067
 10
-993.53745847384562
 20
-679.60015633641865
  0
LWPOLYLINE
  5
316
100
AcDbEntity
  8
OBJECT
 62
               0
100
AcDbPolyline
 90
        7
 70
             128
 10
-988.68314668035418
 20
-680.11209752552645
 10
-988.47230683665657
 20
-680.32293736922361
 10
-989.04074759172272
 20
-684.35990025883962
 10
-989.49481117667892
 20
-684.72163528479064
 10
-989.83587562971843
 20
-684.35990025883962
 10
-989.30050779131125
 20
-680.62472773373179
 10
-988.68314668035418
 20
-680.11209752552645
  0
LWPOLYLINE
  5
317
100
AcDbEntity
  8
OBJECT
 62
               0
100
AcDbPolyline
 90
        7
 70
             128
 10
-994.15447507525369
 20
-680.11209752552645
 10
-993.68387503196846
 20
-680.62472773373179
 10
-994.2033954311446
 20
-684.35990025883962
 10
-994.65814803519697
 20
-684.72163528479064
 10
-994.99921248823648
 20
-684.35990025883962
 10
-994.43042722362225
 20
-680.32293736922361
 10
-994.15447507525369
 20
-680.11209752552645
  0
LWPOLYLINE
  5
318
100
AcDbEntity
  8
OBJECT
 62
               0
100
AcDbPolyline
 90
        7
 70
             128
 10
-994.38219588682841
 20
-685.00826722916349
 10
-993.94363523155607
 20
-684.64653220321247
 10
-990.19347654108788
 20
-684.64653220321247
 10
-989.85241208804837
 20
-685.00826722916349
 10
-990.28993921467463
 20
-685.36931323601789
 10
-994.04113143378891
 20
-685.36931323601789
 10
-994.38219588682841
 20
-685.00826722916349
  0
LWPOLYLINE
  5
319
100
AcDbEntity
  8
OBJECT
 62
               0
100
AcDbPolyline
 90
        7
 70
             128
 10
-994.73910777910078
 20
-685.29352113534219
 10
-994.39804332606127
 20
-685.65525616129366
 10
-994.91790823478459
 20
-689.39111770549857
 10
-995.5511167849736
 20
-689.90305889460683
 10
-995.76230113822021
 20
-689.67706063077435
 10
-995.17697941527604
 20
-685.65525616129366
 10
-994.73910777910078
 20
-685.29352113534219
  0
LWPOLYLINE
  5
31A
100
AcDbEntity
  8
OBJECT
 62
               0
100
AcDbPolyline
 90
        7
 70
             128
 10
-989.57611543013081
 20
-685.29352113534219
 10
-989.2350509770913
 20
-685.65525616129366
 10
-989.80418075125453
 20
-689.67706063077435
 10
-990.0797883900741
 20
-689.90305889460683
 10
-990.55038843335933
 20
-689.39111770549857
 10
-990.01433157585507
 20
-685.65525616129366
 10
-989.57611543013081
 20
-685.29352113534219
  0
LWPOLYLINE
  5
31B
100
AcDbEntity
  8
OBJECT
 62
               0
100
AcDbPolyline
 90
        7
 70
             128
 10
-995.27516463660504
 20
-690.18969083897923
 10
-994.65814803519697
 20
-689.67706063077435
 10
-990.90781708995382
 20
-689.67706063077435
 10
-990.42085284311452
 20
-690.18969083897923
 10
-990.69646048193408
 20
-690.39984166357976
 10
-995.06363577381126
 20
-690.39984166357976
 10
-995.27516463660504
 20
-690.18969083897923
  0
ENDBLK
  5
31C
100
AcDbEntity
  8
OBJECT
100
AcDbBlockEnd
  0
BLOCK
  5
31D
100
AcDbEntity
  8
OBJECT
100
AcDbBlockBegin
  2
*U57
 70
               1
 10
0.0
 20
0.0
 30
0.0
  3
*U57
  1

  0
LWPOLYLINE
  5
31E
100
AcDbEntity
  8
OBJECT
 62
               0
100
AcDbPolyline
 90
        7
 70
             128
 10
-983.53745847384562
 20
-679.60015633641865
 10
-979.1544357427365
 20
-679.60015633641865
 10
-978.95944333827083
 20
-679.82615460025067
 10
-979.57611543013081
 20
-680.32293736922361
 10
-983.326618630148
 20
-680.32293736922361
 10
-983.81409964131126
 20
-679.82615460025067
 10
-983.53745847384562
 20
-679.60015633641865
  0
LWPOLYLINE
  5
31F
100
AcDbEntity
  8
OBJECT
 62
               0
100
AcDbPolyline
 90
        7
 70
             128
 10
-978.68314668035418
 20
-680.11209752552645
 10
-978.47230683665657
 20
-680.32293736922361
 10
-979.04074759172272
 20
-684.35990025883962
 10
-979.49481117667892
 20
-684.72163528479064
 10
-979.83587562971843
 20
-684.35990025883962
 10
-979.30050779131125
 20
-680.62472773373179
 10
-978.68314668035418
 20
-680.11209752552645
  0
LWPOLYLINE
  5
320
100
AcDbEntity
  8
OBJECT
 62
               0
100
AcDbPolyline
 90
        7
 70
             128
 10
-984.15447507525369
 20
-680.11209752552645
 10
-983.68387503196846
 20
-680.62472773373179
 10
-984.2033954311446
 20
-684.35990025883962
 10
-984.65814803519697
 20
-684.72163528479064
 10
-984.99921248823648
 20
-684.35990025883962
 10
-984.43042722362225
 20
-680.32293736922361
 10
-984.15447507525369
 20
-680.11209752552645
  0
LWPOLYLINE
  5
321
100
AcDbEntity
  8
OBJECT
 62
               0
100
AcDbPolyline
 90
        7
 70
             128
 10
-984.38219588682841
 20
-685.00826722916349
 10
-983.94363523155607
 20
-684.64653220321247
 10
-980.19347654108788
 20
-684.64653220321247
 10
-979.85241208804837
 20
-685.00826722916349
 10
-980.28993921467463
 20
-685.36931323601789
 10
-984.04113143378891
 20
-685.36931323601789
 10
-984.38219588682841
 20
-685.00826722916349
  0
LWPOLYLINE
  5
322
100
AcDbEntity
  8
OBJECT
 62
               0
100
AcDbPolyline
 90
        7
 70
             128
 10
-984.73910777910078
 20
-685.29352113534219
 10
-984.39804332606127
 20
-685.65525616129366
 10
-984.91790823478459
 20
-689.39111770549857
 10
-985.5511167849736
 20
-689.90305889460683
 10
-985.76230113822021
 20
-689.67706063077435
 10
-985.17697941527604
 20
-685.65525616129366
 10
-984.73910777910078
 20
-685.29352113534219
  0
LWPOLYLINE
  5
323
100
AcDbEntity
  8
OBJECT
 62
               0
100
AcDbPolyline
 90
        7
 70
             128
 10
-979.57611543013081
 20
-685.29352113534219
 10
-979.2350509770913
 20
-685.65525616129366
 10
-979.80418075125453
 20
-689.67706063077435
 10
-980.0797883900741
 20
-689.90305889460683
 10
-980.55038843335933
 20
-689.39111770549857
 10
-980.01433157585507
 20
-685.65525616129366
 10
-979.57611543013081
 20
-685.29352113534219
  0
LWPOLYLINE
  5
324
100
AcDbEntity
  8
OBJECT
 62
               0
100
AcDbPolyline
 90
        7
 70
             128
 10
-985.27516463660504
 20
-690.18969083897923
 10
-984.65814803519697
 20
-689.67706063077435
 10
-980.90781708995382
 20
-689.67706063077435
 10
-980.42085284311452
 20
-690.18969083897923
 10
-980.69646048193408
 20
-690.39984166357976
 10
-985.06363577381126
 20
-690.39984166357976
 10
-985.27516463660504
 20
-690.18969083897923
  0
ENDBLK
  5
325
100
AcDbEntity
  8
OBJECT
100
AcDbBlockEnd
  0
BLOCK
  5
326
100
AcDbEntity
  8
OBJECT
100
AcDbBlockBegin
  2
*U58
 70
               1
 10
0.0
 20
0.0
 30
0.0
  3
*U58
  1

  0
LWPOLYLINE
  5
327
100
AcDbEntity
  8
OBJECT
 62
               0
100
AcDbPolyline
 90
        5
 70
             128
 10
-976.11730398743839
 20
-691.49999899999943
 10
-998.11730398743839
 20
-691.49999899999943
 10
-998.11730398743839
 20
-678.49999899999943
 10
-976.11730398743839
 20
-678.49999899999943
 10
-976.11730398743839
 20
-691.49999899999943
  0
INSERT
  5
328
100
AcDbEntity
  8
OBJECT
 62
               0
100
AcDbBlockReference
  2
*U56
 10
0.0
 20
0.0
 30
0.0
  0
INSERT
  5
329
100
AcDbEntity
  8
OBJECT
 62
               0
100
AcDbBlockReference
  2
*U57
 10
0.0
 20
0.0
 30
0.0
  0
POINT
  5
32A
100
AcDbEntity
  8
OBJECT
  6
CONTINUOUS
 62
               0
100
AcDbPoint
 10
-987.11730398743839
 20
-684.99999899999943
 30
0.0
  0
ENDBLK
  5
32B
100
AcDbEntity
  8
OBJECT
100
AcDbBlockEnd
  0
BLOCK
  5
32C
100
AcDbEntity
  8
OBJECT
100
AcDbBlockBegin
  2
*U59
 70
               1
 10
0.0
 20
0.0
 30
0.0
  3
*U59
  1

  0
LINE
  5
32D
100
AcDbEntity
  8
OBJECT
 62
               0
100
AcDbLine
 10
-965.61730448743856
 20
-687.49999999999932
 30
0.0
 11
-965.61730448743856
 21
-682.49999999999932
 31
0.0
  0
LINE
  5
32E
100
AcDbEntity
  8
OBJECT
 62
               0
100
AcDbLine
 10
-955.61730448743856
 20
-692.49999999999932
 30
0.0
 11
-960.61730448743856
 21
-692.49999999999932
 31
0.0
  0
LINE
  5
32F
100
AcDbEntity
  8
OBJECT
 62
               0
100
AcDbLine
 10
-950.61730448743856
 20
-682.49999999999932
 30
0.0
 11
-950.61730448743856
 21
-687.49999999999932
 31
0.0
  0
LINE
  5
330
100
AcDbEntity
  8
OBJECT
 62
               0
100
AcDbLine
 10
-960.61730448743856
 20
-677.49999999999932
 30
0.0
 11
-955.61730448743856
 21
-677.49999999999932
 31
0.0
  0
ARC
  5
331
100
AcDbEntity
  8
OBJECT
 62
               0
100
AcDbCircle
 10
-960.61730448743856
 20
-682.49999999999932
 30
0.0
 40
5.0
100
AcDbArc
 50
90.0
 51
180.0
  0
ARC
  5
332
100
AcDbEntity
  8
OBJECT
 62
               0
100
AcDbCircle
 10
-960.61730448743856
 20
-687.49999999999932
 30
0.0
 40
5.0
100
AcDbArc
 50
180.0
 51
270.0
  0
ARC
  5
333
100
AcDbEntity
  8
OBJECT
 62
               0
100
AcDbCircle
 10
-955.61730448743856
 20
-687.49999999999932
 30
0.0
 40
5.0
100
AcDbArc
 50
270.0
 51
0.0
  0
ARC
  5
334
100
AcDbEntity
  8
OBJECT
 62
               0
100
AcDbCircle
 10
-955.61730448743856
 20
-682.49999999999932
 30
0.0
 40
5.0
100
AcDbArc
 50
0.0
 51
90.0
  0
POINT
  5
335
100
AcDbEntity
  8
OBJECT
  6
CONTINUOUS
 62
               0
100
AcDbPoint
 10
-958.11730448743856
 20
-684.99999999999932
 30
0.0
  0
ENDBLK
  5
336
100
AcDbEntity
  8
OBJECT
100
AcDbBlockEnd
  0
BLOCK
  5
337
100
AcDbEntity
  8
OBJECT
100
AcDbBlockBegin
  2
*U60
 70
               1
 10
0.0
 20
0.0
 30
0.0
  3
*U60
  1

  0
LINE
  5
338
100
AcDbEntity
  8
OBJECT
 62
               0
100
AcDbLine
 10
-942.61730448743856
 20
-667.49999999999932
 30
0.0
 11
-942.61730448743856
 21
-662.49999999999932
 31
0.0
  0
LINE
  5
339
100
AcDbEntity
  8
OBJECT
 62
               0
100
AcDbLine
 10
-932.61730448743856
 20
-672.49999999999932
 30
0.0
 11
-937.61730448743856
 21
-672.49999999999932
 31
0.0
  0
LINE
  5
33A
100
AcDbEntity
  8
OBJECT
 62
               0
100
AcDbLine
 10
-927.61730448743856
 20
-662.49999999999932
 30
0.0
 11
-927.61730448743856
 21
-667.49999999999932
 31
0.0
  0
LINE
  5
33B
100
AcDbEntity
  8
OBJECT
 62
               0
100
AcDbLine
 10
-937.61730448743856
 20
-657.49999999999932
 30
0.0
 11
-932.61730448743856
 21
-657.49999999999932
 31
0.0
  0
ARC
  5
33C
100
AcDbEntity
  8
OBJECT
 62
               0
100
AcDbCircle
 10
-937.61730448743856
 20
-662.49999999999932
 30
0.0
 40
5.0
100
AcDbArc
 50
90.0
 51
180.0
  0
ARC
  5
33D
100
AcDbEntity
  8
OBJECT
 62
               0
100
AcDbCircle
 10
-937.61730448743856
 20
-667.49999999999932
 30
0.0
 40
5.0
100
AcDbArc
 50
180.0
 51
270.0
  0
ARC
  5
33E
100
AcDbEntity
  8
OBJECT
 62
               0
100
AcDbCircle
 10
-932.61730448743856
 20
-667.49999999999932
 30
0.0
 40
5.0
100
AcDbArc
 50
270.0
 51
0.0
  0
ARC
  5
33F
100
AcDbEntity
  8
OBJECT
 62
               0
100
AcDbCircle
 10
-932.61730448743856
 20
-662.49999999999932
 30
0.0
 40
5.0
100
AcDbArc
 50
0.0
 51
90.0
  0
POINT
  5
340
100
AcDbEntity
  8
OBJECT
  6
CONTINUOUS
 62
               0
100
AcDbPoint
 10
-935.11730448743856
 20
-664.99999999999932
 30
0.0
  0
ENDBLK
  5
341
100
AcDbEntity
  8
OBJECT
100
AcDbBlockEnd
  0
BLOCK
  5
342
100
AcDbEntity
  8
OBJECT
100
AcDbBlockBegin
  2
*U61
 70
               1
 10
0.0
 20
0.0
 30
0.0
  3
*U61
  1

  0
LINE
  5
343
100
AcDbEntity
  8
OBJECT
 62
               0
100
AcDbLine
 10
-942.61730448743856
 20
-639.49999999999932
 30
0.0
 11
-942.61730448743856
 21
-634.49999999999932
 31
0.0
  0
LINE
  5
344
100
AcDbEntity
  8
OBJECT
 62
               0
100
AcDbLine
 10
-932.61730448743856
 20
-644.49999999999932
 30
0.0
 11
-937.61730448743856
 21
-644.49999999999932
 31
0.0
  0
LINE
  5
345
100
AcDbEntity
  8
OBJECT
 62
               0
100
AcDbLine
 10
-927.61730448743856
 20
-634.49999999999932
 30
0.0
 11
-927.61730448743856
 21
-639.49999999999932
 31
0.0
  0
LINE
  5
346
100
AcDbEntity
  8
OBJECT
 62
               0
100
AcDbLine
 10
-937.61730448743856
 20
-629.49999999999932
 30
0.0
 11
-932.61730448743856
 21
-629.49999999999932
 31
0.0
  0
ARC
  5
347
100
AcDbEntity
  8
OBJECT
 62
               0
100
AcDbCircle
 10
-937.61730448743856
 20
-634.49999999999932
 30
0.0
 40
5.0
100
AcDbArc
 50
90.0
 51
180.0
  0
ARC
  5
348
100
AcDbEntity
  8
OBJECT
 62
               0
100
AcDbCircle
 10
-937.61730448743856
 20
-639.49999999999932
 30
0.0
 40
5.0
100
AcDbArc
 50
180.0
 51
270.0
  0
ARC
  5
349
100
AcDbEntity
  8
OBJECT
 62
               0
100
AcDbCircle
 10
-932.61730448743856
 20
-639.49999999999932
 30
0.0
 40
5.0
100
AcDbArc
 50
270.0
 51
0.0
  0
ARC
  5
34A
100
AcDbEntity
  8
OBJECT
 62
               0
100
AcDbCircle
 10
-932.61730448743856
 20
-634.49999999999932
 30
0.0
 40
5.0
100
AcDbArc
 50
0.0
 51
90.0
  0
POINT
  5
34B
100
AcDbEntity
  8
OBJECT
  6
CONTINUOUS
 62
               0
100
AcDbPoint
 10
-935.11730448743856
 20
-636.99999999999932
 30
0.0
  0
ENDBLK
  5
34C
100
AcDbEntity
  8
OBJECT
100
AcDbBlockEnd
  0
BLOCK
  5
34D
100
AcDbEntity
  8
OBJECT
100
AcDbBlockBegin
  2
*U62
 70
               1
 10
0.0
 20
0.0
 30
0.0
  3
*U62
  1

  0
LINE
  5
34E
100
AcDbEntity
  8
OBJECT
 62
               0
100
AcDbLine
 10
-1000.1172999874389
 20
-695.49999999999932
 30
0.0
 11
-1000.1172999874389
 21
-620.49999999999932
 31
0.0
  0
LINE
  5
34F
100
AcDbEntity
  8
OBJECT
 62
               0
100
AcDbLine
 10
-979.11729998743886
 20
-700.49999999999932
 30
0.0
 11
-995.11729998743886
 21
-700.49999999999932
 31
0.0
  0
LINE
  5
350
100
AcDbEntity
  8
OBJECT
 62
               0
100
AcDbLine
 10
-974.11729998743886
 20
-620.49999999999932
 30
0.0
 11
-974.11729998743886
 21
-695.49999999999932
 31
0.0
  0
LINE
  5
351
100
AcDbEntity
  8
OBJECT
 62
               0
100
AcDbLine
 10
-995.11729998743886
 20
-615.49999999999932
 30
0.0
 11
-979.11729998743886
 21
-615.49999999999932
 31
0.0
  0
ARC
  5
352
100
AcDbEntity
  8
OBJECT
 62
               0
100
AcDbCircle
 10
-995.11729998743886
 20
-620.49999999999932
 30
0.0
 40
5.0
100
AcDbArc
 50
90.0
 51
180.0
  0
ARC
  5
353
100
AcDbEntity
  8
OBJECT
 62
               0
100
AcDbCircle
 10
-979.11729998743886
 20
-620.49999999999932
 30
0.0
 40
5.0
100
AcDbArc
 50
0.0
 51
90.0
  0
ARC
  5
354
100
AcDbEntity
  8
OBJECT
 62
               0
100
AcDbCircle
 10
-979.11729998743886
 20
-695.49999999999932
 30
0.0
 40
5.0
100
AcDbArc
 50
270.0
 51
0.0
  0
ARC
  5
355
100
AcDbEntity
  8
OBJECT
 62
               0
100
AcDbCircle
 10
-995.11729998743886
 20
-695.49999999999932
 30
0.0
 40
5.0
100
AcDbArc
 50
180.0
 51
270.0
  0
ENDBLK
  5
356
100
AcDbEntity
  8
OBJECT
100
AcDbBlockEnd
  0
BLOCK
  5
357
100
AcDbEntity
  8
OBJECT
100
AcDbBlockBegin
  2
*U63
 70
               1
 10
0.0
 20
0.0
 30
0.0
  3
*U63
  1

  0
LINE
  5
358
100
AcDbEntity
  8
OBJECT
 62
               0
100
AcDbLine
 10
-972.11729998743886
 20
-695.49999999999932
 30
0.0
 11
-972.11729998743886
 21
-620.49999999999932
 31
0.0
  0
LINE
  5
359
100
AcDbEntity
  8
OBJECT
 62
               0
100
AcDbLine
 10
-951.11729998743886
 20
-700.49999999999932
 30
0.0
 11
-967.11729998743886
 21
-700.49999999999932
 31
0.0
  0
LINE
  5
35A
100
AcDbEntity
  8
OBJECT
 62
               0
100
AcDbLine
 10
-946.11729998743886
 20
-620.49999999999932
 30
0.0
 11
-946.11729998743886
 21
-695.49999999999932
 31
0.0
  0
LINE
  5
35B
100
AcDbEntity
  8
OBJECT
 62
               0
100
AcDbLine
 10
-967.11729998743886
 20
-615.49999999999932
 30
0.0
 11
-951.11729998743886
 21
-615.49999999999932
 31
0.0
  0
ARC
  5
35C
100
AcDbEntity
  8
OBJECT
 62
               0
100
AcDbCircle
 10
-967.11729998743886
 20
-620.49999999999932
 30
0.0
 40
5.0
100
AcDbArc
 50
90.0
 51
180.0
  0
ARC
  5
35D
100
AcDbEntity
  8
OBJECT
 62
               0
100
AcDbCircle
 10
-951.11729998743886
 20
-620.49999999999932
 30
0.0
 40
5.0
100
AcDbArc
 50
0.0
 51
90.0
  0
ARC
  5
35E
100
AcDbEntity
  8
OBJECT
 62
               0
100
AcDbCircle
 10
-951.11729998743886
 20
-695.49999999999932
 30
0.0
 40
5.0
100
AcDbArc
 50
270.0
 51
0.0
  0
ARC
  5
35F
100
AcDbEntity
  8
OBJECT
 62
               0
100
AcDbCircle
 10
-967.11729998743886
 20
-695.49999999999932
 30
0.0
 40
5.0
100
AcDbArc
 50
180.0
 51
270.0
  0
ENDBLK
  5
360
100
AcDbEntity
  8
OBJECT
100
AcDbBlockEnd
  0
BLOCK
  5
361
100
AcDbEntity
  8
OBJECT
100
AcDbBlockBegin
  2
*U64
 70
               1
 10
0.0
 20
0.0
 30
0.0
  3
*U64
  1

  0
INSERT
  5
362
100
AcDbEntity
  8
OBJECT
 62
               0
100
AcDbBlockReference
  2
*U52
 10
0.0
 20
0.0
 30
0.0
  0
POLYLINE
  5
363
100
AcDbEntity
  8
OBJECT
 62
               0
100
AcDb2dPolyline
 66
               1
 10
0.0
 20
0.0
 30
0.0
 70
               1
 75
               5
  0
VERTEX
  5
364
100
AcDbEntity
  8
OBJECT
 62
               0
100
AcDbVertex
100
AcDb2dVertex
 10
-1008.1172999874389
 20
-702.99999999999932
 30
0.0
  0
VERTEX
  5
365
100
AcDbEntity
  8
OBJECT
 62
               0
100
AcDbVertex
100
AcDb2dVertex
 10
-918.11729998743886
 20
-702.99999999999932
 30
0.0
  0
VERTEX
  5
366
100
AcDbEntity
  8
OBJECT
 62
               0
100
AcDbVertex
100
AcDb2dVertex
 10
-918.11729998743886
 20
-612.99999999999932
 30
0.0
  0
VERTEX
  5
367
100
AcDbEntity
  8
OBJECT
 62
               0
100
AcDbVertex
100
AcDb2dVertex
 10
-1008.1172999874389
 20
-612.99999999999932
 30
0.0
  0
SEQEND
  5
368
100
AcDbEntity
  8
OBJECT
 62
               0
  0
CIRCLE
  5
369
100
AcDbEntity
  8
OBJECT
 62
               0
100
AcDbCircle
 10
-952.11729998743886
 20
-636.99999999999932
 30
0.0
 40
2.5
  0
CIRCLE
  5
36A
100
AcDbEntity
  8
OBJECT
 62
               0
100
AcDbCircle
 10
-952.11729998743886
 20
-650.99999999999932
 30
0.0
 40
2.5
  0
CIRCLE
  5
36B
100
AcDbEntity
  8
OBJECT
 62
               0
100
AcDbCircle
 10
-952.11729998743886
 20
-664.99999999999932
 30
0.0
 40
2.5
  0
CIRCLE
  5
36C
100
AcDbEntity
  8
OBJECT
 62
               0
100
AcDbCircle
 10
-935.11729998743886
 20
-622.99999999999932
 30
0.0
 40
2.5000000000004499
  0
CIRCLE
  5
36D
100
AcDbEntity
  8
OBJECT
 62
               0
100
AcDbCircle
 10
-979.11730398743839
 20
-622.99999999999932
 30
0.0
 40
2.5000000000000946
  0
CIRCLE
  5
36E
100
AcDbEntity
  8
OBJECT
 62
               0
100
AcDbCircle
 10
-979.11730398743839
 20
-636.99999999999932
 30
0.0
 40
2.5
  0
CIRCLE
  5
36F
100
AcDbEntity
  8
OBJECT
 62
               0
100
AcDbCircle
 10
-935.11730398743839
 20
-650.99999999999932
 30
0.0
 40
2.5
  0
CIRCLE
  5
370
100
AcDbEntity
  8
OBJECT
 62
               0
100
AcDbCircle
 10
-979.11730398743839
 20
-650.99999999999932
 30
0.0
 40
2.5000019999997676
  0
CIRCLE
  5
371
100
AcDbEntity
  8
OBJECT
 62
               0
100
AcDbCircle
 10
-952.11730098743828
 20
-622.99999999999932
 30
0.0
 40
2.4999999999995941
  0
INSERT
  5
372
100
AcDbEntity
  8
OBJECT
 62
               0
100
AcDbBlockReference
  2
*U55
 10
0.0
 20
0.0
 30
0.0
  0
INSERT
  5
373
100
AcDbEntity
  8
OBJECT
 62
               0
100
AcDbBlockReference
  2
*U58
 10
0.0
 20
0.0
 30
0.0
  0
CIRCLE
  5
374
100
AcDbEntity
  8
OBJECT
 62
               0
100
AcDbCircle
 10
-979.11730398743839
 20
-622.99999999999932
 30
0.0
 40
3.9999999999996056
  0
CIRCLE
  5
375
100
AcDbEntity
  8
OBJECT
 62
               0
100
AcDbCircle
 10
-979.11730398743839
 20
-636.99999999999932
 30
0.0
 40
3.9999999999996056
  0
CIRCLE
  5
376
100
AcDbEntity
  8
OBJECT
 62
               0
100
AcDbCircle
 10
-979.11730398743839
 20
-650.99999999999932
 30
0.0
 40
3.9999999999996056
  0
CIRCLE
  5
377
100
AcDbEntity
  8
OBJECT
 62
               0
100
AcDbCircle
 10
-952.11730098743828
 20
-622.99999999999932
 30
0.0
 40
3.9999999999996056
  0
CIRCLE
  5
378
100
AcDbEntity
  8
OBJECT
 62
               0
100
AcDbCircle
 10
-935.11729998743886
 20
-622.99999999999932
 30
0.0
 40
4.0000000000005151
  0
CIRCLE
  5
379
100
AcDbEntity
  8
OBJECT
 62
               0
100
AcDbCircle
 10
-935.11730398743839
 20
-650.99999999999932
 30
0.0
 40
3.9999999999996056
  0
CIRCLE
  5
37A
100
AcDbEntity
  8
OBJECT
 62
               0
100
AcDbCircle
 10
-952.11729998743886
 20
-636.99999999999932
 30
0.0
 40
4.0000000000005151
  0
CIRCLE
  5
37B
100
AcDbEntity
  8
OBJECT
 62
               0
100
AcDbCircle
 10
-952.11729998743886
 20
-650.99999999999932
 30
0.0
 40
4.0000000000005151
  0
CIRCLE
  5
37C
100
AcDbEntity
  8
OBJECT
 62
               0
100
AcDbCircle
 10
-952.11729998743886
 20
-664.99999999999932
 30
0.0
 40
4.0000000000005151
  0
INSERT
  5
37D
100
AcDbEntity
  8
OBJECT
 62
               0
100
AcDbBlockReference
  2
*U59
 10
0.0
 20
0.0
 30
0.0
  0
INSERT
  5
37E
100
AcDbEntity
  8
OBJECT
 62
               0
100
AcDbBlockReference
  2
*U60
 10
0.0
 20
0.0
 30
0.0
  0
INSERT
  5
37F
100
AcDbEntity
  8
OBJECT
 62
               0
100
AcDbBlockReference
  2
*U61
 10
0.0
 20
0.0
 30
0.0
  0
INSERT
  5
380
100
AcDbEntity
  8
OBJECT
 62
               0
100
AcDbBlockReference
  2
*U62
 10
0.0
 20
0.0
 30
0.0
  0
INSERT
  5
381
100
AcDbEntity
  8
OBJECT
 62
               0
100
AcDbBlockReference
  2
*U63
 10
0.0
 20
0.0
 30
0.0
  0
ENDBLK
  5
382
100
AcDbEntity
  8
OBJECT
100
AcDbBlockEnd
  0
BLOCK
  5
383
100
AcDbEntity
  8
FRAME
100
AcDbBlockBegin
  2
*U65
 70
               1
 10
0.0
 20
0.0
 30
0.0
  3
*U65
  1

  0
ENDBLK
  5
384
100
AcDbEntity
  8
FRAME
100
AcDbBlockEnd
  0
BLOCK
  5
385
100
AcDbEntity
  8
FRAME
100
AcDbBlockBegin
  2
*U66
 70
               1
 10
0.0
 20
0.0
 30
0.0
  3
*U66
  1

  0
ENDBLK
  5
386
100
AcDbEntity
  8
FRAME
100
AcDbBlockEnd
  0
BLOCK
  5
387
100
AcDbEntity
  8
FRAME
100
AcDbBlockBegin
  2
*U67
 70
               1
 10
0.0
 20
0.0
 30
0.0
  3
*U67
  1

  0
ENDBLK
  5
388
100
AcDbEntity
  8
FRAME
100
AcDbBlockEnd
  0
BLOCK
  5
389
100
AcDbEntity
  8
FRAME
100
AcDbBlockBegin
  2
*U68
 70
               1
 10
0.0
 20
0.0
 30
0.0
  3
*U68
  1

  0
ENDBLK
  5
38A
100
AcDbEntity
  8
FRAME
100
AcDbBlockEnd
  0
BLOCK
  5
38B
100
AcDbEntity
  8
FRAME
100
AcDbBlockBegin
  2
*U69
 70
               1
 10
0.0
 20
0.0
 30
0.0
  3
*U69
  1

  0
ENDBLK
  5
38C
100
AcDbEntity
  8
FRAME
100
AcDbBlockEnd
  0
BLOCK
  5
38D
100
AcDbEntity
  8
FRAME
100
AcDbBlockBegin
  2
*U70
 70
               1
 10
0.0
 20
0.0
 30
0.0
  3
*U70
  1

  0
INSERT
  5
38E
100
AcDbEntity
  8
FRAME
 62
               0
100
AcDbBlockReference
  2
*U65
 10
0.0
 20
0.0
 30
0.0
  0
INSERT
  5
38F
100
AcDbEntity
  8
FRAME
 62
               0
100
AcDbBlockReference
  2
*U66
 10
0.0
 20
0.0
 30
0.0
  0
INSERT
  5
390
100
AcDbEntity
  8
FRAME
 62
               0
100
AcDbBlockReference
  2
*U67
 10
0.0
 20
0.0
 30
0.0
  0
INSERT
  5
391
100
AcDbEntity
  8
FRAME
 62
               0
100
AcDbBlockReference
  2
*U68
 10
0.0
 20
0.0
 30
0.0
  0
INSERT
  5
392
100
AcDbEntity
  8
FRAME
 62
               0
100
AcDbBlockReference
  2
*U69
 10
0.0
 20
0.0
 30
0.0
  0
LWPOLYLINE
  5
393
100
AcDbEntity
  8
FRAME
 62
               0
100
AcDbPolyline
 90
       12
 70
             129
 10
-1748.848485460021
 20
-1321.307208978104
 10
-1761.8090913440092
 20
-1321.307208978104
 10
-1795.0238334300766
 20
-1321.307208978104
 10
-1807.8093994133651
 20
-1321.307208978104
 10
-1809.3629208736047
 20
-1321.307208978104
 10
-1809.3629208736047
 20
-1378.9188146886893
 10
-1795.0238334300766
 20
-1378.9188146886893
 10
-1795.0238334300766
 20
-1376.0232783148861
 10
-1761.8090913440092
 20
-1376.0232783148861
 10
-1761.8090913440092
 20
-1378.9188146886893
 10
-1747.4736558577697
 20
-1378.9188146886893
 10
-1747.4736558577697
 20
-1321.307208978104
  0
ENDBLK
  5
394
100
AcDbEntity
  8
FRAME
100
AcDbBlockEnd
  0
BLOCK
  5
395
100
AcDbEntity
  8
OBJECT
100
AcDbBlockBegin
  2
*U71
 70
               1
 10
0.0
 20
0.0
 30
0.0
  3
*U71
  1

  0
INSERT
  5
396
100
AcDbEntity
  8
FRAME
 62
               0
100
AcDbBlockReference
  2
*U70
 10
0.0
 20
0.0
 30
0.0
  0
ENDBLK
  5
397
100
AcDbEntity
  8
OBJECT
100
AcDbBlockEnd
  0
ENDSEC
  0
SECTION
  2
ENTITIES
  0
MTEXT
  5
398
100
AcDbEntity
  8
TEXT
100
AcDbMText
 10
363.4772999999999
 20
-845.12999999999988
 30
0.0
 40
28.2224
 41
109.36099999999999
 71
               1
 72
               1
  1
品　名
  7
________
  0
MTEXT
  5
399
100
AcDbEntity
  8
TEXT
100
AcDbMText
 10
1478.4772999999998
 20
-850.12999999999988
 30
0.0
 40
28.2224
 41
0.0
 71
               1
 72
               1
  1
形　式
  7
________
  0
MTEXT
  5
39A
100
AcDbEntity
  8
TEXT
100
AcDbMText
 10
2083.4772999999996
 20
-850.12999999999988
 30
0.0
 40
28.2224
 41
0.0
 71
               1
 72
               1
  1
尺　度
  7
________
  0
MTEXT
  5
39B
100
AcDbEntity
  8
TEXT
100
AcDbMText
 10
2303.4772999999996
 20
-850.12999999999988
 30
0.0
 40
28.2224
 41
0.0
 71
               1
 72
               1
  1
図　番
  7
________
  0
MTEXT
  5
39C
100
AcDbEntity
  8
TEXT
100
AcDbMText
 10
2120.4292999999998
 20
-905.0139999999999
 30
0.0
 40
39.51111111111112
 41
0.0
 71
               1
 72
               1
  1
1：10
  7
________
  0
MTEXT
  5
39D
100
AcDbEntity
  8
TEXT
100
AcDbMText
 10
952.92829999999992
 20
-889.91799999999989
 30
0.0
 40
50.799999999999997
 41
0.0
 71
               1
 72
               1
  1
自動食器洗浄機
  7
________
  0
LINE
  5
39E
100
AcDbEntity
  8
OBJECT
100
AcDbLine
 10
970.11729999999989
 20
-800.0
 30
0.0
 11
2204.0
 21
-800.0
 31
0.0
  0
POLYLINE
  5
39F
100
AcDbEntity
  8
OBJECT
100
AcDb2dPolyline
 66
               1
 10
0.0
 20
0.0
 30
0.0
 70
               1
 75
               5
  0
VERTEX
  5
3A0
100
AcDbEntity
  8
OBJECT
100
AcDbVertex
100
AcDb2dVertex
 10
1376.9999999999998
 20
-160.00000000000006
 30
0.0
  0
VERTEX
  5
3A1
100
AcDbEntity
  8
OBJECT
100
AcDbVertex
100
AcDb2dVertex
 10
1378.9999999999998
 20
-160.00000000000006
 30
0.0
  0
VERTEX
  5
3A2
100
AcDbEntity
  8
OBJECT
100
AcDbVertex
100
AcDb2dVertex
 10
1381.9999999999998
 20
-160.00000000000006
 30
0.0
  0
VERTEX
  5
3A3
100
AcDbEntity
  8
OBJECT
100
AcDbVertex
100
AcDb2dVertex
 10
1381.9999999999998
 20
-162.00000000000006
 30
0.0
  0
VERTEX
  5
3A4
100
AcDbEntity
  8
OBJECT
100
AcDbVertex
100
AcDb2dVertex
 10
1378.9999999999998
 20
-162.00000000000006
 30
0.0
  0
VERTEX
  5
3A5
100
AcDbEntity
  8
OBJECT
100
AcDbVertex
100
AcDb2dVertex
 10
1378.9999999999998
 20
-170.00000000000006
 30
0.0
  0
VERTEX
  5
3A6
100
AcDbEntity
  8
OBJECT
100
AcDbVertex
100
AcDb2dVertex
 10
1376.9999999999998
 20
-170.00000000000006
 30
0.0
  0
SEQEND
  5
3A7
100
AcDbEntity
  8
OBJECT
  0
LWPOLYLINE
  5
3A8
100
AcDbEntity
  8
OBJECT
100
AcDbPolyline
 90
        6
 70
             129
 10
1381.9999999999998
 20
-162.00000000000006
 10
1384.9999999999998
 20
-162.00000000000006
 42
-0.4142135623730895
 10
1387.9999999999998
 20
-165.00000000000006
 10
1387.9999999999998
 20
-577.0
 42
-0.414213562373084
 10
1384.9999999999998
 20
-580.0
 10
1381.9999999999998
 20
-580.0
  0
LINE
  5
3A9
100
AcDbEntity
  8
OBJECT
100
AcDbLine
 10
1376.9999999999998
 20
-160.00000000000006
 30
0.0
 11
1441.9999999999998
 21
-160.00000000000006
 31
0.0
  0
LINE
  5
3AA
100
AcDbEntity
  8
OBJECT
100
AcDbLine
 10
1376.9999999999998
 20
-5.0
 30
0.0
 11
1376.9999999999998
 21
-160.00000000000006
 31
0.0
  0
LINE
  5
3AB
100
AcDbEntity
  8
OBJECT
100
AcDbLine
 10
-414.0
 20
910.0
 30
0.0
 11
-414.0
 21
1515.0
 31
0.0
  0
LINE
  5
3AC
100
AcDbEntity
  8
OBJECT
100
AcDbLine
 10
-402.0
 20
898.0
 30
0.0
 11
-414.0
 21
910.0
 31
0.0
  0
LINE
  5
3AD
100
AcDbEntity
  8
OBJECT
100
AcDbLine
 10
200.0
 20
898.0
 30
0.0
 11
-402.0
 21
898.0
 31
0.0
  0
LINE
  5
3AE
100
AcDbEntity
  8
OBJECT
100
AcDbLine
 10
212.0
 20
910.0
 30
0.0
 11
200.0
 21
898.0
 31
0.0
  0
LINE
  5
3AF
100
AcDbEntity
  8
OBJECT
100
AcDbLine
 10
212.0
 20
1515.0
 30
0.0
 11
212.0
 21
910.0
 31
0.0
  0
LINE
  5
3B0
100
AcDbEntity
  8
OBJECT
100
AcDbLine
 10
-412.0
 20
1515.0
 30
0.0
 11
212.0
 21
1515.0
 31
0.0
  0
POLYLINE
  5
3B1
100
AcDbEntity
  8
OBJECT
100
AcDb2dPolyline
 66
               1
 10
0.0
 20
0.0
 30
0.0
 70
               1
 75
               5
  0
VERTEX
  5
3B2
100
AcDbEntity
  8
OBJECT
100
AcDbVertex
100
AcDb2dVertex
 10
-400.0
 20
1515.0
 30
0.0
  0
VERTEX
  5
3B3
100
AcDbEntity
  8
OBJECT
100
AcDbVertex
100
AcDb2dVertex
 10
200.0
 20
1515.0
 30
0.0
  0
VERTEX
  5
3B4
100
AcDbEntity
  8
OBJECT
100
AcDbVertex
100
AcDb2dVertex
 10
200.0
 20
910.0
 30
0.0
  0
VERTEX
  5
3B5
100
AcDbEntity
  8
OBJECT
100
AcDbVertex
100
AcDb2dVertex
 10
-400.0
 20
910.0
 30
0.0
  0
SEQEND
  5
3B6
100
AcDbEntity
  8
OBJECT
  0
LINE
  5
3B7
100
AcDbEntity
  8
CENTER
100
AcDbLine
 10
-100.0
 20
1562.5
 30
0.0
 11
-100.0
 21
862.5
 31
0.0
  0
LWPOLYLINE
  5
3B8
100
AcDbEntity
  8
HIDDEN
100
AcDbPolyline
 90
        5
 70
             129
 10
-195.0
 20
1329.9999999999998
 42
-0.414213562373095
 10
-170.0
 20
1354.9999999999998
 42
-0.414213562373095
 10
-145.0
 20
1329.9999999999998
 42
-0.414213562373095
 10
-170.0
 20
1304.9999999999998
 42
-0.414213562373095
 10
-195.0
 20
1329.9999999999998
 42
-0.414213562373095
  0
LINE
  5
3B9
100
AcDbEntity
  8
CENTER
100
AcDbLine
 10
-210.0
 20
1329.9999999999998
 30
0.0
 11
-130.0
 21
1329.9999999999998
 31
0.0
  0
LINE
  5
3BA
100
AcDbEntity
  8
CENTER
100
AcDbLine
 10
-170.0
 20
1369.9999999999998
 30
0.0
 11
-170.0
 21
1289.9999999999998
 31
0.0
  0
POLYLINE
  5
3BB
100
AcDbEntity
  8
OBJECT
100
AcDb2dPolyline
 66
               1
 10
0.0
 20
0.0
 30
0.0
 70
               1
 75
               5
  0
VERTEX
  5
3BC
100
AcDbEntity
  8
OBJECT
100
AcDbVertex
100
AcDb2dVertex
 10
-396.0
 20
1466.0
 30
0.0
  0
VERTEX
  5
3BD
100
AcDbEntity
  8
OBJECT
100
AcDbVertex
100
AcDb2dVertex
 10
-400.0
 20
1470.0
 30
0.0
  0
VERTEX
  5
3BE
100
AcDbEntity
  8
OBJECT
100
AcDbVertex
100
AcDb2dVertex
 10
-400.0
 20
1515.0
 30
0.0
  0
VERTEX
  5
3BF
100
AcDbEntity
  8
OBJECT
100
AcDbVertex
100
AcDb2dVertex
 10
200.0
 20
1515.0
 30
0.0
  0
VERTEX
  5
3C0
100
AcDbEntity
  8
OBJECT
100
AcDbVertex
100
AcDb2dVertex
 10
200.0
 20
1470.0
 30
0.0
  0
VERTEX
  5
3C1
100
AcDbEntity
  8
OBJECT
100
AcDbVertex
100
AcDb2dVertex
 10
196.0
 20
1466.0
 30
0.0
  0
VERTEX
  5
3C2
100
AcDbEntity
  8
OBJECT
100
AcDbVertex
100
AcDb2dVertex
 10
193.1715999999999
 20
1468.8283999999999
 30
0.0
  0
VERTEX
  5
3C3
100
AcDbEntity
  8
OBJECT
100
AcDbVertex
100
AcDb2dVertex
 10
196.0
 20
1471.6568
 30
0.0
  0
VERTEX
  5
3C4
100
AcDbEntity
  8
OBJECT
100
AcDbVertex
100
AcDb2dVertex
 10
196.0
 20
1511.0
 30
0.0
  0
VERTEX
  5
3C5
100
AcDbEntity
  8
OBJECT
100
AcDbVertex
100
AcDb2dVertex
 10
-396.0
 20
1511.0
 30
0.0
  0
VERTEX
  5
3C6
100
AcDbEntity
  8
OBJECT
100
AcDbVertex
100
AcDb2dVertex
 10
-396.0
 20
1471.6568
 30
0.0
  0
VERTEX
  5
3C7
100
AcDbEntity
  8
OBJECT
100
AcDbVertex
100
AcDb2dVertex
 10
-393.1715999999999
 20
1468.8283999999999
 30
0.0
  0
SEQEND
  5
3C8
100
AcDbEntity
  8
OBJECT
  0
LINE
  5
3C9
100
AcDbEntity
  8
OBJECT
100
AcDbLine
 10
-765.0
 20
-800.0
 30
0.0
 11
555.0
 21
-800.0
 31
0.0
  0
LINE
  5
3CA
100
AcDbEntity
  8
OBJECT
100
AcDbLine
 10
-400.0
 20
-160.00000000000006
 30
0.0
 11
-400.0
 21
-15.0
 31
0.0
  0
LINE
  5
3CB
100
AcDbEntity
  8
OBJECT
100
AcDbLine
 10
200.0
 20
-15.0
 30
0.0
 11
200.0
 21
-160.00000000000006
 31
0.0
  0
LWPOLYLINE
  5
3CC
100
AcDbEntity
  8
OBJECT
100
AcDbPolyline
 90
        6
 70
             129
 10
-400.0
 20
-160.00000000000006
 10
200.0
 20
-160.00000000000006
 10
200.0
 20
-165.00000000000006
 42
-0.414213562373095
 10
195.0
 20
-170.00000000000006
 10
-395.0
 20
-170.00000000000006
 42
-0.414213562373095
 10
-400.0
 20
-165.00000000000006
  0
LINE
  5
3CD
100
AcDbEntity
  8
CENTER
100
AcDbLine
 10
-100.0
 20
619.99999999999989
 30
0.0
 11
-100.0
 21
-821.0
 31
0.0
  0
LINE
  5
3CE
100
AcDbEntity
  8
OBJECT
100
AcDbLine
 10
-620.0
 20
1565.0
 30
0.0
 11
422.0
 21
1565.0
 31
0.0
  0
LINE
  5
3CF
100
AcDbEntity
  8
CENTER
100
AcDbLine
 10
416.0
 20
1204.9999999999998
 30
0.0
 11
-486.0
 21
1204.9999999999998
 31
0.0
  0
LINE
  5
3D0
100
AcDbEntity
  8
OBJECT
100
AcDbLine
 10
-400.0
 20
1515.0
 30
0.0
 11
-400.0
 21
1527.0
 31
0.0
  0
LINE
  5
3D1
100
AcDbEntity
  8
OBJECT
100
AcDbLine
 10
200.0
 20
1515.0
 30
0.0
 11
-400.0
 21
1515.0
 31
0.0
  0
POLYLINE
  5
3D2
100
AcDbEntity
  8
OBJECT
100
AcDb2dPolyline
 66
               1
 10
0.0
 20
0.0
 30
0.0
 75
               5
  0
VERTEX
  5
3D3
100
AcDbEntity
  8
OBJECT
100
AcDbVertex
100
AcDb2dVertex
 10
200.0
 20
-164.17940000000004
 30
0.0
  0
VERTEX
  5
3D4
100
AcDbEntity
  8
OBJECT
100
AcDbVertex
100
AcDb2dVertex
 10
200.0
 20
-580.0
 30
0.0
  0
VERTEX
  5
3D5
100
AcDbEntity
  8
OBJECT
100
AcDbVertex
100
AcDb2dVertex
 10
-400.0
 20
-580.0
 30
0.0
  0
VERTEX
  5
3D6
100
AcDbEntity
  8
OBJECT
100
AcDbVertex
100
AcDb2dVertex
 10
-400.0
 20
-164.17940000000004
 30
0.0
  0
SEQEND
  5
3D7
100
AcDbEntity
  8
OBJECT
  0
LINE
  5
3D8
100
AcDbEntity
  8
OBJECT
100
AcDbLine
 10
1381.9999999999998
 20
-580.0
 30
0.0
 11
1921.9999999999998
 21
-580.0
 31
0.0
  0
INSERT
  5
3D9
100
AcDbEntity
  8
OBJECT
100
AcDbBlockReference
  2
*U1
 10
1014.1172999999999
 20
428.99999999999994
 30
0.0
  0
LINE
  5
3DA
100
AcDbEntity
  8
OBJECT
100
AcDbLine
 10
-508.0
 20
-645.0
 30
0.0
 11
-390.5
 21
-645.0
 31
0.0
  0
LINE
  5
3DB
100
AcDbEntity
  8
OBJECT
100
AcDbLine
 10
-390.5
 20
-635.0
 30
0.0
 11
-508.0
 21
-635.0
 31
0.0
  0
INSERT
  5
3DC
100
AcDbEntity
  8
OBJECT
100
AcDbBlockReference
  2
*U4
 10
1014.1172999999999
 20
428.99999999999994
 30
0.0
  0
LINE
  5
3DD
100
AcDbEntity
  8
OBJECT
100
AcDbLine
 10
-195.0
 20
-595.93020000000001
 30
0.0
 11
-195.0
 21
-580.0
 31
0.0
  0
LINE
  5
3DE
100
AcDbEntity
  8
OBJECT
100
AcDbLine
 10
-193.0
 20
-620.0
 30
0.0
 11
-195.0
 21
-595.93020000000001
 31
0.0
  0
LINE
  5
3DF
100
AcDbEntity
  8
OBJECT
100
AcDbLine
 10
-147.0
 20
-620.0
 30
0.0
 11
-193.0
 21
-620.0
 31
0.0
  0
LINE
  5
3E0
100
AcDbEntity
  8
OBJECT
100
AcDbLine
 10
-146.1690832495492
 20
-610.0
 30
0.0
 11
-147.0
 21
-620.0
 31
0.0
  0
LINE
  5
3E1
100
AcDbEntity
  8
OBJECT
100
AcDbLine
 10
-195.0
 20
-595.93020000000001
 30
0.0
 11
-150.87936250000007
 21
-595.93020000000001
 31
0.0
  0
LINE
  5
3E2
100
AcDbEntity
  8
OBJECT
100
AcDbLine
 10
-188.0
 20
-620.0
 30
0.0
 11
-190.0
 21
-595.93020000000001
 31
0.0
  0
LINE
  5
3E3
100
AcDbEntity
  8
OBJECT
100
AcDbLine
 10
-152.0
 20
-620.0
 30
0.0
 11
-150.56459122042475
 21
-602.72499887868889
 31
0.0
  0
LINE
  5
3E4
100
AcDbEntity
  8
CENTER
100
AcDbLine
 10
-170.0
 20
-544.5
 30
0.0
 11
-170.0
 21
-658.5
 31
0.0
  0
LINE
  5
3E5
100
AcDbEntity
  8
OBJECT
100
AcDbLine
 10
-400.0
 20
1527.0
 30
0.0
 11
-57.0
 21
1527.0
 31
0.0
  0
LINE
  5
3E6
100
AcDbEntity
  8
OBJECT
100
AcDbLine
 10
-43.0
 20
1527.0
 30
0.0
 11
200.0
 21
1527.0
 31
0.0
  0
LINE
  5
3E7
100
AcDbEntity
  8
OBJECT
100
AcDbLine
 10
1981.9999999999998
 20
-439.99999999999994
 30
0.0
 11
1981.9999999999998
 21
-249.9999999999996
 31
0.0
  0
LINE
  5
3E8
100
AcDbEntity
  8
OBJECT
100
AcDbLine
 10
1981.9999999999998
 20
-164.379281022763
 30
0.0
 11
1981.9999999999998
 21
-5.0
 31
0.0
  0
DIMENSION
  5
3E9
100
AcDbEntity
  8
DIMENTION
100
AcDbDimension
  2
*D5
 10
1143.0022222222221
 20
0.0
 30
0.0
 11
1142.0022222222221
 21
-400.00000000000006
 31
0.0
 70
             128
  3
CAD
100
AcDbAlignedDimension
 13
1376.1172999999999
 23
-800.0
 33
0.0
 14
1364.9999999999998
 24
0.0
 34
0.0
 50
90.0
100
AcDbRotatedDimension
1001
ACAD
1000
DSTYLE
1002
{
1070
             271
1070
               0
1070
             340
1005
64
1070
               3
1000
<>（基準高さ
1070
             147
1040
0.9999999999999999
1002
}
  0
DIMENSION
  5
3EA
100
AcDbEntity
  8
DIMENTION
100
AcDbDimension
  2
*D6
 10
1074.0
 20
-800.0
 30
0.0
 11
1073.0
 21
-117.00012207031256
 31
0.0
 70
             128
  3
CAD
100
AcDbAlignedDimension
 13
1675.0
 23
565.0
 33
0.0
 14
1171.0
 24
-800.0
 34
0.0
 50
90.0
100
AcDbRotatedDimension
1001
ACAD
1000
DSTYLE
1002
{
1070
             271
1070
               0
1070
             340
1005
64
1070
             147
1040
0.9999999999999999
1002
}
  0
DIMENSION
  5
3EB
100
AcDbEntity
  8
DIMENTION
100
AcDbDimension
  2
*D7
 10
-464.28269999999998
 20
1204.9999999999998
 30
0.0
 11
-464.28269999999998
 21
1057.5
 31
0.0
  3
CAD
100
AcDbAlignedDimension
 13
-408.0
 23
910.0
 33
0.0
 14
-417.0
 24
1204.9999999999998
 34
0.0
 50
90.0
100
AcDbRotatedDimension
1001
ACAD
1000
DSTYLE
1002
{
1070
             271
1070
               0
1070
             340
1005
64
1070
             147
1040
0.9999999999999999
1002
}
  0
DIMENSION
  5
3EC
100
AcDbEntity
  8
DIMENTION
100
AcDbDimension
  2
*D8
 10
-233.28269999999998
 20
1329.9999999999998
 30
0.0
 11
-233.28269999999998
 21
1267.4999999999998
 31
0.0
  3
CAD
100
AcDbAlignedDimension
 13
-173.28269999999998
 23
1204.9999999999998
 33
0.0
 14
-195.0
 24
1329.9999999999998
 34
0.0
 50
90.0
100
AcDbRotatedDimension
1001
ACAD
1000
DSTYLE
1002
{
1070
             271
1070
               0
1070
             340
1005
64
1070
             147
1040
0.9999999999999999
1002
}
  0
DIMENSION
  5
3ED
100
AcDbEntity
  8
DIMENTION
100
AcDbDimension
  2
*D9
 10
-100.0
 20
1266.9999999999998
 30
0.0
 11
-135.0
 21
1266.9999999999998
 31
0.0
  3
CAD
100
AcDbAlignedDimension
 13
-170.0
 23
1329.9999999999998
 33
0.0
 14
-100.0
 24
1309.9999999999998
 34
0.0
100
AcDbRotatedDimension
1001
ACAD
1000
DSTYLE
1002
{
1070
             271
1070
               0
1070
             340
1005
64
1070
             147
1040
0.9999999999999999
1002
}
  0
DIMENSION
  5
3EE
100
AcDbEntity
  8
DIMENTION
100
AcDbDimension
  2
*D10
 10
-528.28269999999998
 20
910.0
 30
0.0
 11
-528.28269999999998
 21
1212.5
 31
0.0
  3
CAD
100
AcDbAlignedDimension
 13
-407.0
 23
1515.0
 33
0.0
 14
-407.0
 24
910.0
 34
0.0
 50
90.0
100
AcDbRotatedDimension
1001
ACAD
1000
DSTYLE
1002
{
1070
             271
1070
               0
1070
             340
1005
64
1070
             147
1040
0.9999999999999999
1002
}
  0
DIMENSION
  5
3EF
100
AcDbEntity
  8
DIMENTION
100
AcDbDimension
  2
*D11
 10
-528.28269999999998
 20
898.0
 30
0.0
 11
-529.28269999999998
 21
873.0
 31
0.0
 70
             128
  3
CAD
100
AcDbAlignedDimension
 13
-419.0
 23
910.0
 33
0.0
 14
-396.0
 24
898.0
 34
0.0
 50
90.0
100
AcDbRotatedDimension
1001
ACAD
1000
DSTYLE
1002
{
1070
             271
1070
               0
1070
             340
1005
64
1070
             174
1070
               0
1070
             147
1040
0.9999999999999999
1002
}
  0
DIMENSION
  5
3F0
100
AcDbEntity
  8
DIMENTION
100
AcDbDimension
  2
*D12
 10
-400.0
 20
777.0
 30
0.0
 11
-96.282958984375
 21
778.0
 31
0.0
 70
             128
  3
CAD
100
AcDbAlignedDimension
 13
200.0
 23
898.0
 33
0.0
 14
-400.0
 24
898.0
 34
0.0
100
AcDbRotatedDimension
1001
ACAD
1000
DSTYLE
1002
{
1070
             271
1070
               0
1070
             340
1005
64
1070
             147
1040
0.9999999999999999
1002
}
  0
DIMENSION
  5
3F1
100
AcDbEntity
  8
DIMENTION
100
AcDbDimension
  2
*D13
 10
-528.28269999999998
 20
1515.0
 30
0.0
 11
-529.28269999999998
 21
1610.4750011213109
 31
0.0
 70
             128
  3
CAD
100
AcDbAlignedDimension
 13
-412.0
 23
1565.0
 33
0.0
 14
-412.0
 24
1515.0
 34
0.0
 50
90.0
100
AcDbRotatedDimension
1001
ACAD
1000
DSTYLE
1002
{
1070
             271
1070
               0
1070
             340
1005
64
1070
               3
1000
<>以上
1070
             174
1070
               0
1070
             147
1040
0.9999999999999999
1002
}
  0
DIMENSION
  5
3F2
100
AcDbEntity
  8
DIMENTION
100
AcDbDimension
  2
*D14
 10
-463.0
 20
-580.0
 30
0.0
 11
-463.0
 21
-690.0
 31
0.0
  3
CAD
100
AcDbAlignedDimension
 13
-369.5
 23
-800.0
 33
0.0
 14
-399.5
 24
-580.0
 34
0.0
 50
90.0
100
AcDbRotatedDimension
1001
ACAD
1000
DSTYLE
1002
{
1070
             271
1070
               0
1070
             340
1005
64
1070
             147
1040
0.9999999999999999
1002
}
  0
DIMENSION
  5
3F3
100
AcDbEntity
  8
DIMENTION
100
AcDbDimension
  2
*D15
 10
-232.5
 20
-620.0
 30
0.0
 11
-233.5
 21
-710.0
 31
0.0
 70
             128
  3
CAD
100
AcDbAlignedDimension
 13
-220.0
 23
-800.0
 33
0.0
 14
-193.0
 24
-620.0
 34
0.0
 50
90.0
100
AcDbRotatedDimension
1001
ACAD
1000
DSTYLE
1002
{
1070
             271
1070
               0
1070
             340
1005
64
1070
             147
1040
0.9999999999999999
1002
}
  0
MTEXT
  5
3F4
100
AcDbEntity
  8
TEXT
100
AcDbMText
 10
1662.7162253940146
 20
-880.77917460598428
 30
0.0
 40
50.800000000000004
 41
0.0
 71
               1
 72
               1
  1
SD114E3B
  7
________
  0
LINE
  5
3F5
100
AcDbEntity
  8
DIMENTION
100
AcDbLine
 10
-577.0
 20
1432.9999999999998
 30
0.0
 11
-797.0
 21
1432.9999999999998
 31
0.0
  0
MTEXT
  5
3F6
100
AcDbEntity
  8
DIMENTION
100
AcDbMText
 10
-793.5
 20
1478.6279
 30
0.0
 40
33.866666666666667
 41
0.0
 71
               1
 72
               1
  1
排水口 40A\Pおすねじ
  7
________
  0
LINE
  5
3F7
100
AcDbEntity
  8
DIMENTION
100
AcDbLine
 10
-577.29514358974848
 20
1382.9999999999998
 30
0.0
 11
-797.29514358974848
 21
1382.9999999999998
 31
0.0
  0
LINE
  5
3F8
100
AcDbEntity
  8
DIMENTION
100
AcDbLine
 10
-577.34359999999992
 20
1382.9999999999998
 30
0.0
 11
-577.34359999999992
 21
1432.9999999999998
 31
0.0
  0
LINE
  5
3F9
100
AcDbEntity
  8
DIMENTION
100
AcDbLine
 10
-194.23590000000013
 20
1336.1333999999999
 30
0.0
 11
-577.0
 21
1432.9999999999998
 31
0.0
  0
LINE
  5
3FA
100
AcDbEntity
  8
DIMENTION
100
AcDbLine
 10
-194.23590000000013
 20
1336.1333999999999
 30
0.0
 11
-227.10591872802024
 21
1336.1333999999999
 31
0.0
  0
LINE
  5
3FB
100
AcDbEntity
  8
DIMENTION
100
AcDbLine
 10
-194.23590000000013
 20
1336.1333999999999
 30
0.0
 11
-222.70217124133592
 21
1352.56840936401
 31
0.0
  0
LINE
  5
3FC
100
AcDbEntity
  8
OBJECT
100
AcDbLine
 10
-568.0
 20
-585.0
 30
0.0
 11
-568.0
 21
-533.0
 31
0.0
  0
LINE
  5
3FD
100
AcDbEntity
  8
OBJECT
100
AcDbLine
 10
-558.0
 20
-533.0
 30
0.0
 11
-558.0
 21
-585.0
 31
0.0
  0
ARC
  5
3FE
100
AcDbEntity
  8
OBJECT
100
AcDbCircle
 10
-508.0
 20
-585.0
 30
0.0
 40
50.0
100
AcDbArc
 50
180.0
 51
270.0
  0
ARC
  5
3FF
100
AcDbEntity
  8
OBJECT
100
AcDbCircle
 10
-508.0
 20
-585.0
 30
0.0
 40
60.0
100
AcDbArc
 50
180.0
 51
270.0
  0
DIMENSION
  5
400
100
AcDbEntity
  8
DIMENTION
100
AcDbDimension
  2
*D16
 10
-400.0
 20
777.0
 30
0.0
 11
-441.0
 21
777.99990000000003
 31
0.0
 70
             128
  1
12
  3
CAD
100
AcDbAlignedDimension
 13
-414.0
 23
910.0
 33
0.0
 14
-400.0
 24
910.0
 34
0.0
100
AcDbRotatedDimension
1001
ACAD
1000
DSTYLE
1002
{
1070
             340
1005
64
1070
             174
1070
               0
1070
             147
1040
0.9998999999999999
1002
}
  0
LINE
  5
401
100
AcDbEntity
  8
OBJECT
100
AcDbLine
 10
1921.9999999999998
 20
-580.0
 30
0.0
 11
1921.9999999999998
 21
-500.00000000000006
 31
0.0
  0
LINE
  5
402
100
AcDbEntity
  8
OBJECT
100
AcDbLine
 10
1941.9999999999998
 20
-439.99999999999994
 30
0.0
 11
1981.9999999999998
 21
-439.99999999999994
 31
0.0
  0
LINE
  5
403
100
AcDbEntity
  8
OBJECT
100
AcDbLine
 10
-564.0
 20
-533.0
 30
0.0
 11
-564.0
 21
-518.0
 31
0.0
  0
LINE
  5
404
100
AcDbEntity
  8
OBJECT
100
AcDbLine
 10
-566.0
 20
-533.0
 30
0.0
 11
-566.0
 21
-518.0
 31
0.0
  0
LINE
  5
405
100
AcDbEntity
  8
OBJECT
100
AcDbLine
 10
-560.0
 20
-533.0
 30
0.0
 11
-560.0
 21
-518.0
 31
0.0
  0
LINE
  5
406
100
AcDbEntity
  8
OBJECT
100
AcDbLine
 10
-562.0
 20
-533.0
 30
0.0
 11
-562.0
 21
-518.0
 31
0.0
  0
LINE
  5
407
100
AcDbEntity
  8
OBJECT
100
AcDbLine
 10
-568.0
 20
-533.0
 30
0.0
 11
-558.0
 21
-533.0
 31
0.0
  0
LINE
  5
408
100
AcDbEntity
  8
OBJECT
100
AcDbLine
 10
-567.0
 20
-533.0
 30
0.0
 11
-573.79999999999995
 21
-517.39999999999986
 31
0.0
  0
LINE
  5
409
100
AcDbEntity
  8
OBJECT
100
AcDbLine
 10
1981.9999999999998
 20
-466.99999999999994
 30
0.0
 11
1941.9999999999998
 21
-466.99999999999994
 31
0.0
  0
LINE
  5
40A
100
AcDbEntity
  8
OBJECT
100
AcDbLine
 10
1981.9999999999998
 20
-452.99999999999994
 30
0.0
 11
1941.9999999999998
 21
-452.99999999999994
 31
0.0
  0
LINE
  5
40B
100
AcDbEntity
  8
OBJECT
100
AcDbLine
 10
2008.9999999999998
 20
5.0
 30
0.0
 11
2008.9999999999998
 21
-439.99999999999994
 31
0.0
  0
LINE
  5
40C
100
AcDbEntity
  8
OBJECT
100
AcDbLine
 10
1994.9999999999998
 20
5.0
 30
0.0
 11
1994.9999999999998
 21
-178.3416677634462
 31
0.0
  0
LINE
  5
40D
100
AcDbEntity
  8
OBJECT
100
AcDbLine
 10
1994.9999999999998
 20
-249.9999999999996
 30
0.0
 11
1994.9999999999998
 21
-439.99999999999994
 31
0.0
  0
ARC
  5
40E
100
AcDbEntity
  8
OBJECT
100
AcDbCircle
 10
1981.9999999999998
 20
-439.99999999999994
 30
0.0
 40
13.0
100
AcDbArc
 50
270.0
 51
0.0
  0
ARC
  5
40F
100
AcDbEntity
  8
OBJECT
100
AcDbCircle
 10
1981.9999999999998
 20
-439.99999999999994
 30
0.0
 40
27.0
100
AcDbArc
 50
270.0
 51
0.0
  0
LINE
  5
410
100
AcDbEntity
  8
OBJECT
100
AcDbLine
 10
1381.9999999999998
 20
-160.00000000000006
 30
0.0
 11
1381.9999999999998
 21
-580.0
 31
0.0
  0
MTEXT
  5
411
100
AcDbEntity
  8
DIMENTION
100
AcDbMText
 10
408.5
 20
1434.8436999999999
 30
0.0
 40
33.866666666666667
 41
0.0
 71
               1
 72
               1
  1
ラック通過センター
  7
________
  0
LINE
  5
412
100
AcDbEntity
  8
DIMENTION
100
AcDbLine
 10
-100.0
 20
1204.9999999999998
 30
0.0
 11
399.74999999999989
 21
1388.8436999999999
 31
0.0
  0
LINE
  5
413
100
AcDbEntity
  8
DIMENTION
100
AcDbLine
 10
-100.0
 20
1204.9999999999998
 30
0.0
 11
-73.074456963124931
 21
1223.8534682048098
 31
0.0
  0
LINE
  5
414
100
AcDbEntity
  8
DIMENTION
100
AcDbLine
 10
-100.0
 20
1204.9999999999998
 30
0.0
 11
-67.255061616969897
 21
1207.8648108963698
 31
0.0
  0
LINE
  5
415
100
AcDbEntity
  8
DIMENTION
100
AcDbLine
 10
399.74999999999989
 20
1388.8436999999999
 30
0.0
 11
739.74999999999989
 21
1388.8436999999999
 31
0.0
  0
LINE
  5
416
100
AcDbEntity
  8
OBJECT
100
AcDbLine
 10
1872.9999999999998
 20
-760.0
 30
0.0
 11
1910.9999999999998
 21
-760.0
 31
0.0
  0
LINE
  5
417
100
AcDbEntity
  8
OBJECT
100
AcDbLine
 10
200.0
 20
1515.0
 30
0.0
 11
200.0
 21
1527.0
 31
0.0
  0
MTEXT
  5
418
100
AcDbEntity
  8
TEXT
100
AcDbMText
 10
2215.0
 20
-645.0
 30
0.0
 40
33.866666666666667
 41
0.0
 71
               1
 72
               1
  1
注）指示なき寸法公差は±5とする
  7
________
  0
MTEXT
  5
419
100
AcDbEntity
  8
TEXT
100
AcDbMText
 10
2215.0
 20
-499.08329999999995
 30
0.0
 40
33.866666666666667
 41
0.0
 71
               1
 72
               1
  1
注）アジャスト調整範囲：\P　　基準高さ（800）に対して-30，+60
  7
________
  0
MTEXT
  5
41A
100
AcDbEntity
  8
DIMENTION
100
AcDbMText
 10
-855.20129999999995
 20
-386.90270000000004
 30
0.0
 40
33.866666666666667
 41
0.0
 71
               1
 72
               1
  1
電源コード\P3m，VCT，5.5mm ×４
  7
________
  0
MTEXT
  5
41B
100
AcDbEntity
  8
DIMENTION
100
AcDbMText
 10
-552.71487119229641
 20
-436.94166554535587
 30
0.0
 40
16.933333333333334
 41
0.0
 71
               1
 72
               1
  1
2
  7
________
  0
INSERT
  5
41C
100
AcDbEntity
  8
OBJECT
100
AcDbBlockReference
  2
*U17
 10
1014.1172999999999
 20
428.99999999999994
 30
0.0
  0
LINE
  5
41D
100
AcDbEntity
  8
DIMENTION
100
AcDbLine
 10
549.4582871604232
 20
-649.26209999999992
 30
0.0
 11
769.4582871604232
 21
-649.26209999999992
 31
0.0
  0
MTEXT
  5
41E
100
AcDbEntity
  8
DIMENTION
100
AcDbMText
 10
564.6712
 20
-601.06349999999975
 30
0.0
 40
33.866666666666667
 41
0.0
 71
               1
 72
               1
  1
タンクドレン\P8Aおすねじ
  7
________
  0
LINE
  5
41F
100
AcDbEntity
  8
DIMENTION
100
AcDbLine
 10
549.10369999999989
 20
-699.26209999999992
 30
0.0
 11
769.10369999999989
 21
-699.26209999999992
 31
0.0
  0
LINE
  5
420
100
AcDbEntity
  8
DIMENTION
100
AcDbLine
 10
549.10369999999989
 20
-649.26209999999992
 30
0.0
 11
549.10369999999989
 21
-699.26209999999992
 31
0.0
  0
LINE
  5
421
100
AcDbEntity
  8
DIMENTION
100
AcDbLine
 10
279.99999999999909
 20
-528.99999999999955
 30
0.0
 11
549.4582871604232
 21
-649.26209999999992
 31
0.0
  0
LINE
  5
422
100
AcDbEntity
  8
DIMENTION
100
AcDbLine
 10
279.99999999999909
 20
-528.99999999999955
 30
0.0
 11
312.37064928500979
 21
-534.70781885199813
 31
0.0
  0
LINE
  5
423
100
AcDbEntity
  8
DIMENTION
100
AcDbLine
 10
279.99999999999909
 20
-528.99999999999955
 30
0.0
 11
305.1798951918156
 21
-550.12844076853548
 31
0.0
  0
LINE
  5
424
100
AcDbEntity
  8
OBJECT
100
AcDbLine
 10
1994.9999999999998
 20
-255.99999999999994
 30
0.0
 11
1994.9999999999998
 21
-409.99999999999994
 31
0.0
  0
LINE
  5
425
100
AcDbEntity
  8
DIMENTION
100
AcDbLine
 10
2159.0
 20
-383.99999999999994
 30
0.0
 11
2439.0
 21
-383.99999999999994
 31
0.0
  0
LINE
  5
426
100
AcDbEntity
  8
DIMENTION
100
AcDbLine
 10
2159.0
 20
-383.99999999999994
 30
0.0
 11
1989.9767954743704
 21
-249.9999999999996
 31
0.0
  0
LINE
  5
427
100
AcDbEntity
  8
DIMENTION
100
AcDbLine
 10
1989.9767954743704
 20
-249.9999999999996
 30
0.0
 11
2020.0050517759805
 21
-263.36944107527319
 31
0.0
  0
LINE
  5
428
100
AcDbEntity
  8
DIMENTION
100
AcDbLine
 10
1989.9767954743704
 20
-249.9999999999996
 30
0.0
 11
2009.2973077252782
 21
-276.59240375639064
 31
0.0
  0
MTEXT
  5
429
100
AcDbEntity
  8
DIMENTION
100
AcDbMText
 10
2167.9870000000001
 20
-339.05009999999999
 30
0.0
 40
33.866666666666667
 41
0.0
 71
               1
 72
               1
  1
オーバーフロー
  7
________
  0
MTEXT
  5
42A
100
AcDbEntity
  8
TEXT
100
AcDbMText
 10
2171.884
 20
1050.3842888888887
 30
0.0
 40
33.866666666666667
 41
798.11600000000021
 71
               1
 72
               1
  1
※洗剤，リンス剤及び供給装置については、\P　洗剤メーカーにご相談ください。
  7
________
  0
INSERT
  5
42B
100
AcDbEntity
  8
OBJECT
100
AcDbBlockReference
  2
*U18
 10
1014.1172999999999
 20
428.99999999999994
 30
0.0
  0
INSERT
  5
42C
100
AcDbEntity
  8
OBJECT
100
AcDbBlockReference
  2
*U19
 10
1014.1172999999999
 20
428.99999999999994
 30
0.0
  0
LINE
  5
42D
100
AcDbEntity
  8
OBJECT
100
AcDbLine
 10
1392.9999999999998
 20
-760.0
 30
0.0
 11
1430.9999999999998
 21
-760.0
 31
0.0
  0
INSERT
  5
42E
100
AcDbEntity
  8
OBJECT
100
AcDbBlockReference
  2
*U20
 10
1014.1172999999999
 20
428.99999999999994
 30
0.0
  0
INSERT
  5
42F
100
AcDbEntity
  8
OBJECT
100
AcDbBlockReference
  2
*U21
 10
1014.1172999999999
 20
428.99999999999994
 30
0.0
  0
LINE
  5
430
100
AcDbEntity
  8
OBJECT
100
AcDbLine
 10
151.0
 20
-760.0
 30
0.0
 11
189.0
 21
-760.0
 31
0.0
  0
INSERT
  5
431
100
AcDbEntity
  8
OBJECT
100
AcDbBlockReference
  2
*U23
 10
1014.1172999999999
 20
428.99999999999994
 30
0.0
  0
INSERT
  5
432
100
AcDbEntity
  8
OBJECT
100
AcDbBlockReference
  2
*U24
 10
1014.1172999999999
 20
428.99999999999994
 30
0.0
  0
LINE
  5
433
100
AcDbEntity
  8
OBJECT
100
AcDbLine
 10
-389.0
 20
-760.0
 30
0.0
 11
-351.0
 21
-760.0
 31
0.0
  0
INSERT
  5
434
100
AcDbEntity
  8
OBJECT
100
AcDbBlockReference
  2
*U26
 10
1014.1172999999999
 20
428.99999999999994
 30
0.0
  0
POINT
  5
435
100
AcDbEntity
  8
HIDDEN
  6
CONTINUOUS
100
AcDbPoint
 10
-100.0
 20
-580.0
 30
0.0
  0
POINT
  5
436
100
AcDbEntity
  8
OBJECT
  6
CONTINUOUS
100
AcDbPoint
 10
1981.9999999999998
 20
-439.99999999999994
 30
0.0
  0
DIMENSION
  5
437
100
AcDbEntity
  8
DIMENTION
100
AcDbDimension
  2
*D27
 10
376.57679547437044
 20
-528.99999999999955
 30
0.0
 11
376.57679547437044
 21
-664.49999999999977
 31
0.0
  1
270
  3
CAD
100
AcDbAlignedDimension
 13
288.49999999999909
 23
-800.0
 33
0.0
 14
288.49999999999909
 24
-528.99999999999955
 34
0.0
 50
90.0
100
AcDbRotatedDimension
1001
ACAD
1000
DSTYLE
1002
{
1070
             340
1005
64
1070
             147
1040
0.9999999962747097
1002
}
  0
DIMENSION
  5
438
100
AcDbEntity
  8
DIMENTION
100
AcDbDimension
  2
*D28
 10
434.57679547437044
 20
-514.99999986990133
 30
0.0
 11
434.57679547437044
 21
-657.49999993495067
 31
0.0
  3
CAD
100
AcDbAlignedDimension
 13
340.50161328874253
 23
-800.0
 33
0.0
 14
340.50161328874253
 24
-514.99999986990133
 34
0.0
 50
90.0
100
AcDbRotatedDimension
1001
ACAD
1000
DSTYLE
1002
{
1070
             340
1005
64
1070
             147
1040
0.9999999962747097
1002
}
  0
DIMENSION
  5
439
100
AcDbEntity
  8
DIMENTION
100
AcDbDimension
  2
*D29
 10
488.07679547437044
 20
-109.19999999999942
 30
0.0
 11
488.07679547437044
 21
-454.59999999999974
 31
0.0
  1
690
  3
CAD
100
AcDbAlignedDimension
 13
466.07679547437044
 23
-800.0
 33
0.0
 14
351.29999999999893
 24
-109.19999999999942
 34
0.0
 50
90.0
100
AcDbRotatedDimension
1001
ACAD
1000
DSTYLE
1002
{
1070
             340
1005
64
1070
             147
1040
0.9999999962747097
1002
}
  0
DIMENSION
  5
43A
100
AcDbEntity
  8
DIMENTION
100
AcDbDimension
  2
*D30
 10
200.0
 20
777.0
 30
0.0
 11
276.85000000000002
 21
777.0
 31
0.0
  1
160
  3
CAD
100
AcDbAlignedDimension
 13
353.70000000000005
 23
973.79999999999995
 33
0.0
 14
200.0
 24
910.0
 34
0.0
100
AcDbRotatedDimension
1001
ACAD
1000
DSTYLE
1002
{
1070
             340
1005
64
1070
             147
1040
0.9999999962747097
1002
}
  0
DIMENSION
  5
43B
100
AcDbEntity
  8
DIMENTION
100
AcDbDimension
  2
*D31
 10
453.07679547437044
 20
1204.9999999999998
 30
0.0
 11
453.07679547437044
 21
1260.0999999999999
 31
0.0
  1
110
  3
CAD
100
AcDbAlignedDimension
 13
279.99999999999886
 23
1094.8
 33
0.0
 14
352.50000000000023
 24
1204.9999999999998
 34
0.0
 50
90.0
100
AcDbRotatedDimension
1001
ACAD
1000
DSTYLE
1002
{
1070
             340
1005
64
1070
             147
1040
0.9999999962747097
1002
}
  0
POINT
  5
43C
100
AcDbEntity
  8
CENTER
  6
CONTINUOUS
100
AcDbPoint
 10
1941.9999999999998
 20
-500.00000000000006
 30
0.0
  0
LINE
  5
43D
100
AcDbEntity
  8
OBJECT
100
AcDbLine
 10
1541.9999999999995
 20
-187.19274881007328
 30
0.0
 11
1508.4999999999995
 21
-174.99974596215549
 31
0.0
  0
LINE
  5
43E
100
AcDbEntity
  8
OBJECT
100
AcDbLine
 10
1508.4999999999995
 20
-174.99974596215549
 30
0.0
 11
1508.4999999999995
 21
-168.70020753820933
 31
0.0
  0
LINE
  5
43F
100
AcDbEntity
  8
OBJECT
100
AcDbLine
 10
1541.9999999999995
 20
-187.91910702802267
 30
0.0
 11
1541.9999999999995
 21
-187.19274881007328
 31
0.0
  0
LINE
  5
440
100
AcDbEntity
  8
OBJECT
100
AcDbLine
 10
1568.8999999999999
 20
-510.00000000000006
 30
0.0
 11
1555.0999999999999
 21
-510.00000000000006
 31
0.0
  0
CIRCLE
  5
441
100
AcDbEntity
  8
OBJECT
100
AcDbCircle
 10
1561.9999999999998
 20
-199.9999999999996
 30
0.0
 40
7.0
  0
SPLINE
  5
442
100
AcDbEntity
  8
OBJECT
100
AcDbSpline
210
0.0
220
0.0
230
1.0
 70
               8
 71
               2
 72
              10
 73
               7
 74
               0
 42
0.000001
 43
0.000001
 40
0.0
 40
0.0
 40
0.0
 40
0.0131184557540858
 40
0.0131184557540858
 40
0.9868815442459898
 40
0.9868815442459898
 40
1.0
 40
1.0
 40
1.0
 10
1561.2499999999998
 20
-203.08068597791367
 30
0.0
 10
1561.2598317979086
 20
-203.08119329853236
 30
0.0
 10
1561.2696635958177
 20
-203.08170061915104
 30
0.0
 10
1562.0004535351368
 20
-203.11731722781911
 30
0.0
 10
1562.7303364041818
 20
-203.08170061915104
 30
0.0
 10
1562.7401682020909
 20
-203.08119329853236
 30
0.0
 10
1562.7499999999998
 20
-203.08068597791367
 30
0.0
  0
LINE
  5
443
100
AcDbEntity
  8
OBJECT
100
AcDbLine
 10
1562.7499999999998
 20
-200.7499999999996
 30
0.0
 11
1565.0806859779136
 21
-200.7499999999996
 31
0.0
  0
SPLINE
  5
444
100
AcDbEntity
  8
OBJECT
100
AcDbSpline
210
0.0
220
0.0
230
1.0
 70
               8
 71
               2
 72
              10
 73
               7
 74
               0
 42
0.000001
 43
0.000001
 40
0.0
 40
0.0
 40
0.0
 40
0.0131184557419165
 40
0.0131184557419165
 40
0.9868815442580835
 40
0.9868815442580835
 40
1.0
 40
1.0
 40
1.0
 10
1565.0806859779136
 20
-200.7499999999996
 30
0.0
 10
1565.0811932985325
 20
-200.74016820209073
 30
0.0
 10
1565.0817006191512
 20
-200.73033640418186
 30
0.0
 10
1565.1173172561043
 20
-199.99954772939196
 30
0.0
 10
1565.0817006191512
 20
-199.26966359581735
 30
0.0
 10
1565.0811932985325
 20
-199.25983179790848
 30
0.0
 10
1565.0806859779136
 20
-199.2499999999996
 30
0.0
  0
LINE
  5
445
100
AcDbEntity
  8
OBJECT
100
AcDbLine
 10
1562.7499999999998
 20
-199.2499999999996
 30
0.0
 11
1565.0806859779136
 21
-199.2499999999996
 31
0.0
  0
LINE
  5
446
100
AcDbEntity
  8
OBJECT
100
AcDbLine
 10
1562.7499999999998
 20
-199.2499999999996
 30
0.0
 11
1562.7499999999998
 21
-196.91931402208553
 31
0.0
  0
SPLINE
  5
447
100
AcDbEntity
  8
OBJECT
100
AcDbSpline
210
0.0
220
0.0
230
1.0
 70
               8
 71
               2
 72
              10
 73
               7
 74
               0
 42
0.000001
 43
0.000001
 40
0.0
 40
0.0
 40
0.0
 40
0.0131184557419846
 40
0.0131184557419846
 40
0.9868815442579398
 40
0.9868815442579398
 40
1.0
 40
1.0
 40
1.0
 10
1562.7499999999998
 20
-196.91931402208553
 30
0.0
 10
1562.7401682020909
 20
-196.91880670146685
 30
0.0
 10
1562.7303364041818
 20
-196.91829938084817
 30
0.0
 10
1561.9995477293924
 20
-196.88268274389526
 30
0.0
 10
1561.2696635958177
 20
-196.91829938084817
 30
0.0
 10
1561.2598317979086
 20
-196.91880670146685
 30
0.0
 10
1561.2499999999998
 20
-196.91931402208553
 30
0.0
  0
LINE
  5
448
100
AcDbEntity
  8
OBJECT
100
AcDbLine
 10
1561.2499999999998
 20
-199.2499999999996
 30
0.0
 11
1561.2499999999998
 21
-196.91931402208553
 31
0.0
  0
LINE
  5
449
100
AcDbEntity
  8
OBJECT
100
AcDbLine
 10
1558.9193140220859
 20
-199.2499999999996
 30
0.0
 11
1561.2499999999998
 21
-199.2499999999996
 31
0.0
  0
SPLINE
  5
44A
100
AcDbEntity
  8
OBJECT
100
AcDbSpline
210
0.0
220
0.0
230
1.0
 70
               8
 71
               2
 72
              10
 73
               7
 74
               0
 42
0.000001
 43
0.000001
 40
0.0
 40
0.0
 40
0.0
 40
0.0131184557419204
 40
0.0131184557419204
 40
0.9868815442580796
 40
0.9868815442580796
 40
1.0
 40
1.0
 40
1.0
 10
1558.9193140220859
 20
-199.2499999999996
 30
0.0
 10
1558.918806701467
 20
-199.25983179790848
 30
0.0
 10
1558.9182993808481
 20
-199.26966359581735
 30
0.0
 10
1558.8826827438954
 20
-200.00045227060724
 30
0.0
 10
1558.9182993808481
 20
-200.73033640418186
 30
0.0
 10
1558.918806701467
 20
-200.74016820209073
 30
0.0
 10
1558.9193140220859
 20
-200.7499999999996
 30
0.0
  0
LINE
  5
44B
100
AcDbEntity
  8
OBJECT
100
AcDbLine
 10
1558.9193140220859
 20
-200.7499999999996
 30
0.0
 11
1561.2499999999998
 21
-200.7499999999996
 31
0.0
  0
LINE
  5
44C
100
AcDbEntity
  8
OBJECT
100
AcDbLine
 10
1561.2499999999998
 20
-203.08068597791367
 30
0.0
 11
1561.2499999999998
 21
-200.7499999999996
 31
0.0
  0
LINE
  5
44D
100
AcDbEntity
  8
OBJECT
100
AcDbLine
 10
1562.7499999999998
 20
-203.08068597791367
 30
0.0
 11
1562.7499999999998
 21
-200.7499999999996
 31
0.0
  0
LINE
  5
44E
100
AcDbEntity
  8
OBJECT
100
AcDbLine
 10
1561.2499999999998
 20
-199.2499999999996
 30
0.0
 11
1562.7499999999998
 21
-199.2499999999996
 31
0.0
  0
LINE
  5
44F
100
AcDbEntity
  8
OBJECT
100
AcDbLine
 10
1562.7499999999998
 20
-199.2499999999996
 30
0.0
 11
1562.7499999999998
 21
-200.7499999999996
 31
0.0
  0
LINE
  5
450
100
AcDbEntity
  8
OBJECT
100
AcDbLine
 10
1561.2499999999998
 20
-199.2499999999996
 30
0.0
 11
1561.2499999999998
 21
-200.7499999999996
 31
0.0
  0
LINE
  5
451
100
AcDbEntity
  8
OBJECT
100
AcDbLine
 10
1561.2499999999998
 20
-200.7499999999996
 30
0.0
 11
1562.7499999999998
 21
-200.7499999999996
 31
0.0
  0
ARC
  5
452
100
AcDbEntity
  8
OBJECT
100
AcDbCircle
 10
1561.9999999999998
 20
-199.9999999999996
 30
0.0
 40
15.0
100
AcDbArc
 50
180.0
 51
0.0
  0
ARC
  5
453
100
AcDbEntity
  8
OBJECT
100
AcDbCircle
 10
1561.9999999999998
 20
-199.9999999999996
 30
0.0
 40
15.0
100
AcDbArc
 50
0.0
 51
180.0
  0
ARC
  5
454
100
AcDbEntity
  8
OBJECT
100
AcDbCircle
 10
1561.9999999999998
 20
-199.9999999999996
 30
0.0
 40
9.6000000000001364
100
AcDbArc
 50
0.0
 51
180.0
  0
ARC
  5
455
100
AcDbEntity
  8
OBJECT
100
AcDbCircle
 10
1561.9999999999998
 20
-199.9999999999996
 30
0.0
 40
9.5999999999999091
100
AcDbArc
 50
180.0
 51
0.0
  0
CIRCLE
  5
456
100
AcDbEntity
  8
OBJECT
100
AcDbCircle
 10
1562.0
 20
-294.9999999999996
 30
0.0
 40
7.0
  0
SPLINE
  5
457
100
AcDbEntity
  8
OBJECT
100
AcDbSpline
210
0.0
220
0.0
230
1.0
 70
               8
 71
               2
 72
              10
 73
               7
 74
               0
 42
0.000001
 43
0.000001
 40
0.0
 40
0.0
 40
0.0
 40
0.0131184557540858
 40
0.0131184557540858
 40
0.9868815442459898
 40
0.9868815442459898
 40
1.0
 40
1.0
 40
1.0
 10
1561.25
 20
-298.08068597791367
 30
0.0
 10
1561.2598317979091
 20
-298.08119329853236
 30
0.0
 10
1561.269663595818
 20
-298.08170061915104
 30
0.0
 10
1562.000453535137
 20
-298.11731722781911
 30
0.0
 10
1562.7303364041823
 20
-298.08170061915104
 30
0.0
 10
1562.7401682020911
 20
-298.08119329853236
 30
0.0
 10
1562.75
 20
-298.08068597791367
 30
0.0
  0
LINE
  5
458
100
AcDbEntity
  8
OBJECT
100
AcDbLine
 10
1562.75
 20
-295.7499999999996
 30
0.0
 11
1565.0806859779141
 21
-295.7499999999996
 31
0.0
  0
SPLINE
  5
459
100
AcDbEntity
  8
OBJECT
100
AcDbSpline
210
0.0
220
0.0
230
1.0
 70
               8
 71
               2
 72
              10
 73
               7
 74
               0
 42
0.000001
 43
0.000001
 40
0.0
 40
0.0
 40
0.0
 40
0.0131184557539459
 40
0.0131184557539459
 40
0.9868815442460541
 40
0.9868815442460541
 40
1.0
 40
1.0
 40
1.0
 10
1565.0806859779138
 20
-295.7499999999996
 30
0.0
 10
1565.0811932985328
 20
-295.74016820209073
 30
0.0
 10
1565.0817006191514
 20
-295.73033640418186
 30
0.0
 10
1565.1173172278195
 20
-294.99954646486282
 30
0.0
 10
1565.0817006191514
 20
-294.26966359581735
 30
0.0
 10
1565.0811932985328
 20
-294.25983179790848
 30
0.0
 10
1565.0806859779138
 20
-294.2499999999996
 30
0.0
  0
SPLINE
  5
45A
100
AcDbEntity
  8
OBJECT
100
AcDbSpline
210
0.0
220
0.0
230
1.0
 70
               8
 71
               2
 72
              10
 73
               7
 74
               0
 42
0.000001
 43
0.000001
 40
0.0
 40
0.0
 40
0.0
 40
0.0131184557419998
 40
0.0131184557419998
 40
0.9868815442579246
 40
0.9868815442579246
 40
1.0
 40
1.0
 40
1.0
 10
1562.75
 20
-291.91931402208598
 30
0.0
 10
1562.7401682020911
 20
-291.91880670146708
 30
0.0
 10
1562.7303364041823
 20
-291.91829938084817
 30
0.0
 10
1561.9995477293926
 20
-291.88268274389526
 30
0.0
 10
1561.269663595818
 20
-291.91829938084817
 30
0.0
 10
1561.2598317979091
 20
-291.91880670146708
 30
0.0
 10
1561.25
 20
-291.91931402208598
 30
0.0
  0
SPLINE
  5
45B
100
AcDbEntity
  8
OBJECT
100
AcDbSpline
210
0.0
220
0.0
230
1.0
 70
               8
 71
               2
 72
              10
 73
               7
 74
               0
 42
0.000001
 43
0.000001
 40
0.0
 40
0.0
 40
0.0
 40
0.0131184557419204
 40
0.0131184557419204
 40
0.9868815442580797
 40
0.9868815442580797
 40
1.0
 40
1.0
 40
1.0
 10
1558.9193140220859
 20
-294.2499999999996
 30
0.0
 10
1558.9188067014672
 20
-294.25983179790848
 30
0.0
 10
1558.9182993808483
 20
-294.26966359581735
 30
0.0
 10
1558.8826827438957
 20
-295.00045227060724
 30
0.0
 10
1558.9182993808483
 20
-295.73033640418186
 30
0.0
 10
1558.9188067014672
 20
-295.74016820209073
 30
0.0
 10
1558.9193140220859
 20
-295.7499999999996
 30
0.0
  0
LINE
  5
45C
100
AcDbEntity
  8
OBJECT
100
AcDbLine
 10
1561.25
 20
-294.2499999999996
 30
0.0
 11
1561.25
 21
-291.91931402208598
 31
0.0
  0
LINE
  5
45D
100
AcDbEntity
  8
OBJECT
100
AcDbLine
 10
1562.75
 20
-294.2499999999996
 30
0.0
 11
1565.0806859779141
 21
-294.2499999999996
 31
0.0
  0
LINE
  5
45E
100
AcDbEntity
  8
OBJECT
100
AcDbLine
 10
1561.25
 20
-298.08068597791367
 30
0.0
 11
1561.25
 21
-295.7499999999996
 31
0.0
  0
LINE
  5
45F
100
AcDbEntity
  8
OBJECT
100
AcDbLine
 10
1562.75
 20
-298.08068597791367
 30
0.0
 11
1562.75
 21
-295.7499999999996
 31
0.0
  0
LINE
  5
460
100
AcDbEntity
  8
OBJECT
100
AcDbLine
 10
1558.9193140220862
 20
-295.7499999999996
 30
0.0
 11
1561.25
 21
-295.7499999999996
 31
0.0
  0
LINE
  5
461
100
AcDbEntity
  8
OBJECT
100
AcDbLine
 10
1558.9193140220862
 20
-294.2499999999996
 30
0.0
 11
1561.25
 21
-294.2499999999996
 31
0.0
  0
LINE
  5
462
100
AcDbEntity
  8
OBJECT
100
AcDbLine
 10
1562.75
 20
-294.2499999999996
 30
0.0
 11
1562.75
 21
-291.91931402208553
 31
0.0
  0
LINE
  5
463
100
AcDbEntity
  8
OBJECT
100
AcDbLine
 10
1561.25
 20
-294.2499999999996
 30
0.0
 11
1561.25
 21
-295.7499999999996
 31
0.0
  0
LINE
  5
464
100
AcDbEntity
  8
OBJECT
100
AcDbLine
 10
1561.25
 20
-294.2499999999996
 30
0.0
 11
1562.75
 21
-294.2499999999996
 31
0.0
  0
LINE
  5
465
100
AcDbEntity
  8
OBJECT
100
AcDbLine
 10
1561.25
 20
-295.7499999999996
 30
0.0
 11
1562.75
 21
-295.7499999999996
 31
0.0
  0
LINE
  5
466
100
AcDbEntity
  8
OBJECT
100
AcDbLine
 10
1562.75
 20
-294.2499999999996
 30
0.0
 11
1562.75
 21
-295.7499999999996
 31
0.0
  0
ARC
  5
467
100
AcDbEntity
  8
OBJECT
100
AcDbCircle
 10
1562.0
 20
-294.9999999999996
 30
0.0
 40
15.0
100
AcDbArc
 50
180.0
 51
0.0
  0
ARC
  5
468
100
AcDbEntity
  8
OBJECT
100
AcDbCircle
 10
1562.0
 20
-294.9999999999996
 30
0.0
 40
15.0
100
AcDbArc
 50
0.0
 51
180.0
  0
ARC
  5
469
100
AcDbEntity
  8
OBJECT
100
AcDbCircle
 10
1562.0
 20
-294.9999999999996
 30
0.0
 40
9.6000000000000227
100
AcDbArc
 50
0.0
 51
180.0
  0
ARC
  5
46A
100
AcDbEntity
  8
OBJECT
100
AcDbCircle
 10
1562.0
 20
-294.9999999999996
 30
0.0
 40
9.6000000000000227
100
AcDbArc
 50
180.0
 51
0.0
  0
LINE
  5
46B
100
AcDbEntity
  8
OBJECT
100
AcDbLine
 10
1543.9999999999998
 20
-500.00000000000006
 30
0.0
 11
1941.9999999999998
 21
-500.00000000000006
 31
0.0
  0
LINE
  5
46C
100
AcDbEntity
  8
OBJECT
100
AcDbLine
 10
1541.9999999999995
 20
-121.19999999999987
 30
0.0
 11
1541.9999999999995
 21
-187.19274881007328
 31
0.0
  0
LINE
  5
46D
100
AcDbEntity
  8
OBJECT
100
AcDbLine
 10
1541.9999999999995
 20
-187.19274881007328
 30
0.0
 11
1541.9999999999995
 21
-187.91910702802267
 31
0.0
  0
LINE
  5
46E
100
AcDbEntity
  8
OBJECT
100
AcDbLine
 10
1941.9999999999998
 20
-121.19999999999987
 30
0.0
 11
1941.9999999999998
 21
-500.00000000000006
 31
0.0
  0
CIRCLE
  5
46F
100
AcDbEntity
  8
OBJECT
100
AcDbCircle
 10
1624.4273158206695
 20
-170.91601644271037
 30
0.0
 40
2.25
  0
CIRCLE
  5
470
100
AcDbEntity
  8
OBJECT
100
AcDbCircle
 10
1609.1448992610653
 20
-149.88157458896154
 30
0.0
 40
2.25
  0
LINE
  5
471
100
AcDbEntity
  8
OBJECT
100
AcDbLine
 10
1492.0000000000139
 20
-514.99999999949887
 30
0.0
 11
1493.5000000000139
 21
-514.99999999949887
 31
0.0
  0
LINE
  5
472
100
AcDbEntity
  8
OBJECT
100
AcDbLine
 10
1492.0000000000139
 20
-514.99999987044112
 30
0.0
 11
1493.5000000000139
 21
-514.99999987044112
 31
0.0
  0
LINE
  5
473
100
AcDbEntity
  8
OBJECT
100
AcDbLine
 10
1651.9999999999998
 20
-501.50000000000006
 30
0.0
 11
1651.9999999999998
 21
-507.00000000000006
 31
0.0
  0
LINE
  5
474
100
AcDbEntity
  8
OBJECT
100
AcDbLine
 10
1543.1794494718208
 20
-501.50000000000006
 30
0.0
 11
1651.9999999999998
 21
-501.50000000000006
 31
0.0
  0
LINE
  5
475
100
AcDbEntity
  8
OBJECT
100
AcDbLine
 10
1752.0000000000139
 20
-500.00000000000006
 30
0.0
 11
1752.0000000000139
 21
-507.00000000000006
 31
0.0
  0
ARC
  5
476
100
AcDbEntity
  8
OBJECT
100
AcDbCircle
 10
1749.0000000000136
 20
-507.00000000000006
 30
0.0
 40
3.0
100
AcDbArc
 50
270.00000000000659
 51
0.0
  0
LINE
  5
477
100
AcDbEntity
  8
OBJECT
100
AcDbLine
 10
1654.9999999999998
 20
-510.00000000000006
 30
0.0
 11
1749.0000000000139
 21
-510.00000000000006
 31
0.0
  0
LINE
  5
478
100
AcDbEntity
  8
OBJECT
100
AcDbLine
 10
1493.5000000000139
 20
-502.00000000003689
 30
0.0
 11
1493.5000000000139
 21
-514.99999987044112
 31
0.0
  0
ARC
  5
479
100
AcDbEntity
  8
OBJECT
100
AcDbCircle
 10
1655.0
 20
-507.00000000000006
 30
0.0
 40
3.0000000000001137
100
AcDbArc
 50
180.0
 51
269.99999999999784
  0
LINE
  5
47A
100
AcDbEntity
  8
OBJECT
100
AcDbLine
 10
1550.9999999999957
 20
-501.49999999999415
 30
0.0
 11
1550.9999999999957
 21
-502.99999999999415
 31
0.0
  0
LINE
  5
47B
100
AcDbEntity
  8
OBJECT
100
AcDbLine
 10
1550.9999999999957
 20
-502.99999999999415
 30
0.0
 11
1555.0999999999999
 21
-502.9999999999946
 31
0.0
  0
LINE
  5
47C
100
AcDbEntity
  8
OBJECT
100
AcDbLine
 10
1568.8999999999999
 20
-502.9999999999946
 30
0.0
 11
1651.9999999999998
 21
-502.9999999999946
 31
0.0
  0
LINE
  5
47D
100
AcDbEntity
  8
OBJECT
100
AcDbLine
 10
1752.0000000000136
 20
-502.9999999999946
 30
0.0
 11
1871.0000003611642
 21
-502.99999999999415
 31
0.0
  0
LINE
  5
47E
100
AcDbEntity
  8
OBJECT
100
AcDbLine
 10
1752.0000000000136
 20
-501.4999999999946
 30
0.0
 11
1871.0000003611642
 21
-501.49999999999415
 31
0.0
  0
LINE
  5
47F
100
AcDbEntity
  8
OBJECT
100
AcDbLine
 10
1875.9999999999959
 20
-501.49999999999415
 30
0.0
 11
1875.9999999999959
 21
-502.9999999999946
 31
0.0
  0
LINE
  5
480
100
AcDbEntity
  8
OBJECT
100
AcDbLine
 10
1875.9999999999959
 20
-502.9999999999946
 30
0.0
 11
1871.0000003611642
 21
-502.99999999999415
 31
0.0
  0
LINE
  5
481
100
AcDbEntity
  8
OBJECT
100
AcDbLine
 10
1875.9999999999959
 20
-501.49999999999415
 30
0.0
 11
1871.0000003611642
 21
-501.49999999999415
 31
0.0
  0
LINE
  5
482
100
AcDbEntity
  8
OBJECT
100
AcDbLine
 10
1525.9999999999959
 20
-502.00000000003689
 30
0.0
 11
1525.9999999999959
 21
-502.99999999999415
 31
0.0
  0
LINE
  5
483
100
AcDbEntity
  8
OBJECT
100
AcDbLine
 10
1550.9999999999957
 20
-502.99999999999415
 30
0.0
 11
1525.9999999999959
 21
-502.99999999999415
 31
0.0
  0
CIRCLE
  5
484
100
AcDbEntity
  8
OBJECT
100
AcDbCircle
 10
1550.9999999999959
 20
-514.99999999999454
 30
0.0
 40
3.0
  0
ARC
  5
485
100
AcDbEntity
  8
OBJECT
100
AcDbCircle
 10
1535.9999999999961
 20
-516.49999999999454
 30
0.0
 40
10.000000000000341
100
AcDbArc
 50
180.0
 51
269.99999999999869
  0
ARC
  5
486
100
AcDbEntity
  8
OBJECT
100
AcDbCircle
 10
1866.0000001840644
 20
-516.499999999995
 30
0.0
 40
9.9999998159314618
100
AcDbArc
 50
270.00000105463505
 51
0.0000000000026148
  0
LINE
  5
487
100
AcDbEntity
  8
OBJECT
100
AcDbLine
 10
1535.9999999999959
 20
-526.49999999999454
 30
0.0
 11
1866.000000368133
 21
-526.49999981592646
 31
0.0
  0
CIRCLE
  5
488
100
AcDbEntity
  8
OBJECT
100
AcDbCircle
 10
1850.9999999999957
 20
-514.99999999999454
 30
0.0
 40
3.0
  0
LINE
  5
489
100
AcDbEntity
  8
OBJECT
100
AcDbLine
 10
1525.9999999999959
 20
-516.49999999999454
 30
0.0
 11
1525.9999999999959
 21
-502.9999999999946
 31
0.0
  0
LINE
  5
48A
100
AcDbEntity
  8
OBJECT
100
AcDbLine
 10
1875.9999999999959
 20
-516.49999999999454
 30
0.0
 11
1875.9999999999959
 21
-502.9999999999946
 31
0.0
  0
LINE
  5
48B
100
AcDbEntity
  8
OBJECT
100
AcDbLine
 10
1943.3000000000143
 20
-121.19999999999942
 30
0.0
 11
1943.3000000000143
 21
-109.19999999999942
 31
0.0
  0
LINE
  5
48C
100
AcDbEntity
  8
OBJECT
100
AcDbLine
 10
1540.6999999999996
 20
-121.19999999999987
 30
0.0
 11
1943.3000000000143
 21
-121.19999999999942
 31
0.0
  0
LINE
  5
48D
100
AcDbEntity
  8
OBJECT
100
AcDbLine
 10
1540.6999999999996
 20
-109.19999999999987
 30
0.0
 11
1540.6999999999996
 21
-121.19999999999987
 31
0.0
  0
LINE
  5
48E
100
AcDbEntity
  8
OBJECT
100
AcDbLine
 10
1540.6999999999996
 20
-109.19999999999987
 30
0.0
 11
1943.3000000000143
 21
-109.19999999999942
 31
0.0
  0
LINE
  5
48F
100
AcDbEntity
  8
OBJECT
100
AcDbLine
 10
1490.9999999999998
 20
-502.00000000003689
 30
0.0
 11
1490.9999999999998
 21
-505.00000000003689
 31
0.0
  0
LINE
  5
490
100
AcDbEntity
  8
OBJECT
100
AcDbLine
 10
1491.9999999999998
 20
-505.00000000003689
 30
0.0
 11
1491.9999999999998
 21
-502.00000000003689
 31
0.0
  0
LINE
  5
491
100
AcDbEntity
  8
OBJECT
100
AcDbLine
 10
1491.9999999999998
 20
-514.99999986990179
 30
0.0
 11
1490.9999999999998
 21
-514.99999986990179
 31
0.0
  0
LINE
  5
492
100
AcDbEntity
  8
OBJECT
100
AcDbLine
 10
1491.9999999999998
 20
-505.00000000003689
 30
0.0
 11
1491.9999999999998
 21
-514.99999986990179
 31
0.0
  0
LINE
  5
493
100
AcDbEntity
  8
OBJECT
100
AcDbLine
 10
1490.9999999999998
 20
-505.00000000003689
 30
0.0
 11
1490.9999999999998
 21
-514.99999986990179
 31
0.0
  0
CIRCLE
  5
494
100
AcDbEntity
  8
OBJECT
100
AcDbCircle
 10
1525.9999999999995
 20
-240.00000000003689
 30
0.0
 40
7.5
  0
CIRCLE
  5
495
100
AcDbEntity
  8
OBJECT
100
AcDbCircle
 10
1525.9999999999995
 20
-300.00000000003644
 30
0.0
 40
7.5
  0
CIRCLE
  5
496
100
AcDbEntity
  8
OBJECT
100
AcDbCircle
 10
1525.9999999999995
 20
-340.00000000003644
 30
0.0
 40
7.5
  0
CIRCLE
  5
497
100
AcDbEntity
  8
OBJECT
100
AcDbCircle
 10
1525.9999999999995
 20
-280.00000000003644
 30
0.0
 40
7.5
  0
CIRCLE
  5
498
100
AcDbEntity
  8
OBJECT
100
AcDbCircle
 10
1525.9999999999995
 20
-200.00000000003689
 30
0.0
 40
7.5
  0
CIRCLE
  5
499
100
AcDbEntity
  8
OBJECT
100
AcDbCircle
 10
1525.9999999999995
 20
-220.00000000003689
 30
0.0
 40
7.5
  0
CIRCLE
  5
49A
100
AcDbEntity
  8
OBJECT
100
AcDbCircle
 10
1525.9999999999995
 20
-320.00000000003689
 30
0.0
 40
7.5
  0
CIRCLE
  5
49B
100
AcDbEntity
  8
OBJECT
100
AcDbCircle
 10
1525.9999999999995
 20
-260.00000000003689
 30
0.0
 40
7.5
  0
LINE
  5
49C
100
AcDbEntity
  8
OBJECT
100
AcDbLine
 10
1441.9999999999998
 20
-502.00000000003689
 30
0.0
 11
1540.9999999999998
 21
-502.00000000003644
 31
0.0
  0
LINE
  5
49D
100
AcDbEntity
  8
OBJECT
100
AcDbLine
 10
1441.9999999999998
 20
-502.00000000003689
 30
0.0
 11
1441.9999999999995
 21
-168.9999999999996
 31
0.0
  0
LINE
  5
49E
100
AcDbEntity
  8
OBJECT
100
AcDbLine
 10
1506.9999999999995
 20
-175.18014882870563
 30
0.0
 11
1506.9999999999995
 21
-168.9999999999996
 31
0.0
  0
LINE
  5
49F
100
AcDbEntity
  8
OBJECT
100
AcDbLine
 10
1543.9999999999998
 20
-188.64704749655544
 30
0.0
 11
1506.9999999999995
 21
-175.18014882870563
 31
0.0
  0
LINE
  5
4A0
100
AcDbEntity
  8
OBJECT
100
AcDbLine
 10
1543.9999999999998
 20
-501.0000000000378
 30
0.0
 11
1543.9999999999998
 21
-188.64704749655544
 31
0.0
  0
ARC
  5
4A1
100
AcDbEntity
  8
OBJECT
100
AcDbCircle
 10
1541.0000000000032
 20
-497.00000000004053
 30
0.0
 40
4.9999999999959073
100
AcDbArc
 50
269.99999999995958
 51
306.86989764583149
  0
LINE
  5
4A2
100
AcDbEntity
  8
OBJECT
100
AcDbLine
 10
1508.4989999999998
 20
-168.9999999999996
 30
0.0
 11
1441.9989999999998
 21
-168.9999999999996
 31
0.0
  0
LINE
  5
4A3
100
AcDbEntity
  8
OBJECT
100
AcDbLine
 10
1441.9989999999998
 20
-158.9999999999996
 30
0.0
 11
1508.4989999999998
 21
-158.9999999999996
 31
0.0
  0
LINE
  5
4A4
100
AcDbEntity
  8
OBJECT
100
AcDbLine
 10
1508.4989999999998
 20
-168.9999999999996
 30
0.0
 11
1508.4989999999998
 21
-158.9999999999996
 31
0.0
  0
LINE
  5
4A5
100
AcDbEntity
  8
OBJECT
100
AcDbLine
 10
1539.5701638651487
 20
-178.94464458642102
 30
0.0
 11
1509.4999999999998
 21
-167.9999999999996
 31
0.0
  0
LINE
  5
4A6
100
AcDbEntity
  8
OBJECT
100
AcDbLine
 10
1539.228143721823
 20
-179.88433720720701
 30
0.0
 11
1539.5701638651487
 21
-178.94464458642102
 31
0.0
  0
LINE
  5
4A7
100
AcDbEntity
  8
OBJECT
100
AcDbLine
 10
1508.4999999999998
 20
-168.70020753820933
 30
0.0
 11
1539.228143721823
 21
-179.88433720720701
 31
0.0
  0
LINE
  5
4A8
100
AcDbEntity
  8
OBJECT
100
AcDbLine
 10
1508.4999999999998
 20
-159.9999999999996
 30
0.0
 11
1508.4999999999998
 21
-168.70020753820933
 31
0.0
  0
LINE
  5
4A9
100
AcDbEntity
  8
OBJECT
100
AcDbLine
 10
1508.4989999999998
 20
-159.9999999999996
 30
0.0
 11
1508.4999999999998
 21
-159.9999999999996
 31
0.0
  0
LINE
  5
4AA
100
AcDbEntity
  8
OBJECT
100
AcDbLine
 10
1509.4999999999998
 20
-167.9999999999996
 30
0.0
 11
1509.4999999999998
 21
-158.9999999999996
 31
0.0
  0
LINE
  5
4AB
100
AcDbEntity
  8
OBJECT
100
AcDbLine
 10
1509.4999999999998
 20
-158.9999999999996
 30
0.0
 11
1508.4989999999998
 21
-158.9999999999996
 31
0.0
  0
LINE
  5
4AC
100
AcDbEntity
  8
OBJECT
100
AcDbLine
 10
1440.9999999999998
 20
-168.9999999999996
 30
0.0
 11
1440.9999999999998
 21
-158.9999999999996
 31
0.0
  0
LINE
  5
4AD
100
AcDbEntity
  8
OBJECT
100
AcDbLine
 10
1441.9989999999998
 20
-158.9999999999996
 30
0.0
 11
1440.9999999999998
 21
-158.9999999999996
 31
0.0
  0
LINE
  5
4AE
100
AcDbEntity
  8
OBJECT
100
AcDbLine
 10
1441.9989999999998
 20
-168.9999999999996
 30
0.0
 11
1440.9999999999998
 21
-168.9999999999996
 31
0.0
  0
CIRCLE
  5
4AF
100
AcDbEntity
  8
OBJECT
100
AcDbCircle
 10
1921.9999999999993
 20
-135.00000000000051
 30
0.0
 40
3.0
  0
CIRCLE
  5
4B0
100
AcDbEntity
  8
OBJECT
100
AcDbCircle
 10
1751.9999999999993
 20
-135.00000000000051
 30
0.0
 40
3.0
  0
CIRCLE
  5
4B1
100
AcDbEntity
  8
OBJECT
100
AcDbCircle
 10
1581.9999999999991
 20
-135.00000000000051
 30
0.0
 40
3.0
  0
LINE
  5
4B2
100
AcDbEntity
  8
OBJECT
100
AcDbLine
 10
1568.8999999999999
 20
-510.00000000000006
 30
0.0
 11
1568.8999999999999
 21
-501.4999999999946
 31
0.0
  0
LINE
  5
4B3
100
AcDbEntity
  8
OBJECT
100
AcDbLine
 10
1555.0999999999999
 20
-501.4999999999946
 30
0.0
 11
1555.0999999999999
 21
-510.00000000000006
 31
0.0
  0
LINE
  5
4B4
100
AcDbEntity
  8
OBJECT
100
AcDbLine
 10
1555.2968124999998
 20
-510.00000000000006
 30
0.0
 11
1555.4216832319371
 21
-513.99586342199109
 31
0.0
  0
LINE
  5
4B5
100
AcDbEntity
  8
OBJECT
100
AcDbLine
 10
1568.5785000002365
 20
-513.9899999924196
 30
0.0
 11
1568.7031874999998
 21
-510.00000000000006
 31
0.0
  0
INSERT
  5
4B6
100
AcDbEntity
  8
OBJECT
100
AcDbBlockReference
  2
*U32
 10
1014.1172999999999
 20
428.99999999999994
 30
0.0
  0
LINE
  5
4B7
100
AcDbEntity
  8
OBJECT
100
AcDbLine
 10
351.20000000000903
 20
1073.5000000000002
 30
0.0
 11
351.20000000000903
 21
1072.3701638651494
 31
0.0
  0
LINE
  5
4B8
100
AcDbEntity
  8
OBJECT
100
AcDbLine
 10
357.5556997970026
 20
1097.9000000000003
 30
0.0
 11
357.52976394309326
 21
1097.880685977914
 31
0.0
  0
ARC
  5
4B9
100
AcDbEntity
  8
OBJECT
100
AcDbCircle
 10
348.99999994251959
 20
1094.8000000000004
 30
0.0
 40
9.0690407430995865
100
AcDbArc
 50
4.7437175285838853
 51
19.858146366918579
  0
LINE
  5
4BA
100
AcDbEntity
  8
OBJECT
100
AcDbLine
 10
358.03797537952971
 20
1095.5500000000004
 30
0.0
 11
357.52976394309326
 21
1095.5500000000004
 31
0.0
  0
SPLINE
  5
4BB
100
AcDbEntity
  8
OBJECT
100
AcDbSpline
210
0.0
220
0.0
230
1.0
 70
               8
 71
               2
 72
              10
 73
               7
 74
               0
 42
0.000001
 43
0.000001
 40
0.0
 40
0.0
 40
0.0
 40
0.013129398349763
 40
0.013129398349763
 40
0.9868706016499348
 40
0.9868706016499348
 40
1.0
 40
1.0
 40
1.0
 10
357.52976394309337
 20
1094.0500000000004
 30
0.0
 10
357.53044519909463
 20
1094.0598317979093
 30
0.0
 10
357.531126455096
 20
1094.0696635958182
 30
0.0
 10
357.57895425372999
 20
1094.8004535351372
 30
0.0
 10
357.531126455096
 20
1095.5303364041822
 30
0.0
 10
357.53044519909463
 20
1095.5401682020913
 30
0.0
 10
357.52976394309337
 20
1095.5500000000004
 30
0.0
  0
LINE
  5
4BC
100
AcDbEntity
  8
OBJECT
100
AcDbLine
 10
358.03797537952971
 20
1094.0500000000004
 30
0.0
 11
357.52976394309326
 21
1094.0500000000004
 31
0.0
  0
ARC
  5
4BD
100
AcDbEntity
  8
OBJECT
100
AcDbCircle
 10
348.99999994251959
 20
1094.8000000000004
 30
0.0
 40
9.0690407430996114
100
AcDbArc
 50
340.14185363307871
 51
355.25628247141611
  0
LINE
  5
4BE
100
AcDbEntity
  8
OBJECT
100
AcDbLine
 10
357.52976394309326
 20
1091.7193140220863
 30
0.0
 11
357.5556997970026
 21
1091.7
 31
0.0
  0
LINE
  5
4BF
100
AcDbEntity
  8
OBJECT
100
AcDbLine
 10
354.89999994251946
 20
1107.5000000000002
 30
0.0
 11
354.89999994251946
 21
1082.1000000158581
 31
0.0
  0
LINE
  5
4C0
100
AcDbEntity
  8
OBJECT
100
AcDbLine
 10
212.0
 20
1073.4999999999998
 30
0.0
 11
352.50000000000023
 21
1073.4999999999998
 31
0.0
  0
LINE
  5
4C1
100
AcDbEntity
  8
OBJECT
100
AcDbLine
 10
352.50000000000023
 20
1476.1000000000147
 30
0.0
 11
212.0
 21
1476.1000000000147
 31
0.0
  0
LINE
  5
4C2
100
AcDbEntity
  8
OBJECT
100
AcDbLine
 10
352.50000000000023
 20
1073.4999999999998
 30
0.0
 11
352.50000000000023
 21
1476.1000000000147
 31
0.0
  0
LINE
  5
4C3
100
AcDbEntity
  8
OBJECT
100
AcDbLine
 10
352.50000000000023
 20
1078.8
 30
0.0
 11
352.69999999995355
 21
1078.8
 31
0.0
  0
LINE
  5
4C4
100
AcDbEntity
  8
OBJECT
100
AcDbLine
 10
352.69999999995355
 20
1078.8
 30
0.0
 11
352.69999999995355
 21
1072.3701638651494
 31
0.0
  0
LINE
  5
4C5
100
AcDbEntity
  8
OBJECT
100
AcDbLine
 10
351.70000000000005
 20
1072.3701638651494
 30
0.0
 11
351.70000000000005
 21
1073.5000000000002
 31
0.0
  0
LINE
  5
4C6
100
AcDbEntity
  8
OBJECT
100
AcDbLine
 10
352.70000000000005
 20
1041.2990000000002
 30
0.0
 11
353.70000000000016
 21
1041.2990000000002
 31
0.0
  0
LINE
  5
4C7
100
AcDbEntity
  8
OBJECT
100
AcDbLine
 10
353.70000000000005
 20
973.79999999999995
 30
0.0
 11
353.70000000000016
 21
1041.2990000000002
 31
0.0
  0
LINE
  5
4C8
100
AcDbEntity
  8
OBJECT
100
AcDbLine
 10
212.0
 20
973.79999999999995
 30
0.0
 11
353.70000000000005
 21
973.79999999999995
 31
0.0
  0
LINE
  5
4C9
100
AcDbEntity
  8
OBJECT
100
AcDbLine
 10
212.0
 20
1042.3
 30
0.0
 11
352.70000000000005
 21
1042.3
 31
0.0
  0
LINE
  5
4CA
100
AcDbEntity
  8
OBJECT
100
AcDbLine
 10
352.70000000000005
 20
1042.3
 30
0.0
 11
352.70000000000005
 21
1041.2990000000002
 31
0.0
  0
LINE
  5
4CB
100
AcDbEntity
  8
OBJECT
100
AcDbLine
 10
212.0
 20
1072.3701638651489
 30
0.0
 11
352.70000000000005
 21
1072.3701638651494
 31
0.0
  0
LINE
  5
4CC
100
AcDbEntity
  8
OBJECT
100
AcDbLine
 10
352.70000000000005
 20
1072.3701638651494
 30
0.0
 11
352.70000000000005
 21
1042.3
 31
0.0
  0
ARC
  5
4CD
100
AcDbEntity
  8
OBJECT
100
AcDbCircle
 10
348.99999994251959
 20
1094.8000000000004
 30
0.0
 40
9.1000000000000014
100
AcDbArc
 50
19.917049747800732
 51
49.582561794289816
  0
ARC
  5
4CE
100
AcDbEntity
  8
OBJECT
100
AcDbCircle
 10
348.99999994251959
 20
1094.8000000000004
 30
0.0
 40
9.1000000000001418
100
AcDbArc
 50
310.41743820570832
 51
340.08295025219667
  0
LINE
  5
4CF
100
AcDbEntity
  8
OBJECT
100
AcDbLine
 10
352.50000000000023
 20
1079.8000000000004
 30
0.0
 11
352.60000003926234
 21
1079.8000000000004
 31
0.0
  0
LINE
  5
4D0
100
AcDbEntity
  8
OBJECT
100
AcDbLine
 10
352.60000003926234
 20
1109.8000000000004
 30
0.0
 11
352.50000000000023
 21
1109.8000000000004
 31
0.0
  0
ARC
  5
4D1
100
AcDbEntity
  8
OBJECT
100
AcDbCircle
 10
352.59999999089098
 20
1082.0999999516287
 30
0.0
 40
2.2999999516282519
100
AcDbArc
 50
270.00000120498913
 51
0.0000006024960157
  0
ARC
  5
4D2
100
AcDbEntity
  8
OBJECT
100
AcDbCircle
 10
352.59999999089098
 20
1107.5000000483717
 30
0.0
 40
2.2999999516285925
100
AcDbArc
 50
359.9999993975041
 51
89.999998795010939
  0
LINE
  5
4D3
100
AcDbEntity
  8
CENTER
100
AcDbLine
 10
279.99999999999886
 20
950.47500112131092
 30
0.0
 11
279.99999999999886
 21
1544.4750011213109
 31
0.0
  0
CIRCLE
  5
4D4
100
AcDbEntity
  8
HIDDEN
100
AcDbCircle
 10
279.99999999999886
 20
1094.8
 30
0.0
 40
7.5
  0
INSERT
  5
4D5
100
AcDbEntity
  8
DIMENTION
100
AcDbBlockReference
  2
*U33
 10
1014.1172999999999
 20
428.99999999999994
 30
0.0
  0
LINE
  5
4D6
100
AcDbEntity
  8
CENTER
100
AcDbLine
 10
-100.0
 20
1084.9999999999998
 30
0.0
 11
-180.0
 21
1084.9999999999998
 31
0.0
  0
LINE
  5
4D7
100
AcDbEntity
  8
CENTER
100
AcDbLine
 10
-140.0
 20
1044.9999999999998
 30
0.0
 11
-140.0
 21
1124.9999999999998
 31
0.0
  0
CIRCLE
  5
4D8
100
AcDbEntity
  8
HIDDEN
100
AcDbCircle
 10
-140.0
 20
1084.9999999999998
 30
0.0
 40
11.0
  0
DIMENSION
  5
4D9
100
AcDbEntity
  8
DIMENTION
100
AcDbDimension
  2
*D34
 10
-233.28269999999998
 20
1204.9999999999998
 30
0.0
 11
-233.28269999999998
 21
1144.9999999999998
 31
0.0
  3
CAD
100
AcDbAlignedDimension
 13
-151.0
 23
1084.9999999999998
 33
0.0
 14
-189.42320452562967
 24
1204.9999999999998
 34
0.0
 50
90.0
100
AcDbRotatedDimension
1001
ACAD
1000
DSTYLE
1002
{
1070
             340
1005
64
1070
             147
1040
0.9999999962747097
1002
}
  0
DIMENSION
  5
4DA
100
AcDbEntity
  8
DIMENTION
100
AcDbDimension
  2
*D35
 10
-140.0
 20
1002.1050011213108
 30
0.0
 11
-121.42320452562967
 21
1003.1050011175855
 31
0.0
 70
             128
  3
CAD
100
AcDbAlignedDimension
 13
-100.0
 23
1031.4750011213109
 33
0.0
 14
-140.0
 24
1071.4750011213109
 34
0.0
100
AcDbRotatedDimension
1001
ACAD
1000
DSTYLE
1002
{
1070
             340
1005
64
1070
             147
1040
0.9999999962747097
1002
}
  0
MTEXT
  5
4DB
100
AcDbEntity
  8
DIMENTION
100
AcDbMText
 10
-828.11988082744165
 20
995.51666778797767
 30
0.0
 40
33.866666666666667
 41
0.0
 71
               1
 72
               1
  1
給水（湯）口\P15Aおすねじ
  7
________
  0
LINE
  5
4DC
100
AcDbEntity
  8
DIMENTION
100
AcDbLine
 10
-589.42320452562967
 20
948.47500112131092
 30
0.0
 11
-829.42320452562944
 21
948.47500112131092
 31
0.0
  0
LINE
  5
4DD
100
AcDbEntity
  8
DIMENTION
100
AcDbLine
 10
-589.42320452562967
 20
898.47500112131092
 30
0.0
 11
-829.42320452562944
 21
898.47500112131092
 31
0.0
  0
LINE
  5
4DE
100
AcDbEntity
  8
DIMENTION
100
AcDbLine
 10
-589.42320452562967
 20
948.47500112131092
 30
0.0
 11
-589.42320452562967
 21
898.47500112131092
 31
0.0
  0
LINE
  5
4DF
100
AcDbEntity
  8
DIMENTION
100
AcDbLine
 10
-589.42320452562967
 20
948.47500112131092
 30
0.0
 11
-150.69703953725707
 21
1082.4361464280425
 31
0.0
  0
LINE
  5
4E0
100
AcDbEntity
  8
DIMENTION
100
AcDbLine
 10
-150.69703953725707
 20
1082.4361464280425
 30
0.0
 11
-178.87214476438203
 21
1065.5068352601056
 31
0.0
  0
LINE
  5
4E1
100
AcDbEntity
  8
DIMENTION
100
AcDbLine
 10
-150.69703953725707
 20
1082.4361464280425
 30
0.0
 11
-183.56205200221552
 21
1081.8624855015998
 31
0.0
  0
LINE
  5
4E2
100
AcDbEntity
  8
OBJECT
100
AcDbLine
 10
-151.0
 20
-594.0
 30
0.0
 11
-129.0
 21
-594.0
 31
0.0
  0
LINE
  5
4E3
100
AcDbEntity
  8
OBJECT
100
AcDbLine
 10
-145.0
 20
-610.0
 30
0.0
 11
-146.0
 21
-594.0
 31
0.0
  0
LINE
  5
4E4
100
AcDbEntity
  8
OBJECT
100
AcDbLine
 10
-135.0
 20
-610.0
 30
0.0
 11
-134.0
 21
-594.0
 31
0.0
  0
LINE
  5
4E5
100
AcDbEntity
  8
CENTER
100
AcDbLine
 10
-140.0
 20
-559.99999999999977
 30
0.0
 11
-140.0
 21
-620.0
 31
0.0
  0
POLYLINE
  5
4E6
100
AcDbEntity
  8
OBJECT
100
AcDb2dPolyline
 66
               1
 10
0.0
 20
0.0
 30
0.0
 75
               5
  0
VERTEX
  5
4E7
100
AcDbEntity
  8
OBJECT
100
AcDbVertex
100
AcDb2dVertex
 10
-129.0
 20
-580.0
 30
0.0
  0
VERTEX
  5
4E8
100
AcDbEntity
  8
OBJECT
100
AcDbVertex
100
AcDb2dVertex
 10
-129.0
 20
-594.0
 30
0.0
  0
VERTEX
  5
4E9
100
AcDbEntity
  8
OBJECT
100
AcDbVertex
100
AcDb2dVertex
 10
-130.0
 20
-610.0
 30
0.0
  0
VERTEX
  5
4EA
100
AcDbEntity
  8
OBJECT
100
AcDbVertex
100
AcDb2dVertex
 10
-150.0
 20
-610.0
 30
0.0
  0
VERTEX
  5
4EB
100
AcDbEntity
  8
OBJECT
100
AcDbVertex
100
AcDb2dVertex
 10
-151.0
 20
-594.0
 30
0.0
  0
VERTEX
  5
4EC
100
AcDbEntity
  8
OBJECT
100
AcDbVertex
100
AcDb2dVertex
 10
-151.0
 20
-580.0
 30
0.0
  0
SEQEND
  5
4ED
100
AcDbEntity
  8
OBJECT
  0
DIMENSION
  5
4EE
100
AcDbEntity
  8
DIMENTION
100
AcDbDimension
  2
*D36
 10
-31.439872309883413
 20
-610.0
 30
0.0
 11
-31.439872309883413
 21
-705.0
 31
0.0
  3
CAD
100
AcDbAlignedDimension
 13
-100.0
 23
-800.0
 33
0.0
 14
-130.0
 24
-610.0
 34
0.0
 50
90.0
100
AcDbRotatedDimension
1001
ACAD
1000
DSTYLE
1002
{
1070
             340
1005
64
1070
             147
1040
0.9999999962747097
1002
}
  0
DIMENSION
  5
4EF
100
AcDbEntity
  8
DIMENTION
100
AcDbDimension
  2
*D37
 10
200.0
 20
846.47500112131092
 30
0.0
 11
239.99999999999943
 21
846.47500112131092
 31
0.0
  3
CAD
100
AcDbAlignedDimension
 13
279.99999999999886
 23
973.79999999999995
 33
0.0
 14
200.0
 24
910.0
 34
0.0
100
AcDbRotatedDimension
1001
ACAD
1000
DSTYLE
1002
{
1070
             340
1005
64
1070
             147
1040
0.9999999962747097
1002
}
  0
INSERT
  5
4F0
100
AcDbEntity
  8
OBJECT
100
AcDbBlockReference
  2
*U38
 10
1014.1172999999999
 20
428.99999999999994
 30
0.0
  0
INSERT
  5
4F1
100
AcDbEntity
  8
OBJECT
100
AcDbBlockReference
  2
*U39
 10
1014.1172999999999
 20
428.99999999999994
 30
0.0
  0
DIMENSION
  5
4F2
100
AcDbEntity
  8
DIMENTION
100
AcDbDimension
  2
*D40
 10
1010.9999999999999
 20
-800.0
 30
0.0
 11
1010.9999999999999
 21
97.499999999999943
 31
0.0
  3
CAD
100
AcDbAlignedDimension
 13
1675.0
 23
995.0
 33
0.0
 14
1399.9999999999998
 24
-800.0
 34
0.0
 50
90.0
100
AcDbRotatedDimension
1001
ACAD
1000
DSTYLE
1002
{
1070
             340
1005
64
1070
               3
1000
<>（ドア開放
1070
             147
1040
0.9999999962747097
1002
}
  0
DIMENSION
  5
4F3
100
AcDbEntity
  8
DIMENTION
100
AcDbDimension
  2
*D41
 10
1143.9999999999998
 20
-0.0000000000002274
 30
0.0
 11
1143.9999999999998
 21
204.99999999999966
 31
0.0
  3
CAD
100
AcDbAlignedDimension
 13
1387.8650519031144
 23
409.99999999999955
 33
0.0
 14
1365.0
 24
-0.0000000000002274
 34
0.0
 50
90.0
100
AcDbRotatedDimension
1001
ACAD
1000
DSTYLE
1002
{
1070
             340
1005
64
1070
               3
1000
<>（開口）
1070
             147
1040
5.0
1002
}
  0
MTEXT
  5
4F4
100
AcDbEntity
  8
TEXT
100
AcDbMText
 10
-61.022699999999531
 20
-848.10879999999997
 30
0.0
 40
28.222222222222225
 41
0.0
 71
               1
 72
               1
  1
検  図
  7
________
  0
MTEXT
  5
4F5
100
AcDbEntity
  8
TEXT
100
AcDbMText
 10
-61.022699999999531
 20
-893.1899999999996
 30
0.0
 40
28.222222222222225
 41
0.0
 71
               1
 72
               1
  1
担  当
  7
________
  0
MTEXT
  5
4F6
100
AcDbEntity
  8
TEXT
100
AcDbMText
 10
-61.022699999999531
 20
-938.05999999999995
 30
0.0
 40
28.222222222222225
 41
0.0
 71
               1
 72
               1
  1
年月日
  7
________
  0
MTEXT
  5
4F7
100
AcDbEntity
  8
TEXT
100
AcDbMText
 10
124.29329999542688
 20
-938.74485962282256
 30
0.0
 40
28.222222222222229
 41
0.0
 71
               1
 72
               1
  1
19.12.26
  7
________
  0
MTEXT
  5
4F8
100
AcDbEntity
  8
TEXT
100
AcDbMText
 10
138.1816111054568
 20
-894.59185962282277
 30
0.0
 40
28.222222222222229
 41
0.0
 71
               1
 72
               1
  1
下　野
  7
________
  0
MTEXT
  5
4F9
100
AcDbEntity
  8
TEXT
100
AcDbMText
 10
138.1816111054568
 20
-848.59185962282277
 30
0.0
 40
28.222222222222229
 41
0.0
 71
               1
 72
               1
  1
大　谷
  7
________
  0
POLYLINE
  5
4FA
100
AcDbEntity
  8
OUTLINE
  6
STYLE_15
100
AcDb2dPolyline
 66
               1
 10
0.0
 20
0.0
 30
0.0
 75
               5
  0
VERTEX
  5
4FB
100
AcDbEntity
  8
OUTLINE
  6
STYLE_15
100
AcDbVertex
100
AcDb2dVertex
 10
-4.6046000000001186
 20
1498.0
 30
0.0
  0
VERTEX
  5
4FC
100
AcDbEntity
  8
OUTLINE
  6
STYLE_15
100
AcDbVertex
100
AcDb2dVertex
 10
-390.00000000000023
 20
1498.0
 30
0.0
  0
VERTEX
  5
4FD
100
AcDbEntity
  8
OUTLINE
  6
STYLE_15
100
AcDbVertex
100
AcDb2dVertex
 10
-390.00000000000023
 20
920.0
 30
0.0
  0
VERTEX
  5
4FE
100
AcDbEntity
  8
OUTLINE
  6
STYLE_15
100
AcDbVertex
100
AcDb2dVertex
 10
190.0
 20
920.0
 30
0.0
  0
VERTEX
  5
4FF
100
AcDbEntity
  8
OUTLINE
  6
STYLE_15
100
AcDbVertex
100
AcDb2dVertex
 10
190.0
 20
1498.0
 30
0.0
  0
VERTEX
  5
500
100
AcDbEntity
  8
OUTLINE
  6
STYLE_15
100
AcDbVertex
100
AcDb2dVertex
 10
14.604700000000093
 20
1498.0
 30
0.0
  0
SEQEND
  5
501
100
AcDbEntity
  8
OUTLINE
  6
STYLE_15
  0
INSERT
  5
502
100
AcDbEntity
  8
HIDDEN
100
AcDbBlockReference
  2
*U42
 10
1014.1172999999999
 20
428.99999999999994
 30
0.0
  0
POINT
  5
503
100
AcDbEntity
  8
DIMENTION
  6
CONTINUOUS
100
AcDbPoint
 10
-100.0
 20
1205.0
 30
0.0
  0
LINE
  5
504
100
AcDbEntity
  8
OBJECT
100
AcDbLine
 10
-407.0
 20
-15.0
 30
0.0
 11
207.0
 21
-15.0
 31
0.0
  0
LINE
  5
505
100
AcDbEntity
  8
OBJECT
100
AcDbLine
 10
212.0
 20
0.0
 30
0.0
 11
212.0
 21
-10.0
 31
0.0
  0
LINE
  5
506
100
AcDbEntity
  8
OBJECT
100
AcDbLine
 10
-412.0
 20
0.0
 30
0.0
 11
212.0
 21
0.0
 31
0.0
  0
LINE
  5
507
100
AcDbEntity
  8
OBJECT
100
AcDbLine
 10
-390.0
 20
485.0
 30
0.0
 11
190.0
 21
485.0
 31
0.0
  0
POLYLINE
  5
508
100
AcDbEntity
  8
OBJECT
100
AcDb2dPolyline
 66
               1
 10
0.0
 20
0.0
 30
0.0
 70
               1
 75
               5
  0
VERTEX
  5
509
100
AcDbEntity
  8
OBJECT
100
AcDbVertex
100
AcDb2dVertex
 10
243.71950000000106
 20
270.79440000000005
 30
0.0
  0
VERTEX
  5
50A
100
AcDbEntity
  8
OBJECT
100
AcDbVertex
100
AcDb2dVertex
 10
243.71950000000106
 20
270.79440000000005
 30
0.0
  0
VERTEX
  5
50B
100
AcDbEntity
  8
OBJECT
100
AcDbVertex
100
AcDb2dVertex
 10
237.5
 20
270.79440000000005
 30
0.0
  0
VERTEX
  5
50C
100
AcDbEntity
  8
OBJECT
100
AcDbVertex
100
AcDb2dVertex
 10
237.5
 20
271.80000000000001
 30
0.0
  0
VERTEX
  5
50D
100
AcDbEntity
  8
OBJECT
100
AcDbVertex
100
AcDb2dVertex
 10
237.5
 20
284.80000000000001
 30
0.0
  0
VERTEX
  5
50E
100
AcDbEntity
  8
OBJECT
100
AcDbVertex
100
AcDb2dVertex
 10
237.5
 20
285.8056000000002
 30
0.0
  0
VERTEX
  5
50F
100
AcDbEntity
  8
OBJECT
100
AcDbVertex
100
AcDb2dVertex
 10
243.71950000000106
 20
285.8056000000002
 30
0.0
  0
VERTEX
  5
510
100
AcDbEntity
  8
OBJECT
100
AcDbVertex
100
AcDb2dVertex
 10
244.30010000000038
 20
284.80000000000001
 30
0.0
  0
VERTEX
  5
511
100
AcDbEntity
  8
OBJECT
100
AcDbVertex
100
AcDb2dVertex
 10
244.30010000000038
 20
271.80000000000001
 30
0.0
  0
SEQEND
  5
512
100
AcDbEntity
  8
OBJECT
  0
SPLINE
  5
513
100
AcDbEntity
  8
OBJECT
100
AcDbSpline
210
0.0
220
0.0
230
1.0
 70
               8
 71
               2
 72
               6
 73
               3
 74
               0
 42
0.000001
 43
0.000001
 40
0.0
 40
0.0
 40
0.0
 40
1.0
 40
1.0
 40
1.0
 10
243.71950000000106
 20
285.8056000000002
 30
0.0
 10
244.87831069958816
 20
283.92920000000009
 30
0.0
 10
243.71950000000106
 20
282.05279999999999
 30
0.0
  0
SPLINE
  5
514
100
AcDbEntity
  8
OBJECT
100
AcDbSpline
210
0.0
220
0.0
230
1.0
 70
               8
 71
               2
 72
               6
 73
               3
 74
               0
 42
0.000001
 43
0.000001
 40
0.0
 40
0.0
 40
0.0
 40
1.0
 40
1.0
 40
1.0
 10
243.71950000000106
 20
282.05279999999999
 30
0.0
 10
244.87831069958816
 20
278.30000000000001
 30
0.0
 10
243.71950000000106
 20
274.54720000000003
 30
0.0
  0
SPLINE
  5
515
100
AcDbEntity
  8
OBJECT
100
AcDbSpline
210
0.0
220
0.0
230
1.0
 70
               8
 71
               2
 72
               6
 73
               3
 74
               0
 42
0.000001
 43
0.000001
 40
0.0
 40
0.0
 40
0.0
 40
1.0
 40
1.0
 40
1.0
 10
243.71950000000106
 20
274.54720000000003
 30
0.0
 10
244.87831069958816
 20
272.67080000000027
 30
0.0
 10
243.71950000000106
 20
270.79440000000005
 30
0.0
  0
LINE
  5
516
100
AcDbEntity
  8
OBJECT
100
AcDbLine
 10
243.71950000000106
 20
282.05279999999999
 30
0.0
 11
237.51950000000033
 21
282.05279999999999
 31
0.0
  0
LINE
  5
517
100
AcDbEntity
  8
OBJECT
100
AcDbLine
 10
243.71950000000106
 20
274.54720000000003
 30
0.0
 11
237.51950000000033
 21
274.54720000000003
 31
0.0
  0
POLYLINE
  5
518
100
AcDbEntity
  8
OBJECT
100
AcDb2dPolyline
 66
               1
 10
0.0
 20
0.0
 30
0.0
 75
               5
  0
VERTEX
  5
519
100
AcDbEntity
  8
OBJECT
100
AcDbVertex
100
AcDb2dVertex
 10
200.0
 20
526.0
 30
0.0
  0
VERTEX
  5
51A
100
AcDbEntity
  8
OBJECT
100
AcDbVertex
100
AcDb2dVertex
 10
212.0
 20
526.0
 30
0.0
  0
VERTEX
  5
51B
100
AcDbEntity
  8
OBJECT
100
AcDbVertex
100
AcDb2dVertex
 10
212.0
 20
514.0
 30
0.0
  0
VERTEX
  5
51C
100
AcDbEntity
  8
OBJECT
100
AcDbVertex
100
AcDb2dVertex
 10
200.0
 20
514.0
 30
0.0
  0
SEQEND
  5
51D
100
AcDbEntity
  8
OBJECT
  0
POLYLINE
  5
51E
100
AcDbEntity
  8
OBJECT
100
AcDb2dPolyline
 66
               1
 10
0.0
 20
0.0
 30
0.0
 75
               5
  0
VERTEX
  5
51F
100
AcDbEntity
  8
OBJECT
100
AcDbVertex
100
AcDb2dVertex
 10
212.5
 20
525.0
 30
0.0
  0
VERTEX
  5
520
100
AcDbEntity
  8
OBJECT
100
AcDbVertex
100
AcDb2dVertex
 10
212.0
 20
525.0
 30
0.0
  0
VERTEX
  5
521
100
AcDbEntity
  8
OBJECT
100
AcDbVertex
100
AcDb2dVertex
 10
212.0
 20
515.0
 30
0.0
  0
VERTEX
  5
522
100
AcDbEntity
  8
OBJECT
100
AcDbVertex
100
AcDb2dVertex
 10
212.5
 20
515.0
 30
0.0
  0
SEQEND
  5
523
100
AcDbEntity
  8
OBJECT
  0
LINE
  5
524
100
AcDbEntity
  8
OBJECT
100
AcDbLine
 10
200.0
 20
540.0
 30
0.0
 11
190.0
 21
540.0
 31
0.0
  0
LINE
  5
525
100
AcDbEntity
  8
OBJECT
100
AcDbLine
 10
200.0
 20
203.9104679071275
 30
0.0
 11
200.0
 21
540.0
 31
0.0
  0
LINE
  5
526
100
AcDbEntity
  8
OBJECT
100
AcDbLine
 10
193.0
 20
540.0
 30
0.0
 11
193.0
 21
202.20091261266703
 31
0.0
  0
LINE
  5
527
100
AcDbEntity
  8
OBJECT
100
AcDbLine
 10
190.0
 20
565.0
 30
0.0
 11
190.0
 21
201.66937132332026
 31
0.0
  0
LINE
  5
528
100
AcDbEntity
  8
OBJECT
100
AcDbLine
 10
190.0
 20
176.77698742992359
 30
0.0
 11
190.0
 21
0.0
 31
0.0
  0
LINE
  5
529
100
AcDbEntity
  8
OBJECT
100
AcDbLine
 10
-390.0
 20
565.0
 30
0.0
 11
190.0
 21
565.0
 31
0.0
  0
LINE
  5
52A
100
AcDbEntity
  8
OBJECT
100
AcDbLine
 10
200.0
 20
0.0
 30
0.0
 11
200.0
 21
178.9969422926342
 31
0.0
  0
LINE
  5
52B
100
AcDbEntity
  8
OBJECT
100
AcDbLine
 10
193.0
 20
177.32926292534205
 30
0.0
 11
193.0
 21
45.0
 31
0.0
  0
DIMENSION
  5
52C
100
AcDbEntity
  8
DIMENTION
100
AcDbDimension
  2
*D43
 10
-445.0
 20
643.99999999999977
 30
0.0
 11
-100.0
 21
643.99999999999977
 31
0.0
  3
CAD
100
AcDbAlignedDimension
 13
245.0
 23
520.00009999999997
 33
0.0
 14
-445.0
 24
520.00009999999997
 34
0.0
100
AcDbRotatedDimension
1001
ACAD
1000
DSTYLE
1002
{
1070
             271
1070
               0
1070
             340
1005
64
1070
             147
1040
0.9999999999999999
1002
}
  0
LINE
  5
52D
100
AcDbEntity
  8
OBJECT
100
AcDbLine
 10
212.5
 20
213.24397704365322
 30
0.0
 11
212.5
 21
535.7016000000001
 31
0.0
  0
LINE
  5
52E
100
AcDbEntity
  8
OBJECT
100
AcDbLine
 10
-371.38642629838114
 20
200.26791798131035
 30
0.0
 11
171.41357370161904
 21
200.26791798131035
 31
0.0
  0
LINE
  5
52F
100
AcDbEntity
  8
OBJECT
100
AcDbLine
 10
171.41357370161859
 20
175.26791798131035
 30
0.0
 11
-371.38642629838114
 21
175.26791798131035
 31
0.0
  0
LINE
  5
530
100
AcDbEntity
  8
OBJECT
100
AcDbLine
 10
237.5
 20
535.7016000000001
 30
0.0
 11
237.5
 21
213.24397704365322
 31
0.0
  0
LINE
  5
531
100
AcDbEntity
  8
OBJECT
100
AcDbLine
 10
212.5
 20
535.7016000000001
 30
0.0
 11
237.5
 21
535.7016000000001
 31
0.0
  0
DIMENSION
  5
532
100
AcDbEntity
  8
DIMENTION
100
AcDbDimension
  2
*D44
 10
300.0
 20
0.0
 30
0.0
 11
300.0
 21
110.0
 31
0.0
  3
CAD
100
AcDbAlignedDimension
 13
229.0
 23
220.0
 33
0.0
 14
212.0
 24
0.0
 34
0.0
 50
90.0
100
AcDbRotatedDimension
1001
ACAD
1000
DSTYLE
1002
{
1070
             340
1005
64
1070
             147
1040
0.9998999999999999
1002
}
  0
LINE
  5
533
100
AcDbEntity
  8
OBJECT
100
AcDbLine
 10
202.0
 20
275.00000000000023
 30
0.0
 11
200.0
 21
275.00000000000023
 31
0.0
  0
LINE
  5
534
100
AcDbEntity
  8
OBJECT
100
AcDbLine
 10
202.0
 20
0.0
 30
0.0
 11
202.0
 21
179.57607433725983
 31
0.0
  0
LINE
  5
535
100
AcDbEntity
  8
OBJECT
100
AcDbLine
 10
202.0
 20
204.56584701689579
 30
0.0
 11
202.0
 21
275.00000000000023
 31
0.0
  0
LINE
  5
536
100
AcDbEntity
  8
OBJECT
100
AcDbLine
 10
204.0
 20
217.5
 30
0.0
 11
202.0
 21
217.5
 31
0.0
  0
LINE
  5
537
100
AcDbEntity
  8
OBJECT
100
AcDbLine
 10
204.0
 20
241.65826745345362
 30
0.0
 11
204.0
 21
217.5
 31
0.0
  0
LINE
  5
538
100
AcDbEntity
  8
OBJECT
100
AcDbLine
 10
206.0
 20
239.00000000000023
 30
0.0
 11
206.0
 21
221.0
 31
0.0
  0
LINE
  5
539
100
AcDbEntity
  8
OBJECT
100
AcDbLine
 10
207.5
 20
239.00000000000023
 30
0.0
 11
207.5
 21
221.0
 31
0.0
  0
LINE
  5
53A
100
AcDbEntity
  8
OBJECT
100
AcDbLine
 10
204.0
 20
221.0
 30
0.0
 11
206.0
 21
221.0
 31
0.0
  0
LINE
  5
53B
100
AcDbEntity
  8
OBJECT
100
AcDbLine
 10
212.5
 20
221.0
 30
0.0
 11
207.5
 21
221.0
 31
0.0
  0
LINE
  5
53C
100
AcDbEntity
  8
HIDDEN
100
AcDbLine
 10
221.0
 20
237.00000000000023
 30
0.0
 11
221.0
 21
223.0
 31
0.0
  0
LINE
  5
53D
100
AcDbEntity
  8
OBJECT
100
AcDbLine
 10
206.0
 20
222.0
 30
0.0
 11
207.5
 21
222.0
 31
0.0
  0
LINE
  5
53E
100
AcDbEntity
  8
HIDDEN
100
AcDbLine
 10
221.0
 20
226.0
 30
0.0
 11
224.0
 21
226.0
 31
0.0
  0
LINE
  5
53F
100
AcDbEntity
  8
HIDDEN
100
AcDbLine
 10
226.0
 20
220.0
 30
0.0
 11
226.0
 21
250.00000000000023
 31
0.0
  0
LINE
  5
540
100
AcDbEntity
  8
HIDDEN
100
AcDbLine
 10
229.0
 20
220.0
 30
0.0
 11
226.0
 21
220.0
 31
0.0
  0
LINE
  5
541
100
AcDbEntity
  8
HIDDEN
100
AcDbLine
 10
229.0
 20
240.00000000000023
 30
0.0
 11
229.0
 21
220.0
 31
0.0
  0
LINE
  5
542
100
AcDbEntity
  8
HIDDEN
100
AcDbLine
 10
224.0
 20
225.0
 30
0.0
 11
224.0
 21
235.00000000000023
 31
0.0
  0
LINE
  5
543
100
AcDbEntity
  8
HIDDEN
100
AcDbLine
 10
231.0
 20
225.0
 30
0.0
 11
229.0
 21
225.0
 31
0.0
  0
LINE
  5
544
100
AcDbEntity
  8
HIDDEN
100
AcDbLine
 10
226.0
 20
225.0
 30
0.0
 11
224.0
 21
225.0
 31
0.0
  0
LINE
  5
545
100
AcDbEntity
  8
HIDDEN
100
AcDbLine
 10
231.0
 20
235.00000000000023
 30
0.0
 11
231.0
 21
225.0
 31
0.0
  0
LINE
  5
546
100
AcDbEntity
  8
HIDDEN
100
AcDbLine
 10
224.0
 20
235.00000000000023
 30
0.0
 11
226.0
 21
235.00000000000023
 31
0.0
  0
INSERT
  5
547
100
AcDbEntity
  8
OBJECT
100
AcDbBlockReference
  2
*U45
 10
1014.1172999999999
 20
428.99999999999994
 30
0.0
  0
ARC
  5
548
100
AcDbEntity
  8
OBJECT
100
AcDbCircle
 10
207.0
 20
-10.0
 30
0.0
 40
5.0
100
AcDbArc
 50
270.0
 51
0.0
  0
ARC
  5
549
100
AcDbEntity
  8
HIDDEN
100
AcDbCircle
 10
219.0
 20
223.0
 30
0.0
 40
2.0
100
AcDbArc
 50
270.0
 51
0.0
  0
LINE
  5
54A
100
AcDbEntity
  8
OBJECT
100
AcDbLine
 10
204.0
 20
239.00000000000023
 30
0.0
 11
206.0
 21
239.00000000000023
 31
0.0
  0
LINE
  5
54B
100
AcDbEntity
  8
OBJECT
100
AcDbLine
 10
212.5
 20
239.00000000000023
 30
0.0
 11
207.5
 21
239.00000000000023
 31
0.0
  0
LINE
  5
54C
100
AcDbEntity
  8
OBJECT
100
AcDbLine
 10
206.0
 20
238.00000000000023
 30
0.0
 11
207.5
 21
238.00000000000023
 31
0.0
  0
LINE
  5
54D
100
AcDbEntity
  8
HIDDEN
100
AcDbLine
 10
221.0
 20
234.00000000000023
 30
0.0
 11
224.0
 21
234.00000000000023
 31
0.0
  0
LINE
  5
54E
100
AcDbEntity
  8
HIDDEN
100
AcDbLine
 10
229.0
 20
240.00000000000023
 30
0.0
 11
226.0
 21
240.00000000000023
 31
0.0
  0
LINE
  5
54F
100
AcDbEntity
  8
HIDDEN
100
AcDbLine
 10
231.0
 20
235.00000000000023
 30
0.0
 11
229.0
 21
235.00000000000023
 31
0.0
  0
LINE
  5
550
100
AcDbEntity
  8
HIDDEN
100
AcDbLine
 10
226.0
 20
235.00000000000023
 30
0.0
 11
224.0
 21
235.00000000000023
 31
0.0
  0
ARC
  5
551
100
AcDbEntity
  8
HIDDEN
100
AcDbCircle
 10
219.0
 20
237.00000000000023
 30
0.0
 40
2.0
100
AcDbArc
 50
0.0
 51
90.0
  0
SPLINE
  5
552
100
AcDbEntity
  8
OBJECT
100
AcDbSpline
210
0.0
220
0.0
230
1.0
 70
               8
 71
               2
 72
              10
 73
               7
 74
               0
 42
0.000001
 43
0.000001
 40
0.0
 40
0.0
 40
0.0
 40
0.4547777859909581
 40
0.4547777859909581
 40
0.8035774133482021
 40
0.8035774133482021
 40
1.0
 40
1.0
 40
1.0
 10
171.41357370161904
 20
200.26791798131035
 30
0.0
 10
182.42628551053804
 20
200.26791798131035
 30
0.0
 10
191.963573701619
 20
202.00638025465702
 30
0.0
 10
201.50086189269996
 20
203.74484252800369
 30
0.0
 10
207.00721779715946
 20
206.75594751248178
 30
0.0
 10
212.51357370161895
 20
209.76705249695988
 30
0.0
 10
212.51357370161895
 20
213.24397704365322
 30
0.0
  0
SPLINE
  5
553
100
AcDbEntity
  8
OBJECT
100
AcDbSpline
210
0.0
220
0.0
230
1.0
 70
               8
 71
               2
 72
              10
 73
               7
 74
               0
 42
0.000001
 43
0.000001
 40
0.0
 40
0.0
 40
0.0
 40
0.403298735877151
 40
0.403298735877151
 40
0.7414284095754493
 40
0.7414284095754493
 40
1.0
 40
1.0
 40
1.0
 10
171.41357370161859
 20
175.26791798131035
 30
0.0
 10
189.12501532131591
 20
175.26791798131035
 30
0.0
 10
204.46357370161877
 20
180.35574516004604
 30
0.0
 10
219.80213208192163
 20
185.44357233878173
 30
0.0
 10
228.65785289177029
 20
194.25594751248181
 30
0.0
 10
237.51357370161895
 20
203.06832268618189
 30
0.0
 10
237.51357370161895
 20
213.24397704365322
 30
0.0
  0
POLYLINE
  5
554
100
AcDbEntity
  8
OBJECT
100
AcDb2dPolyline
 66
               1
 10
0.0
 20
0.0
 30
0.0
 70
               1
 75
               5
  0
VERTEX
  5
555
100
AcDbEntity
  8
OBJECT
100
AcDbVertex
100
AcDb2dVertex
 10
243.71950000000106
 20
512.49440000000004
 30
0.0
  0
VERTEX
  5
556
100
AcDbEntity
  8
OBJECT
100
AcDbVertex
100
AcDb2dVertex
 10
243.71950000000106
 20
512.49440000000004
 30
0.0
  0
VERTEX
  5
557
100
AcDbEntity
  8
OBJECT
100
AcDbVertex
100
AcDb2dVertex
 10
237.5
 20
512.49440000000004
 30
0.0
  0
VERTEX
  5
558
100
AcDbEntity
  8
OBJECT
100
AcDbVertex
100
AcDb2dVertex
 10
237.5
 20
513.5
 30
0.0
  0
VERTEX
  5
559
100
AcDbEntity
  8
OBJECT
100
AcDbVertex
100
AcDb2dVertex
 10
237.5
 20
526.5
 30
0.0
  0
VERTEX
  5
55A
100
AcDbEntity
  8
OBJECT
100
AcDbVertex
100
AcDb2dVertex
 10
237.5
 20
527.50560000000019
 30
0.0
  0
VERTEX
  5
55B
100
AcDbEntity
  8
OBJECT
100
AcDbVertex
100
AcDb2dVertex
 10
243.71950000000106
 20
527.50560000000019
 30
0.0
  0
VERTEX
  5
55C
100
AcDbEntity
  8
OBJECT
100
AcDbVertex
100
AcDb2dVertex
 10
244.30010000000038
 20
526.5
 30
0.0
  0
VERTEX
  5
55D
100
AcDbEntity
  8
OBJECT
100
AcDbVertex
100
AcDb2dVertex
 10
244.30010000000038
 20
513.5
 30
0.0
  0
SEQEND
  5
55E
100
AcDbEntity
  8
OBJECT
  0
SPLINE
  5
55F
100
AcDbEntity
  8
OBJECT
100
AcDbSpline
210
0.0
220
0.0
230
1.0
 70
               8
 71
               2
 72
               6
 73
               3
 74
               0
 42
0.000001
 43
0.000001
 40
0.0
 40
0.0
 40
0.0
 40
1.0
 40
1.0
 40
1.0
 10
243.71950000000106
 20
527.50560000000019
 30
0.0
 10
244.87831069958816
 20
525.62920000000008
 30
0.0
 10
243.71950000000106
 20
523.75279999999998
 30
0.0
  0
SPLINE
  5
560
100
AcDbEntity
  8
OBJECT
100
AcDbSpline
210
0.0
220
0.0
230
1.0
 70
               8
 71
               2
 72
               6
 73
               3
 74
               0
 42
0.000001
 43
0.000001
 40
0.0
 40
0.0
 40
0.0
 40
1.0
 40
1.0
 40
1.0
 10
243.71950000000106
 20
523.75279999999998
 30
0.0
 10
244.87831069958816
 20
520.0
 30
0.0
 10
243.71950000000106
 20
516.24720000000002
 30
0.0
  0
SPLINE
  5
561
100
AcDbEntity
  8
OBJECT
100
AcDbSpline
210
0.0
220
0.0
230
1.0
 70
               8
 71
               2
 72
               6
 73
               3
 74
               0
 42
0.000001
 43
0.000001
 40
0.0
 40
0.0
 40
0.0
 40
1.0
 40
1.0
 40
1.0
 10
243.71950000000106
 20
516.24720000000002
 30
0.0
 10
244.87831069958816
 20
514.37080000000026
 30
0.0
 10
243.71950000000106
 20
512.49440000000004
 30
0.0
  0
LINE
  5
562
100
AcDbEntity
  8
OBJECT
100
AcDbLine
 10
243.71950000000106
 20
523.75279999999998
 30
0.0
 11
237.51950000000033
 21
523.75279999999998
 31
0.0
  0
LINE
  5
563
100
AcDbEntity
  8
OBJECT
100
AcDbLine
 10
243.71950000000106
 20
516.24720000000002
 30
0.0
 11
237.51950000000033
 21
516.24720000000002
 31
0.0
  0
LINE
  5
564
100
AcDbEntity
  8
OBJECT
100
AcDbLine
 10
-412.0
 20
0.0
 30
0.0
 11
-412.0
 21
-10.0
 31
0.0
  0
POLYLINE
  5
565
100
AcDbEntity
  8
OBJECT
100
AcDb2dPolyline
 66
               1
 10
0.0
 20
0.0
 30
0.0
 70
               1
 75
               5
  0
VERTEX
  5
566
100
AcDbEntity
  8
OBJECT
100
AcDbVertex
100
AcDb2dVertex
 10
-443.71950000000106
 20
270.79440000000005
 30
0.0
  0
VERTEX
  5
567
100
AcDbEntity
  8
OBJECT
100
AcDbVertex
100
AcDb2dVertex
 10
-443.71950000000106
 20
270.79440000000005
 30
0.0
  0
VERTEX
  5
568
100
AcDbEntity
  8
OBJECT
100
AcDbVertex
100
AcDb2dVertex
 10
-437.5
 20
270.79440000000005
 30
0.0
  0
VERTEX
  5
569
100
AcDbEntity
  8
OBJECT
100
AcDbVertex
100
AcDb2dVertex
 10
-437.5
 20
271.80000000000001
 30
0.0
  0
VERTEX
  5
56A
100
AcDbEntity
  8
OBJECT
100
AcDbVertex
100
AcDb2dVertex
 10
-437.5
 20
284.80000000000001
 30
0.0
  0
VERTEX
  5
56B
100
AcDbEntity
  8
OBJECT
100
AcDbVertex
100
AcDb2dVertex
 10
-437.5
 20
285.8056000000002
 30
0.0
  0
VERTEX
  5
56C
100
AcDbEntity
  8
OBJECT
100
AcDbVertex
100
AcDb2dVertex
 10
-443.71950000000106
 20
285.8056000000002
 30
0.0
  0
VERTEX
  5
56D
100
AcDbEntity
  8
OBJECT
100
AcDbVertex
100
AcDb2dVertex
 10
-444.30010000000038
 20
284.80000000000001
 30
0.0
  0
VERTEX
  5
56E
100
AcDbEntity
  8
OBJECT
100
AcDbVertex
100
AcDb2dVertex
 10
-444.30010000000038
 20
271.80000000000001
 30
0.0
  0
SEQEND
  5
56F
100
AcDbEntity
  8
OBJECT
  0
SPLINE
  5
570
100
AcDbEntity
  8
OBJECT
100
AcDbSpline
210
0.0
220
0.0
230
1.0
 70
               8
 71
               2
 72
               6
 73
               3
 74
               0
 42
0.000001
 43
0.000001
 40
0.0
 40
0.0
 40
0.0
 40
1.0
 40
1.0
 40
1.0
 10
-443.71950000000106
 20
285.8056000000002
 30
0.0
 10
-444.87831069958816
 20
283.92920000000009
 30
0.0
 10
-443.71950000000106
 20
282.05279999999999
 30
0.0
  0
SPLINE
  5
571
100
AcDbEntity
  8
OBJECT
100
AcDbSpline
210
0.0
220
0.0
230
1.0
 70
               8
 71
               2
 72
               6
 73
               3
 74
               0
 42
0.000001
 43
0.000001
 40
0.0
 40
0.0
 40
0.0
 40
1.0
 40
1.0
 40
1.0
 10
-443.71950000000106
 20
282.05279999999999
 30
0.0
 10
-444.87831069958816
 20
278.30000000000001
 30
0.0
 10
-443.71950000000106
 20
274.54720000000003
 30
0.0
  0
SPLINE
  5
572
100
AcDbEntity
  8
OBJECT
100
AcDbSpline
210
0.0
220
0.0
230
1.0
 70
               8
 71
               2
 72
               6
 73
               3
 74
               0
 42
0.000001
 43
0.000001
 40
0.0
 40
0.0
 40
0.0
 40
1.0
 40
1.0
 40
1.0
 10
-443.71950000000106
 20
274.54720000000003
 30
0.0
 10
-444.87831069958816
 20
272.67080000000027
 30
0.0
 10
-443.71950000000106
 20
270.79440000000005
 30
0.0
  0
LINE
  5
573
100
AcDbEntity
  8
OBJECT
100
AcDbLine
 10
-443.71950000000106
 20
282.05279999999999
 30
0.0
 11
-437.51950000000033
 21
282.05279999999999
 31
0.0
  0
LINE
  5
574
100
AcDbEntity
  8
OBJECT
100
AcDbLine
 10
-443.71950000000106
 20
274.54720000000003
 30
0.0
 11
-437.51950000000033
 21
274.54720000000003
 31
0.0
  0
POLYLINE
  5
575
100
AcDbEntity
  8
OBJECT
100
AcDb2dPolyline
 66
               1
 10
0.0
 20
0.0
 30
0.0
 75
               5
  0
VERTEX
  5
576
100
AcDbEntity
  8
OBJECT
100
AcDbVertex
100
AcDb2dVertex
 10
-400.0
 20
526.0
 30
0.0
  0
VERTEX
  5
577
100
AcDbEntity
  8
OBJECT
100
AcDbVertex
100
AcDb2dVertex
 10
-412.0
 20
526.0
 30
0.0
  0
VERTEX
  5
578
100
AcDbEntity
  8
OBJECT
100
AcDbVertex
100
AcDb2dVertex
 10
-412.0
 20
514.0
 30
0.0
  0
VERTEX
  5
579
100
AcDbEntity
  8
OBJECT
100
AcDbVertex
100
AcDb2dVertex
 10
-400.0
 20
514.0
 30
0.0
  0
SEQEND
  5
57A
100
AcDbEntity
  8
OBJECT
  0
POLYLINE
  5
57B
100
AcDbEntity
  8
OBJECT
100
AcDb2dPolyline
 66
               1
 10
0.0
 20
0.0
 30
0.0
 75
               5
  0
VERTEX
  5
57C
100
AcDbEntity
  8
OBJECT
100
AcDbVertex
100
AcDb2dVertex
 10
-412.5
 20
525.0
 30
0.0
  0
VERTEX
  5
57D
100
AcDbEntity
  8
OBJECT
100
AcDbVertex
100
AcDb2dVertex
 10
-412.0
 20
525.0
 30
0.0
  0
VERTEX
  5
57E
100
AcDbEntity
  8
OBJECT
100
AcDbVertex
100
AcDb2dVertex
 10
-412.0
 20
515.0
 30
0.0
  0
VERTEX
  5
57F
100
AcDbEntity
  8
OBJECT
100
AcDbVertex
100
AcDb2dVertex
 10
-412.5
 20
515.0
 30
0.0
  0
SEQEND
  5
580
100
AcDbEntity
  8
OBJECT
  0
LINE
  5
581
100
AcDbEntity
  8
OBJECT
100
AcDbLine
 10
-400.0
 20
540.0
 30
0.0
 11
-390.0
 21
540.0
 31
0.0
  0
LINE
  5
582
100
AcDbEntity
  8
OBJECT
100
AcDbLine
 10
-400.0
 20
203.91841082392801
 30
0.0
 11
-400.0
 21
540.0
 31
0.0
  0
LINE
  5
583
100
AcDbEntity
  8
OBJECT
100
AcDbLine
 10
-393.0
 20
540.0
 30
0.0
 11
-393.0
 21
202.2066192153614
 31
0.0
  0
LINE
  5
584
100
AcDbEntity
  8
OBJECT
100
AcDbLine
 10
-390.0
 20
565.0
 30
0.0
 11
-390.0
 21
201.67349224788626
 31
0.0
  0
LINE
  5
585
100
AcDbEntity
  8
OBJECT
100
AcDbLine
 10
-390.0
 20
176.78103734972373
 30
0.0
 11
-390.0
 21
0.0
 31
0.0
  0
LINE
  5
586
100
AcDbEntity
  8
OBJECT
100
AcDbLine
 10
-400.0
 20
0.0
 30
0.0
 11
-400.0
 21
179.00447894012567
 31
0.0
  0
LINE
  5
587
100
AcDbEntity
  8
OBJECT
100
AcDbLine
 10
-393.0
 20
177.33469872849909
 30
0.0
 11
-393.0
 21
45.0
 31
0.0
  0
LINE
  5
588
100
AcDbEntity
  8
OBJECT
100
AcDbLine
 10
-412.4864262983815
 20
213.24397704365322
 30
0.0
 11
-412.5
 21
535.7016000000001
 31
0.0
  0
LINE
  5
589
100
AcDbEntity
  8
OBJECT
100
AcDbLine
 10
-437.5
 20
535.7016000000001
 30
0.0
 11
-437.5
 21
213.24397704365322
 31
0.0
  0
LINE
  5
58A
100
AcDbEntity
  8
OBJECT
100
AcDbLine
 10
-412.5
 20
535.7016000000001
 30
0.0
 11
-437.5
 21
535.7016000000001
 31
0.0
  0
LINE
  5
58B
100
AcDbEntity
  8
OBJECT
100
AcDbLine
 10
-402.0
 20
0.0
 30
0.0
 11
-402.0
 21
179.58410619642422
 31
0.0
  0
INSERT
  5
58C
100
AcDbEntity
  8
OBJECT
100
AcDbBlockReference
  2
*U46
 10
1014.1172999999999
 20
428.99999999999994
 30
0.0
  0
ARC
  5
58D
100
AcDbEntity
  8
OBJECT
100
AcDbCircle
 10
-407.0
 20
-10.0
 30
0.0
 40
5.0
100
AcDbArc
 50
180.0
 51
270.0
  0
SPLINE
  5
58E
100
AcDbEntity
  8
OBJECT
100
AcDbSpline
210
0.0
220
0.0
230
1.0
 70
               8
 71
               2
 72
              10
 73
               7
 74
               0
 42
0.000001
 43
0.000001
 40
0.0
 40
0.0
 40
0.0
 40
0.4547777859909579
 40
0.4547777859909579
 40
0.8035774133482017
 40
0.8035774133482017
 40
1.0
 40
1.0
 40
1.0
 10
-371.38642629838159
 20
200.26791798131035
 30
0.0
 10
-382.39913810730059
 20
200.26791798131035
 30
0.0
 10
-391.93642629838155
 20
202.00638025465702
 30
0.0
 10
-401.47371448946251
 20
203.74484252800369
 30
0.0
 10
-406.98007039392201
 20
206.75594751248178
 30
0.0
 10
-412.4864262983815
 20
209.76705249695988
 30
0.0
 10
-412.4864262983815
 20
213.24397704365322
 30
0.0
  0
SPLINE
  5
58F
100
AcDbEntity
  8
OBJECT
100
AcDbSpline
210
0.0
220
0.0
230
1.0
 70
               8
 71
               2
 72
              10
 73
               7
 74
               0
 42
0.000001
 43
0.000001
 40
0.0
 40
0.0
 40
0.0
 40
0.403298735877151
 40
0.403298735877151
 40
0.7414284095754493
 40
0.7414284095754493
 40
1.0
 40
1.0
 40
1.0
 10
-371.38642629838114
 20
175.26791798131035
 30
0.0
 10
-389.09786791807846
 20
175.26791798131035
 30
0.0
 10
-404.43642629838132
 20
180.35574516004604
 30
0.0
 10
-419.77498467868418
 20
185.44357233878173
 30
0.0
 10
-428.63070548853284
 20
194.25594751248181
 30
0.0
 10
-437.4864262983815
 20
203.06832268618189
 30
0.0
 10
-437.4864262983815
 20
213.24397704365322
 30
0.0
  0
POLYLINE
  5
590
100
AcDbEntity
  8
OBJECT
100
AcDb2dPolyline
 66
               1
 10
0.0
 20
0.0
 30
0.0
 70
               1
 75
               5
  0
VERTEX
  5
591
100
AcDbEntity
  8
OBJECT
100
AcDbVertex
100
AcDb2dVertex
 10
-443.71950000000106
 20
512.49440000000004
 30
0.0
  0
VERTEX
  5
592
100
AcDbEntity
  8
OBJECT
100
AcDbVertex
100
AcDb2dVertex
 10
-443.71950000000106
 20
512.49440000000004
 30
0.0
  0
VERTEX
  5
593
100
AcDbEntity
  8
OBJECT
100
AcDbVertex
100
AcDb2dVertex
 10
-437.5
 20
512.49440000000004
 30
0.0
  0
VERTEX
  5
594
100
AcDbEntity
  8
OBJECT
100
AcDbVertex
100
AcDb2dVertex
 10
-437.5
 20
513.5
 30
0.0
  0
VERTEX
  5
595
100
AcDbEntity
  8
OBJECT
100
AcDbVertex
100
AcDb2dVertex
 10
-437.5
 20
526.5
 30
0.0
  0
VERTEX
  5
596
100
AcDbEntity
  8
OBJECT
100
AcDbVertex
100
AcDb2dVertex
 10
-437.5
 20
527.50560000000019
 30
0.0
  0
VERTEX
  5
597
100
AcDbEntity
  8
OBJECT
100
AcDbVertex
100
AcDb2dVertex
 10
-443.71950000000106
 20
527.50560000000019
 30
0.0
  0
VERTEX
  5
598
100
AcDbEntity
  8
OBJECT
100
AcDbVertex
100
AcDb2dVertex
 10
-444.30010000000038
 20
526.5
 30
0.0
  0
VERTEX
  5
599
100
AcDbEntity
  8
OBJECT
100
AcDbVertex
100
AcDb2dVertex
 10
-444.30010000000038
 20
513.5
 30
0.0
  0
SEQEND
  5
59A
100
AcDbEntity
  8
OBJECT
  0
SPLINE
  5
59B
100
AcDbEntity
  8
OBJECT
100
AcDbSpline
210
0.0
220
0.0
230
1.0
 70
               8
 71
               2
 72
               6
 73
               3
 74
               0
 42
0.000001
 43
0.000001
 40
0.0
 40
0.0
 40
0.0
 40
1.0
 40
1.0
 40
1.0
 10
-443.71950000000106
 20
527.50560000000019
 30
0.0
 10
-444.87831069958816
 20
525.62920000000008
 30
0.0
 10
-443.71950000000106
 20
523.75279999999998
 30
0.0
  0
SPLINE
  5
59C
100
AcDbEntity
  8
OBJECT
100
AcDbSpline
210
0.0
220
0.0
230
1.0
 70
               8
 71
               2
 72
               6
 73
               3
 74
               0
 42
0.000001
 43
0.000001
 40
0.0
 40
0.0
 40
0.0
 40
1.0
 40
1.0
 40
1.0
 10
-443.71950000000106
 20
523.75279999999998
 30
0.0
 10
-444.87831069958816
 20
520.0
 30
0.0
 10
-443.71950000000106
 20
516.24720000000002
 30
0.0
  0
SPLINE
  5
59D
100
AcDbEntity
  8
OBJECT
100
AcDbSpline
210
0.0
220
0.0
230
1.0
 70
               8
 71
               2
 72
               6
 73
               3
 74
               0
 42
0.000001
 43
0.000001
 40
0.0
 40
0.0
 40
0.0
 40
1.0
 40
1.0
 40
1.0
 10
-443.71950000000106
 20
516.24720000000002
 30
0.0
 10
-444.87831069958816
 20
514.37080000000026
 30
0.0
 10
-443.71950000000106
 20
512.49440000000004
 30
0.0
  0
LINE
  5
59E
100
AcDbEntity
  8
OBJECT
100
AcDbLine
 10
-443.71950000000106
 20
523.75279999999998
 30
0.0
 11
-437.51950000000033
 21
523.75279999999998
 31
0.0
  0
LINE
  5
59F
100
AcDbEntity
  8
OBJECT
100
AcDbLine
 10
-443.71950000000106
 20
516.24720000000002
 30
0.0
 11
-437.51950000000033
 21
516.24720000000002
 31
0.0
  0
LINE
  5
5A0
100
AcDbEntity
  8
OBJECT
100
AcDbLine
 10
-402.0
 20
275.00000000000023
 30
0.0
 11
-400.0
 21
275.00000000000023
 31
0.0
  0
LINE
  5
5A1
100
AcDbEntity
  8
OBJECT
100
AcDbLine
 10
-402.0
 20
204.57537711484042
 30
0.0
 11
-402.0
 21
275.00000000000023
 31
0.0
  0
LINE
  5
5A2
100
AcDbEntity
  8
OBJECT
100
AcDbLine
 10
-404.0
 20
217.5
 30
0.0
 11
-402.0
 21
217.5
 31
0.0
  0
LINE
  5
5A3
100
AcDbEntity
  8
OBJECT
100
AcDbLine
 10
-404.0
 20
241.65826745345362
 30
0.0
 11
-404.0
 21
217.5
 31
0.0
  0
LINE
  5
5A4
100
AcDbEntity
  8
OBJECT
100
AcDbLine
 10
-406.0
 20
239.00000000000023
 30
0.0
 11
-406.0
 21
221.0
 31
0.0
  0
LINE
  5
5A5
100
AcDbEntity
  8
OBJECT
100
AcDbLine
 10
-407.5
 20
239.00000000000023
 30
0.0
 11
-407.5
 21
221.0
 31
0.0
  0
LINE
  5
5A6
100
AcDbEntity
  8
OBJECT
100
AcDbLine
 10
-404.0
 20
221.0
 30
0.0
 11
-406.0
 21
221.0
 31
0.0
  0
LINE
  5
5A7
100
AcDbEntity
  8
OBJECT
100
AcDbLine
 10
-412.5
 20
221.0
 30
0.0
 11
-407.5
 21
221.0
 31
0.0
  0
LINE
  5
5A8
100
AcDbEntity
  8
HIDDEN
100
AcDbLine
 10
-421.0
 20
237.00000000000023
 30
0.0
 11
-421.0
 21
223.0
 31
0.0
  0
LINE
  5
5A9
100
AcDbEntity
  8
OBJECT
100
AcDbLine
 10
-406.0
 20
222.0
 30
0.0
 11
-407.5
 21
222.0
 31
0.0
  0
LINE
  5
5AA
100
AcDbEntity
  8
HIDDEN
100
AcDbLine
 10
-421.0
 20
226.0
 30
0.0
 11
-424.0
 21
226.0
 31
0.0
  0
LINE
  5
5AB
100
AcDbEntity
  8
HIDDEN
100
AcDbLine
 10
-426.0
 20
220.0
 30
0.0
 11
-426.0
 21
250.00000000000023
 31
0.0
  0
LINE
  5
5AC
100
AcDbEntity
  8
HIDDEN
100
AcDbLine
 10
-429.0
 20
220.0
 30
0.0
 11
-426.0
 21
220.0
 31
0.0
  0
LINE
  5
5AD
100
AcDbEntity
  8
HIDDEN
100
AcDbLine
 10
-429.0
 20
240.00000000000023
 30
0.0
 11
-429.0
 21
220.0
 31
0.0
  0
LINE
  5
5AE
100
AcDbEntity
  8
HIDDEN
100
AcDbLine
 10
-424.0
 20
225.0
 30
0.0
 11
-424.0
 21
235.00000000000023
 31
0.0
  0
LINE
  5
5AF
100
AcDbEntity
  8
HIDDEN
100
AcDbLine
 10
-431.0
 20
225.0
 30
0.0
 11
-429.0
 21
225.0
 31
0.0
  0
LINE
  5
5B0
100
AcDbEntity
  8
HIDDEN
100
AcDbLine
 10
-426.0
 20
225.0
 30
0.0
 11
-424.0
 21
225.0
 31
0.0
  0
LINE
  5
5B1
100
AcDbEntity
  8
HIDDEN
100
AcDbLine
 10
-431.0
 20
235.00000000000023
 30
0.0
 11
-431.0
 21
225.0
 31
0.0
  0
LINE
  5
5B2
100
AcDbEntity
  8
HIDDEN
100
AcDbLine
 10
-424.0
 20
235.00000000000023
 30
0.0
 11
-426.0
 21
235.00000000000023
 31
0.0
  0
ARC
  5
5B3
100
AcDbEntity
  8
HIDDEN
100
AcDbCircle
 10
-419.0
 20
223.0
 30
0.0
 40
2.0
100
AcDbArc
 50
180.0
 51
270.0
  0
LINE
  5
5B4
100
AcDbEntity
  8
OBJECT
100
AcDbLine
 10
-404.0
 20
239.00000000000023
 30
0.0
 11
-406.0
 21
239.00000000000023
 31
0.0
  0
LINE
  5
5B5
100
AcDbEntity
  8
OBJECT
100
AcDbLine
 10
-412.5
 20
239.00000000000023
 30
0.0
 11
-407.5
 21
239.00000000000023
 31
0.0
  0
LINE
  5
5B6
100
AcDbEntity
  8
OBJECT
100
AcDbLine
 10
-406.0
 20
238.00000000000023
 30
0.0
 11
-407.5
 21
238.00000000000023
 31
0.0
  0
LINE
  5
5B7
100
AcDbEntity
  8
HIDDEN
100
AcDbLine
 10
-421.0
 20
234.00000000000023
 30
0.0
 11
-424.0
 21
234.00000000000023
 31
0.0
  0
LINE
  5
5B8
100
AcDbEntity
  8
HIDDEN
100
AcDbLine
 10
-429.0
 20
240.00000000000023
 30
0.0
 11
-426.0
 21
240.00000000000023
 31
0.0
  0
LINE
  5
5B9
100
AcDbEntity
  8
HIDDEN
100
AcDbLine
 10
-431.0
 20
235.00000000000023
 30
0.0
 11
-429.0
 21
235.00000000000023
 31
0.0
  0
LINE
  5
5BA
100
AcDbEntity
  8
HIDDEN
100
AcDbLine
 10
-426.0
 20
235.00000000000023
 30
0.0
 11
-424.0
 21
235.00000000000023
 31
0.0
  0
ARC
  5
5BB
100
AcDbEntity
  8
HIDDEN
100
AcDbCircle
 10
-419.0
 20
237.00000000000023
 30
0.0
 40
2.0
100
AcDbArc
 50
90.0
 51
180.0
  0
LINE
  5
5BC
100
AcDbEntity
  8
OBJECT
100
AcDbLine
 10
-404.0
 20
241.65826745345362
 30
0.0
 11
-402.0
 21
241.65826745345362
 31
0.0
  0
LINE
  5
5BD
100
AcDbEntity
  8
OBJECT
100
AcDbLine
 10
204.0
 20
241.65826745345362
 30
0.0
 11
202.0
 21
241.65826745345362
 31
0.0
  0
LINE
  5
5BE
100
AcDbEntity
  8
OBJECT
100
AcDbLine
 10
1982.0
 20
-20.0
 30
0.0
 11
1982.0
 21
-5.0
 31
0.0
  0
DIMENSION
  5
5BF
100
AcDbEntity
  8
DIMENTION
100
AcDbDimension
  2
*D47
 10
1195.5767954743706
 20
0.0
 30
0.0
 11
1195.5767954743706
 21
87.633958990655174
 31
0.0
  3
CAD
100
AcDbAlignedDimension
 13
1323.9682947744363
 23
175.26791798131035
 33
0.0
 14
1365.0
 24
0.0
 34
0.0
 50
90.0
100
AcDbRotatedDimension
1001
ACAD
1000
DSTYLE
1002
{
1070
             271
1070
               0
1070
             340
1005
64
1070
             147
1040
5.0
1002
}
  0
LINE
  5
5C0
100
AcDbEntity
  8
OBJECT
100
AcDbLine
 10
1365.0
 20
-15.000000000000227
 30
0.0
 11
1365.0
 21
0.0
 31
0.0
  0
LINE
  5
5C1
100
AcDbEntity
  8
OBJECT
100
AcDbLine
 10
1994.0
 20
-5.0
 30
0.0
 11
1370.0
 21
-5.0
 31
0.0
  0
LINE
  5
5C2
100
AcDbEntity
  8
OBJECT
100
AcDbLine
 10
1994.0
 20
0.0
 30
0.0
 11
1994.0
 21
-5.0
 31
0.0
  0
LINE
  5
5C3
100
AcDbEntity
  8
OBJECT
100
AcDbLine
 10
1370.0
 20
-5.0
 30
0.0
 11
1370.0
 21
-15.000000000000227
 31
0.0
  0
LINE
  5
5C4
100
AcDbEntity
  8
OBJECT
100
AcDbLine
 10
1365.0
 20
-15.000000000000227
 30
0.0
 11
1370.0
 21
-15.000000000000227
 31
0.0
  0
DIMENSION
  5
5C5
100
AcDbEntity
  8
DIMENTION
100
AcDbDimension
  2
*D48
 10
1377.0
 20
-100.00000000000028
 30
0.0
 11
1305.1500000000008
 21
-100.00000000000028
 31
0.0
  1
145
  3
CAD
100
AcDbAlignedDimension
 13
1233.3000000000015
 23
520.0
 33
0.0
 14
1377.0
 24
-33.000000000000227
 34
0.0
100
AcDbRotatedDimension
1001
ACAD
1000
DSTYLE
1002
{
1070
             271
1070
               0
1070
             340
1005
64
1070
             147
1040
0.9998999999999999
1002
}
  0
LINE
  5
5C6
100
AcDbEntity
  8
OBJECT
100
AcDbLine
 10
1386.0
 20
496.86288349425593
 30
0.0
 11
1386.0
 21
232.94730340209935
 31
0.0
  0
LINE
  5
5C7
100
AcDbEntity
  8
OBJECT
100
AcDbLine
 10
1386.0
 20
204.7284287408431
 30
0.0
 11
1386.0
 21
0.0
 31
0.0
  0
LINE
  5
5C8
100
AcDbEntity
  8
OBJECT
100
AcDbLine
 10
1675.0
 20
565.0
 30
0.0
 11
1393.9672225960494
 21
506.65409465661924
 31
0.0
  0
LINE
  5
5C9
100
AcDbEntity
  8
OBJECT
100
AcDbLine
 10
1964.0
 20
540.0
 30
0.0
 11
1675.0
 21
565.0
 31
0.0
  0
LINE
  5
5CA
100
AcDbEntity
  8
OBJECT
100
AcDbLine
 10
1932.3999999999996
 20
537.0
 30
0.0
 11
1932.3999999999996
 21
505.08989292996591
 31
0.0
  0
LINE
  5
5CB
100
AcDbEntity
  8
OBJECT
100
AcDbLine
 10
1982.0
 20
540.0
 30
0.0
 11
1935.3999999999996
 21
540.0
 31
0.0
  0
LINE
  5
5CC
100
AcDbEntity
  8
OBJECT
100
AcDbLine
 10
1982.0
 20
277.0
 30
0.0
 11
1961.6851391622949
 21
277.0
 31
0.0
  0
LINE
  5
5CD
100
AcDbEntity
  8
OBJECT
100
AcDbLine
 10
1937.0
 20
0.0
 30
0.0
 11
1937.0
 21
266.54643361266699
 31
0.0
  0
LINE
  5
5CE
100
AcDbEntity
  8
OBJECT
100
AcDbLine
 10
1365.0
 20
0.0
 30
0.0
 11
1994.0
 21
0.0
 31
0.0
  0
LINE
  5
5CF
100
AcDbEntity
  8
OBJECT
100
AcDbLine
 10
1932.3999999999996
 20
453.30464243349343
 30
0.0
 11
1932.3999999999996
 21
0.0
 31
0.0
  0
LINE
  5
5D0
100
AcDbEntity
  8
OBJECT
100
AcDbLine
 10
1982.0
 20
0.0
 30
0.0
 11
1982.0
 21
471.01639674577746
 31
0.0
  0
LINE
  5
5D1
100
AcDbEntity
  8
OBJECT
100
AcDbLine
 10
1982.0
 20
529.8196709203412
 30
0.0
 11
1982.0
 21
540.0
 31
0.0
  0
ARC
  5
5D2
100
AcDbEntity
  8
OBJECT
100
AcDbCircle
 10
1935.3999999999996
 20
537.0
 30
0.0
 40
3.0
100
AcDbArc
 50
90.0
 51
180.0
  0
POINT
  5
5D3
100
AcDbEntity
  8
OBJECT
  6
CONTINUOUS
100
AcDbPoint
 10
1386.0
 20
505.0
 30
0.0
  0
ARC
  5
5D4
100
AcDbEntity
  8
OBJECT
100
AcDbCircle
 10
1396.0
 20
496.86288349425593
 30
0.0
 40
10.000000000000002
100
AcDbArc
 50
101.72869815645664
 51
180.0
  0
ARC
  5
5D5
100
AcDbEntity
  8
DIMENTION
  6
STYLE_18
100
AcDbCircle
 10
1990.7881655957508
 20
520.21450902884089
 30
0.0
 40
757.50000000000023
100
AcDbArc
 50
159.90465488297417
 51
206.4751878049716
  0
POINT
  5
5D6
100
AcDbEntity
  8
OUTLINE
  6
CONTINUOUS
100
AcDbPoint
 10
1982.0
 20
540.0
 30
0.0
  0
LINE
  5
5D7
100
AcDbEntity
  8
OBJECT
100
AcDbLine
 10
1997.8000000000015
 20
540.0
 30
0.0
 11
1980.8000000000015
 21
540.0
 31
0.0
  0
LINE
  5
5D8
100
AcDbEntity
  8
OBJECT
100
AcDbLine
 10
2007.8000000000015
 20
500.00000000000011
 30
0.0
 11
2007.8000000000015
 21
514.49842955455244
 31
0.0
  0
LINE
  5
5D9
100
AcDbEntity
  8
OBJECT
100
AcDbLine
 10
2007.8000000000015
 20
519.50810759190381
 30
0.0
 11
2007.8000000000015
 21
530.0
 31
0.0
  0
LINE
  5
5DA
100
AcDbEntity
  8
OBJECT
100
AcDbLine
 10
1995.0306200000014
 20
443.21032000000002
 30
0.0
 11
2007.8000000000015
 21
500.00000000000011
 31
0.0
  0
LINE
  5
5DB
100
AcDbEntity
  8
OBJECT
100
AcDbLine
 10
1982.0
 20
440.00000000000011
 30
0.0
 11
1990.3618900000015
 21
440.00000000000011
 31
0.0
  0
CIRCLE
  5
5DC
100
AcDbEntity
  8
OBJECT
100
AcDbCircle
 10
1990.8000000000015
 20
520.0
 30
0.0
 40
5.0999999999999091
  0
ARC
  5
5DD
100
AcDbEntity
  8
OBJECT
100
AcDbCircle
 10
1997.8000000000015
 20
530.0
 30
0.0
 40
10.0
100
AcDbArc
 50
0.0
 51
90.0
  0
ARC
  5
5DE
100
AcDbEntity
  8
OBJECT
100
AcDbCircle
 10
1990.3618900000015
 20
445.00000000000011
 30
0.0
 40
5.0
100
AcDbArc
 50
270.0
 51
339.02654581173192
  0
POINT
  5
5DF
100
AcDbEntity
  8
OBJECT
  6
CONTINUOUS
100
AcDbPoint
 10
1950.8000000000006
 20
232.00000000000045
 30
0.0
  0
POINT
  5
5E0
100
AcDbEntity
  8
OBJECT
  6
CONTINUOUS
100
AcDbPoint
 10
1950.8000000000006
 20
232.00000000000045
 30
0.0
  0
INSERT
  5
5E1
100
AcDbEntity
  8
OBJECT
100
AcDbBlockReference
  2
*U49
 10
1014.1172999999999
 20
428.99999999999994
 30
0.0
  0
POINT
  5
5E2
100
AcDbEntity
  8
OBJECT
  6
CONTINUOUS
100
AcDbPoint
 10
1950.8000000000006
 20
232.00000000000045
 30
0.0
  0
LINE
  5
5E3
100
AcDbEntity
  8
OBJECT
  6
CONTINUOUS
100
AcDbLine
 10
1937.9593301804439
 20
255.8194738386253
 30
0.0
 11
1935.9362270554257
 21
397.80506132462892
 31
0.0
  0
LINE
  5
5E4
100
AcDbEntity
  8
OBJECT
  6
CONTINUOUS
100
AcDbLine
 10
1962.928298355796
 20
258.17545097311449
 30
0.0
 11
1937.9308357702321
 21
257.81927084547056
 31
0.0
  0
LINE
  5
5E5
100
AcDbEntity
  8
OBJECT
  6
CONTINUOUS
100
AcDbLine
 10
1935.9362270554257
 20
397.80506132462892
 30
0.0
 11
1960.9336896409895
 21
398.16124145227286
 31
0.0
  0
LINE
  5
5E6
100
AcDbEntity
  8
OBJECT
  6
CONTINUOUS
100
AcDbLine
 10
1937.9593301804439
 20
255.8194738386253
 30
0.0
 11
1962.9567927660078
 21
256.17565396626946
 31
0.0
  0
LINE
  5
5E7
100
AcDbEntity
  8
OBJECT
  6
CONTINUOUS
100
AcDbLine
 10
1953.0742871462307
 20
423.33182176050639
 30
0.0
 11
1959.1164197832286
 21
420.41760948032061
 31
0.0
  0
LINE
  5
5E8
100
AcDbEntity
  8
OBJECT
  6
CONTINUOUS
100
AcDbLine
 10
1943.0753021120049
 20
423.18934970944872
 30
0.0
 11
1953.0742871462307
 21
423.33182176050639
 31
0.0
  0
CIRCLE
  5
5E9
100
AcDbEntity
  8
OBJECT
  6
CONTINUOUS
100
AcDbCircle
 10
1950.8000000000006
 20
232.00000000000045
 30
0.0
 40
3.9999999999995999
  0
LINE
  5
5EA
100
AcDbEntity
  8
OBJECT
  6
CONTINUOUS
100
AcDbLine
 10
1962.9567927660078
 20
256.17565396626946
 30
0.0
 11
1960.9336896409895
 21
398.16124145227286
 31
0.0
  0
LINE
  5
5EB
100
AcDbEntity
  8
OBJECT
100
AcDbLine
 10
1955.6934423363318
 20
436.21816264359688
 30
0.0
 11
1953.0742871462307
 21
423.33182176050639
 31
0.0
  0
LINE
  5
5EC
100
AcDbEntity
  8
OBJECT
100
AcDbLine
 10
1959.1164197832286
 20
420.41760948032061
 30
0.0
 11
1959.4338475143986
 21
398.13987072481336
 31
0.0
  0
LINE
  5
5ED
100
AcDbEntity
  8
OBJECT
  6
CONTINUOUS
100
AcDbLine
 10
1943.0753021120049
 20
423.18934970944872
 30
0.0
 11
1937.1186527067871
 21
420.10417096854655
 31
0.0
  0
LINE
  5
5EE
100
AcDbEntity
  8
OBJECT
100
AcDbLine
 10
1939.2986274946334
 20
439.39102058536241
 30
0.0
 11
1943.0753021120049
 21
423.18934970944872
 31
0.0
  0
LINE
  5
5EF
100
AcDbEntity
  8
OBJECT
100
AcDbLine
 10
1937.1186527079162
 20
420.10417096913125
 30
0.0
 11
1937.4360804391026
 21
397.82643221248668
 31
0.0
  0
LINE
  5
5F0
100
AcDbEntity
  8
OBJECT
100
AcDbLine
 10
1941.0003663034213
 20
233.99177795270202
 30
0.0
 11
1945.4585689561127
 21
255.92632787691855
 31
0.0
  0
LINE
  5
5F1
100
AcDbEntity
  8
OBJECT
100
AcDbLine
 10
1960.5389066494859
 20
234.27017580090819
 30
0.0
 11
1955.4575652474246
 21
256.06880008837447
 31
0.0
  0
ARC
  5
5F2
100
AcDbEntity
  8
OBJECT
100
AcDbCircle
 10
1950.8000000000006
 20
232.00000000000045
 30
0.0
 40
10.000000000000075
100
AcDbArc
 50
168.5111171354676
 51
13.121547490474684
  0
INSERT
  5
5F3
100
AcDbEntity
  8
OBJECT
100
AcDbBlockReference
  2
*U50
 10
1014.1172999999999
 20
428.99999999999994
 30
0.0
  0
LINE
  5
5F4
100
AcDbEntity
  8
OUTLINE
100
AcDbLine
 10
1499.1197288310341
 20
450.60929477566765
 30
0.0
 11
1467.6479633545696
 21
698.30028105216991
 31
0.0
  0
LINE
  5
5F5
100
AcDbEntity
  8
OUTLINE
100
AcDbLine
 10
1499.3633522091545
 20
686.69800230425403
 30
0.0
 11
1528.8804562051419
 21
454.39071066974918
 31
0.0
  0
ARC
  5
5F6
100
AcDbEntity
  8
OUTLINE
100
AcDbCircle
 10
1481.7320102219251
 20
706.45820964843085
 30
0.0
 40
14.999999999999559
100
AcDbArc
 50
36.734642238671285
 51
103.46388531333672
  0
ARC
  5
5F7
100
AcDbEntity
  8
OUTLINE
100
AcDbCircle
 10
1514.000092518088
 20
452.50000272270836
 30
0.0
 40
14.999999999999828
100
AcDbArc
 50
187.24123406728515
 51
7.2412340672851769
  0
CIRCLE
  5
5F8
100
AcDbEntity
  8
OUTLINE
100
AcDbCircle
 10
1481.7320102219251
 20
706.45820964843085
 30
0.0
 40
6.4999999999999432
  0
LINE
  5
5F9
100
AcDbEntity
  8
OUTLINE
  6
CONTINUOUS
100
AcDbLine
 10
1514.7025984478496
 20
445.02812108345006
 30
0.0
 11
1507.8798604236204
 21
448.15599243407735
 31
0.0
  0
LINE
  5
5FA
100
AcDbEntity
  8
OUTLINE
  6
CONTINUOUS
100
AcDbLine
 10
1520.8227835093771
 20
449.37284986048496
 30
0.0
 11
1514.7025984478496
 21
445.02812108345006
 31
0.0
  0
LINE
  5
5FB
100
AcDbEntity
  8
OUTLINE
  6
CONTINUOUS
100
AcDbLine
 10
1513.2974925224462
 20
459.97332133877376
 30
0.0
 11
1520.1202305466741
 21
456.8454499881467
 31
0.0
  0
LINE
  5
5FC
100
AcDbEntity
  8
OUTLINE
  6
CONTINUOUS
100
AcDbLine
 10
1507.1773074609182
 20
455.6285925617392
 30
0.0
 11
1513.2974925224462
 21
459.97332133877376
 31
0.0
  0
LINE
  5
5FD
100
AcDbEntity
  8
OUTLINE
  6
CONTINUOUS
100
AcDbLine
 10
1507.8798604236204
 20
448.15599243407735
 30
0.0
 11
1507.1773074609182
 21
455.6285925617392
 31
0.0
  0
LINE
  5
5FE
100
AcDbEntity
  8
OUTLINE
  6
CONTINUOUS
100
AcDbLine
 10
1520.1202305466741
 20
456.8454499881467
 30
0.0
 11
1520.8227835093771
 21
449.37284986048496
 31
0.0
  0
ARC
  5
5FF
100
AcDbEntity
  8
OUTLINE
  6
CONTINUOUS
100
AcDbCircle
 10
1514.0000251224087
 20
452.50071958776255
 30
0.0
 40
22.500000000000007
100
AcDbArc
 50
139.05162926153747
 51
276.99654662158622
  0
ARC
  5
600
100
AcDbEntity
  8
OUTLINE
  6
CONTINUOUS
100
AcDbCircle
 10
1514.0000251224087
 20
452.50071958776255
 30
0.0
 40
22.500000000000117
100
AcDbArc
 50
276.99655276252423
 51
55.186237866745934
  0
POINT
  5
601
100
AcDbEntity
  8
OUTLINE
  6
CONTINUOUS
100
AcDbPoint
 10
1514.000092518088
 20
452.50000272270836
 30
0.0
  0
LINE
  5
602
100
AcDbEntity
  8
OUTLINE
  6
CONTINUOUS
100
AcDbLine
 10
1482.4345161516867
 20
698.98632800917244
 30
0.0
 11
1475.6117781274575
 21
702.11419935979984
 31
0.0
  0
LINE
  5
603
100
AcDbEntity
  8
OUTLINE
  6
CONTINUOUS
100
AcDbLine
 10
1488.5547012132142
 20
703.33105678620734
 30
0.0
 11
1482.4345161516867
 21
698.98632800917244
 31
0.0
  0
LINE
  5
604
100
AcDbEntity
  8
OUTLINE
  6
CONTINUOUS
100
AcDbLine
 10
1481.0294102262828
 20
713.93152826449614
 30
0.0
 11
1487.8521482505112
 21
710.80365691386896
 31
0.0
  0
LINE
  5
605
100
AcDbEntity
  8
OUTLINE
  6
CONTINUOUS
100
AcDbLine
 10
1474.9092251647558
 20
709.58679948746158
 30
0.0
 11
1481.0294102262828
 21
713.93152826449614
 31
0.0
  0
LINE
  5
606
100
AcDbEntity
  8
OUTLINE
  6
CONTINUOUS
100
AcDbLine
 10
1475.6117781274575
 20
702.11419935979984
 30
0.0
 11
1474.9092251647558
 21
709.58679948746158
 31
0.0
  0
LINE
  5
607
100
AcDbEntity
  8
OUTLINE
  6
CONTINUOUS
100
AcDbLine
 10
1487.8521482505112
 20
710.80365691386896
 30
0.0
 11
1488.5547012132142
 21
703.33105678620734
 31
0.0
  0
CIRCLE
  5
608
100
AcDbEntity
  8
OUTLINE
100
AcDbCircle
 10
1514.0000251224087
 20
452.50071958776255
 30
0.0
 40
6.4999999999999574
  0
LINE
  5
609
100
AcDbEntity
  8
OUTLINE
100
AcDbLine
 10
1386.0
 20
926.86288349425581
 30
0.0
 11
1386.0
 21
754.78947678345617
 31
0.0
  0
LINE
  5
60A
100
AcDbEntity
  8
OUTLINE
100
AcDbLine
 10
1386.0
 20
728.16913854538006
 30
0.0
 11
1386.0
 21
410.0
 31
0.0
  0
LINE
  5
60B
100
AcDbEntity
  8
OUTLINE
100
AcDbLine
 10
1675.0
 20
995.0
 30
0.0
 11
1393.9672225960494
 21
936.65409465661924
 31
0.0
  0
LINE
  5
60C
100
AcDbEntity
  8
OUTLINE
100
AcDbLine
 10
1964.0
 20
970.0
 30
0.0
 11
1675.0
 21
995.0
 31
0.0
  0
POINT
  5
60D
100
AcDbEntity
  8
OUTLINE
  6
CONTINUOUS
100
AcDbPoint
 10
1386.0
 20
935.0
 30
0.0
  0
ARC
  5
60E
100
AcDbEntity
  8
OUTLINE
100
AcDbCircle
 10
1396.0
 20
926.86288349425581
 30
0.0
 40
10.000000000000114
100
AcDbArc
 50
101.72869815645652
 51
180.0
  0
LINE
  5
60F
100
AcDbEntity
  8
OUTLINE
100
AcDbLine
 10
1386.0
 20
410.0
 30
0.0
 11
1964.0
 21
410.0
 31
0.0
  0
LINE
  5
610
100
AcDbEntity
  8
OUTLINE
100
AcDbLine
 10
1964.0
 20
970.0
 30
0.0
 11
1964.0
 21
410.0
 31
0.0
  0
INSERT
  5
611
100
AcDbEntity
  8
OUTLINE
100
AcDbBlockReference
  2
*U51
 10
1014.1172999999999
 20
428.99999999999994
 30
0.0
  0
ARC
  5
612
100
AcDbEntity
  8
OBJECT
100
AcDbCircle
 10
1950.8000000000006
 20
232.00000000000045
 30
0.0
 40
12.499999999999975
100
AcDbArc
 50
131.6412194893922
 51
49.991444851562342
  0
LINE
  5
613
100
AcDbEntity
  8
OBJECT
100
AcDbLine
 10
1997.0
 20
451.96880788260023
 30
0.0
 11
1997.0
 21
45.0
 31
0.0
  0
LINE
  5
614
100
AcDbEntity
  8
OBJECT
100
AcDbLine
 10
2007.0
 20
479.99999999999989
 30
0.0
 11
2007.0
 21
45.0
 31
0.0
  0
LINE
  5
615
100
AcDbEntity
  8
OBJECT
100
AcDbLine
 10
2010.6499999999996
 20
5.0
 30
0.0
 11
2010.6499999999996
 21
45.0
 31
0.0
  0
LINE
  5
616
100
AcDbEntity
  8
OBJECT
100
AcDbLine
 10
1993.3499999999999
 20
5.0
 30
0.0
 11
1993.3499999999999
 21
45.0
 31
0.0
  0
LINE
  5
617
100
AcDbEntity
  8
OBJECT
100
AcDbLine
 10
1993.3499999999999
 20
45.0
 30
0.0
 11
2010.6499999999996
 21
45.0
 31
0.0
  0
LINE
  5
618
100
AcDbEntity
  8
OBJECT
100
AcDbLine
 10
1993.3499999999999
 20
5.0
 30
0.0
 11
2010.6499999999996
 21
5.0
 31
0.0
  0
ARC
  5
619
100
AcDbEntity
  8
OBJECT
100
AcDbCircle
 10
1982.0
 20
479.99999999999989
 30
0.0
 40
25.0
100
AcDbArc
 50
0.0
 51
21.088932989913022
  0
LINE
  5
61A
100
AcDbEntity
  8
OBJECT
100
AcDbLine
 10
201.99999999999886
 20
-294.99999999999915
 30
0.0
 11
201.99999999999886
 21
-307.55736835487329
 31
0.0
  0
LWPOLYLINE
  5
61B
100
AcDbEntity
  8
OBJECT
100
AcDbPolyline
 90
        4
 70
             128
 10
203.29508776341595
 20
-303.37157890324858
 10
202.76414556366649
 20
-301.33517044808428
 10
202.20257167997465
 20
-298.20907691890767
 10
201.99999999999886
 20
-294.99999999999915
  0
LWPOLYLINE
  5
61C
100
AcDbEntity
  8
OBJECT
100
AcDbPolyline
 90
        5
 70
             128
 10
201.99999999999886
 20
-307.55736835487329
 10
202.00705537630643
 20
-307.25965323445195
 10
202.12882927276303
 20
-306.28267974781016
 10
202.39211243344062
 20
-305.31254890030738
 10
203.29508776341595
 20
-303.37157890324858
  0
LWPOLYLINE
  5
61D
100
AcDbEntity
  8
OBJECT
100
AcDbPolyline
 90
        5
 70
             128
 10
203.29508776341595
 20
-286.62842109674972
 10
202.76406449476224
 20
-285.60994037747383
 10
202.35546343027545
 20
-284.57768455275215
 10
202.0915137748766
 20
-283.51365053255455
 10
201.99999999999886
 20
-282.44263164512455
  0
LWPOLYLINE
  5
61E
100
AcDbEntity
  8
OBJECT
100
AcDbPolyline
 90
        5
 70
             128
 10
201.99999999999886
 20
-282.44263164512455
 10
202.00705537630643
 20
-282.14491652470321
 10
202.12882927276303
 20
-281.16794303806142
 10
202.39211243344062
 20
-280.19781219055864
 10
203.29508776341595
 20
-278.25684219349984
  0
LINE
  5
61F
100
AcDbEntity
  8
OBJECT
100
AcDbLine
 10
203.29508776341595
 20
-278.25684219349984
 30
0.0
 11
208.49999999999875
 21
-278.25684219349984
 31
0.0
  0
LINE
  5
620
100
AcDbEntity
  8
OBJECT
100
AcDbLine
 10
203.29508776341595
 20
-286.62842109674972
 30
0.0
 11
208.49999999999875
 21
-286.62842109674972
 31
0.0
  0
LWPOLYLINE
  5
621
100
AcDbEntity
  8
OBJECT
100
AcDbPolyline
 90
        4
 70
             128
 10
201.99999999999886
 20
-294.99999999999915
 10
202.09702805662846
 20
-292.78597391100635
 10
202.54292613120947
 20
-289.69385261905978
 10
203.29508776341595
 20
-286.62842109674972
  0
LINE
  5
622
100
AcDbEntity
  8
OBJECT
100
AcDbLine
 10
203.29508776341595
 20
-303.37157890324858
 30
0.0
 11
208.49999999999875
 21
-303.37157890324858
 31
0.0
  0
LINE
  5
623
100
AcDbEntity
  8
OBJECT
100
AcDbLine
 10
201.99999999999886
 20
-282.44263164512455
 30
0.0
 11
201.99999999999886
 21
-294.99999999999915
 31
0.0
  0
LWPOLYLINE
  5
624
100
AcDbEntity
  8
OBJECT
100
AcDbPolyline
 90
        5
 70
             128
 10
203.29508776341595
 20
-311.74315780649846
 10
202.76406449476224
 20
-310.72467708722257
 10
202.35546343027545
 20
-309.69242126250089
 10
202.0915137748766
 20
-308.62838724230329
 10
201.99999999999886
 20
-307.55736835487329
  0
LINE
  5
625
100
AcDbEntity
  8
OBJECT
100
AcDbLine
 10
203.29508776341595
 20
-311.74315780649846
 30
0.0
 11
208.49999999999875
 21
-311.74315780649846
 31
0.0
  0
LINE
  5
626
100
AcDbEntity
  8
OBJECT
100
AcDbLine
 10
201.99999999999886
 20
-280.49999999999915
 30
0.0
 11
201.99999999999886
 21
-282.44263164512455
 31
0.0
  0
LINE
  5
627
100
AcDbEntity
  8
OBJECT
100
AcDbLine
 10
201.99999999999886
 20
-307.55736835487329
 30
0.0
 11
201.99999999999886
 21
-309.49999999999915
 31
0.0
  0
LINE
  5
628
100
AcDbEntity
  8
OBJECT
100
AcDbLine
 10
356.35569979700131
 20
-196.89999999999924
 30
0.0
 11
356.32976394309196
 21
-196.91931402208508
 31
0.0
  0
LINE
  5
629
100
AcDbEntity
  8
OBJECT
100
AcDbLine
 10
356.32976394309196
 20
-203.08068597791322
 30
0.0
 11
356.35569979700131
 21
-203.09999999999906
 31
0.0
  0
ARC
  5
62A
100
AcDbEntity
  8
OBJECT
100
AcDbCircle
 10
347.7999999425183
 20
-199.99999999999915
 30
0.0
 40
9.0690407430995865
100
AcDbArc
 50
4.7437175285838853
 51
19.858146366921272
  0
LINE
  5
62B
100
AcDbEntity
  8
OBJECT
100
AcDbLine
 10
356.32976394309196
 20
-199.24999999999915
 30
0.0
 11
356.83797537952842
 21
-199.24999999999915
 31
0.0
  0
SPLINE
  5
62C
100
AcDbEntity
  8
OBJECT
100
AcDbSpline
210
0.0
220
0.0
230
1.0
 70
               8
 71
               2
 72
              10
 73
               7
 74
               0
 42
0.000001
 43
0.000001
 40
0.0
 40
0.0
 40
0.0
 40
0.013129398349763
 40
0.013129398349763
 40
0.9868706016502369
 40
0.9868706016502369
 40
1.0
 40
1.0
 40
1.0
 10
356.32976394309208
 20
-200.74999999999915
 30
0.0
 10
356.33044519909345
 20
-200.74016820209027
 30
0.0
 10
356.3311264550947
 20
-200.7303364041814
 30
0.0
 10
356.37895425372869
 20
-199.99954646486236
 30
0.0
 10
356.3311264550947
 20
-199.26966359581689
 30
0.0
 10
356.33044519909345
 20
-199.25983179790802
 30
0.0
 10
356.32976394309208
 20
-199.24999999999915
 30
0.0
  0
LINE
  5
62D
100
AcDbEntity
  8
OBJECT
100
AcDbLine
 10
356.32976394309196
 20
-200.74999999999915
 30
0.0
 11
356.83797537952842
 21
-200.74999999999915
 31
0.0
  0
ARC
  5
62E
100
AcDbEntity
  8
OBJECT
100
AcDbCircle
 10
347.7999999425183
 20
-199.99999999999915
 30
0.0
 40
9.0690407430996114
100
AcDbArc
 50
340.14185363307871
 51
355.25628247141611
  0
LINE
  5
62F
100
AcDbEntity
  8
OBJECT
100
AcDbLine
 10
353.69999994251816
 20
-187.29999999999933
 30
0.0
 11
353.69999994251816
 21
-212.69999999999942
 31
0.0
  0
LINE
  5
630
100
AcDbEntity
  8
OBJECT
100
AcDbLine
 10
356.35569979700153
 20
-291.89999999999924
 30
0.0
 11
356.32976394309219
 21
-291.91931402208508
 31
0.0
  0
LINE
  5
631
100
AcDbEntity
  8
OBJECT
100
AcDbLine
 10
356.32976394309219
 20
-298.08068597791322
 30
0.0
 11
356.35569979700142
 21
-298.09999999999906
 31
0.0
  0
ARC
  5
632
100
AcDbEntity
  8
OBJECT
100
AcDbCircle
 10
347.79999994251853
 20
-294.99999999999915
 30
0.0
 40
9.0690407430995865
100
AcDbArc
 50
4.7437175285838853
 51
19.858146366921272
  0
LINE
  5
633
100
AcDbEntity
  8
OBJECT
100
AcDbLine
 10
356.32976394309219
 20
-294.24999999999915
 30
0.0
 11
356.83797537952864
 21
-294.24999999999915
 31
0.0
  0
SPLINE
  5
634
100
AcDbEntity
  8
OBJECT
100
AcDbSpline
210
0.0
220
0.0
230
1.0
 70
               8
 71
               2
 72
              10
 73
               7
 74
               0
 42
0.000001
 43
0.000001
 40
0.0
 40
0.0
 40
0.0
 40
0.0131293983497629
 40
0.0131293983497629
 40
0.986870601650237
 40
0.986870601650237
 40
1.0
 40
1.0
 40
1.0
 10
356.3297639430923
 20
-295.74999999999915
 30
0.0
 10
356.33044519909367
 20
-295.74016820209027
 30
0.0
 10
356.33112645509493
 20
-295.7303364041814
 30
0.0
 10
356.37895425372915
 20
-294.99954646486236
 30
0.0
 10
356.33112645509493
 20
-294.26966359581689
 30
0.0
 10
356.33044519909367
 20
-294.25983179790802
 30
0.0
 10
356.3297639430923
 20
-294.24999999999915
 30
0.0
  0
LINE
  5
635
100
AcDbEntity
  8
OBJECT
100
AcDbLine
 10
356.32976394309219
 20
-295.74999999999915
 30
0.0
 11
356.83797537952864
 21
-295.74999999999915
 31
0.0
  0
ARC
  5
636
100
AcDbEntity
  8
OBJECT
100
AcDbCircle
 10
347.79999994251853
 20
-294.99999999999915
 30
0.0
 40
9.0690407430996114
100
AcDbArc
 50
340.14185363307871
 51
355.25628247141611
  0
LINE
  5
637
100
AcDbEntity
  8
OBJECT
100
AcDbLine
 10
353.69999994251839
 20
-282.29999999999933
 30
0.0
 11
353.69999994251839
 21
-307.69999999999942
 31
0.0
  0
LINE
  5
638
100
AcDbEntity
  8
OBJECT
100
AcDbLine
 10
201.19999999999879
 20
-210.47749999999911
 30
0.0
 11
201.19999999999879
 21
-189.52249999999918
 31
0.0
  0
LINE
  5
639
100
AcDbEntity
  8
OBJECT
100
AcDbLine
 10
349.99999999999898
 20
-121.19999999999942
 30
0.0
 11
349.99999999999898
 21
-158.99999999999915
 31
0.0
  0
LINE
  5
63A
100
AcDbEntity
  8
OBJECT
100
AcDbLine
 10
209.99999999999909
 20
-158.99999999999915
 30
0.0
 11
209.99999999999909
 21
-143.00000000000006
 31
0.0
  0
LINE
  5
63B
100
AcDbEntity
  8
OBJECT
100
AcDbLine
 10
209.99999999999909
 20
-128.00000000000006
 30
0.0
 11
209.99999999999909
 21
-121.19999999999942
 31
0.0
  0
CIRCLE
  5
63C
100
AcDbEntity
  8
OBJECT
100
AcDbCircle
 10
280.00080664437053
 20
-508.99999993496891
 30
0.0
 40
2.0
  0
LINE
  5
63D
100
AcDbEntity
  8
OBJECT
100
AcDbLine
 10
200.00000001251908
 20
-526.49999999999409
 30
0.0
 11
201.50000001251908
 21
-526.49999999999409
 31
0.0
  0
LINE
  5
63E
100
AcDbEntity
  8
OBJECT
100
AcDbLine
 10
201.50000001251897
 20
-516.49999999999409
 30
0.0
 11
201.50000001251908
 21
-526.49999999999409
 31
0.0
  0
LINE
  5
63F
100
AcDbEntity
  8
OBJECT
100
AcDbLine
 10
200.00000001251908
 20
-516.49999999999409
 30
0.0
 11
200.00000001251908
 21
-526.49999999999409
 31
0.0
  0
LINE
  5
640
100
AcDbEntity
  8
OBJECT
100
AcDbLine
 10
201.50000001251897
 20
-516.49999999999409
 30
0.0
 11
201.50000001251897
 21
-502.99999999999415
 31
0.0
  0
LINE
  5
641
100
AcDbEntity
  8
OBJECT
100
AcDbLine
 10
205.00000001251999
 20
-501.49999999999415
 30
0.0
 11
200.00000001251908
 21
-501.49999999999415
 31
0.0
  0
LINE
  5
642
100
AcDbEntity
  8
OBJECT
100
AcDbLine
 10
201.50000001251897
 20
-502.99999999999415
 30
0.0
 11
205.00000001251999
 21
-502.99999999999369
 31
0.0
  0
LINE
  5
643
100
AcDbEntity
  8
OBJECT
100
AcDbLine
 10
200.00000001251908
 20
-501.49999999999415
 30
0.0
 11
200.00000001251908
 21
-516.49999999999409
 31
0.0
  0
LINE
  5
644
100
AcDbEntity
  8
OBJECT
100
AcDbLine
 10
208.49999999999875
 20
-501.49999999999369
 30
0.0
 11
205.00000001251999
 21
-501.49999999999369
 31
0.0
  0
LINE
  5
645
100
AcDbEntity
  8
OBJECT
100
AcDbLine
 10
209.49999999999875
 20
-502.99999999999369
 30
0.0
 11
205.00000001251999
 21
-502.99999999999369
 31
0.0
  0
LINE
  5
646
100
AcDbEntity
  8
OBJECT
100
AcDbLine
 10
208.69999999999891
 20
-121.19999999999942
 30
0.0
 11
208.69999999999891
 21
-109.19999999999942
 31
0.0
  0
LINE
  5
647
100
AcDbEntity
  8
OBJECT
100
AcDbLine
 10
351.29999999999893
 20
-109.19999999999942
 30
0.0
 11
351.29999999999893
 21
-121.19999999999942
 31
0.0
  0
LINE
  5
648
100
AcDbEntity
  8
OBJECT
100
AcDbLine
 10
208.69999999999891
 20
-109.19999999999942
 30
0.0
 11
351.29999999999893
 21
-109.19999999999942
 31
0.0
  0
LINE
  5
649
100
AcDbEntity
  8
OBJECT
100
AcDbLine
 10
351.29999999999893
 20
-121.19999999999942
 30
0.0
 11
208.69999999999891
 21
-121.19999999999942
 31
0.0
  0
ARC
  5
64A
100
AcDbEntity
  8
OBJECT
100
AcDbCircle
 10
340.49999999999886
 20
-505.00000000003644
 30
0.0
 40
9.9999999999999805
100
AcDbArc
 50
270.00924346365497
 51
0.0
  0
LINE
  5
64B
100
AcDbEntity
  8
OBJECT
100
AcDbLine
 10
219.49999999999875
 20
-515.00000000003593
 30
0.0
 11
340.50161328874253
 21
-514.99999986990133
 31
0.0
  0
ARC
  5
64C
100
AcDbEntity
  8
OBJECT
100
AcDbCircle
 10
219.49999999999875
 20
-505.00000000003598
 30
0.0
 40
10.0
100
AcDbArc
 50
180.00000000000261
 51
270.0
  0
LINE
  5
64D
100
AcDbEntity
  8
OBJECT
100
AcDbLine
 10
209.49999999999875
 20
-502.00000000003644
 30
0.0
 11
209.49999999999875
 21
-505.00000000003644
 31
0.0
  0
LINE
  5
64E
100
AcDbEntity
  8
OBJECT
100
AcDbLine
 10
350.49999999999886
 20
-502.00000000003644
 30
0.0
 11
350.49999999999886
 21
-505.00000000003644
 31
0.0
  0
LINE
  5
64F
100
AcDbEntity
  8
OBJECT
100
AcDbLine
 10
351.49999999999875
 20
-502.00000000003644
 30
0.0
 11
351.49999999999875
 21
-168.99999999999915
 31
0.0
  0
LINE
  5
650
100
AcDbEntity
  8
OBJECT
100
AcDbLine
 10
208.49999999999875
 20
-502.00000000003644
 30
0.0
 11
351.49999999999875
 21
-502.00000000003644
 31
0.0
  0
LINE
  5
651
100
AcDbEntity
  8
OBJECT
100
AcDbLine
 10
208.49999999999875
 20
-502.00000000003644
 30
0.0
 11
208.49999999999875
 21
-168.99999999999915
 31
0.0
  0
LINE
  5
652
100
AcDbEntity
  8
OBJECT
100
AcDbLine
 10
208.49999999999875
 20
-158.99999999999915
 30
0.0
 11
351.49999999999875
 21
-158.99999999999915
 31
0.0
  0
LINE
  5
653
100
AcDbEntity
  8
OBJECT
100
AcDbLine
 10
208.49999999999875
 20
-168.99999999999915
 30
0.0
 11
351.49999999999875
 21
-168.99999999999915
 31
0.0
  0
LINE
  5
654
100
AcDbEntity
  8
OBJECT
100
AcDbLine
 10
207.49999999999875
 20
-168.99999999999915
 30
0.0
 11
207.49999999999875
 21
-158.99999999999915
 31
0.0
  0
LINE
  5
655
100
AcDbEntity
  8
OBJECT
100
AcDbLine
 10
208.49999999999875
 20
-158.99999999999915
 30
0.0
 11
207.49999999999875
 21
-158.99999999999915
 31
0.0
  0
LINE
  5
656
100
AcDbEntity
  8
OBJECT
100
AcDbLine
 10
208.49999999999875
 20
-168.99999999999915
 30
0.0
 11
207.49999999999875
 21
-168.99999999999915
 31
0.0
  0
LINE
  5
657
100
AcDbEntity
  8
OBJECT
100
AcDbLine
 10
352.49999999999886
 20
-168.99999999999915
 30
0.0
 11
352.49999999999875
 21
-158.99999999999915
 31
0.0
  0
LINE
  5
658
100
AcDbEntity
  8
OBJECT
100
AcDbLine
 10
352.49999999999875
 20
-158.99999999999915
 30
0.0
 11
351.49999999999875
 21
-158.99999999999915
 31
0.0
  0
LINE
  5
659
100
AcDbEntity
  8
OBJECT
100
AcDbLine
 10
352.49999999999886
 20
-168.99999999999915
 30
0.0
 11
351.49999999999875
 21
-168.99999999999915
 31
0.0
  0
LINE
  5
65A
100
AcDbEntity
  8
OBJECT
100
AcDbLine
 10
208.50000000000011
 20
-131.00000000000006
 30
0.0
 11
210.00000000000011
 21
-131.00000000000006
 31
0.0
  0
LINE
  5
65B
100
AcDbEntity
  8
OBJECT
100
AcDbLine
 10
208.50000000000011
 20
-143.00000000000006
 30
0.0
 11
210.00000000000011
 21
-143.00000000000006
 31
0.0
  0
LINE
  5
65C
100
AcDbEntity
  8
OBJECT
100
AcDbLine
 10
208.50000000000011
 20
-131.00000000000006
 30
0.0
 11
208.50000000000011
 21
-143.00000000000006
 31
0.0
  0
LINE
  5
65D
100
AcDbEntity
  8
OBJECT
100
AcDbLine
 10
210.00000000000011
 20
-143.00000000000006
 30
0.0
 11
210.00000000000011
 21
-131.00000000000006
 31
0.0
  0
LINE
  5
65E
100
AcDbEntity
  8
OBJECT
100
AcDbLine
 10
200.0
 20
-74.000000000000057
 30
0.0
 11
200.0
 21
-123.50000000000006
 31
0.0
  0
LINE
  5
65F
100
AcDbEntity
  8
OBJECT
100
AcDbLine
 10
201.50000000000011
 20
-123.50000000000006
 30
0.0
 11
201.50000000000011
 21
-74.000000000000057
 31
0.0
  0
LINE
  5
660
100
AcDbEntity
  8
OBJECT
100
AcDbLine
 10
201.50000000000011
 20
-74.000000000000057
 30
0.0
 11
200.0
 21
-74.000000000000057
 31
0.0
  0
ARC
  5
661
100
AcDbEntity
  8
OBJECT
100
AcDbCircle
 10
203.00000000000011
 20
-123.50000000000006
 30
0.0
 40
1.5
100
AcDbArc
 50
180.0
 51
270.0
  0
LINE
  5
662
100
AcDbEntity
  8
OBJECT
100
AcDbLine
 10
203.00000000000011
 20
-126.50000000000006
 30
0.0
 11
207.00000000000011
 21
-126.50000000000006
 31
0.0
  0
LINE
  5
663
100
AcDbEntity
  8
OBJECT
100
AcDbLine
 10
207.00000000000011
 20
-125.00000000000006
 30
0.0
 11
203.00000000000011
 21
-125.00000000000006
 31
0.0
  0
ARC
  5
664
100
AcDbEntity
  8
OBJECT
100
AcDbCircle
 10
207.00000000000023
 20
-128.00000000000006
 30
0.0
 40
1.4999999999998863
100
AcDbArc
 50
0.0
 51
90.000000000004377
  0
ARC
  5
665
100
AcDbEntity
  8
OBJECT
100
AcDbCircle
 10
207.00000000000011
 20
-128.00000000000006
 30
0.0
 40
3.0
100
AcDbArc
 50
0.0
 51
90.0
  0
ARC
  5
666
100
AcDbEntity
  8
OBJECT
100
AcDbCircle
 10
203.00000000000011
 20
-123.50000000000006
 30
0.0
 40
3.0
100
AcDbArc
 50
180.0
 51
270.0
  0
LINE
  5
667
100
AcDbEntity
  8
OBJECT
100
AcDbLine
 10
208.50000000000011
 20
-128.00000000000006
 30
0.0
 11
208.50000000000011
 21
-131.00000000000006
 31
0.0
  0
LINE
  5
668
100
AcDbEntity
  8
OBJECT
100
AcDbLine
 10
210.00000000000011
 20
-131.00000000000006
 30
0.0
 11
210.00000000000011
 21
-128.00000000000006
 31
0.0
  0
LINE
  5
669
100
AcDbEntity
  8
OBJECT
100
AcDbLine
 10
201.99999999999886
 20
-286.39999999999924
 30
0.0
 11
200.0
 21
-286.39999999999924
 31
0.0
  0
LINE
  5
66A
100
AcDbEntity
  8
OBJECT
100
AcDbLine
 10
200.0
 20
-303.59999999999906
 30
0.0
 11
201.99999999999886
 21
-303.59999999999906
 31
0.0
  0
LINE
  5
66B
100
AcDbEntity
  8
OBJECT
100
AcDbLine
 10
203.29508776341595
 20
-278.25684219349984
 30
0.0
 11
201.99999999999886
 21
-280.49999999999915
 31
0.0
  0
LINE
  5
66C
100
AcDbEntity
  8
OBJECT
100
AcDbLine
 10
201.99999999999886
 20
-309.49999999999915
 30
0.0
 11
203.29508776341595
 21
-311.74315780649846
 31
0.0
  0
ARC
  5
66D
100
AcDbEntity
  8
OBJECT
100
AcDbCircle
 10
347.7999999425183
 20
-199.99999999999915
 30
0.0
 40
9.1000000000000014
100
AcDbArc
 50
19.917049747800732
 51
49.582561794289816
  0
ARC
  5
66E
100
AcDbEntity
  8
OBJECT
100
AcDbCircle
 10
347.7999999425183
 20
-199.99999999999915
 30
0.0
 40
9.1000000000001418
100
AcDbArc
 50
310.41743820570832
 51
340.08295025219928
  0
ARC
  5
66F
100
AcDbEntity
  8
OBJECT
100
AcDbCircle
 10
351.39999999088968
 20
-212.70000004837044
 30
0.0
 40
2.2999999516287213
100
AcDbArc
 50
272.49190664855286
 51
0.0000006024959589
  0
ARC
  5
670
100
AcDbEntity
  8
OBJECT
100
AcDbCircle
 10
351.39999999088968
 20
-187.29999995162785
 30
0.0
 40
2.2999999516285925
100
AcDbArc
 50
359.9999993975041
 51
87.508093351447144
  0
ARC
  5
671
100
AcDbEntity
  8
OBJECT
100
AcDbCircle
 10
347.79999994251853
 20
-294.99999999999915
 30
0.0
 40
9.1000000000000014
100
AcDbArc
 50
19.917049747800732
 51
49.582561794289816
  0
ARC
  5
672
100
AcDbEntity
  8
OBJECT
100
AcDbCircle
 10
347.79999994251853
 20
-294.99999999999915
 30
0.0
 40
9.1000000000001418
100
AcDbArc
 50
310.41743820570832
 51
340.082950252199
  0
ARC
  5
673
100
AcDbEntity
  8
OBJECT
100
AcDbCircle
 10
351.39999999088991
 20
-307.70000004837044
 30
0.0
 40
2.2999999516287115
100
AcDbArc
 50
272.49190664854717
 51
0.0000006024960157
  0
ARC
  5
674
100
AcDbEntity
  8
OBJECT
100
AcDbCircle
 10
351.39999999088991
 20
-282.29999995162785
 30
0.0
 40
2.2999999516285925
100
AcDbArc
 50
359.9999993975041
 51
87.508093351452828
  0
LINE
  5
675
100
AcDbEntity
  8
OBJECT
100
AcDbLine
 10
208.49999999999875
 20
-189.52249999999918
 30
0.0
 11
201.19999999999879
 21
-189.52249999999918
 31
0.0
  0
LINE
  5
676
100
AcDbEntity
  8
OBJECT
100
AcDbLine
 10
201.19999999999879
 20
-210.47749999999911
 30
0.0
 11
208.49999999999875
 21
-210.47749999999911
 31
0.0
  0
LINE
  5
677
100
AcDbEntity
  8
OBJECT
100
AcDbLine
 10
201.19999999999879
 20
-193.10000000000724
 30
0.0
 11
200.0
 21
-193.10000000000724
 31
0.0
  0
LINE
  5
678
100
AcDbEntity
  8
OBJECT
100
AcDbLine
 10
200.0
 20
-206.90000000000697
 30
0.0
 11
201.19999999999879
 21
-206.90000000000697
 31
0.0
  0
POLYLINE
  5
679
100
AcDbEntity
  8
OBJECT
100
AcDb2dPolyline
 66
               1
 10
0.0
 20
0.0
 30
0.0
 75
               5
  0
VERTEX
  5
67A
100
AcDbEntity
  8
OBJECT
100
AcDbVertex
100
AcDb2dVertex
 10
288.49999999999909
 20
-514.99999992582798
 30
0.0
  0
VERTEX
  5
67B
100
AcDbEntity
  8
OBJECT
100
AcDbVertex
100
AcDb2dVertex
 10
288.49999999999909
 20
-528.99999999999955
 30
0.0
  0
VERTEX
  5
67C
100
AcDbEntity
  8
OBJECT
100
AcDbVertex
100
AcDb2dVertex
 10
271.49999999999909
 20
-528.99999999999955
 30
0.0
  0
VERTEX
  5
67D
100
AcDbEntity
  8
OBJECT
100
AcDbVertex
100
AcDb2dVertex
 10
271.49999999999909
 20
-514.9999999441111
 30
0.0
  0
SEQEND
  5
67E
100
AcDbEntity
  8
OBJECT
  0
LINE
  5
67F
100
AcDbEntity
  8
CENTER
100
AcDbLine
 10
279.99999999999886
 20
-81.524998878689132
 30
0.0
 11
279.99999999999886
 21
-562.52499887868908
 31
0.0
  0
LINE
  5
680
100
AcDbEntity
  8
DIMENTION
100
AcDbLine
 10
-471.0
 20
-70.999999999999773
 30
0.0
 11
-691.0
 21
-70.999999999999773
 31
0.0
  0
LINE
  5
681
100
AcDbEntity
  8
DIMENTION
100
AcDbLine
 10
-471.0
 20
-70.999999999999773
 30
0.0
 11
6.0000000125610313
 21
-228.9999999999996
 31
0.0
  0
LINE
  5
682
100
AcDbEntity
  8
DIMENTION
100
AcDbLine
 10
6.0000000125610313
 20
-228.9999999999996
 30
0.0
 11
-16.71920782508073
 21
-227.41131822603126
 31
0.0
  0
LINE
  5
683
100
AcDbEntity
  8
DIMENTION
100
AcDbLine
 10
6.0000000125610313
 20
-228.9999999999996
 30
0.0
 11
-12.881070241711086
 21
-216.26455730639287
 31
0.0
  0
MTEXT
  5
684
100
AcDbEntity
  8
DIMENTION
100
AcDbMText
 10
-679.49349999999959
 20
-23.435999999999922
 30
0.0
 40
33.866666666666667
 41
0.0
 71
               1
 72
               1
  1
操作パネル
  7
________
  0
ARC
  5
685
100
AcDbEntity
  8
OBJECT
  6
CONTINUOUS
100
AcDbCircle
 10
-19.999999987435331
 20
-508.50000000000756
 30
0.0
 40
8.0
100
AcDbArc
 50
270.0
 51
90.0
  0
ARC
  5
686
100
AcDbEntity
  8
OBJECT
  6
CONTINUOUS
100
AcDbCircle
 10
-19.999999987435331
 20
-508.50000000000756
 30
0.0
 40
8.0
100
AcDbArc
 50
90.0
 51
269.99999385906602
  0
LINE
  5
687
100
AcDbEntity
  8
OBJECT
  6
CONTINUOUS
100
AcDbLine
 10
5.9959866346348463
 20
-474.99999999999983
 30
0.0
 11
0.0000000125610313
 21
-474.99999999999983
 31
0.0
  0
LINE
  5
688
100
AcDbEntity
  8
OBJECT
  6
CONTINUOUS
100
AcDbLine
 10
0.0000000125610313
 20
-474.99999999999983
 30
0.0
 11
0.0000000125610313
 21
-469.99999999999983
 31
0.0
  0
LINE
  5
689
100
AcDbEntity
  8
OBJECT
  6
CONTINUOUS
100
AcDbLine
 10
0.0000000125610313
 20
-469.99999999999983
 30
0.0
 11
-39.999999987438514
 21
-469.99999999999983
 31
0.0
  0
LINE
  5
68A
100
AcDbEntity
  8
OBJECT
  6
CONTINUOUS
100
AcDbLine
 10
-39.999999987438514
 20
-469.99999999999983
 30
0.0
 11
-39.999999987438514
 21
-474.99999999999983
 31
0.0
  0
LINE
  5
68B
100
AcDbEntity
  8
OBJECT
  6
CONTINUOUS
100
AcDbLine
 10
-39.999999987438514
 20
-474.99999999999983
 30
0.0
 11
-45.995986609512329
 21
-474.99999999999983
 31
0.0
  0
ARC
  5
68C
100
AcDbEntity
  8
OBJECT
  6
CONTINUOUS
100
AcDbCircle
 10
-45.995986609512329
 20
-475.00401337792601
 30
0.0
 40
0.0040133779261851
100
AcDbArc
 50
90.0
 51
180.0
  0
LINE
  5
68D
100
AcDbEntity
  8
OBJECT
  6
CONTINUOUS
100
AcDbLine
 10
-45.999999987438969
 20
-475.00401337792601
 30
0.0
 11
-45.999999987438969
 21
-537.99598662207359
 31
0.0
  0
LINE
  5
68E
100
AcDbEntity
  8
OBJECT
  6
CONTINUOUS
100
AcDbLine
 10
-45.995986609512329
 20
-538.00000000000023
 30
0.0
 11
5.9959866346348463
 21
-538.00000000000023
 31
0.0
  0
ARC
  5
68F
100
AcDbEntity
  8
OBJECT
  6
CONTINUOUS
100
AcDbCircle
 10
5.9959866346348463
 20
-537.99598662207359
 30
0.0
 40
0.0040133779266398
100
AcDbArc
 50
270.0
 51
0.0
  0
LINE
  5
690
100
AcDbEntity
  8
OBJECT
  6
CONTINUOUS
100
AcDbLine
 10
6.0000000125610313
 20
-537.99598662207359
 30
0.0
 11
6.0000000125610313
 21
-475.00401337792601
 31
0.0
  0
INSERT
  5
691
100
AcDbEntity
  8
OBJECT
100
AcDbBlockReference
  2
*U64
 10
1014.1172999999999
 20
428.99999999999994
 30
0.0
  0
POINT
  5
692
100
AcDbEntity
  8
HIDDEN
  6
CONTINUOUS
100
AcDbPoint
 10
-100.0
 20
0.0
 30
0.0
  0
ARC
  5
693
100
AcDbEntity
  8
OBJECT
100
AcDbCircle
 10
-100.00000000000045
 20
-2037.3244999982744
 30
0.0
 40
2399.9999999999977
100
AcDbArc
 50
86.772378205204291
 51
93.227621794795709
  0
ARC
  5
694
100
AcDbEntity
  8
OBJECT
100
AcDbCircle
 10
-950.00000000000023
 20
287.67550000172491
 30
0.0
 40
1000.0000000000002
100
AcDbArc
 50
356.67339689526011
 51
3.3266031047398883
  0
ARC
  5
695
100
AcDbEntity
  8
OBJECT
100
AcDbCircle
 10
-100.00000000000045
 20
2612.6755000017256
 30
0.0
 40
2399.9999999999995
100
AcDbArc
 50
266.77237820520429
 51
273.22762179479582
  0
ARC
  5
696
100
AcDbEntity
  8
OBJECT
100
AcDbCircle
 10
749.99999999999955
 20
287.67550000172491
 30
0.0
 40
1000.0000000000005
100
AcDbArc
 50
176.67339689526005
 51
183.32660310473995
  0
ARC
  5
697
100
AcDbEntity
  8
OBJECT
100
AcDbCircle
 10
-234.33857160699381
 20
344.89067671825887
 30
0.0
 40
13.99999999999986
100
AcDbArc
 50
93.227621794794814
 51
176.67339689526008
  0
ARC
  5
698
100
AcDbEntity
  8
OBJECT
100
AcDbCircle
 10
34.3385716069929
 20
230.46032328519095
 30
0.0
 40
13.99999999999986
100
AcDbArc
 50
273.2276217947948
 51
356.67339689525988
  0
ARC
  5
699
100
AcDbEntity
  8
OBJECT
100
AcDbCircle
 10
34.338571606993355
 20
344.89067671825705
 30
0.0
 40
13.999999999999838
100
AcDbArc
 50
3.3266031047391369
 51
86.772378205205186
  0
ARC
  5
69A
100
AcDbEntity
  8
OBJECT
100
AcDbCircle
 10
-234.33857160699426
 20
230.46032328519095
 30
0.0
 40
13.999999999999853
100
AcDbArc
 50
183.32660310474009
 51
266.7723782052052
  0
ARC
  5
69B
100
AcDbEntity
  8
OBJECT
100
AcDbCircle
 10
-100.00000000000045
 20
-2037.3244999982744
 30
0.0
 40
2437.4999999999973
100
AcDbArc
 50
86.772378205204291
 51
93.227621794795724
  0
ARC
  5
69C
100
AcDbEntity
  8
OBJECT
100
AcDbCircle
 10
-950.00000000000023
 20
287.67550000172491
 30
0.0
 40
1037.5
100
AcDbArc
 50
356.67339689526
 51
3.3266031047399451
  0
ARC
  5
69D
100
AcDbEntity
  8
OBJECT
100
AcDbCircle
 10
749.99999999999955
 20
287.67550000172491
 30
0.0
 40
1037.5000000000005
100
AcDbArc
 50
176.67339689526008
 51
183.32660310473995
  0
ARC
  5
69E
100
AcDbEntity
  8
OBJECT
100
AcDbCircle
 10
-234.33857160699426
 20
344.89067671825819
 30
0.0
 40
51.499999999999645
100
AcDbArc
 50
93.227621794796022
 51
176.67339689526028
  0
ARC
  5
69F
100
AcDbEntity
  8
OBJECT
100
AcDbCircle
 10
-234.33857160699426
 20
230.46032328519186
 30
0.0
 40
51.500000000000099
100
AcDbArc
 50
183.32660310473997
 51
215.89207421094892
  0
ARC
  5
6A0
100
AcDbEntity
  8
OBJECT
100
AcDbCircle
 10
34.338571606993355
 20
230.46032328518982
 30
0.0
 40
51.499999999999787
100
AcDbArc
 50
324.10792578905586
 51
356.67339689526028
  0
ARC
  5
6A1
100
AcDbEntity
  8
OBJECT
100
AcDbCircle
 10
34.338571606993355
 20
344.89067671825819
 30
0.0
 40
51.499999999999631
100
AcDbArc
 50
3.3266031047397471
 51
86.77237820520449
  0
POINT
  5
6A2
100
AcDbEntity
  8
DIMENTION
  6
CONTINUOUS
100
AcDbPoint
 10
1365.0
 20
0.0
 30
0.0
  0
ARC
  5
6A3
100
AcDbEntity
  8
OBJECT
100
AcDbCircle
 10
1397.5
 20
197.17550000172287
 30
0.0
 40
25.000000000000046
100
AcDbArc
 50
179.99999654416777
 51
241.49766116013166
  0
ARC
  5
6A4
100
AcDbEntity
  8
OBJECT
100
AcDbCircle
 10
1397.5
 20
378.17550000172287
 30
0.0
 40
24.999999999999844
100
AcDbArc
 50
118.50233883986724
 51
180.00000345583226
  0
LINE
  5
6A5
100
AcDbEntity
  8
OBJECT
100
AcDbLine
 10
1372.5
 20
197.17550150961415
 30
0.0
 11
1372.5
 21
197.99754158620453
 31
0.0
  0
LINE
  5
6A6
100
AcDbEntity
  8
OBJECT
100
AcDbLine
 10
1372.5
 20
225.93258049425935
 30
0.0
 11
1372.5
 21
378.17549849383158
 31
0.0
  0
ARC
  5
6A7
100
AcDbEntity
  8
OUTLINE
100
AcDbCircle
 10
1397.5
 20
627.17550000172287
 30
0.0
 40
25.000000000000046
100
AcDbArc
 50
179.99999654416777
 51
241.49766116013166
  0
ARC
  5
6A8
100
AcDbEntity
  8
OUTLINE
100
AcDbCircle
 10
1397.5
 20
808.17550000172287
 30
0.0
 40
24.999999999999844
100
AcDbArc
 50
118.50233883986724
 51
180.00000345583226
  0
LINE
  5
6A9
100
AcDbEntity
  8
OUTLINE
100
AcDbLine
 10
1372.5
 20
627.17550150961415
 30
0.0
 11
1372.5
 21
733.1077746067258
 31
0.0
  0
LINE
  5
6AA
100
AcDbEntity
  8
OUTLINE
100
AcDbLine
 10
1372.5
 20
759.72811284480213
 30
0.0
 11
1372.5
 21
808.17549849383158
 31
0.0
  0
MTEXT
  5
6AB
100
AcDbEntity
  8
TEXT
100
AcDbMText
 10
1089.5467000000008
 20
1639.8031999999996
 30
0.0
 40
25.400000000000002
 41
0.0
 71
               1
 72
               1
  1
上部 回転ノズル\P下部 ４バルブ４アーム回転ノズル
  7
________
  0
MTEXT
  5
6AC
100
AcDbEntity
  8
TEXT
100
AcDbMText
 10
2131.444500000001
 20
1199.8832999999997
 30
0.0
 40
25.400000000000002
 41
0.0
 71
               1
 72
               1
  1
電気ヒーター：3.0 kW\P温度制御　：サーミスター方式\P　　　　　　デジタル設定（85 ℃）
  7
________
  0
LINE
  5
6AD
100
AcDbEntity
  8
TEXT
100
AcDbLine
 10
765.0000000000008
 20
1164.9999999999998
 30
0.0
 11
765.0000000000008
 21
1724.9999999999998
 31
0.0
  0
LINE
  5
6AE
100
AcDbEntity
  8
TEXT
100
AcDbLine
 10
1805.0000000000009
 20
1724.9999999999998
 30
0.0
 11
3035.0
 21
1724.9999999999998
 31
0.0
  0
LINE
  5
6AF
100
AcDbEntity
  8
TEXT
100
AcDbLine
 10
935.0000000000008
 20
1724.9999999999998
 30
0.0
 11
935.0000000000008
 21
1444.9999999999998
 31
0.0
  0
LINE
  5
6B0
100
AcDbEntity
  8
TEXT
100
AcDbLine
 10
1065.0000000000009
 20
1724.9999999999998
 30
0.0
 11
1065.0000000000009
 21
1164.9999999999998
 31
0.0
  0
LINE
  5
6B1
100
AcDbEntity
  8
TEXT
100
AcDbLine
 10
1805.0000000000009
 20
1084.9999999999998
 30
0.0
 11
1805.0000000000009
 21
1724.9999999999998
 31
0.0
  0
LINE
  5
6B2
100
AcDbEntity
  8
TEXT
100
AcDbLine
 10
3035.0
 20
1724.9999999999998
 30
0.0
 11
3035.0
 21
1084.9999999999998
 31
0.0
  0
LINE
  5
6B3
100
AcDbEntity
  8
TEXT
100
AcDbLine
 10
2115.0000000000009
 20
1724.9999999999998
 30
0.0
 11
2115.0000000000009
 21
1084.9999999999998
 31
0.0
  0
MTEXT
  5
6B4
100
AcDbEntity
  8
TEXT
100
AcDbMText
 10
782.63890000000072
 20
1700.7499999999998
 30
0.0
 40
25.400000000000002
 41
0.0
 71
               1
 72
               1
  1
洗浄方式
  7
________
  0
MTEXT
  5
6B5
100
AcDbEntity
  8
TEXT
100
AcDbMText
 10
949.34970000000101
 20
1699.6921
 30
0.0
 40
25.400000000000002
 41
0.0
 71
               1
 72
               1
  1
洗　浄
  7
________
  0
MTEXT
  5
6B6
100
AcDbEntity
  8
TEXT
100
AcDbMText
 10
949.34970000000101
 20
1620.4999999999998
 30
0.0
 40
25.400000000000002
 41
0.0
 71
               1
 72
               1
  1
すすぎ
  7
________
  0
MTEXT
  5
6B7
100
AcDbEntity
  8
TEXT
100
AcDbMText
 10
1089.5467000000008
 20
1721.2198999999998
 30
0.0
 40
25.400000000000002
 41
0.0
 71
               1
 72
               1
  1
上部 ４エンドアーム回転ノズル\P下部 ４ローター回転ノズル
  7
________
  0
MTEXT
  5
6B8
100
AcDbEntity
  8
TEXT
100
AcDbMText
 10
777.64070000000072
 20
1555.4142999999997
 30
0.0
 40
25.400000000000002
 41
0.0
 71
               1
 72
               1
  1
洗浄時間
  7
________
  0
MTEXT
  5
6B9
100
AcDbEntity
  8
TEXT
100
AcDbMText
 10
781.6300000000009
 20
1442.1365999999996
 30
0.0
 40
25.400000000000002
 41
0.0
 71
               1
 72
               1
  1
ラ ッ ク 処 理 数
  7
________
  0
MTEXT
  5
6BA
100
AcDbEntity
  8
TEXT
100
AcDbMText
 10
781.6300000000009
 20
1317.7476999999997
 30
0.0
 40
25.400000000000002
 41
0.0
 71
               1
 72
               1
  1
必要給水(湯)能力
  7
________
  0
MTEXT
  5
6BB
100
AcDbEntity
  8
TEXT
100
AcDbMText
 10
1817.6407000000008
 20
1719.3554999999994
 30
0.0
 40
25.400000000000002
 41
0.0
 71
               1
 72
               1
  1
すすぎ湯消費量
  7
________
  0
MTEXT
  5
6BC
100
AcDbEntity
  8
TEXT
100
AcDbMText
 10
1826.2749932667239
 20
1599.3749999983122
 30
0.0
 40
25.400000000000002
 41
0.0
 71
               1
 72
               1
  1
洗　　浄　　槽
  7
________
  0
MTEXT
  5
6BD
100
AcDbEntity
  8
TEXT
100
AcDbMText
 10
1821.0000000000009
 20
1479.9698999999998
 30
0.0
 40
25.400000000000002
 41
0.0
 71
               1
 72
               1
  1
すすぎ湯タンク
  7
________
  0
MTEXT
  5
6BE
100
AcDbEntity
  8
TEXT
100
AcDbMText
 10
1091.611100000001
 20
1442.1365999999996
 30
0.0
 40
25.400000000000002
 41
0.0
 71
               1
 72
               1
  1
　短　：72ﾗｯｸ／ h（500 mm角形ラック）\P標　準：65ﾗｯｸ／ h（500 mm角形ラック）\P　長　：40ﾗｯｸ／ h（500 mm角形ラック）\P
  7
________
  0
MTEXT
  5
6BF
100
AcDbEntity
  8
TEXT
100
AcDbMText
 10
1091.611100000001
 20
1315.4721999999999
 30
0.0
 40
25.400000000000002
 41
0.0
 71
               1
 72
               1
  1
温　　度：65 ℃以上\P流　　量：3.4 L／ min以上\P給  湯  圧：49.1kPa ～491kPa\P　　　　　（0.5 ～ 5.0 kgf／ cm ）
  7
________
  0
MTEXT
  5
6C0
100
AcDbEntity
  8
TEXT
100
AcDbMText
 10
2128.0834000000009
 20
1718.0531999999996
 30
0.0
 40
25.400000000000002
 41
0.0
 71
               1
 72
               1
  1
　短　：1.8 L／ ﾗｯｸ\P標　準：2.2 L／ ﾗｯｸ\P　長　：2.6 L／ ﾗｯｸ
  7
________
  0
MTEXT
  5
6C1
100
AcDbEntity
  8
TEXT
100
AcDbMText
 10
2134.8918201906818
 20
1599.3887999999999
 30
0.0
 40
25.400000000000002
 41
0.0
 71
               1
 72
               1
  1
容　　量：62 L\P加熱方式：電気ヒーター　4.0 kW\P温度制御：サーミスター方式（65 ℃）
  7
________
  0
MTEXT
  5
6C2
100
AcDbEntity
  8
TEXT
100
AcDbMText
 10
2131.444500000001
 20
1479.9698999999998
 30
0.0
 40
25.400000000000002
 41
0.0
 71
               1
 72
               1
  1
容　　量：17 L（有効　5.5 L）
  7
________
  0
MTEXT
  5
6C3
100
AcDbEntity
  8
TEXT
100
AcDbMText
 10
1821.0000000000009
 20
1439.8198999999997
 30
0.0
 40
25.400000000000002
 41
0.0
 71
               1
 72
               1
  1
洗  浄  ポ  ン  プ
  7
________
  0
MTEXT
  5
6C4
100
AcDbEntity
  8
TEXT
100
AcDbMText
 10
1821.0000000000009
 20
1401.346474128866
 30
0.0
 40
25.400000000000002
 41
0.0
 71
               1
 72
               1
  1
すすぎ ポ ン プ
  7
________
  0
MTEXT
  5
6C5
100
AcDbEntity
  8
TEXT
100
AcDbMText
 10
1821.0000000000009
 20
1359.9421
 30
0.0
 40
25.400000000000002
 41
0.0
 71
               1
 72
               1
  1
電　　　　　源
  7
________
  0
MTEXT
  5
6C6
100
AcDbEntity
  8
TEXT
100
AcDbMText
 10
1821.0000000000009
 20
1319.2779999954703
 30
0.0
 40
25.400000000000002
 41
0.0
 71
               1
 72
               1
  1
消　費　電　力
  7
________
  0
MTEXT
  5
6C7
100
AcDbEntity
  8
TEXT
100
AcDbMText
 10
1821.0000000000009
 20
1240.6365999999996
 30
0.0
 40
25.400000000000002
 41
0.0
 71
               1
 72
               1
  1
質　　　　　量
  7
________
  0
MTEXT
  5
6C8
100
AcDbEntity
  8
TEXT
100
AcDbMText
 10
1821.5249999954262
 20
1197.1587999999999
 30
0.0
 40
25.400000000000002
 41
0.0
 71
               1
 72
               1
  1
電気ブースター
  7
________
  0
MTEXT
  5
6C9
100
AcDbEntity
  8
TEXT
100
AcDbMText
 10
2131.444500000001
 20
1439.8198999999997
 30
0.0
 40
25.400000000000002
 41
0.0
 71
               1
 72
               1
  1
電動機定格出力　750 W
  7
________
  0
MTEXT
  5
6CA
100
AcDbEntity
  8
TEXT
100
AcDbMText
 10
2131.444500000001
 20
1400.346474128866
 30
0.0
 40
25.400000000000002
 41
0.0
 71
               1
 72
               1
  1
電動機定格出力　90 W
  7
________
  0
MTEXT
  5
6CB
100
AcDbEntity
  8
TEXT
100
AcDbMText
 10
2131.444500000001
 20
1359.3750000017224
 30
0.0
 40
25.400000000000002
 41
0.0
 71
               1
 72
               1
  1
三相 200 V　50・60 Hz
  7
________
  0
MTEXT
  5
6CC
100
AcDbEntity
  8
TEXT
100
AcDbMText
 10
2131.444500000001
 20
1319.3750000017224
 30
0.0
 40
25.400000000000002
 41
0.0
 71
               1
 72
               1
  1
8.0 kW
  7
________
  0
MTEXT
  5
6CD
100
AcDbEntity
  8
TEXT
100
AcDbMText
 10
2131.444500000001
 20
1239.3750000017228
 30
0.0
 40
25.400000000000002
 41
0.0
 71
               1
 72
               1
  1
95 kg
  7
________
  0
MTEXT
  5
6CE
100
AcDbEntity
  8
TEXT
100
AcDbMText
 10
1821.0000000000009
 20
1280.0531999999996
 30
0.0
 40
25.400000000000002
 41
0.0
 71
               1
 72
               1
  1
最  大  電  流  値
  7
________
  0
MTEXT
  5
6CF
100
AcDbEntity
  8
TEXT
100
AcDbMText
 10
2131.444500000001
 20
1279.8750000017224
 30
0.0
 40
25.400000000000002
 41
0.0
 71
               1
 72
               1
  1
23.5 A
  7
________
  0
MTEXT
  5
6D0
100
AcDbEntity
  8
TEXT
100
AcDbMText
 10
1469.0902777777778
 20
1199.3601081493096
 30
0.0
 40
14.111111111111112
 41
0.0
 71
               1
 72
               1
  1
2
  7
________
  0
LINE
  5
6D1
100
AcDbEntity
  8
TEXT
100
AcDbLine
 10
935.0000000000008
 20
1644.9999999999998
 30
0.0
 11
1805.0000000000009
 21
1644.9999999999998
 31
0.0
  0
LINE
  5
6D2
100
AcDbEntity
  8
TEXT
100
AcDbLine
 10
765.0000000000008
 20
1564.9999999999998
 30
0.0
 11
1805.0000000000009
 21
1564.9999999999998
 31
0.0
  0
LINE
  5
6D3
100
AcDbEntity
  8
TEXT
100
AcDbLine
 10
765.0000000000008
 20
1444.9999999999998
 30
0.0
 11
1805.0000000000009
 21
1444.9999999999998
 31
0.0
  0
LINE
  5
6D4
100
AcDbEntity
  8
TEXT
100
AcDbLine
 10
765.0000000000008
 20
1324.9999999999998
 30
0.0
 11
1805.0000000000009
 21
1324.9999999999998
 31
0.0
  0
LINE
  5
6D5
100
AcDbEntity
  8
TEXT
100
AcDbLine
 10
765.0000000000008
 20
1164.9999999999998
 30
0.0
 11
1805.0000000000009
 21
1164.9999999999998
 31
0.0
  0
MTEXT
  5
6D6
100
AcDbEntity
  8
TEXT
100
AcDbMText
 10
1086.3008000000009
 20
1559.9422000016868
 30
0.0
 40
25.400000000000002
 41
0.0
 71
               1
 72
               1
  1
1ラック50秒  洗浄40秒、水切5秒、すすぎ5秒\P1ラック55秒  洗浄44秒、水切5秒、すすぎ6秒\P1ラック90秒  洗浄78秒、水切5秒、すすぎ7秒
  7
________
  0
MTEXT
  5
6D7
100
AcDbEntity
  8
TEXT
100
AcDbMText
 10
965.34970000000101
 20
1557.3749999999998
 30
0.0
 40
25.400000000000002
 41
0.0
 71
               1
 72
               1
  1
 短\P標準\P 長
  7
________
  0
LINE
  5
6D8
100
AcDbEntity
  8
TEXT
100
AcDbLine
 10
1805.0000000000009
 20
1484.9999999999998
 30
0.0
 11
3035.0
 21
1484.9999999999998
 31
0.0
  0
LINE
  5
6D9
100
AcDbEntity
  8
TEXT
100
AcDbLine
 10
1805.0000000000009
 20
1444.9999999999998
 30
0.0
 11
3035.0
 21
1444.9999999999998
 31
0.0
  0
LINE
  5
6DA
100
AcDbEntity
  8
TEXT
100
AcDbLine
 10
1805.0000000000009
 20
1404.9999999999998
 30
0.0
 11
3035.0
 21
1404.9999999999998
 31
0.0
  0
LINE
  5
6DB
100
AcDbEntity
  8
TEXT
100
AcDbLine
 10
1805.0000000000009
 20
1364.9999999999998
 30
0.0
 11
3035.0
 21
1364.9999999999998
 31
0.0
  0
LINE
  5
6DC
100
AcDbEntity
  8
TEXT
100
AcDbLine
 10
1805.0000000000009
 20
1364.9999999999998
 30
0.0
 11
3035.0
 21
1364.9999999999998
 31
0.0
  0
LINE
  5
6DD
100
AcDbEntity
  8
TEXT
100
AcDbLine
 10
1805.0000000000009
 20
1324.9999999999998
 30
0.0
 11
3035.0
 21
1324.9999999999998
 31
0.0
  0
LINE
  5
6DE
100
AcDbEntity
  8
TEXT
100
AcDbLine
 10
1805.0000000000009
 20
1284.9999999999998
 30
0.0
 11
3035.0
 21
1284.9999999999998
 31
0.0
  0
LINE
  5
6DF
100
AcDbEntity
  8
TEXT
100
AcDbLine
 10
1805.0000000000009
 20
1244.9999999999998
 30
0.0
 11
3035.0
 21
1244.9999999999998
 31
0.0
  0
LINE
  5
6E0
100
AcDbEntity
  8
TEXT
100
AcDbLine
 10
1805.0000000000009
 20
1204.9999999999998
 30
0.0
 11
3035.0
 21
1204.9999999999998
 31
0.0
  0
LINE
  5
6E1
100
AcDbEntity
  8
TEXT
100
AcDbLine
 10
1805.0000000000009
 20
1084.9999999999998
 30
0.0
 11
3035.0
 21
1084.9999999999998
 31
0.0
  0
LINE
  5
6E2
100
AcDbEntity
  8
TEXT
100
AcDbLine
 10
1805.0000000000009
 20
1604.9999999999998
 30
0.0
 11
3035.0
 21
1604.9999999999998
 31
0.0
  0
LINE
  5
6E3
100
AcDbEntity
  8
TEXT
100
AcDbLine
 10
765.0000000000008
 20
1724.9999999999998
 30
0.0
 11
1805.0000000000009
 21
1724.9999999999998
 31
0.0
  0
INSERT
  5
6E4
100
AcDbEntity
  8
OBJECT
100
AcDbBlockReference
  2
*U71
 10
1014.1172999999999
 20
428.99999999999994
 30
0.0
  0
LINE
  5
6E5
100
AcDbEntity
  8
FRAME
  6
CONTINUOUS
100
AcDbLine
 10
-1000.0
 20
-979.99999999999977
 30
0.0
 11
-1000.0
 21
1739.9999999999998
 31
0.0
  0
LINE
  5
6E6
100
AcDbEntity
  8
FRAME
  6
CONTINUOUS
100
AcDbLine
 10
3050.0
 20
-979.99999999999977
 30
0.0
 11
-1000.0
 21
-979.99999999999977
 31
0.0
  0
LINE
  5
6E7
100
AcDbEntity
  8
FRAME
  6
CONTINUOUS
100
AcDbLine
 10
3050.0
 20
1739.9999999999998
 30
0.0
 11
3050.0
 21
-979.99999999999977
 31
0.0
  0
LINE
  5
6E8
100
AcDbEntity
  8
FRAME
  6
CONTINUOUS
100
AcDbLine
 10
-1000.0
 20
1739.9999999999998
 30
0.0
 11
3050.0
 21
1739.9999999999998
 31
0.0
  0
LINE
  5
6E9
100
AcDbEntity
  8
FRAME
  6
CONTINUOUS
100
AcDbLine
 10
2289.7599999999998
 20
-979.99999999999977
 30
0.0
 11
2289.7599999999998
 21
-840.0
 31
0.0
  0
LINE
  5
6EA
100
AcDbEntity
  8
FRAME
  6
CONTINUOUS
100
AcDbLine
 10
2069.7599999999998
 20
-979.99999999999977
 30
0.0
 11
2069.7599999999998
 21
-840.0
 31
0.0
  0
LINE
  5
6EB
100
AcDbEntity
  8
FRAME
  6
CONTINUOUS
100
AcDbLine
 10
1469.76
 20
-979.99999999999977
 30
0.0
 11
1469.76
 21
-840.0
 31
0.0
  0
LINE
  5
6EC
100
AcDbEntity
  8
FRAME
  6
CONTINUOUS
100
AcDbLine
 10
350.0
 20
-979.99999999999977
 30
0.0
 11
350.0
 21
-840.0
 31
0.0
  0
LINE
  5
6ED
100
AcDbEntity
  8
FRAME
  6
CONTINUOUS
100
AcDbLine
 10
-70.0
 20
-979.99999999999977
 30
0.0
 11
-70.0
 21
-840.0
 31
0.0
  0
LINE
  5
6EE
100
AcDbEntity
  8
FRAME
  6
CONTINUOUS
100
AcDbLine
 10
-1000.0
 20
-840.0
 30
0.0
 11
3050.0
 21
-840.0
 31
0.0
  0
LINE
  5
6EF
100
AcDbEntity
  8
FRAME
  6
CONTINUOUS
100
AcDbLine
 10
-70.0
 20
-888.93999999999983
 30
0.0
 11
350.0
 21
-888.93999999999983
 31
0.0
  0
LINE
  5
6F0
100
AcDbEntity
  8
FRAME
  6
CONTINUOUS
100
AcDbLine
 10
-70.0
 20
-933.32999999999993
 30
0.0
 11
350.0
 21
-933.32999999999993
 31
0.0
  0
MTEXT
  5
6F1
100
AcDbEntity
  8
TEXT
100
AcDbMText
 10
2477.0
 20
-868.0
 30
0.0
 40
67.733333333333334
 41
0.0
 71
               1
 72
               1
  1
A301-318A
  7
________
  0
MTEXT
  5
6F2
100
AcDbEntity
  8
TEXT
100
AcDbMText
 10
2460.0
 20
795.86111111111109
 30
0.0
 40
33.866666666666667
 41
0.0
 71
               1
 72
               1
  1
給水装置　形式認証番号\P　　　　　     TW4003
  7
________
  0
MTEXT
  5
6F3
100
AcDbEntity
  8
TEXT
100
AcDbMText
 10
2405.0
 20
638.52777777777749
 30
0.0
 40
33.866666666666667
 41
0.0
 71
               1
 72
               1
  1
可燃物からの離隔距離（cm）
  7
________
  0
LINE
  5
6F4
100
AcDbEntity
  8
TEXT
100
AcDbLine
 10
2372.0
 20
584.52777777777737
 30
0.0
 11
2932.0
 21
584.52777777777737
 31
0.0
  0
LINE
  5
6F5
100
AcDbEntity
  8
TEXT
100
AcDbLine
 10
2372.0
 20
654.52777777777749
 30
0.0
 11
2932.0
 21
654.52777777777749
 31
0.0
  0
LINE
  5
6F6
100
AcDbEntity
  8
TEXT
100
AcDbLine
 10
2372.0
 20
514.52777777777737
 30
0.0
 11
2932.0
 21
514.52777777777737
 31
0.0
  0
LINE
  5
6F7
100
AcDbEntity
  8
TEXT
100
AcDbLine
 10
2372.0
 20
444.52777777777766
 30
0.0
 11
2932.0
 21
444.52777777777766
 31
0.0
  0
LINE
  5
6F8
100
AcDbEntity
  8
TEXT
100
AcDbLine
 10
2372.0
 20
444.52777777777766
 30
0.0
 11
2372.0
 21
654.52777777777749
 31
0.0
  0
LINE
  5
6F9
100
AcDbEntity
  8
TEXT
100
AcDbLine
 10
2932.0
 20
444.52777777777766
 30
0.0
 11
2932.0
 21
654.52777777777749
 31
0.0
  0
LINE
  5
6FA
100
AcDbEntity
  8
TEXT
100
AcDbLine
 10
2512.0
 20
444.52777777777766
 30
0.0
 11
2512.0
 21
584.52777777777737
 31
0.0
  0
LINE
  5
6FB
100
AcDbEntity
  8
TEXT
100
AcDbLine
 10
2652.0
 20
444.52777777777766
 30
0.0
 11
2652.0
 21
584.52777777777737
 31
0.0
  0
LINE
  5
6FC
100
AcDbEntity
  8
TEXT
100
AcDbLine
 10
2792.0
 20
444.52777777777766
 30
0.0
 11
2792.0
 21
584.52777777777737
 31
0.0
  0
MTEXT
  5
6FD
100
AcDbEntity
  8
TEXT
100
AcDbMText
 10
2394.0
 20
571.52777777777737
 30
0.0
 40
33.866666666666667
 41
0.0
 71
               1
 72
               1
  1
上方
  7
________
  0
MTEXT
  5
6FE
100
AcDbEntity
  8
TEXT
100
AcDbMText
 10
2390.0
 20
501.52777777777743
 30
0.0
 40
33.866666666666667
 41
0.0
 71
               1
 72
               1
  1
フード
  7
________
  0
MTEXT
  5
6FF
100
AcDbEntity
  8
TEXT
100
AcDbMText
 10
2539.0
 20
571.52777777777737
 30
0.0
 40
33.866666666666667
 41
0.0
 71
               1
 72
               1
  1
側方
  7
________
  0
MTEXT
  5
700
100
AcDbEntity
  8
TEXT
100
AcDbMText
 10
2525.0
 20
503.52777777777743
 30
0.0
 40
33.866666666666667
 41
0.0
 71
               1
 72
               1
  1
０以上
  7
________
  0
MTEXT
  5
701
100
AcDbEntity
  8
TEXT
100
AcDbMText
 10
2679.0
 20
571.52777777777737
 30
0.0
 40
33.866666666666667
 41
0.0
 71
               1
 72
               1
  1
前方
  7
________
  0
MTEXT
  5
702
100
AcDbEntity
  8
TEXT
100
AcDbMText
 10
2819.0
 20
571.52777777777737
 30
0.0
 40
33.866666666666667
 41
0.0
 71
               1
 72
               1
  1
後方
  7
________
  0
MTEXT
  5
703
100
AcDbEntity
  8
TEXT
100
AcDbMText
 10
2805.0
 20
503.52777777777743
 30
0.0
 40
33.866666666666667
 41
0.0
 71
               1
 72
               1
  1
０以上
  7
________
  0
LINE
  5
704
100
AcDbEntity
  8
TEXT
100
AcDbLine
 10
2652.0
 20
444.52777777777766
 30
0.0
 11
2792.0
 21
514.52777777777737
 31
0.0
  0
ENDSEC
  0
SECTION
  2
OBJECTS
  0
DICTIONARY
  5
19
100
AcDbDictionary
  3
ACAD_GROUP
350
1A
  3
ACAD_MLINESTYLE
350
1B
  0
DICTIONARY
  5
1A
102
{ACAD_REACTORS
330
19
102
}
100
AcDbDictionary
  0
DICTIONARY
  5
1B
102
{ACAD_REACTORS
330
19
102
}
100
AcDbDictionary
  3
STANDARD
350
1C
  0
MLINESTYLE
  5
1C
102
{ACAD_REACTORS
330
1B
102
}
100
AcDbMlineStyle
  2
STANDARD
 70
               0
  3

 62
               0
 51
90.0
 52
90.0
 71
               2
 49
0.5
 62
             256
  6
BYLAYER
 49
-0.5
 62
             256
  6
BYLAYER
  0
ENDSEC
  0
EOF
