  0
SECTION
  2
HEADER
  9
$ACADVER
  1
AC1014
  9
$ACADMAINTVER
 70
               0
  9
$DWGCODEPAGE
  3
ANSI_932
  9
$INSBASE
 10
0.0
 20
0.0
 30
0.0
  9
$EXTMIN
 10
-2025.3999999999999
 20
-1388.9999999999998
 30
0.0
  9
$EXTMAX
 10
2024.5999999999999
 20
1330.9999999999998
 30
0.0
  9
$LIMMIN
 10
0.0
 20
0.0
  9
$LIMMAX
 10
0.0
 20
0.0
  9
$ORTHOMODE
 70
               0
  9
$REGENMODE
 70
               1
  9
$FILLMODE
 70
               1
  9
$QTEXTMODE
 70
               0
  9
$MIRRTEXT
 70
               1
  9
$DRAGMODE
 70
               2
  9
$LTSCALE
 40
254.0
  9
$OSMODE
 70
               0
  9
$ATTMODE
 70
               1
  9
$TEXTSIZE
 40
0.2
  9
$TRACEWID
 40
1.0
  9
$TEXTSTYLE
  7
STANDARD
  9
$CLAYER
  8
0
  9
$CELTYPE
  6
CONTINUOUS
  9
$CECOLOR
 62
             256
  9
$CELTSCALE
 40
1.0
  9
$DELOBJ
 70
               1
  9
$DISPSILH
 70
               0
  9
$DIMSCALE
 40
1.0
  9
$DIMASZ
 40
31.75
  9
$DIMEXO
 40
9.9999999999999982
  9
$DIMDLI
 40
7.9999999999999991
  9
$DIMRND
 40
0.0
  9
$DIMDLE
 40
0.0
  9
$DIMEXE
 40
19.999999999999996
  9
$DIMTP
 40
0.0
  9
$DIMTM
 40
0.0
  9
$DIMTXT
 40
33.866666666666667
  9
$DIMCEN
 40
0.0
  9
$DIMTSZ
 40
0.0
  9
$DIMTOL
 70
               0
  9
$DIMLIM
 70
               0
  9
$DIMTIH
 70
               0
  9
$DIMTOH
 70
               0
  9
$DIMSE1
 70
               0
  9
$DIMSE2
 70
               0
  9
$DIMTAD
 70
               1
  9
$DIMZIN
 70
              11
  9
$DIMBLK
  1
VW_OPENARROW
  9
$DIMASO
 70
               1
  9
$DIMSHO
 70
               1
  9
$DIMPOST
  1
<>
  9
$DIMAPOST
  1
[]
  9
$DIMALT
 70
               0
  9
$DIMALTD
 70
               1
  9
$DIMALTF
 40
1.0
  9
$DIMLFAC
 40
1.0
  9
$DIMTOFL
 70
               1
  9
$DIMTVP
 40
0.0
  9
$DIMTIX
 70
               1
  9
$DIMSOXD
 70
               0
  9
$DIMSAH
 70
               0
  9
$DIMBLK1
  1

  9
$DIMBLK2
  1

  9
$DIMSTYLE
  2
CAD
  9
$DIMCLRD
 70
               0
  9
$DIMCLRE
 70
               0
  9
$DIMCLRT
 70
               0
  9
$DIMTFAC
 40
0.7
  9
$DIMGAP
 40
0.099999999627471
  9
$DIMJUST
 70
               0
  9
$DIMSD1
 70
               0
  9
$DIMSD2
 70
               0
  9
$DIMTOLJ
 70
               1
  9
$DIMTZIN
 70
              11
  9
$DIMALTZ
 70
              11
  9
$DIMALTTZ
 70
              11
  9
$DIMFIT
 70
               0
  9
$DIMUPT
 70
               0
  9
$DIMUNIT
 70
               2
  9
$DIMDEC
 70
               4
  9
$DIMTDEC
 70
               4
  9
$DIMALTU
 70
               2
  9
$DIMALTTD
 70
               2
  9
$DIMTXSTY
  7
________
  9
$DIMAUNIT
 70
               0
  9
$LUNITS
 70
               2
  9
$LUPREC
 70
               4
  9
$SKETCHINC
 40
0.1
  9
$FILLETRAD
 40
0.0
  9
$AUNITS
 70
               0
  9
$AUPREC
 70
               0
  9
$MENU
  1
acad
  9
$ELEVATION
 40
0.0
  9
$PELEVATION
 40
0.0
  9
$THICKNESS
 40
0.0
  9
$LIMCHECK
 70
               0
  9
$BLIPMODE
 70
               0
  9
$CHAMFERA
 40
0.0
  9
$CHAMFERB
 40
0.0
  9
$CHAMFERC
 40
0.0
  9
$CHAMFERD
 40
0.0
  9
$SKPOLY
 70
               0
  9
$TDCREATE
 40
2458753.558171297
  9
$TDUPDATE
 40
2458753.558171297
  9
$TDINDWG
 40
0.0000000000
  9
$TDUSRTIMER
 40
0.0000000000
  9
$USRTIMER
 70
               1
  9
$ANGBASE
 50
0.0
  9
$ANGDIR
 70
               0
  9
$PDMODE
 70
               1
  9
$PDSIZE
 40
-2.0
  9
$PLINEWID
 40
0.0
  9
$COORDS
 70
               0
  9
$SPLFRAME
 70
               0
  9
$SPLINETYPE
 70
               6
  9
$SPLINESEGS
 70
               8
  9
$ATTDIA
 70
               0
  9
$ATTREQ
 70
               1
  9
$HANDLING
 70
               1
  9
$HANDSEED
  5
7A6
  9
$SURFTAB1
 70
               6
  9
$SURFTAB2
 70
               6
  9
$SURFTYPE
 70
               6
  9
$SURFU
 70
               6
  9
$SURFV
 70
               6
  9
$UCSNAME
  2

  9
$UCSORG
 10
0.0
 20
0.0
 30
0.0
  9
$UCSXDIR
 10
1.0
 20
0.0
 30
0.0
  9
$UCSYDIR
 10
0.0
 20
1.0
 30
0.0
  9
$PUCSNAME
  2

  9
$PUCSORG
 10
0.0
 20
0.0
 30
0.0
  9
$PUCSXDIR
 10
1.0
 20
0.0
 30
0.0
  9
$PUCSYDIR
 10
0.0
 20
1.0
 30
0.0
  9
$USERI1
 70
               0
  9
$USERI2
 70
               0
  9
$USERI3
 70
               0
  9
$USERI4
 70
               0
  9
$USERI5
 70
               0
  9
$USERR1
 40
0.0
  9
$USERR2
 40
0.0
  9
$USERR3
 40
0.0
  9
$USERR4
 40
0.0
  9
$USERR5
 40
0.0
  9
$WORLDVIEW
 70
               1
  9
$SHADEDGE
 70
               3
  9
$SHADEDIF
 70
              70
  9
$TILEMODE
 70
               1
  9
$MAXACTVP
 70
              16
  9
$PINSBASE
 10
0.0
 20
0.0
 30
0.0
  9
$PLIMCHECK
 70
               0
  9
$PEXTMIN
 10
1.0000000000000000E+20
 20
1.0000000000000000E+20
 30
1.0000000000000000E+20
  9
$PEXTMAX
 10
-1.0000000000000000E+20
 20
-1.0000000000000000E+20
 30
-1.0000000000000000E+20
  9
$PLIMMIN
 10
0.0
 20
0.0
  9
$PLIMMAX
 10
12.0
 20
9.0
  9
$UNITMODE
 70
               0
  9
$VISRETAIN
 70
               0
  9
$PLINEGEN
 70
               1
  9
$PSLTSCALE
 70
               0
  9
$TREEDEPTH
 70
            3020
  9
$PICKSTYLE
 70
               1
  9
$CMLSTYLE
  2
STANDARD
  9
$CMLJUST
 70
               0
  9
$CMLSCALE
 40
1.0
  9
$PROXYGRAPHICS
 70
               0
  9
$MEASUREMENT
 70
               1
  0
ENDSEC
  0
SECTION
  2
CLASSES
  0
CLASS
  1
LWPOLYLINE
  2
AcDbPolyline
  3
"AutoCAD"
 90
        0
280
               0
281
               1
  0
CLASS
  1
IMAGE
  2
AcDbRasterImage
  3
ISM
 90
      127
280
               0
281
               1
  0
CLASS
  1
OLE2FRAME
  2
AcDbOle2Frame
  3
""
 90
        0
280
               0
281
               1
  0
CLASS
  1
HATCH
  2
AcDbHatch
  3
"ACAD_SEDONA"
 90
        0
280
               0
281
               1
  0
CLASS
  1
DICTIONARYVAR
  2
AcDbDictionaryVar
  3
"AutoCAD"
 90
        0
280
               0
281
               0
  0
CLASS
  1
RASTERVARIABLES
  2
AcDbRasterVariables
  3
ISM
 90
        0
280
               0
281
               0
  0
CLASS
  1
IMAGEDEF
  2
AcDbRasterImageDef
  3
ISM
 90
        0
280
               0
281
               0
  0
CLASS
  1
IMAGEDEF_REACTOR
  2
AcDbRasterImageDefReactor
  3
ISM
 90
        1
280
               0
281
               0
  0
CLASS
  1
IDBUFFER
  2
AcDbIdBuffer
  3
"Acad"
 90
        0
280
               0
281
               0
  0
CLASS
  1
SPATIAL_FILTER
  2
AcDbSpatialFilter
  3
"Acad"
 90
        0
280
               0
281
               0
  0
CLASS
  1
XRECORD
  2
AcDbXrecord
  3
"<Built In>"
 90
        0
280
               0
281
               0
  0
CLASS
  1
SORTENTSTABLE
  2
AcDbSortentsTable
  3
"AutoCAD"
 90
        0
280
               0
281
               0
  0
CLASS
  1
LAYER_INDEX
  2
AcDbLayerIndex
  3
"Acad"
 90
        0
280
               0
281
               0
  0
CLASS
  1
SPATIAL_INDEX
  2
AcDbSpatialIndex
  3
"Acad"
 90
        0
280
               0
281
               0
  0
CLASS
  1
OBJECT_PTR
  2
CAseDLPNTableRecord
  3
"ASE-LPNTableRecord"
 90
        1
280
               0
281
               0
  0
CLASS
  1
LAYOUT
  2
AcDbLayout
  3
"AutoCAD 2000"
 90
        1
280
               0
281
               0
  0
CLASS
  1
PLOTSETTINGS
  2
AcDbPlotSettings
  3
"AutoCAD 2000"
 90
        1
280
               0
281
               0
  0
CLASS
  1
ACDBDICTIONARYWDFLT
  2
AcDbDictionaryWithDefault
  3
"AutoCAD 2000"
 90
        1
280
               0
281
               0
  0
CLASS
  1
ACDBPLACEHOLDER
  2
AcDbPlaceHolder
  3
"AutoCAD 2000"
 90
        1
280
               0
281
               0
  0
ENDSEC
  0
SECTION
  2
TABLES
  0
TABLE
  2
VPORT
  5
7
100
AcDbSymbolTable
 70
               1
  0
VPORT
  5
15
100
AcDbSymbolTableRecord
100
AcDbViewportTableRecord
  2
*ACTIVE
 70
               0
 10
0.0
 20
0.0
 11
1.0
 21
1.0
 12
-0.3999999999998636
 22
-29.0
 13
0.0
 23
0.0
 14
1.0
 24
1.0
 15
0.0
 25
0.0
 16
0.0
 26
0.0
 36
1.0
 17
0.0
 27
0.0
 37
0.0
 40
2719.9999999999995
 41
0.688564
 42
50.0
 43
0.0
 44
0.0
 50
0.0
 51
0.0
 71
               0
 72
             100
 73
               1
 74
               1
 75
               0
 76
               0
 77
               0
 78
               0
  0
ENDTAB
  0
TABLE
  2
LTYPE
  5
4
100
AcDbSymbolTable
 70
              21
  0
LTYPE
  5
11
100
AcDbSymbolTableRecord
100
AcDbLinetypeTableRecord
  2
BYBLOCK
 70
              64
  3

 72
              65
 73
               0
 40
0.0
  0
LTYPE
  5
12
100
AcDbSymbolTableRecord
100
AcDbLinetypeTableRecord
  2
BYLAYER
 70
              64
  3

 72
              65
 73
               0
 40
0.0
  0
LTYPE
  5
13
100
AcDbSymbolTableRecord
100
AcDbLinetypeTableRecord
  2
CONTINUOUS
 70
              64
  3
Solid line
 72
              65
 73
               0
 40
0.0
  0
LTYPE
  5
32
100
AcDbSymbolTableRecord
100
AcDbLinetypeTableRecord
  2
STYLE_01
 70
               0
  3

 72
              65
 73
               2
 40
0.0375109361329834
 49
0.0236220472440945
 74
               0
 49
-0.0138888888888889
 74
               0
  0
LTYPE
  5
33
100
AcDbSymbolTableRecord
100
AcDbLinetypeTableRecord
  2
STYLE_02
 70
               0
  3

 72
              65
 73
               6
 40
0.6527777777777778
 49
0.4027777777777778
 74
               0
 49
-0.0555555555555555
 74
               0
 49
0.0416666666666667
 74
               0
 49
-0.0555555555555556
 74
               0
 49
0.0416666666666666
 74
               0
 49
-0.0555555555555556
 74
               0
  0
LTYPE
  5
34
100
AcDbSymbolTableRecord
100
AcDbLinetypeTableRecord
  2
STYLE_03
 70
               0
  3

 72
              65
 73
               4
 40
0.5277777777777778
 49
0.4027777777777778
 74
               0
 49
-0.0416666666666666
 74
               0
 49
0.0416666666666667
 74
               0
 49
-0.0416666666666667
 74
               0
  0
LTYPE
  5
35
100
AcDbSymbolTableRecord
100
AcDbLinetypeTableRecord
  2
STYLE_04
 70
               0
  3

 72
              65
 73
               2
 40
0.1388888888888889
 49
0.0694444444444444
 74
               0
 49
-0.0694444444444444
 74
               0
  0
LTYPE
  5
36
100
AcDbSymbolTableRecord
100
AcDbLinetypeTableRecord
  2
STYLE_05
 70
               0
  3

 72
              65
 73
               2
 40
0.047244094488189
 49
0.0236220472440945
 74
               0
 49
-0.0236220472440945
 74
               0
  0
LTYPE
  5
37
100
AcDbSymbolTableRecord
100
AcDbLinetypeTableRecord
  2
STYLE_06
 70
               0
  3

 72
              65
 73
               2
 40
0.047244094488189
 49
0.0236220472440945
 74
               0
 49
-0.0236220472440945
 74
               0
  0
LTYPE
  5
38
100
AcDbSymbolTableRecord
100
AcDbLinetypeTableRecord
  2
STYLE_07
 70
               0
  3

 72
              65
 73
               2
 40
0.047244094488189
 49
0.0236220472440945
 74
               0
 49
-0.0236220472440945
 74
               0
  0
LTYPE
  5
39
100
AcDbSymbolTableRecord
100
AcDbLinetypeTableRecord
  2
STYLE_08
 70
               0
  3

 72
              65
 73
               2
 40
0.047244094488189
 49
0.0236220472440945
 74
               0
 49
-0.0236220472440945
 74
               0
  0
LTYPE
  5
3A
100
AcDbSymbolTableRecord
100
AcDbLinetypeTableRecord
  2
STYLE_09
 70
               0
  3

 72
              65
 73
               6
 40
1.5157480314960627
 49
1.1811023622047243
 74
               0
 49
-0.0590551181102361
 74
               0
 49
0.078740157480315
 74
               0
 49
-0.0590551181102361
 74
               0
 49
0.078740157480315
 74
               0
 49
-0.0590551181102361
 74
               0
  0
LTYPE
  5
3B
100
AcDbSymbolTableRecord
100
AcDbLinetypeTableRecord
  2
STYLE_10
 70
               0
  3

 72
              65
 73
               6
 40
1.1875
 49
0.75
 74
               0
 49
-0.0555572509765625
 74
               0
 49
0.138885498046875
 74
               0
 49
-0.0555572509765625
 74
               0
 49
0.125
 74
               0
 49
-0.0625
 74
               0
  0
LTYPE
  5
3C
100
AcDbSymbolTableRecord
100
AcDbLinetypeTableRecord
  2
STYLE_11
 70
               0
  3

 72
              65
 73
               4
 40
1.5
 49
0.0833282470703125
 74
               0
 49
-0.0555572509765625
 74
               0
 49
1.3055572509765625
 74
               0
 49
-0.0555572509765625
 74
               0
  0
LTYPE
  5
3D
100
AcDbSymbolTableRecord
100
AcDbLinetypeTableRecord
  2
STYLE_12
 70
               0
  3

 72
              65
 73
               4
 40
1.111114501953125
 49
0.7916717529296875
 74
               0
 49
-0.0833282470703125
 74
               0
 49
0.125
 74
               0
 49
-0.111114501953125
 74
               0
  0
LTYPE
  5
3E
100
AcDbSymbolTableRecord
100
AcDbLinetypeTableRecord
  2
STYLE_13
 70
               0
  3

 72
              65
 73
               4
 40
2.1944427490234375
 49
1.875
 74
               0
 49
-0.0833282470703125
 74
               0
 49
0.125
 74
               0
 49
-0.111114501953125
 74
               0
  0
LTYPE
  5
3F
100
AcDbSymbolTableRecord
100
AcDbLinetypeTableRecord
  2
STYLE_14
 70
               0
  3

 72
              65
 73
               2
 40
0.138885498046875
 49
0.0972137451171875
 74
               0
 49
-0.0416717529296875
 74
               0
  0
LTYPE
  5
40
100
AcDbSymbolTableRecord
100
AcDbLinetypeTableRecord
  2
STYLE_15
 70
               0
  3

 72
              65
 73
               2
 40
0.25
 49
0.2083282470703125
 74
               0
 49
-0.0416717529296875
 74
               0
  0
LTYPE
  5
41
100
AcDbSymbolTableRecord
100
AcDbLinetypeTableRecord
  2
STYLE_16
 70
               0
  3

 72
              65
 73
               2
 40
0.078740157480315
 49
0.0393700787401575
 74
               0
 49
-0.0393700787401575
 74
               0
  0
LTYPE
  5
42
100
AcDbSymbolTableRecord
100
AcDbLinetypeTableRecord
  2
STYLE_17
 70
               0
  3

 72
              65
 73
               4
 40
0.5118110236220472
 49
0.3937007874015748
 74
               0
 49
-0.0393700787401575
 74
               0
 49
0.0393700787401575
 74
               0
 49
-0.0393700787401575
 74
               0
  0
LTYPE
  5
43
100
AcDbSymbolTableRecord
100
AcDbLinetypeTableRecord
  2
STYLE_18
 70
               0
  3

 72
              65
 73
               6
 40
0.5905511811023623
 49
0.3937007874015748
 74
               0
 49
-0.0393700787401575
 74
               0
 49
0.0393700787401575
 74
               0
 49
-0.0393700787401575
 74
               0
 49
0.0393700787401575
 74
               0
 49
-0.0393700787401575
 74
               0
  0
ENDTAB
  0
TABLE
  2
LAYER
  5
2
100
AcDbSymbolTable
 70
               9
  0
LAYER
  5
14
100
AcDbSymbolTableRecord
100
AcDbLayerTableRecord
  2
0
 70
               0
 62
               7
  6
CONTINUOUS
  0
LAYER
  5
4B
100
AcDbSymbolTableRecord
100
AcDbLayerTableRecord
  2
DEFPOINTS
 70
               0
 62
               7
  6
CONTINUOUS
  0
LAYER
  5
4C
100
AcDbSymbolTableRecord
100
AcDbLayerTableRecord
  2
OBJECT
 70
               0
 62
               7
  6
CONTINUOUS
  0
LAYER
  5
4D
100
AcDbSymbolTableRecord
100
AcDbLayerTableRecord
  2
DIMENTION
 70
               0
 62
               7
  6
CONTINUOUS
  0
LAYER
  5
4E
100
AcDbSymbolTableRecord
100
AcDbLayerTableRecord
  2
CENTER
 70
               0
 62
               7
  6
STYLE_17
  0
LAYER
  5
4F
100
AcDbSymbolTableRecord
100
AcDbLayerTableRecord
  2
HIDDEN
 70
               0
 62
               7
  6
STYLE_16
  0
LAYER
  5
50
100
AcDbSymbolTableRecord
100
AcDbLayerTableRecord
  2
FRAME
 70
               0
 62
               7
  6
CONTINUOUS
  0
LAYER
  5
51
100
AcDbSymbolTableRecord
100
AcDbLayerTableRecord
  2
OUTLINE
 70
               0
 62
               7
  6
STYLE_18
  0
LAYER
  5
52
100
AcDbSymbolTableRecord
100
AcDbLayerTableRecord
  2
TEXT
 70
               0
 62
               7
  6
CONTINUOUS
  0
ENDTAB
  0
TABLE
  2
STYLE
  5
3
100
AcDbSymbolTable
 70
               3
  0
STYLE
  5
17
100
AcDbSymbolTableRecord
100
AcDbTextStyleTableRecord
  2
STANDARD
 70
               0
 40
0.0
 41
1.0
 50
0.0
 71
               0
 42
0.0
  3
txt
  4
BIGFONT.SHX
  0
STYLE
  5
30
100
AcDbSymbolTableRecord
100
AcDbTextStyleTableRecord
  2
ARIAL
 70
               0
 40
0.0
 41
1.0
 50
0.0
 71
               0
 42
0.0
  3
Arial
  4

1001
ACAD
1000
Arial
1071
        0
  0
STYLE
  5
31
100
AcDbSymbolTableRecord
100
AcDbTextStyleTableRecord
  2
________
 70
               0
 40
0.0
 41
1.0
 50
0.0
 71
               0
 42
0.0
  3
ＭＳ Ｐゴシック
  4

1001
ACAD
1000
ＭＳ Ｐゴシック
1071
        0
  0
ENDTAB
  0
TABLE
  2
VIEW
  5
5
100
AcDbSymbolTable
 70
               0
  0
ENDTAB
  0
TABLE
  2
UCS
  5
6
100
AcDbSymbolTable
 70
               0
  0
ENDTAB
  0
TABLE
  2
APPID
  5
8
100
AcDbSymbolTable
 70
               1
  0
APPID
  5
16
100
AcDbSymbolTableRecord
100
AcDbRegAppTableRecord
  2
ACAD
 70
               0
  0
ENDTAB
  0
TABLE
  2
DIMSTYLE
  5
9
100
AcDbSymbolTable
 70
               2
  0
DIMSTYLE
105
18
100
AcDbSymbolTableRecord
100
AcDbDimStyleTableRecord
  2
STANDARD
 70
               0
  3

  4

  5

  6

  7

 40
1.0
 41
0.18
 42
0.0625
 43
0.38
 44
0.18
 45
0.0
 46
0.0
 47
0.0
 48
0.0
 71
               0
 72
               0
 73
               1
 74
               1
 75
               0
 76
               0
 77
               0
 78
               0
140
0.18
141
0.09
142
0.0
143
25.399999999999999
144
1.0
145
0.0
146
1.0
147
0.09
170
               0
171
               2
172
               0
173
               0
174
               0
175
               0
176
               0
177
               0
178
               0
270
               2
271
               4
272
               4
273
               2
274
               2
275
               0
280
               0
281
               0
282
               0
283
               1
284
               0
285
               0
286
               0
287
               0
288
               0
340
17
  0
DIMSTYLE
105
4A
100
AcDbSymbolTableRecord
100
AcDbDimStyleTableRecord
  2
CAD
 70
               0
  3
<>
  4
[]
  5
VW_OPENARROW
  6

  7

 40
1.0
 41
31.75
 42
9.9999999999999982
 43
7.9999999999999991
 44
19.999999999999996
 45
0.0
 46
0.0
 47
0.0
 48
0.0
 71
               0
 72
               0
 73
               0
 74
               0
 75
               0
 76
               0
 77
               1
 78
              11
140
33.866666666666667
141
0.0
142
0.0
143
1.0
144
1.0
145
0.0
146
0.7
147
0.099999999627471
170
               0
171
               1
172
               1
173
               0
174
               1
175
               0
176
               0
177
               0
178
               0
270
               2
271
               4
272
               4
273
               2
274
               2
275
               0
280
               0
281
               0
282
               0
283
               1
284
              11
285
              11
286
              11
287
               0
288
               0
340
31
  0
ENDTAB
  0
TABLE
  2
BLOCK_RECORD
  5
1
100
AcDbSymbolTable
 70
              20
  0
BLOCK_RECORD
  5
A
100
AcDbSymbolTableRecord
100
AcDbBlockTableRecord
  2
*MODEL_SPACE
  0
BLOCK_RECORD
  5
B
100
AcDbSymbolTableRecord
100
AcDbBlockTableRecord
  2
*PAPER_SPACE
  0
BLOCK_RECORD
  5
44
100
AcDbSymbolTableRecord
100
AcDbBlockTableRecord
  2
VW_OPENARROW
  0
BLOCK_RECORD
  5
1D
100
AcDbSymbolTableRecord
100
AcDbBlockTableRecord
  2
*U1
  0
BLOCK_RECORD
  5
1E
100
AcDbSymbolTableRecord
100
AcDbBlockTableRecord
  2
*U2
  0
BLOCK_RECORD
  5
1F
100
AcDbSymbolTableRecord
100
AcDbBlockTableRecord
  2
*U3
  0
BLOCK_RECORD
  5
20
100
AcDbSymbolTableRecord
100
AcDbBlockTableRecord
  2
*U4
  0
BLOCK_RECORD
  5
21
100
AcDbSymbolTableRecord
100
AcDbBlockTableRecord
  2
*U5
  0
BLOCK_RECORD
  5
22
100
AcDbSymbolTableRecord
100
AcDbBlockTableRecord
  2
*U6
  0
BLOCK_RECORD
  5
23
100
AcDbSymbolTableRecord
100
AcDbBlockTableRecord
  2
*D7
  0
BLOCK_RECORD
  5
24
100
AcDbSymbolTableRecord
100
AcDbBlockTableRecord
  2
*D8
  0
BLOCK_RECORD
  5
25
100
AcDbSymbolTableRecord
100
AcDbBlockTableRecord
  2
*D9
  0
BLOCK_RECORD
  5
26
100
AcDbSymbolTableRecord
100
AcDbBlockTableRecord
  2
*D10
  0
BLOCK_RECORD
  5
27
100
AcDbSymbolTableRecord
100
AcDbBlockTableRecord
  2
*D11
  0
BLOCK_RECORD
  5
28
100
AcDbSymbolTableRecord
100
AcDbBlockTableRecord
  2
*D12
  0
BLOCK_RECORD
  5
29
100
AcDbSymbolTableRecord
100
AcDbBlockTableRecord
  2
*D13
  0
BLOCK_RECORD
  5
2A
100
AcDbSymbolTableRecord
100
AcDbBlockTableRecord
  2
*U14
  0
BLOCK_RECORD
  5
2B
100
AcDbSymbolTableRecord
100
AcDbBlockTableRecord
  2
*D15
  0
BLOCK_RECORD
  5
2C
100
AcDbSymbolTableRecord
100
AcDbBlockTableRecord
  2
*D16
  0
BLOCK_RECORD
  5
2D
100
AcDbSymbolTableRecord
100
AcDbBlockTableRecord
  2
*D17
  0
BLOCK_RECORD
  5
2E
100
AcDbSymbolTableRecord
100
AcDbBlockTableRecord
  2
*U18
  0
BLOCK_RECORD
  5
2F
100
AcDbSymbolTableRecord
100
AcDbBlockTableRecord
  2
*U19
  0
ENDTAB
  0
ENDSEC
  0
SECTION
  2
BLOCKS
  0
BLOCK
  5
D
100
AcDbEntity
  8
0
100
AcDbBlockBegin
  2
*MODEL_SPACE
 70
               0
 10
0.0
 20
0.0
 30
0.0
  3
*MODEL_SPACE
  1

  0
ENDBLK
  5
E
100
AcDbEntity
  8
0
100
AcDbBlockEnd
  0
BLOCK
  5
F
100
AcDbEntity
 67
               1
  8
0
100
AcDbBlockBegin
  2
*PAPER_SPACE
 70
               0
 10
0.0
 20
0.0
 30
0.0
  3
*PAPER_SPACE
  1

  0
ENDBLK
  5
10
100
AcDbEntity
 67
               1
  8
0
100
AcDbBlockEnd
  0
BLOCK
  5
45
100
AcDbEntity
  8
0
  6
BYBLOCK
 62
               0
100
AcDbBlockBegin
  2
VW_OPENARROW
 70
               0
 10
0.0
 20
0.0
 30
0.0
  3
VW_OPENARROW
  1

  0
LINE
  5
46
100
AcDbEntity
  8
0
  6
BYBLOCK
 62
               0
100
AcDbLine
 10
0.0
 20
0.0
 30
0.0
 11
-1.0
 21
0.0
 31
0.0
  0
LINE
  5
47
100
AcDbEntity
  8
0
  6
BYBLOCK
 62
               0
100
AcDbLine
 10
0.0
 20
0.0
 30
0.0
 11
-0.9921874999999999
 21
-0.2658558393652545
 31
0.0
  0
LINE
  5
48
100
AcDbEntity
  8
0
  6
BYBLOCK
 62
               0
100
AcDbLine
 10
0.0
 20
0.0
 30
0.0
 11
-0.9921874999999999
 21
0.2658558393652548
 31
0.0
  0
ENDBLK
  5
49
100
AcDbEntity
  8
0
100
AcDbBlockEnd
  0
BLOCK
  5
53
100
AcDbEntity
  8
FRAME
100
AcDbBlockBegin
  2
*U1
 70
               1
 10
0.0
 20
0.0
 30
0.0
  3
*U1
  1

  0
ENDBLK
  5
54
100
AcDbEntity
  8
FRAME
100
AcDbBlockEnd
  0
BLOCK
  5
55
100
AcDbEntity
  8
FRAME
100
AcDbBlockBegin
  2
*U2
 70
               1
 10
0.0
 20
0.0
 30
0.0
  3
*U2
  1

  0
ENDBLK
  5
56
100
AcDbEntity
  8
FRAME
100
AcDbBlockEnd
  0
BLOCK
  5
57
100
AcDbEntity
  8
FRAME
100
AcDbBlockBegin
  2
*U3
 70
               1
 10
0.0
 20
0.0
 30
0.0
  3
*U3
  1

  0
ENDBLK
  5
58
100
AcDbEntity
  8
FRAME
100
AcDbBlockEnd
  0
BLOCK
  5
59
100
AcDbEntity
  8
FRAME
100
AcDbBlockBegin
  2
*U4
 70
               1
 10
0.0
 20
0.0
 30
0.0
  3
*U4
  1

  0
ENDBLK
  5
5A
100
AcDbEntity
  8
FRAME
100
AcDbBlockEnd
  0
BLOCK
  5
5B
100
AcDbEntity
  8
FRAME
100
AcDbBlockBegin
  2
*U5
 70
               1
 10
0.0
 20
0.0
 30
0.0
  3
*U5
  1

  0
ENDBLK
  5
5C
100
AcDbEntity
  8
FRAME
100
AcDbBlockEnd
  0
BLOCK
  5
5D
100
AcDbEntity
  8
FRAME
100
AcDbBlockBegin
  2
*U6
 70
               1
 10
0.0
 20
0.0
 30
0.0
  3
*U6
  1

  0
INSERT
  5
5E
100
AcDbEntity
  8
FRAME
 62
               0
100
AcDbBlockReference
  2
*U1
 10
0.0
 20
0.0
 30
0.0
  0
INSERT
  5
5F
100
AcDbEntity
  8
FRAME
 62
               0
100
AcDbBlockReference
  2
*U2
 10
0.0
 20
0.0
 30
0.0
  0
INSERT
  5
60
100
AcDbEntity
  8
FRAME
 62
               0
100
AcDbBlockReference
  2
*U3
 10
0.0
 20
0.0
 30
0.0
  0
INSERT
  5
61
100
AcDbEntity
  8
FRAME
 62
               0
100
AcDbBlockReference
  2
*U4
 10
0.0
 20
0.0
 30
0.0
  0
INSERT
  5
62
100
AcDbEntity
  8
FRAME
 62
               0
100
AcDbBlockReference
  2
*U5
 10
0.0
 20
0.0
 30
0.0
  0
ENDBLK
  5
63
100
AcDbEntity
  8
FRAME
100
AcDbBlockEnd
  0
BLOCK
  5
64
100
AcDbEntity
  8
DIMENTION
100
AcDbBlockBegin
  2
*D7
 70
               1
 10
0.0
 20
0.0
 30
0.0
  3
*D7
  1

  0
LINE
  5
65
100
AcDbEntity
  8
DIMENTION
  6
CONTINUOUS
 62
               0
100
AcDbLine
 10
826.0
 20
-89.5
 30
0.0
 11
480.0
 21
-89.5
 31
0.0
  0
LINE
  5
66
100
AcDbEntity
  8
DIMENTION
  6
CONTINUOUS
 62
               0
100
AcDbLine
 10
593.0
 20
-69.5
 30
0.0
 11
480.0
 21
-69.5
 31
0.0
  0
LINE
  5
67
100
AcDbEntity
  8
DIMENTION
  6
CONTINUOUS
 62
               0
100
AcDbLine
 10
500.0
 20
-69.5
 30
0.0
 11
500.0
 21
-89.5
 31
0.0
  0
LINE
  5
68
100
AcDbEntity
  8
DIMENTION
  6
CONTINUOUS
 62
               0
100
AcDbLine
 10
500.0
 20
-89.5
 30
0.0
 11
500.0
 21
-149.5
 31
0.0
  0
LINE
  5
69
100
AcDbEntity
  8
DIMENTION
  6
CONTINUOUS
 62
               0
100
AcDbLine
 10
500.0
 20
-89.5
 30
0.0
 11
508.50738685968815
 21
-121.25
 31
0.0
  0
LINE
  5
6A
100
AcDbEntity
  8
DIMENTION
  6
CONTINUOUS
 62
               0
100
AcDbLine
 10
500.0
 20
-89.5
 30
0.0
 11
491.49261314031185
 21
-121.25
 31
0.0
  0
LINE
  5
6B
100
AcDbEntity
  8
DIMENTION
  6
CONTINUOUS
 62
               0
100
AcDbLine
 10
500.0
 20
-69.5
 30
0.0
 11
500.0
 21
12.333333333333325
 31
0.0
  0
LINE
  5
6C
100
AcDbEntity
  8
DIMENTION
  6
CONTINUOUS
 62
               0
100
AcDbLine
 10
500.0
 20
-69.5
 30
0.0
 11
491.49261314031185
 21
-37.75
 31
0.0
  0
LINE
  5
6D
100
AcDbEntity
  8
DIMENTION
  6
CONTINUOUS
 62
               0
100
AcDbLine
 10
500.0
 20
-69.5
 30
0.0
 11
508.50738685968815
 21
-37.75
 31
0.0
  0
MTEXT
  5
6E
100
AcDbEntity
  8
DIMENTION
 62
               0
100
AcDbMText
 10
456.66666666666663
 20
-30.000000000000004
 30
0.0
 40
33.866666666666667
 41
0.0
 71
               1
 72
               1
  1
20
  7
________
 11
0.0
 21
1.0
 31
0.0
  0
POINT
  5
6F
100
AcDbEntity
  8
DEFPOINTS
 62
               0
100
AcDbPoint
 10
603.0
 20
-69.5
 30
0.0
  0
POINT
  5
70
100
AcDbEntity
  8
DEFPOINTS
 62
               0
100
AcDbPoint
 10
836.0
 20
-89.5
 30
0.0
  0
POINT
  5
71
100
AcDbEntity
  8
DEFPOINTS
 62
               0
100
AcDbPoint
 10
500.0
 20
-89.5
 30
0.0
  0
ENDBLK
  5
72
100
AcDbEntity
  8
DIMENTION
100
AcDbBlockEnd
  0
BLOCK
  5
73
100
AcDbEntity
  8
DIMENTION
100
AcDbBlockBegin
  2
*D8
 70
               1
 10
0.0
 20
0.0
 30
0.0
  3
*D8
  1

  0
LINE
  5
74
100
AcDbEntity
  8
DIMENTION
  6
CONTINUOUS
 62
               0
100
AcDbLine
 10
826.0
 20
-89.5
 30
0.0
 11
480.0
 21
-89.5
 31
0.0
  0
LINE
  5
75
100
AcDbEntity
  8
DIMENTION
  6
CONTINUOUS
 62
               0
100
AcDbLine
 10
604.0
 20
-599.5
 30
0.0
 11
480.0
 21
-599.5
 31
0.0
  0
LINE
  5
76
100
AcDbEntity
  8
DIMENTION
  6
CONTINUOUS
 62
               0
100
AcDbLine
 10
500.0
 20
-89.5
 30
0.0
 11
500.0
 21
-599.5
 31
0.0
  0
LINE
  5
77
100
AcDbEntity
  8
DIMENTION
  6
CONTINUOUS
 62
               0
100
AcDbLine
 10
500.0
 20
-89.5
 30
0.0
 11
508.50738685968815
 21
-121.25
 31
0.0
  0
LINE
  5
78
100
AcDbEntity
  8
DIMENTION
  6
CONTINUOUS
 62
               0
100
AcDbLine
 10
500.0
 20
-89.5
 30
0.0
 11
491.49261314031185
 21
-121.25
 31
0.0
  0
LINE
  5
79
100
AcDbEntity
  8
DIMENTION
  6
CONTINUOUS
 62
               0
100
AcDbLine
 10
500.0
 20
-599.5
 30
0.0
 11
491.49261314031185
 21
-567.75
 31
0.0
  0
LINE
  5
7A
100
AcDbEntity
  8
DIMENTION
  6
CONTINUOUS
 62
               0
100
AcDbLine
 10
500.0
 20
-599.5
 30
0.0
 11
508.50738685968815
 21
-567.75
 31
0.0
  0
MTEXT
  5
7B
100
AcDbEntity
  8
DIMENTION
 62
               0
100
AcDbMText
 10
456.66666666666663
 20
-482.08333333333331
 30
0.0
 40
33.866666666666667
 41
0.0
 71
               1
 72
               1
  1
510（可動範囲）
  7
________
 11
0.0
 21
1.0
 31
0.0
  0
POINT
  5
7C
100
AcDbEntity
  8
DEFPOINTS
 62
               0
100
AcDbPoint
 10
614.0
 20
-599.5
 30
0.0
  0
POINT
  5
7D
100
AcDbEntity
  8
DEFPOINTS
 62
               0
100
AcDbPoint
 10
836.0
 20
-89.5
 30
0.0
  0
POINT
  5
7E
100
AcDbEntity
  8
DEFPOINTS
 62
               0
100
AcDbPoint
 10
500.0
 20
-89.5
 30
0.0
  0
ENDBLK
  5
7F
100
AcDbEntity
  8
DIMENTION
100
AcDbBlockEnd
  0
BLOCK
  5
80
100
AcDbEntity
  8
DIMENTION
100
AcDbBlockBegin
  2
*D9
 70
               1
 10
0.0
 20
0.0
 30
0.0
  3
*D9
  1

  0
LINE
  5
81
100
AcDbEntity
  8
DIMENTION
  6
CONTINUOUS
 62
               0
100
AcDbLine
 10
-1055.0
 20
-69.5
 30
0.0
 11
-1220.0
 21
-69.5
 31
0.0
  0
LINE
  5
82
100
AcDbEntity
  8
DIMENTION
  6
CONTINUOUS
 62
               0
100
AcDbLine
 10
-1110.0
 20
-900.0
 30
0.0
 11
-1220.0
 21
-900.0
 31
0.0
  0
LINE
  5
83
100
AcDbEntity
  8
DIMENTION
  6
CONTINUOUS
 62
               0
100
AcDbLine
 10
-1200.0
 20
-69.5
 30
0.0
 11
-1200.0
 21
-900.0
 31
0.0
  0
LINE
  5
84
100
AcDbEntity
  8
DIMENTION
  6
CONTINUOUS
 62
               0
100
AcDbLine
 10
-1200.0
 20
-69.5
 30
0.0
 11
-1191.492613140312
 21
-101.25
 31
0.0
  0
LINE
  5
85
100
AcDbEntity
  8
DIMENTION
  6
CONTINUOUS
 62
               0
100
AcDbLine
 10
-1200.0
 20
-69.5
 30
0.0
 11
-1208.507386859688
 21
-101.25
 31
0.0
  0
LINE
  5
86
100
AcDbEntity
  8
DIMENTION
  6
CONTINUOUS
 62
               0
100
AcDbLine
 10
-1200.0
 20
-900.0
 30
0.0
 11
-1208.507386859688
 21
-868.25
 31
0.0
  0
LINE
  5
87
100
AcDbEntity
  8
DIMENTION
  6
CONTINUOUS
 62
               0
100
AcDbLine
 10
-1200.0
 20
-900.0
 30
0.0
 11
-1191.492613140312
 21
-868.25
 31
0.0
  0
MTEXT
  5
88
100
AcDbEntity
  8
DIMENTION
 62
               0
100
AcDbMText
 10
-1243.3333333333335
 20
-516.5
 30
0.0
 40
33.866666666666667
 41
0.0
 71
               1
 72
               1
  1
830
  7
________
 11
0.0
 21
1.0
 31
0.0
  0
POINT
  5
89
100
AcDbEntity
  8
DEFPOINTS
 62
               0
100
AcDbPoint
 10
-1100.0
 20
-900.0
 30
0.0
  0
POINT
  5
8A
100
AcDbEntity
  8
DEFPOINTS
 62
               0
100
AcDbPoint
 10
-1045.0
 20
-69.5
 30
0.0
  0
POINT
  5
8B
100
AcDbEntity
  8
DEFPOINTS
 62
               0
100
AcDbPoint
 10
-1200.0
 20
-69.5
 30
0.0
  0
ENDBLK
  5
8C
100
AcDbEntity
  8
DIMENTION
100
AcDbBlockEnd
  0
BLOCK
  5
8D
100
AcDbEntity
  8
DIMENTION
100
AcDbBlockBegin
  2
*D10
 70
               1
 10
0.0
 20
0.0
 30
0.0
  3
*D10
  1

  0
LINE
  5
8E
100
AcDbEntity
  8
DIMENTION
 62
               0
100
AcDbLine
 10
-1043.0
 20
807.0
 30
0.0
 11
-1043.0
 21
920.00000000000011
 31
0.0
  0
LINE
  5
8F
100
AcDbEntity
  8
DIMENTION
 62
               0
100
AcDbLine
 10
-557.0
 20
807.0
 30
0.0
 11
-557.0
 21
920.00000000000011
 31
0.0
  0
LINE
  5
90
100
AcDbEntity
  8
DIMENTION
 62
               0
100
AcDbLine
 10
-1043.0
 20
900.00000000000011
 30
0.0
 11
-557.0
 21
900.00000000000011
 31
0.0
  0
LINE
  5
91
100
AcDbEntity
  8
DIMENTION
 62
               0
100
AcDbLine
 10
-1043.0
 20
900.00000000000011
 30
0.0
 11
-1011.25
 21
908.50738685968827
 31
0.0
  0
LINE
  5
92
100
AcDbEntity
  8
DIMENTION
 62
               0
100
AcDbLine
 10
-1043.0
 20
900.00000000000011
 30
0.0
 11
-1011.25
 21
891.49261314031196
 31
0.0
  0
LINE
  5
93
100
AcDbEntity
  8
DIMENTION
 62
               0
100
AcDbLine
 10
-557.0
 20
900.00000000000011
 30
0.0
 11
-588.75
 21
891.49261314031196
 31
0.0
  0
LINE
  5
94
100
AcDbEntity
  8
DIMENTION
 62
               0
100
AcDbLine
 10
-557.0
 20
900.00000000000011
 30
0.0
 11
-588.75
 21
908.50738685968827
 31
0.0
  0
MTEXT
  5
95
100
AcDbEntity
  8
DIMENTION
 62
               0
100
AcDbMText
 10
-831.75
 20
943.33333333333348
 30
0.0
 40
33.866666666666667
 41
0.0
 71
               1
 72
               1
  1
486
  7
________
  0
POINT
  5
96
100
AcDbEntity
  8
DEFPOINTS
 62
               0
100
AcDbPoint
 10
-557.0
 20
797.0
 30
0.0
  0
POINT
  5
97
100
AcDbEntity
  8
DEFPOINTS
 62
               0
100
AcDbPoint
 10
-1043.0
 20
797.0
 30
0.0
  0
POINT
  5
98
100
AcDbEntity
  8
DEFPOINTS
 62
               0
100
AcDbPoint
 10
-1043.0
 20
900.00000000000011
 30
0.0
  0
ENDBLK
  5
99
100
AcDbEntity
  8
DIMENTION
100
AcDbBlockEnd
  0
BLOCK
  5
9A
100
AcDbEntity
  8
DIMENTION
100
AcDbBlockBegin
  2
*D11
 70
               1
 10
0.0
 20
0.0
 30
0.0
  3
*D11
  1

  0
LINE
  5
9B
100
AcDbEntity
  8
DIMENTION
 62
               0
100
AcDbLine
 10
-547.0
 20
797.0
 30
0.0
 11
-380.0
 21
797.0
 31
0.0
  0
LINE
  5
9C
100
AcDbEntity
  8
DIMENTION
 62
               0
100
AcDbLine
 10
-548.0
 20
403.0
 30
0.0
 11
-380.0
 21
403.0
 31
0.0
  0
LINE
  5
9D
100
AcDbEntity
  8
DIMENTION
 62
               0
100
AcDbLine
 10
-400.0
 20
797.0
 30
0.0
 11
-400.0
 21
403.0
 31
0.0
  0
LINE
  5
9E
100
AcDbEntity
  8
DIMENTION
 62
               0
100
AcDbLine
 10
-400.0
 20
797.0
 30
0.0
 11
-391.49261314031185
 21
765.25
 31
0.0
  0
LINE
  5
9F
100
AcDbEntity
  8
DIMENTION
 62
               0
100
AcDbLine
 10
-400.0
 20
797.0
 30
0.0
 11
-408.50738685968815
 21
765.25
 31
0.0
  0
LINE
  5
A0
100
AcDbEntity
  8
DIMENTION
 62
               0
100
AcDbLine
 10
-400.0
 20
403.0
 30
0.0
 11
-408.50738685968815
 21
434.75
 31
0.0
  0
LINE
  5
A1
100
AcDbEntity
  8
DIMENTION
 62
               0
100
AcDbLine
 10
-400.0
 20
403.0
 30
0.0
 11
-391.49261314031185
 21
434.75
 31
0.0
  0
MTEXT
  5
A2
100
AcDbEntity
  8
DIMENTION
 62
               0
100
AcDbMText
 10
-443.33333333333337
 20
568.25
 30
0.0
 40
33.866666666666667
 41
0.0
 71
               1
 72
               1
  1
400
  7
________
 11
0.0
 21
1.0
 31
0.0
  0
POINT
  5
A3
100
AcDbEntity
  8
DEFPOINTS
 62
               0
100
AcDbPoint
 10
-558.0
 20
403.0
 30
0.0
  0
POINT
  5
A4
100
AcDbEntity
  8
DEFPOINTS
 62
               0
100
AcDbPoint
 10
-557.0
 20
797.0
 30
0.0
  0
POINT
  5
A5
100
AcDbEntity
  8
DEFPOINTS
 62
               0
100
AcDbPoint
 10
-400.0
 20
797.0
 30
0.0
  0
ENDBLK
  5
A6
100
AcDbEntity
  8
DIMENTION
100
AcDbBlockEnd
  0
BLOCK
  5
A7
100
AcDbEntity
  8
DIMENTION
100
AcDbBlockBegin
  2
*D12
 70
               1
 10
0.0
 20
0.0
 30
0.0
  3
*D12
  1

  0
LINE
  5
A8
100
AcDbEntity
  8
DIMENTION
 62
               0
100
AcDbLine
 10
-1041.0
 20
439.0
 30
0.0
 11
-1041.0
 21
280.0
 31
0.0
  0
LINE
  5
A9
100
AcDbEntity
  8
DIMENTION
 62
               0
100
AcDbLine
 10
-883.5
 20
429.0
 30
0.0
 11
-883.5
 21
280.0
 31
0.0
  0
LINE
  5
AA
100
AcDbEntity
  8
DIMENTION
 62
               0
100
AcDbLine
 10
-1041.0
 20
300.0
 30
0.0
 11
-883.5
 21
300.0
 31
0.0
  0
LINE
  5
AB
100
AcDbEntity
  8
DIMENTION
 62
               0
100
AcDbLine
 10
-1041.0
 20
300.0
 30
0.0
 11
-1009.25
 21
308.50738685968815
 31
0.0
  0
LINE
  5
AC
100
AcDbEntity
  8
DIMENTION
 62
               0
100
AcDbLine
 10
-1041.0
 20
300.0
 30
0.0
 11
-1009.25
 21
291.49261314031185
 31
0.0
  0
LINE
  5
AD
100
AcDbEntity
  8
DIMENTION
 62
               0
100
AcDbLine
 10
-883.5
 20
300.0
 30
0.0
 11
-915.25
 21
291.49261314031185
 31
0.0
  0
LINE
  5
AE
100
AcDbEntity
  8
DIMENTION
 62
               0
100
AcDbLine
 10
-883.5
 20
300.0
 30
0.0
 11
-915.25
 21
308.50738685968815
 31
0.0
  0
MTEXT
  5
AF
100
AcDbEntity
  8
DIMENTION
 62
               0
100
AcDbMText
 10
-994.0
 20
343.33333333333331
 30
0.0
 40
33.866666666666667
 41
0.0
 71
               1
 72
               1
  1
157
  7
________
  0
POINT
  5
B0
100
AcDbEntity
  8
DEFPOINTS
 62
               0
100
AcDbPoint
 10
-883.5
 20
439.0
 30
0.0
  0
POINT
  5
B1
100
AcDbEntity
  8
DEFPOINTS
 62
               0
100
AcDbPoint
 10
-1041.0
 20
449.0
 30
0.0
  0
POINT
  5
B2
100
AcDbEntity
  8
DEFPOINTS
 62
               0
100
AcDbPoint
 10
-1041.0
 20
300.0
 30
0.0
  0
ENDBLK
  5
B3
100
AcDbEntity
  8
DIMENTION
100
AcDbBlockEnd
  0
BLOCK
  5
B4
100
AcDbEntity
  8
DIMENTION
100
AcDbBlockBegin
  2
*D13
 70
               1
 10
0.0
 20
0.0
 30
0.0
  3
*D13
  1

  0
LINE
  5
B5
100
AcDbEntity
  8
DIMENTION
 62
               0
100
AcDbLine
 10
-1051.0
 20
597.5
 30
0.0
 11
-1220.0
 21
597.5
 31
0.0
  0
LINE
  5
B6
100
AcDbEntity
  8
DIMENTION
 62
               0
100
AcDbLine
 10
-1041.0
 20
439.0
 30
0.0
 11
-1220.0
 21
439.0
 31
0.0
  0
LINE
  5
B7
100
AcDbEntity
  8
DIMENTION
 62
               0
100
AcDbLine
 10
-1200.0
 20
597.5
 30
0.0
 11
-1200.0
 21
439.0
 31
0.0
  0
LINE
  5
B8
100
AcDbEntity
  8
DIMENTION
 62
               0
100
AcDbLine
 10
-1200.0
 20
597.5
 30
0.0
 11
-1191.492613140312
 21
565.75
 31
0.0
  0
LINE
  5
B9
100
AcDbEntity
  8
DIMENTION
 62
               0
100
AcDbLine
 10
-1200.0
 20
597.5
 30
0.0
 11
-1208.507386859688
 21
565.75
 31
0.0
  0
LINE
  5
BA
100
AcDbEntity
  8
DIMENTION
 62
               0
100
AcDbLine
 10
-1200.0
 20
439.0
 30
0.0
 11
-1208.507386859688
 21
470.75
 31
0.0
  0
LINE
  5
BB
100
AcDbEntity
  8
DIMENTION
 62
               0
100
AcDbLine
 10
-1200.0
 20
439.0
 30
0.0
 11
-1191.492613140312
 21
470.75
 31
0.0
  0
MTEXT
  5
BC
100
AcDbEntity
  8
DIMENTION
 62
               0
100
AcDbMText
 10
-1243.3333333333335
 20
486.5
 30
0.0
 40
33.866666666666667
 41
0.0
 71
               1
 72
               1
  1
158
  7
________
 11
0.0
 21
1.0
 31
0.0
  0
POINT
  5
BD
100
AcDbEntity
  8
DEFPOINTS
 62
               0
100
AcDbPoint
 10
-1031.0
 20
439.0
 30
0.0
  0
POINT
  5
BE
100
AcDbEntity
  8
DEFPOINTS
 62
               0
100
AcDbPoint
 10
-1041.0
 20
597.5
 30
0.0
  0
POINT
  5
BF
100
AcDbEntity
  8
DEFPOINTS
 62
               0
100
AcDbPoint
 10
-1200.0
 20
597.5
 30
0.0
  0
ENDBLK
  5
C0
100
AcDbEntity
  8
DIMENTION
100
AcDbBlockEnd
  0
BLOCK
  5
C1
100
AcDbEntity
  8
OBJECT
100
AcDbBlockBegin
  2
*U14
 70
               1
 10
0.0
 20
0.0
 30
0.0
  3
*U14
  1

  0
LINE
  5
C2
100
AcDbEntity
  8
OBJECT
 62
               0
100
AcDbLine
 10
-556.5
 20
-89.500100000000202
 30
0.0
 11
-611.57150000000001
 21
-89.500100000000202
 31
0.0
  0
LINE
  5
C3
100
AcDbEntity
  8
OBJECT
 62
               0
100
AcDbLine
 10
-664.42860000000019
 20
-89.500100000000202
 30
0.0
 11
-773.57150000000001
 21
-89.500100000000202
 31
0.0
  0
LINE
  5
C4
100
AcDbEntity
  8
OBJECT
 62
               0
100
AcDbLine
 10
-826.42860000000019
 20
-89.500100000000202
 30
0.0
 11
-935.57150000000001
 21
-89.500100000000202
 31
0.0
  0
LINE
  5
C5
100
AcDbEntity
  8
OBJECT
 62
               0
100
AcDbLine
 10
-988.42860000000019
 20
-89.500100000000202
 30
0.0
 11
-1043.5
 21
-89.500100000000202
 31
0.0
  0
LINE
  5
C6
100
AcDbEntity
  8
OBJECT
 62
               0
100
AcDbLine
 10
-1043.5
 20
-84.500100000000202
 30
0.0
 11
-988.42860000000019
 21
-84.500100000000202
 31
0.0
  0
LINE
  5
C7
100
AcDbEntity
  8
OBJECT
 62
               0
100
AcDbLine
 10
-935.57150000000001
 20
-84.500100000000202
 30
0.0
 11
-826.42860000000019
 21
-84.500100000000202
 31
0.0
  0
LINE
  5
C8
100
AcDbEntity
  8
OBJECT
 62
               0
100
AcDbLine
 10
-773.57150000000001
 20
-84.500100000000202
 30
0.0
 11
-664.42860000000019
 21
-84.500100000000202
 31
0.0
  0
LINE
  5
C9
100
AcDbEntity
  8
OBJECT
 62
               0
100
AcDbLine
 10
-611.57139999999981
 20
-84.500100000000202
 30
0.0
 11
-556.5
 21
-84.500100000000202
 31
0.0
  0
ARC
  5
CA
100
AcDbEntity
  8
OBJECT
 62
               0
100
AcDbCircle
 10
-1043.5
 20
-87.000100000000202
 30
0.0
 40
2.5
100
AcDbArc
 50
90.0
 51
180.0
  0
ARC
  5
CB
100
AcDbEntity
  8
OBJECT
 62
               0
100
AcDbCircle
 10
-1043.5
 20
-87.000100000000202
 30
0.0
 40
2.5
100
AcDbArc
 50
180.0
 51
270.0
  0
ARC
  5
CC
100
AcDbEntity
  8
OBJECT
 62
               0
100
AcDbCircle
 10
-556.5
 20
-87.000100000000202
 30
0.0
 40
2.5
100
AcDbArc
 50
0.0
 51
90.0
  0
ARC
  5
CD
100
AcDbEntity
  8
OBJECT
 62
               0
100
AcDbCircle
 10
-556.5
 20
-87.000100000000202
 30
0.0
 40
2.5
100
AcDbArc
 50
270.0
 51
0.0
  0
LINE
  5
CE
100
AcDbEntity
  8
OBJECT
 62
               0
100
AcDbLine
 10
-809.8773000000001
 20
-37.938200000000052
 30
0.0
 11
-816.54619999999977
 21
-81.029599999999846
 31
0.0
  0
LINE
  5
CF
100
AcDbEntity
  8
OBJECT
 62
               0
100
AcDbLine
 10
-814.8184999999994
 20
-37.173499999999876
 30
0.0
 11
-821.48739999999998
 21
-80.264799999999923
 31
0.0
  0
LINE
  5
D0
100
AcDbEntity
  8
OBJECT
 62
               0
100
AcDbLine
 10
-785.17870000000039
 20
-37.192000000000007
 30
0.0
 11
-778.51260000000002
 21
-80.264799999999923
 31
0.0
  0
LINE
  5
D1
100
AcDbEntity
  8
OBJECT
 62
               0
100
AcDbLine
 10
-790.1198000000004
 20
-37.956699999999728
 30
0.0
 11
-783.45380000000023
 21
-81.029499999999643
 31
0.0
  0
ARC
  5
D2
100
AcDbEntity
  8
OBJECT
 62
               0
100
AcDbCircle
 10
-800.0
 20
-39.500100000000202
 30
0.0
 40
10.000021779975963
100
AcDbArc
 50
8.8785009401619934
 51
171.01420772104564
  0
ARC
  5
D3
100
AcDbEntity
  8
OBJECT
 62
               0
100
AcDbCircle
 10
-800.0
 20
-39.500100000000202
 30
0.0
 40
14.999941976554087
100
AcDbArc
 50
8.851493649302224
 51
171.07697832015103
  0
ARC
  5
D4
100
AcDbEntity
  8
OBJECT
 62
               0
100
AcDbCircle
 10
-773.57139999999981
 20
-79.500100000000202
 30
0.0
 40
5.0000223529501975
100
AcDbArc
 50
188.79730285959062
 51
270.0
  0
ARC
  5
D5
100
AcDbEntity
  8
OBJECT
 62
               0
100
AcDbCircle
 10
-826.42860000000019
 20
-79.500100000000202
 30
0.0
 40
5.0
100
AcDbArc
 50
270.0
 51
351.20269714041211
  0
ARC
  5
D6
100
AcDbEntity
  8
OBJECT
 62
               0
100
AcDbCircle
 10
-826.42860000000019
 20
-79.500100000000202
 30
0.0
 40
10.0
100
AcDbArc
 50
270.0
 51
351.20260951215795
  0
ARC
  5
D7
100
AcDbEntity
  8
OBJECT
 62
               0
100
AcDbCircle
 10
-773.57150000000001
 20
-79.500100000000202
 30
0.0
 40
9.9999458823536891
100
AcDbArc
 50
188.79739048783841
 51
270.0
  0
LINE
  5
D8
100
AcDbEntity
  8
OBJECT
 62
               0
100
AcDbLine
 10
-647.8773000000001
 20
-37.938200000000052
 30
0.0
 11
-654.54619999999977
 21
-81.029599999999846
 31
0.0
  0
LINE
  5
D9
100
AcDbEntity
  8
OBJECT
 62
               0
100
AcDbLine
 10
-652.81850000000031
 20
-37.173499999999876
 30
0.0
 11
-659.48739999999998
 21
-80.264799999999923
 31
0.0
  0
LINE
  5
DA
100
AcDbEntity
  8
OBJECT
 62
               0
100
AcDbLine
 10
-623.17870000000039
 20
-37.192000000000007
 30
0.0
 11
-616.51260000000002
 21
-80.264799999999923
 31
0.0
  0
LINE
  5
DB
100
AcDbEntity
  8
OBJECT
 62
               0
100
AcDbLine
 10
-628.1198000000004
 20
-37.956699999999728
 30
0.0
 11
-621.45380000000023
 21
-81.029499999999643
 31
0.0
  0
ARC
  5
DC
100
AcDbEntity
  8
OBJECT
 62
               0
100
AcDbCircle
 10
-638.0
 20
-39.500100000000202
 30
0.0
 40
10.000021779975963
100
AcDbArc
 50
8.8785009401619934
 51
171.01420772104564
  0
ARC
  5
DD
100
AcDbEntity
  8
OBJECT
 62
               0
100
AcDbCircle
 10
-638.0
 20
-39.500100000000202
 30
0.0
 40
14.999941976554087
100
AcDbArc
 50
8.851493649302224
 51
171.07697832015103
  0
ARC
  5
DE
100
AcDbEntity
  8
OBJECT
 62
               0
100
AcDbCircle
 10
-611.57139999999981
 20
-79.500100000000202
 30
0.0
 40
5.0000223529501975
100
AcDbArc
 50
188.79730285959062
 51
270.0
  0
ARC
  5
DF
100
AcDbEntity
  8
OBJECT
 62
               0
100
AcDbCircle
 10
-664.42860000000019
 20
-79.500100000000202
 30
0.0
 40
5.0
100
AcDbArc
 50
270.0
 51
351.20269714041211
  0
ARC
  5
E0
100
AcDbEntity
  8
OBJECT
 62
               0
100
AcDbCircle
 10
-664.42860000000019
 20
-79.500100000000202
 30
0.0
 40
10.0
100
AcDbArc
 50
270.0
 51
351.20260951215795
  0
ARC
  5
E1
100
AcDbEntity
  8
OBJECT
 62
               0
100
AcDbCircle
 10
-611.57150000000001
 20
-79.500100000000202
 30
0.0
 40
9.9999458823536891
100
AcDbArc
 50
188.79739048783841
 51
270.0
  0
LINE
  5
E2
100
AcDbEntity
  8
OBJECT
 62
               0
100
AcDbLine
 10
-971.8773000000001
 20
-37.938200000000052
 30
0.0
 11
-978.54619999999977
 21
-81.029599999999846
 31
0.0
  0
LINE
  5
E3
100
AcDbEntity
  8
OBJECT
 62
               0
100
AcDbLine
 10
-976.8184999999994
 20
-37.173499999999876
 30
0.0
 11
-983.48739999999998
 21
-80.264799999999923
 31
0.0
  0
LINE
  5
E4
100
AcDbEntity
  8
OBJECT
 62
               0
100
AcDbLine
 10
-947.17870000000039
 20
-37.192000000000007
 30
0.0
 11
-940.51260000000002
 21
-80.264799999999923
 31
0.0
  0
LINE
  5
E5
100
AcDbEntity
  8
OBJECT
 62
               0
100
AcDbLine
 10
-952.1198000000004
 20
-37.956699999999728
 30
0.0
 11
-945.45380000000023
 21
-81.029499999999643
 31
0.0
  0
ARC
  5
E6
100
AcDbEntity
  8
OBJECT
 62
               0
100
AcDbCircle
 10
-962.0
 20
-39.500100000000202
 30
0.0
 40
10.000021779975963
100
AcDbArc
 50
8.8785009401619934
 51
171.01420772104564
  0
ARC
  5
E7
100
AcDbEntity
  8
OBJECT
 62
               0
100
AcDbCircle
 10
-962.0
 20
-39.500100000000202
 30
0.0
 40
14.999941976554087
100
AcDbArc
 50
8.851493649302224
 51
171.07697832014932
  0
ARC
  5
E8
100
AcDbEntity
  8
OBJECT
 62
               0
100
AcDbCircle
 10
-935.57139999999981
 20
-79.500100000000202
 30
0.0
 40
5.0000223529501975
100
AcDbArc
 50
188.79730285959062
 51
270.0
  0
ARC
  5
E9
100
AcDbEntity
  8
OBJECT
 62
               0
100
AcDbCircle
 10
-988.42860000000019
 20
-79.500100000000202
 30
0.0
 40
5.0
100
AcDbArc
 50
270.0
 51
351.20269714041211
  0
ARC
  5
EA
100
AcDbEntity
  8
OBJECT
 62
               0
100
AcDbCircle
 10
-988.42860000000019
 20
-79.500100000000202
 30
0.0
 40
10.0
100
AcDbArc
 50
270.0
 51
351.20260951215795
  0
ARC
  5
EB
100
AcDbEntity
  8
OBJECT
 62
               0
100
AcDbCircle
 10
-935.57150000000001
 20
-79.500100000000202
 30
0.0
 40
9.9999458823536891
100
AcDbArc
 50
188.79739048783841
 51
270.0
  0
ARC
  5
EC
100
AcDbEntity
  8
OBJECT
 62
               0
100
AcDbCircle
 10
-1043.5
 20
-27.000100000000202
 30
0.0
 40
2.5
100
AcDbArc
 50
0.0
 51
180.0
  0
LINE
  5
ED
100
AcDbEntity
  8
OBJECT
 62
               0
100
AcDbLine
 10
-1041.0
 20
-27.000100000000202
 30
0.0
 11
-1041.0
 21
-84.500100000000202
 31
0.0
  0
LINE
  5
EE
100
AcDbEntity
  8
OBJECT
 62
               0
100
AcDbLine
 10
-1046.0
 20
-27.000100000000202
 30
0.0
 11
-1046.0
 21
-87.000100000000202
 31
0.0
  0
ARC
  5
EF
100
AcDbEntity
  8
OBJECT
 62
               0
100
AcDbCircle
 10
-556.5
 20
-27.000100000000202
 30
0.0
 40
2.5
100
AcDbArc
 50
0.0
 51
180.0
  0
LINE
  5
F0
100
AcDbEntity
  8
OBJECT
 62
               0
100
AcDbLine
 10
-559.0
 20
-27.000100000000202
 30
0.0
 11
-559.0
 21
-84.500100000000202
 31
0.0
  0
LINE
  5
F1
100
AcDbEntity
  8
OBJECT
 62
               0
100
AcDbLine
 10
-554.0
 20
-27.000100000000202
 30
0.0
 11
-554.0
 21
-87.000100000000202
 31
0.0
  0
ARC
  5
F2
100
AcDbEntity
  8
OBJECT
 62
               0
100
AcDbCircle
 10
-881.0
 20
-27.000100000000202
 30
0.0
 40
2.5
100
AcDbArc
 50
0.0
 51
180.0
  0
LINE
  5
F3
100
AcDbEntity
  8
OBJECT
 62
               0
100
AcDbLine
 10
-878.5
 20
-27.000100000000202
 30
0.0
 11
-878.5
 21
-84.500100000000202
 31
0.0
  0
LINE
  5
F4
100
AcDbEntity
  8
OBJECT
 62
               0
100
AcDbLine
 10
-883.5
 20
-27.000100000000202
 30
0.0
 11
-883.5
 21
-84.500100000000202
 31
0.0
  0
ARC
  5
F5
100
AcDbEntity
  8
OBJECT
 62
               0
100
AcDbCircle
 10
-719.0
 20
-27.000100000000202
 30
0.0
 40
2.5
100
AcDbArc
 50
0.0
 51
180.0
  0
LINE
  5
F6
100
AcDbEntity
  8
OBJECT
 62
               0
100
AcDbLine
 10
-721.5
 20
-27.000100000000202
 30
0.0
 11
-721.5
 21
-84.500100000000202
 31
0.0
  0
LINE
  5
F7
100
AcDbEntity
  8
OBJECT
 62
               0
100
AcDbLine
 10
-716.5
 20
-27.000100000000202
 30
0.0
 11
-716.5
 21
-84.500100000000202
 31
0.0
  0
ENDBLK
  5
F8
100
AcDbEntity
  8
OBJECT
100
AcDbBlockEnd
  0
BLOCK
  5
F9
100
AcDbEntity
  8
DIMENTION
100
AcDbBlockBegin
  2
*D15
 70
               1
 10
0.0
 20
0.0
 30
0.0
  3
*D15
  1

  0
LINE
  5
FA
100
AcDbEntity
  8
DIMENTION
 62
               0
100
AcDbLine
 10
-557.0
 20
807.0
 30
0.0
 11
-557.0
 21
920.00000000000011
 31
0.0
  0
LINE
  5
FB
100
AcDbEntity
  8
DIMENTION
 62
               0
100
AcDbLine
 10
-506.0
 20
793.0
 30
0.0
 11
-506.0
 21
920.00000000000011
 31
0.0
  0
LINE
  5
FC
100
AcDbEntity
  8
DIMENTION
 62
               0
100
AcDbLine
 10
-506.0
 20
900.00000000000011
 30
0.0
 11
-557.0
 21
900.00000000000011
 31
0.0
  0
LINE
  5
FD
100
AcDbEntity
  8
DIMENTION
 62
               0
100
AcDbLine
 10
-557.0
 20
900.00000000000011
 30
0.0
 11
-617.0
 21
900.00000000000011
 31
0.0
  0
LINE
  5
FE
100
AcDbEntity
  8
DIMENTION
 62
               0
100
AcDbLine
 10
-557.0
 20
900.00000000000011
 30
0.0
 11
-588.75
 21
891.49261314031196
 31
0.0
  0
LINE
  5
FF
100
AcDbEntity
  8
DIMENTION
 62
               0
100
AcDbLine
 10
-557.0
 20
900.00000000000011
 30
0.0
 11
-588.75
 21
908.50738685968827
 31
0.0
  0
LINE
  5
100
100
AcDbEntity
  8
DIMENTION
 62
               0
100
AcDbLine
 10
-506.0
 20
900.00000000000011
 30
0.0
 11
-446.0
 21
900.00000000000011
 31
0.0
  0
LINE
  5
101
100
AcDbEntity
  8
DIMENTION
 62
               0
100
AcDbLine
 10
-506.0
 20
900.00000000000011
 30
0.0
 11
-474.25
 21
908.50738685968827
 31
0.0
  0
LINE
  5
102
100
AcDbEntity
  8
DIMENTION
 62
               0
100
AcDbLine
 10
-506.0
 20
900.00000000000011
 30
0.0
 11
-474.25
 21
891.49261314031196
 31
0.0
  0
MTEXT
  5
103
100
AcDbEntity
  8
DIMENTION
 62
               0
100
AcDbMText
 10
-552.66666666666663
 20
943.33333333333348
 30
0.0
 40
33.866666666666667
 41
0.0
 71
               1
 72
               1
  1
51
  7
________
  0
POINT
  5
104
100
AcDbEntity
  8
DEFPOINTS
 62
               0
100
AcDbPoint
 10
-506.0
 20
783.0
 30
0.0
  0
POINT
  5
105
100
AcDbEntity
  8
DEFPOINTS
 62
               0
100
AcDbPoint
 10
-557.0
 20
797.0
 30
0.0
  0
POINT
  5
106
100
AcDbEntity
  8
DEFPOINTS
 62
               0
100
AcDbPoint
 10
-557.0
 20
900.00000000000011
 30
0.0
  0
ENDBLK
  5
107
100
AcDbEntity
  8
DIMENTION
100
AcDbBlockEnd
  0
BLOCK
  5
108
100
AcDbEntity
  8
DIMENTION
100
AcDbBlockBegin
  2
*D16
 70
               1
 10
0.0
 20
0.0
 30
0.0
  3
*D16
  1

  0
LINE
  5
109
100
AcDbEntity
  8
DIMENTION
 62
               0
100
AcDbLine
 10
-1053.5
 20
-69.500100000000202
 30
0.0
 11
-1220.0
 21
-69.500100000000202
 31
0.0
  0
LINE
  5
10A
100
AcDbEntity
  8
DIMENTION
 62
               0
100
AcDbLine
 10
-1053.5
 20
-4.5001000000002058
 30
0.0
 11
-1220.0
 21
-4.5001000000002058
 31
0.0
  0
LINE
  5
10B
100
AcDbEntity
  8
DIMENTION
 62
               0
100
AcDbLine
 10
-1200.0
 20
-4.5001000000002058
 30
0.0
 11
-1200.0
 21
-69.500100000000202
 31
0.0
  0
LINE
  5
10C
100
AcDbEntity
  8
DIMENTION
 62
               0
100
AcDbLine
 10
-1200.0
 20
-69.500100000000202
 30
0.0
 11
-1200.0
 21
-129.5001000000002
 31
0.0
  0
LINE
  5
10D
100
AcDbEntity
  8
DIMENTION
 62
               0
100
AcDbLine
 10
-1200.0
 20
-69.500100000000202
 30
0.0
 11
-1191.492613140312
 21
-101.2501000000002
 31
0.0
  0
LINE
  5
10E
100
AcDbEntity
  8
DIMENTION
 62
               0
100
AcDbLine
 10
-1200.0
 20
-69.500100000000202
 30
0.0
 11
-1208.507386859688
 21
-101.2501000000002
 31
0.0
  0
LINE
  5
10F
100
AcDbEntity
  8
DIMENTION
 62
               0
100
AcDbLine
 10
-1200.0
 20
-4.5001000000002058
 30
0.0
 11
-1200.0
 21
55.499899999999798
 31
0.0
  0
LINE
  5
110
100
AcDbEntity
  8
DIMENTION
 62
               0
100
AcDbLine
 10
-1200.0
 20
-4.5001000000002058
 30
0.0
 11
-1208.507386859688
 21
27.249899999999791
 31
0.0
  0
LINE
  5
111
100
AcDbEntity
  8
DIMENTION
 62
               0
100
AcDbLine
 10
-1200.0
 20
-4.5001000000002058
 30
0.0
 11
-1191.492613140312
 21
27.249899999999794
 31
0.0
  0
MTEXT
  5
112
100
AcDbEntity
  8
DIMENTION
 62
               0
100
AcDbMText
 10
-1243.3333333333335
 20
-58.166766666666874
 30
0.0
 40
33.866666666666667
 41
0.0
 71
               1
 72
               1
  1
65
  7
________
 11
0.0
 21
1.0
 31
0.0
  0
POINT
  5
113
100
AcDbEntity
  8
DEFPOINTS
 62
               0
100
AcDbPoint
 10
-1043.5
 20
-4.5001000000002058
 30
0.0
  0
POINT
  5
114
100
AcDbEntity
  8
DEFPOINTS
 62
               0
100
AcDbPoint
 10
-1043.5
 20
-69.500100000000202
 30
0.0
  0
POINT
  5
115
100
AcDbEntity
  8
DEFPOINTS
 62
               0
100
AcDbPoint
 10
-1200.0
 20
-69.500100000000202
 30
0.0
  0
ENDBLK
  5
116
100
AcDbEntity
  8
DIMENTION
100
AcDbBlockEnd
  0
BLOCK
  5
117
100
AcDbEntity
  8
DIMENTION
100
AcDbBlockBegin
  2
*D17
 70
               1
 10
0.0
 20
0.0
 30
0.0
  3
*D17
  1

  0
LINE
  5
118
100
AcDbEntity
  8
DIMENTION
 62
               0
100
AcDbLine
 10
-506.0
 20
407.0
 30
0.0
 11
-506.0
 21
180.0
 31
0.0
  0
LINE
  5
119
100
AcDbEntity
  8
DIMENTION
 62
               0
100
AcDbLine
 10
-1046.0
 20
438.99279999999999
 30
0.0
 11
-1046.0
 21
180.0
 31
0.0
  0
LINE
  5
11A
100
AcDbEntity
  8
DIMENTION
 62
               0
100
AcDbLine
 10
-506.0
 20
200.0
 30
0.0
 11
-1046.0
 21
200.0
 31
0.0
  0
LINE
  5
11B
100
AcDbEntity
  8
DIMENTION
 62
               0
100
AcDbLine
 10
-506.0
 20
200.0
 30
0.0
 11
-537.75
 21
191.49261314031185
 31
0.0
  0
LINE
  5
11C
100
AcDbEntity
  8
DIMENTION
 62
               0
100
AcDbLine
 10
-506.0
 20
200.0
 30
0.0
 11
-537.75
 21
208.50738685968815
 31
0.0
  0
LINE
  5
11D
100
AcDbEntity
  8
DIMENTION
 62
               0
100
AcDbLine
 10
-1046.0
 20
200.0
 30
0.0
 11
-1014.25
 21
208.50738685968815
 31
0.0
  0
LINE
  5
11E
100
AcDbEntity
  8
DIMENTION
 62
               0
100
AcDbLine
 10
-1046.0
 20
200.0
 30
0.0
 11
-1014.25
 21
191.49261314031185
 31
0.0
  0
MTEXT
  5
11F
100
AcDbEntity
  8
DIMENTION
 62
               0
100
AcDbMText
 10
-807.75
 20
243.33333332960805
 30
0.0
 40
33.866666666666667
 41
0.0
 71
               1
 72
               1
  1
540
  7
________
  0
POINT
  5
120
100
AcDbEntity
  8
DEFPOINTS
 62
               0
100
AcDbPoint
 10
-1046.0
 20
448.99279999999999
 30
0.0
  0
POINT
  5
121
100
AcDbEntity
  8
DEFPOINTS
 62
               0
100
AcDbPoint
 10
-506.0
 20
417.0
 30
0.0
  0
POINT
  5
122
100
AcDbEntity
  8
DEFPOINTS
 62
               0
100
AcDbPoint
 10
-506.0
 20
200.0
 30
0.0
  0
ENDBLK
  5
123
100
AcDbEntity
  8
DIMENTION
100
AcDbBlockEnd
  0
BLOCK
  5
124
100
AcDbEntity
  8
OBJECT
100
AcDbBlockBegin
  2
*U18
 70
               1
 10
0.0
 20
0.0
 30
0.0
  3
*U18
  1

  0
LINE
  5
125
100
AcDbEntity
  8
OBJECT
 62
               0
100
AcDbLine
 10
-513.83619999999974
 20
-122.03520000000026
 30
0.0
 11
-547.0
 21
-131.5
 31
0.0
  0
LINE
  5
126
100
AcDbEntity
  8
OBJECT
 62
               0
100
AcDbLine
 10
-513.91200000000026
 20
-100.9422999999997
 30
0.0
 11
-547.0
 21
-91.5
 31
0.0
  0
LINE
  5
127
100
AcDbEntity
  8
OBJECT
 62
               0
100
AcDbLine
 10
-547.0
 20
-101.5
 30
0.0
 11
-547.0
 21
-91.5
 31
0.0
  0
LINE
  5
128
100
AcDbEntity
  8
OBJECT
 62
               0
100
AcDbLine
 10
-547.0
 20
-131.5
 30
0.0
 11
-547.0
 21
-121.5
 31
0.0
  0
ARC
  5
129
100
AcDbEntity
  8
OBJECT
 62
               0
100
AcDbCircle
 10
-517.0
 20
-111.5
 30
0.0
 40
11.000003158181689
100
AcDbArc
 50
286.71540870846127
 51
74.42006996490872
  0
CIRCLE
  5
12A
100
AcDbEntity
  8
OBJECT
 62
               0
100
AcDbCircle
 10
-517.0
 20
-111.5
 30
0.0
 40
10.0
  0
LINE
  5
12B
100
AcDbEntity
  8
OBJECT
 62
               0
100
AcDbLine
 10
-535.15399999999954
 20
-118.2521999999999
 30
0.0
 11
-547.0
 21
-121.5
 31
0.0
  0
LINE
  5
12C
100
AcDbEntity
  8
OBJECT
 62
               0
100
AcDbLine
 10
-535.16430000000037
 20
-104.74499999999989
 30
0.0
 11
-547.0
 21
-101.5
 31
0.0
  0
ARC
  5
12D
100
AcDbEntity
  8
OBJECT
 62
               0
100
AcDbCircle
 10
-537.0
 20
-111.5
 30
0.0
 40
6.9999943457120288
100
AcDbArc
 50
285.29058209269999
 51
74.796784250574376
  0
ENDBLK
  5
12E
100
AcDbEntity
  8
OBJECT
100
AcDbBlockEnd
  0
BLOCK
  5
12F
100
AcDbEntity
  8
OBJECT
100
AcDbBlockBegin
  2
*U19
 70
               1
 10
0.0
 20
0.0
 30
0.0
  3
*U19
  1

  0
LINE
  5
130
100
AcDbEntity
  8
OBJECT
 62
               0
100
AcDbLine
 10
636.50004999999965
 20
-84.5
 30
0.0
 11
692.57145000000037
 21
-84.5
 31
0.0
  0
LINE
  5
131
100
AcDbEntity
  8
OBJECT
 62
               0
100
AcDbLine
 10
745.42865000000074
 20
-84.5
 30
0.0
 11
854.57145000000037
 21
-84.5
 31
0.0
  0
LINE
  5
132
100
AcDbEntity
  8
OBJECT
 62
               0
100
AcDbLine
 10
907.42854999999963
 20
-84.5
 30
0.0
 11
963.50004999999965
 21
-84.5
 31
0.0
  0
LINE
  5
133
100
AcDbEntity
  8
OBJECT
 62
               0
100
AcDbLine
 10
963.50004999999965
 20
-89.5
 30
0.0
 11
907.42854999999963
 21
-89.5
 31
0.0
  0
LINE
  5
134
100
AcDbEntity
  8
OBJECT
 62
               0
100
AcDbLine
 10
854.57145000000037
 20
-89.5
 30
0.0
 11
745.42854999999963
 21
-89.5
 31
0.0
  0
LINE
  5
135
100
AcDbEntity
  8
OBJECT
 62
               0
100
AcDbLine
 10
692.57145000000037
 20
-89.5
 30
0.0
 11
636.50004999999965
 21
-89.5
 31
0.0
  0
ARC
  5
136
100
AcDbEntity
  8
OBJECT
 62
               0
100
AcDbCircle
 10
963.50004999999965
 20
-87.0
 30
0.0
 40
2.5
100
AcDbArc
 50
0.0
 51
90.0
  0
ARC
  5
137
100
AcDbEntity
  8
OBJECT
 62
               0
100
AcDbCircle
 10
963.50004999999965
 20
-87.0
 30
0.0
 40
2.5
100
AcDbArc
 50
270.0
 51
0.0
  0
ARC
  5
138
100
AcDbEntity
  8
OBJECT
 62
               0
100
AcDbCircle
 10
636.50004999999965
 20
-87.0
 30
0.0
 40
2.5
100
AcDbArc
 50
90.0
 51
180.0
  0
ARC
  5
139
100
AcDbEntity
  8
OBJECT
 62
               0
100
AcDbCircle
 10
636.50004999999965
 20
-87.0
 30
0.0
 40
2.5
100
AcDbArc
 50
180.0
 51
270.0
  0
LINE
  5
13A
100
AcDbEntity
  8
OBJECT
 62
               0
100
AcDbLine
 10
709.12274999999954
 20
-37.937999999999874
 30
0.0
 11
702.45385000000078
 21
-81.029399999999896
 31
0.0
  0
LINE
  5
13B
100
AcDbEntity
  8
OBJECT
 62
               0
100
AcDbLine
 10
704.18155000000024
 20
-37.173299999999927
 30
0.0
 11
697.51264999999967
 21
-80.264699999999948
 31
0.0
  0
LINE
  5
13C
100
AcDbEntity
  8
OBJECT
 62
               0
100
AcDbLine
 10
733.82135000000108
 20
-37.191900000000032
 30
0.0
 11
740.48744999999963
 21
-80.264699999999948
 31
0.0
  0
LINE
  5
13D
100
AcDbEntity
  8
OBJECT
 62
               0
100
AcDbLine
 10
728.88025000000107
 20
-37.95659999999998
 30
0.0
 11
735.54625000000033
 21
-81.029399999999896
 31
0.0
  0
ARC
  5
13E
100
AcDbEntity
  8
OBJECT
 62
               0
100
AcDbCircle
 10
719.00004999999965
 20
-39.5
 30
0.0
 40
10.000021779977692
100
AcDbArc
 50
8.8785009401578119
 51
171.01364179765017
  0
ARC
  5
13F
100
AcDbEntity
  8
OBJECT
 62
               0
100
AcDbCircle
 10
719.00004999999965
 20
-39.5
 30
0.0
 40
14.999941976555849
100
AcDbArc
 50
8.8514936493002985
 51
171.07660096980686
  0
ARC
  5
140
100
AcDbEntity
  8
OBJECT
 62
               0
100
AcDbCircle
 10
745.42865000000074
 20
-79.5
 30
0.0
 40
5.000022352951131
100
AcDbArc
 50
188.79730285959161
 51
269.99885408441304
  0
ARC
  5
141
100
AcDbEntity
  8
OBJECT
 62
               0
100
AcDbCircle
 10
692.57145000000037
 20
-79.5
 30
0.0
 40
5.0
100
AcDbArc
 50
270.0
 51
351.20269714040541
  0
ARC
  5
142
100
AcDbEntity
  8
OBJECT
 62
               0
100
AcDbCircle
 10
692.57145000000037
 20
-79.5
 30
0.0
 40
10.0
100
AcDbArc
 50
270.0
 51
351.20269714040541
  0
ARC
  5
143
100
AcDbEntity
  8
OBJECT
 62
               0
100
AcDbCircle
 10
745.42854999999963
 20
-79.5
 30
0.0
 40
9.9999458823528613
100
AcDbArc
 50
188.79739048784182
 51
270.0
  0
LINE
  5
144
100
AcDbEntity
  8
OBJECT
 62
               0
100
AcDbLine
 10
890.87725000000046
 20
-37.937999999999874
 30
0.0
 11
897.54625000000033
 21
-81.029399999999896
 31
0.0
  0
LINE
  5
145
100
AcDbEntity
  8
OBJECT
 62
               0
100
AcDbLine
 10
895.81844999999976
 20
-37.173299999999927
 30
0.0
 11
902.48744999999963
 21
-80.264699999999948
 31
0.0
  0
LINE
  5
146
100
AcDbEntity
  8
OBJECT
 62
               0
100
AcDbLine
 10
866.17865000000074
 20
-37.191900000000032
 30
0.0
 11
859.51264999999967
 21
-80.264699999999948
 31
0.0
  0
LINE
  5
147
100
AcDbEntity
  8
OBJECT
 62
               0
100
AcDbLine
 10
871.11985000000004
 20
-37.95659999999998
 30
0.0
 11
864.45385000000078
 21
-81.029399999999896
 31
0.0
  0
ARC
  5
148
100
AcDbEntity
  8
OBJECT
 62
               0
100
AcDbCircle
 10
881.00004999999965
 20
-39.5
 30
0.0
 40
9.9999461918560559
100
AcDbArc
 50
8.9864476984357982
 51
171.12141062904487
  0
ARC
  5
149
100
AcDbEntity
  8
OBJECT
 62
               0
100
AcDbCircle
 10
881.00004999999965
 20
-39.5
 30
0.0
 40
14.999950381584721
100
AcDbArc
 50
8.9233990301929449
 51
171.14850635069854
  0
ARC
  5
14A
100
AcDbEntity
  8
OBJECT
 62
               0
100
AcDbCircle
 10
854.57145000000037
 20
-79.5
 30
0.0
 40
5.0
100
AcDbArc
 50
270.0
 51
351.20269714040541
  0
ARC
  5
14B
100
AcDbEntity
  8
OBJECT
 62
               0
100
AcDbCircle
 10
907.42854999999963
 20
-79.5
 30
0.0
 40
4.9999235294152227
100
AcDbArc
 50
188.79747811782084
 51
270.0
  0
ARC
  5
14C
100
AcDbEntity
  8
OBJECT
 62
               0
100
AcDbCircle
 10
907.42854999999963
 20
-79.5
 30
0.0
 40
9.9999458823528613
100
AcDbArc
 50
188.79739048784182
 51
270.0
  0
ARC
  5
14D
100
AcDbEntity
  8
OBJECT
 62
               0
100
AcDbCircle
 10
854.57145000000037
 20
-79.5
 30
0.0
 40
10.0
100
AcDbArc
 50
270.0
 51
351.20269714040541
  0
ARC
  5
14E
100
AcDbEntity
  8
OBJECT
 62
               0
100
AcDbCircle
 10
963.50004999999965
 20
-27.0
 30
0.0
 40
2.5
100
AcDbArc
 50
0.0
 51
180.0
  0
LINE
  5
14F
100
AcDbEntity
  8
OBJECT
 62
               0
100
AcDbLine
 10
961.00004999999965
 20
-27.0
 30
0.0
 11
961.00004999999965
 21
-84.5
 31
0.0
  0
LINE
  5
150
100
AcDbEntity
  8
OBJECT
 62
               0
100
AcDbLine
 10
966.00004999999965
 20
-27.0
 30
0.0
 11
966.00004999999965
 21
-87.0
 31
0.0
  0
ARC
  5
151
100
AcDbEntity
  8
OBJECT
 62
               0
100
AcDbCircle
 10
636.50004999999965
 20
-27.0
 30
0.0
 40
2.5
100
AcDbArc
 50
0.0
 51
180.0
  0
LINE
  5
152
100
AcDbEntity
  8
OBJECT
 62
               0
100
AcDbLine
 10
639.00004999999965
 20
-27.0
 30
0.0
 11
639.00004999999965
 21
-84.5
 31
0.0
  0
LINE
  5
153
100
AcDbEntity
  8
OBJECT
 62
               0
100
AcDbLine
 10
634.00004999999965
 20
-27.0
 30
0.0
 11
634.00004999999965
 21
-87.0
 31
0.0
  0
ARC
  5
154
100
AcDbEntity
  8
OBJECT
 62
               0
100
AcDbCircle
 10
800.00004999999965
 20
-27.0
 30
0.0
 40
2.5
100
AcDbArc
 50
0.0
 51
180.0
  0
LINE
  5
155
100
AcDbEntity
  8
OBJECT
 62
               0
100
AcDbLine
 10
797.50004999999965
 20
-27.0
 30
0.0
 11
797.50004999999965
 21
-84.5
 31
0.0
  0
LINE
  5
156
100
AcDbEntity
  8
OBJECT
 62
               0
100
AcDbLine
 10
802.50004999999965
 20
-27.0
 30
0.0
 11
802.50004999999965
 21
-84.5
 31
0.0
  0
ENDBLK
  5
157
100
AcDbEntity
  8
OBJECT
100
AcDbBlockEnd
  0
ENDSEC
  0
SECTION
  2
ENTITIES
  0
LINE
  5
158
100
AcDbEntity
  8
FRAME
  6
CONTINUOUS
100
AcDbLine
 10
-2025.3999999999999
 20
-1388.9999999999998
 30
0.0
 11
-2025.3999999999999
 21
1330.9999999999998
 31
0.0
  0
LINE
  5
159
100
AcDbEntity
  8
FRAME
  6
CONTINUOUS
100
AcDbLine
 10
2024.5999999999999
 20
-1388.9999999999998
 30
0.0
 11
-2025.3999999999999
 21
-1388.9999999999998
 31
0.0
  0
LINE
  5
15A
100
AcDbEntity
  8
FRAME
  6
CONTINUOUS
100
AcDbLine
 10
2024.5999999999999
 20
1330.9999999999998
 30
0.0
 11
2024.5999999999999
 21
-1388.9999999999998
 31
0.0
  0
LINE
  5
15B
100
AcDbEntity
  8
FRAME
  6
CONTINUOUS
100
AcDbLine
 10
-2025.3999999999999
 20
1330.9999999999998
 30
0.0
 11
2024.5999999999999
 21
1330.9999999999998
 31
0.0
  0
LINE
  5
15C
100
AcDbEntity
  8
OBJECT
  6
CONTINUOUS
100
AcDbLine
 10
1264.3599999999999
 20
-1388.9999999999998
 30
0.0
 11
1264.3599999999999
 21
-1249.0
 31
0.0
  0
LINE
  5
15D
100
AcDbEntity
  8
OBJECT
  6
CONTINUOUS
100
AcDbLine
 10
1044.3599999999999
 20
-1388.9999999999998
 30
0.0
 11
1044.3599999999999
 21
-1249.0
 31
0.0
  0
LINE
  5
15E
100
AcDbEntity
  8
OBJECT
  6
CONTINUOUS
100
AcDbLine
 10
444.35999999999996
 20
-1388.9999999999998
 30
0.0
 11
444.35999999999996
 21
-1249.0
 31
0.0
  0
LINE
  5
15F
100
AcDbEntity
  8
OBJECT
  6
CONTINUOUS
100
AcDbLine
 10
-675.39999999999998
 20
-1388.9999999999998
 30
0.0
 11
-675.39999999999998
 21
-1249.0
 31
0.0
  0
MTEXT
  5
160
100
AcDbEntity
  8
DIMENTION
100
AcDbMText
 10
-650.63999999999999
 20
-1254.1299999999999
 30
0.0
 40
28.2224
 41
109.36099999999999
 71
               1
 72
               1
  1
品　名
  7
________
  0
MTEXT
  5
161
100
AcDbEntity
  8
DIMENTION
100
AcDbMText
 10
464.35999999999996
 20
-1259.1299999999999
 30
0.0
 40
28.2224
 41
0.0
 71
               1
 72
               1
  1
形　式
  7
________
  0
MTEXT
  5
162
100
AcDbEntity
  8
DIMENTION
100
AcDbMText
 10
1069.3599999999999
 20
-1259.1299999999999
 30
0.0
 40
28.2224
 41
0.0
 71
               1
 72
               1
  1
尺　度
  7
________
  0
MTEXT
  5
163
100
AcDbEntity
  8
DIMENTION
100
AcDbMText
 10
1289.3599999999999
 20
-1259.1299999999999
 30
0.0
 40
28.2224
 41
0.0
 71
               1
 72
               1
  1
図　番
  7
________
  0
LINE
  5
164
100
AcDbEntity
  8
OBJECT
  6
CONTINUOUS
100
AcDbLine
 10
-1095.3999999999999
 20
-1388.9999999999998
 30
0.0
 11
-1095.3999999999999
 21
-1249.0
 31
0.0
  0
MTEXT
  5
165
100
AcDbEntity
  8
TEXT
100
AcDbMText
 10
1115.3119999999999
 20
-1314.0139999999999
 30
0.0
 40
39.511200000000002
 41
0.0
 71
               1
 72
               1
  1
1/10
  7
________
  0
LINE
  5
166
100
AcDbEntity
  8
FRAME
  6
CONTINUOUS
100
AcDbLine
 10
-2025.3999999999999
 20
-1249.0
 30
0.0
 11
2024.5999999999999
 21
-1249.0
 31
0.0
  0
MTEXT
  5
167
100
AcDbEntity
  8
DIMENTION
100
AcDbMText
 10
-1085.6399999999999
 20
-1257.1088
 30
0.0
 40
28.2224
 41
0.0
 71
               1
 72
               1
  1
検  図
  7
________
  0
MTEXT
  5
168
100
AcDbEntity
  8
DIMENTION
100
AcDbMText
 10
-1085.6399999999999
 20
-1302.1899999999998
 30
0.0
 40
28.2224
 41
0.0
 71
               1
 72
               1
  1
担  当
  7
________
  0
MTEXT
  5
169
100
AcDbEntity
  8
DIMENTION
100
AcDbMText
 10
-1085.6399999999999
 20
-1347.0599999999999
 30
0.0
 40
28.2224
 41
0.0
 71
               1
 72
               1
  1
年月日
  7
________
  0
LINE
  5
16A
100
AcDbEntity
  8
OBJECT
  6
CONTINUOUS
100
AcDbLine
 10
-1095.3999999999999
 20
-1297.9399999999998
 30
0.0
 11
-675.39999999999998
 21
-1297.9399999999998
 31
0.0
  0
LINE
  5
16B
100
AcDbEntity
  8
OBJECT
  6
CONTINUOUS
100
AcDbLine
 10
-1095.3999999999999
 20
-1342.3299999999999
 30
0.0
 11
-675.39999999999998
 21
-1342.3299999999999
 31
0.0
  0
MTEXT
  5
16C
100
AcDbEntity
  8
TEXT
100
AcDbMText
 10
-44.165000000000077
 20
-1315.0347999999999
 30
0.0
 40
39.511200000000002
 41
0.0
 71
               1
 72
               1
  1
食器ディスペンサー
  7
________
  0
MTEXT
  5
16D
100
AcDbEntity
  8
TEXT
100
AcDbMText
 10
-930.0
 20
-1350.0
 30
0.0
 40
28.222222222222225
 41
0.0
 71
               1
 72
               1
  1
2019.09.04
  7
________
  0
MTEXT
  5
16E
100
AcDbEntity
  8
TEXT
100
AcDbMText
 10
-930.0
 20
-1302.0
 30
0.0
 40
28.222222222222225
 41
0.0
 71
               1
 72
               1
  1
月川
  7
________
  0
MTEXT
  5
16F
100
AcDbEntity
  8
TEXT
100
AcDbMText
 10
-930.0
 20
-1258.0
 30
0.0
 40
28.222222222222225
 41
0.0
 71
               1
 72
               1
  1
大谷
  7
________
  0
MTEXT
  5
170
100
AcDbEntity
  8
TEXT
100
AcDbMText
 10
744.36000000000013
 20
-1339.7293
 30
0.0
 40
50.800000000000004
 41
0.0
 71
               5
 72
               1
  1
CL 16W6S
  7
________
  0
MTEXT
  5
171
100
AcDbEntity
  8
TEXT
100
AcDbMText
 10
1429.9999999999995
 20
-1270.0
 30
0.0
 40
79.02222222222224
 41
0.0
 71
               1
 72
               1
  1
A330-144A
  7
ARIAL
  0
INSERT
  5
172
100
AcDbEntity
  8
FRAME
100
AcDbBlockReference
  2
*U6
 10
0.0
 20
19.999999999999996
 30
0.0
  0
POLYLINE
  5
173
100
AcDbEntity
  8
OBJECT
  6
CONTINUOUS
100
AcDb2dPolyline
 66
               1
 10
0.0
 20
0.0
 30
0.0
 70
               1
 75
               5
  0
VERTEX
  5
174
100
AcDbEntity
  8
OBJECT
  6
CONTINUOUS
100
AcDbVertex
100
AcDb2dVertex
 10
700.0
 20
1200.0
 30
0.0
  0
VERTEX
  5
175
100
AcDbEntity
  8
OBJECT
  6
CONTINUOUS
100
AcDbVertex
100
AcDb2dVertex
 10
1800.0
 20
1200.0
 30
0.0
  0
VERTEX
  5
176
100
AcDbEntity
  8
OBJECT
  6
CONTINUOUS
100
AcDbVertex
100
AcDb2dVertex
 10
1800.0
 20
960.0
 30
0.0
  0
VERTEX
  5
177
100
AcDbEntity
  8
OBJECT
  6
CONTINUOUS
100
AcDbVertex
100
AcDb2dVertex
 10
700.0
 20
960.0
 30
0.0
  0
SEQEND
  5
178
100
AcDbEntity
  8
OBJECT
  6
CONTINUOUS
  0
LINE
  5
179
100
AcDbEntity
  8
OBJECT
  6
CONTINUOUS
100
AcDbLine
 10
1099.9999999999995
 20
1200.0
 30
0.0
 11
1099.9999999999995
 21
960.0
 31
0.0
  0
MTEXT
  5
17A
100
AcDbEntity
  8
TEXT
100
AcDbMText
 10
700.0
 20
1170.0
 30
0.0
 40
33.866666666666667
 41
399.99999999999955
 71
               4
 72
               1
  1
　形　　　　　　　　式
  7
________
  0
LINE
  5
17B
100
AcDbEntity
  8
OBJECT
100
AcDbLine
 10
1800.0
 20
1140.0
 30
0.0
 11
700.0
 21
1140.0
 31
0.0
  0
MTEXT
  5
17C
100
AcDbEntity
  8
TEXT
100
AcDbMText
 10
1099.9999999999995
 20
1170.0
 30
0.0
 40
33.866666666666667
 41
700.00000000000045
 71
               4
 72
               1
  1
　CL 16W6S
  7
________
  0
LINE
  5
17D
100
AcDbEntity
  8
OBJECT
100
AcDbLine
 10
1800.0
 20
1020.0
 30
0.0
 11
700.0
 21
1020.0
 31
0.0
  0
MTEXT
  5
17E
100
AcDbEntity
  8
TEXT
100
AcDbMText
 10
700.0
 20
1080.0
 30
0.0
 40
33.866666666666667
 41
399.99999999999955
 71
               4
 72
               1
  1
　{\H0.976x;\l適　用　食　器\P　ストック数量の目安}
  7
________
  0
MTEXT
  5
17F
100
AcDbEntity
  8
TEXT
100
AcDbMText
 10
1099.9999999999995
 20
1080.0
 30
0.0
 40
33.053316618693508
 41
700.0
 71
               4
 72
               1
  1
　皿155φ×70枚×3列×2\P　420枚
  7
________
  0
MTEXT
  5
180
100
AcDbEntity
  8
TEXT
100
AcDbMText
 10
700.0
 20
990.0
 30
0.0
 40
33.866666666666667
 41
399.99999999999955
 71
               4
 72
               1
  1
　ば ね 調 整 範 囲
  7
________
  0
MTEXT
  5
181
100
AcDbEntity
  8
TEXT
100
AcDbMText
 10
1099.9999999999995
 20
990.0
 30
0.0
 40
33.866666666666667
 41
700.00000000000045
 71
               4
 72
               1
  1
　5～15kg×6
  7
________
  0
MTEXT
  5
182
100
AcDbEntity
  8
DIMENTION
100
AcDbMText
 10
655.0
 20
800.0
 30
0.0
 40
33.866666666666667
 41
1305.0
 71
               1
 72
               1
  1
使用する食器は外径寸法155φ(mm)を超えないようにしてください。\P超えてしまうと食器が収納できないまたは引っ掛かりが生じ、出し\P入れできない場合があります。
  7
________
  0
MTEXT
  5
183
100
AcDbEntity
  8
DIMENTION
100
AcDbMText
 10
600.0
 20
800.0
 30
0.0
 40
33.866666666666667
 41
50.0
 71
               1
 72
               1
  1
※
  7
________
  0
POLYLINE
  5
184
100
AcDbEntity
  8
OBJECT
  6
CONTINUOUS
100
AcDb2dPolyline
 66
               1
 10
0.0
 20
0.0
 30
0.0
 70
               1
 75
               5
  0
VERTEX
  5
185
100
AcDbEntity
  8
OBJECT
  6
CONTINUOUS
100
AcDbVertex
100
AcDb2dVertex
 10
603.0
 20
-69.5
 30
0.0
  0
VERTEX
  5
186
100
AcDbEntity
  8
OBJECT
  6
CONTINUOUS
100
AcDbVertex
100
AcDb2dVertex
 10
638.0
 20
-69.5
 30
0.0
  0
VERTEX
  5
187
100
AcDbEntity
  8
OBJECT
  6
CONTINUOUS
100
AcDbVertex
100
AcDb2dVertex
 10
638.0
 20
-779.5
 30
0.0
  0
VERTEX
  5
188
100
AcDbEntity
  8
OBJECT
  6
CONTINUOUS
100
AcDbVertex
100
AcDb2dVertex
 10
603.0
 20
-779.5
 30
0.0
  0
SEQEND
  5
189
100
AcDbEntity
  8
OBJECT
  6
CONTINUOUS
  0
POLYLINE
  5
18A
100
AcDbEntity
  8
OBJECT
  6
CONTINUOUS
100
AcDb2dPolyline
 66
               1
 10
0.0
 20
0.0
 30
0.0
 70
               1
 75
               5
  0
VERTEX
  5
18B
100
AcDbEntity
  8
OBJECT
  6
CONTINUOUS
100
AcDbVertex
100
AcDb2dVertex
 10
604.0
 20
-779.5
 30
0.0
  0
VERTEX
  5
18C
100
AcDbEntity
  8
OBJECT
  6
CONTINUOUS
100
AcDbVertex
100
AcDb2dVertex
 10
996.0
 20
-779.5
 30
0.0
  0
VERTEX
  5
18D
100
AcDbEntity
  8
OBJECT
  6
CONTINUOUS
100
AcDbVertex
100
AcDb2dVertex
 10
996.0
 20
-781.0
 30
0.0
  0
VERTEX
  5
18E
100
AcDbEntity
  8
OBJECT
  6
CONTINUOUS
100
AcDbVertex
100
AcDb2dVertex
 10
604.0
 20
-781.0
 30
0.0
  0
SEQEND
  5
18F
100
AcDbEntity
  8
OBJECT
  6
CONTINUOUS
  0
POLYLINE
  5
190
100
AcDbEntity
  8
OBJECT
  6
CONTINUOUS
100
AcDb2dPolyline
 66
               1
 10
0.0
 20
0.0
 30
0.0
 70
               1
 75
               5
  0
VERTEX
  5
191
100
AcDbEntity
  8
OBJECT
  6
CONTINUOUS
100
AcDbVertex
100
AcDb2dVertex
 10
962.0
 20
-69.5
 30
0.0
  0
VERTEX
  5
192
100
AcDbEntity
  8
OBJECT
  6
CONTINUOUS
100
AcDbVertex
100
AcDb2dVertex
 10
997.0
 20
-69.5
 30
0.0
  0
VERTEX
  5
193
100
AcDbEntity
  8
OBJECT
  6
CONTINUOUS
100
AcDbVertex
100
AcDb2dVertex
 10
997.0
 20
-779.5
 30
0.0
  0
VERTEX
  5
194
100
AcDbEntity
  8
OBJECT
  6
CONTINUOUS
100
AcDbVertex
100
AcDb2dVertex
 10
962.0
 20
-779.5
 30
0.0
  0
SEQEND
  5
195
100
AcDbEntity
  8
OBJECT
  6
CONTINUOUS
  0
POLYLINE
  5
196
100
AcDbEntity
  8
OBJECT
  6
CONTINUOUS
100
AcDb2dPolyline
 66
               1
 10
0.0
 20
0.0
 30
0.0
 70
               1
 75
               5
  0
VERTEX
  5
197
100
AcDbEntity
  8
OBJECT
  6
CONTINUOUS
100
AcDbVertex
100
AcDb2dVertex
 10
638.0
 20
-69.5
 30
0.0
  0
VERTEX
  5
198
100
AcDbEntity
  8
OBJECT
  6
CONTINUOUS
100
AcDbVertex
100
AcDb2dVertex
 10
962.0
 20
-69.5
 30
0.0
  0
VERTEX
  5
199
100
AcDbEntity
  8
OBJECT
  6
CONTINUOUS
100
AcDbVertex
100
AcDb2dVertex
 10
962.0
 20
-99.5
 30
0.0
  0
VERTEX
  5
19A
100
AcDbEntity
  8
OBJECT
  6
CONTINUOUS
100
AcDbVertex
100
AcDb2dVertex
 10
638.0
 20
-99.5
 30
0.0
  0
SEQEND
  5
19B
100
AcDbEntity
  8
OBJECT
  6
CONTINUOUS
  0
LWPOLYLINE
  5
19C
100
AcDbEntity
  8
OBJECT
  6
CONTINUOUS
100
AcDbPolyline
 90
       10
 70
             129
 10
663.5
 20
-845.5
 42
0.414213562373095
 10
661.5
 20
-847.5
 10
661.5
 20
-860.5
 42
0.414213562373095
 10
663.5
 20
-862.5
 10
664.5
 20
-862.5
 10
664.5
 20
-855.5
 10
679.5
 20
-855.5
 42
0.414213562373095
 10
681.5
 20
-853.5
 10
681.5
 20
-847.5
 42
0.414213562373095
 10
679.5
 20
-845.5
  0
POLYLINE
  5
19D
100
AcDbEntity
  8
OBJECT
  6
CONTINUOUS
100
AcDb2dPolyline
 66
               1
 10
0.0
 20
0.0
 30
0.0
 70
               1
 75
               5
  0
VERTEX
  5
19E
100
AcDbEntity
  8
OBJECT
  6
CONTINUOUS
100
AcDbVertex
100
AcDb2dVertex
 10
676.0
 20
-781.0
 30
0.0
  0
VERTEX
  5
19F
100
AcDbEntity
  8
OBJECT
  6
CONTINUOUS
100
AcDbVertex
100
AcDb2dVertex
 10
606.0
 20
-781.0
 30
0.0
  0
VERTEX
  5
1A0
100
AcDbEntity
  8
OBJECT
  6
CONTINUOUS
100
AcDbVertex
100
AcDb2dVertex
 10
606.0
 20
-784.0
 30
0.0
  0
VERTEX
  5
1A1
100
AcDbEntity
  8
OBJECT
  6
CONTINUOUS
100
AcDbVertex
100
AcDb2dVertex
 10
676.0
 20
-784.0
 30
0.0
  0
SEQEND
  5
1A2
100
AcDbEntity
  8
OBJECT
  6
CONTINUOUS
  0
POLYLINE
  5
1A3
100
AcDbEntity
  8
OBJECT
  6
CONTINUOUS
100
AcDb2dPolyline
 66
               1
 10
0.0
 20
0.0
 30
0.0
 70
               1
 75
               5
  0
VERTEX
  5
1A4
100
AcDbEntity
  8
OBJECT
  6
CONTINUOUS
100
AcDbVertex
100
AcDb2dVertex
 10
667.5
 20
-784.0
 30
0.0
  0
VERTEX
  5
1A5
100
AcDbEntity
  8
OBJECT
  6
CONTINUOUS
100
AcDbVertex
100
AcDb2dVertex
 10
614.5
 20
-784.0
 30
0.0
  0
VERTEX
  5
1A6
100
AcDbEntity
  8
OBJECT
  6
CONTINUOUS
100
AcDbVertex
100
AcDb2dVertex
 10
618.5
 20
-787.5
 30
0.0
  0
VERTEX
  5
1A7
100
AcDbEntity
  8
OBJECT
  6
CONTINUOUS
100
AcDbVertex
100
AcDb2dVertex
 10
618.5
 20
-791.0
 30
0.0
  0
VERTEX
  5
1A8
100
AcDbEntity
  8
OBJECT
  6
CONTINUOUS
100
AcDbVertex
100
AcDb2dVertex
 10
663.5
 20
-791.0
 30
0.0
  0
VERTEX
  5
1A9
100
AcDbEntity
  8
OBJECT
  6
CONTINUOUS
100
AcDbVertex
100
AcDb2dVertex
 10
663.5
 20
-787.5
 30
0.0
  0
SEQEND
  5
1AA
100
AcDbEntity
  8
OBJECT
  6
CONTINUOUS
  0
LINE
  5
1AB
100
AcDbEntity
  8
OBJECT
  6
CONTINUOUS
100
AcDbLine
 10
663.5
 20
-787.5
 30
0.0
 11
618.5
 21
-787.5
 31
0.0
  0
SPLINE
  5
1AC
100
AcDbEntity
  8
OBJECT
  6
CONTINUOUS
100
AcDbSpline
210
0.0
220
0.0
230
1.0
 70
               9
 71
               2
 72
              28
 73
              25
 74
               0
 42
0.000001
 43
0.000001
 40
0.0
 40
0.0
 40
0.0
 40
0.1364451216774349
 40
0.1364451216774349
 40
0.206088985866959
 40
0.206088985866959
 40
0.2868044973790079
 40
0.2868044973790079
 40
0.3351288113064328
 40
0.3351288113064328
 40
0.3436566314112725
 40
0.3436566314112725
 40
0.525583460314519
 40
0.525583460314519
 40
0.6108616613629158
 40
0.6108616613629158
 40
0.7927884902661623
 40
0.7927884902661623
 40
0.8013163103710019
 40
0.8013163103710019
 40
0.8496406242984268
 40
0.8496406242984268
 40
0.9303561358104757
 40
0.9303561358104757
 40
1.0
 40
1.0
 40
1.0
 10
617.0
 20
-791.0
 30
0.0
 10
641.0
 20
-791.0
 30
0.0
 10
665.0
 20
-791.0
 30
0.0
 10
665.0
 20
-803.25
 30
0.0
 10
665.0
 20
-815.5
 30
0.0
 10
665.0
 20
-830.5
 30
0.0
 10
659.0
 20
-843.0
 30
0.0
 10
659.0
 20
-851.5
 30
0.0
 10
659.0
 20
-860.0
 30
0.0
 10
657.5
 20
-860.0
 30
0.0
 10
656.0
 20
-860.0
 30
0.0
 10
656.0
 20
-828.0
 30
0.0
 10
656.0
 20
-796.0
 30
0.0
 10
641.0
 20
-796.0
 30
0.0
 10
626.0
 20
-796.0
 30
0.0
 10
626.0
 20
-828.0
 30
0.0
 10
626.0
 20
-860.0
 30
0.0
 10
624.5
 20
-860.0
 30
0.0
 10
623.0
 20
-860.0
 30
0.0
 10
623.0
 20
-851.5
 30
0.0
 10
623.0
 20
-843.0
 30
0.0
 10
617.0
 20
-830.5
 30
0.0
 10
617.0
 20
-815.5
 30
0.0
 10
617.0
 20
-803.25
 30
0.0
 10
617.0
 20
-791.0
 30
0.0
  0
POLYLINE
  5
1AD
100
AcDbEntity
  8
OBJECT
  6
CONTINUOUS
100
AcDb2dPolyline
 66
               1
 10
0.0
 20
0.0
 30
0.0
 70
               1
 75
               5
  0
VERTEX
  5
1AE
100
AcDbEntity
  8
OBJECT
  6
CONTINUOUS
100
AcDbVertex
100
AcDb2dVertex
 10
623.0
 20
-793.0
 30
0.0
  0
VERTEX
  5
1AF
100
AcDbEntity
  8
OBJECT
  6
CONTINUOUS
100
AcDbVertex
100
AcDb2dVertex
 10
659.0
 20
-793.0
 30
0.0
  0
VERTEX
  5
1B0
100
AcDbEntity
  8
OBJECT
  6
CONTINUOUS
100
AcDbVertex
100
AcDb2dVertex
 10
659.0
 20
-860.0
 30
0.0
  0
VERTEX
  5
1B1
100
AcDbEntity
  8
OBJECT
  6
CONTINUOUS
100
AcDbVertex
100
AcDb2dVertex
 10
656.0
 20
-860.0
 30
0.0
  0
VERTEX
  5
1B2
100
AcDbEntity
  8
OBJECT
  6
CONTINUOUS
100
AcDbVertex
100
AcDb2dVertex
 10
656.0
 20
-796.0
 30
0.0
  0
VERTEX
  5
1B3
100
AcDbEntity
  8
OBJECT
  6
CONTINUOUS
100
AcDbVertex
100
AcDb2dVertex
 10
626.0
 20
-796.0
 30
0.0
  0
VERTEX
  5
1B4
100
AcDbEntity
  8
OBJECT
  6
CONTINUOUS
100
AcDbVertex
100
AcDb2dVertex
 10
626.0
 20
-860.0
 30
0.0
  0
VERTEX
  5
1B5
100
AcDbEntity
  8
OBJECT
  6
CONTINUOUS
100
AcDbVertex
100
AcDb2dVertex
 10
623.0
 20
-860.0
 30
0.0
  0
SEQEND
  5
1B6
100
AcDbEntity
  8
OBJECT
  6
CONTINUOUS
  0
SPLINE
  5
1B7
100
AcDbEntity
  8
OBJECT
  6
CONTINUOUS
100
AcDbSpline
210
0.0
220
0.0
230
1.0
 70
              13
 71
               2
 72
              28
 73
              25
 74
               0
 42
0.000001
 43
0.000001
 40
0.0
 40
0.0
 40
0.0
 40
0.0116664369471643
 40
0.0116664369471643
 40
0.0307673121208422
 40
0.0307673121208422
 40
0.0826383042797582
 40
0.0826383042797582
 40
0.1017391794534361
 40
0.1017391794534361
 40
0.1134056164006008
 40
0.1134056164006008
 40
0.5000000000000009
 40
0.5000000000000009
 40
0.5116664369471652
 40
0.5116664369471652
 40
0.5307673121208431
 40
0.5307673121208431
 40
0.5826383042797592
 40
0.5826383042797592
 40
0.601739179453437
 40
0.601739179453437
 40
0.6134056164006008
 40
0.6134056164006008
 40
1.0
 40
1.0
 40
1.0
 10
628.5
 20
-803.20543822418756
 30
0.0
 41
1.0
 10
628.5
 20
-801.50000000000011
 30
0.0
 41
0.7609173743274202
 10
630.18401899778667
 20
-801.23055696035419
 30
0.0
 41
1.0
 10
632.46700949889328
 20
-800.86527848017704
 30
0.0
 41
1.0
 10
634.75
 20
-800.5
 30
0.0
 41
1.0
 10
641.0
 20
-799.5
 30
0.0
 41
1.0
 10
647.25
 20
-800.5
 30
0.0
 41
1.0
 10
649.53299050110672
 20
-800.86527848017704
 30
0.0
 41
1.0
 10
651.81598100221333
 20
-801.23055696035408
 30
0.0
 41
1.0
 10
653.5
 20
-801.49999999999989
 30
0.0
 41
0.7609173743274202
 10
653.5
 20
-803.20543822418745
 30
0.0
 41
1.0
 10
653.5
 20
-850.0
 30
0.0
 41
1.0
 10
653.5
 20
-896.79456177581255
 30
0.0
 41
1.0
 10
653.49999999999977
 20
-898.50000000000011
 30
0.0
 41
0.7609173743274694
 10
651.81598100221333
 20
-898.76944303964592
 30
0.0
 41
1.0
 10
649.53299050110672
 20
-899.13472151982296
 30
0.0
 41
1.0
 10
647.25
 20
-899.5
 30
0.0
 41
1.0
 10
641.0
 20
-900.5
 30
0.0
 41
1.0
 10
634.75
 20
-899.5
 30
0.0
 41
1.0
 10
632.46700949889328
 20
-899.13472151982296
 30
0.0
 41
1.0
 10
630.18401899778667
 20
-898.76944303964581
 30
0.0
 41
1.0
 10
628.5
 20
-898.5
 30
0.0
 41
0.7609173743274202
 10
628.5
 20
-896.79456177581244
 30
0.0
 41
1.0
 10
628.5
 20
-850.0
 30
0.0
 41
1.0
 10
628.5
 20
-803.20543822418756
 30
0.0
 41
1.0
  0
POLYLINE
  5
1B8
100
AcDbEntity
  8
OBJECT
  6
CONTINUOUS
100
AcDb2dPolyline
 66
               1
 10
0.0
 20
0.0
 30
0.0
 70
               1
 75
               5
  0
VERTEX
  5
1B9
100
AcDbEntity
  8
OBJECT
  6
CONTINUOUS
100
AcDbVertex
100
AcDb2dVertex
 10
653.5
 20
-841.75
 30
0.0
  0
VERTEX
  5
1BA
100
AcDbEntity
  8
OBJECT
  6
CONTINUOUS
100
AcDbVertex
100
AcDb2dVertex
 10
656.0
 20
-841.75
 30
0.0
  0
VERTEX
  5
1BB
100
AcDbEntity
  8
OBJECT
  6
CONTINUOUS
100
AcDbVertex
100
AcDb2dVertex
 10
656.0
 20
-858.25
 30
0.0
  0
VERTEX
  5
1BC
100
AcDbEntity
  8
OBJECT
  6
CONTINUOUS
100
AcDbVertex
100
AcDb2dVertex
 10
653.5
 20
-858.25
 30
0.0
  0
SEQEND
  5
1BD
100
AcDbEntity
  8
OBJECT
  6
CONTINUOUS
  0
POLYLINE
  5
1BE
100
AcDbEntity
  8
OBJECT
  6
CONTINUOUS
100
AcDb2dPolyline
 66
               1
 10
0.0
 20
0.0
 30
0.0
 70
               1
 75
               5
  0
VERTEX
  5
1BF
100
AcDbEntity
  8
OBJECT
  6
CONTINUOUS
100
AcDbVertex
100
AcDb2dVertex
 10
626.0
 20
-841.75
 30
0.0
  0
VERTEX
  5
1C0
100
AcDbEntity
  8
OBJECT
  6
CONTINUOUS
100
AcDbVertex
100
AcDb2dVertex
 10
628.5
 20
-841.75
 30
0.0
  0
VERTEX
  5
1C1
100
AcDbEntity
  8
OBJECT
  6
CONTINUOUS
100
AcDbVertex
100
AcDb2dVertex
 10
628.5
 20
-858.25
 30
0.0
  0
VERTEX
  5
1C2
100
AcDbEntity
  8
OBJECT
  6
CONTINUOUS
100
AcDbVertex
100
AcDb2dVertex
 10
626.0
 20
-858.25
 30
0.0
  0
SEQEND
  5
1C3
100
AcDbEntity
  8
OBJECT
  6
CONTINUOUS
  0
POLYLINE
  5
1C4
100
AcDbEntity
  8
OBJECT
  6
CONTINUOUS
100
AcDb2dPolyline
 66
               1
 10
0.0
 20
0.0
 30
0.0
 70
               1
 75
               5
  0
VERTEX
  5
1C5
100
AcDbEntity
  8
OBJECT
  6
CONTINUOUS
100
AcDbVertex
100
AcDb2dVertex
 10
620.5
 20
-844.5
 30
0.0
  0
VERTEX
  5
1C6
100
AcDbEntity
  8
OBJECT
  6
CONTINUOUS
100
AcDbVertex
100
AcDb2dVertex
 10
623.0
 20
-844.5
 30
0.0
  0
VERTEX
  5
1C7
100
AcDbEntity
  8
OBJECT
  6
CONTINUOUS
100
AcDbVertex
100
AcDb2dVertex
 10
623.0
 20
-855.5
 30
0.0
  0
VERTEX
  5
1C8
100
AcDbEntity
  8
OBJECT
  6
CONTINUOUS
100
AcDbVertex
100
AcDb2dVertex
 10
620.5
 20
-855.5
 30
0.0
  0
SEQEND
  5
1C9
100
AcDbEntity
  8
OBJECT
  6
CONTINUOUS
  0
POLYLINE
  5
1CA
100
AcDbEntity
  8
OBJECT
  6
CONTINUOUS
100
AcDb2dPolyline
 66
               1
 10
0.0
 20
0.0
 30
0.0
 70
               1
 75
               5
  0
VERTEX
  5
1CB
100
AcDbEntity
  8
OBJECT
  6
CONTINUOUS
100
AcDbVertex
100
AcDb2dVertex
 10
659.0
 20
-844.5
 30
0.0
  0
VERTEX
  5
1CC
100
AcDbEntity
  8
OBJECT
  6
CONTINUOUS
100
AcDbVertex
100
AcDb2dVertex
 10
661.5
 20
-844.5
 30
0.0
  0
VERTEX
  5
1CD
100
AcDbEntity
  8
OBJECT
  6
CONTINUOUS
100
AcDbVertex
100
AcDb2dVertex
 10
661.5
 20
-855.5
 30
0.0
  0
VERTEX
  5
1CE
100
AcDbEntity
  8
OBJECT
  6
CONTINUOUS
100
AcDbVertex
100
AcDb2dVertex
 10
659.0
 20
-855.5
 30
0.0
  0
SEQEND
  5
1CF
100
AcDbEntity
  8
OBJECT
  6
CONTINUOUS
  0
POLYLINE
  5
1D0
100
AcDbEntity
  8
OBJECT
  6
CONTINUOUS
100
AcDb2dPolyline
 66
               1
 10
0.0
 20
0.0
 30
0.0
 70
               1
 75
               5
  0
VERTEX
  5
1D1
100
AcDbEntity
  8
OBJECT
  6
CONTINUOUS
100
AcDbVertex
100
AcDb2dVertex
 10
661.5
 20
-837.5
 30
0.0
  0
VERTEX
  5
1D2
100
AcDbEntity
  8
OBJECT
  6
CONTINUOUS
100
AcDbVertex
100
AcDb2dVertex
 10
661.5
 20
-862.5
 30
0.0
  0
VERTEX
  5
1D3
100
AcDbEntity
  8
OBJECT
  6
CONTINUOUS
100
AcDbVertex
100
AcDb2dVertex
 10
664.5
 20
-862.5
 30
0.0
  0
VERTEX
  5
1D4
100
AcDbEntity
  8
OBJECT
  6
CONTINUOUS
100
AcDbVertex
100
AcDb2dVertex
 10
664.5
 20
-840.5
 30
0.0
  0
VERTEX
  5
1D5
100
AcDbEntity
  8
OBJECT
  6
CONTINUOUS
100
AcDbVertex
100
AcDb2dVertex
 10
681.5
 20
-840.5
 30
0.0
  0
VERTEX
  5
1D6
100
AcDbEntity
  8
OBJECT
  6
CONTINUOUS
100
AcDbVertex
100
AcDb2dVertex
 10
681.5
 20
-837.5
 30
0.0
  0
SEQEND
  5
1D7
100
AcDbEntity
  8
OBJECT
  6
CONTINUOUS
  0
LINE
  5
1D8
100
AcDbEntity
  8
OBJECT
  6
CONTINUOUS
100
AcDbLine
 10
679.5
 20
-848.5
 30
0.0
 11
664.5
 21
-848.5
 31
0.0
  0
ARC
  5
1D9
100
AcDbEntity
  8
OBJECT
  6
CONTINUOUS
100
AcDbCircle
 10
679.5
 20
-850.5
 30
0.0
 40
2.0
100
AcDbArc
 50
0.0
 51
90.0
  0
LWPOLYLINE
  5
1DA
100
AcDbEntity
  8
OBJECT
  6
CONTINUOUS
100
AcDbPolyline
 90
       10
 70
             129
 10
981.5
 20
-845.5
 42
0.414213562373095
 10
979.5
 20
-847.5
 10
979.5
 20
-860.5
 42
0.414213562373095
 10
981.5
 20
-862.5
 10
982.5
 20
-862.5
 10
982.5
 20
-855.5
 10
997.5
 20
-855.5
 42
0.414213562373095
 10
999.5
 20
-853.5
 10
999.5
 20
-847.5
 42
0.414213562373095
 10
997.5
 20
-845.5
  0
POLYLINE
  5
1DB
100
AcDbEntity
  8
OBJECT
  6
CONTINUOUS
100
AcDb2dPolyline
 66
               1
 10
0.0
 20
0.0
 30
0.0
 70
               1
 75
               5
  0
VERTEX
  5
1DC
100
AcDbEntity
  8
OBJECT
  6
CONTINUOUS
100
AcDbVertex
100
AcDb2dVertex
 10
994.0
 20
-781.0
 30
0.0
  0
VERTEX
  5
1DD
100
AcDbEntity
  8
OBJECT
  6
CONTINUOUS
100
AcDbVertex
100
AcDb2dVertex
 10
924.0
 20
-781.0
 30
0.0
  0
VERTEX
  5
1DE
100
AcDbEntity
  8
OBJECT
  6
CONTINUOUS
100
AcDbVertex
100
AcDb2dVertex
 10
924.0
 20
-784.0
 30
0.0
  0
VERTEX
  5
1DF
100
AcDbEntity
  8
OBJECT
  6
CONTINUOUS
100
AcDbVertex
100
AcDb2dVertex
 10
994.0
 20
-784.0
 30
0.0
  0
SEQEND
  5
1E0
100
AcDbEntity
  8
OBJECT
  6
CONTINUOUS
  0
POLYLINE
  5
1E1
100
AcDbEntity
  8
OBJECT
  6
CONTINUOUS
100
AcDb2dPolyline
 66
               1
 10
0.0
 20
0.0
 30
0.0
 70
               1
 75
               5
  0
VERTEX
  5
1E2
100
AcDbEntity
  8
OBJECT
  6
CONTINUOUS
100
AcDbVertex
100
AcDb2dVertex
 10
985.5
 20
-784.0
 30
0.0
  0
VERTEX
  5
1E3
100
AcDbEntity
  8
OBJECT
  6
CONTINUOUS
100
AcDbVertex
100
AcDb2dVertex
 10
932.5
 20
-784.0
 30
0.0
  0
VERTEX
  5
1E4
100
AcDbEntity
  8
OBJECT
  6
CONTINUOUS
100
AcDbVertex
100
AcDb2dVertex
 10
936.5
 20
-787.5
 30
0.0
  0
VERTEX
  5
1E5
100
AcDbEntity
  8
OBJECT
  6
CONTINUOUS
100
AcDbVertex
100
AcDb2dVertex
 10
936.5
 20
-791.0
 30
0.0
  0
VERTEX
  5
1E6
100
AcDbEntity
  8
OBJECT
  6
CONTINUOUS
100
AcDbVertex
100
AcDb2dVertex
 10
981.5
 20
-791.0
 30
0.0
  0
VERTEX
  5
1E7
100
AcDbEntity
  8
OBJECT
  6
CONTINUOUS
100
AcDbVertex
100
AcDb2dVertex
 10
981.5
 20
-787.5
 30
0.0
  0
SEQEND
  5
1E8
100
AcDbEntity
  8
OBJECT
  6
CONTINUOUS
  0
LINE
  5
1E9
100
AcDbEntity
  8
OBJECT
  6
CONTINUOUS
100
AcDbLine
 10
981.5
 20
-787.5
 30
0.0
 11
936.5
 21
-787.5
 31
0.0
  0
SPLINE
  5
1EA
100
AcDbEntity
  8
OBJECT
  6
CONTINUOUS
100
AcDbSpline
210
0.0
220
0.0
230
1.0
 70
               9
 71
               2
 72
              28
 73
              25
 74
               0
 42
0.000001
 43
0.000001
 40
0.0
 40
0.0
 40
0.0
 40
0.1364451216774349
 40
0.1364451216774349
 40
0.206088985866959
 40
0.206088985866959
 40
0.2868044973790079
 40
0.2868044973790079
 40
0.3351288113064328
 40
0.3351288113064328
 40
0.3436566314112725
 40
0.3436566314112725
 40
0.525583460314519
 40
0.525583460314519
 40
0.6108616613629158
 40
0.6108616613629158
 40
0.7927884902661623
 40
0.7927884902661623
 40
0.8013163103710019
 40
0.8013163103710019
 40
0.8496406242984268
 40
0.8496406242984268
 40
0.9303561358104757
 40
0.9303561358104757
 40
1.0
 40
1.0
 40
1.0
 10
935.0
 20
-791.0
 30
0.0
 10
959.0
 20
-791.0
 30
0.0
 10
983.0
 20
-791.0
 30
0.0
 10
983.0
 20
-803.25
 30
0.0
 10
983.0
 20
-815.5
 30
0.0
 10
983.0
 20
-830.5
 30
0.0
 10
977.0
 20
-843.0
 30
0.0
 10
977.0
 20
-851.5
 30
0.0
 10
977.0
 20
-860.0
 30
0.0
 10
975.5
 20
-860.0
 30
0.0
 10
974.0
 20
-860.0
 30
0.0
 10
974.0
 20
-828.0
 30
0.0
 10
974.0
 20
-796.0
 30
0.0
 10
959.0
 20
-796.0
 30
0.0
 10
944.0
 20
-796.0
 30
0.0
 10
944.0
 20
-828.0
 30
0.0
 10
944.0
 20
-860.0
 30
0.0
 10
942.5
 20
-860.0
 30
0.0
 10
941.0
 20
-860.0
 30
0.0
 10
941.0
 20
-851.5
 30
0.0
 10
941.0
 20
-843.0
 30
0.0
 10
935.0
 20
-830.5
 30
0.0
 10
935.0
 20
-815.5
 30
0.0
 10
935.0
 20
-803.25
 30
0.0
 10
935.0
 20
-791.0
 30
0.0
  0
POLYLINE
  5
1EB
100
AcDbEntity
  8
OBJECT
  6
CONTINUOUS
100
AcDb2dPolyline
 66
               1
 10
0.0
 20
0.0
 30
0.0
 70
               1
 75
               5
  0
VERTEX
  5
1EC
100
AcDbEntity
  8
OBJECT
  6
CONTINUOUS
100
AcDbVertex
100
AcDb2dVertex
 10
941.0
 20
-793.0
 30
0.0
  0
VERTEX
  5
1ED
100
AcDbEntity
  8
OBJECT
  6
CONTINUOUS
100
AcDbVertex
100
AcDb2dVertex
 10
977.0
 20
-793.0
 30
0.0
  0
VERTEX
  5
1EE
100
AcDbEntity
  8
OBJECT
  6
CONTINUOUS
100
AcDbVertex
100
AcDb2dVertex
 10
977.0
 20
-860.0
 30
0.0
  0
VERTEX
  5
1EF
100
AcDbEntity
  8
OBJECT
  6
CONTINUOUS
100
AcDbVertex
100
AcDb2dVertex
 10
974.0
 20
-860.0
 30
0.0
  0
VERTEX
  5
1F0
100
AcDbEntity
  8
OBJECT
  6
CONTINUOUS
100
AcDbVertex
100
AcDb2dVertex
 10
974.0
 20
-796.0
 30
0.0
  0
VERTEX
  5
1F1
100
AcDbEntity
  8
OBJECT
  6
CONTINUOUS
100
AcDbVertex
100
AcDb2dVertex
 10
944.0
 20
-796.0
 30
0.0
  0
VERTEX
  5
1F2
100
AcDbEntity
  8
OBJECT
  6
CONTINUOUS
100
AcDbVertex
100
AcDb2dVertex
 10
944.0
 20
-860.0
 30
0.0
  0
VERTEX
  5
1F3
100
AcDbEntity
  8
OBJECT
  6
CONTINUOUS
100
AcDbVertex
100
AcDb2dVertex
 10
941.0
 20
-860.0
 30
0.0
  0
SEQEND
  5
1F4
100
AcDbEntity
  8
OBJECT
  6
CONTINUOUS
  0
SPLINE
  5
1F5
100
AcDbEntity
  8
OBJECT
  6
CONTINUOUS
100
AcDbSpline
210
0.0
220
0.0
230
1.0
 70
              13
 71
               2
 72
              28
 73
              25
 74
               0
 42
0.000001
 43
0.000001
 40
0.0
 40
0.0
 40
0.0
 40
0.0116664369471642
 40
0.0116664369471642
 40
0.030767312120842
 40
0.030767312120842
 40
0.082638304279758
 40
0.082638304279758
 40
0.1017391794534359
 40
0.1017391794534359
 40
0.1134056164006004
 40
0.1134056164006004
 40
0.4999999999999993
 40
0.4999999999999993
 40
0.5116664369471637
 40
0.5116664369471637
 40
0.5307673121208416
 40
0.5307673121208416
 40
0.5826383042797576
 40
0.5826383042797576
 40
0.6017391794534354
 40
0.6017391794534354
 40
0.6134056164006
 40
0.6134056164006
 40
1.0
 40
1.0
 40
1.0
 10
946.5
 20
-803.20543822418745
 30
0.0
 41
1.0
 10
946.50000000000034
 20
-801.5
 30
0.0
 41
0.7609173743275032
 10
948.18401899778667
 20
-801.23055696035408
 30
0.0
 41
1.0
 10
950.46700949889328
 20
-800.86527848017704
 30
0.0
 41
1.0
 10
952.75
 20
-800.5
 30
0.0
 41
1.0
 10
959.0
 20
-799.5
 30
0.0
 41
1.0
 10
965.25
 20
-800.5
 30
0.0
 41
1.0
 10
967.53299050110672
 20
-800.86527848017704
 30
0.0
 41
1.0
 10
969.81598100221333
 20
-801.23055696035419
 30
0.0
 41
1.0
 10
971.5
 20
-801.5
 30
0.0
 41
0.7609173743274019
 10
971.5
 20
-803.20543822418756
 30
0.0
 41
1.0
 10
971.5
 20
-850.0
 30
0.0
 41
1.0
 10
971.5
 20
-896.79456177581244
 30
0.0
 41
1.0
 10
971.5
 20
-898.5
 30
0.0
 41
0.7609173743274019
 10
969.81598100221333
 20
-898.76944303964581
 30
0.0
 41
1.0
 10
967.53299050110672
 20
-899.13472151982296
 30
0.0
 41
1.0
 10
965.25
 20
-899.5
 30
0.0
 41
1.0
 10
959.0
 20
-900.5
 30
0.0
 41
1.0
 10
952.75
 20
-899.5
 30
0.0
 41
1.0
 10
950.46700949889328
 20
-899.13472151982296
 30
0.0
 41
1.0
 10
948.18401899778667
 20
-898.76944303964592
 30
0.0
 41
1.0
 10
946.5
 20
-898.50000000000011
 30
0.0
 41
0.7609173743274019
 10
946.5
 20
-896.79456177581255
 30
0.0
 41
1.0
 10
946.5
 20
-850.0
 30
0.0
 41
1.0
 10
946.5
 20
-803.20543822418745
 30
0.0
 41
1.0
  0
POLYLINE
  5
1F6
100
AcDbEntity
  8
OBJECT
  6
CONTINUOUS
100
AcDb2dPolyline
 66
               1
 10
0.0
 20
0.0
 30
0.0
 70
               1
 75
               5
  0
VERTEX
  5
1F7
100
AcDbEntity
  8
OBJECT
  6
CONTINUOUS
100
AcDbVertex
100
AcDb2dVertex
 10
971.5
 20
-841.75
 30
0.0
  0
VERTEX
  5
1F8
100
AcDbEntity
  8
OBJECT
  6
CONTINUOUS
100
AcDbVertex
100
AcDb2dVertex
 10
974.0
 20
-841.75
 30
0.0
  0
VERTEX
  5
1F9
100
AcDbEntity
  8
OBJECT
  6
CONTINUOUS
100
AcDbVertex
100
AcDb2dVertex
 10
974.0
 20
-858.25
 30
0.0
  0
VERTEX
  5
1FA
100
AcDbEntity
  8
OBJECT
  6
CONTINUOUS
100
AcDbVertex
100
AcDb2dVertex
 10
971.5
 20
-858.25
 30
0.0
  0
SEQEND
  5
1FB
100
AcDbEntity
  8
OBJECT
  6
CONTINUOUS
  0
POLYLINE
  5
1FC
100
AcDbEntity
  8
OBJECT
  6
CONTINUOUS
100
AcDb2dPolyline
 66
               1
 10
0.0
 20
0.0
 30
0.0
 70
               1
 75
               5
  0
VERTEX
  5
1FD
100
AcDbEntity
  8
OBJECT
  6
CONTINUOUS
100
AcDbVertex
100
AcDb2dVertex
 10
944.0
 20
-841.75
 30
0.0
  0
VERTEX
  5
1FE
100
AcDbEntity
  8
OBJECT
  6
CONTINUOUS
100
AcDbVertex
100
AcDb2dVertex
 10
946.5
 20
-841.75
 30
0.0
  0
VERTEX
  5
1FF
100
AcDbEntity
  8
OBJECT
  6
CONTINUOUS
100
AcDbVertex
100
AcDb2dVertex
 10
946.5
 20
-858.25
 30
0.0
  0
VERTEX
  5
200
100
AcDbEntity
  8
OBJECT
  6
CONTINUOUS
100
AcDbVertex
100
AcDb2dVertex
 10
944.0
 20
-858.25
 30
0.0
  0
SEQEND
  5
201
100
AcDbEntity
  8
OBJECT
  6
CONTINUOUS
  0
POLYLINE
  5
202
100
AcDbEntity
  8
OBJECT
  6
CONTINUOUS
100
AcDb2dPolyline
 66
               1
 10
0.0
 20
0.0
 30
0.0
 70
               1
 75
               5
  0
VERTEX
  5
203
100
AcDbEntity
  8
OBJECT
  6
CONTINUOUS
100
AcDbVertex
100
AcDb2dVertex
 10
938.5
 20
-844.5
 30
0.0
  0
VERTEX
  5
204
100
AcDbEntity
  8
OBJECT
  6
CONTINUOUS
100
AcDbVertex
100
AcDb2dVertex
 10
941.0
 20
-844.5
 30
0.0
  0
VERTEX
  5
205
100
AcDbEntity
  8
OBJECT
  6
CONTINUOUS
100
AcDbVertex
100
AcDb2dVertex
 10
941.0
 20
-855.5
 30
0.0
  0
VERTEX
  5
206
100
AcDbEntity
  8
OBJECT
  6
CONTINUOUS
100
AcDbVertex
100
AcDb2dVertex
 10
938.5
 20
-855.5
 30
0.0
  0
SEQEND
  5
207
100
AcDbEntity
  8
OBJECT
  6
CONTINUOUS
  0
POLYLINE
  5
208
100
AcDbEntity
  8
OBJECT
  6
CONTINUOUS
100
AcDb2dPolyline
 66
               1
 10
0.0
 20
0.0
 30
0.0
 70
               1
 75
               5
  0
VERTEX
  5
209
100
AcDbEntity
  8
OBJECT
  6
CONTINUOUS
100
AcDbVertex
100
AcDb2dVertex
 10
977.0
 20
-844.5
 30
0.0
  0
VERTEX
  5
20A
100
AcDbEntity
  8
OBJECT
  6
CONTINUOUS
100
AcDbVertex
100
AcDb2dVertex
 10
979.5
 20
-844.5
 30
0.0
  0
VERTEX
  5
20B
100
AcDbEntity
  8
OBJECT
  6
CONTINUOUS
100
AcDbVertex
100
AcDb2dVertex
 10
979.5
 20
-855.5
 30
0.0
  0
VERTEX
  5
20C
100
AcDbEntity
  8
OBJECT
  6
CONTINUOUS
100
AcDbVertex
100
AcDb2dVertex
 10
977.0
 20
-855.5
 30
0.0
  0
SEQEND
  5
20D
100
AcDbEntity
  8
OBJECT
  6
CONTINUOUS
  0
POLYLINE
  5
20E
100
AcDbEntity
  8
OBJECT
  6
CONTINUOUS
100
AcDb2dPolyline
 66
               1
 10
0.0
 20
0.0
 30
0.0
 70
               1
 75
               5
  0
VERTEX
  5
20F
100
AcDbEntity
  8
OBJECT
  6
CONTINUOUS
100
AcDbVertex
100
AcDb2dVertex
 10
979.5
 20
-837.5
 30
0.0
  0
VERTEX
  5
210
100
AcDbEntity
  8
OBJECT
  6
CONTINUOUS
100
AcDbVertex
100
AcDb2dVertex
 10
979.5
 20
-862.5
 30
0.0
  0
VERTEX
  5
211
100
AcDbEntity
  8
OBJECT
  6
CONTINUOUS
100
AcDbVertex
100
AcDb2dVertex
 10
982.5
 20
-862.5
 30
0.0
  0
VERTEX
  5
212
100
AcDbEntity
  8
OBJECT
  6
CONTINUOUS
100
AcDbVertex
100
AcDb2dVertex
 10
982.5
 20
-840.5
 30
0.0
  0
VERTEX
  5
213
100
AcDbEntity
  8
OBJECT
  6
CONTINUOUS
100
AcDbVertex
100
AcDb2dVertex
 10
999.5
 20
-840.5
 30
0.0
  0
VERTEX
  5
214
100
AcDbEntity
  8
OBJECT
  6
CONTINUOUS
100
AcDbVertex
100
AcDb2dVertex
 10
999.5
 20
-837.5
 30
0.0
  0
SEQEND
  5
215
100
AcDbEntity
  8
OBJECT
  6
CONTINUOUS
  0
LINE
  5
216
100
AcDbEntity
  8
OBJECT
  6
CONTINUOUS
100
AcDbLine
 10
997.5
 20
-848.5
 30
0.0
 11
982.5
 21
-848.5
 31
0.0
  0
ARC
  5
217
100
AcDbEntity
  8
OBJECT
  6
CONTINUOUS
100
AcDbCircle
 10
997.5
 20
-850.5
 30
0.0
 40
2.0
100
AcDbArc
 50
0.0
 51
90.0
  0
LWPOLYLINE
  5
218
100
AcDbEntity
  8
HIDDEN
  6
STYLE_16
100
AcDbPolyline
 90
        5
 70
             129
 10
962.0
 20
-104.5
 42
-0.414213562373095
 10
973.0
 20
-93.5
 42
-0.414213562373095
 10
984.0
 20
-104.5
 42
-0.414213562373095
 10
973.0
 20
-115.5
 42
-0.414213562373095
 10
962.0
 20
-104.5
 42
-0.414213562373095
  0
LINE
  5
219
100
AcDbEntity
  8
HIDDEN
  6
STYLE_16
100
AcDbLine
 10
836.0
 20
-89.5
 30
0.0
 11
986.0
 21
-89.5
 31
0.0
  0
LINE
  5
21A
100
AcDbEntity
  8
HIDDEN
  6
STYLE_16
100
AcDbLine
 10
986.0
 20
-89.5
 30
0.0
 11
986.0
 21
-269.5
 31
0.0
  0
LINE
  5
21B
100
AcDbEntity
  8
HIDDEN
  6
STYLE_16
100
AcDbLine
 10
986.0
 20
-269.5
 30
0.0
 11
836.0
 21
-269.5
 31
0.0
  0
LINE
  5
21C
100
AcDbEntity
  8
HIDDEN
  6
STYLE_16
100
AcDbLine
 10
836.0
 20
-269.5
 30
0.0
 11
826.0
 21
-259.5
 31
0.0
  0
LINE
  5
21D
100
AcDbEntity
  8
HIDDEN
  6
STYLE_16
100
AcDbLine
 10
826.0
 20
-259.5
 30
0.0
 11
826.0
 21
-99.5
 31
0.0
  0
LINE
  5
21E
100
AcDbEntity
  8
HIDDEN
  6
STYLE_16
100
AcDbLine
 10
836.0
 20
-89.5
 30
0.0
 11
826.0
 21
-99.5
 31
0.0
  0
LWPOLYLINE
  5
21F
100
AcDbEntity
  8
HIDDEN
  6
STYLE_16
100
AcDbPolyline
 90
        5
 70
             129
 10
939.0
 20
-257.5
 42
-0.414213562373095
 10
950.0
 20
-246.5
 42
-0.414213562373095
 10
961.0
 20
-257.5
 42
-0.414213562373095
 10
950.0
 20
-268.5
 42
-0.414213562373095
 10
939.0
 20
-257.5
 42
-0.414213562373095
  0
LWPOLYLINE
  5
220
100
AcDbEntity
  8
HIDDEN
  6
STYLE_16
100
AcDbPolyline
 90
        5
 70
             129
 10
616.0
 20
-614.5
 42
-0.414213562373095
 10
627.0
 20
-603.5
 42
-0.414213562373095
 10
638.0
 20
-614.5
 42
-0.414213562373095
 10
627.0
 20
-625.5
 42
-0.414213562373095
 10
616.0
 20
-614.5
 42
-0.414213562373095
  0
LINE
  5
221
100
AcDbEntity
  8
HIDDEN
  6
STYLE_16
100
AcDbLine
 10
764.0
 20
-599.5
 30
0.0
 11
614.0
 21
-599.5
 31
0.0
  0
LINE
  5
222
100
AcDbEntity
  8
HIDDEN
  6
STYLE_16
100
AcDbLine
 10
614.0
 20
-599.5
 30
0.0
 11
614.0
 21
-779.5
 31
0.0
  0
LINE
  5
223
100
AcDbEntity
  8
HIDDEN
  6
STYLE_16
100
AcDbLine
 10
614.0
 20
-779.5
 30
0.0
 11
764.0
 21
-779.5
 31
0.0
  0
LINE
  5
224
100
AcDbEntity
  8
HIDDEN
  6
STYLE_16
100
AcDbLine
 10
764.0
 20
-779.5
 30
0.0
 11
774.0
 21
-769.5
 31
0.0
  0
LINE
  5
225
100
AcDbEntity
  8
HIDDEN
  6
STYLE_16
100
AcDbLine
 10
774.0
 20
-769.5
 30
0.0
 11
774.0
 21
-609.5
 31
0.0
  0
LINE
  5
226
100
AcDbEntity
  8
HIDDEN
  6
STYLE_16
100
AcDbLine
 10
764.0
 20
-599.5
 30
0.0
 11
774.0
 21
-609.5
 31
0.0
  0
LWPOLYLINE
  5
227
100
AcDbEntity
  8
HIDDEN
  6
STYLE_16
100
AcDbPolyline
 90
        5
 70
             129
 10
639.0
 20
-767.5
 42
-0.414213562373095
 10
650.0
 20
-756.5
 42
-0.414213562373095
 10
661.0
 20
-767.5
 42
-0.414213562373095
 10
650.0
 20
-778.5
 42
-0.414213562373095
 10
639.0
 20
-767.5
 42
-0.414213562373095
  0
POLYLINE
  5
228
100
AcDbEntity
  8
HIDDEN
  6
STYLE_16
100
AcDb2dPolyline
 66
               1
 10
0.0
 20
0.0
 30
0.0
 70
               1
 75
               5
  0
VERTEX
  5
229
100
AcDbEntity
  8
HIDDEN
  6
STYLE_16
100
AcDbVertex
100
AcDb2dVertex
 10
799.0
 20
-74.5
 30
0.0
  0
VERTEX
  5
22A
100
AcDbEntity
  8
HIDDEN
  6
STYLE_16
100
AcDbVertex
100
AcDb2dVertex
 10
801.0
 20
-74.5
 30
0.0
  0
VERTEX
  5
22B
100
AcDbEntity
  8
HIDDEN
  6
STYLE_16
100
AcDbVertex
100
AcDb2dVertex
 10
801.0
 20
-584.5
 30
0.0
  0
VERTEX
  5
22C
100
AcDbEntity
  8
HIDDEN
  6
STYLE_16
100
AcDbVertex
100
AcDb2dVertex
 10
799.0
 20
-584.5
 30
0.0
  0
SEQEND
  5
22D
100
AcDbEntity
  8
HIDDEN
  6
STYLE_16
  0
LINE
  5
22E
100
AcDbEntity
  8
CENTER
  6
STYLE_03
100
AcDbLine
 10
800.0
 20
-0.0000000000000036
 30
0.0
 11
800.0
 21
-950.0
 31
0.0
  0
LINE
  5
22F
100
AcDbEntity
  8
FRAME
  6
CONTINUOUS
100
AcDbLine
 10
500.0
 20
-900.0
 30
0.0
 11
1100.0
 21
-900.0
 31
0.0
  0
DIMENSION
  5
230
100
AcDbEntity
  8
DIMENTION
  6
CONTINUOUS
100
AcDbDimension
  2
*D7
 10
500.0
 20
-89.5
 30
0.0
 11
499.0
 21
-30.000000000000004
 31
0.0
 70
             128
  3
CAD
100
AcDbAlignedDimension
 13
603.0
 23
-69.5
 33
0.0
 14
836.0
 24
-89.5
 34
0.0
 50
90.0
100
AcDbRotatedDimension
1001
ACAD
1000
DSTYLE
1002
{
1070
             271
1070
               0
1070
             340
1005
31
1070
             174
1070
               0
1070
             147
1040
0.9999999999999999
1002
}
  0
DIMENSION
  5
231
100
AcDbEntity
  8
DIMENTION
  6
CONTINUOUS
100
AcDbDimension
  2
*D8
 10
500.0
 20
-89.5
 30
0.0
 11
500.0
 21
-344.5
 31
0.0
  3
CAD
100
AcDbAlignedDimension
 13
614.0
 23
-599.5
 33
0.0
 14
836.0
 24
-89.5
 34
0.0
 50
90.0
100
AcDbRotatedDimension
1001
ACAD
1000
DSTYLE
1002
{
1070
             271
1070
               0
1070
             340
1005
31
1070
               3
1000
<>（可動範囲
1070
             147
1040
0.9999999999999999
1002
}
  0
MTEXT
  5
232
100
AcDbEntity
  8
TEXT
100
AcDbMText
 10
800.0
 20
150.0
 30
0.0
 40
33.866666666666667
 41
0.0
 71
               2
 72
               1
  1
皿仕様
  7
________
  0
LINE
  5
233
100
AcDbEntity
  8
OBJECT
  6
CONTINUOUS
100
AcDbLine
 10
725.0
 20
100.0
 30
0.0
 11
875.0
 21
100.0
 31
0.0
  0
MTEXT
  5
234
100
AcDbEntity
  8
DIMENTION
100
AcDbMText
 10
-1190.0
 20
518.25
 30
0.0
 40
33.866666666666667
 41
0.0
 71
               2
 72
               1
  1
(内寸)
  7
________
 11
0.0
 21
1.0
 31
0.0
  0
MTEXT
  5
235
100
AcDbEntity
  8
DIMENTION
100
AcDbMText
 10
-962.25
 20
290.0
 30
0.0
 40
33.866666666666667
 41
0.0
 71
               2
 72
               1
  1
(内寸)
  7
________
  0
LINE
  5
236
100
AcDbEntity
  8
DIMENTION
100
AcDbLine
 10
-527.96375629619024
 20
-809.29498546194782
 30
0.0
 11
-450.0
 21
-699.99999999999636
 31
0.0
  0
LINE
  5
237
100
AcDbEntity
  8
DIMENTION
100
AcDbLine
 10
-527.96375629619024
 20
-809.29498546194782
 30
0.0
 11
-516.18419508311399
 21
-778.60817935887178
 31
0.0
  0
LINE
  5
238
100
AcDbEntity
  8
DIMENTION
100
AcDbLine
 10
-527.96375629619024
 20
-809.29498546194782
 30
0.0
 11
-502.4189539886944
 21
-788.60921242221468
 31
0.0
  0
MTEXT
  5
239
100
AcDbEntity
  8
DIMENTION
100
AcDbMText
 10
-440.0
 20
-704.99999999999636
 30
0.0
 40
33.866666666666667
 41
441.50939999999997
 71
               1
 72
               1
  1
2個ストッパー付
  7
________
  0
MTEXT
  5
23A
100
AcDbEntity
  8
DIMENTION
100
AcDbMText
 10
-450.0
 20
-654.99999999999636
 30
0.0
 40
33.866666666666667
 41
455.0
 71
               1
 72
               1
  1
φ100 ウレタンキャスター
  7
________
  0
LINE
  5
23B
100
AcDbEntity
  8
DIMENTION
100
AcDbLine
 10
-5.0
 20
-699.99999999999636
 30
0.0
 11
-450.0
 21
-699.99999999999636
 31
0.0
  0
LINE
  5
23C
100
AcDbEntity
  8
DIMENTION
100
AcDbLine
 10
-5.0
 20
-749.99999999999636
 30
0.0
 11
-450.0
 21
-749.99999999999636
 31
0.0
  0
LINE
  5
23D
100
AcDbEntity
  8
DIMENTION
100
AcDbLine
 10
-450.0
 20
-699.99999999999636
 30
0.0
 11
-450.0
 21
-749.99999999999636
 31
0.0
  0
LINE
  5
23E
100
AcDbEntity
  8
CENTER
  6
STYLE_03
100
AcDbLine
 10
-800.0
 20
-950.0
 30
0.0
 11
-800.0
 21
50.0
 31
0.0
  0
LINE
  5
23F
100
AcDbEntity
  8
FRAME
  6
CONTINUOUS
100
AcDbLine
 10
-1100.0
 20
-900.0
 30
0.0
 11
-450.0
 21
-900.0
 31
0.0
  0
DIMENSION
  5
240
100
AcDbEntity
  8
DIMENTION
  6
CONTINUOUS
100
AcDbDimension
  2
*D9
 10
-1200.0
 20
-69.5
 30
0.0
 11
-1200.0
 21
-484.75
 31
0.0
  1
830
  3
CAD
100
AcDbAlignedDimension
 13
-1100.0
 23
-900.0
 33
0.0
 14
-1045.0
 24
-69.5
 34
0.0
 50
90.0
100
AcDbRotatedDimension
1001
ACAD
1000
DSTYLE
1002
{
1070
             271
1070
               0
1070
             340
1005
31
1070
             147
1040
0.9999999999999999
1002
}
  0
POLYLINE
  5
241
100
AcDbEntity
  8
OBJECT
100
AcDb2dPolyline
 66
               1
 10
0.0
 20
0.0
 30
0.0
 70
               1
 75
               5
  0
VERTEX
  5
242
100
AcDbEntity
  8
OBJECT
100
AcDbVertex
100
AcDb2dVertex
 10
-1042.0
 20
-779.5
 30
0.0
  0
VERTEX
  5
243
100
AcDbEntity
  8
OBJECT
100
AcDbVertex
100
AcDb2dVertex
 10
-558.0
 20
-779.5
 30
0.0
  0
VERTEX
  5
244
100
AcDbEntity
  8
OBJECT
100
AcDbVertex
100
AcDb2dVertex
 10
-558.0
 20
-781.0
 30
0.0
  0
VERTEX
  5
245
100
AcDbEntity
  8
OBJECT
100
AcDbVertex
100
AcDb2dVertex
 10
-1042.0
 20
-781.0
 30
0.0
  0
SEQEND
  5
246
100
AcDbEntity
  8
OBJECT
  0
POLYLINE
  5
247
100
AcDbEntity
  8
OBJECT
100
AcDb2dPolyline
 66
               1
 10
0.0
 20
0.0
 30
0.0
 70
               1
 75
               5
  0
VERTEX
  5
248
100
AcDbEntity
  8
OBJECT
100
AcDbVertex
100
AcDb2dVertex
 10
-980.0
 20
-781.0
 30
0.0
  0
VERTEX
  5
249
100
AcDbEntity
  8
OBJECT
100
AcDbVertex
100
AcDb2dVertex
 10
-1040.0
 20
-781.0
 30
0.0
  0
VERTEX
  5
24A
100
AcDbEntity
  8
OBJECT
100
AcDbVertex
100
AcDb2dVertex
 10
-1040.0
 20
-784.0
 30
0.0
  0
VERTEX
  5
24B
100
AcDbEntity
  8
OBJECT
100
AcDbVertex
100
AcDb2dVertex
 10
-980.0
 20
-784.0
 30
0.0
  0
SEQEND
  5
24C
100
AcDbEntity
  8
OBJECT
  0
LWPOLYLINE
  5
24D
100
AcDbEntity
  8
OBJECT
100
AcDbPolyline
 90
        5
 70
             129
 10
-987.0
 20
-850.0
 42
-0.414213562373095
 10
-977.0
 20
-840.0
 42
-0.414213562373095
 10
-967.0
 20
-850.0
 42
-0.414213562373095
 10
-977.0
 20
-860.0
 42
-0.414213562373095
 10
-987.0
 20
-850.0
 42
-0.414213562373095
  0
LWPOLYLINE
  5
24E
100
AcDbEntity
  8
OBJECT
100
AcDbPolyline
 90
        5
 70
             128
 10
-986.5
 20
-792.0
 42
0.414213562373095
 10
-985.5
 20
-793.0
 10
-977.5
 20
-793.0
 10
-967.39999999999964
 20
-846.4376999999995
 10
-967.19999999999982
 20
-848.25839999999971
  0
LWPOLYLINE
  5
24F
100
AcDbEntity
  8
OBJECT
100
AcDbPolyline
 90
       10
 70
             128
 10
-985.1275999999998
 20
-855.77719999999954
 10
-985.77109999999993
 20
-854.80279999999948
 10
-1023.5
 20
-801.0
 10
-1033.5
 20
-801.0
 10
-1033.5
 20
-794.0
 10
-1033.5
 20
-794.0
 42
-0.414213562373095
 10
-1030.5
 20
-791.0
 10
-987.5
 20
-791.0
 10
-987.5
 20
-791.0
 42
-0.414213562373095
 10
-986.5
 20
-792.0
 42
-0.414213562373095
  0
POLYLINE
  5
250
100
AcDbEntity
  8
OBJECT
100
AcDb2dPolyline
 66
               1
 10
0.0
 20
0.0
 30
0.0
 70
               1
 75
               5
  0
VERTEX
  5
251
100
AcDbEntity
  8
OBJECT
100
AcDbVertex
100
AcDb2dVertex
 10
-983.5
 20
-784.0
 30
0.0
  0
VERTEX
  5
252
100
AcDbEntity
  8
OBJECT
100
AcDbVertex
100
AcDb2dVertex
 10
-1036.5
 20
-784.0
 30
0.0
  0
VERTEX
  5
253
100
AcDbEntity
  8
OBJECT
100
AcDbVertex
100
AcDb2dVertex
 10
-1032.5
 20
-787.5
 30
0.0
  0
VERTEX
  5
254
100
AcDbEntity
  8
OBJECT
100
AcDbVertex
100
AcDb2dVertex
 10
-1032.5
 20
-791.0
 30
0.0
  0
VERTEX
  5
255
100
AcDbEntity
  8
OBJECT
100
AcDbVertex
100
AcDb2dVertex
 10
-987.5
 20
-791.0
 30
0.0
  0
VERTEX
  5
256
100
AcDbEntity
  8
OBJECT
100
AcDbVertex
100
AcDb2dVertex
 10
-987.5
 20
-787.5
 30
0.0
  0
SEQEND
  5
257
100
AcDbEntity
  8
OBJECT
  0
LINE
  5
258
100
AcDbEntity
  8
OBJECT
100
AcDbLine
 10
-987.5
 20
-787.5
 30
0.0
 11
-1032.5
 21
-787.5
 31
0.0
  0
LINE
  5
259
100
AcDbEntity
  8
OBJECT
100
AcDbLine
 10
-992.5
 20
-793.0
 30
0.0
 11
-992.5
 21
-843.0
 31
0.0
  0
LWPOLYLINE
  5
25A
100
AcDbEntity
  8
OBJECT
100
AcDbPolyline
 90
        5
 70
             129
 10
-982.5
 20
-850.0
 42
-0.414213562373095
 10
-977.0
 20
-844.5
 42
-0.414213562373095
 10
-971.5
 20
-850.0
 42
-0.414213562373095
 10
-977.0
 20
-855.5
 42
-0.414213562373095
 10
-982.5
 20
-850.0
 42
-0.414213562373095
  0
ARC
  5
25B
100
AcDbEntity
  8
OBJECT
100
AcDbCircle
 10
-977.0
 20
-850.0
 30
0.0
 40
40.00001805624602
100
AcDbArc
 50
139.42693516316959
 51
86.085507773715634
  0
ARC
  5
25C
100
AcDbEntity
  8
OBJECT
100
AcDbCircle
 10
-977.0
 20
-850.0
 30
0.0
 40
46.499974801391609
100
AcDbArc
 50
137.38144272174583
 51
88.1648678673657
  0
ARC
  5
25D
100
AcDbEntity
  8
OBJECT
100
AcDbCircle
 10
-977.0
 20
-850.0
 30
0.0
 40
50.000016569697451
100
AcDbArc
 50
136.50527645865756
 51
89.055378894867943
  0
POLYLINE
  5
25E
100
AcDbEntity
  8
OBJECT
100
AcDb2dPolyline
 66
               1
 10
0.0
 20
0.0
 30
0.0
 70
               1
 75
               5
  0
VERTEX
  5
25F
100
AcDbEntity
  8
OBJECT
100
AcDbVertex
100
AcDb2dVertex
 10
-560.0
 20
-781.0
 30
0.0
  0
VERTEX
  5
260
100
AcDbEntity
  8
OBJECT
100
AcDbVertex
100
AcDb2dVertex
 10
-620.0
 20
-781.0
 30
0.0
  0
VERTEX
  5
261
100
AcDbEntity
  8
OBJECT
100
AcDbVertex
100
AcDb2dVertex
 10
-620.0
 20
-784.0
 30
0.0
  0
VERTEX
  5
262
100
AcDbEntity
  8
OBJECT
100
AcDbVertex
100
AcDb2dVertex
 10
-560.0
 20
-784.0
 30
0.0
  0
SEQEND
  5
263
100
AcDbEntity
  8
OBJECT
  0
LWPOLYLINE
  5
264
100
AcDbEntity
  8
OBJECT
100
AcDbPolyline
 90
        5
 70
             129
 10
-567.0
 20
-850.0
 42
-0.414213562373095
 10
-557.0
 20
-840.0
 42
-0.414213562373095
 10
-547.0
 20
-850.0
 42
-0.414213562373095
 10
-557.0
 20
-860.0
 42
-0.414213562373095
 10
-567.0
 20
-850.0
 42
-0.414213562373095
  0
LWPOLYLINE
  5
265
100
AcDbEntity
  8
OBJECT
100
AcDbPolyline
 90
        5
 70
             128
 10
-566.5
 20
-792.0
 42
0.414213562373095
 10
-565.5
 20
-793.0
 10
-557.5
 20
-793.0
 10
-547.39999999999964
 20
-846.4376999999995
 10
-547.19999999999982
 20
-848.25839999999971
  0
LWPOLYLINE
  5
266
100
AcDbEntity
  8
OBJECT
100
AcDbPolyline
 90
       10
 70
             128
 10
-565.1275999999998
 20
-855.77719999999954
 10
-565.77109999999993
 20
-854.80279999999948
 10
-603.5
 20
-801.0
 10
-613.5
 20
-801.0
 10
-613.5
 20
-794.0
 10
-613.5
 20
-794.0
 42
-0.414213562373095
 10
-610.5
 20
-791.0
 10
-567.5
 20
-791.0
 10
-567.5
 20
-791.0
 42
-0.414213562373095
 10
-566.5
 20
-792.0
 42
-0.414213562373095
  0
POLYLINE
  5
267
100
AcDbEntity
  8
OBJECT
100
AcDb2dPolyline
 66
               1
 10
0.0
 20
0.0
 30
0.0
 70
               1
 75
               5
  0
VERTEX
  5
268
100
AcDbEntity
  8
OBJECT
100
AcDbVertex
100
AcDb2dVertex
 10
-563.5
 20
-784.0
 30
0.0
  0
VERTEX
  5
269
100
AcDbEntity
  8
OBJECT
100
AcDbVertex
100
AcDb2dVertex
 10
-616.5
 20
-784.0
 30
0.0
  0
VERTEX
  5
26A
100
AcDbEntity
  8
OBJECT
100
AcDbVertex
100
AcDb2dVertex
 10
-612.5
 20
-787.5
 30
0.0
  0
VERTEX
  5
26B
100
AcDbEntity
  8
OBJECT
100
AcDbVertex
100
AcDb2dVertex
 10
-612.5
 20
-791.0
 30
0.0
  0
VERTEX
  5
26C
100
AcDbEntity
  8
OBJECT
100
AcDbVertex
100
AcDb2dVertex
 10
-567.5
 20
-791.0
 30
0.0
  0
VERTEX
  5
26D
100
AcDbEntity
  8
OBJECT
100
AcDbVertex
100
AcDb2dVertex
 10
-567.5
 20
-787.5
 30
0.0
  0
SEQEND
  5
26E
100
AcDbEntity
  8
OBJECT
  0
LINE
  5
26F
100
AcDbEntity
  8
OBJECT
100
AcDbLine
 10
-567.5
 20
-787.5
 30
0.0
 11
-612.5
 21
-787.5
 31
0.0
  0
LINE
  5
270
100
AcDbEntity
  8
OBJECT
100
AcDbLine
 10
-572.5
 20
-793.0
 30
0.0
 11
-572.5
 21
-843.0
 31
0.0
  0
LWPOLYLINE
  5
271
100
AcDbEntity
  8
OBJECT
100
AcDbPolyline
 90
        5
 70
             129
 10
-562.5
 20
-850.0
 42
-0.414213562373095
 10
-557.0
 20
-844.5
 42
-0.414213562373095
 10
-551.5
 20
-850.0
 42
-0.414213562373095
 10
-557.0
 20
-855.5
 42
-0.414213562373095
 10
-562.5
 20
-850.0
 42
-0.414213562373095
  0
ARC
  5
272
100
AcDbEntity
  8
OBJECT
100
AcDbCircle
 10
-557.0
 20
-850.0
 30
0.0
 40
40.00001805624602
100
AcDbArc
 50
139.42693516316959
 51
86.085507773715733
  0
ARC
  5
273
100
AcDbEntity
  8
OBJECT
100
AcDbCircle
 10
-557.0
 20
-850.0
 30
0.0
 40
46.499974801390948
100
AcDbArc
 50
137.38144272174509
 51
88.1648678673657
  0
ARC
  5
274
100
AcDbEntity
  8
OBJECT
100
AcDbCircle
 10
-557.0
 20
-850.0
 30
0.0
 40
50.000016569697451
100
AcDbArc
 50
136.50527645865756
 51
89.055378894867943
  0
POLYLINE
  5
275
100
AcDbEntity
  8
OBJECT
100
AcDb2dPolyline
 66
               1
 10
0.0
 20
0.0
 30
0.0
 70
               1
 75
               5
  0
VERTEX
  5
276
100
AcDbEntity
  8
OBJECT
100
AcDbVertex
100
AcDb2dVertex
 10
-1043.0
 20
-69.5
 30
0.0
  0
VERTEX
  5
277
100
AcDbEntity
  8
OBJECT
100
AcDbVertex
100
AcDb2dVertex
 10
-557.0
 20
-69.5
 30
0.0
  0
VERTEX
  5
278
100
AcDbEntity
  8
OBJECT
100
AcDbVertex
100
AcDb2dVertex
 10
-557.0
 20
-779.5
 30
0.0
  0
VERTEX
  5
279
100
AcDbEntity
  8
OBJECT
100
AcDbVertex
100
AcDb2dVertex
 10
-1043.0
 20
-779.5
 30
0.0
  0
SEQEND
  5
27A
100
AcDbEntity
  8
OBJECT
  0
LWPOLYLINE
  5
27B
100
AcDbEntity
  8
OBJECT
100
AcDbPolyline
 90
        8
 70
             129
 10
-1028.0
 20
-81.5
 42
-0.414213562373095
 10
-1025.0
 20
-78.5
 10
-575.0
 20
-78.5
 42
-0.414213562373095
 10
-572.0
 20
-81.5
 10
-572.0
 20
-737.5
 42
-0.414213562373095
 10
-575.0
 20
-740.5
 10
-1025.0
 20
-740.5
 42
-0.414213562373095
 10
-1028.0
 20
-737.5
  0
LWPOLYLINE
  5
27C
100
AcDbEntity
  8
OBJECT
100
AcDbPolyline
 90
        5
 70
             129
 10
-664.5
 20
-734.5
 42
-0.414213562373095
 10
-660.0
 20
-730.0
 42
-0.414213562373095
 10
-655.5
 20
-734.5
 42
-0.414213562373095
 10
-660.0
 20
-739.0
 42
-0.414213562373095
 10
-664.5
 20
-734.5
 42
-0.414213562373095
  0
LWPOLYLINE
  5
27D
100
AcDbEntity
  8
OBJECT
100
AcDbPolyline
 90
        5
 70
             129
 10
-944.5
 20
-734.5
 42
-0.414213562373095
 10
-940.0
 20
-730.0
 42
-0.414213562373095
 10
-935.5
 20
-734.5
 42
-0.414213562373095
 10
-940.0
 20
-739.0
 42
-0.414213562373095
 10
-944.5
 20
-734.5
 42
-0.414213562373095
  0
LWPOLYLINE
  5
27E
100
AcDbEntity
  8
OBJECT
100
AcDbPolyline
 90
        5
 70
             129
 10
-664.5
 20
-84.5
 42
-0.414213562373095
 10
-660.0
 20
-80.0
 42
-0.414213562373095
 10
-655.5
 20
-84.5
 42
-0.414213562373095
 10
-660.0
 20
-89.0
 42
-0.414213562373095
 10
-664.5
 20
-84.5
 42
-0.414213562373095
  0
LWPOLYLINE
  5
27F
100
AcDbEntity
  8
OBJECT
100
AcDbPolyline
 90
        5
 70
             129
 10
-944.5
 20
-84.5
 42
-0.414213562373095
 10
-940.0
 20
-80.0
 42
-0.414213562373095
 10
-935.5
 20
-84.5
 42
-0.414213562373095
 10
-940.0
 20
-89.0
 42
-0.414213562373095
 10
-944.5
 20
-84.5
 42
-0.414213562373095
  0
POLYLINE
  5
280
100
AcDbEntity
  8
OBJECT
100
AcDb2dPolyline
 66
               1
 10
0.0
 20
0.0
 30
0.0
 70
               1
 75
               5
  0
VERTEX
  5
281
100
AcDbEntity
  8
OBJECT
100
AcDbVertex
100
AcDb2dVertex
 10
-1045.0
 20
-69.5
 30
0.0
  0
VERTEX
  5
282
100
AcDbEntity
  8
OBJECT
100
AcDbVertex
100
AcDb2dVertex
 10
-1043.0
 20
-69.5
 30
0.0
  0
VERTEX
  5
283
100
AcDbEntity
  8
OBJECT
100
AcDbVertex
100
AcDb2dVertex
 10
-1043.0
 20
-99.5
 30
0.0
  0
VERTEX
  5
284
100
AcDbEntity
  8
OBJECT
100
AcDbVertex
100
AcDb2dVertex
 10
-1045.0
 20
-99.5
 30
0.0
  0
SEQEND
  5
285
100
AcDbEntity
  8
OBJECT
  0
LINE
  5
286
100
AcDbEntity
  8
OBJECT
100
AcDbLine
 10
-1043.0
 20
762.0
 30
0.0
 11
-1043.0
 21
797.0
 31
0.0
  0
LINE
  5
287
100
AcDbEntity
  8
OBJECT
100
AcDbLine
 10
-557.0
 20
797.0
 30
0.0
 11
-557.0
 21
762.0
 31
0.0
  0
LINE
  5
288
100
AcDbEntity
  8
OBJECT
100
AcDbLine
 10
-1043.0
 20
797.0
 30
0.0
 11
-557.0
 21
797.0
 31
0.0
  0
LINE
  5
289
100
AcDbEntity
  8
OBJECT
100
AcDbLine
 10
-1043.0
 20
403.0
 30
0.0
 11
-1043.0
 21
438.0
 31
0.0
  0
LINE
  5
28A
100
AcDbEntity
  8
OBJECT
100
AcDbLine
 10
-557.0
 20
403.0
 30
0.0
 11
-1043.0
 21
403.0
 31
0.0
  0
LINE
  5
28B
100
AcDbEntity
  8
OBJECT
100
AcDbLine
 10
-557.0
 20
438.0
 30
0.0
 11
-557.0
 21
403.0
 31
0.0
  0
LINE
  5
28C
100
AcDbEntity
  8
CENTER
100
AcDbLine
 10
-800.0
 20
850.0
 30
0.0
 11
-800.0
 21
350.0
 31
0.0
  0
LINE
  5
28D
100
AcDbEntity
  8
CENTER
100
AcDbLine
 10
-1100.0
 20
600.0
 30
0.0
 11
-500.0
 21
600.0
 31
0.0
  0
DIMENSION
  5
28E
100
AcDbEntity
  8
DIMENTION
100
AcDbDimension
  2
*D10
 10
-1043.0
 20
900.00000000000011
 30
0.0
 11
-800.0
 21
900.00000000000011
 31
0.0
  3
CAD
100
AcDbAlignedDimension
 13
-557.0
 23
797.0
 33
0.0
 14
-1043.0
 24
797.0
 34
0.0
100
AcDbRotatedDimension
1001
ACAD
1000
DSTYLE
1002
{
1070
             271
1070
               0
1070
             340
1005
31
1070
             147
1040
0.9999999999999999
1002
}
  0
DIMENSION
  5
28F
100
AcDbEntity
  8
DIMENTION
100
AcDbDimension
  2
*D11
 10
-400.0
 20
797.0
 30
0.0
 11
-400.0
 21
600.0
 31
0.0
  1
400
  3
CAD
100
AcDbAlignedDimension
 13
-558.0
 23
403.0
 33
0.0
 14
-557.0
 24
797.0
 34
0.0
 50
90.0
100
AcDbRotatedDimension
1001
ACAD
1000
DSTYLE
1002
{
1070
             271
1070
               0
1070
             340
1005
31
1070
             147
1040
0.9999999999999999
1002
}
  0
DIMENSION
  5
290
100
AcDbEntity
  8
DIMENTION
100
AcDbDimension
  2
*D12
 10
-1041.0
 20
300.0
 30
0.0
 11
-962.25
 21
300.0
 31
0.0
  1
157
  3
CAD
100
AcDbAlignedDimension
 13
-883.5
 23
439.0
 33
0.0
 14
-1041.0
 24
449.0
 34
0.0
100
AcDbRotatedDimension
1001
ACAD
1000
DSTYLE
1002
{
1070
             271
1070
               0
1070
             340
1005
31
1070
             147
1040
0.9999999999999999
1002
}
  0
DIMENSION
  5
291
100
AcDbEntity
  8
DIMENTION
100
AcDbDimension
  2
*D13
 10
-1200.0
 20
597.5
 30
0.0
 11
-1200.0
 21
518.25
 31
0.0
  1
158
  3
CAD
100
AcDbAlignedDimension
 13
-1031.0
 23
439.0
 33
0.0
 14
-1041.0
 24
597.5
 34
0.0
 50
90.0
100
AcDbRotatedDimension
1001
ACAD
1000
DSTYLE
1002
{
1070
             271
1070
               0
1070
             340
1005
31
1070
             147
1040
0.9999999999999999
1002
}
  0
POLYLINE
  5
292
100
AcDbEntity
  8
OBJECT
100
AcDb2dPolyline
 66
               1
 10
0.0
 20
0.0
 30
0.0
 70
               1
 75
               5
  0
VERTEX
  5
293
100
AcDbEntity
  8
OBJECT
100
AcDbVertex
100
AcDb2dVertex
 10
-860.0
 20
722.75
 30
0.0
  0
VERTEX
  5
294
100
AcDbEntity
  8
OBJECT
100
AcDbVertex
100
AcDb2dVertex
 10
-840.0
 20
742.75
 30
0.0
  0
VERTEX
  5
295
100
AcDbEntity
  8
OBJECT
100
AcDbVertex
100
AcDb2dVertex
 10
-760.0
 20
742.75
 30
0.0
  0
VERTEX
  5
296
100
AcDbEntity
  8
OBJECT
100
AcDbVertex
100
AcDb2dVertex
 10
-740.0
 20
722.75
 30
0.0
  0
VERTEX
  5
297
100
AcDbEntity
  8
OBJECT
100
AcDbVertex
100
AcDb2dVertex
 10
-740.0
 20
642.75
 30
0.0
  0
VERTEX
  5
298
100
AcDbEntity
  8
OBJECT
100
AcDbVertex
100
AcDb2dVertex
 10
-760.0
 20
622.75
 30
0.0
  0
VERTEX
  5
299
100
AcDbEntity
  8
OBJECT
100
AcDbVertex
100
AcDb2dVertex
 10
-840.0
 20
622.75
 30
0.0
  0
VERTEX
  5
29A
100
AcDbEntity
  8
OBJECT
100
AcDbVertex
100
AcDb2dVertex
 10
-860.0
 20
642.75
 30
0.0
  0
SEQEND
  5
29B
100
AcDbEntity
  8
OBJECT
  0
POLYLINE
  5
29C
100
AcDbEntity
  8
OBJECT
100
AcDb2dPolyline
 66
               1
 10
0.0
 20
0.0
 30
0.0
 75
               5
  0
VERTEX
  5
29D
100
AcDbEntity
  8
OBJECT
100
AcDbVertex
100
AcDb2dVertex
 10
-801.0
 20
622.75
 30
0.0
  0
VERTEX
  5
29E
100
AcDbEntity
  8
OBJECT
100
AcDbVertex
100
AcDb2dVertex
 10
-801.0
 20
617.0
 30
0.0
  0
VERTEX
  5
29F
100
AcDbEntity
  8
OBJECT
100
AcDbVertex
100
AcDb2dVertex
 10
-799.0
 20
617.0
 30
0.0
  0
VERTEX
  5
2A0
100
AcDbEntity
  8
OBJECT
100
AcDbVertex
100
AcDb2dVertex
 10
-799.0
 20
622.75
 30
0.0
  0
SEQEND
  5
2A1
100
AcDbEntity
  8
OBJECT
  0
LINE
  5
2A2
100
AcDbEntity
  8
OBJECT
100
AcDbLine
 10
-799.0
 20
761.0
 30
0.0
 11
-799.0
 21
742.75
 31
0.0
  0
LINE
  5
2A3
100
AcDbEntity
  8
OBJECT
100
AcDbLine
 10
-801.0
 20
742.75
 30
0.0
 11
-801.0
 21
761.0
 31
0.0
  0
POLYLINE
  5
2A4
100
AcDbEntity
  8
OBJECT
100
AcDb2dPolyline
 66
               1
 10
0.0
 20
0.0
 30
0.0
 70
               1
 75
               5
  0
VERTEX
  5
2A5
100
AcDbEntity
  8
OBJECT
100
AcDbVertex
100
AcDb2dVertex
 10
-698.0
 20
722.75
 30
0.0
  0
VERTEX
  5
2A6
100
AcDbEntity
  8
OBJECT
100
AcDbVertex
100
AcDb2dVertex
 10
-678.0
 20
742.75
 30
0.0
  0
VERTEX
  5
2A7
100
AcDbEntity
  8
OBJECT
100
AcDbVertex
100
AcDb2dVertex
 10
-598.0
 20
742.75
 30
0.0
  0
VERTEX
  5
2A8
100
AcDbEntity
  8
OBJECT
100
AcDbVertex
100
AcDb2dVertex
 10
-578.0
 20
722.75
 30
0.0
  0
VERTEX
  5
2A9
100
AcDbEntity
  8
OBJECT
100
AcDbVertex
100
AcDb2dVertex
 10
-578.0
 20
642.75
 30
0.0
  0
VERTEX
  5
2AA
100
AcDbEntity
  8
OBJECT
100
AcDbVertex
100
AcDb2dVertex
 10
-598.0
 20
622.75
 30
0.0
  0
VERTEX
  5
2AB
100
AcDbEntity
  8
OBJECT
100
AcDbVertex
100
AcDb2dVertex
 10
-678.0
 20
622.75
 30
0.0
  0
VERTEX
  5
2AC
100
AcDbEntity
  8
OBJECT
100
AcDbVertex
100
AcDb2dVertex
 10
-698.0
 20
642.75
 30
0.0
  0
SEQEND
  5
2AD
100
AcDbEntity
  8
OBJECT
  0
POLYLINE
  5
2AE
100
AcDbEntity
  8
OBJECT
100
AcDb2dPolyline
 66
               1
 10
0.0
 20
0.0
 30
0.0
 75
               5
  0
VERTEX
  5
2AF
100
AcDbEntity
  8
OBJECT
100
AcDbVertex
100
AcDb2dVertex
 10
-639.0
 20
622.75
 30
0.0
  0
VERTEX
  5
2B0
100
AcDbEntity
  8
OBJECT
100
AcDbVertex
100
AcDb2dVertex
 10
-639.0
 20
617.0
 30
0.0
  0
VERTEX
  5
2B1
100
AcDbEntity
  8
OBJECT
100
AcDbVertex
100
AcDb2dVertex
 10
-637.0
 20
617.0
 30
0.0
  0
VERTEX
  5
2B2
100
AcDbEntity
  8
OBJECT
100
AcDbVertex
100
AcDb2dVertex
 10
-637.0
 20
622.75
 30
0.0
  0
SEQEND
  5
2B3
100
AcDbEntity
  8
OBJECT
  0
LINE
  5
2B4
100
AcDbEntity
  8
OBJECT
100
AcDbLine
 10
-637.0
 20
761.0
 30
0.0
 11
-637.0
 21
742.75
 31
0.0
  0
LINE
  5
2B5
100
AcDbEntity
  8
OBJECT
100
AcDbLine
 10
-639.0
 20
742.75
 30
0.0
 11
-639.0
 21
761.0
 31
0.0
  0
POLYLINE
  5
2B6
100
AcDbEntity
  8
OBJECT
100
AcDb2dPolyline
 66
               1
 10
0.0
 20
0.0
 30
0.0
 70
               1
 75
               5
  0
VERTEX
  5
2B7
100
AcDbEntity
  8
OBJECT
100
AcDbVertex
100
AcDb2dVertex
 10
-1022.0
 20
722.75
 30
0.0
  0
VERTEX
  5
2B8
100
AcDbEntity
  8
OBJECT
100
AcDbVertex
100
AcDb2dVertex
 10
-1002.0
 20
742.75
 30
0.0
  0
VERTEX
  5
2B9
100
AcDbEntity
  8
OBJECT
100
AcDbVertex
100
AcDb2dVertex
 10
-922.0
 20
742.75
 30
0.0
  0
VERTEX
  5
2BA
100
AcDbEntity
  8
OBJECT
100
AcDbVertex
100
AcDb2dVertex
 10
-902.0
 20
722.75
 30
0.0
  0
VERTEX
  5
2BB
100
AcDbEntity
  8
OBJECT
100
AcDbVertex
100
AcDb2dVertex
 10
-902.0
 20
642.75
 30
0.0
  0
VERTEX
  5
2BC
100
AcDbEntity
  8
OBJECT
100
AcDbVertex
100
AcDb2dVertex
 10
-922.0
 20
622.75
 30
0.0
  0
VERTEX
  5
2BD
100
AcDbEntity
  8
OBJECT
100
AcDbVertex
100
AcDb2dVertex
 10
-1002.0
 20
622.75
 30
0.0
  0
VERTEX
  5
2BE
100
AcDbEntity
  8
OBJECT
100
AcDbVertex
100
AcDb2dVertex
 10
-1022.0
 20
642.75
 30
0.0
  0
SEQEND
  5
2BF
100
AcDbEntity
  8
OBJECT
  0
POLYLINE
  5
2C0
100
AcDbEntity
  8
OBJECT
100
AcDb2dPolyline
 66
               1
 10
0.0
 20
0.0
 30
0.0
 75
               5
  0
VERTEX
  5
2C1
100
AcDbEntity
  8
OBJECT
100
AcDbVertex
100
AcDb2dVertex
 10
-963.0
 20
622.75
 30
0.0
  0
VERTEX
  5
2C2
100
AcDbEntity
  8
OBJECT
100
AcDbVertex
100
AcDb2dVertex
 10
-963.0
 20
617.0
 30
0.0
  0
VERTEX
  5
2C3
100
AcDbEntity
  8
OBJECT
100
AcDbVertex
100
AcDb2dVertex
 10
-961.0
 20
617.0
 30
0.0
  0
VERTEX
  5
2C4
100
AcDbEntity
  8
OBJECT
100
AcDbVertex
100
AcDb2dVertex
 10
-961.0
 20
622.75
 30
0.0
  0
SEQEND
  5
2C5
100
AcDbEntity
  8
OBJECT
  0
LINE
  5
2C6
100
AcDbEntity
  8
OBJECT
100
AcDbLine
 10
-961.0
 20
761.0
 30
0.0
 11
-961.0
 21
742.75
 31
0.0
  0
LINE
  5
2C7
100
AcDbEntity
  8
OBJECT
100
AcDbLine
 10
-963.0
 20
742.75
 30
0.0
 11
-963.0
 21
761.0
 31
0.0
  0
POLYLINE
  5
2C8
100
AcDbEntity
  8
OBJECT
100
AcDb2dPolyline
 66
               1
 10
0.0
 20
0.0
 30
0.0
 70
               1
 75
               5
  0
VERTEX
  5
2C9
100
AcDbEntity
  8
OBJECT
100
AcDbVertex
100
AcDb2dVertex
 10
-860.0
 20
477.25
 30
0.0
  0
VERTEX
  5
2CA
100
AcDbEntity
  8
OBJECT
100
AcDbVertex
100
AcDb2dVertex
 10
-840.0
 20
457.25
 30
0.0
  0
VERTEX
  5
2CB
100
AcDbEntity
  8
OBJECT
100
AcDbVertex
100
AcDb2dVertex
 10
-760.0
 20
457.25
 30
0.0
  0
VERTEX
  5
2CC
100
AcDbEntity
  8
OBJECT
100
AcDbVertex
100
AcDb2dVertex
 10
-740.0
 20
477.25
 30
0.0
  0
VERTEX
  5
2CD
100
AcDbEntity
  8
OBJECT
100
AcDbVertex
100
AcDb2dVertex
 10
-740.0
 20
557.25
 30
0.0
  0
VERTEX
  5
2CE
100
AcDbEntity
  8
OBJECT
100
AcDbVertex
100
AcDb2dVertex
 10
-760.0
 20
577.25
 30
0.0
  0
VERTEX
  5
2CF
100
AcDbEntity
  8
OBJECT
100
AcDbVertex
100
AcDb2dVertex
 10
-840.0
 20
577.25
 30
0.0
  0
VERTEX
  5
2D0
100
AcDbEntity
  8
OBJECT
100
AcDbVertex
100
AcDb2dVertex
 10
-860.0
 20
557.25
 30
0.0
  0
SEQEND
  5
2D1
100
AcDbEntity
  8
OBJECT
  0
POLYLINE
  5
2D2
100
AcDbEntity
  8
OBJECT
100
AcDb2dPolyline
 66
               1
 10
0.0
 20
0.0
 30
0.0
 75
               5
  0
VERTEX
  5
2D3
100
AcDbEntity
  8
OBJECT
100
AcDbVertex
100
AcDb2dVertex
 10
-801.0
 20
577.25
 30
0.0
  0
VERTEX
  5
2D4
100
AcDbEntity
  8
OBJECT
100
AcDbVertex
100
AcDb2dVertex
 10
-801.0
 20
583.0
 30
0.0
  0
VERTEX
  5
2D5
100
AcDbEntity
  8
OBJECT
100
AcDbVertex
100
AcDb2dVertex
 10
-799.0
 20
583.0
 30
0.0
  0
VERTEX
  5
2D6
100
AcDbEntity
  8
OBJECT
100
AcDbVertex
100
AcDb2dVertex
 10
-799.0
 20
577.25
 30
0.0
  0
SEQEND
  5
2D7
100
AcDbEntity
  8
OBJECT
  0
LINE
  5
2D8
100
AcDbEntity
  8
OBJECT
100
AcDbLine
 10
-799.0
 20
439.0
 30
0.0
 11
-799.0
 21
457.25
 31
0.0
  0
LINE
  5
2D9
100
AcDbEntity
  8
OBJECT
100
AcDbLine
 10
-801.0
 20
457.25
 30
0.0
 11
-801.0
 21
439.0
 31
0.0
  0
POLYLINE
  5
2DA
100
AcDbEntity
  8
OBJECT
100
AcDb2dPolyline
 66
               1
 10
0.0
 20
0.0
 30
0.0
 70
               1
 75
               5
  0
VERTEX
  5
2DB
100
AcDbEntity
  8
OBJECT
100
AcDbVertex
100
AcDb2dVertex
 10
-698.0
 20
477.25
 30
0.0
  0
VERTEX
  5
2DC
100
AcDbEntity
  8
OBJECT
100
AcDbVertex
100
AcDb2dVertex
 10
-678.0
 20
457.25
 30
0.0
  0
VERTEX
  5
2DD
100
AcDbEntity
  8
OBJECT
100
AcDbVertex
100
AcDb2dVertex
 10
-598.0
 20
457.25
 30
0.0
  0
VERTEX
  5
2DE
100
AcDbEntity
  8
OBJECT
100
AcDbVertex
100
AcDb2dVertex
 10
-578.0
 20
477.25
 30
0.0
  0
VERTEX
  5
2DF
100
AcDbEntity
  8
OBJECT
100
AcDbVertex
100
AcDb2dVertex
 10
-578.0
 20
557.25
 30
0.0
  0
VERTEX
  5
2E0
100
AcDbEntity
  8
OBJECT
100
AcDbVertex
100
AcDb2dVertex
 10
-598.0
 20
577.25
 30
0.0
  0
VERTEX
  5
2E1
100
AcDbEntity
  8
OBJECT
100
AcDbVertex
100
AcDb2dVertex
 10
-678.0
 20
577.25
 30
0.0
  0
VERTEX
  5
2E2
100
AcDbEntity
  8
OBJECT
100
AcDbVertex
100
AcDb2dVertex
 10
-698.0
 20
557.25
 30
0.0
  0
SEQEND
  5
2E3
100
AcDbEntity
  8
OBJECT
  0
POLYLINE
  5
2E4
100
AcDbEntity
  8
OBJECT
100
AcDb2dPolyline
 66
               1
 10
0.0
 20
0.0
 30
0.0
 75
               5
  0
VERTEX
  5
2E5
100
AcDbEntity
  8
OBJECT
100
AcDbVertex
100
AcDb2dVertex
 10
-639.0
 20
577.25
 30
0.0
  0
VERTEX
  5
2E6
100
AcDbEntity
  8
OBJECT
100
AcDbVertex
100
AcDb2dVertex
 10
-639.0
 20
583.0
 30
0.0
  0
VERTEX
  5
2E7
100
AcDbEntity
  8
OBJECT
100
AcDbVertex
100
AcDb2dVertex
 10
-637.0
 20
583.0
 30
0.0
  0
VERTEX
  5
2E8
100
AcDbEntity
  8
OBJECT
100
AcDbVertex
100
AcDb2dVertex
 10
-637.0
 20
577.25
 30
0.0
  0
SEQEND
  5
2E9
100
AcDbEntity
  8
OBJECT
  0
LINE
  5
2EA
100
AcDbEntity
  8
OBJECT
100
AcDbLine
 10
-637.0
 20
439.0
 30
0.0
 11
-637.0
 21
457.25
 31
0.0
  0
LINE
  5
2EB
100
AcDbEntity
  8
OBJECT
100
AcDbLine
 10
-639.0
 20
457.25
 30
0.0
 11
-639.0
 21
439.0
 31
0.0
  0
POLYLINE
  5
2EC
100
AcDbEntity
  8
OBJECT
100
AcDb2dPolyline
 66
               1
 10
0.0
 20
0.0
 30
0.0
 70
               1
 75
               5
  0
VERTEX
  5
2ED
100
AcDbEntity
  8
OBJECT
100
AcDbVertex
100
AcDb2dVertex
 10
-1022.0
 20
477.25
 30
0.0
  0
VERTEX
  5
2EE
100
AcDbEntity
  8
OBJECT
100
AcDbVertex
100
AcDb2dVertex
 10
-1002.0
 20
457.25
 30
0.0
  0
VERTEX
  5
2EF
100
AcDbEntity
  8
OBJECT
100
AcDbVertex
100
AcDb2dVertex
 10
-922.0
 20
457.25
 30
0.0
  0
VERTEX
  5
2F0
100
AcDbEntity
  8
OBJECT
100
AcDbVertex
100
AcDb2dVertex
 10
-902.0
 20
477.25
 30
0.0
  0
VERTEX
  5
2F1
100
AcDbEntity
  8
OBJECT
100
AcDbVertex
100
AcDb2dVertex
 10
-902.0
 20
557.25
 30
0.0
  0
VERTEX
  5
2F2
100
AcDbEntity
  8
OBJECT
100
AcDbVertex
100
AcDb2dVertex
 10
-922.0
 20
577.25
 30
0.0
  0
VERTEX
  5
2F3
100
AcDbEntity
  8
OBJECT
100
AcDbVertex
100
AcDb2dVertex
 10
-1002.0
 20
577.25
 30
0.0
  0
VERTEX
  5
2F4
100
AcDbEntity
  8
OBJECT
100
AcDbVertex
100
AcDb2dVertex
 10
-1022.0
 20
557.25
 30
0.0
  0
SEQEND
  5
2F5
100
AcDbEntity
  8
OBJECT
  0
POLYLINE
  5
2F6
100
AcDbEntity
  8
OBJECT
100
AcDb2dPolyline
 66
               1
 10
0.0
 20
0.0
 30
0.0
 75
               5
  0
VERTEX
  5
2F7
100
AcDbEntity
  8
OBJECT
100
AcDbVertex
100
AcDb2dVertex
 10
-963.0
 20
577.25
 30
0.0
  0
VERTEX
  5
2F8
100
AcDbEntity
  8
OBJECT
100
AcDbVertex
100
AcDb2dVertex
 10
-963.0
 20
583.0
 30
0.0
  0
VERTEX
  5
2F9
100
AcDbEntity
  8
OBJECT
100
AcDbVertex
100
AcDb2dVertex
 10
-961.0
 20
583.0
 30
0.0
  0
VERTEX
  5
2FA
100
AcDbEntity
  8
OBJECT
100
AcDbVertex
100
AcDb2dVertex
 10
-961.0
 20
577.25
 30
0.0
  0
SEQEND
  5
2FB
100
AcDbEntity
  8
OBJECT
  0
LINE
  5
2FC
100
AcDbEntity
  8
OBJECT
100
AcDbLine
 10
-961.0
 20
439.0
 30
0.0
 11
-961.0
 21
457.25
 31
0.0
  0
LINE
  5
2FD
100
AcDbEntity
  8
OBJECT
100
AcDbLine
 10
-963.0
 20
457.25
 30
0.0
 11
-963.0
 21
439.0
 31
0.0
  0
INSERT
  5
2FE
100
AcDbEntity
  8
OBJECT
100
AcDbBlockReference
  2
*U14
 10
0.0
 20
19.999999999999996
 30
0.0
  0
LWPOLYLINE
  5
2FF
100
AcDbEntity
  8
OBJECT
100
AcDbPolyline
 90
        8
 70
             129
 10
-1041.0
 20
751.0
 42
-0.414213562373095
 10
-1031.0
 20
761.0
 10
-569.0
 20
761.0
 42
-0.414213562373095
 10
-559.0
 20
751.0
 10
-559.0
 20
449.0
 42
-0.414213562373095
 10
-569.0
 20
439.0
 10
-1031.0
 20
439.0
 42
-0.414213562373095
 10
-1041.0
 20
449.0
  0
POLYLINE
  5
300
100
AcDbEntity
  8
OBJECT
100
AcDb2dPolyline
 66
               1
 10
0.0
 20
0.0
 30
0.0
 70
               1
 75
               5
  0
VERTEX
  5
301
100
AcDbEntity
  8
OBJECT
100
AcDbVertex
100
AcDb2dVertex
 10
-1046.0
 20
751.00720000000001
 30
0.0
  0
VERTEX
  5
302
100
AcDbEntity
  8
OBJECT
100
AcDbVertex
100
AcDb2dVertex
 10
-1045.9997999999996
 20
751.08849999999984
 30
0.0
  0
VERTEX
  5
303
100
AcDbEntity
  8
OBJECT
100
AcDbVertex
100
AcDb2dVertex
 10
-1045.9989999999998
 20
751.18050000000039
 30
0.0
  0
VERTEX
  5
304
100
AcDbEntity
  8
OBJECT
100
AcDbVertex
100
AcDb2dVertex
 10
-1045.9975999999997
 20
751.27239999999983
 30
0.0
  0
VERTEX
  5
305
100
AcDbEntity
  8
OBJECT
100
AcDbVertex
100
AcDb2dVertex
 10
-1045.9956000000002
 20
751.36430000000018
 30
0.0
  0
VERTEX
  5
306
100
AcDbEntity
  8
OBJECT
100
AcDbVertex
100
AcDb2dVertex
 10
-1045.9930999999997
 20
751.45640000000003
 30
0.0
  0
VERTEX
  5
307
100
AcDbEntity
  8
OBJECT
100
AcDbVertex
100
AcDb2dVertex
 10
-1045.9899999999998
 20
751.54839999999967
 30
0.0
  0
VERTEX
  5
308
100
AcDbEntity
  8
OBJECT
100
AcDbVertex
100
AcDb2dVertex
 10
-1045.9863999999998
 20
751.64049999999952
 30
0.0
  0
VERTEX
  5
309
100
AcDbEntity
  8
OBJECT
100
AcDbVertex
100
AcDb2dVertex
 10
-1045.9822000000004
 20
751.73239999999987
 30
0.0
  0
VERTEX
  5
30A
100
AcDbEntity
  8
OBJECT
100
AcDbVertex
100
AcDb2dVertex
 10
-1045.9773999999998
 20
751.82420000000002
 30
0.0
  0
VERTEX
  5
30B
100
AcDbEntity
  8
OBJECT
100
AcDbVertex
100
AcDb2dVertex
 10
-1045.9721
 20
751.91600000000017
 30
0.0
  0
VERTEX
  5
30C
100
AcDbEntity
  8
OBJECT
100
AcDbVertex
100
AcDb2dVertex
 10
-1045.9660999999996
 20
752.00789999999961
 30
0.0
  0
VERTEX
  5
30D
100
AcDbEntity
  8
OBJECT
100
AcDbVertex
100
AcDb2dVertex
 10
-1045.9596999999994
 20
752.10009999999966
 30
0.0
  0
VERTEX
  5
30E
100
AcDbEntity
  8
OBJECT
100
AcDbVertex
100
AcDb2dVertex
 10
-1045.9525999999996
 20
752.1917999999996
 30
0.0
  0
VERTEX
  5
30F
100
AcDbEntity
  8
OBJECT
100
AcDbVertex
100
AcDb2dVertex
 10
-1045.9450999999999
 20
752.28309999999965
 30
0.0
  0
VERTEX
  5
310
100
AcDbEntity
  8
OBJECT
100
AcDbVertex
100
AcDb2dVertex
 10
-1045.9368999999997
 20
752.3747999999996
 30
0.0
  0
VERTEX
  5
311
100
AcDbEntity
  8
OBJECT
100
AcDbVertex
100
AcDb2dVertex
 10
-1045.9282000000003
 20
752.46659999999974
 30
0.0
  0
VERTEX
  5
312
100
AcDbEntity
  8
OBJECT
100
AcDbVertex
100
AcDb2dVertex
 10
-1045.9188999999997
 20
752.55829999999969
 30
0.0
  0
VERTEX
  5
313
100
AcDbEntity
  8
OBJECT
100
AcDbVertex
100
AcDb2dVertex
 10
-1045.9089999999997
 20
752.65009999999984
 30
0.0
  0
VERTEX
  5
314
100
AcDbEntity
  8
OBJECT
100
AcDbVertex
100
AcDb2dVertex
 10
-1045.8986000000004
 20
752.74160000000029
 30
0.0
  0
VERTEX
  5
315
100
AcDbEntity
  8
OBJECT
100
AcDbVertex
100
AcDb2dVertex
 10
-1045.8877000000002
 20
752.83259999999973
 30
0.0
  0
VERTEX
  5
316
100
AcDbEntity
  8
OBJECT
100
AcDbVertex
100
AcDb2dVertex
 10
-1045.8761999999997
 20
752.92370000000028
 30
0.0
  0
VERTEX
  5
317
100
AcDbEntity
  8
OBJECT
100
AcDbVertex
100
AcDb2dVertex
 10
-1045.8640999999998
 20
753.01530000000002
 30
0.0
  0
VERTEX
  5
318
100
AcDbEntity
  8
OBJECT
100
AcDbVertex
100
AcDb2dVertex
 10
-1045.8513999999996
 20
753.10660000000007
 30
0.0
  0
VERTEX
  5
319
100
AcDbEntity
  8
OBJECT
100
AcDbVertex
100
AcDb2dVertex
 10
-1045.8382000000001
 20
753.19740000000002
 30
0.0
  0
VERTEX
  5
31A
100
AcDbEntity
  8
OBJECT
100
AcDbVertex
100
AcDb2dVertex
 10
-1045.8243999999995
 20
753.28859999999986
 30
0.0
  0
VERTEX
  5
31B
100
AcDbEntity
  8
OBJECT
100
AcDbVertex
100
AcDb2dVertex
 10
-1045.8100999999997
 20
753.37960000000021
 30
0.0
  0
VERTEX
  5
31C
100
AcDbEntity
  8
OBJECT
100
AcDbVertex
100
AcDb2dVertex
 10
-1045.7951999999996
 20
753.47040000000015
 30
0.0
  0
VERTEX
  5
31D
100
AcDbEntity
  8
OBJECT
100
AcDbVertex
100
AcDb2dVertex
 10
-1045.7798000000003
 20
753.5609000000004
 30
0.0
  0
VERTEX
  5
31E
100
AcDbEntity
  8
OBJECT
100
AcDbVertex
100
AcDb2dVertex
 10
-1045.7638999999999
 20
753.65139999999974
 30
0.0
  0
VERTEX
  5
31F
100
AcDbEntity
  8
OBJECT
100
AcDbVertex
100
AcDb2dVertex
 10
-1045.7471999999998
 20
753.74240000000009
 30
0.0
  0
VERTEX
  5
320
100
AcDbEntity
  8
OBJECT
100
AcDbVertex
100
AcDb2dVertex
 10
-1045.7300999999998
 20
753.83280000000013
 30
0.0
  0
VERTEX
  5
321
100
AcDbEntity
  8
OBJECT
100
AcDbVertex
100
AcDb2dVertex
 10
-1045.7124999999996
 20
753.92309999999998
 30
0.0
  0
VERTEX
  5
322
100
AcDbEntity
  8
OBJECT
100
AcDbVertex
100
AcDb2dVertex
 10
-1045.6941999999999
 20
754.01350000000002
 30
0.0
  0
VERTEX
  5
323
100
AcDbEntity
  8
OBJECT
100
AcDbVertex
100
AcDb2dVertex
 10
-1045.6754999999994
 20
754.10339999999997
 30
0.0
  0
VERTEX
  5
324
100
AcDbEntity
  8
OBJECT
100
AcDbVertex
100
AcDb2dVertex
 10
-1045.6561000000002
 20
754.19359999999961
 30
0.0
  0
VERTEX
  5
325
100
AcDbEntity
  8
OBJECT
100
AcDbVertex
100
AcDb2dVertex
 10
-1045.6361999999999
 20
754.28349999999955
 30
0.0
  0
VERTEX
  5
326
100
AcDbEntity
  8
OBJECT
100
AcDbVertex
100
AcDb2dVertex
 10
-1045.6158999999998
 20
754.3729000000003
 30
0.0
  0
VERTEX
  5
327
100
AcDbEntity
  8
OBJECT
100
AcDbVertex
100
AcDb2dVertex
 10
-1045.5949000000001
 20
754.46259999999984
 30
0.0
  0
VERTEX
  5
328
100
AcDbEntity
  8
OBJECT
100
AcDbVertex
100
AcDb2dVertex
 10
-1045.5734000000002
 20
754.55209999999988
 30
0.0
  0
VERTEX
  5
329
100
AcDbEntity
  8
OBJECT
100
AcDbVertex
100
AcDb2dVertex
 10
-1045.5513000000001
 20
754.64140000000043
 30
0.0
  0
VERTEX
  5
32A
100
AcDbEntity
  8
OBJECT
100
AcDbVertex
100
AcDb2dVertex
 10
-1045.5286999999998
 20
754.73059999999987
 30
0.0
  0
VERTEX
  5
32B
100
AcDbEntity
  8
OBJECT
100
AcDbVertex
100
AcDb2dVertex
 10
-1045.5054
 20
754.82020000000011
 30
0.0
  0
VERTEX
  5
32C
100
AcDbEntity
  8
OBJECT
100
AcDbVertex
100
AcDb2dVertex
 10
-1045.4817999999996
 20
754.90890000000036
 30
0.0
  0
VERTEX
  5
32D
100
AcDbEntity
  8
OBJECT
100
AcDbVertex
100
AcDb2dVertex
 10
-1045.4575999999997
 20
754.9974000000002
 30
0.0
  0
VERTEX
  5
32E
100
AcDbEntity
  8
OBJECT
100
AcDbVertex
100
AcDb2dVertex
 10
-1045.4326999999994
 20
755.08629999999994
 30
0.0
  0
VERTEX
  5
32F
100
AcDbEntity
  8
OBJECT
100
AcDbVertex
100
AcDb2dVertex
 10
-1045.4072999999999
 20
755.17500000000018
 30
0.0
  0
VERTEX
  5
330
100
AcDbEntity
  8
OBJECT
100
AcDbVertex
100
AcDb2dVertex
 10
-1045.3814999999995
 20
755.26310000000012
 30
0.0
  0
VERTEX
  5
331
100
AcDbEntity
  8
OBJECT
100
AcDbVertex
100
AcDb2dVertex
 10
-1045.3549999999996
 20
755.35130000000026
 30
0.0
  0
VERTEX
  5
332
100
AcDbEntity
  8
OBJECT
100
AcDbVertex
100
AcDb2dVertex
 10
-1045.3280999999997
 20
755.43940000000021
 30
0.0
  0
VERTEX
  5
333
100
AcDbEntity
  8
OBJECT
100
AcDbVertex
100
AcDb2dVertex
 10
-1045.3005999999996
 20
755.52689999999984
 30
0.0
  0
VERTEX
  5
334
100
AcDbEntity
  8
OBJECT
100
AcDbVertex
100
AcDb2dVertex
 10
-1045.2726000000002
 20
755.61470000000008
 30
0.0
  0
VERTEX
  5
335
100
AcDbEntity
  8
OBJECT
100
AcDbVertex
100
AcDb2dVertex
 10
-1045.2438999999995
 20
755.70229999999992
 30
0.0
  0
VERTEX
  5
336
100
AcDbEntity
  8
OBJECT
100
AcDbVertex
100
AcDb2dVertex
 10
-1045.2147000000004
 20
755.78989999999976
 30
0.0
  0
VERTEX
  5
337
100
AcDbEntity
  8
OBJECT
100
AcDbVertex
100
AcDb2dVertex
 10
-1045.1849999999995
 20
755.87700000000041
 30
0.0
  0
VERTEX
  5
338
100
AcDbEntity
  8
OBJECT
100
AcDbVertex
100
AcDb2dVertex
 10
-1045.1549999999997
 20
755.96349999999984
 30
0.0
  0
VERTEX
  5
339
100
AcDbEntity
  8
OBJECT
100
AcDbVertex
100
AcDb2dVertex
 10
-1045.1242999999995
 20
756.05029999999988
 30
0.0
  0
VERTEX
  5
33A
100
AcDbEntity
  8
OBJECT
100
AcDbVertex
100
AcDb2dVertex
 10
-1045.0928999999996
 20
756.13730000000032
 30
0.0
  0
VERTEX
  5
33B
100
AcDbEntity
  8
OBJECT
100
AcDbVertex
100
AcDb2dVertex
 10
-1045.0610999999999
 20
756.22369999999955
 30
0.0
  0
VERTEX
  5
33C
100
AcDbEntity
  8
OBJECT
100
AcDbVertex
100
AcDb2dVertex
 10
-1045.0288
 20
756.3098
 30
0.0
  0
VERTEX
  5
33D
100
AcDbEntity
  8
OBJECT
100
AcDbVertex
100
AcDb2dVertex
 10
-1044.9960000000001
 20
756.39570000000003
 30
0.0
  0
VERTEX
  5
33E
100
AcDbEntity
  8
OBJECT
100
AcDbVertex
100
AcDb2dVertex
 10
-1044.9625999999998
 20
756.48139999999967
 30
0.0
  0
VERTEX
  5
33F
100
AcDbEntity
  8
OBJECT
100
AcDbVertex
100
AcDb2dVertex
 10
-1044.9287000000004
 20
756.56700000000001
 30
0.0
  0
VERTEX
  5
340
100
AcDbEntity
  8
OBJECT
100
AcDbVertex
100
AcDb2dVertex
 10
-1044.8942999999999
 20
756.65250000000015
 30
0.0
  0
VERTEX
  5
341
100
AcDbEntity
  8
OBJECT
100
AcDbVertex
100
AcDb2dVertex
 10
-1044.8591999999999
 20
756.73790000000008
 30
0.0
  0
VERTEX
  5
342
100
AcDbEntity
  8
OBJECT
100
AcDbVertex
100
AcDb2dVertex
 10
-1044.8238000000001
 20
756.82259999999951
 30
0.0
  0
VERTEX
  5
343
100
AcDbEntity
  8
OBJECT
100
AcDbVertex
100
AcDb2dVertex
 10
-1044.7878999999994
 20
756.90710000000036
 30
0.0
  0
VERTEX
  5
344
100
AcDbEntity
  8
OBJECT
100
AcDbVertex
100
AcDb2dVertex
 10
-1044.7514000000001
 20
756.99169999999958
 30
0.0
  0
VERTEX
  5
345
100
AcDbEntity
  8
OBJECT
100
AcDbVertex
100
AcDb2dVertex
 10
-1044.7142999999996
 20
757.07619999999952
 30
0.0
  0
VERTEX
  5
346
100
AcDbEntity
  8
OBJECT
100
AcDbVertex
100
AcDb2dVertex
 10
-1044.6767
 20
757.16029999999955
 30
0.0
  0
VERTEX
  5
347
100
AcDbEntity
  8
OBJECT
100
AcDbVertex
100
AcDb2dVertex
 10
-1044.6387999999997
 20
757.24369999999999
 30
0.0
  0
VERTEX
  5
348
100
AcDbEntity
  8
OBJECT
100
AcDbVertex
100
AcDb2dVertex
 10
-1044.6000999999997
 20
757.32749999999942
 30
0.0
  0
VERTEX
  5
349
100
AcDbEntity
  8
OBJECT
100
AcDbVertex
100
AcDb2dVertex
 10
-1044.5609000000004
 20
757.41110000000026
 30
0.0
  0
VERTEX
  5
34A
100
AcDbEntity
  8
OBJECT
100
AcDbVertex
100
AcDb2dVertex
 10
-1044.5214999999998
 20
757.49380000000019
 30
0.0
  0
VERTEX
  5
34B
100
AcDbEntity
  8
OBJECT
100
AcDbVertex
100
AcDb2dVertex
 10
-1044.4813999999997
 20
757.57660000000033
 30
0.0
  0
VERTEX
  5
34C
100
AcDbEntity
  8
OBJECT
100
AcDbVertex
100
AcDb2dVertex
 10
-1044.4407000000001
 20
757.65949999999975
 30
0.0
  0
VERTEX
  5
34D
100
AcDbEntity
  8
OBJECT
100
AcDbVertex
100
AcDb2dVertex
 10
-1044.3995999999997
 20
757.74189999999999
 30
0.0
  0
VERTEX
  5
34E
100
AcDbEntity
  8
OBJECT
100
AcDbVertex
100
AcDb2dVertex
 10
-1044.3580000000002
 20
757.82389999999941
 30
0.0
  0
VERTEX
  5
34F
100
AcDbEntity
  8
OBJECT
100
AcDbVertex
100
AcDb2dVertex
 10
-1044.3158999999996
 20
757.90560000000005
 30
0.0
  0
VERTEX
  5
350
100
AcDbEntity
  8
OBJECT
100
AcDbVertex
100
AcDb2dVertex
 10
-1044.2731999999996
 20
757.98739999999998
 30
0.0
  0
VERTEX
  5
351
100
AcDbEntity
  8
OBJECT
100
AcDbVertex
100
AcDb2dVertex
 10
-1044.2299999999996
 20
758.06890000000021
 30
0.0
  0
VERTEX
  5
352
100
AcDbEntity
  8
OBJECT
100
AcDbVertex
100
AcDb2dVertex
 10
-1044.1863999999996
 20
758.14990000000034
 30
0.0
  0
VERTEX
  5
353
100
AcDbEntity
  8
OBJECT
100
AcDbVertex
100
AcDb2dVertex
 10
-1044.1423999999997
 20
758.23040000000037
 30
0.0
  0
VERTEX
  5
354
100
AcDbEntity
  8
OBJECT
100
AcDbVertex
100
AcDb2dVertex
 10
-1044.0977999999996
 20
758.3109000000004
 30
0.0
  0
VERTEX
  5
355
100
AcDbEntity
  8
OBJECT
100
AcDbVertex
100
AcDb2dVertex
 10
-1044.0526
 20
758.39120000000003
 30
0.0
  0
VERTEX
  5
356
100
AcDbEntity
  8
OBJECT
100
AcDbVertex
100
AcDb2dVertex
 10
-1044.0069000000003
 20
758.47130000000016
 30
0.0
  0
VERTEX
  5
357
100
AcDbEntity
  8
OBJECT
100
AcDbVertex
100
AcDb2dVertex
 10
-1043.9609999999993
 20
758.55079999999998
 30
0.0
  0
VERTEX
  5
358
100
AcDbEntity
  8
OBJECT
100
AcDbVertex
100
AcDb2dVertex
 10
-1043.9143000000004
 20
758.63029999999981
 30
0.0
  0
VERTEX
  5
359
100
AcDbEntity
  8
OBJECT
100
AcDbVertex
100
AcDb2dVertex
 10
-1043.8671999999997
 20
758.70960000000014
 30
0.0
  0
VERTEX
  5
35A
100
AcDbEntity
  8
OBJECT
100
AcDbVertex
100
AcDb2dVertex
 10
-1043.8195999999998
 20
758.78839999999946
 30
0.0
  0
VERTEX
  5
35B
100
AcDbEntity
  8
OBJECT
100
AcDbVertex
100
AcDb2dVertex
 10
-1043.7716
 20
758.86679999999978
 30
0.0
  0
VERTEX
  5
35C
100
AcDbEntity
  8
OBJECT
100
AcDbVertex
100
AcDb2dVertex
 10
-1043.7231000000002
 20
758.94499999999971
 30
0.0
  0
VERTEX
  5
35D
100
AcDbEntity
  8
OBJECT
100
AcDbVertex
100
AcDb2dVertex
 10
-1043.6742999999997
 20
759.02269999999953
 30
0.0
  0
VERTEX
  5
35E
100
AcDbEntity
  8
OBJECT
100
AcDbVertex
100
AcDb2dVertex
 10
-1043.6247000000003
 20
759.10049999999956
 30
0.0
  0
VERTEX
  5
35F
100
AcDbEntity
  8
OBJECT
100
AcDbVertex
100
AcDb2dVertex
 10
-1043.5745999999999
 20
759.17810000000009
 30
0.0
  0
VERTEX
  5
360
100
AcDbEntity
  8
OBJECT
100
AcDbVertex
100
AcDb2dVertex
 10
-1043.5243
 20
759.25489999999991
 30
0.0
  0
VERTEX
  5
361
100
AcDbEntity
  8
OBJECT
100
AcDbVertex
100
AcDb2dVertex
 10
-1043.4733999999999
 20
759.33150000000023
 30
0.0
  0
VERTEX
  5
362
100
AcDbEntity
  8
OBJECT
100
AcDbVertex
100
AcDb2dVertex
 10
-1043.4220999999998
 20
759.40790000000015
 30
0.0
  0
VERTEX
  5
363
100
AcDbEntity
  8
OBJECT
100
AcDbVertex
100
AcDb2dVertex
 10
-1043.3701000000001
 20
759.48409999999967
 30
0.0
  0
VERTEX
  5
364
100
AcDbEntity
  8
OBJECT
100
AcDbVertex
100
AcDb2dVertex
 10
-1043.3180000000002
 20
759.55969999999979
 30
0.0
  0
VERTEX
  5
365
100
AcDbEntity
  8
OBJECT
100
AcDbVertex
100
AcDb2dVertex
 10
-1043.2653
 20
759.63500000000022
 30
0.0
  0
VERTEX
  5
366
100
AcDbEntity
  8
OBJECT
100
AcDbVertex
100
AcDb2dVertex
 10
-1043.2118
 20
759.71050000000014
 30
0.0
  0
VERTEX
  5
367
100
AcDbEntity
  8
OBJECT
100
AcDbVertex
100
AcDb2dVertex
 10
-1043.1579000000002
 20
759.78560000000016
 30
0.0
  0
VERTEX
  5
368
100
AcDbEntity
  8
OBJECT
100
AcDbVertex
100
AcDb2dVertex
 10
-1043.1039999999994
 20
759.85969999999998
 30
0.0
  0
VERTEX
  5
369
100
AcDbEntity
  8
OBJECT
100
AcDbVertex
100
AcDb2dVertex
 10
-1043.0496000000003
 20
759.93350000000009
 30
0.0
  0
VERTEX
  5
36A
100
AcDbEntity
  8
OBJECT
100
AcDbVertex
100
AcDb2dVertex
 10
-1042.9944999999998
 20
760.00740000000042
 30
0.0
  0
VERTEX
  5
36B
100
AcDbEntity
  8
OBJECT
100
AcDbVertex
100
AcDb2dVertex
 10
-1042.9390000000003
 20
760.08079999999973
 30
0.0
  0
VERTEX
  5
36C
100
AcDbEntity
  8
OBJECT
100
AcDbVertex
100
AcDb2dVertex
 10
-1042.8827999999994
 20
760.15419999999995
 30
0.0
  0
VERTEX
  5
36D
100
AcDbEntity
  8
OBJECT
100
AcDbVertex
100
AcDb2dVertex
 10
-1042.8262999999997
 20
760.22699999999986
 30
0.0
  0
VERTEX
  5
36E
100
AcDbEntity
  8
OBJECT
100
AcDbVertex
100
AcDb2dVertex
 10
-1042.7698
 20
760.29899999999998
 30
0.0
  0
VERTEX
  5
36F
100
AcDbEntity
  8
OBJECT
100
AcDbVertex
100
AcDb2dVertex
 10
-1042.7124999999996
 20
760.3711000000003
 30
0.0
  0
VERTEX
  5
370
100
AcDbEntity
  8
OBJECT
100
AcDbVertex
100
AcDb2dVertex
 10
-1042.6547
 20
760.44290000000001
 30
0.0
  0
VERTEX
  5
371
100
AcDbEntity
  8
OBJECT
100
AcDbVertex
100
AcDb2dVertex
 10
-1042.5964999999997
 20
760.51429999999982
 30
0.0
  0
VERTEX
  5
372
100
AcDbEntity
  8
OBJECT
100
AcDbVertex
100
AcDb2dVertex
 10
-1042.5380999999998
 20
760.58500000000004
 30
0.0
  0
VERTEX
  5
373
100
AcDbEntity
  8
OBJECT
100
AcDbVertex
100
AcDb2dVertex
 10
-1042.4789000000001
 20
760.65579999999954
 30
0.0
  0
VERTEX
  5
374
100
AcDbEntity
  8
OBJECT
100
AcDbVertex
100
AcDb2dVertex
 10
-1042.4192999999996
 20
760.72630000000026
 30
0.0
  0
VERTEX
  5
375
100
AcDbEntity
  8
OBJECT
100
AcDbVertex
100
AcDb2dVertex
 10
-1042.3597
 20
760.79579999999987
 30
0.0
  0
VERTEX
  5
376
100
AcDbEntity
  8
OBJECT
100
AcDbVertex
100
AcDb2dVertex
 10
-1042.2992999999997
 20
760.86539999999968
 30
0.0
  0
VERTEX
  5
377
100
AcDbEntity
  8
OBJECT
100
AcDbVertex
100
AcDb2dVertex
 10
-1042.2384000000002
 20
760.9348
 30
0.0
  0
VERTEX
  5
378
100
AcDbEntity
  8
OBJECT
100
AcDbVertex
100
AcDb2dVertex
 10
-1042.1770999999999
 20
761.00370000000021
 30
0.0
  0
VERTEX
  5
379
100
AcDbEntity
  8
OBJECT
100
AcDbVertex
100
AcDb2dVertex
 10
-1042.1154999999999
 20
761.07200000000012
 30
0.0
  0
VERTEX
  5
37A
100
AcDbEntity
  8
OBJECT
100
AcDbVertex
100
AcDb2dVertex
 10
-1042.0537999999997
 20
761.13969999999972
 30
0.0
  0
VERTEX
  5
37B
100
AcDbEntity
  8
OBJECT
100
AcDbVertex
100
AcDb2dVertex
 10
-1041.9912000000004
 20
761.20759999999973
 30
0.0
  0
VERTEX
  5
37C
100
AcDbEntity
  8
OBJECT
100
AcDbVertex
100
AcDb2dVertex
 10
-1041.9282000000003
 20
761.27499999999964
 30
0.0
  0
VERTEX
  5
37D
100
AcDbEntity
  8
OBJECT
100
AcDbVertex
100
AcDb2dVertex
 10
-1041.8651
 20
761.34169999999995
 30
0.0
  0
VERTEX
  5
37E
100
AcDbEntity
  8
OBJECT
100
AcDbVertex
100
AcDb2dVertex
 10
-1041.8014999999996
 20
761.40809999999965
 30
0.0
  0
VERTEX
  5
37F
100
AcDbEntity
  8
OBJECT
100
AcDbVertex
100
AcDb2dVertex
 10
-1041.7376000000004
 20
761.47409999999945
 30
0.0
  0
VERTEX
  5
380
100
AcDbEntity
  8
OBJECT
100
AcDbVertex
100
AcDb2dVertex
 10
-1041.6729999999998
 20
761.53989999999976
 30
0.0
  0
VERTEX
  5
381
100
AcDbEntity
  8
OBJECT
100
AcDbVertex
100
AcDb2dVertex
 10
-1041.6079
 20
761.60540000000037
 30
0.0
  0
VERTEX
  5
382
100
AcDbEntity
  8
OBJECT
100
AcDbVertex
100
AcDb2dVertex
 10
-1041.5425999999998
 20
761.67029999999977
 30
0.0
  0
VERTEX
  5
383
100
AcDbEntity
  8
OBJECT
100
AcDbVertex
100
AcDb2dVertex
 10
-1041.4769999999999
 20
761.73469999999998
 30
0.0
  0
VERTEX
  5
384
100
AcDbEntity
  8
OBJECT
100
AcDbVertex
100
AcDb2dVertex
 10
-1041.4110000000001
 20
761.79870000000028
 30
0.0
  0
VERTEX
  5
385
100
AcDbEntity
  8
OBJECT
100
AcDbVertex
100
AcDb2dVertex
 10
-1041.3446000000004
 20
761.86229999999978
 30
0.0
  0
VERTEX
  5
386
100
AcDbEntity
  8
OBJECT
100
AcDbVertex
100
AcDb2dVertex
 10
-1041.2775000000001
 20
761.92579999999998
 30
0.0
  0
VERTEX
  5
387
100
AcDbEntity
  8
OBJECT
100
AcDbVertex
100
AcDb2dVertex
 10
-1041.2102999999997
 20
761.98869999999988
 30
0.0
  0
VERTEX
  5
388
100
AcDbEntity
  8
OBJECT
100
AcDbVertex
100
AcDb2dVertex
 10
-1041.143
 20
762.05079999999998
 30
0.0
  0
VERTEX
  5
389
100
AcDbEntity
  8
OBJECT
100
AcDbVertex
100
AcDb2dVertex
 10
-1041.0748000000003
 20
762.11300000000028
 30
0.0
  0
VERTEX
  5
38A
100
AcDbEntity
  8
OBJECT
100
AcDbVertex
100
AcDb2dVertex
 10
-1041.0064000000002
 20
762.17469999999958
 30
0.0
  0
VERTEX
  5
38B
100
AcDbEntity
  8
OBJECT
100
AcDbVertex
100
AcDb2dVertex
 10
-1040.9373999999998
 20
762.23610000000008
 30
0.0
  0
VERTEX
  5
38C
100
AcDbEntity
  8
OBJECT
100
AcDbVertex
100
AcDb2dVertex
 10
-1040.8681999999999
 20
762.29680000000008
 30
0.0
  0
VERTEX
  5
38D
100
AcDbEntity
  8
OBJECT
100
AcDbVertex
100
AcDb2dVertex
 10
-1040.7991999999995
 20
762.35670000000027
 30
0.0
  0
VERTEX
  5
38E
100
AcDbEntity
  8
OBJECT
100
AcDbVertex
100
AcDb2dVertex
 10
-1040.7291999999998
 20
762.41679999999997
 30
0.0
  0
VERTEX
  5
38F
100
AcDbEntity
  8
OBJECT
100
AcDbVertex
100
AcDb2dVertex
 10
-1040.6587
 20
762.47649999999976
 30
0.0
  0
VERTEX
  5
390
100
AcDbEntity
  8
OBJECT
100
AcDbVertex
100
AcDb2dVertex
 10
-1040.5879999999997
 20
762.53560000000016
 30
0.0
  0
VERTEX
  5
391
100
AcDbEntity
  8
OBJECT
100
AcDbVertex
100
AcDb2dVertex
 10
-1040.5172999999995
 20
762.59400000000005
 30
0.0
  0
VERTEX
  5
392
100
AcDbEntity
  8
OBJECT
100
AcDbVertex
100
AcDb2dVertex
 10
-1040.4459999999999
 20
762.65219999999954
 30
0.0
  0
VERTEX
  5
393
100
AcDbEntity
  8
OBJECT
100
AcDbVertex
100
AcDb2dVertex
 10
-1040.3742999999995
 20
762.70989999999983
 30
0.0
  0
VERTEX
  5
394
100
AcDbEntity
  8
OBJECT
100
AcDbVertex
100
AcDb2dVertex
 10
-1040.3022999999994
 20
762.76729999999952
 30
0.0
  0
VERTEX
  5
395
100
AcDbEntity
  8
OBJECT
100
AcDbVertex
100
AcDb2dVertex
 10
-1040.2298000000001
 20
762.82420000000002
 30
0.0
  0
VERTEX
  5
396
100
AcDbEntity
  8
OBJECT
100
AcDbVertex
100
AcDb2dVertex
 10
-1040.1567999999997
 20
762.88079999999991
 30
0.0
  0
VERTEX
  5
397
100
AcDbEntity
  8
OBJECT
100
AcDbVertex
100
AcDb2dVertex
 10
-1040.0838999999996
 20
762.9366
 30
0.0
  0
VERTEX
  5
398
100
AcDbEntity
  8
OBJECT
100
AcDbVertex
100
AcDb2dVertex
 10
-1040.0106999999998
 20
762.99200000000019
 30
0.0
  0
VERTEX
  5
399
100
AcDbEntity
  8
OBJECT
100
AcDbVertex
100
AcDb2dVertex
 10
-1039.9367999999995
 20
763.04719999999998
 30
0.0
  0
VERTEX
  5
39A
100
AcDbEntity
  8
OBJECT
100
AcDbVertex
100
AcDb2dVertex
 10
-1039.8626000000004
 20
763.10180000000037
 30
0.0
  0
VERTEX
  5
39B
100
AcDbEntity
  8
OBJECT
100
AcDbVertex
100
AcDb2dVertex
 10
-1039.7883999999995
 20
763.15589999999975
 30
0.0
  0
VERTEX
  5
39C
100
AcDbEntity
  8
OBJECT
100
AcDbVertex
100
AcDb2dVertex
 10
-1039.7137999999995
 20
763.20939999999973
 30
0.0
  0
VERTEX
  5
39D
100
AcDbEntity
  8
OBJECT
100
AcDbVertex
100
AcDb2dVertex
 10
-1039.6382999999996
 20
763.26299999999992
 30
0.0
  0
VERTEX
  5
39E
100
AcDbEntity
  8
OBJECT
100
AcDbVertex
100
AcDb2dVertex
 10
-1039.5627999999997
 20
763.31580000000031
 30
0.0
  0
VERTEX
  5
39F
100
AcDbEntity
  8
OBJECT
100
AcDbVertex
100
AcDb2dVertex
 10
-1039.4872999999998
 20
763.36800000000039
 30
0.0
  0
VERTEX
  5
3A0
100
AcDbEntity
  8
OBJECT
100
AcDbVertex
100
AcDb2dVertex
 10
-1039.4112999999998
 20
763.41979999999967
 30
0.0
  0
VERTEX
  5
3A1
100
AcDbEntity
  8
OBJECT
100
AcDbVertex
100
AcDb2dVertex
 10
-1039.3346999999994
 20
763.47130000000016
 30
0.0
  0
VERTEX
  5
3A2
100
AcDbEntity
  8
OBJECT
100
AcDbVertex
100
AcDb2dVertex
 10
-1039.2582000000002
 20
763.52210000000014
 30
0.0
  0
VERTEX
  5
3A3
100
AcDbEntity
  8
OBJECT
100
AcDbVertex
100
AcDb2dVertex
 10
-1039.1813999999995
 20
763.57240000000002
 30
0.0
  0
VERTEX
  5
3A4
100
AcDbEntity
  8
OBJECT
100
AcDbVertex
100
AcDb2dVertex
 10
-1039.1036999999997
 20
763.62259999999969
 30
0.0
  0
VERTEX
  5
3A5
100
AcDbEntity
  8
OBJECT
100
AcDbVertex
100
AcDb2dVertex
 10
-1039.0259999999998
 20
763.67219999999998
 30
0.0
  0
VERTEX
  5
3A6
100
AcDbEntity
  8
OBJECT
100
AcDbVertex
100
AcDb2dVertex
 10
-1038.9480999999996
 20
763.72119999999995
 30
0.0
  0
VERTEX
  5
3A7
100
AcDbEntity
  8
OBJECT
100
AcDbVertex
100
AcDb2dVertex
 10
-1038.8701000000001
 20
763.76959999999963
 30
0.0
  0
VERTEX
  5
3A8
100
AcDbEntity
  8
OBJECT
100
AcDbVertex
100
AcDb2dVertex
 10
-1038.7916999999998
 20
763.81750000000011
 30
0.0
  0
VERTEX
  5
3A9
100
AcDbEntity
  8
OBJECT
100
AcDbVertex
100
AcDb2dVertex
 10
-1038.7127999999993
 20
763.86520000000019
 30
0.0
  0
VERTEX
  5
3AA
100
AcDbEntity
  8
OBJECT
100
AcDbVertex
100
AcDb2dVertex
 10
-1038.6336000000001
 20
763.91229999999996
 30
0.0
  0
VERTEX
  5
3AB
100
AcDbEntity
  8
OBJECT
100
AcDbVertex
100
AcDb2dVertex
 10
-1038.5542999999998
 20
763.95889999999963
 30
0.0
  0
VERTEX
  5
3AC
100
AcDbEntity
  8
OBJECT
100
AcDbVertex
100
AcDb2dVertex
 10
-1038.4745999999996
 20
764.00510000000031
 30
0.0
  0
VERTEX
  5
3AD
100
AcDbEntity
  8
OBJECT
100
AcDbVertex
100
AcDb2dVertex
 10
-1038.3942999999999
 20
764.05079999999998
 30
0.0
  0
VERTEX
  5
3AE
100
AcDbEntity
  8
OBJECT
100
AcDbVertex
100
AcDb2dVertex
 10
-1038.3143
 20
764.09580000000005
 30
0.0
  0
VERTEX
  5
3AF
100
AcDbEntity
  8
OBJECT
100
AcDbVertex
100
AcDb2dVertex
 10
-1038.2340000000004
 20
764.14040000000023
 30
0.0
  0
VERTEX
  5
3B0
100
AcDbEntity
  8
OBJECT
100
AcDbVertex
100
AcDb2dVertex
 10
-1038.1532999999999
 20
764.1845000000003
 30
0.0
  0
VERTEX
  5
3B1
100
AcDbEntity
  8
OBJECT
100
AcDbVertex
100
AcDb2dVertex
 10
-1038.0720000000001
 20
764.22829999999976
 30
0.0
  0
VERTEX
  5
3B2
100
AcDbEntity
  8
OBJECT
100
AcDbVertex
100
AcDb2dVertex
 10
-1037.9906000000001
 20
764.27149999999983
 30
0.0
  0
VERTEX
  5
3B3
100
AcDbEntity
  8
OBJECT
100
AcDbVertex
100
AcDb2dVertex
 10
-1037.9092999999993
 20
764.31400000000031
 30
0.0
  0
VERTEX
  5
3B4
100
AcDbEntity
  8
OBJECT
100
AcDbVertex
100
AcDb2dVertex
 10
-1037.8272999999999
 20
764.35620000000017
 30
0.0
  0
VERTEX
  5
3B5
100
AcDbEntity
  8
OBJECT
100
AcDbVertex
100
AcDb2dVertex
 10
-1037.7449999999999
 20
764.39789999999994
 30
0.0
  0
VERTEX
  5
3B6
100
AcDbEntity
  8
OBJECT
100
AcDbVertex
100
AcDb2dVertex
 10
-1037.6628000000001
 20
764.43900000000031
 30
0.0
  0
VERTEX
  5
3B7
100
AcDbEntity
  8
OBJECT
100
AcDbVertex
100
AcDb2dVertex
 10
-1037.5803999999998
 20
764.47949999999946
 30
0.0
  0
VERTEX
  5
3B8
100
AcDbEntity
  8
OBJECT
100
AcDbVertex
100
AcDb2dVertex
 10
-1037.4974999999995
 20
764.51969999999983
 30
0.0
  0
VERTEX
  5
3B9
100
AcDbEntity
  8
OBJECT
100
AcDbVertex
100
AcDb2dVertex
 10
-1037.4144999999999
 20
764.55929999999989
 30
0.0
  0
VERTEX
  5
3BA
100
AcDbEntity
  8
OBJECT
100
AcDbVertex
100
AcDb2dVertex
 10
-1037.3307999999997
 20
764.59860000000026
 30
0.0
  0
VERTEX
  5
3BB
100
AcDbEntity
  8
OBJECT
100
AcDbVertex
100
AcDb2dVertex
 10
-1037.2473
 20
764.63709999999992
 30
0.0
  0
VERTEX
  5
3BC
100
AcDbEntity
  8
OBJECT
100
AcDbVertex
100
AcDb2dVertex
 10
-1037.1637000000001
 20
764.67510000000038
 30
0.0
  0
VERTEX
  5
3BD
100
AcDbEntity
  8
OBJECT
100
AcDbVertex
100
AcDb2dVertex
 10
-1037.0793999999996
 20
764.71280000000024
 30
0.0
  0
VERTEX
  5
3BE
100
AcDbEntity
  8
OBJECT
100
AcDbVertex
100
AcDb2dVertex
 10
-1036.9955
 20
764.7497000000003
 30
0.0
  0
VERTEX
  5
3BF
100
AcDbEntity
  8
OBJECT
100
AcDbVertex
100
AcDb2dVertex
 10
-1036.9111999999996
 20
764.78610000000026
 30
0.0
  0
VERTEX
  5
3C0
100
AcDbEntity
  8
OBJECT
100
AcDbVertex
100
AcDb2dVertex
 10
-1036.8261000000002
 20
764.82229999999981
 30
0.0
  0
VERTEX
  5
3C1
100
AcDbEntity
  8
OBJECT
100
AcDbVertex
100
AcDb2dVertex
 10
-1036.741
 20
764.85789999999997
 30
0.0
  0
VERTEX
  5
3C2
100
AcDbEntity
  8
OBJECT
100
AcDbVertex
100
AcDb2dVertex
 10
-1036.6561999999994
 20
764.89270000000033
 30
0.0
  0
VERTEX
  5
3C3
100
AcDbEntity
  8
OBJECT
100
AcDbVertex
100
AcDb2dVertex
 10
-1036.5706
 20
764.92730000000029
 30
0.0
  0
VERTEX
  5
3C4
100
AcDbEntity
  8
OBJECT
100
AcDbVertex
100
AcDb2dVertex
 10
-1036.4848999999995
 20
764.96119999999974
 30
0.0
  0
VERTEX
  5
3C5
100
AcDbEntity
  8
OBJECT
100
AcDbVertex
100
AcDb2dVertex
 10
-1036.3994000000002
 20
764.99449999999979
 30
0.0
  0
VERTEX
  5
3C6
100
AcDbEntity
  8
OBJECT
100
AcDbVertex
100
AcDb2dVertex
 10
-1036.3134
 20
765.02739999999994
 30
0.0
  0
VERTEX
  5
3C7
100
AcDbEntity
  8
OBJECT
100
AcDbVertex
100
AcDb2dVertex
 10
-1036.2271000000001
 20
765.0598
 30
0.0
  0
VERTEX
  5
3C8
100
AcDbEntity
  8
OBJECT
100
AcDbVertex
100
AcDb2dVertex
 10
-1036.1405999999997
 20
765.09159999999974
 30
0.0
  0
VERTEX
  5
3C9
100
AcDbEntity
  8
OBJECT
100
AcDbVertex
100
AcDb2dVertex
 10
-1036.0540000000001
 20
765.1229000000003
 30
0.0
  0
VERTEX
  5
3CA
100
AcDbEntity
  8
OBJECT
100
AcDbVertex
100
AcDb2dVertex
 10
-1035.9674999999997
 20
765.15359999999964
 30
0.0
  0
VERTEX
  5
3CB
100
AcDbEntity
  8
OBJECT
100
AcDbVertex
100
AcDb2dVertex
 10
-1035.8806999999997
 20
765.18379999999979
 30
0.0
  0
VERTEX
  5
3CC
100
AcDbEntity
  8
OBJECT
100
AcDbVertex
100
AcDb2dVertex
 10
-1035.7932000000001
 20
765.21360000000004
 30
0.0
  0
VERTEX
  5
3CD
100
AcDbEntity
  8
OBJECT
100
AcDbVertex
100
AcDb2dVertex
 10
-1035.7060000000001
 20
765.24269999999979
 30
0.0
  0
VERTEX
  5
3CE
100
AcDbEntity
  8
OBJECT
100
AcDbVertex
100
AcDb2dVertex
 10
-1035.6188000000002
 20
765.27120000000014
 30
0.0
  0
VERTEX
  5
3CF
100
AcDbEntity
  8
OBJECT
100
AcDbVertex
100
AcDb2dVertex
 10
-1035.5308000000005
 20
765.29939999999988
 30
0.0
  0
VERTEX
  5
3D0
100
AcDbEntity
  8
OBJECT
100
AcDbVertex
100
AcDb2dVertex
 10
-1035.4427999999998
 20
765.32690000000002
 30
0.0
  0
VERTEX
  5
3D1
100
AcDbEntity
  8
OBJECT
100
AcDbVertex
100
AcDb2dVertex
 10
-1035.3550999999998
 20
765.35390000000007
 30
0.0
  0
VERTEX
  5
3D2
100
AcDbEntity
  8
OBJECT
100
AcDbVertex
100
AcDb2dVertex
 10
-1035.2669999999998
 20
765.38029999999981
 30
0.0
  0
VERTEX
  5
3D3
100
AcDbEntity
  8
OBJECT
100
AcDbVertex
100
AcDb2dVertex
 10
-1035.1782999999996
 20
765.40629999999965
 30
0.0
  0
VERTEX
  5
3D4
100
AcDbEntity
  8
OBJECT
100
AcDbVertex
100
AcDb2dVertex
 10
-1035.0900000000001
 20
765.43159999999989
 30
0.0
  0
VERTEX
  5
3D5
100
AcDbEntity
  8
OBJECT
100
AcDbVertex
100
AcDb2dVertex
 10
-1035.0014000000001
 20
765.45640000000003
 30
0.0
  0
VERTEX
  5
3D6
100
AcDbEntity
  8
OBJECT
100
AcDbVertex
100
AcDb2dVertex
 10
-1034.9125999999997
 20
765.48070000000007
 30
0.0
  0
VERTEX
  5
3D7
100
AcDbEntity
  8
OBJECT
100
AcDbVertex
100
AcDb2dVertex
 10
-1034.8235000000004
 20
765.50450000000001
 30
0.0
  0
VERTEX
  5
3D8
100
AcDbEntity
  8
OBJECT
100
AcDbVertex
100
AcDb2dVertex
 10
-1034.7343999999994
 20
765.52769999999964
 30
0.0
  0
VERTEX
  5
3D9
100
AcDbEntity
  8
OBJECT
100
AcDbVertex
100
AcDb2dVertex
 10
-1034.6453999999994
 20
765.55029999999988
 30
0.0
  0
VERTEX
  5
3DA
100
AcDbEntity
  8
OBJECT
100
AcDbVertex
100
AcDb2dVertex
 10
-1034.5558999999994
 20
765.57240000000002
 30
0.0
  0
VERTEX
  5
3DB
100
AcDbEntity
  8
OBJECT
100
AcDbVertex
100
AcDb2dVertex
 10
-1034.4663999999993
 20
765.59400000000005
 30
0.0
  0
VERTEX
  5
3DC
100
AcDbEntity
  8
OBJECT
100
AcDbVertex
100
AcDb2dVertex
 10
-1034.3769000000002
 20
765.61489999999958
 30
0.0
  0
VERTEX
  5
3DD
100
AcDbEntity
  8
OBJECT
100
AcDbVertex
100
AcDb2dVertex
 10
-1034.2874000000002
 20
765.63529999999992
 30
0.0
  0
VERTEX
  5
3DE
100
AcDbEntity
  8
OBJECT
100
AcDbVertex
100
AcDb2dVertex
 10
-1034.1971999999996
 20
765.65530000000035
 30
0.0
  0
VERTEX
  5
3DF
100
AcDbEntity
  8
OBJECT
100
AcDbVertex
100
AcDb2dVertex
 10
-1034.1068999999998
 20
765.67469999999958
 30
0.0
  0
VERTEX
  5
3E0
100
AcDbEntity
  8
OBJECT
100
AcDbVertex
100
AcDb2dVertex
 10
-1034.0167999999994
 20
765.69350000000031
 30
0.0
  0
VERTEX
  5
3E1
100
AcDbEntity
  8
OBJECT
100
AcDbVertex
100
AcDb2dVertex
 10
-1033.9269000000004
 20
765.71169999999984
 30
0.0
  0
VERTEX
  5
3E2
100
AcDbEntity
  8
OBJECT
100
AcDbVertex
100
AcDb2dVertex
 10
-1033.8365999999996
 20
765.72929999999997
 30
0.0
  0
VERTEX
  5
3E3
100
AcDbEntity
  8
OBJECT
100
AcDbVertex
100
AcDb2dVertex
 10
-1033.7461999999996
 20
765.7465000000002
 30
0.0
  0
VERTEX
  5
3E4
100
AcDbEntity
  8
OBJECT
100
AcDbVertex
100
AcDb2dVertex
 10
-1033.6556999999993
 20
765.76299999999992
 30
0.0
  0
VERTEX
  5
3E5
100
AcDbEntity
  8
OBJECT
100
AcDbVertex
100
AcDb2dVertex
 10
-1033.5645999999997
 20
765.77909999999974
 30
0.0
  0
VERTEX
  5
3E6
100
AcDbEntity
  8
OBJECT
100
AcDbVertex
100
AcDb2dVertex
 10
-1033.4739
 20
765.79460000000017
 30
0.0
  0
VERTEX
  5
3E7
100
AcDbEntity
  8
OBJECT
100
AcDbVertex
100
AcDb2dVertex
 10
-1033.3832000000002
 20
765.8095000000003
 30
0.0
  0
VERTEX
  5
3E8
100
AcDbEntity
  8
OBJECT
100
AcDbVertex
100
AcDb2dVertex
 10
-1033.2924999999996
 20
765.82380000000012
 30
0.0
  0
VERTEX
  5
3E9
100
AcDbEntity
  8
OBJECT
100
AcDbVertex
100
AcDb2dVertex
 10
-1033.2016000000003
 20
765.83759999999984
 30
0.0
  0
VERTEX
  5
3EA
100
AcDbEntity
  8
OBJECT
100
AcDbVertex
100
AcDb2dVertex
 10
-1033.1100999999999
 20
765.85080000000016
 30
0.0
  0
VERTEX
  5
3EB
100
AcDbEntity
  8
OBJECT
100
AcDbVertex
100
AcDb2dVertex
 10
-1033.0189
 20
765.86349999999948
 30
0.0
  0
VERTEX
  5
3EC
100
AcDbEntity
  8
OBJECT
100
AcDbVertex
100
AcDb2dVertex
 10
-1032.9279999999999
 20
765.8756000000003
 30
0.0
  0
VERTEX
  5
3ED
100
AcDbEntity
  8
OBJECT
100
AcDbVertex
100
AcDb2dVertex
 10
-1032.8364999999994
 20
765.88720000000012
 30
0.0
  0
VERTEX
  5
3EE
100
AcDbEntity
  8
OBJECT
100
AcDbVertex
100
AcDb2dVertex
 10
-1032.7451999999994
 20
765.89810000000034
 30
0.0
  0
VERTEX
  5
3EF
100
AcDbEntity
  8
OBJECT
100
AcDbVertex
100
AcDb2dVertex
 10
-1032.6535000000003
 20
765.90859999999975
 30
0.0
  0
VERTEX
  5
3F0
100
AcDbEntity
  8
OBJECT
100
AcDbVertex
100
AcDb2dVertex
 10
-1032.5618999999997
 20
765.91849999999977
 30
0.0
  0
VERTEX
  5
3F1
100
AcDbEntity
  8
OBJECT
100
AcDbVertex
100
AcDb2dVertex
 10
-1032.4705999999996
 20
765.92770000000019
 30
0.0
  0
VERTEX
  5
3F2
100
AcDbEntity
  8
OBJECT
100
AcDbVertex
100
AcDb2dVertex
 10
-1032.3789999999999
 20
765.9364999999998
 30
0.0
  0
VERTEX
  5
3F3
100
AcDbEntity
  8
OBJECT
100
AcDbVertex
100
AcDb2dVertex
 10
-1032.2871999999998
 20
765.94470000000001
 30
0.0
  0
VERTEX
  5
3F4
100
AcDbEntity
  8
OBJECT
100
AcDbVertex
100
AcDb2dVertex
 10
-1032.1953999999996
 20
765.95229999999992
 30
0.0
  0
VERTEX
  5
3F5
100
AcDbEntity
  8
OBJECT
100
AcDbVertex
100
AcDb2dVertex
 10
-1032.1034
 20
765.95939999999973
 30
0.0
  0
VERTEX
  5
3F6
100
AcDbEntity
  8
OBJECT
100
AcDbVertex
100
AcDb2dVertex
 10
-1032.0115999999998
 20
765.96579999999994
 30
0.0
  0
VERTEX
  5
3F7
100
AcDbEntity
  8
OBJECT
100
AcDbVertex
100
AcDb2dVertex
 10
-1031.9201999999996
 20
765.97170000000006
 30
0.0
  0
VERTEX
  5
3F8
100
AcDbEntity
  8
OBJECT
100
AcDbVertex
100
AcDb2dVertex
 10
-1031.8284000000003
 20
765.97710000000006
 30
0.0
  0
VERTEX
  5
3F9
100
AcDbEntity
  8
OBJECT
100
AcDbVertex
100
AcDb2dVertex
 10
-1031.7362999999996
 20
765.98189999999977
 30
0.0
  0
VERTEX
  5
3FA
100
AcDbEntity
  8
OBJECT
100
AcDbVertex
100
AcDb2dVertex
 10
-1031.6439
 20
765.98620000000028
 30
0.0
  0
VERTEX
  5
3FB
100
AcDbEntity
  8
OBJECT
100
AcDbVertex
100
AcDb2dVertex
 10
-1031.5519000000004
 20
765.98980000000029
 30
0.0
  0
VERTEX
  5
3FC
100
AcDbEntity
  8
OBJECT
100
AcDbVertex
100
AcDb2dVertex
 10
-1031.4605000000001
 20
765.99290000000019
 30
0.0
  0
VERTEX
  5
3FD
100
AcDbEntity
  8
OBJECT
100
AcDbVertex
100
AcDb2dVertex
 10
-1031.3681999999999
 20
765.99549999999999
 30
0.0
  0
VERTEX
  5
3FE
100
AcDbEntity
  8
OBJECT
100
AcDbVertex
100
AcDb2dVertex
 10
-1031.2762000000002
 20
765.99749999999949
 30
0.0
  0
VERTEX
  5
3FF
100
AcDbEntity
  8
OBJECT
100
AcDbVertex
100
AcDb2dVertex
 10
-1031.1841999999997
 20
765.99889999999959
 30
0.0
  0
VERTEX
  5
400
100
AcDbEntity
  8
OBJECT
100
AcDbVertex
100
AcDb2dVertex
 10
-1031.0918999999994
 20
765.9997000000003
 30
0.0
  0
VERTEX
  5
401
100
AcDbEntity
  8
OBJECT
100
AcDbVertex
100
AcDb2dVertex
 10
-1031.0077999999994
 20
766.0
 30
0.0
  0
VERTEX
  5
402
100
AcDbEntity
  8
OBJECT
100
AcDbVertex
100
AcDb2dVertex
 10
-800.0
 20
766.0
 30
0.0
  0
VERTEX
  5
403
100
AcDbEntity
  8
OBJECT
100
AcDbVertex
100
AcDb2dVertex
 10
-568.99229999999989
 20
766.0
 30
0.0
  0
VERTEX
  5
404
100
AcDbEntity
  8
OBJECT
100
AcDbVertex
100
AcDb2dVertex
 10
-568.90809999999965
 20
765.9997000000003
 30
0.0
  0
VERTEX
  5
405
100
AcDbEntity
  8
OBJECT
100
AcDbVertex
100
AcDb2dVertex
 10
-568.8158999999996
 20
765.99889999999959
 30
0.0
  0
VERTEX
  5
406
100
AcDbEntity
  8
OBJECT
100
AcDbVertex
100
AcDb2dVertex
 10
-568.72379999999976
 20
765.99749999999949
 30
0.0
  0
VERTEX
  5
407
100
AcDbEntity
  8
OBJECT
100
AcDbVertex
100
AcDb2dVertex
 10
-568.63180000000011
 20
765.99549999999999
 30
0.0
  0
VERTEX
  5
408
100
AcDbEntity
  8
OBJECT
100
AcDbVertex
100
AcDb2dVertex
 10
-568.53960000000006
 20
765.99290000000019
 30
0.0
  0
VERTEX
  5
409
100
AcDbEntity
  8
OBJECT
100
AcDbVertex
100
AcDb2dVertex
 10
-568.44809999999961
 20
765.98980000000029
 30
0.0
  0
VERTEX
  5
40A
100
AcDbEntity
  8
OBJECT
100
AcDbVertex
100
AcDb2dVertex
 10
-568.35609999999997
 20
765.98620000000028
 30
0.0
  0
VERTEX
  5
40B
100
AcDbEntity
  8
OBJECT
100
AcDbVertex
100
AcDb2dVertex
 10
-568.26369999999952
 20
765.98189999999977
 30
0.0
  0
VERTEX
  5
40C
100
AcDbEntity
  8
OBJECT
100
AcDbVertex
100
AcDb2dVertex
 10
-568.17159999999967
 20
765.97710000000006
 30
0.0
  0
VERTEX
  5
40D
100
AcDbEntity
  8
OBJECT
100
AcDbVertex
100
AcDb2dVertex
 10
-568.07979999999952
 20
765.97170000000006
 30
0.0
  0
VERTEX
  5
40E
100
AcDbEntity
  8
OBJECT
100
AcDbVertex
100
AcDb2dVertex
 10
-567.98840000000018
 20
765.96579999999994
 30
0.0
  0
VERTEX
  5
40F
100
AcDbEntity
  8
OBJECT
100
AcDbVertex
100
AcDb2dVertex
 10
-567.89670000000024
 20
765.95939999999973
 30
0.0
  0
VERTEX
  5
410
100
AcDbEntity
  8
OBJECT
100
AcDbVertex
100
AcDb2dVertex
 10
-567.80459999999948
 20
765.95229999999992
 30
0.0
  0
VERTEX
  5
411
100
AcDbEntity
  8
OBJECT
100
AcDbVertex
100
AcDb2dVertex
 10
-567.71280000000024
 20
765.94470000000001
 30
0.0
  0
VERTEX
  5
412
100
AcDbEntity
  8
OBJECT
100
AcDbVertex
100
AcDb2dVertex
 10
-567.62100000000009
 20
765.9364999999998
 30
0.0
  0
VERTEX
  5
413
100
AcDbEntity
  8
OBJECT
100
AcDbVertex
100
AcDb2dVertex
 10
-567.52939999999944
 20
765.92770000000019
 30
0.0
  0
VERTEX
  5
414
100
AcDbEntity
  8
OBJECT
100
AcDbVertex
100
AcDb2dVertex
 10
-567.4381999999996
 20
765.91849999999977
 30
0.0
  0
VERTEX
  5
415
100
AcDbEntity
  8
OBJECT
100
AcDbVertex
100
AcDb2dVertex
 10
-567.34649999999965
 20
765.90859999999975
 30
0.0
  0
VERTEX
  5
416
100
AcDbEntity
  8
OBJECT
100
AcDbVertex
100
AcDb2dVertex
 10
-567.25489999999991
 20
765.89810000000034
 30
0.0
  0
VERTEX
  5
417
100
AcDbEntity
  8
OBJECT
100
AcDbVertex
100
AcDb2dVertex
 10
-567.16349999999966
 20
765.88720000000012
 30
0.0
  0
VERTEX
  5
418
100
AcDbEntity
  8
OBJECT
100
AcDbVertex
100
AcDb2dVertex
 10
-567.07210000000032
 20
765.8756000000003
 30
0.0
  0
VERTEX
  5
419
100
AcDbEntity
  8
OBJECT
100
AcDbVertex
100
AcDb2dVertex
 10
-566.98109999999997
 20
765.86349999999948
 30
0.0
  0
VERTEX
  5
41A
100
AcDbEntity
  8
OBJECT
100
AcDbVertex
100
AcDb2dVertex
 10
-566.88990000000013
 20
765.85080000000016
 30
0.0
  0
VERTEX
  5
41B
100
AcDbEntity
  8
OBJECT
100
AcDbVertex
100
AcDb2dVertex
 10
-566.79839999999967
 20
765.83759999999984
 30
0.0
  0
VERTEX
  5
41C
100
AcDbEntity
  8
OBJECT
100
AcDbVertex
100
AcDb2dVertex
 10
-566.70750000000044
 20
765.82380000000012
 30
0.0
  0
VERTEX
  5
41D
100
AcDbEntity
  8
OBJECT
100
AcDbVertex
100
AcDb2dVertex
 10
-566.61679999999978
 20
765.8095000000003
 30
0.0
  0
VERTEX
  5
41E
100
AcDbEntity
  8
OBJECT
100
AcDbVertex
100
AcDb2dVertex
 10
-566.52610000000004
 20
765.79460000000017
 30
0.0
  0
VERTEX
  5
41F
100
AcDbEntity
  8
OBJECT
100
AcDbVertex
100
AcDb2dVertex
 10
-566.4351999999999
 20
765.77909999999974
 30
0.0
  0
VERTEX
  5
420
100
AcDbEntity
  8
OBJECT
100
AcDbVertex
100
AcDb2dVertex
 10
-566.34450000000015
 20
765.76310000000012
 30
0.0
  0
VERTEX
  5
421
100
AcDbEntity
  8
OBJECT
100
AcDbVertex
100
AcDb2dVertex
 10
-566.25410000000011
 20
765.7465000000002
 30
0.0
  0
VERTEX
  5
422
100
AcDbEntity
  8
OBJECT
100
AcDbVertex
100
AcDb2dVertex
 10
-566.16339999999946
 20
765.72929999999997
 30
0.0
  0
VERTEX
  5
423
100
AcDbEntity
  8
OBJECT
100
AcDbVertex
100
AcDb2dVertex
 10
-566.07319999999982
 20
765.71169999999984
 30
0.0
  0
VERTEX
  5
424
100
AcDbEntity
  8
OBJECT
100
AcDbVertex
100
AcDb2dVertex
 10
-565.98329999999987
 20
765.69350000000031
 30
0.0
  0
VERTEX
  5
425
100
AcDbEntity
  8
OBJECT
100
AcDbVertex
100
AcDb2dVertex
 10
-565.89310000000023
 20
765.67469999999958
 30
0.0
  0
VERTEX
  5
426
100
AcDbEntity
  8
OBJECT
100
AcDbVertex
100
AcDb2dVertex
 10
-565.80279999999948
 20
765.65530000000035
 30
0.0
  0
VERTEX
  5
427
100
AcDbEntity
  8
OBJECT
100
AcDbVertex
100
AcDb2dVertex
 10
-565.71259999999984
 20
765.63529999999992
 30
0.0
  0
VERTEX
  5
428
100
AcDbEntity
  8
OBJECT
100
AcDbVertex
100
AcDb2dVertex
 10
-565.62309999999979
 20
765.61489999999958
 30
0.0
  0
VERTEX
  5
429
100
AcDbEntity
  8
OBJECT
100
AcDbVertex
100
AcDb2dVertex
 10
-565.53359999999975
 20
765.59400000000005
 30
0.0
  0
VERTEX
  5
42A
100
AcDbEntity
  8
OBJECT
100
AcDbVertex
100
AcDb2dVertex
 10
-565.44409999999971
 20
765.57240000000002
 30
0.0
  0
VERTEX
  5
42B
100
AcDbEntity
  8
OBJECT
100
AcDbVertex
100
AcDb2dVertex
 10
-565.35469999999987
 20
765.55029999999988
 30
0.0
  0
VERTEX
  5
42C
100
AcDbEntity
  8
OBJECT
100
AcDbVertex
100
AcDb2dVertex
 10
-565.26559999999972
 20
765.52769999999964
 30
0.0
  0
VERTEX
  5
42D
100
AcDbEntity
  8
OBJECT
100
AcDbVertex
100
AcDb2dVertex
 10
-565.17649999999958
 20
765.50450000000001
 30
0.0
  0
VERTEX
  5
42E
100
AcDbEntity
  8
OBJECT
100
AcDbVertex
100
AcDb2dVertex
 10
-565.08740000000034
 20
765.48070000000007
 30
0.0
  0
VERTEX
  5
42F
100
AcDbEntity
  8
OBJECT
100
AcDbVertex
100
AcDb2dVertex
 10
-564.9985999999999
 20
765.45640000000003
 30
0.0
  0
VERTEX
  5
430
100
AcDbEntity
  8
OBJECT
100
AcDbVertex
100
AcDb2dVertex
 10
-564.91020000000026
 20
765.43170000000009
 30
0.0
  0
VERTEX
  5
431
100
AcDbEntity
  8
OBJECT
100
AcDbVertex
100
AcDb2dVertex
 10
-564.82170000000042
 20
765.40629999999965
 30
0.0
  0
VERTEX
  5
432
100
AcDbEntity
  8
OBJECT
100
AcDbVertex
100
AcDb2dVertex
 10
-564.73309999999947
 20
765.38029999999981
 30
0.0
  0
VERTEX
  5
433
100
AcDbEntity
  8
OBJECT
100
AcDbVertex
100
AcDb2dVertex
 10
-564.64490000000023
 20
765.35390000000007
 30
0.0
  0
VERTEX
  5
434
100
AcDbEntity
  8
OBJECT
100
AcDbVertex
100
AcDb2dVertex
 10
-564.55709999999999
 20
765.32690000000002
 30
0.0
  0
VERTEX
  5
435
100
AcDbEntity
  8
OBJECT
100
AcDbVertex
100
AcDb2dVertex
 10
-564.46939999999995
 20
765.29939999999988
 30
0.0
  0
VERTEX
  5
436
100
AcDbEntity
  8
OBJECT
100
AcDbVertex
100
AcDb2dVertex
 10
-564.38140000000021
 20
765.27120000000014
 30
0.0
  0
VERTEX
  5
437
100
AcDbEntity
  8
OBJECT
100
AcDbVertex
100
AcDb2dVertex
 10
-564.29399999999987
 20
765.24269999999979
 30
0.0
  0
VERTEX
  5
438
100
AcDbEntity
  8
OBJECT
100
AcDbVertex
100
AcDb2dVertex
 10
-564.20690000000013
 20
765.21360000000004
 30
0.0
  0
VERTEX
  5
439
100
AcDbEntity
  8
OBJECT
100
AcDbVertex
100
AcDb2dVertex
 10
-564.11939999999959
 20
765.18379999999979
 30
0.0
  0
VERTEX
  5
43A
100
AcDbEntity
  8
OBJECT
100
AcDbVertex
100
AcDb2dVertex
 10
-564.03259999999955
 20
765.15359999999964
 30
0.0
  0
VERTEX
  5
43B
100
AcDbEntity
  8
OBJECT
100
AcDbVertex
100
AcDb2dVertex
 10
-563.94610000000011
 20
765.1229000000003
 30
0.0
  0
VERTEX
  5
43C
100
AcDbEntity
  8
OBJECT
100
AcDbVertex
100
AcDb2dVertex
 10
-563.85940000000028
 20
765.09159999999974
 30
0.0
  0
VERTEX
  5
43D
100
AcDbEntity
  8
OBJECT
100
AcDbVertex
100
AcDb2dVertex
 10
-563.77289999999994
 20
765.0598
 30
0.0
  0
VERTEX
  5
43E
100
AcDbEntity
  8
OBJECT
100
AcDbVertex
100
AcDb2dVertex
 10
-563.6867000000002
 20
765.02739999999994
 30
0.0
  0
VERTEX
  5
43F
100
AcDbEntity
  8
OBJECT
100
AcDbVertex
100
AcDb2dVertex
 10
-563.60080000000016
 20
764.99459999999999
 30
0.0
  0
VERTEX
  5
440
100
AcDbEntity
  8
OBJECT
100
AcDbVertex
100
AcDb2dVertex
 10
-563.51530000000002
 20
764.96129999999994
 30
0.0
  0
VERTEX
  5
441
100
AcDbEntity
  8
OBJECT
100
AcDbVertex
100
AcDb2dVertex
 10
-563.42919999999958
 20
764.92720000000008
 30
0.0
  0
VERTEX
  5
442
100
AcDbEntity
  8
OBJECT
100
AcDbVertex
100
AcDb2dVertex
 10
-563.34389999999985
 20
764.89270000000033
 30
0.0
  0
VERTEX
  5
443
100
AcDbEntity
  8
OBJECT
100
AcDbVertex
100
AcDb2dVertex
 10
-563.25910000000022
 20
764.85789999999997
 30
0.0
  0
VERTEX
  5
444
100
AcDbEntity
  8
OBJECT
100
AcDbVertex
100
AcDb2dVertex
 10
-563.17399999999998
 20
764.82240000000002
 30
0.0
  0
VERTEX
  5
445
100
AcDbEntity
  8
OBJECT
100
AcDbVertex
100
AcDb2dVertex
 10
-563.08899999999994
 20
764.78619999999955
 30
0.0
  0
VERTEX
  5
446
100
AcDbEntity
  8
OBJECT
100
AcDbVertex
100
AcDb2dVertex
 10
-563.00450000000001
 20
764.7497000000003
 30
0.0
  0
VERTEX
  5
447
100
AcDbEntity
  8
OBJECT
100
AcDbVertex
100
AcDb2dVertex
 10
-562.92059999999947
 20
764.71280000000024
 30
0.0
  0
VERTEX
  5
448
100
AcDbEntity
  8
OBJECT
100
AcDbVertex
100
AcDb2dVertex
 10
-562.83629999999994
 20
764.67510000000038
 30
0.0
  0
VERTEX
  5
449
100
AcDbEntity
  8
OBJECT
100
AcDbVertex
100
AcDb2dVertex
 10
-562.75280000000021
 20
764.63709999999992
 30
0.0
  0
VERTEX
  5
44A
100
AcDbEntity
  8
OBJECT
100
AcDbVertex
100
AcDb2dVertex
 10
-562.66929999999957
 20
764.59860000000026
 30
0.0
  0
VERTEX
  5
44B
100
AcDbEntity
  8
OBJECT
100
AcDbVertex
100
AcDb2dVertex
 10
-562.58560000000034
 20
764.55929999999989
 30
0.0
  0
VERTEX
  5
44C
100
AcDbEntity
  8
OBJECT
100
AcDbVertex
100
AcDb2dVertex
 10
-562.5024999999996
 20
764.51969999999983
 30
0.0
  0
VERTEX
  5
44D
100
AcDbEntity
  8
OBJECT
100
AcDbVertex
100
AcDb2dVertex
 10
-562.41960000000017
 20
764.47949999999946
 30
0.0
  0
VERTEX
  5
44E
100
AcDbEntity
  8
OBJECT
100
AcDbVertex
100
AcDb2dVertex
 10
-562.33719999999994
 20
764.43900000000031
 30
0.0
  0
VERTEX
  5
44F
100
AcDbEntity
  8
OBJECT
100
AcDbVertex
100
AcDb2dVertex
 10
-562.25510000000031
 20
764.39800000000014
 30
0.0
  0
VERTEX
  5
450
100
AcDbEntity
  8
OBJECT
100
AcDbVertex
100
AcDb2dVertex
 10
-562.17289999999957
 20
764.35629999999946
 30
0.0
  0
VERTEX
  5
451
100
AcDbEntity
  8
OBJECT
100
AcDbVertex
100
AcDb2dVertex
 10
-562.09059999999954
 20
764.3139000000001
 30
0.0
  0
VERTEX
  5
452
100
AcDbEntity
  8
OBJECT
100
AcDbVertex
100
AcDb2dVertex
 10
-562.00939999999991
 20
764.27149999999983
 30
0.0
  0
VERTEX
  5
453
100
AcDbEntity
  8
OBJECT
100
AcDbVertex
100
AcDb2dVertex
 10
-561.92799999999988
 20
764.22829999999976
 30
0.0
  0
VERTEX
  5
454
100
AcDbEntity
  8
OBJECT
100
AcDbVertex
100
AcDb2dVertex
 10
-561.84670000000006
 20
764.1845000000003
 30
0.0
  0
VERTEX
  5
455
100
AcDbEntity
  8
OBJECT
100
AcDbVertex
100
AcDb2dVertex
 10
-561.76620000000003
 20
764.14049999999952
 30
0.0
  0
VERTEX
  5
456
100
AcDbEntity
  8
OBJECT
100
AcDbVertex
100
AcDb2dVertex
 10
-561.6858000000002
 20
764.09590000000026
 30
0.0
  0
VERTEX
  5
457
100
AcDbEntity
  8
OBJECT
100
AcDbVertex
100
AcDb2dVertex
 10
-561.60570000000007
 20
764.05079999999998
 30
0.0
  0
VERTEX
  5
458
100
AcDbEntity
  8
OBJECT
100
AcDbVertex
100
AcDb2dVertex
 10
-561.52549999999974
 20
764.00510000000031
 30
0.0
  0
VERTEX
  5
459
100
AcDbEntity
  8
OBJECT
100
AcDbVertex
100
AcDb2dVertex
 10
-561.44549999999981
 20
763.95880000000034
 30
0.0
  0
VERTEX
  5
45A
100
AcDbEntity
  8
OBJECT
100
AcDbVertex
100
AcDb2dVertex
 10
-561.36660000000029
 20
763.91240000000016
 30
0.0
  0
VERTEX
  5
45B
100
AcDbEntity
  8
OBJECT
100
AcDbVertex
100
AcDb2dVertex
 10
-561.28750000000036
 20
763.86529999999948
 30
0.0
  0
VERTEX
  5
45C
100
AcDbEntity
  8
OBJECT
100
AcDbVertex
100
AcDb2dVertex
 10
-561.20830000000024
 20
763.81750000000011
 30
0.0
  0
VERTEX
  5
45D
100
AcDbEntity
  8
OBJECT
100
AcDbVertex
100
AcDb2dVertex
 10
-561.12989999999991
 20
763.76959999999963
 30
0.0
  0
VERTEX
  5
45E
100
AcDbEntity
  8
OBJECT
100
AcDbVertex
100
AcDb2dVertex
 10
-561.05199999999968
 20
763.72119999999995
 30
0.0
  0
VERTEX
  5
45F
100
AcDbEntity
  8
OBJECT
100
AcDbVertex
100
AcDb2dVertex
 10
-560.97400000000016
 20
763.67209999999977
 30
0.0
  0
VERTEX
  5
460
100
AcDbEntity
  8
OBJECT
100
AcDbVertex
100
AcDb2dVertex
 10
-560.89649999999983
 20
763.6226999999999
 30
0.0
  0
VERTEX
  5
461
100
AcDbEntity
  8
OBJECT
100
AcDbVertex
100
AcDb2dVertex
 10
-560.81880000000001
 20
763.57250000000022
 30
0.0
  0
VERTEX
  5
462
100
AcDbEntity
  8
OBJECT
100
AcDbVertex
100
AcDb2dVertex
 10
-560.74179999999978
 20
763.52210000000014
 30
0.0
  0
VERTEX
  5
463
100
AcDbEntity
  8
OBJECT
100
AcDbVertex
100
AcDb2dVertex
 10
-560.66529999999966
 20
763.47130000000016
 30
0.0
  0
VERTEX
  5
464
100
AcDbEntity
  8
OBJECT
100
AcDbVertex
100
AcDb2dVertex
 10
-560.58899999999994
 20
763.41989999999987
 30
0.0
  0
VERTEX
  5
465
100
AcDbEntity
  8
OBJECT
100
AcDbVertex
100
AcDb2dVertex
 10
-560.51289999999972
 20
763.36809999999969
 30
0.0
  0
VERTEX
  5
466
100
AcDbEntity
  8
OBJECT
100
AcDbVertex
100
AcDb2dVertex
 10
-560.4369999999999
 20
763.3155999999999
 30
0.0
  0
VERTEX
  5
467
100
AcDbEntity
  8
OBJECT
100
AcDbVertex
100
AcDb2dVertex
 10
-560.36179999999968
 20
763.26299999999992
 30
0.0
  0
VERTEX
  5
468
100
AcDbEntity
  8
OBJECT
100
AcDbVertex
100
AcDb2dVertex
 10
-560.28619999999955
 20
763.20939999999973
 30
0.0
  0
VERTEX
  5
469
100
AcDbEntity
  8
OBJECT
100
AcDbVertex
100
AcDb2dVertex
 10
-560.21149999999943
 20
763.15579999999954
 30
0.0
  0
VERTEX
  5
46A
100
AcDbEntity
  8
OBJECT
100
AcDbVertex
100
AcDb2dVertex
 10
-560.13760000000002
 20
763.10189999999966
 30
0.0
  0
VERTEX
  5
46B
100
AcDbEntity
  8
OBJECT
100
AcDbVertex
100
AcDb2dVertex
 10
-560.0634
 20
763.04730000000018
 30
0.0
  0
VERTEX
  5
46C
100
AcDbEntity
  8
OBJECT
100
AcDbVertex
100
AcDb2dVertex
 10
-559.98930000000018
 20
762.99200000000019
 30
0.0
  0
VERTEX
  5
46D
100
AcDbEntity
  8
OBJECT
100
AcDbVertex
100
AcDb2dVertex
 10
-559.91610000000037
 20
762.9366
 30
0.0
  0
VERTEX
  5
46E
100
AcDbEntity
  8
OBJECT
100
AcDbVertex
100
AcDb2dVertex
 10
-559.84310000000005
 20
762.88069999999971
 30
0.0
  0
VERTEX
  5
46F
100
AcDbEntity
  8
OBJECT
100
AcDbVertex
100
AcDb2dVertex
 10
-559.77030000000013
 20
762.82420000000002
 30
0.0
  0
VERTEX
  5
470
100
AcDbEntity
  8
OBJECT
100
AcDbVertex
100
AcDb2dVertex
 10
-559.69800000000032
 20
762.76749999999993
 30
0.0
  0
VERTEX
  5
471
100
AcDbEntity
  8
OBJECT
100
AcDbVertex
100
AcDb2dVertex
 10
-559.6257999999998
 20
762.71000000000004
 30
0.0
  0
VERTEX
  5
472
100
AcDbEntity
  8
OBJECT
100
AcDbVertex
100
AcDb2dVertex
 10
-559.55400000000009
 20
762.65219999999954
 30
0.0
  0
VERTEX
  5
473
100
AcDbEntity
  8
OBJECT
100
AcDbVertex
100
AcDb2dVertex
 10
-559.48269999999957
 20
762.59400000000005
 30
0.0
  0
VERTEX
  5
474
100
AcDbEntity
  8
OBJECT
100
AcDbVertex
100
AcDb2dVertex
 10
-559.41200000000026
 20
762.53560000000016
 30
0.0
  0
VERTEX
  5
475
100
AcDbEntity
  8
OBJECT
100
AcDbVertex
100
AcDb2dVertex
 10
-559.34140000000025
 20
762.47659999999996
 30
0.0
  0
VERTEX
  5
476
100
AcDbEntity
  8
OBJECT
100
AcDbVertex
100
AcDb2dVertex
 10
-559.27089999999953
 20
762.41679999999997
 30
0.0
  0
VERTEX
  5
477
100
AcDbEntity
  8
OBJECT
100
AcDbVertex
100
AcDb2dVertex
 10
-559.20079999999962
 20
762.35670000000027
 30
0.0
  0
VERTEX
  5
478
100
AcDbEntity
  8
OBJECT
100
AcDbVertex
100
AcDb2dVertex
 10
-559.13180000000011
 20
762.29680000000008
 30
0.0
  0
VERTEX
  5
479
100
AcDbEntity
  8
OBJECT
100
AcDbVertex
100
AcDb2dVertex
 10
-559.0627000000004
 20
762.23610000000008
 30
0.0
  0
VERTEX
  5
47A
100
AcDbEntity
  8
OBJECT
100
AcDbVertex
100
AcDb2dVertex
 10
-558.99380000000019
 20
762.17479999999978
 30
0.0
  0
VERTEX
  5
47B
100
AcDbEntity
  8
OBJECT
100
AcDbVertex
100
AcDb2dVertex
 10
-558.92519999999968
 20
762.11300000000028
 30
0.0
  0
VERTEX
  5
47C
100
AcDbEntity
  8
OBJECT
100
AcDbVertex
100
AcDb2dVertex
 10
-558.85710000000017
 20
762.05079999999998
 30
0.0
  0
VERTEX
  5
47D
100
AcDbEntity
  8
OBJECT
100
AcDbVertex
100
AcDb2dVertex
 10
-558.78979999999956
 20
761.98869999999988
 30
0.0
  0
VERTEX
  5
47E
100
AcDbEntity
  8
OBJECT
100
AcDbVertex
100
AcDb2dVertex
 10
-558.72260000000006
 20
761.92590000000018
 30
0.0
  0
VERTEX
  5
47F
100
AcDbEntity
  8
OBJECT
100
AcDbVertex
100
AcDb2dVertex
 10
-558.65570000000025
 20
761.86250000000018
 30
0.0
  0
VERTEX
  5
480
100
AcDbEntity
  8
OBJECT
100
AcDbVertex
100
AcDb2dVertex
 10
-558.58899999999994
 20
761.79870000000028
 30
0.0
  0
VERTEX
  5
481
100
AcDbEntity
  8
OBJECT
100
AcDbVertex
100
AcDb2dVertex
 10
-558.52300000000014
 20
761.73459999999977
 30
0.0
  0
VERTEX
  5
482
100
AcDbEntity
  8
OBJECT
100
AcDbVertex
100
AcDb2dVertex
 10
-558.45750000000044
 20
761.67029999999977
 30
0.0
  0
VERTEX
  5
483
100
AcDbEntity
  8
OBJECT
100
AcDbVertex
100
AcDb2dVertex
 10
-558.39220000000023
 20
761.60540000000037
 30
0.0
  0
VERTEX
  5
484
100
AcDbEntity
  8
OBJECT
100
AcDbVertex
100
AcDb2dVertex
 10
-558.32719999999972
 20
761.53999999999996
 30
0.0
  0
VERTEX
  5
485
100
AcDbEntity
  8
OBJECT
100
AcDbVertex
100
AcDb2dVertex
 10
-558.26270000000022
 20
761.47419999999966
 30
0.0
  0
VERTEX
  5
486
100
AcDbEntity
  8
OBJECT
100
AcDbVertex
100
AcDb2dVertex
 10
-558.19859999999971
 20
761.40809999999965
 30
0.0
  0
VERTEX
  5
487
100
AcDbEntity
  8
OBJECT
100
AcDbVertex
100
AcDb2dVertex
 10
-558.13500000000022
 20
761.34169999999995
 30
0.0
  0
VERTEX
  5
488
100
AcDbEntity
  8
OBJECT
100
AcDbVertex
100
AcDb2dVertex
 10
-558.07179999999971
 20
761.27499999999964
 30
0.0
  0
VERTEX
  5
489
100
AcDbEntity
  8
OBJECT
100
AcDbVertex
100
AcDb2dVertex
 10
-558.00910000000022
 20
761.20780000000013
 30
0.0
  0
VERTEX
  5
48A
100
AcDbEntity
  8
OBJECT
100
AcDbVertex
100
AcDb2dVertex
 10
-557.94629999999961
 20
761.13979999999992
 30
0.0
  0
VERTEX
  5
48B
100
AcDbEntity
  8
OBJECT
100
AcDbVertex
100
AcDb2dVertex
 10
-557.88429999999971
 20
761.07179999999971
 30
0.0
  0
VERTEX
  5
48C
100
AcDbEntity
  8
OBJECT
100
AcDbVertex
100
AcDb2dVertex
 10
-557.82300000000032
 20
761.00370000000021
 30
0.0
  0
VERTEX
  5
48D
100
AcDbEntity
  8
OBJECT
100
AcDbVertex
100
AcDb2dVertex
 10
-557.76170000000002
 20
760.9348
 30
0.0
  0
VERTEX
  5
48E
100
AcDbEntity
  8
OBJECT
100
AcDbVertex
100
AcDb2dVertex
 10
-557.70079999999962
 20
760.86549999999988
 30
0.0
  0
VERTEX
  5
48F
100
AcDbEntity
  8
OBJECT
100
AcDbVertex
100
AcDb2dVertex
 10
-557.64049999999952
 20
760.79600000000028
 30
0.0
  0
VERTEX
  5
490
100
AcDbEntity
  8
OBJECT
100
AcDbVertex
100
AcDb2dVertex
 10
-557.58079999999973
 20
760.72639999999956
 30
0.0
  0
VERTEX
  5
491
100
AcDbEntity
  8
OBJECT
100
AcDbVertex
100
AcDb2dVertex
 10
-557.52109999999993
 20
760.65579999999954
 30
0.0
  0
VERTEX
  5
492
100
AcDbEntity
  8
OBJECT
100
AcDbVertex
100
AcDb2dVertex
 10
-557.46190000000024
 20
760.58500000000004
 30
0.0
  0
VERTEX
  5
493
100
AcDbEntity
  8
OBJECT
100
AcDbVertex
100
AcDb2dVertex
 10
-557.40369999999984
 20
760.51450000000023
 30
0.0
  0
VERTEX
  5
494
100
AcDbEntity
  8
OBJECT
100
AcDbVertex
100
AcDb2dVertex
 10
-557.34540000000015
 20
760.44300000000021
 30
0.0
  0
VERTEX
  5
495
100
AcDbEntity
  8
OBJECT
100
AcDbVertex
100
AcDb2dVertex
 10
-557.28750000000036
 20
760.3711000000003
 30
0.0
  0
VERTEX
  5
496
100
AcDbEntity
  8
OBJECT
100
AcDbVertex
100
AcDb2dVertex
 10
-557.23030000000017
 20
760.29910000000018
 30
0.0
  0
VERTEX
  5
497
100
AcDbEntity
  8
OBJECT
100
AcDbVertex
100
AcDb2dVertex
 10
-557.17370000000028
 20
760.22699999999986
 30
0.0
  0
VERTEX
  5
498
100
AcDbEntity
  8
OBJECT
100
AcDbVertex
100
AcDb2dVertex
 10
-557.11719999999968
 20
760.15419999999995
 30
0.0
  0
VERTEX
  5
499
100
AcDbEntity
  8
OBJECT
100
AcDbVertex
100
AcDb2dVertex
 10
-557.0610999999999
 20
760.08089999999993
 30
0.0
  0
VERTEX
  5
49A
100
AcDbEntity
  8
OBJECT
100
AcDbVertex
100
AcDb2dVertex
 10
-557.00569999999971
 20
760.00749999999971
 30
0.0
  0
VERTEX
  5
49B
100
AcDbEntity
  8
OBJECT
100
AcDbVertex
100
AcDb2dVertex
 10
-556.95039999999972
 20
759.93350000000009
 30
0.0
  0
VERTEX
  5
49C
100
AcDbEntity
  8
OBJECT
100
AcDbVertex
100
AcDb2dVertex
 10
-556.89599999999973
 20
759.85969999999998
 30
0.0
  0
VERTEX
  5
49D
100
AcDbEntity
  8
OBJECT
100
AcDbVertex
100
AcDb2dVertex
 10
-556.84209999999985
 20
759.78560000000016
 30
0.0
  0
VERTEX
  5
49E
100
AcDbEntity
  8
OBJECT
100
AcDbVertex
100
AcDb2dVertex
 10
-556.78809999999976
 20
759.71039999999994
 30
0.0
  0
VERTEX
  5
49F
100
AcDbEntity
  8
OBJECT
100
AcDbVertex
100
AcDb2dVertex
 10
-556.73489999999947
 20
759.63519999999971
 30
0.0
  0
VERTEX
  5
4A0
100
AcDbEntity
  8
OBJECT
100
AcDbVertex
100
AcDb2dVertex
 10
-556.6823000000004
 20
759.55999999999949
 30
0.0
  0
VERTEX
  5
4A1
100
AcDbEntity
  8
OBJECT
100
AcDbVertex
100
AcDb2dVertex
 10
-556.62989999999991
 20
759.48409999999967
 30
0.0
  0
VERTEX
  5
4A2
100
AcDbEntity
  8
OBJECT
100
AcDbVertex
100
AcDb2dVertex
 10
-556.57799999999952
 20
759.40790000000015
 30
0.0
  0
VERTEX
  5
4A3
100
AcDbEntity
  8
OBJECT
100
AcDbVertex
100
AcDb2dVertex
 10
-556.52670000000035
 20
759.33169999999973
 30
0.0
  0
VERTEX
  5
4A4
100
AcDbEntity
  8
OBJECT
100
AcDbVertex
100
AcDb2dVertex
 10
-556.47589999999946
 20
759.2551999999996
 30
0.0
  0
VERTEX
  5
4A5
100
AcDbEntity
  8
OBJECT
100
AcDbVertex
100
AcDb2dVertex
 10
-556.42550000000028
 20
759.17810000000009
 30
0.0
  0
VERTEX
  5
4A6
100
AcDbEntity
  8
OBJECT
100
AcDbVertex
100
AcDb2dVertex
 10
-556.3752999999997
 20
759.10040000000026
 30
0.0
  0
VERTEX
  5
4A7
100
AcDbEntity
  8
OBJECT
100
AcDbVertex
100
AcDb2dVertex
 10
-556.32579999999962
 20
759.02269999999953
 30
0.0
  0
VERTEX
  5
4A8
100
AcDbEntity
  8
OBJECT
100
AcDbVertex
100
AcDb2dVertex
 10
-556.27689999999984
 20
758.94499999999971
 30
0.0
  0
VERTEX
  5
4A9
100
AcDbEntity
  8
OBJECT
100
AcDbVertex
100
AcDb2dVertex
 10
-556.22850000000017
 20
758.86689999999999
 30
0.0
  0
VERTEX
  5
4AA
100
AcDbEntity
  8
OBJECT
100
AcDbVertex
100
AcDb2dVertex
 10
-556.18059999999969
 20
758.78859999999986
 30
0.0
  0
VERTEX
  5
4AB
100
AcDbEntity
  8
OBJECT
100
AcDbVertex
100
AcDb2dVertex
 10
-556.13289999999961
 20
758.70960000000014
 30
0.0
  0
VERTEX
  5
4AC
100
AcDbEntity
  8
OBJECT
100
AcDbVertex
100
AcDb2dVertex
 10
-556.08569999999963
 20
758.63029999999981
 30
0.0
  0
VERTEX
  5
4AD
100
AcDbEntity
  8
OBJECT
100
AcDbVertex
100
AcDb2dVertex
 10
-556.03909999999996
 20
758.55079999999998
 30
0.0
  0
VERTEX
  5
4AE
100
AcDbEntity
  8
OBJECT
100
AcDbVertex
100
AcDb2dVertex
 10
-555.99309999999969
 20
758.47130000000016
 30
0.0
  0
VERTEX
  5
4AF
100
AcDbEntity
  8
OBJECT
100
AcDbVertex
100
AcDb2dVertex
 10
-555.94750000000022
 20
758.39140000000043
 30
0.0
  0
VERTEX
  5
4B0
100
AcDbEntity
  8
OBJECT
100
AcDbVertex
100
AcDb2dVertex
 10
-555.90239999999994
 20
758.3110999999999
 30
0.0
  0
VERTEX
  5
4B1
100
AcDbEntity
  8
OBJECT
100
AcDbVertex
100
AcDb2dVertex
 10
-555.85769999999957
 20
758.23049999999967
 30
0.0
  0
VERTEX
  5
4B2
100
AcDbEntity
  8
OBJECT
100
AcDbVertex
100
AcDb2dVertex
 10
-555.8136999999997
 20
758.14990000000034
 30
0.0
  0
VERTEX
  5
4B3
100
AcDbEntity
  8
OBJECT
100
AcDbVertex
100
AcDb2dVertex
 10
-555.77009999999973
 20
758.06890000000021
 30
0.0
  0
VERTEX
  5
4B4
100
AcDbEntity
  8
OBJECT
100
AcDbVertex
100
AcDb2dVertex
 10
-555.72699999999986
 20
757.98760000000038
 30
0.0
  0
VERTEX
  5
4B5
100
AcDbEntity
  8
OBJECT
100
AcDbVertex
100
AcDb2dVertex
 10
-555.68429999999989
 20
757.90589999999975
 30
0.0
  0
VERTEX
  5
4B6
100
AcDbEntity
  8
OBJECT
100
AcDbVertex
100
AcDb2dVertex
 10
-555.64199999999983
 20
757.82380000000012
 30
0.0
  0
VERTEX
  5
4B7
100
AcDbEntity
  8
OBJECT
100
AcDbVertex
100
AcDb2dVertex
 10
-555.60049999999956
 20
757.74189999999999
 30
0.0
  0
VERTEX
  5
4B8
100
AcDbEntity
  8
OBJECT
100
AcDbVertex
100
AcDb2dVertex
 10
-555.55929999999989
 20
757.65939999999955
 30
0.0
  0
VERTEX
  5
4B9
100
AcDbEntity
  8
OBJECT
100
AcDbVertex
100
AcDb2dVertex
 10
-555.51869999999963
 20
757.57690000000002
 30
0.0
  0
VERTEX
  5
4BA
100
AcDbEntity
  8
OBJECT
100
AcDbVertex
100
AcDb2dVertex
 10
-555.47860000000037
 20
757.49409999999989
 30
0.0
  0
VERTEX
  5
4BB
100
AcDbEntity
  8
OBJECT
100
AcDbVertex
100
AcDb2dVertex
 10
-555.4390999999996
 20
757.41110000000026
 30
0.0
  0
VERTEX
  5
4BC
100
AcDbEntity
  8
OBJECT
100
AcDbVertex
100
AcDb2dVertex
 10
-555.39990000000034
 20
757.32749999999942
 30
0.0
  0
VERTEX
  5
4BD
100
AcDbEntity
  8
OBJECT
100
AcDbVertex
100
AcDb2dVertex
 10
-555.36120000000028
 20
757.24369999999999
 30
0.0
  0
VERTEX
  5
4BE
100
AcDbEntity
  8
OBJECT
100
AcDbVertex
100
AcDb2dVertex
 10
-555.32330000000002
 20
757.16010000000006
 30
0.0
  0
VERTEX
  5
4BF
100
AcDbEntity
  8
OBJECT
100
AcDbVertex
100
AcDb2dVertex
 10
-555.28589999999986
 20
757.07639999999992
 30
0.0
  0
VERTEX
  5
4C0
100
AcDbEntity
  8
OBJECT
100
AcDbVertex
100
AcDb2dVertex
 10
-555.24889999999959
 20
756.99219999999968
 30
0.0
  0
VERTEX
  5
4C1
100
AcDbEntity
  8
OBJECT
100
AcDbVertex
100
AcDb2dVertex
 10
-555.21209999999974
 20
756.90710000000036
 30
0.0
  0
VERTEX
  5
4C2
100
AcDbEntity
  8
OBJECT
100
AcDbVertex
100
AcDb2dVertex
 10
-555.17619999999988
 20
756.82259999999951
 30
0.0
  0
VERTEX
  5
4C3
100
AcDbEntity
  8
OBJECT
100
AcDbVertex
100
AcDb2dVertex
 10
-555.14080000000013
 20
756.73779999999988
 30
0.0
  0
VERTEX
  5
4C4
100
AcDbEntity
  8
OBJECT
100
AcDbVertex
100
AcDb2dVertex
 10
-555.10580000000027
 20
756.65250000000015
 30
0.0
  0
VERTEX
  5
4C5
100
AcDbEntity
  8
OBJECT
100
AcDbVertex
100
AcDb2dVertex
 10
-555.07139999999981
 20
756.5672999999997
 30
0.0
  0
VERTEX
  5
4C6
100
AcDbEntity
  8
OBJECT
100
AcDbVertex
100
AcDb2dVertex
 10
-555.03750000000036
 20
756.48149999999987
 30
0.0
  0
VERTEX
  5
4C7
100
AcDbEntity
  8
OBJECT
100
AcDbVertex
100
AcDb2dVertex
 10
-555.00410000000011
 20
756.39570000000003
 30
0.0
  0
VERTEX
  5
4C8
100
AcDbEntity
  8
OBJECT
100
AcDbVertex
100
AcDb2dVertex
 10
-554.97130000000016
 20
756.3099000000002
 30
0.0
  0
VERTEX
  5
4C9
100
AcDbEntity
  8
OBJECT
100
AcDbVertex
100
AcDb2dVertex
 10
-554.9389000000001
 20
756.22360000000026
 30
0.0
  0
VERTEX
  5
4CA
100
AcDbEntity
  8
OBJECT
100
AcDbVertex
100
AcDb2dVertex
 10
-554.90719999999965
 20
756.13739999999962
 30
0.0
  0
VERTEX
  5
4CB
100
AcDbEntity
  8
OBJECT
100
AcDbVertex
100
AcDb2dVertex
 10
-554.8757999999998
 20
756.05059999999958
 30
0.0
  0
VERTEX
  5
4CC
100
AcDbEntity
  8
OBJECT
100
AcDbVertex
100
AcDb2dVertex
 10
-554.84500000000025
 20
755.96349999999984
 30
0.0
  0
VERTEX
  5
4CD
100
AcDbEntity
  8
OBJECT
100
AcDbVertex
100
AcDb2dVertex
 10
-554.8149999999996
 20
755.87690000000021
 30
0.0
  0
VERTEX
  5
4CE
100
AcDbEntity
  8
OBJECT
100
AcDbVertex
100
AcDb2dVertex
 10
-554.78529999999955
 20
755.78999999999996
 30
0.0
  0
VERTEX
  5
4CF
100
AcDbEntity
  8
OBJECT
100
AcDbVertex
100
AcDb2dVertex
 10
-554.75619999999981
 20
755.70259999999962
 30
0.0
  0
VERTEX
  5
4D0
100
AcDbEntity
  8
OBJECT
100
AcDbVertex
100
AcDb2dVertex
 10
-554.72760000000017
 20
755.61499999999978
 30
0.0
  0
VERTEX
  5
4D1
100
AcDbEntity
  8
OBJECT
100
AcDbVertex
100
AcDb2dVertex
 10
-554.69939999999951
 20
755.52700000000004
 30
0.0
  0
VERTEX
  5
4D2
100
AcDbEntity
  8
OBJECT
100
AcDbVertex
100
AcDb2dVertex
 10
-554.67199999999957
 20
755.43940000000021
 30
0.0
  0
VERTEX
  5
4D3
100
AcDbEntity
  8
OBJECT
100
AcDbVertex
100
AcDb2dVertex
 10
-554.64509999999973
 20
755.35149999999976
 30
0.0
  0
VERTEX
  5
4D4
100
AcDbEntity
  8
OBJECT
100
AcDbVertex
100
AcDb2dVertex
 10
-554.61849999999959
 20
755.26299999999992
 30
0.0
  0
VERTEX
  5
4D5
100
AcDbEntity
  8
OBJECT
100
AcDbVertex
100
AcDb2dVertex
 10
-554.59270000000015
 20
755.17500000000018
 30
0.0
  0
VERTEX
  5
4D6
100
AcDbEntity
  8
OBJECT
100
AcDbVertex
100
AcDb2dVertex
 10
-554.56739999999991
 20
755.08669999999984
 30
0.0
  0
VERTEX
  5
4D7
100
AcDbEntity
  8
OBJECT
100
AcDbVertex
100
AcDb2dVertex
 10
-554.54240000000027
 20
754.9974000000002
 30
0.0
  0
VERTEX
  5
4D8
100
AcDbEntity
  8
OBJECT
100
AcDbVertex
100
AcDb2dVertex
 10
-554.51829999999973
 20
754.90880000000016
 30
0.0
  0
VERTEX
  5
4D9
100
AcDbEntity
  8
OBJECT
100
AcDbVertex
100
AcDb2dVertex
 10
-554.49470000000019
 20
754.82039999999961
 30
0.0
  0
VERTEX
  5
4DA
100
AcDbEntity
  8
OBJECT
100
AcDbVertex
100
AcDb2dVertex
 10
-554.47140000000036
 20
754.73089999999956
 30
0.0
  0
VERTEX
  5
4DB
100
AcDbEntity
  8
OBJECT
100
AcDbVertex
100
AcDb2dVertex
 10
-554.44869999999992
 20
754.64149999999972
 30
0.0
  0
VERTEX
  5
4DC
100
AcDbEntity
  8
OBJECT
100
AcDbVertex
100
AcDb2dVertex
 10
-554.42669999999998
 20
754.55209999999988
 30
0.0
  0
VERTEX
  5
4DD
100
AcDbEntity
  8
OBJECT
100
AcDbVertex
100
AcDb2dVertex
 10
-554.40520000000015
 20
754.46270000000004
 30
0.0
  0
VERTEX
  5
4DE
100
AcDbEntity
  8
OBJECT
100
AcDbVertex
100
AcDb2dVertex
 10
-554.38420000000042
 20
754.3732
 30
0.0
  0
VERTEX
  5
4DF
100
AcDbEntity
  8
OBJECT
100
AcDbVertex
100
AcDb2dVertex
 10
-554.36380000000008
 20
754.28369999999995
 30
0.0
  0
VERTEX
  5
4E0
100
AcDbEntity
  8
OBJECT
100
AcDbVertex
100
AcDb2dVertex
 10
-554.34389999999985
 20
754.19359999999961
 30
0.0
  0
VERTEX
  5
4E1
100
AcDbEntity
  8
OBJECT
100
AcDbVertex
100
AcDb2dVertex
 10
-554.32449999999972
 20
754.10329999999976
 30
0.0
  0
VERTEX
  5
4E2
100
AcDbEntity
  8
OBJECT
100
AcDbVertex
100
AcDb2dVertex
 10
-554.30580000000009
 20
754.01360000000022
 30
0.0
  0
VERTEX
  5
4E3
100
AcDbEntity
  8
OBJECT
100
AcDbVertex
100
AcDb2dVertex
 10
-554.28759999999966
 20
753.92330000000038
 30
0.0
  0
VERTEX
  5
4E4
100
AcDbEntity
  8
OBJECT
100
AcDbVertex
100
AcDb2dVertex
 10
-554.26990000000023
 20
753.83289999999943
 30
0.0
  0
VERTEX
  5
4E5
100
AcDbEntity
  8
OBJECT
100
AcDbVertex
100
AcDb2dVertex
 10
-554.2528999999995
 20
753.74259999999958
 30
0.0
  0
VERTEX
  5
4E6
100
AcDbEntity
  8
OBJECT
100
AcDbVertex
100
AcDb2dVertex
 10
-554.23620000000028
 20
753.65149999999994
 30
0.0
  0
VERTEX
  5
4E7
100
AcDbEntity
  8
OBJECT
100
AcDbVertex
100
AcDb2dVertex
 10
-554.22019999999975
 20
753.5609000000004
 30
0.0
  0
VERTEX
  5
4E8
100
AcDbEntity
  8
OBJECT
100
AcDbVertex
100
AcDb2dVertex
 10
-554.20489999999972
 20
753.47059999999965
 30
0.0
  0
VERTEX
  5
4E9
100
AcDbEntity
  8
OBJECT
100
AcDbVertex
100
AcDb2dVertex
 10
-554.18990000000031
 20
753.37950000000001
 30
0.0
  0
VERTEX
  5
4EA
100
AcDbEntity
  8
OBJECT
100
AcDbVertex
100
AcDb2dVertex
 10
-554.17559999999958
 20
753.28870000000006
 30
0.0
  0
VERTEX
  5
4EB
100
AcDbEntity
  8
OBJECT
100
AcDbVertex
100
AcDb2dVertex
 10
-554.16190000000006
 20
753.19769999999971
 30
0.0
  0
VERTEX
  5
4EC
100
AcDbEntity
  8
OBJECT
100
AcDbVertex
100
AcDb2dVertex
 10
-554.14869999999974
 20
753.10660000000007
 30
0.0
  0
VERTEX
  5
4ED
100
AcDbEntity
  8
OBJECT
100
AcDbVertex
100
AcDb2dVertex
 10
-554.13600000000042
 20
753.01530000000002
 30
0.0
  0
VERTEX
  5
4EE
100
AcDbEntity
  8
OBJECT
100
AcDbVertex
100
AcDb2dVertex
 10
-554.12389999999959
 20
752.92419999999947
 30
0.0
  0
VERTEX
  5
4EF
100
AcDbEntity
  8
OBJECT
100
AcDbVertex
100
AcDb2dVertex
 10
-554.11239999999998
 20
752.83280000000013
 30
0.0
  0
VERTEX
  5
4F0
100
AcDbEntity
  8
OBJECT
100
AcDbVertex
100
AcDb2dVertex
 10
-554.10139999999956
 20
752.74150000000009
 30
0.0
  0
VERTEX
  5
4F1
100
AcDbEntity
  8
OBJECT
100
AcDbVertex
100
AcDb2dVertex
 10
-554.09100000000035
 20
752.65020000000004
 30
0.0
  0
VERTEX
  5
4F2
100
AcDbEntity
  8
OBJECT
100
AcDbVertex
100
AcDb2dVertex
 10
-554.08109999999942
 20
752.55810000000019
 30
0.0
  0
VERTEX
  5
4F3
100
AcDbEntity
  8
OBJECT
100
AcDbVertex
100
AcDb2dVertex
 10
-554.07189999999991
 20
752.46649999999954
 30
0.0
  0
VERTEX
  5
4F4
100
AcDbEntity
  8
OBJECT
100
AcDbVertex
100
AcDb2dVertex
 10
-554.0631999999996
 20
752.3752999999997
 30
0.0
  0
VERTEX
  5
4F5
100
AcDbEntity
  8
OBJECT
100
AcDbVertex
100
AcDb2dVertex
 10
-554.05500000000029
 20
752.28359999999975
 30
0.0
  0
VERTEX
  5
4F6
100
AcDbEntity
  8
OBJECT
100
AcDbVertex
100
AcDb2dVertex
 10
-554.04739999999947
 20
752.19170000000031
 30
0.0
  0
VERTEX
  5
4F7
100
AcDbEntity
  8
OBJECT
100
AcDbVertex
100
AcDb2dVertex
 10
-554.04039999999986
 20
752.10009999999966
 30
0.0
  0
VERTEX
  5
4F8
100
AcDbEntity
  8
OBJECT
100
AcDbVertex
100
AcDb2dVertex
 10
-554.03390000000036
 20
752.00789999999961
 30
0.0
  0
VERTEX
  5
4F9
100
AcDbEntity
  8
OBJECT
100
AcDbVertex
100
AcDb2dVertex
 10
-554.02800000000025
 20
751.91610000000037
 30
0.0
  0
VERTEX
  5
4FA
100
AcDbEntity
  8
OBJECT
100
AcDbVertex
100
AcDb2dVertex
 10
-554.02269999999953
 20
751.82439999999951
 30
0.0
  0
VERTEX
  5
4FB
100
AcDbEntity
  8
OBJECT
100
AcDbVertex
100
AcDb2dVertex
 10
-554.01789999999983
 20
751.73239999999987
 30
0.0
  0
VERTEX
  5
4FC
100
AcDbEntity
  8
OBJECT
100
AcDbVertex
100
AcDb2dVertex
 10
-554.01369999999952
 20
751.64049999999952
 30
0.0
  0
VERTEX
  5
4FD
100
AcDbEntity
  8
OBJECT
100
AcDbVertex
100
AcDb2dVertex
 10
-554.01000000000022
 20
751.54860000000008
 30
0.0
  0
VERTEX
  5
4FE
100
AcDbEntity
  8
OBJECT
100
AcDbVertex
100
AcDb2dVertex
 10
-554.00690000000031
 20
751.45679999999993
 30
0.0
  0
VERTEX
  5
4FF
100
AcDbEntity
  8
OBJECT
100
AcDbVertex
100
AcDb2dVertex
 10
-554.00439999999981
 20
751.36449999999968
 30
0.0
  0
VERTEX
  5
500
100
AcDbEntity
  8
OBJECT
100
AcDbVertex
100
AcDb2dVertex
 10
-554.0024999999996
 20
751.27250000000004
 30
0.0
  0
VERTEX
  5
501
100
AcDbEntity
  8
OBJECT
100
AcDbVertex
100
AcDb2dVertex
 10
-554.0010999999995
 20
751.18040000000019
 30
0.0
  0
VERTEX
  5
502
100
AcDbEntity
  8
OBJECT
100
AcDbVertex
100
AcDb2dVertex
 10
-554.0002000000004
 20
751.08849999999984
 30
0.0
  0
VERTEX
  5
503
100
AcDbEntity
  8
OBJECT
100
AcDbVertex
100
AcDb2dVertex
 10
-554.0
 20
751.00720000000001
 30
0.0
  0
VERTEX
  5
504
100
AcDbEntity
  8
OBJECT
100
AcDbVertex
100
AcDb2dVertex
 10
-554.0
 20
600.0
 30
0.0
  0
VERTEX
  5
505
100
AcDbEntity
  8
OBJECT
100
AcDbVertex
100
AcDb2dVertex
 10
-554.0
 20
448.99269999999979
 30
0.0
  0
VERTEX
  5
506
100
AcDbEntity
  8
OBJECT
100
AcDbVertex
100
AcDb2dVertex
 10
-554.0002000000004
 20
448.91139999999996
 30
0.0
  0
VERTEX
  5
507
100
AcDbEntity
  8
OBJECT
100
AcDbVertex
100
AcDb2dVertex
 10
-554.0010999999995
 20
448.81949999999961
 30
0.0
  0
VERTEX
  5
508
100
AcDbEntity
  8
OBJECT
100
AcDbVertex
100
AcDb2dVertex
 10
-554.0024999999996
 20
448.72749999999996
 30
0.0
  0
VERTEX
  5
509
100
AcDbEntity
  8
OBJECT
100
AcDbVertex
100
AcDb2dVertex
 10
-554.00439999999981
 20
448.63550000000032
 30
0.0
  0
VERTEX
  5
50A
100
AcDbEntity
  8
OBJECT
100
AcDbVertex
100
AcDb2dVertex
 10
-554.00690000000031
 20
448.54320000000007
 30
0.0
  0
VERTEX
  5
50B
100
AcDbEntity
  8
OBJECT
100
AcDbVertex
100
AcDb2dVertex
 10
-554.01000000000022
 20
448.45129999999972
 30
0.0
  0
VERTEX
  5
50C
100
AcDbEntity
  8
OBJECT
100
AcDbVertex
100
AcDb2dVertex
 10
-554.01369999999952
 20
448.35940000000028
 30
0.0
  0
VERTEX
  5
50D
100
AcDbEntity
  8
OBJECT
100
AcDbVertex
100
AcDb2dVertex
 10
-554.01789999999983
 20
448.26749999999993
 30
0.0
  0
VERTEX
  5
50E
100
AcDbEntity
  8
OBJECT
100
AcDbVertex
100
AcDb2dVertex
 10
-554.02269999999953
 20
448.17550000000028
 30
0.0
  0
VERTEX
  5
50F
100
AcDbEntity
  8
OBJECT
100
AcDbVertex
100
AcDb2dVertex
 10
-554.02800000000025
 20
448.08380000000034
 30
0.0
  0
VERTEX
  5
510
100
AcDbEntity
  8
OBJECT
100
AcDbVertex
100
AcDb2dVertex
 10
-554.03390000000036
 20
447.99200000000019
 30
0.0
  0
VERTEX
  5
511
100
AcDbEntity
  8
OBJECT
100
AcDbVertex
100
AcDb2dVertex
 10
-554.04039999999986
 20
447.89990000000034
 30
0.0
  0
VERTEX
  5
512
100
AcDbEntity
  8
OBJECT
100
AcDbVertex
100
AcDb2dVertex
 10
-554.04739999999947
 20
447.80819999999949
 30
0.0
  0
VERTEX
  5
513
100
AcDbEntity
  8
OBJECT
100
AcDbVertex
100
AcDb2dVertex
 10
-554.05500000000029
 20
447.71640000000025
 30
0.0
  0
VERTEX
  5
514
100
AcDbEntity
  8
OBJECT
100
AcDbVertex
100
AcDb2dVertex
 10
-554.0631999999996
 20
447.6246000000001
 30
0.0
  0
VERTEX
  5
515
100
AcDbEntity
  8
OBJECT
100
AcDbVertex
100
AcDb2dVertex
 10
-554.07189999999991
 20
447.53340000000026
 30
0.0
  0
VERTEX
  5
516
100
AcDbEntity
  8
OBJECT
100
AcDbVertex
100
AcDb2dVertex
 10
-554.08109999999942
 20
447.4417999999996
 30
0.0
  0
VERTEX
  5
517
100
AcDbEntity
  8
OBJECT
100
AcDbVertex
100
AcDb2dVertex
 10
-554.09100000000035
 20
447.34969999999976
 30
0.0
  0
VERTEX
  5
518
100
AcDbEntity
  8
OBJECT
100
AcDbVertex
100
AcDb2dVertex
 10
-554.10139999999956
 20
447.25849999999991
 30
0.0
  0
VERTEX
  5
519
100
AcDbEntity
  8
OBJECT
100
AcDbVertex
100
AcDb2dVertex
 10
-554.11239999999998
 20
447.16709999999966
 30
0.0
  0
VERTEX
  5
51A
100
AcDbEntity
  8
OBJECT
100
AcDbVertex
100
AcDb2dVertex
 10
-554.12389999999959
 20
447.07570000000032
 30
0.0
  0
VERTEX
  5
51B
100
AcDbEntity
  8
OBJECT
100
AcDbVertex
100
AcDb2dVertex
 10
-554.13600000000042
 20
446.98469999999998
 30
0.0
  0
VERTEX
  5
51C
100
AcDbEntity
  8
OBJECT
100
AcDbVertex
100
AcDb2dVertex
 10
-554.14869999999974
 20
446.89339999999993
 30
0.0
  0
VERTEX
  5
51D
100
AcDbEntity
  8
OBJECT
100
AcDbVertex
100
AcDb2dVertex
 10
-554.16190000000006
 20
446.80230000000029
 30
0.0
  0
VERTEX
  5
51E
100
AcDbEntity
  8
OBJECT
100
AcDbVertex
100
AcDb2dVertex
 10
-554.17559999999958
 20
446.71119999999974
 30
0.0
  0
VERTEX
  5
51F
100
AcDbEntity
  8
OBJECT
100
AcDbVertex
100
AcDb2dVertex
 10
-554.18990000000031
 20
446.62039999999979
 30
0.0
  0
VERTEX
  5
520
100
AcDbEntity
  8
OBJECT
100
AcDbVertex
100
AcDb2dVertex
 10
-554.20489999999972
 20
446.52930000000015
 30
0.0
  0
VERTEX
  5
521
100
AcDbEntity
  8
OBJECT
100
AcDbVertex
100
AcDb2dVertex
 10
-554.22019999999975
 20
446.4390999999996
 30
0.0
  0
VERTEX
  5
522
100
AcDbEntity
  8
OBJECT
100
AcDbVertex
100
AcDb2dVertex
 10
-554.23620000000028
 20
446.34839999999986
 30
0.0
  0
VERTEX
  5
523
100
AcDbEntity
  8
OBJECT
100
AcDbVertex
100
AcDb2dVertex
 10
-554.2528999999995
 20
446.25730000000021
 30
0.0
  0
VERTEX
  5
524
100
AcDbEntity
  8
OBJECT
100
AcDbVertex
100
AcDb2dVertex
 10
-554.26990000000023
 20
446.16699999999946
 30
0.0
  0
VERTEX
  5
525
100
AcDbEntity
  8
OBJECT
100
AcDbVertex
100
AcDb2dVertex
 10
-554.28759999999966
 20
446.07669999999962
 30
0.0
  0
VERTEX
  5
526
100
AcDbEntity
  8
OBJECT
100
AcDbVertex
100
AcDb2dVertex
 10
-554.30580000000009
 20
445.98639999999978
 30
0.0
  0
VERTEX
  5
527
100
AcDbEntity
  8
OBJECT
100
AcDbVertex
100
AcDb2dVertex
 10
-554.32449999999972
 20
445.89660000000003
 30
0.0
  0
VERTEX
  5
528
100
AcDbEntity
  8
OBJECT
100
AcDbVertex
100
AcDb2dVertex
 10
-554.34389999999985
 20
445.80630000000019
 30
0.0
  0
VERTEX
  5
529
100
AcDbEntity
  8
OBJECT
100
AcDbVertex
100
AcDb2dVertex
 10
-554.36380000000008
 20
445.71619999999984
 30
0.0
  0
VERTEX
  5
52A
100
AcDbEntity
  8
OBJECT
100
AcDbVertex
100
AcDb2dVertex
 10
-554.38420000000042
 20
445.6266999999998
 30
0.0
  0
VERTEX
  5
52B
100
AcDbEntity
  8
OBJECT
100
AcDbVertex
100
AcDb2dVertex
 10
-554.40520000000015
 20
445.53719999999976
 30
0.0
  0
VERTEX
  5
52C
100
AcDbEntity
  8
OBJECT
100
AcDbVertex
100
AcDb2dVertex
 10
-554.42669999999998
 20
445.44779999999992
 30
0.0
  0
VERTEX
  5
52D
100
AcDbEntity
  8
OBJECT
100
AcDbVertex
100
AcDb2dVertex
 10
-554.44869999999992
 20
445.35840000000007
 30
0.0
  0
VERTEX
  5
52E
100
AcDbEntity
  8
OBJECT
100
AcDbVertex
100
AcDb2dVertex
 10
-554.47140000000036
 20
445.26900000000023
 30
0.0
  0
VERTEX
  5
52F
100
AcDbEntity
  8
OBJECT
100
AcDbVertex
100
AcDb2dVertex
 10
-554.49470000000019
 20
445.17959999999948
 30
0.0
  0
VERTEX
  5
530
100
AcDbEntity
  8
OBJECT
100
AcDbVertex
100
AcDb2dVertex
 10
-554.51829999999973
 20
445.09109999999964
 30
0.0
  0
VERTEX
  5
531
100
AcDbEntity
  8
OBJECT
100
AcDbVertex
100
AcDb2dVertex
 10
-554.54240000000027
 20
445.0024999999996
 30
0.0
  0
VERTEX
  5
532
100
AcDbEntity
  8
OBJECT
100
AcDbVertex
100
AcDb2dVertex
 10
-554.56739999999991
 20
444.91330000000016
 30
0.0
  0
VERTEX
  5
533
100
AcDbEntity
  8
OBJECT
100
AcDbVertex
100
AcDb2dVertex
 10
-554.59270000000015
 20
444.82489999999962
 30
0.0
  0
VERTEX
  5
534
100
AcDbEntity
  8
OBJECT
100
AcDbVertex
100
AcDb2dVertex
 10
-554.61849999999959
 20
444.73700000000008
 30
0.0
  0
VERTEX
  5
535
100
AcDbEntity
  8
OBJECT
100
AcDbVertex
100
AcDb2dVertex
 10
-554.64509999999973
 20
444.64840000000004
 30
0.0
  0
VERTEX
  5
536
100
AcDbEntity
  8
OBJECT
100
AcDbVertex
100
AcDb2dVertex
 10
-554.67199999999957
 20
444.56059999999979
 30
0.0
  0
VERTEX
  5
537
100
AcDbEntity
  8
OBJECT
100
AcDbVertex
100
AcDb2dVertex
 10
-554.69939999999951
 20
444.47289999999975
 30
0.0
  0
VERTEX
  5
538
100
AcDbEntity
  8
OBJECT
100
AcDbVertex
100
AcDb2dVertex
 10
-554.72760000000017
 20
444.38490000000002
 30
0.0
  0
VERTEX
  5
539
100
AcDbEntity
  8
OBJECT
100
AcDbVertex
100
AcDb2dVertex
 10
-554.75619999999981
 20
444.29739999999947
 30
0.0
  0
VERTEX
  5
53A
100
AcDbEntity
  8
OBJECT
100
AcDbVertex
100
AcDb2dVertex
 10
-554.78529999999955
 20
444.21000000000004
 30
0.0
  0
VERTEX
  5
53B
100
AcDbEntity
  8
OBJECT
100
AcDbVertex
100
AcDb2dVertex
 10
-554.8149999999996
 20
444.12299999999959
 30
0.0
  0
VERTEX
  5
53C
100
AcDbEntity
  8
OBJECT
100
AcDbVertex
100
AcDb2dVertex
 10
-554.84500000000025
 20
444.03639999999996
 30
0.0
  0
VERTEX
  5
53D
100
AcDbEntity
  8
OBJECT
100
AcDbVertex
100
AcDb2dVertex
 10
-554.8757999999998
 20
443.94930000000022
 30
0.0
  0
VERTEX
  5
53E
100
AcDbEntity
  8
OBJECT
100
AcDbVertex
100
AcDb2dVertex
 10
-554.90719999999965
 20
443.86250000000018
 30
0.0
  0
VERTEX
  5
53F
100
AcDbEntity
  8
OBJECT
100
AcDbVertex
100
AcDb2dVertex
 10
-554.9389000000001
 20
443.77639999999974
 30
0.0
  0
VERTEX
  5
540
100
AcDbEntity
  8
OBJECT
100
AcDbVertex
100
AcDb2dVertex
 10
-554.97130000000016
 20
443.6900999999998
 30
0.0
  0
VERTEX
  5
541
100
AcDbEntity
  8
OBJECT
100
AcDbVertex
100
AcDb2dVertex
 10
-555.00410000000011
 20
443.60419999999976
 30
0.0
  0
VERTEX
  5
542
100
AcDbEntity
  8
OBJECT
100
AcDbVertex
100
AcDb2dVertex
 10
-555.03750000000036
 20
443.51839999999993
 30
0.0
  0
VERTEX
  5
543
100
AcDbEntity
  8
OBJECT
100
AcDbVertex
100
AcDb2dVertex
 10
-555.07139999999981
 20
443.4327000000003
 30
0.0
  0
VERTEX
  5
544
100
AcDbEntity
  8
OBJECT
100
AcDbVertex
100
AcDb2dVertex
 10
-555.10580000000027
 20
443.34739999999965
 30
0.0
  0
VERTEX
  5
545
100
AcDbEntity
  8
OBJECT
100
AcDbVertex
100
AcDb2dVertex
 10
-555.14080000000013
 20
443.26209999999992
 30
0.0
  0
VERTEX
  5
546
100
AcDbEntity
  8
OBJECT
100
AcDbVertex
100
AcDb2dVertex
 10
-555.17619999999988
 20
443.17739999999958
 30
0.0
  0
VERTEX
  5
547
100
AcDbEntity
  8
OBJECT
100
AcDbVertex
100
AcDb2dVertex
 10
-555.21209999999974
 20
443.09280000000035
 30
0.0
  0
VERTEX
  5
548
100
AcDbEntity
  8
OBJECT
100
AcDbVertex
100
AcDb2dVertex
 10
-555.24889999999959
 20
443.00780000000032
 30
0.0
  0
VERTEX
  5
549
100
AcDbEntity
  8
OBJECT
100
AcDbVertex
100
AcDb2dVertex
 10
-555.28589999999986
 20
442.92349999999988
 30
0.0
  0
VERTEX
  5
54A
100
AcDbEntity
  8
OBJECT
100
AcDbVertex
100
AcDb2dVertex
 10
-555.32330000000002
 20
442.83979999999974
 30
0.0
  0
VERTEX
  5
54B
100
AcDbEntity
  8
OBJECT
100
AcDbVertex
100
AcDb2dVertex
 10
-555.36120000000028
 20
442.75630000000001
 30
0.0
  0
VERTEX
  5
54C
100
AcDbEntity
  8
OBJECT
100
AcDbVertex
100
AcDb2dVertex
 10
-555.39990000000034
 20
442.67239999999947
 30
0.0
  0
VERTEX
  5
54D
100
AcDbEntity
  8
OBJECT
100
AcDbVertex
100
AcDb2dVertex
 10
-555.4390999999996
 20
442.58889999999974
 30
0.0
  0
VERTEX
  5
54E
100
AcDbEntity
  8
OBJECT
100
AcDbVertex
100
AcDb2dVertex
 10
-555.47860000000037
 20
442.50590000000011
 30
0.0
  0
VERTEX
  5
54F
100
AcDbEntity
  8
OBJECT
100
AcDbVertex
100
AcDb2dVertex
 10
-555.51869999999963
 20
442.42299999999977
 30
0.0
  0
VERTEX
  5
550
100
AcDbEntity
  8
OBJECT
100
AcDbVertex
100
AcDb2dVertex
 10
-555.55929999999989
 20
442.34050000000025
 30
0.0
  0
VERTEX
  5
551
100
AcDbEntity
  8
OBJECT
100
AcDbVertex
100
AcDb2dVertex
 10
-555.60049999999956
 20
442.25810000000001
 30
0.0
  0
VERTEX
  5
552
100
AcDbEntity
  8
OBJECT
100
AcDbVertex
100
AcDb2dVertex
 10
-555.64199999999983
 20
442.17609999999968
 30
0.0
  0
VERTEX
  5
553
100
AcDbEntity
  8
OBJECT
100
AcDbVertex
100
AcDb2dVertex
 10
-555.68429999999989
 20
442.09410000000025
 30
0.0
  0
VERTEX
  5
554
100
AcDbEntity
  8
OBJECT
100
AcDbVertex
100
AcDb2dVertex
 10
-555.72699999999986
 20
442.01230000000032
 30
0.0
  0
VERTEX
  5
555
100
AcDbEntity
  8
OBJECT
100
AcDbVertex
100
AcDb2dVertex
 10
-555.77009999999973
 20
441.93109999999979
 30
0.0
  0
VERTEX
  5
556
100
AcDbEntity
  8
OBJECT
100
AcDbVertex
100
AcDb2dVertex
 10
-555.8136999999997
 20
441.85009999999966
 30
0.0
  0
VERTEX
  5
557
100
AcDbEntity
  8
OBJECT
100
AcDbVertex
100
AcDb2dVertex
 10
-555.85769999999957
 20
441.76940000000013
 30
0.0
  0
VERTEX
  5
558
100
AcDbEntity
  8
OBJECT
100
AcDbVertex
100
AcDb2dVertex
 10
-555.90239999999994
 20
441.6887999999999
 30
0.0
  0
VERTEX
  5
559
100
AcDbEntity
  8
OBJECT
100
AcDbVertex
100
AcDb2dVertex
 10
-555.94750000000022
 20
441.60859999999957
 30
0.0
  0
VERTEX
  5
55A
100
AcDbEntity
  8
OBJECT
100
AcDbVertex
100
AcDb2dVertex
 10
-555.99309999999969
 20
441.52859999999964
 30
0.0
  0
VERTEX
  5
55B
100
AcDbEntity
  8
OBJECT
100
AcDbVertex
100
AcDb2dVertex
 10
-556.03909999999996
 20
441.44920000000002
 30
0.0
  0
VERTEX
  5
55C
100
AcDbEntity
  8
OBJECT
100
AcDbVertex
100
AcDb2dVertex
 10
-556.08569999999963
 20
441.36970000000019
 30
0.0
  0
VERTEX
  5
55D
100
AcDbEntity
  8
OBJECT
100
AcDbVertex
100
AcDb2dVertex
 10
-556.13289999999961
 20
441.29029999999966
 30
0.0
  0
VERTEX
  5
55E
100
AcDbEntity
  8
OBJECT
100
AcDbVertex
100
AcDb2dVertex
 10
-556.18059999999969
 20
441.21140000000014
 30
0.0
  0
VERTEX
  5
55F
100
AcDbEntity
  8
OBJECT
100
AcDbVertex
100
AcDb2dVertex
 10
-556.22850000000017
 20
441.13299999999981
 30
0.0
  0
VERTEX
  5
560
100
AcDbEntity
  8
OBJECT
100
AcDbVertex
100
AcDb2dVertex
 10
-556.27689999999984
 20
441.05490000000009
 30
0.0
  0
VERTEX
  5
561
100
AcDbEntity
  8
OBJECT
100
AcDbVertex
100
AcDb2dVertex
 10
-556.32579999999962
 20
440.97729999999956
 30
0.0
  0
VERTEX
  5
562
100
AcDbEntity
  8
OBJECT
100
AcDbVertex
100
AcDb2dVertex
 10
-556.3752999999997
 20
440.89949999999953
 30
0.0
  0
VERTEX
  5
563
100
AcDbEntity
  8
OBJECT
100
AcDbVertex
100
AcDb2dVertex
 10
-556.42550000000028
 20
440.82179999999971
 30
0.0
  0
VERTEX
  5
564
100
AcDbEntity
  8
OBJECT
100
AcDbVertex
100
AcDb2dVertex
 10
-556.47589999999946
 20
440.7448000000004
 30
0.0
  0
VERTEX
  5
565
100
AcDbEntity
  8
OBJECT
100
AcDbVertex
100
AcDb2dVertex
 10
-556.52670000000035
 20
440.66820000000007
 30
0.0
  0
VERTEX
  5
566
100
AcDbEntity
  8
OBJECT
100
AcDbVertex
100
AcDb2dVertex
 10
-556.57799999999952
 20
440.59199999999964
 30
0.0
  0
VERTEX
  5
567
100
AcDbEntity
  8
OBJECT
100
AcDbVertex
100
AcDb2dVertex
 10
-556.62989999999991
 20
440.51580000000013
 30
0.0
  0
VERTEX
  5
568
100
AcDbEntity
  8
OBJECT
100
AcDbVertex
100
AcDb2dVertex
 10
-556.6823000000004
 20
440.43990000000031
 30
0.0
  0
VERTEX
  5
569
100
AcDbEntity
  8
OBJECT
100
AcDbVertex
100
AcDb2dVertex
 10
-556.73489999999947
 20
440.36470000000008
 30
0.0
  0
VERTEX
  5
56A
100
AcDbEntity
  8
OBJECT
100
AcDbVertex
100
AcDb2dVertex
 10
-556.78809999999976
 20
440.28960000000006
 30
0.0
  0
VERTEX
  5
56B
100
AcDbEntity
  8
OBJECT
100
AcDbVertex
100
AcDb2dVertex
 10
-556.84209999999985
 20
440.21439999999984
 30
0.0
  0
VERTEX
  5
56C
100
AcDbEntity
  8
OBJECT
100
AcDbVertex
100
AcDb2dVertex
 10
-556.89599999999973
 20
440.14030000000002
 30
0.0
  0
VERTEX
  5
56D
100
AcDbEntity
  8
OBJECT
100
AcDbVertex
100
AcDb2dVertex
 10
-556.95039999999972
 20
440.0663999999997
 30
0.0
  0
VERTEX
  5
56E
100
AcDbEntity
  8
OBJECT
100
AcDbVertex
100
AcDb2dVertex
 10
-557.00569999999971
 20
439.99240000000009
 30
0.0
  0
VERTEX
  5
56F
100
AcDbEntity
  8
OBJECT
100
AcDbVertex
100
AcDb2dVertex
 10
-557.0610999999999
 20
439.91910000000007
 30
0.0
  0
VERTEX
  5
570
100
AcDbEntity
  8
OBJECT
100
AcDbVertex
100
AcDb2dVertex
 10
-557.11719999999968
 20
439.84569999999985
 30
0.0
  0
VERTEX
  5
571
100
AcDbEntity
  8
OBJECT
100
AcDbVertex
100
AcDb2dVertex
 10
-557.17370000000028
 20
439.77289999999994
 30
0.0
  0
VERTEX
  5
572
100
AcDbEntity
  8
OBJECT
100
AcDbVertex
100
AcDb2dVertex
 10
-557.23030000000017
 20
439.70079999999962
 30
0.0
  0
VERTEX
  5
573
100
AcDbEntity
  8
OBJECT
100
AcDbVertex
100
AcDb2dVertex
 10
-557.28750000000036
 20
439.6288999999997
 30
0.0
  0
VERTEX
  5
574
100
AcDbEntity
  8
OBJECT
100
AcDbVertex
100
AcDb2dVertex
 10
-557.34540000000015
 20
439.55699999999979
 30
0.0
  0
VERTEX
  5
575
100
AcDbEntity
  8
OBJECT
100
AcDbVertex
100
AcDb2dVertex
 10
-557.40369999999984
 20
439.48539999999957
 30
0.0
  0
VERTEX
  5
576
100
AcDbEntity
  8
OBJECT
100
AcDbVertex
100
AcDb2dVertex
 10
-557.46190000000024
 20
439.41489999999976
 30
0.0
  0
VERTEX
  5
577
100
AcDbEntity
  8
OBJECT
100
AcDbVertex
100
AcDb2dVertex
 10
-557.52109999999993
 20
439.34410000000025
 30
0.0
  0
VERTEX
  5
578
100
AcDbEntity
  8
OBJECT
100
AcDbVertex
100
AcDb2dVertex
 10
-557.58079999999973
 20
439.27360000000044
 30
0.0
  0
VERTEX
  5
579
100
AcDbEntity
  8
OBJECT
100
AcDbVertex
100
AcDb2dVertex
 10
-557.64049999999952
 20
439.20390000000043
 30
0.0
  0
VERTEX
  5
57A
100
AcDbEntity
  8
OBJECT
100
AcDbVertex
100
AcDb2dVertex
 10
-557.70079999999962
 20
439.13450000000012
 30
0.0
  0
VERTEX
  5
57B
100
AcDbEntity
  8
OBJECT
100
AcDbVertex
100
AcDb2dVertex
 10
-557.76170000000002
 20
439.0652
 30
0.0
  0
VERTEX
  5
57C
100
AcDbEntity
  8
OBJECT
100
AcDbVertex
100
AcDb2dVertex
 10
-557.82300000000032
 20
438.99619999999959
 30
0.0
  0
VERTEX
  5
57D
100
AcDbEntity
  8
OBJECT
100
AcDbVertex
100
AcDb2dVertex
 10
-557.88429999999971
 20
438.92810000000009
 30
0.0
  0
VERTEX
  5
57E
100
AcDbEntity
  8
OBJECT
100
AcDbVertex
100
AcDb2dVertex
 10
-557.94629999999961
 20
438.86009999999987
 30
0.0
  0
VERTEX
  5
57F
100
AcDbEntity
  8
OBJECT
100
AcDbVertex
100
AcDb2dVertex
 10
-558.00910000000022
 20
438.79209999999966
 30
0.0
  0
VERTEX
  5
580
100
AcDbEntity
  8
OBJECT
100
AcDbVertex
100
AcDb2dVertex
 10
-558.07179999999971
 20
438.72500000000036
 30
0.0
  0
VERTEX
  5
581
100
AcDbEntity
  8
OBJECT
100
AcDbVertex
100
AcDb2dVertex
 10
-558.13500000000022
 20
438.65819999999985
 30
0.0
  0
VERTEX
  5
582
100
AcDbEntity
  8
OBJECT
100
AcDbVertex
100
AcDb2dVertex
 10
-558.19859999999971
 20
438.59180000000015
 30
0.0
  0
VERTEX
  5
583
100
AcDbEntity
  8
OBJECT
100
AcDbVertex
100
AcDb2dVertex
 10
-558.26270000000022
 20
438.52570000000014
 30
0.0
  0
VERTEX
  5
584
100
AcDbEntity
  8
OBJECT
100
AcDbVertex
100
AcDb2dVertex
 10
-558.32719999999972
 20
438.46000000000004
 30
0.0
  0
VERTEX
  5
585
100
AcDbEntity
  8
OBJECT
100
AcDbVertex
100
AcDb2dVertex
 10
-558.39220000000023
 20
438.39459999999963
 30
0.0
  0
VERTEX
  5
586
100
AcDbEntity
  8
OBJECT
100
AcDbVertex
100
AcDb2dVertex
 10
-558.45750000000044
 20
438.32960000000003
 30
0.0
  0
VERTEX
  5
587
100
AcDbEntity
  8
OBJECT
100
AcDbVertex
100
AcDb2dVertex
 10
-558.52300000000014
 20
438.26530000000002
 30
0.0
  0
VERTEX
  5
588
100
AcDbEntity
  8
OBJECT
100
AcDbVertex
100
AcDb2dVertex
 10
-558.58899999999994
 20
438.20119999999952
 30
0.0
  0
VERTEX
  5
589
100
AcDbEntity
  8
OBJECT
100
AcDbVertex
100
AcDb2dVertex
 10
-558.65570000000025
 20
438.13739999999962
 30
0.0
  0
VERTEX
  5
58A
100
AcDbEntity
  8
OBJECT
100
AcDbVertex
100
AcDb2dVertex
 10
-558.72260000000006
 20
438.07399999999961
 30
0.0
  0
VERTEX
  5
58B
100
AcDbEntity
  8
OBJECT
100
AcDbVertex
100
AcDb2dVertex
 10
-558.78979999999956
 20
438.01130000000012
 30
0.0
  0
VERTEX
  5
58C
100
AcDbEntity
  8
OBJECT
100
AcDbVertex
100
AcDb2dVertex
 10
-558.85710000000017
 20
437.94909999999982
 30
0.0
  0
VERTEX
  5
58D
100
AcDbEntity
  8
OBJECT
100
AcDbVertex
100
AcDb2dVertex
 10
-558.92519999999968
 20
437.88699999999972
 30
0.0
  0
VERTEX
  5
58E
100
AcDbEntity
  8
OBJECT
100
AcDbVertex
100
AcDb2dVertex
 10
-558.99380000000019
 20
437.82520000000022
 30
0.0
  0
VERTEX
  5
58F
100
AcDbEntity
  8
OBJECT
100
AcDbVertex
100
AcDb2dVertex
 10
-559.0627000000004
 20
437.76379999999972
 30
0.0
  0
VERTEX
  5
590
100
AcDbEntity
  8
OBJECT
100
AcDbVertex
100
AcDb2dVertex
 10
-559.13180000000011
 20
437.70309999999972
 30
0.0
  0
VERTEX
  5
591
100
AcDbEntity
  8
OBJECT
100
AcDbVertex
100
AcDb2dVertex
 10
-559.20079999999962
 20
437.64320000000043
 30
0.0
  0
VERTEX
  5
592
100
AcDbEntity
  8
OBJECT
100
AcDbVertex
100
AcDb2dVertex
 10
-559.27089999999953
 20
437.58309999999983
 30
0.0
  0
VERTEX
  5
593
100
AcDbEntity
  8
OBJECT
100
AcDbVertex
100
AcDb2dVertex
 10
-559.34140000000025
 20
437.52340000000004
 30
0.0
  0
VERTEX
  5
594
100
AcDbEntity
  8
OBJECT
100
AcDbVertex
100
AcDb2dVertex
 10
-559.41200000000026
 20
437.46439999999984
 30
0.0
  0
VERTEX
  5
595
100
AcDbEntity
  8
OBJECT
100
AcDbVertex
100
AcDb2dVertex
 10
-559.48269999999957
 20
437.40599999999995
 30
0.0
  0
VERTEX
  5
596
100
AcDbEntity
  8
OBJECT
100
AcDbVertex
100
AcDb2dVertex
 10
-559.55400000000009
 20
437.34779999999955
 30
0.0
  0
VERTEX
  5
597
100
AcDbEntity
  8
OBJECT
100
AcDbVertex
100
AcDb2dVertex
 10
-559.6257999999998
 20
437.28989999999976
 30
0.0
  0
VERTEX
  5
598
100
AcDbEntity
  8
OBJECT
100
AcDbVertex
100
AcDb2dVertex
 10
-559.69800000000032
 20
437.23250000000007
 30
0.0
  0
VERTEX
  5
599
100
AcDbEntity
  8
OBJECT
100
AcDbVertex
100
AcDb2dVertex
 10
-559.77030000000013
 20
437.17569999999978
 30
0.0
  0
VERTEX
  5
59A
100
AcDbEntity
  8
OBJECT
100
AcDbVertex
100
AcDb2dVertex
 10
-559.84310000000005
 20
437.11920000000009
 30
0.0
  0
VERTEX
  5
59B
100
AcDbEntity
  8
OBJECT
100
AcDbVertex
100
AcDb2dVertex
 10
-559.91610000000037
 20
437.0632999999998
 30
0.0
  0
VERTEX
  5
59C
100
AcDbEntity
  8
OBJECT
100
AcDbVertex
100
AcDb2dVertex
 10
-559.98930000000018
 20
437.00799999999981
 30
0.0
  0
VERTEX
  5
59D
100
AcDbEntity
  8
OBJECT
100
AcDbVertex
100
AcDb2dVertex
 10
-560.0634
 20
436.95269999999982
 30
0.0
  0
VERTEX
  5
59E
100
AcDbEntity
  8
OBJECT
100
AcDbVertex
100
AcDb2dVertex
 10
-560.13760000000002
 20
436.89800000000014
 30
0.0
  0
VERTEX
  5
59F
100
AcDbEntity
  8
OBJECT
100
AcDbVertex
100
AcDb2dVertex
 10
-560.21149999999943
 20
436.84419999999955
 30
0.0
  0
VERTEX
  5
5A0
100
AcDbEntity
  8
OBJECT
100
AcDbVertex
100
AcDb2dVertex
 10
-560.28619999999955
 20
436.79050000000007
 30
0.0
  0
VERTEX
  5
5A1
100
AcDbEntity
  8
OBJECT
100
AcDbVertex
100
AcDb2dVertex
 10
-560.36179999999968
 20
436.73700000000008
 30
0.0
  0
VERTEX
  5
5A2
100
AcDbEntity
  8
OBJECT
100
AcDbVertex
100
AcDb2dVertex
 10
-560.4369999999999
 20
436.68429999999989
 30
0.0
  0
VERTEX
  5
5A3
100
AcDbEntity
  8
OBJECT
100
AcDbVertex
100
AcDb2dVertex
 10
-560.51289999999972
 20
436.63190000000031
 30
0.0
  0
VERTEX
  5
5A4
100
AcDbEntity
  8
OBJECT
100
AcDbVertex
100
AcDb2dVertex
 10
-560.58899999999994
 20
436.57999999999993
 30
0.0
  0
VERTEX
  5
5A5
100
AcDbEntity
  8
OBJECT
100
AcDbVertex
100
AcDb2dVertex
 10
-560.66529999999966
 20
436.52869999999984
 30
0.0
  0
VERTEX
  5
5A6
100
AcDbEntity
  8
OBJECT
100
AcDbVertex
100
AcDb2dVertex
 10
-560.74179999999978
 20
436.47789999999986
 30
0.0
  0
VERTEX
  5
5A7
100
AcDbEntity
  8
OBJECT
100
AcDbVertex
100
AcDb2dVertex
 10
-560.81880000000001
 20
436.42739999999958
 30
0.0
  0
VERTEX
  5
5A8
100
AcDbEntity
  8
OBJECT
100
AcDbVertex
100
AcDb2dVertex
 10
-560.89649999999983
 20
436.3771999999999
 30
0.0
  0
VERTEX
  5
5A9
100
AcDbEntity
  8
OBJECT
100
AcDbVertex
100
AcDb2dVertex
 10
-560.97400000000016
 20
436.32780000000002
 30
0.0
  0
VERTEX
  5
5AA
100
AcDbEntity
  8
OBJECT
100
AcDbVertex
100
AcDb2dVertex
 10
-561.05199999999968
 20
436.27880000000005
 30
0.0
  0
VERTEX
  5
5AB
100
AcDbEntity
  8
OBJECT
100
AcDbVertex
100
AcDb2dVertex
 10
-561.12989999999991
 20
436.23040000000037
 30
0.0
  0
VERTEX
  5
5AC
100
AcDbEntity
  8
OBJECT
100
AcDbVertex
100
AcDb2dVertex
 10
-561.20830000000024
 20
436.18239999999969
 30
0.0
  0
VERTEX
  5
5AD
100
AcDbEntity
  8
OBJECT
100
AcDbVertex
100
AcDb2dVertex
 10
-561.28750000000036
 20
436.13460000000032
 30
0.0
  0
VERTEX
  5
5AE
100
AcDbEntity
  8
OBJECT
100
AcDbVertex
100
AcDb2dVertex
 10
-561.36660000000029
 20
436.08749999999964
 30
0.0
  0
VERTEX
  5
5AF
100
AcDbEntity
  8
OBJECT
100
AcDbVertex
100
AcDb2dVertex
 10
-561.44549999999981
 20
436.04119999999966
 30
0.0
  0
VERTEX
  5
5B0
100
AcDbEntity
  8
OBJECT
100
AcDbVertex
100
AcDb2dVertex
 10
-561.52549999999974
 20
435.99489999999969
 30
0.0
  0
VERTEX
  5
5B1
100
AcDbEntity
  8
OBJECT
100
AcDbVertex
100
AcDb2dVertex
 10
-561.60570000000007
 20
435.94909999999982
 30
0.0
  0
VERTEX
  5
5B2
100
AcDbEntity
  8
OBJECT
100
AcDbVertex
100
AcDb2dVertex
 10
-561.6858000000002
 20
435.90409999999974
 30
0.0
  0
VERTEX
  5
5B3
100
AcDbEntity
  8
OBJECT
100
AcDbVertex
100
AcDb2dVertex
 10
-561.76620000000003
 20
435.85949999999957
 30
0.0
  0
VERTEX
  5
5B4
100
AcDbEntity
  8
OBJECT
100
AcDbVertex
100
AcDb2dVertex
 10
-561.84670000000006
 20
435.8154999999997
 30
0.0
  0
VERTEX
  5
5B5
100
AcDbEntity
  8
OBJECT
100
AcDbVertex
100
AcDb2dVertex
 10
-561.92799999999988
 20
435.77170000000024
 30
0.0
  0
VERTEX
  5
5B6
100
AcDbEntity
  8
OBJECT
100
AcDbVertex
100
AcDb2dVertex
 10
-562.00939999999991
 20
435.72850000000017
 30
0.0
  0
VERTEX
  5
5B7
100
AcDbEntity
  8
OBJECT
100
AcDbVertex
100
AcDb2dVertex
 10
-562.09059999999954
 20
435.68599999999969
 30
0.0
  0
VERTEX
  5
5B8
100
AcDbEntity
  8
OBJECT
100
AcDbVertex
100
AcDb2dVertex
 10
-562.17289999999957
 20
435.64369999999963
 30
0.0
  0
VERTEX
  5
5B9
100
AcDbEntity
  8
OBJECT
100
AcDbVertex
100
AcDb2dVertex
 10
-562.25510000000031
 20
435.60189999999966
 30
0.0
  0
VERTEX
  5
5BA
100
AcDbEntity
  8
OBJECT
100
AcDbVertex
100
AcDb2dVertex
 10
-562.33719999999994
 20
435.5609000000004
 30
0.0
  0
VERTEX
  5
5BB
100
AcDbEntity
  8
OBJECT
100
AcDbVertex
100
AcDb2dVertex
 10
-562.41960000000017
 20
435.52040000000034
 30
0.0
  0
VERTEX
  5
5BC
100
AcDbEntity
  8
OBJECT
100
AcDbVertex
100
AcDb2dVertex
 10
-562.5024999999996
 20
435.48019999999997
 30
0.0
  0
VERTEX
  5
5BD
100
AcDbEntity
  8
OBJECT
100
AcDbVertex
100
AcDb2dVertex
 10
-562.58560000000034
 20
435.4405999999999
 30
0.0
  0
VERTEX
  5
5BE
100
AcDbEntity
  8
OBJECT
100
AcDbVertex
100
AcDb2dVertex
 10
-562.66929999999957
 20
435.40129999999954
 30
0.0
  0
VERTEX
  5
5BF
100
AcDbEntity
  8
OBJECT
100
AcDbVertex
100
AcDb2dVertex
 10
-562.75280000000021
 20
435.36279999999988
 30
0.0
  0
VERTEX
  5
5C0
100
AcDbEntity
  8
OBJECT
100
AcDbVertex
100
AcDb2dVertex
 10
-562.83629999999994
 20
435.32480000000032
 30
0.0
  0
VERTEX
  5
5C1
100
AcDbEntity
  8
OBJECT
100
AcDbVertex
100
AcDb2dVertex
 10
-562.92059999999947
 20
435.28709999999955
 30
0.0
  0
VERTEX
  5
5C2
100
AcDbEntity
  8
OBJECT
100
AcDbVertex
100
AcDb2dVertex
 10
-563.00450000000001
 20
435.2502000000004
 30
0.0
  0
VERTEX
  5
5C3
100
AcDbEntity
  8
OBJECT
100
AcDbVertex
100
AcDb2dVertex
 10
-563.08899999999994
 20
435.21370000000024
 30
0.0
  0
VERTEX
  5
5C4
100
AcDbEntity
  8
OBJECT
100
AcDbVertex
100
AcDb2dVertex
 10
-563.17399999999998
 20
435.17759999999998
 30
0.0
  0
VERTEX
  5
5C5
100
AcDbEntity
  8
OBJECT
100
AcDbVertex
100
AcDb2dVertex
 10
-563.25910000000022
 20
435.14199999999983
 30
0.0
  0
VERTEX
  5
5C6
100
AcDbEntity
  8
OBJECT
100
AcDbVertex
100
AcDb2dVertex
 10
-563.34389999999985
 20
435.10720000000038
 30
0.0
  0
VERTEX
  5
5C7
100
AcDbEntity
  8
OBJECT
100
AcDbVertex
100
AcDb2dVertex
 10
-563.42919999999958
 20
435.07269999999971
 30
0.0
  0
VERTEX
  5
5C8
100
AcDbEntity
  8
OBJECT
100
AcDbVertex
100
AcDb2dVertex
 10
-563.51530000000002
 20
435.03859999999986
 30
0.0
  0
VERTEX
  5
5C9
100
AcDbEntity
  8
OBJECT
100
AcDbVertex
100
AcDb2dVertex
 10
-563.60080000000016
 20
435.00540000000001
 30
0.0
  0
VERTEX
  5
5CA
100
AcDbEntity
  8
OBJECT
100
AcDbVertex
100
AcDb2dVertex
 10
-563.6867000000002
 20
434.97249999999985
 30
0.0
  0
VERTEX
  5
5CB
100
AcDbEntity
  8
OBJECT
100
AcDbVertex
100
AcDb2dVertex
 10
-563.77289999999994
 20
434.9402
 30
0.0
  0
VERTEX
  5
5CC
100
AcDbEntity
  8
OBJECT
100
AcDbVertex
100
AcDb2dVertex
 10
-563.85940000000028
 20
434.90830000000005
 30
0.0
  0
VERTEX
  5
5CD
100
AcDbEntity
  8
OBJECT
100
AcDbVertex
100
AcDb2dVertex
 10
-563.94610000000011
 20
434.87700000000041
 30
0.0
  0
VERTEX
  5
5CE
100
AcDbEntity
  8
OBJECT
100
AcDbVertex
100
AcDb2dVertex
 10
-564.03259999999955
 20
434.84630000000016
 30
0.0
  0
VERTEX
  5
5CF
100
AcDbEntity
  8
OBJECT
100
AcDbVertex
100
AcDb2dVertex
 10
-564.11939999999959
 20
434.81620000000021
 30
0.0
  0
VERTEX
  5
5D0
100
AcDbEntity
  8
OBJECT
100
AcDbVertex
100
AcDb2dVertex
 10
-564.20690000000013
 20
434.78639999999996
 30
0.0
  0
VERTEX
  5
5D1
100
AcDbEntity
  8
OBJECT
100
AcDbVertex
100
AcDb2dVertex
 10
-564.29399999999987
 20
434.75730000000021
 30
0.0
  0
VERTEX
  5
5D2
100
AcDbEntity
  8
OBJECT
100
AcDbVertex
100
AcDb2dVertex
 10
-564.38140000000021
 20
434.72869999999966
 30
0.0
  0
VERTEX
  5
5D3
100
AcDbEntity
  8
OBJECT
100
AcDbVertex
100
AcDb2dVertex
 10
-564.46939999999995
 20
434.70049999999992
 30
0.0
  0
VERTEX
  5
5D4
100
AcDbEntity
  8
OBJECT
100
AcDbVertex
100
AcDb2dVertex
 10
-564.55709999999999
 20
434.67299999999977
 30
0.0
  0
VERTEX
  5
5D5
100
AcDbEntity
  8
OBJECT
100
AcDbVertex
100
AcDb2dVertex
 10
-564.64490000000023
 20
434.64609999999993
 30
0.0
  0
VERTEX
  5
5D6
100
AcDbEntity
  8
OBJECT
100
AcDbVertex
100
AcDb2dVertex
 10
-564.73309999999947
 20
434.61959999999999
 30
0.0
  0
VERTEX
  5
5D7
100
AcDbEntity
  8
OBJECT
100
AcDbVertex
100
AcDb2dVertex
 10
-564.82170000000042
 20
434.59360000000015
 30
0.0
  0
VERTEX
  5
5D8
100
AcDbEntity
  8
OBJECT
100
AcDbVertex
100
AcDb2dVertex
 10
-564.91020000000026
 20
434.56829999999991
 30
0.0
  0
VERTEX
  5
5D9
100
AcDbEntity
  8
OBJECT
100
AcDbVertex
100
AcDb2dVertex
 10
-564.9985999999999
 20
434.54349999999977
 30
0.0
  0
VERTEX
  5
5DA
100
AcDbEntity
  8
OBJECT
100
AcDbVertex
100
AcDb2dVertex
 10
-565.08740000000034
 20
434.51919999999973
 30
0.0
  0
VERTEX
  5
5DB
100
AcDbEntity
  8
OBJECT
100
AcDbVertex
100
AcDb2dVertex
 10
-565.17649999999958
 20
434.49539999999979
 30
0.0
  0
VERTEX
  5
5DC
100
AcDbEntity
  8
OBJECT
100
AcDbVertex
100
AcDb2dVertex
 10
-565.26559999999972
 20
434.47220000000016
 30
0.0
  0
VERTEX
  5
5DD
100
AcDbEntity
  8
OBJECT
100
AcDbVertex
100
AcDb2dVertex
 10
-565.35469999999987
 20
434.44959999999992
 30
0.0
  0
VERTEX
  5
5DE
100
AcDbEntity
  8
OBJECT
100
AcDbVertex
100
AcDb2dVertex
 10
-565.44409999999971
 20
434.42749999999978
 30
0.0
  0
VERTEX
  5
5DF
100
AcDbEntity
  8
OBJECT
100
AcDbVertex
100
AcDb2dVertex
 10
-565.53359999999975
 20
434.40599999999995
 30
0.0
  0
VERTEX
  5
5E0
100
AcDbEntity
  8
OBJECT
100
AcDbVertex
100
AcDb2dVertex
 10
-565.62309999999979
 20
434.38500000000022
 30
0.0
  0
VERTEX
  5
5E1
100
AcDbEntity
  8
OBJECT
100
AcDbVertex
100
AcDb2dVertex
 10
-565.71259999999984
 20
434.36459999999988
 30
0.0
  0
VERTEX
  5
5E2
100
AcDbEntity
  8
OBJECT
100
AcDbVertex
100
AcDb2dVertex
 10
-565.80279999999948
 20
434.34460000000036
 30
0.0
  0
VERTEX
  5
5E3
100
AcDbEntity
  8
OBJECT
100
AcDbVertex
100
AcDb2dVertex
 10
-565.89310000000023
 20
434.32520000000022
 30
0.0
  0
VERTEX
  5
5E4
100
AcDbEntity
  8
OBJECT
100
AcDbVertex
100
AcDb2dVertex
 10
-565.98329999999987
 20
434.30639999999948
 30
0.0
  0
VERTEX
  5
5E5
100
AcDbEntity
  8
OBJECT
100
AcDbVertex
100
AcDb2dVertex
 10
-566.07319999999982
 20
434.28830000000016
 30
0.0
  0
VERTEX
  5
5E6
100
AcDbEntity
  8
OBJECT
100
AcDbVertex
100
AcDb2dVertex
 10
-566.16339999999946
 20
434.27059999999983
 30
0.0
  0
VERTEX
  5
5E7
100
AcDbEntity
  8
OBJECT
100
AcDbVertex
100
AcDb2dVertex
 10
-566.25410000000011
 20
434.2533999999996
 30
0.0
  0
VERTEX
  5
5E8
100
AcDbEntity
  8
OBJECT
100
AcDbVertex
100
AcDb2dVertex
 10
-566.34450000000015
 20
434.23689999999988
 30
0.0
  0
VERTEX
  5
5E9
100
AcDbEntity
  8
OBJECT
100
AcDbVertex
100
AcDb2dVertex
 10
-566.4351999999999
 20
434.22080000000005
 30
0.0
  0
VERTEX
  5
5EA
100
AcDbEntity
  8
OBJECT
100
AcDbVertex
100
AcDb2dVertex
 10
-566.52610000000004
 20
434.20539999999983
 30
0.0
  0
VERTEX
  5
5EB
100
AcDbEntity
  8
OBJECT
100
AcDbVertex
100
AcDb2dVertex
 10
-566.61679999999978
 20
434.1904999999997
 30
0.0
  0
VERTEX
  5
5EC
100
AcDbEntity
  8
OBJECT
100
AcDbVertex
100
AcDb2dVertex
 10
-566.70750000000044
 20
434.17619999999988
 30
0.0
  0
VERTEX
  5
5ED
100
AcDbEntity
  8
OBJECT
100
AcDbVertex
100
AcDb2dVertex
 10
-566.79839999999967
 20
434.16240000000016
 30
0.0
  0
VERTEX
  5
5EE
100
AcDbEntity
  8
OBJECT
100
AcDbVertex
100
AcDb2dVertex
 10
-566.88990000000013
 20
434.14909999999963
 30
0.0
  0
VERTEX
  5
5EF
100
AcDbEntity
  8
OBJECT
100
AcDbVertex
100
AcDb2dVertex
 10
-566.98109999999997
 20
434.13640000000032
 30
0.0
  0
VERTEX
  5
5F0
100
AcDbEntity
  8
OBJECT
100
AcDbVertex
100
AcDb2dVertex
 10
-567.07210000000032
 20
434.1243999999997
 30
0.0
  0
VERTEX
  5
5F1
100
AcDbEntity
  8
OBJECT
100
AcDbVertex
100
AcDb2dVertex
 10
-567.16349999999966
 20
434.11279999999988
 30
0.0
  0
VERTEX
  5
5F2
100
AcDbEntity
  8
OBJECT
100
AcDbVertex
100
AcDb2dVertex
 10
-567.25489999999991
 20
434.10180000000037
 30
0.0
  0
VERTEX
  5
5F3
100
AcDbEntity
  8
OBJECT
100
AcDbVertex
100
AcDb2dVertex
 10
-567.34649999999965
 20
434.09140000000025
 30
0.0
  0
VERTEX
  5
5F4
100
AcDbEntity
  8
OBJECT
100
AcDbVertex
100
AcDb2dVertex
 10
-567.4381999999996
 20
434.08150000000023
 30
0.0
  0
VERTEX
  5
5F5
100
AcDbEntity
  8
OBJECT
100
AcDbVertex
100
AcDb2dVertex
 10
-567.52939999999944
 20
434.07219999999961
 30
0.0
  0
VERTEX
  5
5F6
100
AcDbEntity
  8
OBJECT
100
AcDbVertex
100
AcDb2dVertex
 10
-567.62100000000009
 20
434.0635000000002
 30
0.0
  0
VERTEX
  5
5F7
100
AcDbEntity
  8
OBJECT
100
AcDbVertex
100
AcDb2dVertex
 10
-567.71280000000024
 20
434.05529999999999
 30
0.0
  0
VERTEX
  5
5F8
100
AcDbEntity
  8
OBJECT
100
AcDbVertex
100
AcDb2dVertex
 10
-567.80459999999948
 20
434.04759999999987
 30
0.0
  0
VERTEX
  5
5F9
100
AcDbEntity
  8
OBJECT
100
AcDbVertex
100
AcDb2dVertex
 10
-567.89670000000024
 20
434.04060000000027
 30
0.0
  0
VERTEX
  5
5FA
100
AcDbEntity
  8
OBJECT
100
AcDbVertex
100
AcDb2dVertex
 10
-567.98840000000018
 20
434.03409999999985
 30
0.0
  0
VERTEX
  5
5FB
100
AcDbEntity
  8
OBJECT
100
AcDbVertex
100
AcDb2dVertex
 10
-568.07979999999952
 20
434.02819999999974
 30
0.0
  0
VERTEX
  5
5FC
100
AcDbEntity
  8
OBJECT
100
AcDbVertex
100
AcDb2dVertex
 10
-568.17159999999967
 20
434.02279999999973
 30
0.0
  0
VERTEX
  5
5FD
100
AcDbEntity
  8
OBJECT
100
AcDbVertex
100
AcDb2dVertex
 10
-568.26369999999952
 20
434.01800000000003
 30
0.0
  0
VERTEX
  5
5FE
100
AcDbEntity
  8
OBJECT
100
AcDbVertex
100
AcDb2dVertex
 10
-568.35609999999997
 20
434.01379999999972
 30
0.0
  0
VERTEX
  5
5FF
100
AcDbEntity
  8
OBJECT
100
AcDbVertex
100
AcDb2dVertex
 10
-568.44809999999961
 20
434.01009999999951
 30
0.0
  0
VERTEX
  5
600
100
AcDbEntity
  8
OBJECT
100
AcDbVertex
100
AcDb2dVertex
 10
-568.53960000000006
 20
434.00699999999961
 30
0.0
  0
VERTEX
  5
601
100
AcDbEntity
  8
OBJECT
100
AcDbVertex
100
AcDb2dVertex
 10
-568.63180000000011
 20
434.00450000000001
 30
0.0
  0
VERTEX
  5
602
100
AcDbEntity
  8
OBJECT
100
AcDbVertex
100
AcDb2dVertex
 10
-568.72379999999976
 20
434.0024999999996
 30
0.0
  0
VERTEX
  5
603
100
AcDbEntity
  8
OBJECT
100
AcDbVertex
100
AcDb2dVertex
 10
-568.8158999999996
 20
434.0010999999995
 30
0.0
  0
VERTEX
  5
604
100
AcDbEntity
  8
OBJECT
100
AcDbVertex
100
AcDb2dVertex
 10
-568.90809999999965
 20
434.0002000000004
 30
0.0
  0
VERTEX
  5
605
100
AcDbEntity
  8
OBJECT
100
AcDbVertex
100
AcDb2dVertex
 10
-568.99229999999989
 20
434.0
 30
0.0
  0
VERTEX
  5
606
100
AcDbEntity
  8
OBJECT
100
AcDbVertex
100
AcDb2dVertex
 10
-800.0
 20
434.0
 30
0.0
  0
VERTEX
  5
607
100
AcDbEntity
  8
OBJECT
100
AcDbVertex
100
AcDb2dVertex
 10
-1031.0077999999994
 20
434.0
 30
0.0
  0
VERTEX
  5
608
100
AcDbEntity
  8
OBJECT
100
AcDbVertex
100
AcDb2dVertex
 10
-1031.0918999999994
 20
434.0002000000004
 30
0.0
  0
VERTEX
  5
609
100
AcDbEntity
  8
OBJECT
100
AcDbVertex
100
AcDb2dVertex
 10
-1031.1841999999997
 20
434.0010999999995
 30
0.0
  0
VERTEX
  5
60A
100
AcDbEntity
  8
OBJECT
100
AcDbVertex
100
AcDb2dVertex
 10
-1031.2762000000002
 20
434.0024999999996
 30
0.0
  0
VERTEX
  5
60B
100
AcDbEntity
  8
OBJECT
100
AcDbVertex
100
AcDb2dVertex
 10
-1031.3681999999999
 20
434.00450000000001
 30
0.0
  0
VERTEX
  5
60C
100
AcDbEntity
  8
OBJECT
100
AcDbVertex
100
AcDb2dVertex
 10
-1031.4605000000001
 20
434.00699999999961
 30
0.0
  0
VERTEX
  5
60D
100
AcDbEntity
  8
OBJECT
100
AcDbVertex
100
AcDb2dVertex
 10
-1031.5519000000004
 20
434.01009999999951
 30
0.0
  0
VERTEX
  5
60E
100
AcDbEntity
  8
OBJECT
100
AcDbVertex
100
AcDb2dVertex
 10
-1031.6441999999997
 20
434.01379999999972
 30
0.0
  0
VERTEX
  5
60F
100
AcDbEntity
  8
OBJECT
100
AcDbVertex
100
AcDb2dVertex
 10
-1031.7361999999994
 20
434.01800000000003
 30
0.0
  0
VERTEX
  5
610
100
AcDbEntity
  8
OBJECT
100
AcDbVertex
100
AcDb2dVertex
 10
-1031.8280999999997
 20
434.02279999999973
 30
0.0
  0
VERTEX
  5
611
100
AcDbEntity
  8
OBJECT
100
AcDbVertex
100
AcDb2dVertex
 10
-1031.9201999999996
 20
434.02819999999974
 30
0.0
  0
VERTEX
  5
612
100
AcDbEntity
  8
OBJECT
100
AcDbVertex
100
AcDb2dVertex
 10
-1032.0115999999998
 20
434.03409999999985
 30
0.0
  0
VERTEX
  5
613
100
AcDbEntity
  8
OBJECT
100
AcDbVertex
100
AcDb2dVertex
 10
-1032.1034
 20
434.04060000000027
 30
0.0
  0
VERTEX
  5
614
100
AcDbEntity
  8
OBJECT
100
AcDbVertex
100
AcDb2dVertex
 10
-1032.1953999999996
 20
434.04759999999987
 30
0.0
  0
VERTEX
  5
615
100
AcDbEntity
  8
OBJECT
100
AcDbVertex
100
AcDb2dVertex
 10
-1032.2871999999998
 20
434.05529999999999
 30
0.0
  0
VERTEX
  5
616
100
AcDbEntity
  8
OBJECT
100
AcDbVertex
100
AcDb2dVertex
 10
-1032.3789999999999
 20
434.0635000000002
 30
0.0
  0
VERTEX
  5
617
100
AcDbEntity
  8
OBJECT
100
AcDbVertex
100
AcDb2dVertex
 10
-1032.4705999999996
 20
434.07219999999961
 30
0.0
  0
VERTEX
  5
618
100
AcDbEntity
  8
OBJECT
100
AcDbVertex
100
AcDb2dVertex
 10
-1032.5618999999997
 20
434.08150000000023
 30
0.0
  0
VERTEX
  5
619
100
AcDbEntity
  8
OBJECT
100
AcDbVertex
100
AcDb2dVertex
 10
-1032.6534000000001
 20
434.09130000000005
 30
0.0
  0
VERTEX
  5
61A
100
AcDbEntity
  8
OBJECT
100
AcDbVertex
100
AcDb2dVertex
 10
-1032.7449999999999
 20
434.10180000000037
 30
0.0
  0
VERTEX
  5
61B
100
AcDbEntity
  8
OBJECT
100
AcDbVertex
100
AcDb2dVertex
 10
-1032.8365999999996
 20
434.11279999999988
 30
0.0
  0
VERTEX
  5
61C
100
AcDbEntity
  8
OBJECT
100
AcDbVertex
100
AcDb2dVertex
 10
-1032.9279999999999
 20
434.1243999999997
 30
0.0
  0
VERTEX
  5
61D
100
AcDbEntity
  8
OBJECT
100
AcDbVertex
100
AcDb2dVertex
 10
-1033.0189
 20
434.13640000000032
 30
0.0
  0
VERTEX
  5
61E
100
AcDbEntity
  8
OBJECT
100
AcDbVertex
100
AcDb2dVertex
 10
-1033.1102000000001
 20
434.14909999999963
 30
0.0
  0
VERTEX
  5
61F
100
AcDbEntity
  8
OBJECT
100
AcDbVertex
100
AcDb2dVertex
 10
-1033.2013999999999
 20
434.16240000000016
 30
0.0
  0
VERTEX
  5
620
100
AcDbEntity
  8
OBJECT
100
AcDbVertex
100
AcDb2dVertex
 10
-1033.2923000000001
 20
434.17609999999968
 30
0.0
  0
VERTEX
  5
621
100
AcDbEntity
  8
OBJECT
100
AcDbVertex
100
AcDb2dVertex
 10
-1033.3832000000002
 20
434.1904999999997
 30
0.0
  0
VERTEX
  5
622
100
AcDbEntity
  8
OBJECT
100
AcDbVertex
100
AcDb2dVertex
 10
-1033.4739
 20
434.20539999999983
 30
0.0
  0
VERTEX
  5
623
100
AcDbEntity
  8
OBJECT
100
AcDbVertex
100
AcDb2dVertex
 10
-1033.5648999999994
 20
434.22080000000005
 30
0.0
  0
VERTEX
  5
624
100
AcDbEntity
  8
OBJECT
100
AcDbVertex
100
AcDb2dVertex
 10
-1033.6556
 20
434.23689999999988
 30
0.0
  0
VERTEX
  5
625
100
AcDbEntity
  8
OBJECT
100
AcDbVertex
100
AcDb2dVertex
 10
-1033.7458999999999
 20
434.2533999999996
 30
0.0
  0
VERTEX
  5
626
100
AcDbEntity
  8
OBJECT
100
AcDbVertex
100
AcDb2dVertex
 10
-1033.8365999999996
 20
434.27059999999983
 30
0.0
  0
VERTEX
  5
627
100
AcDbEntity
  8
OBJECT
100
AcDbVertex
100
AcDb2dVertex
 10
-1033.9269000000004
 20
434.28830000000016
 30
0.0
  0
VERTEX
  5
628
100
AcDbEntity
  8
OBJECT
100
AcDbVertex
100
AcDb2dVertex
 10
-1034.0167999999994
 20
434.30639999999948
 30
0.0
  0
VERTEX
  5
629
100
AcDbEntity
  8
OBJECT
100
AcDbVertex
100
AcDb2dVertex
 10
-1034.107
 20
434.32520000000022
 30
0.0
  0
VERTEX
  5
62A
100
AcDbEntity
  8
OBJECT
100
AcDbVertex
100
AcDb2dVertex
 10
-1034.1970000000001
 20
434.34460000000036
 30
0.0
  0
VERTEX
  5
62B
100
AcDbEntity
  8
OBJECT
100
AcDbVertex
100
AcDb2dVertex
 10
-1034.2873
 20
434.36459999999988
 30
0.0
  0
VERTEX
  5
62C
100
AcDbEntity
  8
OBJECT
100
AcDbVertex
100
AcDb2dVertex
 10
-1034.3769000000002
 20
434.38500000000022
 30
0.0
  0
VERTEX
  5
62D
100
AcDbEntity
  8
OBJECT
100
AcDbVertex
100
AcDb2dVertex
 10
-1034.4663999999993
 20
434.40599999999995
 30
0.0
  0
VERTEX
  5
62E
100
AcDbEntity
  8
OBJECT
100
AcDbVertex
100
AcDb2dVertex
 10
-1034.5558000000001
 20
434.42749999999978
 30
0.0
  0
VERTEX
  5
62F
100
AcDbEntity
  8
OBJECT
100
AcDbVertex
100
AcDb2dVertex
 10
-1034.6451999999999
 20
434.44959999999992
 30
0.0
  0
VERTEX
  5
630
100
AcDbEntity
  8
OBJECT
100
AcDbVertex
100
AcDb2dVertex
 10
-1034.7344999999996
 20
434.47229999999945
 30
0.0
  0
VERTEX
  5
631
100
AcDbEntity
  8
OBJECT
100
AcDbVertex
100
AcDb2dVertex
 10
-1034.8235000000004
 20
434.49539999999979
 30
0.0
  0
VERTEX
  5
632
100
AcDbEntity
  8
OBJECT
100
AcDbVertex
100
AcDb2dVertex
 10
-1034.9125999999997
 20
434.51919999999973
 30
0.0
  0
VERTEX
  5
633
100
AcDbEntity
  8
OBJECT
100
AcDbVertex
100
AcDb2dVertex
 10
-1035.0014000000001
 20
434.54349999999977
 30
0.0
  0
VERTEX
  5
634
100
AcDbEntity
  8
OBJECT
100
AcDbVertex
100
AcDb2dVertex
 10
-1035.0897999999997
 20
434.56829999999991
 30
0.0
  0
VERTEX
  5
635
100
AcDbEntity
  8
OBJECT
100
AcDbVertex
100
AcDb2dVertex
 10
-1035.1782999999996
 20
434.59360000000015
 30
0.0
  0
VERTEX
  5
636
100
AcDbEntity
  8
OBJECT
100
AcDbVertex
100
AcDb2dVertex
 10
-1035.2669999999998
 20
434.61959999999999
 30
0.0
  0
VERTEX
  5
637
100
AcDbEntity
  8
OBJECT
100
AcDbVertex
100
AcDb2dVertex
 10
-1035.3550999999998
 20
434.64609999999993
 30
0.0
  0
VERTEX
  5
638
100
AcDbEntity
  8
OBJECT
100
AcDbVertex
100
AcDb2dVertex
 10
-1035.4430000000002
 20
434.67299999999977
 30
0.0
  0
VERTEX
  5
639
100
AcDbEntity
  8
OBJECT
100
AcDbVertex
100
AcDb2dVertex
 10
-1035.5308999999997
 20
434.70060000000012
 30
0.0
  0
VERTEX
  5
63A
100
AcDbEntity
  8
OBJECT
100
AcDbVertex
100
AcDb2dVertex
 10
-1035.6183999999994
 20
434.72860000000037
 30
0.0
  0
VERTEX
  5
63B
100
AcDbEntity
  8
OBJECT
100
AcDbVertex
100
AcDb2dVertex
 10
-1035.7057000000004
 20
434.75720000000001
 30
0.0
  0
VERTEX
  5
63C
100
AcDbEntity
  8
OBJECT
100
AcDbVertex
100
AcDb2dVertex
 10
-1035.7932000000001
 20
434.78639999999996
 30
0.0
  0
VERTEX
  5
63D
100
AcDbEntity
  8
OBJECT
100
AcDbVertex
100
AcDb2dVertex
 10
-1035.8806999999997
 20
434.81620000000021
 30
0.0
  0
VERTEX
  5
63E
100
AcDbEntity
  8
OBJECT
100
AcDbVertex
100
AcDb2dVertex
 10
-1035.9673999999995
 20
434.84630000000016
 30
0.0
  0
VERTEX
  5
63F
100
AcDbEntity
  8
OBJECT
100
AcDbVertex
100
AcDb2dVertex
 10
-1036.0537999999997
 20
434.87690000000021
 30
0.0
  0
VERTEX
  5
640
100
AcDbEntity
  8
OBJECT
100
AcDbVertex
100
AcDb2dVertex
 10
-1036.1405999999997
 20
434.90830000000005
 30
0.0
  0
VERTEX
  5
641
100
AcDbEntity
  8
OBJECT
100
AcDbVertex
100
AcDb2dVertex
 10
-1036.2271000000001
 20
434.9402
 30
0.0
  0
VERTEX
  5
642
100
AcDbEntity
  8
OBJECT
100
AcDbVertex
100
AcDb2dVertex
 10
-1036.3134
 20
434.97249999999985
 30
0.0
  0
VERTEX
  5
643
100
AcDbEntity
  8
OBJECT
100
AcDbVertex
100
AcDb2dVertex
 10
-1036.3991999999998
 20
435.00540000000001
 30
0.0
  0
VERTEX
  5
644
100
AcDbEntity
  8
OBJECT
100
AcDbVertex
100
AcDb2dVertex
 10
-1036.4849999999997
 20
435.03880000000026
 30
0.0
  0
VERTEX
  5
645
100
AcDbEntity
  8
OBJECT
100
AcDbVertex
100
AcDb2dVertex
 10
-1036.5706
 20
435.07269999999971
 30
0.0
  0
VERTEX
  5
646
100
AcDbEntity
  8
OBJECT
100
AcDbVertex
100
AcDb2dVertex
 10
-1036.6558000000005
 20
435.10699999999997
 30
0.0
  0
VERTEX
  5
647
100
AcDbEntity
  8
OBJECT
100
AcDbVertex
100
AcDb2dVertex
 10
-1036.741
 20
435.14199999999983
 30
0.0
  0
VERTEX
  5
648
100
AcDbEntity
  8
OBJECT
100
AcDbVertex
100
AcDb2dVertex
 10
-1036.8261000000002
 20
435.17759999999998
 30
0.0
  0
VERTEX
  5
649
100
AcDbEntity
  8
OBJECT
100
AcDbVertex
100
AcDb2dVertex
 10
-1036.9110999999994
 20
435.21370000000024
 30
0.0
  0
VERTEX
  5
64A
100
AcDbEntity
  8
OBJECT
100
AcDbVertex
100
AcDb2dVertex
 10
-1036.9952999999996
 20
435.2502000000004
 30
0.0
  0
VERTEX
  5
64B
100
AcDbEntity
  8
OBJECT
100
AcDbVertex
100
AcDb2dVertex
 10
-1037.0792999999994
 20
435.28709999999955
 30
0.0
  0
VERTEX
  5
64C
100
AcDbEntity
  8
OBJECT
100
AcDbVertex
100
AcDb2dVertex
 10
-1037.1637000000001
 20
435.32480000000032
 30
0.0
  0
VERTEX
  5
64D
100
AcDbEntity
  8
OBJECT
100
AcDbVertex
100
AcDb2dVertex
 10
-1037.2473
 20
435.36279999999988
 30
0.0
  0
VERTEX
  5
64E
100
AcDbEntity
  8
OBJECT
100
AcDbVertex
100
AcDb2dVertex
 10
-1037.3306000000002
 20
435.40129999999954
 30
0.0
  0
VERTEX
  5
64F
100
AcDbEntity
  8
OBJECT
100
AcDbVertex
100
AcDb2dVertex
 10
-1037.4142000000002
 20
435.4404999999997
 30
0.0
  0
VERTEX
  5
650
100
AcDbEntity
  8
OBJECT
100
AcDbVertex
100
AcDb2dVertex
 10
-1037.4974999999995
 20
435.48019999999997
 30
0.0
  0
VERTEX
  5
651
100
AcDbEntity
  8
OBJECT
100
AcDbVertex
100
AcDb2dVertex
 10
-1037.5805
 20
435.52040000000034
 30
0.0
  0
VERTEX
  5
652
100
AcDbEntity
  8
OBJECT
100
AcDbVertex
100
AcDb2dVertex
 10
-1037.6628000000001
 20
435.5609000000004
 30
0.0
  0
VERTEX
  5
653
100
AcDbEntity
  8
OBJECT
100
AcDbVertex
100
AcDb2dVertex
 10
-1037.7448999999997
 20
435.60189999999966
 30
0.0
  0
VERTEX
  5
654
100
AcDbEntity
  8
OBJECT
100
AcDbVertex
100
AcDb2dVertex
 10
-1037.8271999999997
 20
435.64369999999963
 30
0.0
  0
VERTEX
  5
655
100
AcDbEntity
  8
OBJECT
100
AcDbVertex
100
AcDb2dVertex
 10
-1037.9092000000001
 20
435.6859000000004
 30
0.0
  0
VERTEX
  5
656
100
AcDbEntity
  8
OBJECT
100
AcDbVertex
100
AcDb2dVertex
 10
-1037.9904999999999
 20
435.72839999999997
 30
0.0
  0
VERTEX
  5
657
100
AcDbEntity
  8
OBJECT
100
AcDbVertex
100
AcDb2dVertex
 10
-1038.0720000000001
 20
435.77170000000024
 30
0.0
  0
VERTEX
  5
658
100
AcDbEntity
  8
OBJECT
100
AcDbVertex
100
AcDb2dVertex
 10
-1038.1532999999999
 20
435.8154999999997
 30
0.0
  0
VERTEX
  5
659
100
AcDbEntity
  8
OBJECT
100
AcDbVertex
100
AcDb2dVertex
 10
-1038.2335999999996
 20
435.85930000000008
 30
0.0
  0
VERTEX
  5
65A
100
AcDbEntity
  8
OBJECT
100
AcDbVertex
100
AcDb2dVertex
 10
-1038.3140999999996
 20
435.90400000000045
 30
0.0
  0
VERTEX
  5
65B
100
AcDbEntity
  8
OBJECT
100
AcDbVertex
100
AcDb2dVertex
 10
-1038.3945000000003
 20
435.94920000000002
 30
0.0
  0
VERTEX
  5
65C
100
AcDbEntity
  8
OBJECT
100
AcDbVertex
100
AcDb2dVertex
 10
-1038.4745999999996
 20
435.99489999999969
 30
0.0
  0
VERTEX
  5
65D
100
AcDbEntity
  8
OBJECT
100
AcDbVertex
100
AcDb2dVertex
 10
-1038.5545000000002
 20
436.04119999999966
 30
0.0
  0
VERTEX
  5
65E
100
AcDbEntity
  8
OBJECT
100
AcDbVertex
100
AcDb2dVertex
 10
-1038.6333999999997
 20
436.08749999999964
 30
0.0
  0
VERTEX
  5
65F
100
AcDbEntity
  8
OBJECT
100
AcDbVertex
100
AcDb2dVertex
 10
-1038.7124000000003
 20
436.13450000000012
 30
0.0
  0
VERTEX
  5
660
100
AcDbEntity
  8
OBJECT
100
AcDbVertex
100
AcDb2dVertex
 10
-1038.7915999999996
 20
436.1823000000004
 30
0.0
  0
VERTEX
  5
661
100
AcDbEntity
  8
OBJECT
100
AcDbVertex
100
AcDb2dVertex
 10
-1038.8701000000001
 20
436.23040000000037
 30
0.0
  0
VERTEX
  5
662
100
AcDbEntity
  8
OBJECT
100
AcDbVertex
100
AcDb2dVertex
 10
-1038.9480999999996
 20
436.27880000000005
 30
0.0
  0
VERTEX
  5
663
100
AcDbEntity
  8
OBJECT
100
AcDbVertex
100
AcDb2dVertex
 10
-1039.0259999999998
 20
436.32780000000002
 30
0.0
  0
VERTEX
  5
664
100
AcDbEntity
  8
OBJECT
100
AcDbVertex
100
AcDb2dVertex
 10
-1039.1036999999997
 20
436.3773000000001
 30
0.0
  0
VERTEX
  5
665
100
AcDbEntity
  8
OBJECT
100
AcDbVertex
100
AcDb2dVertex
 10
-1039.1810999999998
 20
436.42730000000029
 30
0.0
  0
VERTEX
  5
666
100
AcDbEntity
  8
OBJECT
100
AcDbVertex
100
AcDb2dVertex
 10
-1039.2579999999998
 20
436.47779999999966
 30
0.0
  0
VERTEX
  5
667
100
AcDbEntity
  8
OBJECT
100
AcDbVertex
100
AcDb2dVertex
 10
-1039.3346999999994
 20
436.52869999999984
 30
0.0
  0
VERTEX
  5
668
100
AcDbEntity
  8
OBJECT
100
AcDbVertex
100
AcDb2dVertex
 10
-1039.4110000000001
 20
436.57999999999993
 30
0.0
  0
VERTEX
  5
669
100
AcDbEntity
  8
OBJECT
100
AcDbVertex
100
AcDb2dVertex
 10
-1039.4868999999999
 20
436.63169999999991
 30
0.0
  0
VERTEX
  5
66A
100
AcDbEntity
  8
OBJECT
100
AcDbVertex
100
AcDb2dVertex
 10
-1039.5628999999999
 20
436.68419999999969
 30
0.0
  0
VERTEX
  5
66B
100
AcDbEntity
  8
OBJECT
100
AcDbVertex
100
AcDb2dVertex
 10
-1039.6383999999998
 20
436.73710000000028
 30
0.0
  0
VERTEX
  5
66C
100
AcDbEntity
  8
OBJECT
100
AcDbVertex
100
AcDb2dVertex
 10
-1039.7137999999995
 20
436.79050000000007
 30
0.0
  0
VERTEX
  5
66D
100
AcDbEntity
  8
OBJECT
100
AcDbVertex
100
AcDb2dVertex
 10
-1039.7884999999997
 20
436.84419999999955
 30
0.0
  0
VERTEX
  5
66E
100
AcDbEntity
  8
OBJECT
100
AcDbVertex
100
AcDb2dVertex
 10
-1039.8624
 20
436.89800000000014
 30
0.0
  0
VERTEX
  5
66F
100
AcDbEntity
  8
OBJECT
100
AcDbVertex
100
AcDb2dVertex
 10
-1039.9367000000002
 20
436.95269999999982
 30
0.0
  0
VERTEX
  5
670
100
AcDbEntity
  8
OBJECT
100
AcDbVertex
100
AcDb2dVertex
 10
-1040.0105999999996
 20
437.00789999999961
 30
0.0
  0
VERTEX
  5
671
100
AcDbEntity
  8
OBJECT
100
AcDbVertex
100
AcDb2dVertex
 10
-1040.0837000000001
 20
437.0631999999996
 30
0.0
  0
VERTEX
  5
672
100
AcDbEntity
  8
OBJECT
100
AcDbVertex
100
AcDb2dVertex
 10
-1040.1569
 20
437.11920000000009
 30
0.0
  0
VERTEX
  5
673
100
AcDbEntity
  8
OBJECT
100
AcDbVertex
100
AcDb2dVertex
 10
-1040.2296999999999
 20
437.17569999999978
 30
0.0
  0
VERTEX
  5
674
100
AcDbEntity
  8
OBJECT
100
AcDbVertex
100
AcDb2dVertex
 10
-1040.3020999999999
 20
437.23260000000028
 30
0.0
  0
VERTEX
  5
675
100
AcDbEntity
  8
OBJECT
100
AcDbVertex
100
AcDb2dVertex
 10
-1040.3739999999998
 20
437.28979999999956
 30
0.0
  0
VERTEX
  5
676
100
AcDbEntity
  8
OBJECT
100
AcDbVertex
100
AcDb2dVertex
 10
-1040.4458999999997
 20
437.34760000000006
 30
0.0
  0
VERTEX
  5
677
100
AcDbEntity
  8
OBJECT
100
AcDbVertex
100
AcDb2dVertex
 10
-1040.5172999999995
 20
437.40599999999995
 30
0.0
  0
VERTEX
  5
678
100
AcDbEntity
  8
OBJECT
100
AcDbVertex
100
AcDb2dVertex
 10
-1040.5879999999997
 20
437.46439999999984
 30
0.0
  0
VERTEX
  5
679
100
AcDbEntity
  8
OBJECT
100
AcDbVertex
100
AcDb2dVertex
 10
-1040.6585999999998
 20
437.52340000000004
 30
0.0
  0
VERTEX
  5
67A
100
AcDbEntity
  8
OBJECT
100
AcDbVertex
100
AcDb2dVertex
 10
-1040.7289000000001
 20
437.58290000000034
 30
0.0
  0
VERTEX
  5
67B
100
AcDbEntity
  8
OBJECT
100
AcDbVertex
100
AcDb2dVertex
 10
-1040.799
 20
437.64300000000003
 30
0.0
  0
VERTEX
  5
67C
100
AcDbEntity
  8
OBJECT
100
AcDbVertex
100
AcDb2dVertex
 10
-1040.8683999999994
 20
437.70319999999992
 30
0.0
  0
VERTEX
  5
67D
100
AcDbEntity
  8
OBJECT
100
AcDbVertex
100
AcDb2dVertex
 10
-1040.9372999999996
 20
437.76379999999972
 30
0.0
  0
VERTEX
  5
67E
100
AcDbEntity
  8
OBJECT
100
AcDbVertex
100
AcDb2dVertex
 10
-1041.0064000000002
 20
437.82530000000042
 30
0.0
  0
VERTEX
  5
67F
100
AcDbEntity
  8
OBJECT
100
AcDbVertex
100
AcDb2dVertex
 10
-1041.0747000000001
 20
437.88689999999951
 30
0.0
  0
VERTEX
  5
680
100
AcDbEntity
  8
OBJECT
100
AcDbVertex
100
AcDb2dVertex
 10
-1041.1426000000001
 20
437.94880000000012
 30
0.0
  0
VERTEX
  5
681
100
AcDbEntity
  8
OBJECT
100
AcDbVertex
100
AcDb2dVertex
 10
-1041.2101999999995
 20
438.01119999999992
 30
0.0
  0
VERTEX
  5
682
100
AcDbEntity
  8
OBJECT
100
AcDbVertex
100
AcDb2dVertex
 10
-1041.2773999999999
 20
438.07399999999961
 30
0.0
  0
VERTEX
  5
683
100
AcDbEntity
  8
OBJECT
100
AcDbVertex
100
AcDb2dVertex
 10
-1041.3444
 20
438.13739999999962
 30
0.0
  0
VERTEX
  5
684
100
AcDbEntity
  8
OBJECT
100
AcDbVertex
100
AcDb2dVertex
 10
-1041.4108999999999
 20
438.20119999999952
 30
0.0
  0
VERTEX
  5
685
100
AcDbEntity
  8
OBJECT
100
AcDbVertex
100
AcDb2dVertex
 10
-1041.4768999999997
 20
438.26519999999982
 30
0.0
  0
VERTEX
  5
686
100
AcDbEntity
  8
OBJECT
100
AcDbVertex
100
AcDb2dVertex
 10
-1041.5425999999998
 20
438.32970000000023
 30
0.0
  0
VERTEX
  5
687
100
AcDbEntity
  8
OBJECT
100
AcDbVertex
100
AcDb2dVertex
 10
-1041.6079
 20
438.39459999999963
 30
0.0
  0
VERTEX
  5
688
100
AcDbEntity
  8
OBJECT
100
AcDbVertex
100
AcDb2dVertex
 10
-1041.6728999999996
 20
438.46000000000004
 30
0.0
  0
VERTEX
  5
689
100
AcDbEntity
  8
OBJECT
100
AcDbVertex
100
AcDb2dVertex
 10
-1041.7371999999996
 20
438.52559999999994
 30
0.0
  0
VERTEX
  5
68A
100
AcDbEntity
  8
OBJECT
100
AcDbVertex
100
AcDb2dVertex
 10
-1041.8011999999999
 20
438.59150000000045
 30
0.0
  0
VERTEX
  5
68B
100
AcDbEntity
  8
OBJECT
100
AcDbVertex
100
AcDb2dVertex
 10
-1041.8651
 20
438.65819999999985
 30
0.0
  0
VERTEX
  5
68C
100
AcDbEntity
  8
OBJECT
100
AcDbVertex
100
AcDb2dVertex
 10
-1041.9282999999996
 20
438.72509999999966
 30
0.0
  0
VERTEX
  5
68D
100
AcDbEntity
  8
OBJECT
100
AcDbVertex
100
AcDb2dVertex
 10
-1041.991
 20
438.79209999999966
 30
0.0
  0
VERTEX
  5
68E
100
AcDbEntity
  8
OBJECT
100
AcDbVertex
100
AcDb2dVertex
 10
-1042.0535
 20
438.85989999999947
 30
0.0
  0
VERTEX
  5
68F
100
AcDbEntity
  8
OBJECT
100
AcDbVertex
100
AcDb2dVertex
 10
-1042.1156000000001
 20
438.92799999999988
 30
0.0
  0
VERTEX
  5
690
100
AcDbEntity
  8
OBJECT
100
AcDbVertex
100
AcDb2dVertex
 10
-1042.1770999999999
 20
438.99629999999979
 30
0.0
  0
VERTEX
  5
691
100
AcDbEntity
  8
OBJECT
100
AcDbVertex
100
AcDb2dVertex
 10
-1042.2383
 20
439.0650999999998
 30
0.0
  0
VERTEX
  5
692
100
AcDbEntity
  8
OBJECT
100
AcDbVertex
100
AcDb2dVertex
 10
-1042.2992999999997
 20
439.13450000000012
 30
0.0
  0
VERTEX
  5
693
100
AcDbEntity
  8
OBJECT
100
AcDbVertex
100
AcDb2dVertex
 10
-1042.3594999999996
 20
439.20390000000043
 30
0.0
  0
VERTEX
  5
694
100
AcDbEntity
  8
OBJECT
100
AcDbVertex
100
AcDb2dVertex
 10
-1042.4193999999998
 20
439.27369999999974
 30
0.0
  0
VERTEX
  5
695
100
AcDbEntity
  8
OBJECT
100
AcDbVertex
100
AcDb2dVertex
 10
-1042.4787999999999
 20
439.34400000000005
 30
0.0
  0
VERTEX
  5
696
100
AcDbEntity
  8
OBJECT
100
AcDbVertex
100
AcDb2dVertex
 10
-1042.5378000000001
 20
439.41460000000006
 30
0.0
  0
VERTEX
  5
697
100
AcDbEntity
  8
OBJECT
100
AcDbVertex
100
AcDb2dVertex
 10
-1042.5963000000002
 20
439.48539999999957
 30
0.0
  0
VERTEX
  5
698
100
AcDbEntity
  8
OBJECT
100
AcDbVertex
100
AcDb2dVertex
 10
-1042.6547
 20
439.55699999999979
 30
0.0
  0
VERTEX
  5
699
100
AcDbEntity
  8
OBJECT
100
AcDbVertex
100
AcDb2dVertex
 10
-1042.7124000000003
 20
439.62870000000021
 30
0.0
  0
VERTEX
  5
69A
100
AcDbEntity
  8
OBJECT
100
AcDbVertex
100
AcDb2dVertex
 10
-1042.7695000000003
 20
439.70049999999992
 30
0.0
  0
VERTEX
  5
69B
100
AcDbEntity
  8
OBJECT
100
AcDbVertex
100
AcDb2dVertex
 10
-1042.8262999999997
 20
439.77289999999994
 30
0.0
  0
VERTEX
  5
69C
100
AcDbEntity
  8
OBJECT
100
AcDbVertex
100
AcDb2dVertex
 10
-1042.8828999999996
 20
439.84580000000005
 30
0.0
  0
VERTEX
  5
69D
100
AcDbEntity
  8
OBJECT
100
AcDbVertex
100
AcDb2dVertex
 10
-1042.9390000000003
 20
439.91910000000007
 30
0.0
  0
VERTEX
  5
69E
100
AcDbEntity
  8
OBJECT
100
AcDbVertex
100
AcDb2dVertex
 10
-1042.9943999999996
 20
439.99240000000009
 30
0.0
  0
VERTEX
  5
69F
100
AcDbEntity
  8
OBJECT
100
AcDbVertex
100
AcDb2dVertex
 10
-1043.0493999999999
 20
440.06610000000001
 30
0.0
  0
VERTEX
  5
6A0
100
AcDbEntity
  8
OBJECT
100
AcDbVertex
100
AcDb2dVertex
 10
-1043.1039000000001
 20
440.14009999999962
 30
0.0
  0
VERTEX
  5
6A1
100
AcDbEntity
  8
OBJECT
100
AcDbVertex
100
AcDb2dVertex
 10
-1043.1579999999994
 20
440.21450000000004
 30
0.0
  0
VERTEX
  5
6A2
100
AcDbEntity
  8
OBJECT
100
AcDbVertex
100
AcDb2dVertex
 10
-1043.2119000000002
 20
440.28960000000006
 30
0.0
  0
VERTEX
  5
6A3
100
AcDbEntity
  8
OBJECT
100
AcDbVertex
100
AcDb2dVertex
 10
-1043.2650999999996
 20
440.36470000000008
 30
0.0
  0
VERTEX
  5
6A4
100
AcDbEntity
  8
OBJECT
100
AcDbVertex
100
AcDb2dVertex
 10
-1043.3176999999996
 20
440.43990000000031
 30
0.0
  0
VERTEX
  5
6A5
100
AcDbEntity
  8
OBJECT
100
AcDbVertex
100
AcDb2dVertex
 10
-1043.3701000000001
 20
440.51569999999992
 30
0.0
  0
VERTEX
  5
6A6
100
AcDbEntity
  8
OBJECT
100
AcDbVertex
100
AcDb2dVertex
 10
-1043.4218999999994
 20
440.59180000000015
 30
0.0
  0
VERTEX
  5
6A7
100
AcDbEntity
  8
OBJECT
100
AcDbVertex
100
AcDb2dVertex
 10
-1043.4732999999997
 20
440.66820000000007
 30
0.0
  0
VERTEX
  5
6A8
100
AcDbEntity
  8
OBJECT
100
AcDbVertex
100
AcDb2dVertex
 10
-1043.5240999999996
 20
440.7448000000004
 30
0.0
  0
VERTEX
  5
6A9
100
AcDbEntity
  8
OBJECT
100
AcDbVertex
100
AcDb2dVertex
 10
-1043.5747000000001
 20
440.82200000000012
 30
0.0
  0
VERTEX
  5
6AA
100
AcDbEntity
  8
OBJECT
100
AcDbVertex
100
AcDb2dVertex
 10
-1043.6246000000001
 20
440.89930000000004
 30
0.0
  0
VERTEX
  5
6AB
100
AcDbEntity
  8
OBJECT
100
AcDbVertex
100
AcDb2dVertex
 10
-1043.674
 20
440.97689999999966
 30
0.0
  0
VERTEX
  5
6AC
100
AcDbEntity
  8
OBJECT
100
AcDbVertex
100
AcDb2dVertex
 10
-1043.7232000000004
 20
441.05500000000029
 30
0.0
  0
VERTEX
  5
6AD
100
AcDbEntity
  8
OBJECT
100
AcDbVertex
100
AcDb2dVertex
 10
-1043.7714999999998
 20
441.13299999999981
 30
0.0
  0
VERTEX
  5
6AE
100
AcDbEntity
  8
OBJECT
100
AcDbVertex
100
AcDb2dVertex
 10
-1043.8194999999996
 20
441.21140000000014
 30
0.0
  0
VERTEX
  5
6AF
100
AcDbEntity
  8
OBJECT
100
AcDbVertex
100
AcDb2dVertex
 10
-1043.8670999999995
 20
441.29029999999966
 30
0.0
  0
VERTEX
  5
6B0
100
AcDbEntity
  8
OBJECT
100
AcDbVertex
100
AcDb2dVertex
 10
-1043.9141
 20
441.36930000000029
 30
0.0
  0
VERTEX
  5
6B1
100
AcDbEntity
  8
OBJECT
100
AcDbVertex
100
AcDb2dVertex
 10
-1043.9607999999998
 20
441.44890000000032
 30
0.0
  0
VERTEX
  5
6B2
100
AcDbEntity
  8
OBJECT
100
AcDbVertex
100
AcDb2dVertex
 10
-1044.0069999999996
 20
441.52869999999984
 30
0.0
  0
VERTEX
  5
6B3
100
AcDbEntity
  8
OBJECT
100
AcDbVertex
100
AcDb2dVertex
 10
-1044.0524999999998
 20
441.60859999999957
 30
0.0
  0
VERTEX
  5
6B4
100
AcDbEntity
  8
OBJECT
100
AcDbVertex
100
AcDb2dVertex
 10
-1044.0974999999999
 20
441.6885999999995
 30
0.0
  0
VERTEX
  5
6B5
100
AcDbEntity
  8
OBJECT
100
AcDbVertex
100
AcDb2dVertex
 10
-1044.1422000000002
 20
441.76919999999973
 30
0.0
  0
VERTEX
  5
6B6
100
AcDbEntity
  8
OBJECT
100
AcDbVertex
100
AcDb2dVertex
 10
-1044.1863999999996
 20
441.85009999999966
 30
0.0
  0
VERTEX
  5
6B7
100
AcDbEntity
  8
OBJECT
100
AcDbVertex
100
AcDb2dVertex
 10
-1044.2299999999996
 20
441.93109999999979
 30
0.0
  0
VERTEX
  5
6B8
100
AcDbEntity
  8
OBJECT
100
AcDbVertex
100
AcDb2dVertex
 10
-1044.2731000000003
 20
442.01230000000032
 30
0.0
  0
VERTEX
  5
6B9
100
AcDbEntity
  8
OBJECT
100
AcDbVertex
100
AcDb2dVertex
 10
-1044.3157000000001
 20
442.09400000000005
 30
0.0
  0
VERTEX
  5
6BA
100
AcDbEntity
  8
OBJECT
100
AcDbVertex
100
AcDb2dVertex
 10
-1044.3579
 20
442.17590000000018
 30
0.0
  0
VERTEX
  5
6BB
100
AcDbEntity
  8
OBJECT
100
AcDbVertex
100
AcDb2dVertex
 10
-1044.3994999999995
 20
442.25789999999961
 30
0.0
  0
VERTEX
  5
6BC
100
AcDbEntity
  8
OBJECT
100
AcDbVertex
100
AcDb2dVertex
 10
-1044.4407000000001
 20
442.34050000000025
 30
0.0
  0
VERTEX
  5
6BD
100
AcDbEntity
  8
OBJECT
100
AcDbVertex
100
AcDb2dVertex
 10
-1044.4812999999995
 20
442.42299999999977
 30
0.0
  0
VERTEX
  5
6BE
100
AcDbEntity
  8
OBJECT
100
AcDbVertex
100
AcDb2dVertex
 10
-1044.5214999999998
 20
442.50600000000031
 30
0.0
  0
VERTEX
  5
6BF
100
AcDbEntity
  8
OBJECT
100
AcDbVertex
100
AcDb2dVertex
 10
-1044.5609999999997
 20
442.58899999999994
 30
0.0
  0
VERTEX
  5
6C0
100
AcDbEntity
  8
OBJECT
100
AcDbVertex
100
AcDb2dVertex
 10
-1044.5999000000002
 20
442.67199999999957
 30
0.0
  0
VERTEX
  5
6C1
100
AcDbEntity
  8
OBJECT
100
AcDbVertex
100
AcDb2dVertex
 10
-1044.6386000000002
 20
442.75569999999971
 30
0.0
  0
VERTEX
  5
6C2
100
AcDbEntity
  8
OBJECT
100
AcDbVertex
100
AcDb2dVertex
 10
-1044.6768000000002
 20
442.84000000000015
 30
0.0
  0
VERTEX
  5
6C3
100
AcDbEntity
  8
OBJECT
100
AcDbVertex
100
AcDb2dVertex
 10
-1044.7142000000003
 20
442.92349999999988
 30
0.0
  0
VERTEX
  5
6C4
100
AcDbEntity
  8
OBJECT
100
AcDbVertex
100
AcDb2dVertex
 10
-1044.7511999999997
 20
443.00770000000011
 30
0.0
  0
VERTEX
  5
6C5
100
AcDbEntity
  8
OBJECT
100
AcDbVertex
100
AcDb2dVertex
 10
-1044.7876999999999
 20
443.09230000000025
 30
0.0
  0
VERTEX
  5
6C6
100
AcDbEntity
  8
OBJECT
100
AcDbVertex
100
AcDb2dVertex
 10
-1044.8238000000001
 20
443.17720000000008
 30
0.0
  0
VERTEX
  5
6C7
100
AcDbEntity
  8
OBJECT
100
AcDbVertex
100
AcDb2dVertex
 10
-1044.8593999999994
 20
443.26239999999962
 30
0.0
  0
VERTEX
  5
6C8
100
AcDbEntity
  8
OBJECT
100
AcDbVertex
100
AcDb2dVertex
 10
-1044.8942999999999
 20
443.34739999999965
 30
0.0
  0
VERTEX
  5
6C9
100
AcDbEntity
  8
OBJECT
100
AcDbVertex
100
AcDb2dVertex
 10
-1044.9287000000004
 20
443.43279999999959
 30
0.0
  0
VERTEX
  5
6CA
100
AcDbEntity
  8
OBJECT
100
AcDbVertex
100
AcDb2dVertex
 10
-1044.9624000000003
 20
443.51810000000023
 30
0.0
  0
VERTEX
  5
6CB
100
AcDbEntity
  8
OBJECT
100
AcDbVertex
100
AcDb2dVertex
 10
-1044.9957999999997
 20
443.60369999999966
 30
0.0
  0
VERTEX
  5
6CC
100
AcDbEntity
  8
OBJECT
100
AcDbVertex
100
AcDb2dVertex
 10
-1045.0288
 20
443.6899999999996
 30
0.0
  0
VERTEX
  5
6CD
100
AcDbEntity
  8
OBJECT
100
AcDbVertex
100
AcDb2dVertex
 10
-1045.0612000000001
 20
443.77649999999994
 30
0.0
  0
VERTEX
  5
6CE
100
AcDbEntity
  8
OBJECT
100
AcDbVertex
100
AcDb2dVertex
 10
-1045.0929999999998
 20
443.86290000000008
 30
0.0
  0
VERTEX
  5
6CF
100
AcDbEntity
  8
OBJECT
100
AcDbVertex
100
AcDb2dVertex
 10
-1045.1241
 20
443.94920000000002
 30
0.0
  0
VERTEX
  5
6D0
100
AcDbEntity
  8
OBJECT
100
AcDbVertex
100
AcDb2dVertex
 10
-1045.1548000000003
 20
444.03579999999965
 30
0.0
  0
VERTEX
  5
6D1
100
AcDbEntity
  8
OBJECT
100
AcDbVertex
100
AcDb2dVertex
 10
-1045.1849999999995
 20
444.1228000000001
 30
0.0
  0
VERTEX
  5
6D2
100
AcDbEntity
  8
OBJECT
100
AcDbVertex
100
AcDb2dVertex
 10
-1045.2147000000004
 20
444.21000000000004
 30
0.0
  0
VERTEX
  5
6D3
100
AcDbEntity
  8
OBJECT
100
AcDbVertex
100
AcDb2dVertex
 10
-1045.2438000000002
 20
444.29739999999947
 30
0.0
  0
VERTEX
  5
6D4
100
AcDbEntity
  8
OBJECT
100
AcDbVertex
100
AcDb2dVertex
 10
-1045.2725
 20
444.38509999999951
 30
0.0
  0
VERTEX
  5
6D5
100
AcDbEntity
  8
OBJECT
100
AcDbVertex
100
AcDb2dVertex
 10
-1045.3004999999994
 20
444.47249999999985
 30
0.0
  0
VERTEX
  5
6D6
100
AcDbEntity
  8
OBJECT
100
AcDbVertex
100
AcDb2dVertex
 10
-1045.3279000000002
 20
444.5601999999999
 30
0.0
  0
VERTEX
  5
6D7
100
AcDbEntity
  8
OBJECT
100
AcDbVertex
100
AcDb2dVertex
 10
-1045.3550999999998
 20
444.64869999999974
 30
0.0
  0
VERTEX
  5
6D8
100
AcDbEntity
  8
OBJECT
100
AcDbVertex
100
AcDb2dVertex
 10
-1045.3814999999995
 20
444.73700000000008
 30
0.0
  0
VERTEX
  5
6D9
100
AcDbEntity
  8
OBJECT
100
AcDbVertex
100
AcDb2dVertex
 10
-1045.4072999999999
 20
444.82489999999962
 30
0.0
  0
VERTEX
  5
6DA
100
AcDbEntity
  8
OBJECT
100
AcDbVertex
100
AcDb2dVertex
 10
-1045.4326000000001
 20
444.91309999999976
 30
0.0
  0
VERTEX
  5
6DB
100
AcDbEntity
  8
OBJECT
100
AcDbVertex
100
AcDb2dVertex
 10
-1045.4573999999993
 20
445.00190000000021
 30
0.0
  0
VERTEX
  5
6DC
100
AcDbEntity
  8
OBJECT
100
AcDbVertex
100
AcDb2dVertex
 10
-1045.4817000000003
 20
445.09079999999994
 30
0.0
  0
VERTEX
  5
6DD
100
AcDbEntity
  8
OBJECT
100
AcDbVertex
100
AcDb2dVertex
 10
-1045.5055000000002
 20
445.18000000000029
 30
0.0
  0
VERTEX
  5
6DE
100
AcDbEntity
  8
OBJECT
100
AcDbVertex
100
AcDb2dVertex
 10
-1045.5286999999998
 20
445.26909999999953
 30
0.0
  0
VERTEX
  5
6DF
100
AcDbEntity
  8
OBJECT
100
AcDbVertex
100
AcDb2dVertex
 10
-1045.5513000000001
 20
445.35829999999987
 30
0.0
  0
VERTEX
  5
6E0
100
AcDbEntity
  8
OBJECT
100
AcDbVertex
100
AcDb2dVertex
 10
-1045.5731999999998
 20
445.44729999999981
 30
0.0
  0
VERTEX
  5
6E1
100
AcDbEntity
  8
OBJECT
100
AcDbVertex
100
AcDb2dVertex
 10
-1045.5947999999999
 20
445.53690000000006
 30
0.0
  0
VERTEX
  5
6E2
100
AcDbEntity
  8
OBJECT
100
AcDbVertex
100
AcDb2dVertex
 10
-1045.6158999999998
 20
445.62690000000021
 30
0.0
  0
VERTEX
  5
6E3
100
AcDbEntity
  8
OBJECT
100
AcDbVertex
100
AcDb2dVertex
 10
-1045.6361999999999
 20
445.71619999999984
 30
0.0
  0
VERTEX
  5
6E4
100
AcDbEntity
  8
OBJECT
100
AcDbVertex
100
AcDb2dVertex
 10
-1045.6561000000002
 20
445.80619999999999
 30
0.0
  0
VERTEX
  5
6E5
100
AcDbEntity
  8
OBJECT
100
AcDbVertex
100
AcDb2dVertex
 10
-1045.6754999999994
 20
445.89649999999983
 30
0.0
  0
VERTEX
  5
6E6
100
AcDbEntity
  8
OBJECT
100
AcDbVertex
100
AcDb2dVertex
 10
-1045.6941999999999
 20
445.98629999999957
 30
0.0
  0
VERTEX
  5
6E7
100
AcDbEntity
  8
OBJECT
100
AcDbVertex
100
AcDb2dVertex
 10
-1045.7124000000003
 20
446.07639999999992
 30
0.0
  0
VERTEX
  5
6E8
100
AcDbEntity
  8
OBJECT
100
AcDbVertex
100
AcDb2dVertex
 10
-1045.7300999999998
 20
446.16699999999946
 30
0.0
  0
VERTEX
  5
6E9
100
AcDbEntity
  8
OBJECT
100
AcDbVertex
100
AcDb2dVertex
 10
-1045.7471999999998
 20
446.25740000000042
 30
0.0
  0
VERTEX
  5
6EA
100
AcDbEntity
  8
OBJECT
100
AcDbVertex
100
AcDb2dVertex
 10
-1045.7637999999997
 20
446.34799999999996
 30
0.0
  0
VERTEX
  5
6EB
100
AcDbEntity
  8
OBJECT
100
AcDbVertex
100
AcDb2dVertex
 10
-1045.7797
 20
446.4385000000002
 30
0.0
  0
VERTEX
  5
6EC
100
AcDbEntity
  8
OBJECT
100
AcDbVertex
100
AcDb2dVertex
 10
-1045.7951999999996
 20
446.52939999999944
 30
0.0
  0
VERTEX
  5
6ED
100
AcDbEntity
  8
OBJECT
100
AcDbVertex
100
AcDb2dVertex
 10
-1045.8100999999997
 20
446.62060000000019
 30
0.0
  0
VERTEX
  5
6EE
100
AcDbEntity
  8
OBJECT
100
AcDbVertex
100
AcDb2dVertex
 10
-1045.8243999999995
 20
446.71110000000044
 30
0.0
  0
VERTEX
  5
6EF
100
AcDbEntity
  8
OBJECT
100
AcDbVertex
100
AcDb2dVertex
 10
-1045.8380999999999
 20
446.80199999999968
 30
0.0
  0
VERTEX
  5
6F0
100
AcDbEntity
  8
OBJECT
100
AcDbVertex
100
AcDb2dVertex
 10
-1045.8513999999996
 20
446.89320000000043
 30
0.0
  0
VERTEX
  5
6F1
100
AcDbEntity
  8
OBJECT
100
AcDbVertex
100
AcDb2dVertex
 10
-1045.8639999999996
 20
446.98449999999957
 30
0.0
  0
VERTEX
  5
6F2
100
AcDbEntity
  8
OBJECT
100
AcDbVertex
100
AcDb2dVertex
 10
-1045.8760999999995
 20
447.07570000000032
 30
0.0
  0
VERTEX
  5
6F3
100
AcDbEntity
  8
OBJECT
100
AcDbVertex
100
AcDb2dVertex
 10
-1045.8877000000002
 20
447.16709999999966
 30
0.0
  0
VERTEX
  5
6F4
100
AcDbEntity
  8
OBJECT
100
AcDbVertex
100
AcDb2dVertex
 10
-1045.8986000000004
 20
447.25860000000011
 30
0.0
  0
VERTEX
  5
6F5
100
AcDbEntity
  8
OBJECT
100
AcDbVertex
100
AcDb2dVertex
 10
-1045.9089999999997
 20
447.34969999999976
 30
0.0
  0
VERTEX
  5
6F6
100
AcDbEntity
  8
OBJECT
100
AcDbVertex
100
AcDb2dVertex
 10
-1045.9187999999995
 20
447.44130000000041
 30
0.0
  0
VERTEX
  5
6F7
100
AcDbEntity
  8
OBJECT
100
AcDbVertex
100
AcDb2dVertex
 10
-1045.9281000000001
 20
447.53299999999945
 30
0.0
  0
VERTEX
  5
6F8
100
AcDbEntity
  8
OBJECT
100
AcDbVertex
100
AcDb2dVertex
 10
-1045.9368999999997
 20
447.6247999999996
 30
0.0
  0
VERTEX
  5
6F9
100
AcDbEntity
  8
OBJECT
100
AcDbVertex
100
AcDb2dVertex
 10
-1045.9449999999997
 20
447.71630000000005
 30
0.0
  0
VERTEX
  5
6FA
100
AcDbEntity
  8
OBJECT
100
AcDbVertex
100
AcDb2dVertex
 10
-1045.9525999999996
 20
447.80799999999999
 30
0.0
  0
VERTEX
  5
6FB
100
AcDbEntity
  8
OBJECT
100
AcDbVertex
100
AcDb2dVertex
 10
-1045.9596000000001
 20
447.89969999999994
 30
0.0
  0
VERTEX
  5
6FC
100
AcDbEntity
  8
OBJECT
100
AcDbVertex
100
AcDb2dVertex
 10
-1045.9660999999996
 20
447.99189999999999
 30
0.0
  0
VERTEX
  5
6FD
100
AcDbEntity
  8
OBJECT
100
AcDbVertex
100
AcDb2dVertex
 10
-1045.9719999999998
 20
448.08380000000034
 30
0.0
  0
VERTEX
  5
6FE
100
AcDbEntity
  8
OBJECT
100
AcDbVertex
100
AcDb2dVertex
 10
-1045.9773999999998
 20
448.17519999999968
 30
0.0
  0
VERTEX
  5
6FF
100
AcDbEntity
  8
OBJECT
100
AcDbVertex
100
AcDb2dVertex
 10
-1045.9822000000004
 20
448.26749999999993
 30
0.0
  0
VERTEX
  5
700
100
AcDbEntity
  8
OBJECT
100
AcDbVertex
100
AcDb2dVertex
 10
-1045.9863999999998
 20
448.35930000000008
 30
0.0
  0
VERTEX
  5
701
100
AcDbEntity
  8
OBJECT
100
AcDbVertex
100
AcDb2dVertex
 10
-1045.9899999999998
 20
448.45110000000022
 30
0.0
  0
VERTEX
  5
702
100
AcDbEntity
  8
OBJECT
100
AcDbVertex
100
AcDb2dVertex
 10
-1045.9930999999997
 20
448.54320000000007
 30
0.0
  0
VERTEX
  5
703
100
AcDbEntity
  8
OBJECT
100
AcDbVertex
100
AcDb2dVertex
 10
-1045.9956000000002
 20
448.63519999999971
 30
0.0
  0
VERTEX
  5
704
100
AcDbEntity
  8
OBJECT
100
AcDbVertex
100
AcDb2dVertex
 10
-1045.9975999999997
 20
448.72739999999976
 30
0.0
  0
VERTEX
  5
705
100
AcDbEntity
  8
OBJECT
100
AcDbVertex
100
AcDb2dVertex
 10
-1045.9989999999998
 20
448.81930000000011
 30
0.0
  0
VERTEX
  5
706
100
AcDbEntity
  8
OBJECT
100
AcDbVertex
100
AcDb2dVertex
 10
-1045.9997999999996
 20
448.91129999999976
 30
0.0
  0
VERTEX
  5
707
100
AcDbEntity
  8
OBJECT
100
AcDbVertex
100
AcDb2dVertex
 10
-1046.0
 20
448.99279999999999
 30
0.0
  0
VERTEX
  5
708
100
AcDbEntity
  8
OBJECT
100
AcDbVertex
100
AcDb2dVertex
 10
-1046.0
 20
600.0
 30
0.0
  0
SEQEND
  5
709
100
AcDbEntity
  8
OBJECT
  0
LINE
  5
70A
100
AcDbEntity
  8
OBJECT
100
AcDbLine
 10
-878.5
 20
597.5
 30
0.0
 11
-878.5
 21
439.0
 31
0.0
  0
LINE
  5
70B
100
AcDbEntity
  8
OBJECT
100
AcDbLine
 10
-878.5
 20
761.0
 30
0.0
 11
-878.5
 21
602.5
 31
0.0
  0
LINE
  5
70C
100
AcDbEntity
  8
OBJECT
100
AcDbLine
 10
-883.5
 20
597.5
 30
0.0
 11
-883.5
 21
439.0
 31
0.0
  0
LINE
  5
70D
100
AcDbEntity
  8
OBJECT
100
AcDbLine
 10
-883.5
 20
761.0
 30
0.0
 11
-883.5
 21
602.5
 31
0.0
  0
LINE
  5
70E
100
AcDbEntity
  8
OBJECT
100
AcDbLine
 10
-716.5
 20
597.5
 30
0.0
 11
-716.5
 21
439.0
 31
0.0
  0
LINE
  5
70F
100
AcDbEntity
  8
OBJECT
100
AcDbLine
 10
-716.5
 20
761.0
 30
0.0
 11
-716.5
 21
602.5
 31
0.0
  0
LINE
  5
710
100
AcDbEntity
  8
OBJECT
100
AcDbLine
 10
-721.5
 20
597.5
 30
0.0
 11
-721.5
 21
439.0
 31
0.0
  0
LINE
  5
711
100
AcDbEntity
  8
OBJECT
100
AcDbLine
 10
-721.5
 20
761.0
 30
0.0
 11
-721.5
 21
602.5
 31
0.0
  0
LINE
  5
712
100
AcDbEntity
  8
OBJECT
100
AcDbLine
 10
-1041.0
 20
602.5
 30
0.0
 11
-559.0
 21
602.5
 31
0.0
  0
LINE
  5
713
100
AcDbEntity
  8
OBJECT
100
AcDbLine
 10
-1041.0
 20
597.5
 30
0.0
 11
-559.0
 21
597.5
 31
0.0
  0
ARC
  5
714
100
AcDbEntity
  8
OBJECT
100
AcDbCircle
 10
-982.0
 20
436.5
 30
0.0
 40
2.5
100
AcDbArc
 50
90.0
 51
270.0
  0
ARC
  5
715
100
AcDbEntity
  8
OBJECT
100
AcDbCircle
 10
-942.0
 20
436.5
 30
0.0
 40
2.5
100
AcDbArc
 50
270.0
 51
90.0
  0
ARC
  5
716
100
AcDbEntity
  8
OBJECT
100
AcDbCircle
 10
-780.0
 20
436.5
 30
0.0
 40
2.5
100
AcDbArc
 50
270.0
 51
90.0
  0
ARC
  5
717
100
AcDbEntity
  8
OBJECT
100
AcDbCircle
 10
-820.0
 20
436.5
 30
0.0
 40
2.5
100
AcDbArc
 50
90.0
 51
270.0
  0
ARC
  5
718
100
AcDbEntity
  8
OBJECT
100
AcDbCircle
 10
-658.0
 20
436.5
 30
0.0
 40
2.5
100
AcDbArc
 50
90.0
 51
270.0
  0
ARC
  5
719
100
AcDbEntity
  8
OBJECT
100
AcDbCircle
 10
-618.0
 20
436.5
 30
0.0
 40
2.5
100
AcDbArc
 50
270.0
 51
90.0
  0
ARC
  5
71A
100
AcDbEntity
  8
OBJECT
100
AcDbCircle
 10
-982.0
 20
763.5
 30
0.0
 40
2.5
100
AcDbArc
 50
90.0
 51
270.0
  0
ARC
  5
71B
100
AcDbEntity
  8
OBJECT
100
AcDbCircle
 10
-942.0
 20
763.5
 30
0.0
 40
2.5
100
AcDbArc
 50
270.0
 51
90.0
  0
ARC
  5
71C
100
AcDbEntity
  8
OBJECT
100
AcDbCircle
 10
-780.0
 20
763.5
 30
0.0
 40
2.5
100
AcDbArc
 50
270.0
 51
90.0
  0
ARC
  5
71D
100
AcDbEntity
  8
OBJECT
100
AcDbCircle
 10
-820.0
 20
763.5
 30
0.0
 40
2.5
100
AcDbArc
 50
90.0
 51
270.0
  0
ARC
  5
71E
100
AcDbEntity
  8
OBJECT
100
AcDbCircle
 10
-658.0
 20
763.5
 30
0.0
 40
2.5
100
AcDbArc
 50
90.0
 51
270.0
  0
ARC
  5
71F
100
AcDbEntity
  8
OBJECT
100
AcDbCircle
 10
-618.0
 20
763.5
 30
0.0
 40
2.5
100
AcDbArc
 50
270.0
 51
90.0
  0
ARC
  5
720
100
AcDbEntity
  8
OBJECT
100
AcDbCircle
 10
-1043.5
 20
701.0
 30
0.0
 40
2.5
100
AcDbArc
 50
0.0
 51
180.0
  0
ARC
  5
721
100
AcDbEntity
  8
OBJECT
100
AcDbCircle
 10
-1043.5
 20
661.0
 30
0.0
 40
2.5
100
AcDbArc
 50
180.0
 51
0.0
  0
ARC
  5
722
100
AcDbEntity
  8
OBJECT
100
AcDbCircle
 10
-1043.5
 20
499.0
 30
0.0
 40
2.5
100
AcDbArc
 50
180.0
 51
0.0
  0
ARC
  5
723
100
AcDbEntity
  8
OBJECT
100
AcDbCircle
 10
-1043.5
 20
539.0
 30
0.0
 40
2.5
100
AcDbArc
 50
0.0
 51
180.0
  0
ARC
  5
724
100
AcDbEntity
  8
OBJECT
100
AcDbCircle
 10
-556.5
 20
701.0
 30
0.0
 40
2.5
100
AcDbArc
 50
0.0
 51
180.0
  0
ARC
  5
725
100
AcDbEntity
  8
OBJECT
100
AcDbCircle
 10
-556.5
 20
661.0
 30
0.0
 40
2.5
100
AcDbArc
 50
180.0
 51
0.0
  0
ARC
  5
726
100
AcDbEntity
  8
OBJECT
100
AcDbCircle
 10
-556.5
 20
499.0
 30
0.0
 40
2.5
100
AcDbArc
 50
180.0
 51
0.0
  0
ARC
  5
727
100
AcDbEntity
  8
OBJECT
100
AcDbCircle
 10
-556.5
 20
539.0
 30
0.0
 40
2.5
100
AcDbArc
 50
0.0
 51
180.0
  0
ARC
  5
728
100
AcDbEntity
  8
OBJECT
100
AcDbCircle
 10
-982.0
 20
600.0
 30
0.0
 40
2.5
100
AcDbArc
 50
90.0
 51
270.0
  0
ARC
  5
729
100
AcDbEntity
  8
OBJECT
100
AcDbCircle
 10
-942.0
 20
600.0
 30
0.0
 40
2.5
100
AcDbArc
 50
270.0
 51
90.0
  0
ARC
  5
72A
100
AcDbEntity
  8
OBJECT
100
AcDbCircle
 10
-780.0
 20
600.0
 30
0.0
 40
2.5
100
AcDbArc
 50
270.0
 51
90.0
  0
ARC
  5
72B
100
AcDbEntity
  8
OBJECT
100
AcDbCircle
 10
-820.0
 20
600.0
 30
0.0
 40
2.5
100
AcDbArc
 50
90.0
 51
270.0
  0
ARC
  5
72C
100
AcDbEntity
  8
OBJECT
100
AcDbCircle
 10
-658.0
 20
600.0
 30
0.0
 40
2.5
100
AcDbArc
 50
90.0
 51
270.0
  0
ARC
  5
72D
100
AcDbEntity
  8
OBJECT
100
AcDbCircle
 10
-618.0
 20
600.0
 30
0.0
 40
2.5
100
AcDbArc
 50
270.0
 51
90.0
  0
ARC
  5
72E
100
AcDbEntity
  8
OBJECT
100
AcDbCircle
 10
-881.0
 20
539.0
 30
0.0
 40
2.5
100
AcDbArc
 50
0.0
 51
180.0
  0
ARC
  5
72F
100
AcDbEntity
  8
OBJECT
100
AcDbCircle
 10
-881.0
 20
499.0
 30
0.0
 40
2.5
100
AcDbArc
 50
180.0
 51
0.0
  0
ARC
  5
730
100
AcDbEntity
  8
OBJECT
100
AcDbCircle
 10
-881.0
 20
661.0
 30
0.0
 40
2.5
100
AcDbArc
 50
180.0
 51
0.0
  0
ARC
  5
731
100
AcDbEntity
  8
OBJECT
100
AcDbCircle
 10
-881.0
 20
701.0
 30
0.0
 40
2.5
100
AcDbArc
 50
0.0
 51
180.0
  0
ARC
  5
732
100
AcDbEntity
  8
OBJECT
100
AcDbCircle
 10
-719.0
 20
539.0
 30
0.0
 40
2.5
100
AcDbArc
 50
0.0
 51
180.0
  0
ARC
  5
733
100
AcDbEntity
  8
OBJECT
100
AcDbCircle
 10
-719.0
 20
499.0
 30
0.0
 40
2.5
100
AcDbArc
 50
180.0
 51
0.0
  0
ARC
  5
734
100
AcDbEntity
  8
OBJECT
100
AcDbCircle
 10
-719.0
 20
661.0
 30
0.0
 40
2.5
100
AcDbArc
 50
180.0
 51
0.0
  0
ARC
  5
735
100
AcDbEntity
  8
OBJECT
100
AcDbCircle
 10
-719.0
 20
701.0
 30
0.0
 40
2.5
100
AcDbArc
 50
0.0
 51
180.0
  0
LINE
  5
736
100
AcDbEntity
  8
OBJECT
100
AcDbLine
 10
-1019.201
 20
761.0
 30
0.0
 11
-999.20100000000002
 21
761.0
 31
0.0
  0
LINE
  5
737
100
AcDbEntity
  8
OBJECT
100
AcDbLine
 10
-1019.201
 20
757.0
 30
0.0
 11
-999.20100000000002
 21
757.0
 31
0.0
  0
LINE
  5
738
100
AcDbEntity
  8
OBJECT
100
AcDbLine
 10
-1037.0
 20
739.20100000000002
 30
0.0
 11
-1037.0
 21
719.20100000000002
 31
0.0
  0
LINE
  5
739
100
AcDbEntity
  8
OBJECT
100
AcDbLine
 10
-1041.0
 20
739.20100000000002
 30
0.0
 11
-1041.0
 21
719.20100000000002
 31
0.0
  0
ARC
  5
73A
100
AcDbEntity
  8
OBJECT
100
AcDbCircle
 10
-1019.201
 20
759.0
 30
0.0
 40
2.0
100
AcDbArc
 50
90.0
 51
270.0
  0
ARC
  5
73B
100
AcDbEntity
  8
OBJECT
100
AcDbCircle
 10
-1039.0
 20
739.20100000000002
 30
0.0
 40
2.0
100
AcDbArc
 50
0.0
 51
180.0
  0
LINE
  5
73C
100
AcDbEntity
  8
OBJECT
100
AcDbLine
 10
-1040.4142000000002
 20
740.61520000000019
 30
0.0
 11
-1020.6152999999995
 21
760.41420000000016
 31
0.0
  0
LINE
  5
73D
100
AcDbEntity
  8
OBJECT
100
AcDbLine
 10
-1037.0
 20
738.37259999999969
 30
0.0
 11
-1018.3725999999997
 21
757.0
 31
0.0
  0
LINE
  5
73E
100
AcDbEntity
  8
OBJECT
100
AcDbLine
 10
-999.20100000000002
 20
757.0
 30
0.0
 11
-999.20100000000002
 21
761.0
 31
0.0
  0
LINE
  5
73F
100
AcDbEntity
  8
OBJECT
100
AcDbLine
 10
-1037.0
 20
719.20100000000002
 30
0.0
 11
-1041.0
 21
719.20100000000002
 31
0.0
  0
LINE
  5
740
100
AcDbEntity
  8
OBJECT
100
AcDbLine
 10
-580.79899999999998
 20
761.0
 30
0.0
 11
-600.79899999999998
 21
761.0
 31
0.0
  0
LINE
  5
741
100
AcDbEntity
  8
OBJECT
100
AcDbLine
 10
-580.79899999999998
 20
757.0
 30
0.0
 11
-600.79899999999998
 21
757.0
 31
0.0
  0
LINE
  5
742
100
AcDbEntity
  8
OBJECT
100
AcDbLine
 10
-563.0
 20
739.20100000000002
 30
0.0
 11
-563.0
 21
719.20100000000002
 31
0.0
  0
LINE
  5
743
100
AcDbEntity
  8
OBJECT
100
AcDbLine
 10
-559.0
 20
739.20100000000002
 30
0.0
 11
-559.0
 21
719.20100000000002
 31
0.0
  0
ARC
  5
744
100
AcDbEntity
  8
OBJECT
100
AcDbCircle
 10
-580.79899999999998
 20
759.0
 30
0.0
 40
2.0
100
AcDbArc
 50
270.0
 51
90.0
  0
ARC
  5
745
100
AcDbEntity
  8
OBJECT
100
AcDbCircle
 10
-561.0
 20
739.20100000000002
 30
0.0
 40
2.0
100
AcDbArc
 50
0.0
 51
180.0
  0
LINE
  5
746
100
AcDbEntity
  8
OBJECT
100
AcDbLine
 10
-559.58579999999984
 20
740.61520000000019
 30
0.0
 11
-579.38479999999981
 21
760.41420000000016
 31
0.0
  0
LINE
  5
747
100
AcDbEntity
  8
OBJECT
100
AcDbLine
 10
-563.0
 20
738.37259999999969
 30
0.0
 11
-581.62740000000031
 21
757.0
 31
0.0
  0
LINE
  5
748
100
AcDbEntity
  8
OBJECT
100
AcDbLine
 10
-600.79899999999998
 20
757.0
 30
0.0
 11
-600.79899999999998
 21
761.0
 31
0.0
  0
LINE
  5
749
100
AcDbEntity
  8
OBJECT
100
AcDbLine
 10
-563.0
 20
719.20100000000002
 30
0.0
 11
-559.0
 21
719.20100000000002
 31
0.0
  0
LINE
  5
74A
100
AcDbEntity
  8
OBJECT
100
AcDbLine
 10
-1019.201
 20
439.0
 30
0.0
 11
-999.20100000000002
 21
439.0
 31
0.0
  0
LINE
  5
74B
100
AcDbEntity
  8
OBJECT
100
AcDbLine
 10
-1019.201
 20
443.0
 30
0.0
 11
-999.20100000000002
 21
443.0
 31
0.0
  0
LINE
  5
74C
100
AcDbEntity
  8
OBJECT
100
AcDbLine
 10
-1037.0
 20
460.79889999999978
 30
0.0
 11
-1037.0
 21
480.79889999999978
 31
0.0
  0
LINE
  5
74D
100
AcDbEntity
  8
OBJECT
100
AcDbLine
 10
-1041.0
 20
460.79889999999978
 30
0.0
 11
-1041.0
 21
480.79889999999978
 31
0.0
  0
ARC
  5
74E
100
AcDbEntity
  8
OBJECT
100
AcDbCircle
 10
-1019.201
 20
441.0
 30
0.0
 40
2.0
100
AcDbArc
 50
90.0
 51
270.0
  0
ARC
  5
74F
100
AcDbEntity
  8
OBJECT
100
AcDbCircle
 10
-1039.0
 20
460.79889999999978
 30
0.0
 40
2.0
100
AcDbArc
 50
180.0
 51
0.0028647889826345
  0
LINE
  5
750
100
AcDbEntity
  8
OBJECT
100
AcDbLine
 10
-1040.4142000000002
 20
459.38469999999961
 30
0.0
 11
-1020.6152999999995
 21
439.58579999999984
 31
0.0
  0
LINE
  5
751
100
AcDbEntity
  8
OBJECT
100
AcDbLine
 10
-1037.0
 20
461.62740000000031
 30
0.0
 11
-1018.3725999999997
 21
443.0
 31
0.0
  0
LINE
  5
752
100
AcDbEntity
  8
OBJECT
100
AcDbLine
 10
-999.20100000000002
 20
443.0
 30
0.0
 11
-999.20100000000002
 21
439.0
 31
0.0
  0
LINE
  5
753
100
AcDbEntity
  8
OBJECT
100
AcDbLine
 10
-1037.0
 20
480.79889999999978
 30
0.0
 11
-1041.0
 21
480.79889999999978
 31
0.0
  0
LINE
  5
754
100
AcDbEntity
  8
OBJECT
100
AcDbLine
 10
-580.79899999999998
 20
439.0
 30
0.0
 11
-600.79899999999998
 21
439.0
 31
0.0
  0
LINE
  5
755
100
AcDbEntity
  8
OBJECT
100
AcDbLine
 10
-580.79899999999998
 20
443.0
 30
0.0
 11
-600.79899999999998
 21
443.0
 31
0.0
  0
LINE
  5
756
100
AcDbEntity
  8
OBJECT
100
AcDbLine
 10
-563.0
 20
460.79889999999978
 30
0.0
 11
-563.0
 21
480.79889999999978
 31
0.0
  0
LINE
  5
757
100
AcDbEntity
  8
OBJECT
100
AcDbLine
 10
-559.0
 20
460.79889999999978
 30
0.0
 11
-559.0
 21
480.79889999999978
 31
0.0
  0
ARC
  5
758
100
AcDbEntity
  8
OBJECT
100
AcDbCircle
 10
-580.79899999999998
 20
441.0
 30
0.0
 40
2.0
100
AcDbArc
 50
270.0
 51
90.0
  0
ARC
  5
759
100
AcDbEntity
  8
OBJECT
100
AcDbCircle
 10
-561.0
 20
460.79889999999978
 30
0.0
 40
2.0
100
AcDbArc
 50
180.0
 51
0.0028647889826345
  0
LINE
  5
75A
100
AcDbEntity
  8
OBJECT
100
AcDbLine
 10
-559.58579999999984
 20
459.38469999999961
 30
0.0
 11
-579.38479999999981
 21
439.58579999999984
 31
0.0
  0
LINE
  5
75B
100
AcDbEntity
  8
OBJECT
100
AcDbLine
 10
-563.0
 20
461.62740000000031
 30
0.0
 11
-581.62740000000031
 21
443.0
 31
0.0
  0
LINE
  5
75C
100
AcDbEntity
  8
OBJECT
100
AcDbLine
 10
-600.79899999999998
 20
443.0
 30
0.0
 11
-600.79899999999998
 21
439.0
 31
0.0
  0
LINE
  5
75D
100
AcDbEntity
  8
OBJECT
100
AcDbLine
 10
-563.0
 20
480.79889999999978
 30
0.0
 11
-559.0
 21
480.79889999999978
 31
0.0
  0
LINE
  5
75E
100
AcDbEntity
  8
OBJECT
100
AcDbLine
 10
-558.0
 20
762.0
 30
0.0
 11
-558.00910000000022
 21
761.20780000000013
 31
0.0
  0
LINE
  5
75F
100
AcDbEntity
  8
OBJECT
100
AcDbLine
 10
-556.0
 20
762.0
 30
0.0
 11
-558.0
 21
762.0
 31
0.0
  0
LINE
  5
760
100
AcDbEntity
  8
OBJECT
100
AcDbLine
 10
-556.0
 20
758.48319999999967
 30
0.0
 11
-556.0
 21
762.0
 31
0.0
  0
LINE
  5
761
100
AcDbEntity
  8
OBJECT
100
AcDbLine
 10
-558.0
 20
438.0
 30
0.0
 11
-558.0
 21
438.80199999999968
 31
0.0
  0
LINE
  5
762
100
AcDbEntity
  8
OBJECT
100
AcDbLine
 10
-556.0
 20
438.0
 30
0.0
 11
-558.0
 21
438.0
 31
0.0
  0
LINE
  5
763
100
AcDbEntity
  8
OBJECT
100
AcDbLine
 10
-556.0
 20
441.51670000000013
 30
0.0
 11
-556.0
 21
438.0
 31
0.0
  0
LINE
  5
764
100
AcDbEntity
  8
OBJECT
100
AcDbLine
 10
-557.0
 20
438.0
 30
0.0
 11
-558.79619999999977
 21
438.0
 31
0.0
  0
LINE
  5
765
100
AcDbEntity
  8
OBJECT
100
AcDbLine
 10
-1043.0
 20
438.0
 30
0.0
 11
-1041.2101999999995
 21
438.01119999999992
 31
0.0
  0
LINE
  5
766
100
AcDbEntity
  8
OBJECT
100
AcDbLine
 10
-1044.0
 20
438.0
 30
0.0
 11
-1044.0
 21
441.51659999999993
 31
0.0
  0
LINE
  5
767
100
AcDbEntity
  8
OBJECT
100
AcDbLine
 10
-1042.0
 20
438.0
 30
0.0
 11
-1044.0
 21
438.0
 31
0.0
  0
LINE
  5
768
100
AcDbEntity
  8
OBJECT
100
AcDbLine
 10
-1042.0
 20
438.80190000000039
 30
0.0
 11
-1042.0
 21
438.0
 31
0.0
  0
LINE
  5
769
100
AcDbEntity
  8
OBJECT
100
AcDbLine
 10
-1044.0
 20
762.0
 30
0.0
 11
-1044.0
 21
758.48459999999977
 31
0.0
  0
LINE
  5
76A
100
AcDbEntity
  8
OBJECT
100
AcDbLine
 10
-1042.0
 20
762.0
 30
0.0
 11
-1044.0
 21
762.0
 31
0.0
  0
LINE
  5
76B
100
AcDbEntity
  8
OBJECT
100
AcDbLine
 10
-1042.0
 20
761.19809999999961
 30
0.0
 11
-1042.0
 21
762.0
 31
0.0
  0
LINE
  5
76C
100
AcDbEntity
  8
OBJECT
100
AcDbLine
 10
-1041.1980999999996
 20
762.0
 30
0.0
 11
-1043.0
 21
762.0
 31
0.0
  0
LINE
  5
76D
100
AcDbEntity
  8
OBJECT
100
AcDbLine
 10
-557.0
 20
762.0
 30
0.0
 11
-558.80149999999958
 21
762.0
 31
0.0
  0
MTEXT
  5
76E
100
AcDbEntity
  8
DIMENTION
100
AcDbMText
 10
-350.0
 20
945.0
 30
0.0
 40
33.866666666666667
 41
0.0
 71
               1
 72
               1
  1
パイプ把手
  7
________
  0
LINE
  5
76F
100
AcDbEntity
  8
DIMENTION
100
AcDbLine
 10
-155.0
 20
900.0
 30
0.0
 11
-350.0
 21
900.0
 31
0.0
  0
LINE
  5
770
100
AcDbEntity
  8
DIMENTION
100
AcDbLine
 10
-350.0
 20
900.0
 30
0.0
 11
-507.5
 21
700.0
 31
0.0
  0
LINE
  5
771
100
AcDbEntity
  8
DIMENTION
100
AcDbLine
 10
-507.5
 20
700.0
 30
0.0
 11
-494.13055892472642
 21
730.02825630160999
 31
0.0
  0
LINE
  5
772
100
AcDbEntity
  8
DIMENTION
100
AcDbLine
 10
-507.5
 20
700.0
 30
0.0
 11
-480.90759624360891
 21
719.32051225090765
 31
0.0
  0
POLYLINE
  5
773
100
AcDbEntity
  8
OBJECT
100
AcDb2dPolyline
 66
               1
 10
0.0
 20
0.0
 30
0.0
 70
               1
 75
               5
  0
VERTEX
  5
774
100
AcDbEntity
  8
OBJECT
100
AcDbVertex
100
AcDb2dVertex
 10
-547.0
 20
783.0
 30
0.0
  0
VERTEX
  5
775
100
AcDbEntity
  8
OBJECT
100
AcDbVertex
100
AcDb2dVertex
 10
-506.0
 20
783.0
 30
0.0
  0
VERTEX
  5
776
100
AcDbEntity
  8
OBJECT
100
AcDbVertex
100
AcDb2dVertex
 10
-506.0
 20
763.0
 30
0.0
  0
VERTEX
  5
777
100
AcDbEntity
  8
OBJECT
100
AcDbVertex
100
AcDb2dVertex
 10
-547.0
 20
763.0
 30
0.0
  0
SEQEND
  5
778
100
AcDbEntity
  8
OBJECT
  0
POLYLINE
  5
779
100
AcDbEntity
  8
OBJECT
100
AcDb2dPolyline
 66
               1
 10
0.0
 20
0.0
 30
0.0
 70
               1
 75
               5
  0
VERTEX
  5
77A
100
AcDbEntity
  8
OBJECT
100
AcDbVertex
100
AcDb2dVertex
 10
-547.0
 20
437.0
 30
0.0
  0
VERTEX
  5
77B
100
AcDbEntity
  8
OBJECT
100
AcDbVertex
100
AcDb2dVertex
 10
-506.0
 20
437.0
 30
0.0
  0
VERTEX
  5
77C
100
AcDbEntity
  8
OBJECT
100
AcDbVertex
100
AcDb2dVertex
 10
-506.0
 20
417.0
 30
0.0
  0
VERTEX
  5
77D
100
AcDbEntity
  8
OBJECT
100
AcDbVertex
100
AcDb2dVertex
 10
-547.0
 20
417.0
 30
0.0
  0
SEQEND
  5
77E
100
AcDbEntity
  8
OBJECT
  0
LINE
  5
77F
100
AcDbEntity
  8
OBJECT
100
AcDbLine
 10
-507.5
 20
763.0
 30
0.0
 11
-507.5
 21
437.0
 31
0.0
  0
LINE
  5
780
100
AcDbEntity
  8
OBJECT
100
AcDbLine
 10
-526.5
 20
763.0
 30
0.0
 11
-526.5
 21
437.0
 31
0.0
  0
POLYLINE
  5
781
100
AcDbEntity
  8
OBJECT
100
AcDb2dPolyline
 66
               1
 10
0.0
 20
0.0
 30
0.0
 70
               1
 75
               5
  0
VERTEX
  5
782
100
AcDbEntity
  8
OBJECT
100
AcDbVertex
100
AcDb2dVertex
 10
-557.0
 20
783.0
 30
0.0
  0
VERTEX
  5
783
100
AcDbEntity
  8
OBJECT
100
AcDbVertex
100
AcDb2dVertex
 10
-547.0
 20
783.0
 30
0.0
  0
VERTEX
  5
784
100
AcDbEntity
  8
OBJECT
100
AcDbVertex
100
AcDb2dVertex
 10
-547.0
 20
763.0
 30
0.0
  0
VERTEX
  5
785
100
AcDbEntity
  8
OBJECT
100
AcDbVertex
100
AcDb2dVertex
 10
-557.0
 20
763.0
 30
0.0
  0
SEQEND
  5
786
100
AcDbEntity
  8
OBJECT
  0
POLYLINE
  5
787
100
AcDbEntity
  8
OBJECT
100
AcDb2dPolyline
 66
               1
 10
0.0
 20
0.0
 30
0.0
 70
               1
 75
               5
  0
VERTEX
  5
788
100
AcDbEntity
  8
OBJECT
100
AcDbVertex
100
AcDb2dVertex
 10
-557.0
 20
437.0
 30
0.0
  0
VERTEX
  5
789
100
AcDbEntity
  8
OBJECT
100
AcDbVertex
100
AcDb2dVertex
 10
-547.0
 20
437.0
 30
0.0
  0
VERTEX
  5
78A
100
AcDbEntity
  8
OBJECT
100
AcDbVertex
100
AcDb2dVertex
 10
-547.0
 20
417.0
 30
0.0
  0
VERTEX
  5
78B
100
AcDbEntity
  8
OBJECT
100
AcDbVertex
100
AcDb2dVertex
 10
-557.0
 20
417.0
 30
0.0
  0
SEQEND
  5
78C
100
AcDbEntity
  8
OBJECT
  0
POLYLINE
  5
78D
100
AcDbEntity
  8
OBJECT
100
AcDb2dPolyline
 66
               1
 10
0.0
 20
0.0
 30
0.0
 70
               1
 75
               5
  0
VERTEX
  5
78E
100
AcDbEntity
  8
OBJECT
100
AcDbVertex
100
AcDb2dVertex
 10
-557.0
 20
-71.5
 30
0.0
  0
VERTEX
  5
78F
100
AcDbEntity
  8
OBJECT
100
AcDbVertex
100
AcDb2dVertex
 10
-547.0
 20
-71.5
 30
0.0
  0
VERTEX
  5
790
100
AcDbEntity
  8
OBJECT
100
AcDbVertex
100
AcDb2dVertex
 10
-547.0
 20
-111.5
 30
0.0
  0
VERTEX
  5
791
100
AcDbEntity
  8
OBJECT
100
AcDbVertex
100
AcDb2dVertex
 10
-557.0
 20
-111.5
 30
0.0
  0
SEQEND
  5
792
100
AcDbEntity
  8
OBJECT
  0
POLYLINE
  5
793
100
AcDbEntity
  8
OBJECT
100
AcDb2dPolyline
 66
               1
 10
0.0
 20
0.0
 30
0.0
 75
               5
  0
VERTEX
  5
794
100
AcDbEntity
  8
OBJECT
100
AcDbVertex
100
AcDb2dVertex
 10
-555.0
 20
-71.5
 30
0.0
  0
VERTEX
  5
795
100
AcDbEntity
  8
OBJECT
100
AcDbVertex
100
AcDb2dVertex
 10
-555.0
 20
-69.5
 30
0.0
  0
VERTEX
  5
796
100
AcDbEntity
  8
OBJECT
100
AcDbVertex
100
AcDb2dVertex
 10
-557.0
 20
-69.5
 30
0.0
  0
VERTEX
  5
797
100
AcDbEntity
  8
OBJECT
100
AcDbVertex
100
AcDb2dVertex
 10
-557.0
 20
-99.5
 30
0.0
  0
VERTEX
  5
798
100
AcDbEntity
  8
OBJECT
100
AcDbVertex
100
AcDb2dVertex
 10
-557.0
 20
-99.5
 30
0.0
  0
SEQEND
  5
799
100
AcDbEntity
  8
OBJECT
  0
DIMENSION
  5
79A
100
AcDbEntity
  8
DIMENTION
100
AcDbDimension
  2
*D15
 10
-557.0
 20
900.00000000000011
 30
0.0
 11
-531.5
 21
900.00000000000011
 31
0.0
  3
CAD
100
AcDbAlignedDimension
 13
-506.0
 23
783.0
 33
0.0
 14
-557.0
 24
797.0
 34
0.0
100
AcDbRotatedDimension
1001
ACAD
1000
DSTYLE
1002
{
1070
             340
1005
31
1070
             147
1040
0.9999999999999999
1002
}
  0
DIMENSION
  5
79B
100
AcDbEntity
  8
DIMENTION
100
AcDbDimension
  2
*D16
 10
-1200.0
 20
-69.500100000000202
 30
0.0
 11
-1200.0
 21
-37.000100000000202
 31
0.0
  3
CAD
100
AcDbAlignedDimension
 13
-1043.5
 23
-4.5001000000002058
 33
0.0
 14
-1043.5
 24
-69.500100000000202
 34
0.0
 50
90.0
100
AcDbRotatedDimension
1001
ACAD
1000
DSTYLE
1002
{
1070
             340
1005
31
1070
             147
1040
0.9999999999999999
1002
}
  0
DIMENSION
  5
79C
100
AcDbEntity
  8
DIMENTION
100
AcDbDimension
  2
*D17
 10
-506.0
 20
200.0
 30
0.0
 11
-776.0
 21
200.0
 31
0.0
  3
CAD
100
AcDbAlignedDimension
 13
-1046.0
 23
448.99279999999999
 33
0.0
 14
-506.0
 24
417.0
 34
0.0
100
AcDbRotatedDimension
1001
ACAD
1000
DSTYLE
1002
{
1070
             340
1005
31
1070
             147
1040
0.9999999962747097
1002
}
  0
INSERT
  5
79D
100
AcDbEntity
  8
OBJECT
100
AcDbBlockReference
  2
*U18
 10
0.0
 20
19.999999999999996
 30
0.0
  0
INSERT
  5
79E
100
AcDbEntity
  8
OBJECT
100
AcDbBlockReference
  2
*U19
 10
0.0
 20
19.999999999999996
 30
0.0
  0
POINT
  5
79F
100
AcDbEntity
  8
DIMENTION
  6
CONTINUOUS
100
AcDbPoint
 10
799.99995000000035
 20
-69.5
 30
0.0
  0
LINE
  5
7A0
100
AcDbEntity
  8
DIMENTION
100
AcDbLine
 10
-629.10550180049972
 20
-7.4217656330672419
 30
0.0
 11
-550.0
 21
100.0
 31
0.0
  0
LINE
  5
7A1
100
AcDbEntity
  8
DIMENTION
100
AcDbLine
 10
-629.10550180049972
 20
-7.4217656330672419
 30
0.0
 11
-616.79217605927886
 21
23.054785030860959
 31
0.0
  0
LINE
  5
7A2
100
AcDbEntity
  8
DIMENTION
100
AcDbLine
 10
-629.10550180049972
 20
-7.4217656330672419
 30
0.0
 11
-603.20357357156547
 21
12.815038591007653
 31
0.0
  0
LINE
  5
7A3
100
AcDbEntity
  8
DIMENTION
100
AcDbLine
 10
-550.0
 20
100.0
 30
0.0
 11
-405.0
 21
100.0
 31
0.0
  0
MTEXT
  5
7A4
100
AcDbEntity
  8
DIMENTION
100
AcDbMText
 10
-550.0
 20
145.0
 30
0.0
 40
33.866666666666667
 41
0.0
 71
               1
 72
               1
  1
皿ガイド
  7
________
  0
MTEXT
  5
7A5
100
AcDbEntity
  8
DIMENTION
100
AcDbMText
 10
1300.0
 20
-1100.0
 30
0.0
 40
33.866666666666667
 41
0.0
 71
               1
 72
               1
  1
注）指示なき寸法公差は±5とする
  7
________
  0
ENDSEC
  0
SECTION
  2
OBJECTS
  0
DICTIONARY
  5
19
100
AcDbDictionary
  3
ACAD_GROUP
350
1A
  3
ACAD_MLINESTYLE
350
1B
  0
DICTIONARY
  5
1A
102
{ACAD_REACTORS
330
19
102
}
100
AcDbDictionary
  0
DICTIONARY
  5
1B
102
{ACAD_REACTORS
330
19
102
}
100
AcDbDictionary
  3
STANDARD
350
1C
  0
MLINESTYLE
  5
1C
102
{ACAD_REACTORS
330
1B
102
}
100
AcDbMlineStyle
  2
STANDARD
 70
               0
  3

 62
               0
 51
90.0
 52
90.0
 71
               2
 49
0.5
 62
             256
  6
BYLAYER
 49
-0.5
 62
             256
  6
BYLAYER
  0
ENDSEC
  0
EOF
