  0
SECTION
  2
HEADER
  9
$ACADVER
  1
AC1015
  9
$ACADMAINTVER
 70
               6
  9
$DWGCODEPAGE
  3
ANSI_932
  9
$INSBASE
 10
0.0
 20
0.0
 30
0.0
  9
$EXTMIN
 10
-1025.7534955216515
 20
-636.59312908373511
 30
0.0
  9
$EXTMAX
 10
999.24650447834847
 20
723.40687091626478
 30
0.0
  9
$LIMMIN
 10
0.0
 20
0.0
  9
$LIMMAX
 10
0.0
 20
0.0
  9
$ORTHOMODE
 70
               0
  9
$REGENMODE
 70
               1
  9
$FILLMODE
 70
               1
  9
$QTEXTMODE
 70
               0
  9
$MIRRTEXT
 70
               1
  9
$LTSCALE
 40
127.0
  9
$ATTMODE
 70
               1
  9
$TEXTSIZE
 40
0.2
  9
$TRACEWID
 40
1.0
  9
$TEXTSTYLE
  7
Standard
  9
$CLAYER
  8
0
  9
$CELTYPE
  6
Continuous
  9
$CECOLOR
 62
             256
  9
$CELTSCALE
 40
1.0
  9
$DISPSILH
 70
               0
  9
$DIMSCALE
 40
1.0
  9
$DIMASZ
 40
15.875
  9
$DIMEXO
 40
4.9999999813735476
  9
$DIMDLI
 40
7.9999999938532707
  9
$DIMRND
 40
0.0
  9
$DIMDLE
 40
0.0
  9
$DIMEXE
 40
9.9999999627470952
  9
$DIMTP
 40
0.0
  9
$DIMTM
 40
0.0
  9
$DIMTXT
 40
16.933333333333334
  9
$DIMCEN
 40
0.0
  9
$DIMTSZ
 40
0.0
  9
$DIMTOL
 70
               0
  9
$DIMLIM
 70
               0
  9
$DIMTIH
 70
               0
  9
$DIMTOH
 70
               0
  9
$DIMSE1
 70
               0
  9
$DIMSE2
 70
               0
  9
$DIMTAD
 70
               1
  9
$DIMZIN
 70
              11
  9
$DIMBLK
  1
VW_OPENARROW
  9
$DIMASO
 70
               1
  9
$DIMSHO
 70
               1
  9
$DIMPOST
  1
<>
  9
$DIMAPOST
  1
[]
  9
$DIMALT
 70
               0
  9
$DIMALTD
 70
               1
  9
$DIMALTF
 40
1.0
  9
$DIMLFAC
 40
1.0
  9
$DIMTOFL
 70
               1
  9
$DIMTVP
 40
0.0
  9
$DIMTIX
 70
               1
  9
$DIMSOXD
 70
               0
  9
$DIMSAH
 70
               0
  9
$DIMBLK1
  1

  9
$DIMBLK2
  1

  9
$DIMSTYLE
  2
CAD
  9
$DIMCLRD
 70
               0
  9
$DIMCLRE
 70
               0
  9
$DIMCLRT
 70
               0
  9
$DIMTFAC
 40
0.7
  9
$DIMGAP
 40
0.099999999627471
  9
$DIMJUST
 70
               0
  9
$DIMSD1
 70
               0
  9
$DIMSD2
 70
               0
  9
$DIMTOLJ
 70
               1
  9
$DIMTZIN
 70
              11
  9
$DIMALTZ
 70
              11
  9
$DIMALTTZ
 70
              11
  9
$DIMUPT
 70
               0
  9
$DIMDEC
 70
               4
  9
$DIMTDEC
 70
               4
  9
$DIMALTU
 70
               2
  9
$DIMALTTD
 70
               2
  9
$DIMTXSTY
  7
ＭＳ Ｐゴシック
  9
$DIMAUNIT
 70
               0
  9
$DIMADEC
 70
               0
  9
$DIMALTRND
 40
0.0
  9
$DIMAZIN
 70
               0
  9
$DIMDSEP
 70
              46
  9
$DIMATFIT
 70
               0
  9
$DIMFRAC
 70
               2
  9
$DIMLDRBLK
  1

  9
$DIMLUNIT
 70
               2
  9
$DIMLWD
 70
              -2
  9
$DIMLWE
 70
              -2
  9
$DIMTMOVE
 70
               0
  9
$LUNITS
 70
               2
  9
$LUPREC
 70
               4
  9
$SKETCHINC
 40
0.1
  9
$FILLETRAD
 40
0.0
  9
$AUNITS
 70
               0
  9
$AUPREC
 70
               0
  9
$MENU
  1
acad
  9
$ELEVATION
 40
0.0
  9
$PELEVATION
 40
0.0
  9
$THICKNESS
 40
0.0
  9
$LIMCHECK
 70
               0
  9
$CHAMFERA
 40
0.0
  9
$CHAMFERB
 40
0.0
  9
$CHAMFERC
 40
0.0
  9
$CHAMFERD
 40
0.0
  9
$SKPOLY
 70
               0
  9
$TDCREATE
 40
2458941.591689815
  9
$TDUCREATE
 40
0.000000000
  9
$TDUPDATE
 40
2458941.591689815
  9
$TDUUPDATE
 40
0.000000000
  9
$TDINDWG
 40
0.0000000000
  9
$TDUSRTIMER
 40
0.0000000000
  9
$USRTIMER
 70
               1
  9
$ANGBASE
 50
0.0
  9
$ANGDIR
 70
               0
  9
$PDMODE
 70
               1
  9
$PDSIZE
 40
-2.0
  9
$PLINEWID
 40
0.0
  9
$SPLFRAME
 70
               0
  9
$SPLINETYPE
 70
               6
  9
$SPLINESEGS
 70
               8
  9
$HANDSEED
  5
6DB
  9
$SURFTAB1
 70
               6
  9
$SURFTAB2
 70
               6
  9
$SURFTYPE
 70
               6
  9
$SURFU
 70
               6
  9
$SURFV
 70
               6
  9
$UCSBASE
  2

  9
$UCSNAME
  2

  9
$UCSORG
 10
0.0
 20
0.0
 30
0.0
  9
$UCSXDIR
 10
1.0
 20
0.0
 30
0.0
  9
$UCSYDIR
 10
0.0
 20
1.0
 30
0.0
  9
$UCSORTHOREF
  2

  9
$UCSORTHOVIEW
 70
               0
  9
$UCSORGTOP
 10
0.0
 20
0.0
 30
0.0
  9
$UCSORGBOTTOM
 10
0.0
 20
0.0
 30
0.0
  9
$UCSORGLEFT
 10
0.0
 20
0.0
 30
0.0
  9
$UCSORGRIGHT
 10
0.0
 20
0.0
 30
0.0
  9
$UCSORGFRONT
 10
0.0
 20
0.0
 30
0.0
  9
$UCSORGBACK
 10
0.0
 20
0.0
 30
0.0
  9
$PUCSBASE
  2

  9
$PUCSNAME
  2

  9
$PUCSORG
 10
0.0
 20
0.0
 30
0.0
  9
$PUCSXDIR
 10
1.0
 20
0.0
 30
0.0
  9
$PUCSYDIR
 10
0.0
 20
1.0
 30
0.0
  9
$PUCSORTHOREF
  2

  9
$PUCSORTHOVIEW
 70
               0
  9
$PUCSORGTOP
 10
0.0
 20
0.0
 30
0.0
  9
$PUCSORGBOTTOM
 10
0.0
 20
0.0
 30
0.0
  9
$PUCSORGLEFT
 10
0.0
 20
0.0
 30
0.0
  9
$PUCSORGRIGHT
 10
0.0
 20
0.0
 30
0.0
  9
$PUCSORGFRONT
 10
0.0
 20
0.0
 30
0.0
  9
$PUCSORGBACK
 10
0.0
 20
0.0
 30
0.0
  9
$USERI1
 70
               0
  9
$USERI2
 70
               0
  9
$USERI3
 70
               0
  9
$USERI4
 70
               0
  9
$USERI5
 70
               0
  9
$USERR1
 40
0.0
  9
$USERR2
 40
0.0
  9
$USERR3
 40
0.0
  9
$USERR4
 40
0.0
  9
$USERR5
 40
0.0
  9
$WORLDVIEW
 70
               1
  9
$SHADEDGE
 70
               3
  9
$SHADEDIF
 70
              70
  9
$TILEMODE
 70
               1
  9
$MAXACTVP
 70
              16
  9
$PINSBASE
 10
0.0
 20
0.0
 30
0.0
  9
$PLIMCHECK
 70
               0
  9
$PEXTMIN
 10
1.0000000000000000E+20
 20
1.0000000000000000E+20
 30
1.0000000000000000E+20
  9
$PEXTMAX
 10
-1.0000000000000000E+20
 20
-1.0000000000000000E+20
 30
-1.0000000000000000E+20
  9
$PLIMMIN
 10
0.0
 20
0.0
  9
$PLIMMAX
 10
12.0
 20
9.0
  9
$UNITMODE
 70
               0
  9
$VISRETAIN
 70
               0
  9
$PLINEGEN
 70
               1
  9
$PSLTSCALE
 70
               0
  9
$TREEDEPTH
 70
            3020
  9
$CMLSTYLE
  2
Standard
  9
$CMLJUST
 70
               0
  9
$CMLSCALE
 40
1.0
  9
$PROXYGRAPHICS
 70
               0
  9
$MEASUREMENT
 70
               1
  9
$CELWEIGHT
370
               0
  9
$ENDCAPS
280
               0
  9
$JOINSTYLE
280
               0
  9
$LWDISPLAY
290
               1
  9
$INSUNITS
 70
               4
  9
$HYPERLINKBASE
  1

  9
$STYLESHEET
  1

  9
$XEDIT
290
               1
  9
$CEPSNTYPE
380
               0
  9
$PSTYLEMODE
290
               1
  9
$FINGERPRINTGUID
  2

  9
$VERSIONGUID
  2

  9
$EXTNAMES
290
               1
  9
$PSVPSCALE
 40
0.0
  0
ENDSEC
  0
SECTION
  2
CLASSES
  0
CLASS
  1
LWPOLYLINE
  2
AcDbPolyline
  3
AutoCAD 2000
 90
        0
280
               0
281
               1
  0
CLASS
  1
IMAGE
  2
AcDbRasterImage
  3
ISM
 90
    32895
280
               0
281
               1
  0
CLASS
  1
OLE2FRAME
  2
AcDbOle2Frame
  3
AutoCAD 2000
 90
    32768
280
               0
281
               1
  0
CLASS
  1
HATCH
  2
AcDbHatch
  3
AutoCAD 2000
 90
    32768
280
               0
281
               1
  0
CLASS
  1
DICTIONARYVAR
  2
AcDbDictionaryVar
  3
AutoCAD 2000
 90
    32768
280
               0
281
               0
  0
CLASS
  1
RASTERVARIABLES
  2
AcDbRasterVariables
  3
ISM
 90
    32768
280
               0
281
               0
  0
CLASS
  1
IMAGEDEF
  2
AcDbRasterImageDef
  3
ISM
 90
    32768
280
               0
281
               0
  0
CLASS
  1
IMAGEDEF_REACTOR
  2
AcDbRasterImageDefReactor
  3
ISM
 90
    32769
280
               0
281
               0
  0
CLASS
  1
IDBUFFER
  2
AcDbIdBuffer
  3
AutoCAD 2000
 90
    32768
280
               0
281
               0
  0
CLASS
  1
SPATIAL_FILTER
  2
AcDbSpatialFilter
  3
AutoCAD 2000
 90
    32768
280
               0
281
               0
  0
CLASS
  1
XRECORD
  2
AcDbXrecord
  3
AutoCAD 2000
 90
    32768
280
               0
281
               0
  0
CLASS
  1
SORTENTSTABLE
  2
AcDbSortentsTable
  3
AutoCAD 2000
 90
    32768
280
               0
281
               0
  0
CLASS
  1
LAYER_INDEX
  2
AcDbLayerIndex
  3
AutoCAD 2000
 90
    32768
280
               0
281
               0
  0
CLASS
  1
SPATIAL_INDEX
  2
AcDbSpatialIndex
  3
AutoCAD 2000
 90
    32768
280
               0
281
               0
  0
CLASS
  1
OBJECT_PTR
  2
CAseDLPNTableRecord
  3
"ASE-LPNTableRecord"
 90
    32769
280
               0
281
               0
  0
CLASS
  1
LAYOUT
  2
AcDbLayout
  3
AutoCAD 2000
 90
        0
280
               0
281
               0
  0
CLASS
  1
PLOTSETTINGS
  2
AcDbPlotSettings
  3
AutoCAD 2000
 90
    32768
280
               0
281
               0
  0
CLASS
  1
ACDBDICTIONARYWDFLT
  2
AcDbDictionaryWithDefault
  3
AutoCAD 2000
 90
        0
280
               0
281
               0
  0
CLASS
  1
ACDBPLACEHOLDER
  2
AcDbPlaceHolder
  3
AutoCAD 2000
 90
        0
280
               0
281
               0
  0
ENDSEC
  0
SECTION
  2
TABLES
  0
TABLE
  2
VPORT
  5
7
100
AcDbSymbolTable
 70
               1
  0
VPORT
  5
15
100
AcDbSymbolTableRecord
100
AcDbViewportTableRecord
  2
*ACTIVE
 70
               0
 10
0.0
 20
0.0
 11
1.0
 21
1.0
 12
-13.25349552165153
 22
43.406870916264893
 13
0.0
 23
0.0
 14
1.0
 24
1.0
 15
0.0
 25
0.0
 16
0.0
 26
0.0
 36
1.0
 17
0.0
 27
0.0
 37
0.0
 40
1360.0
 41
0.688564
 42
50.0
 43
0.0
 44
0.0
 50
0.0
 51
0.0
 71
               0
 72
             100
 73
               1
 74
               1
 75
               0
 76
               0
 77
               0
 78
               0
281
               0
 65
               0
110
0.0
120
0.0
130
0.0
111
1.0
121
0.0
131
0.0
112
0.0
122
1.0
132
0.0
345
0
346
0
 79
               0
146
0.0
  0
ENDTAB
  0
TABLE
  2
LTYPE
  5
4
100
AcDbSymbolTable
 70
              14
  0
LTYPE
  5
11
100
AcDbSymbolTableRecord
100
AcDbLinetypeTableRecord
  2
ByBlock
 70
              64
  3

 72
              65
 73
               0
 40
0.0
  0
LTYPE
  5
12
100
AcDbSymbolTableRecord
100
AcDbLinetypeTableRecord
  2
ByLayer
 70
              64
  3

 72
              65
 73
               0
 40
0.0
  0
LTYPE
  5
13
100
AcDbSymbolTableRecord
100
AcDbLinetypeTableRecord
  2
Continuous
 70
              64
  3
Solid line
 72
              65
 73
               0
 40
0.0
  0
LTYPE
  5
3D
100
AcDbSymbolTableRecord
100
AcDbLinetypeTableRecord
  2
STYLE_01
 70
               0
  3

 72
              65
 73
               4
 40
1.4173228346456688
 49
1.1811023622047241
 74
               0
 49
-0.0590551181102361
 74
               0
 49
0.1181102362204725
 74
               0
 49
-0.0590551181102361
 74
               0
  0
LTYPE
  5
3E
100
AcDbSymbolTableRecord
100
AcDbLinetypeTableRecord
  2
STYLE_02
 70
               0
  3

 72
              65
 73
               2
 40
0.2283464566929134
 49
0.1574803149606299
 74
               0
 49
-0.0708661417322835
 74
               0
  0
LTYPE
  5
3F
100
AcDbSymbolTableRecord
100
AcDbLinetypeTableRecord
  2
STYLE_03
 70
               0
  3

 72
              65
 73
               2
 40
0.047244094488189
 49
0.0236220472440945
 74
               0
 49
-0.0236220472440945
 74
               0
  0
LTYPE
  5
40
100
AcDbSymbolTableRecord
100
AcDbLinetypeTableRecord
  2
STYLE_04
 70
               0
  3

 72
              65
 73
               6
 40
1.5157480314960625
 49
1.1811023622047241
 74
               0
 49
-0.0590551181102361
 74
               0
 49
0.078740157480315
 74
               0
 49
-0.0590551181102361
 74
               0
 49
0.078740157480315
 74
               0
 49
-0.0590551181102361
 74
               0
  0
LTYPE
  5
41
100
AcDbSymbolTableRecord
100
AcDbLinetypeTableRecord
  2
STYLE_05
 70
               0
  3

 72
              65
 73
               2
 40
0.041656494140625
 49
0.013885498046875
 74
               0
 49
-0.02777099609375
 74
               0
  0
LTYPE
  5
42
100
AcDbSymbolTableRecord
100
AcDbLinetypeTableRecord
  2
STYLE_06
 70
               0
  3

 72
              65
 73
               4
 40
0.65277099609375
 49
0.0555572509765625
 74
               0
 49
-0.0555572509765625
 74
               0
 49
0.486114501953125
 74
               0
 49
-0.0555419921875
 74
               0
  0
LTYPE
  5
43
100
AcDbSymbolTableRecord
100
AcDbLinetypeTableRecord
  2
STYLE_07
 70
               0
  3

 72
              65
 73
               6
 40
0.375
 49
0.125
 74
               0
 49
-0.041656494140625
 74
               0
 49
0.125
 74
               0
 49
-0.0416717529296875
 74
               0
 49
0.013885498046875
 74
               0
 49
-0.0277862548828125
 74
               0
  0
LTYPE
  5
44
100
AcDbSymbolTableRecord
100
AcDbLinetypeTableRecord
  2
STYLE_08
 70
               0
  3

 72
              65
 73
               6
 40
0.25
 49
0.125
 74
               0
 49
-0.041656494140625
 74
               0
 49
0.013885498046875
 74
               0
 49
-0.0277862548828125
 74
               0
 49
0.013885498046875
 74
               0
 49
-0.0277862548828125
 74
               0
  0
LTYPE
  5
45
100
AcDbSymbolTableRecord
100
AcDbLinetypeTableRecord
  2
STYLE_09
 70
               0
  3

 72
              65
 73
               4
 40
1.0
 49
0.75
 74
               0
 49
-0.0555572509765625
 74
               0
 49
0.138885498046875
 74
               0
 49
-0.0555572509765625
 74
               0
  0
LTYPE
  5
46
100
AcDbSymbolTableRecord
100
AcDbLinetypeTableRecord
  2
STYLE_10
 70
               0
  3

 72
              65
 73
               6
 40
1.1875
 49
0.75
 74
               0
 49
-0.0555572509765625
 74
               0
 49
0.138885498046875
 74
               0
 49
-0.0555572509765625
 74
               0
 49
0.125
 74
               0
 49
-0.0625
 74
               0
  0
LTYPE
  5
47
100
AcDbSymbolTableRecord
100
AcDbLinetypeTableRecord
  2
STYLE_11
 70
               0
  3

 72
              65
 73
               4
 40
1.5
 49
0.0833282470703125
 74
               0
 49
-0.0555572509765625
 74
               0
 49
1.3055572509765625
 74
               0
 49
-0.0555572509765625
 74
               0
  0
ENDTAB
  0
TABLE
  2
LAYER
  5
2
100
AcDbSymbolTable
 70
               9
  0
LAYER
  5
14
100
AcDbSymbolTableRecord
100
AcDbLayerTableRecord
  2
0
 70
               0
 62
               7
  6
Continuous
290
               1
370
              -3
390
1D
  0
LAYER
  5
4F
100
AcDbSymbolTableRecord
100
AcDbLayerTableRecord
  2
Defpoints
 70
               0
 62
               7
  6
Continuous
290
               0
370
              -3
390
1D
  0
LAYER
  5
50
100
AcDbSymbolTableRecord
100
AcDbLayerTableRecord
  2
OBJECT
 70
               0
 62
               7
  6
Continuous
290
               1
370
              30
390
1D
  0
LAYER
  5
51
100
AcDbSymbolTableRecord
100
AcDbLayerTableRecord
  2
DIMENTION
 70
               0
 62
               7
  6
Continuous
290
               1
370
              15
390
1D
  0
LAYER
  5
52
100
AcDbSymbolTableRecord
100
AcDbLayerTableRecord
  2
CENTER
 70
               0
 62
               7
  6
STYLE_09
290
               1
370
              15
390
1D
  0
LAYER
  5
53
100
AcDbSymbolTableRecord
100
AcDbLayerTableRecord
  2
HIDDEN
 70
               0
 62
               7
  6
STYLE_02
290
               1
370
              15
390
1D
  0
LAYER
  5
54
100
AcDbSymbolTableRecord
100
AcDbLayerTableRecord
  2
FRAME
 70
               0
 62
               7
  6
Continuous
290
               1
370
              80
390
1D
  0
LAYER
  5
55
100
AcDbSymbolTableRecord
100
AcDbLayerTableRecord
  2
OUTLINE
 70
               0
 62
               7
  6
STYLE_08
290
               1
370
              15
390
1D
  0
LAYER
  5
56
100
AcDbSymbolTableRecord
100
AcDbLayerTableRecord
  2
TEXT
 70
               0
 62
               7
  6
Continuous
290
               1
370
              15
390
1D
  0
ENDTAB
  0
TABLE
  2
STYLE
  5
3
100
AcDbSymbolTable
 70
               2
  0
STYLE
  5
17
100
AcDbSymbolTableRecord
100
AcDbTextStyleTableRecord
  2
Standard
 70
               0
 40
0.0
 41
1.0
 50
0.0
 71
               0
 42
0.0
  3
txt
  4
BIGFONT.SHX
  0
STYLE
  5
3C
100
AcDbSymbolTableRecord
100
AcDbTextStyleTableRecord
  2
ＭＳ Ｐゴシック
 70
               0
 40
0.0
 41
1.0
 50
0.0
 71
               0
 42
0.0
  3
ＭＳ Ｐゴシック
  4

1001
ACAD
1000
ＭＳ Ｐゴシック
1071
        0
  0
ENDTAB
  0
TABLE
  2
VIEW
  5
5
100
AcDbSymbolTable
 70
               0
  0
ENDTAB
  0
TABLE
  2
UCS
  5
6
100
AcDbSymbolTable
 70
               0
  0
ENDTAB
  0
TABLE
  2
APPID
  5
8
100
AcDbSymbolTable
 70
               1
  0
APPID
  5
16
100
AcDbSymbolTableRecord
100
AcDbRegAppTableRecord
  2
ACAD
 70
               0
  0
ENDTAB
  0
TABLE
  2
DIMSTYLE
  5
9
100
AcDbSymbolTable
 70
               2
100
AcDbDimStyleTable
 71
               0
  0
DIMSTYLE
105
18
100
AcDbSymbolTableRecord
100
AcDbDimStyleTableRecord
  2
Standard
 70
               0
  3

  4

 40
1.0
 41
0.18
 42
0.0625
 43
0.38
 44
0.18
 45
0.0
 46
0.0
 47
0.0
 48
0.0
 71
               0
 72
               0
 73
               1
 74
               1
 75
               0
 76
               0
 77
               0
 78
               0
 79
               0
140
0.18
141
0.09
142
0.0
143
25.399999999999999
144
1.0
145
0.0
146
1.0
147
0.09
148
0.0
170
               0
171
               2
172
               0
173
               0
174
               0
175
               0
176
               0
177
               0
178
               0
179
               0
271
               4
272
               4
273
               2
274
               2
275
               0
276
               0
277
               2
278
              46
279
               0
280
               0
281
               0
282
               0
283
               1
284
               0
285
               0
286
               0
288
               0
340
17
341
0
342
0
343
0
344
0
371
              -2
372
              -2
  0
DIMSTYLE
105
4E
100
AcDbSymbolTableRecord
100
AcDbDimStyleTableRecord
  2
CAD
 70
               0
  3
<>
  4
[]
 40
1.0
 41
15.875
 42
4.9999999813735476
 43
7.9999999938532707
 44
9.9999999627470952
 45
0.0
 46
0.0
 47
0.0
 48
0.0
 71
               0
 72
               0
 73
               0
 74
               0
 75
               0
 76
               0
 77
               1
 78
              11
 79
               0
140
16.933333333333334
141
0.0
142
0.0
143
1.0
144
1.0
145
0.0
146
0.7
147
0.099999999627471
148
0.0
170
               0
171
               1
172
               1
173
               0
174
               1
175
               0
176
               0
177
               0
178
               0
179
               0
271
               4
272
               4
273
               2
274
               2
275
               0
276
               2
277
               2
278
              46
279
               0
280
               0
281
               0
282
               0
283
               1
284
              11
285
              11
286
              11
288
               0
340
3C
341
48
342
48
343
0
344
0
371
              -2
372
              -2
  0
ENDTAB
  0
TABLE
  2
BLOCK_RECORD
  5
1
100
AcDbSymbolTable
 70
              26
  0
BLOCK_RECORD
  5
A
100
AcDbSymbolTableRecord
100
AcDbBlockTableRecord
  2
*MODEL_SPACE
340
20
  0
BLOCK_RECORD
  5
B
100
AcDbSymbolTableRecord
100
AcDbBlockTableRecord
  2
*PAPER_SPACE
340
21
  0
BLOCK_RECORD
  5
48
100
AcDbSymbolTableRecord
100
AcDbBlockTableRecord
  2
VW_OPENARROW
340
0
  0
BLOCK_RECORD
  5
23
100
AcDbSymbolTableRecord
100
AcDbBlockTableRecord
  2
*U1
340
0
102
{BLKREFS
331
62
102
}
  0
BLOCK_RECORD
  5
24
100
AcDbSymbolTableRecord
100
AcDbBlockTableRecord
  2
*U2
340
0
102
{BLKREFS
331
63
102
}
  0
BLOCK_RECORD
  5
25
100
AcDbSymbolTableRecord
100
AcDbBlockTableRecord
  2
*U3
340
0
102
{BLKREFS
331
64
102
}
  0
BLOCK_RECORD
  5
26
100
AcDbSymbolTableRecord
100
AcDbBlockTableRecord
  2
*U4
340
0
102
{BLKREFS
331
65
102
}
  0
BLOCK_RECORD
  5
27
100
AcDbSymbolTableRecord
100
AcDbBlockTableRecord
  2
*U5
340
0
102
{BLKREFS
331
66
102
}
  0
BLOCK_RECORD
  5
28
100
AcDbSymbolTableRecord
100
AcDbBlockTableRecord
  2
*U6
340
0
102
{BLKREFS
331
16C
102
}
  0
BLOCK_RECORD
  5
29
100
AcDbSymbolTableRecord
100
AcDbBlockTableRecord
  2
*D7
340
0
  0
BLOCK_RECORD
  5
2A
100
AcDbSymbolTableRecord
100
AcDbBlockTableRecord
  2
*D8
340
0
  0
BLOCK_RECORD
  5
2B
100
AcDbSymbolTableRecord
100
AcDbBlockTableRecord
  2
*D9
340
0
  0
BLOCK_RECORD
  5
2C
100
AcDbSymbolTableRecord
100
AcDbBlockTableRecord
  2
*U10
340
0
102
{BLKREFS
331
62F
102
}
  0
BLOCK_RECORD
  5
2D
100
AcDbSymbolTableRecord
100
AcDbBlockTableRecord
  2
*D11
340
0
  0
BLOCK_RECORD
  5
2E
100
AcDbSymbolTableRecord
100
AcDbBlockTableRecord
  2
*D12
340
0
  0
BLOCK_RECORD
  5
2F
100
AcDbSymbolTableRecord
100
AcDbBlockTableRecord
  2
*D13
340
0
  0
BLOCK_RECORD
  5
30
100
AcDbSymbolTableRecord
100
AcDbBlockTableRecord
  2
*D14
340
0
  0
BLOCK_RECORD
  5
31
100
AcDbSymbolTableRecord
100
AcDbBlockTableRecord
  2
*D15
340
0
  0
BLOCK_RECORD
  5
32
100
AcDbSymbolTableRecord
100
AcDbBlockTableRecord
  2
*D16
340
0
  0
BLOCK_RECORD
  5
33
100
AcDbSymbolTableRecord
100
AcDbBlockTableRecord
  2
*D17
340
0
  0
BLOCK_RECORD
  5
34
100
AcDbSymbolTableRecord
100
AcDbBlockTableRecord
  2
*D18
340
0
  0
BLOCK_RECORD
  5
35
100
AcDbSymbolTableRecord
100
AcDbBlockTableRecord
  2
*D19
340
0
  0
BLOCK_RECORD
  5
36
100
AcDbSymbolTableRecord
100
AcDbBlockTableRecord
  2
*D20
340
0
  0
BLOCK_RECORD
  5
37
100
AcDbSymbolTableRecord
100
AcDbBlockTableRecord
  2
*D21
340
0
  0
BLOCK_RECORD
  5
38
100
AcDbSymbolTableRecord
100
AcDbBlockTableRecord
  2
*D22
340
0
  0
BLOCK_RECORD
  5
39
100
AcDbSymbolTableRecord
100
AcDbBlockTableRecord
  2
*D23
340
0
  0
BLOCK_RECORD
  5
3A
100
AcDbSymbolTableRecord
100
AcDbBlockTableRecord
  2
*U24
340
0
102
{BLKREFS
331
6CA
102
}
  0
BLOCK_RECORD
  5
3B
100
AcDbSymbolTableRecord
100
AcDbBlockTableRecord
  2
*D25
340
0
  0
ENDTAB
  0
ENDSEC
  0
SECTION
  2
BLOCKS
  0
BLOCK
  5
D
100
AcDbEntity
  8
0
100
AcDbBlockBegin
  2
*MODEL_SPACE
 70
               0
 10
0.0
 20
0.0
 30
0.0
  3
*MODEL_SPACE
  1

  0
ENDBLK
  5
E
100
AcDbEntity
  8
0
100
AcDbBlockEnd
  0
BLOCK
  5
F
100
AcDbEntity
 67
               1
  8
0
100
AcDbBlockBegin
  2
*PAPER_SPACE
 70
               0
 10
0.0
 20
0.0
 30
0.0
  3
*PAPER_SPACE
  1

  0
ENDBLK
  5
10
100
AcDbEntity
 67
               1
  8
0
100
AcDbBlockEnd
  0
BLOCK
  5
49
100
AcDbEntity
  8
0
370
              -2
  6
ByBlock
 62
               0
100
AcDbBlockBegin
  2
VW_OPENARROW
 70
               0
 10
0.0
 20
0.0
 30
0.0
  3
VW_OPENARROW
  1

  0
LINE
  5
4A
100
AcDbEntity
  8
0
370
              -2
  6
ByBlock
 62
               0
100
AcDbLine
 10
0.0
 20
0.0
 30
0.0
 11
-1.0
 21
0.0
 31
0.0
  0
LINE
  5
4B
100
AcDbEntity
  8
0
370
              -2
  6
ByBlock
 62
               0
100
AcDbLine
 10
0.0
 20
0.0
 30
0.0
 11
-0.9999389648437499
 21
-0.2679328381102956
 31
0.0
  0
LINE
  5
4C
100
AcDbEntity
  8
0
370
              -2
  6
ByBlock
 62
               0
100
AcDbLine
 10
0.0
 20
0.0
 30
0.0
 11
-0.9999389648437499
 21
0.2679328381102958
 31
0.0
  0
ENDBLK
  5
4D
100
AcDbEntity
  8
0
100
AcDbBlockEnd
  0
BLOCK
  5
57
100
AcDbEntity
  8
FRAME
100
AcDbBlockBegin
  2
*U1
 70
               1
 10
0.0
 20
0.0
 30
0.0
  3
*U1
  1

  0
ENDBLK
  5
58
100
AcDbEntity
  8
FRAME
100
AcDbBlockEnd
  0
BLOCK
  5
59
100
AcDbEntity
  8
FRAME
100
AcDbBlockBegin
  2
*U2
 70
               1
 10
0.0
 20
0.0
 30
0.0
  3
*U2
  1

  0
ENDBLK
  5
5A
100
AcDbEntity
  8
FRAME
100
AcDbBlockEnd
  0
BLOCK
  5
5B
100
AcDbEntity
  8
FRAME
100
AcDbBlockBegin
  2
*U3
 70
               1
 10
0.0
 20
0.0
 30
0.0
  3
*U3
  1

  0
ENDBLK
  5
5C
100
AcDbEntity
  8
FRAME
100
AcDbBlockEnd
  0
BLOCK
  5
5D
100
AcDbEntity
  8
FRAME
100
AcDbBlockBegin
  2
*U4
 70
               1
 10
0.0
 20
0.0
 30
0.0
  3
*U4
  1

  0
ENDBLK
  5
5E
100
AcDbEntity
  8
FRAME
100
AcDbBlockEnd
  0
BLOCK
  5
5F
100
AcDbEntity
  8
FRAME
100
AcDbBlockBegin
  2
*U5
 70
               1
 10
0.0
 20
0.0
 30
0.0
  3
*U5
  1

  0
ENDBLK
  5
60
100
AcDbEntity
  8
FRAME
100
AcDbBlockEnd
  0
BLOCK
  5
61
100
AcDbEntity
  8
FRAME
100
AcDbBlockBegin
  2
*U6
 70
               1
 10
0.0
 20
0.0
 30
0.0
  3
*U6
  1

  0
INSERT
  5
62
100
AcDbEntity
  8
FRAME
 62
               0
100
AcDbBlockReference
  2
*U1
 10
0.0
 20
0.0
 30
0.0
  0
INSERT
  5
63
100
AcDbEntity
  8
FRAME
 62
               0
100
AcDbBlockReference
  2
*U2
 10
0.0
 20
0.0
 30
0.0
  0
INSERT
  5
64
100
AcDbEntity
  8
FRAME
 62
               0
100
AcDbBlockReference
  2
*U3
 10
0.0
 20
0.0
 30
0.0
  0
INSERT
  5
65
100
AcDbEntity
  8
FRAME
 62
               0
100
AcDbBlockReference
  2
*U4
 10
0.0
 20
0.0
 30
0.0
  0
INSERT
  5
66
100
AcDbEntity
  8
FRAME
 62
               0
100
AcDbBlockReference
  2
*U5
 10
0.0
 20
0.0
 30
0.0
  0
LWPOLYLINE
  5
67
100
AcDbEntity
  8
FRAME
370
              15
 62
               0
100
AcDbPolyline
 90
       12
 70
             129
 10
-874.98072918345599
 20
-661.52231398530046
 10
-881.45877068888183
 20
-661.52231398530046
 10
-898.0603462441876
 20
-661.52231398530046
 10
-904.45089834117141
 20
-661.52231398530046
 10
-905.22738800447075
 20
-661.52231398530046
 10
-905.22738800447075
 20
-690.31806445623272
 10
-898.0603462441876
 20
-690.31806445623272
 10
-898.0603462441876
 20
-688.87080149816802
 10
-881.45877068888183
 20
-688.87080149816802
 10
-881.45877068888183
 20
-690.31806445623272
 10
-874.29355427002997
 20
-690.31806445623272
 10
-874.29355427002997
 20
-661.52231398530046
  0
ENDBLK
  5
68
100
AcDbEntity
  8
FRAME
100
AcDbBlockEnd
  0
BLOCK
  5
69
100
AcDbEntity
  8
DIMENTION
100
AcDbBlockBegin
  2
*D7
 70
               1
 10
0.0
 20
0.0
 30
0.0
  3
*D7
  1

  0
LINE
  5
6A
100
AcDbEntity
  8
DIMENTION
370
              -2
 62
               0
100
AcDbLine
 10
-719.31665013635495
 20
-18.112498078723689
 30
0.0
 11
-719.31665013635495
 21
48.499999960884452
 31
0.0
  0
LINE
  5
6B
100
AcDbEntity
  8
DIMENTION
370
              -2
 62
               0
100
AcDbLine
 10
-459.31665013635484
 20
-18.112498078723689
 30
0.0
 11
-459.31665013635484
 21
48.499999960884452
 31
0.0
  0
LINE
  5
6C
100
AcDbEntity
  8
DIMENTION
370
              -2
 62
               0
100
AcDbLine
 10
-719.31665013635495
 20
38.499999998137355
 30
0.0
 11
-459.31665013635484
 21
38.499999998137355
 31
0.0
  0
LINE
  5
6D
100
AcDbEntity
  8
DIMENTION
370
              -2
 62
               0
100
AcDbLine
 10
-719.31665013635495
 20
38.499999998137355
 30
0.0
 11
-703.44165013635495
 21
42.753693427981432
 31
0.0
  0
LINE
  5
6E
100
AcDbEntity
  8
DIMENTION
370
              -2
 62
               0
100
AcDbLine
 10
-719.31665013635495
 20
38.499999998137355
 30
0.0
 11
-703.44165013635495
 21
34.246306568293285
 31
0.0
  0
LINE
  5
6F
100
AcDbEntity
  8
DIMENTION
370
              -2
 62
               0
100
AcDbLine
 10
-459.31665013635484
 20
38.499999998137355
 30
0.0
 11
-475.19165013635484
 21
34.246306568293285
 31
0.0
  0
LINE
  5
70
100
AcDbEntity
  8
DIMENTION
370
              -2
 62
               0
100
AcDbLine
 10
-459.31665013635484
 20
38.499999998137355
 30
0.0
 11
-475.19165013635484
 21
42.753693427981432
 31
0.0
  0
MTEXT
  5
71
100
AcDbEntity
  8
DIMENTION
 62
               0
100
AcDbMText
 10
-605.19165013635495
 20
60.166666662941374
 30
0.0
 40
16.933333333333334
 41
0.0
 71
               1
 72
               1
  1
260
  7
ＭＳ Ｐゴシック
 73
               1
 44
1.0
  0
POINT
  5
72
100
AcDbEntity
  8
Defpoints
370
               0
 62
               0
100
AcDbPoint
 10
-459.31665013635484
 20
-23.112498060097238
 30
0.0
  0
POINT
  5
73
100
AcDbEntity
  8
Defpoints
370
               0
 62
               0
100
AcDbPoint
 10
-719.31665013635495
 20
-23.112498060097238
 30
0.0
  0
POINT
  5
74
100
AcDbEntity
  8
Defpoints
370
               0
 62
               0
100
AcDbPoint
 10
-719.31665013635495
 20
38.499999998137355
 30
0.0
  0
ENDBLK
  5
75
100
AcDbEntity
  8
DIMENTION
100
AcDbBlockEnd
  0
BLOCK
  5
76
100
AcDbEntity
  8
DIMENTION
100
AcDbBlockBegin
  2
*D8
 70
               1
 10
0.0
 20
0.0
 30
0.0
  3
*D8
  1

  0
LINE
  5
77
100
AcDbEntity
  8
DIMENTION
370
              -2
 62
               0
100
AcDbLine
 10
700.68334480149656
 20
-372.11249906145474
 30
0.0
 11
803.19266455630793
 21
-372.11249906145474
 31
0.0
  0
LINE
  5
78
100
AcDbEntity
  8
DIMENTION
370
              -2
 62
               0
100
AcDbLine
 10
724.18334498797617
 20
-22.11249906145386
 30
0.0
 11
803.19266455630793
 21
-22.11249906145386
 31
0.0
  0
LINE
  5
79
100
AcDbEntity
  8
DIMENTION
370
              -2
 62
               0
100
AcDbLine
 10
793.19266459356083
 20
-372.11249906145474
 30
0.0
 11
793.19266459356083
 21
-22.11249906145386
 31
0.0
  0
LINE
  5
7A
100
AcDbEntity
  8
DIMENTION
370
              -2
 62
               0
100
AcDbLine
 10
793.19266459356083
 20
-372.11249906145474
 30
0.0
 11
788.93897116371681
 21
-356.23749906145474
 31
0.0
  0
LINE
  5
7B
100
AcDbEntity
  8
DIMENTION
370
              -2
 62
               0
100
AcDbLine
 10
793.19266459356083
 20
-372.11249906145474
 30
0.0
 11
797.44635802340485
 21
-356.23749906145474
 31
0.0
  0
LINE
  5
7C
100
AcDbEntity
  8
DIMENTION
370
              -2
 62
               0
100
AcDbLine
 10
793.19266459356083
 20
-22.11249906145386
 30
0.0
 11
797.44635802340485
 21
-37.98749906145386
 31
0.0
  0
LINE
  5
7D
100
AcDbEntity
  8
DIMENTION
370
              -2
 62
               0
100
AcDbLine
 10
793.19266459356083
 20
-22.11249906145386
 30
0.0
 11
788.93897116371681
 21
-37.98749906145386
 31
0.0
  0
MTEXT
  5
7E
100
AcDbEntity
  8
DIMENTION
 62
               0
100
AcDbMText
 10
771.52599792875674
 20
-212.98749906145432
 30
0.0
 40
16.933333333333334
 41
0.0
 71
               1
 72
               1
  1
350
  7
ＭＳ Ｐゴシック
 11
0.0
 21
1.0
 31
0.0
 73
               1
 44
1.0
  0
POINT
  5
7F
100
AcDbEntity
  8
Defpoints
370
               0
 62
               0
100
AcDbPoint
 10
719.18334500660262
 20
-22.11249906145386
 30
0.0
  0
POINT
  5
80
100
AcDbEntity
  8
Defpoints
370
               0
 62
               0
100
AcDbPoint
 10
695.68334482012301
 20
-372.11249906145474
 30
0.0
  0
POINT
  5
81
100
AcDbEntity
  8
Defpoints
370
               0
 62
               0
100
AcDbPoint
 10
793.19266459356083
 20
-372.11249906145474
 30
0.0
  0
ENDBLK
  5
82
100
AcDbEntity
  8
DIMENTION
100
AcDbBlockEnd
  0
BLOCK
  5
83
100
AcDbEntity
  8
DIMENTION
100
AcDbBlockBegin
  2
*D9
 70
               1
 10
0.0
 20
0.0
 30
0.0
  3
*D9
  1

  0
LINE
  5
84
100
AcDbEntity
  8
DIMENTION
370
              -2
 62
               0
100
AcDbLine
 10
720.18334500660308
 20
-240.61249904282741
 30
0.0
 11
720.18334500660308
 21
-456.81229963474379
 31
0.0
  0
LINE
  5
85
100
AcDbEntity
  8
DIMENTION
370
              -2
 62
               0
100
AcDbLine
 10
121.18334500660796
 20
-240.6124990428265
 30
0.0
 11
121.18334500660796
 21
-456.81229963474379
 31
0.0
  0
LINE
  5
86
100
AcDbEntity
  8
DIMENTION
370
              -2
 62
               0
100
AcDbLine
 10
720.18334500660308
 20
-446.8122996719967
 30
0.0
 11
121.18334500660796
 21
-446.8122996719967
 31
0.0
  0
LINE
  5
87
100
AcDbEntity
  8
DIMENTION
370
              -2
 62
               0
100
AcDbLine
 10
720.18334500660308
 20
-446.8122996719967
 30
0.0
 11
704.30834500660308
 21
-451.06599310184072
 31
0.0
  0
LINE
  5
88
100
AcDbEntity
  8
DIMENTION
370
              -2
 62
               0
100
AcDbLine
 10
720.18334500660308
 20
-446.8122996719967
 30
0.0
 11
704.30834500660308
 21
-442.55860624215268
 31
0.0
  0
LINE
  5
89
100
AcDbEntity
  8
DIMENTION
370
              -2
 62
               0
100
AcDbLine
 10
121.18334500660796
 20
-446.8122996719967
 30
0.0
 11
137.05834500660796
 21
-442.55860624215268
 31
0.0
  0
LINE
  5
8A
100
AcDbEntity
  8
DIMENTION
370
              -2
 62
               0
100
AcDbLine
 10
121.18334500660796
 20
-446.8122996719967
 30
0.0
 11
137.05834500660796
 21
-451.06599310184072
 31
0.0
  0
MTEXT
  5
8B
100
AcDbEntity
  8
DIMENTION
 62
               0
100
AcDbMText
 10
404.80834500660552
 20
-425.14563300719271
 30
0.0
 40
16.933333333333334
 41
0.0
 71
               1
 72
               1
  1
600
  7
ＭＳ Ｐゴシック
 73
               1
 44
1.0
  0
POINT
  5
8C
100
AcDbEntity
  8
Defpoints
370
               0
 62
               0
100
AcDbPoint
 10
121.18334500660796
 20
-235.61249906145295
 30
0.0
  0
POINT
  5
8D
100
AcDbEntity
  8
Defpoints
370
               0
 62
               0
100
AcDbPoint
 10
720.18334500660308
 20
-235.61249906145386
 30
0.0
  0
POINT
  5
8E
100
AcDbEntity
  8
Defpoints
370
               0
 62
               0
100
AcDbPoint
 10
720.18334500660308
 20
-446.8122996719967
 30
0.0
  0
ENDBLK
  5
8F
100
AcDbEntity
  8
DIMENTION
100
AcDbBlockEnd
  0
BLOCK
  5
90
100
AcDbEntity
  8
CENTER
100
AcDbBlockBegin
  2
*U10
 70
               1
 10
0.0
 20
0.0
 30
0.0
  3
*U10
  1

  0
LINE
  5
91
100
AcDbEntity
  8
CENTER
 62
               0
100
AcDbLine
 10
293.63684053756197
 20
307.18082941171542
 30
0.0
 11
298.63684051893551
 21
307.18082941171542
 31
0.0
  0
LINE
  5
92
100
AcDbEntity
  8
CENTER
 62
               0
100
AcDbLine
 10
296.13684052824874
 20
304.68082942102865
 30
0.0
 11
296.13684052824874
 21
309.6808294024022
 31
0.0
  0
LINE
  5
93
100
AcDbEntity
  8
CENTER
 62
               0
100
AcDbLine
 10
244.83684050310285
 20
307.18082941171542
 30
0.0
 11
288.63684055618842
 21
307.18082941171542
 31
0.0
  0
LINE
  5
94
100
AcDbEntity
  8
CENTER
 62
               0
100
AcDbLine
 10
303.63684050030906
 20
307.18082941171542
 30
0.0
 11
347.43684055339463
 21
307.18082941171542
 31
0.0
  0
LINE
  5
95
100
AcDbEntity
  8
CENTER
 62
               0
100
AcDbLine
 10
296.13684052824874
 20
358.48082943686131
 30
0.0
 11
296.13684052824874
 21
314.68082938377574
 31
0.0
  0
LINE
  5
96
100
AcDbEntity
  8
CENTER
 62
               0
100
AcDbLine
 10
296.13684052824874
 20
299.6808294396551
 30
0.0
 11
296.13684052824874
 21
255.88082938656953
 31
0.0
  0
ENDBLK
  5
97
100
AcDbEntity
  8
CENTER
100
AcDbBlockEnd
  0
BLOCK
  5
98
100
AcDbEntity
  8
DIMENTION
100
AcDbBlockBegin
  2
*D11
 70
               1
 10
0.0
 20
0.0
 30
0.0
  3
*D11
  1

  0
LINE
  5
99
100
AcDbEntity
  8
DIMENTION
370
              -2
 62
               0
100
AcDbLine
 10
121.18334500660808
 20
264.18770034662577
 30
0.0
 11
121.18334500660808
 21
207.76101264782508
 31
0.0
  0
LINE
  5
9A
100
AcDbEntity
  8
DIMENTION
370
              -2
 62
               0
100
AcDbLine
 10
283.18334500659728
 20
317.88770032146078
 30
0.0
 11
283.18334500659728
 21
207.76101264782508
 31
0.0
  0
LINE
  5
9B
100
AcDbEntity
  8
DIMENTION
370
              -2
 62
               0
100
AcDbLine
 10
121.18334500660808
 20
217.76101261057218
 30
0.0
 11
283.18334500659728
 21
217.76101261057218
 31
0.0
  0
LINE
  5
9C
100
AcDbEntity
  8
DIMENTION
370
              -2
 62
               0
100
AcDbLine
 10
121.18334500660808
 20
217.76101261057218
 30
0.0
 11
137.05834500660808
 21
222.01470604041626
 31
0.0
  0
LINE
  5
9D
100
AcDbEntity
  8
DIMENTION
370
              -2
 62
               0
100
AcDbLine
 10
121.18334500660808
 20
217.76101261057218
 30
0.0
 11
137.05834500660808
 21
213.5073191807281
 31
0.0
  0
LINE
  5
9E
100
AcDbEntity
  8
DIMENTION
370
              -2
 62
               0
100
AcDbLine
 10
283.18334500659728
 20
217.76101261057218
 30
0.0
 11
267.30834500659728
 21
213.5073191807281
 31
0.0
  0
LINE
  5
9F
100
AcDbEntity
  8
DIMENTION
370
              -2
 62
               0
100
AcDbLine
 10
283.18334500659728
 20
217.76101261057218
 30
0.0
 11
267.30834500659728
 21
222.01470604041626
 31
0.0
  0
MTEXT
  5
A0
100
AcDbEntity
  8
DIMENTION
 62
               0
100
AcDbMText
 10
186.30834500660268
 20
239.42767927537619
 30
0.0
 40
16.933333333333334
 41
0.0
 71
               1
 72
               1
  1
160
  7
ＭＳ Ｐゴシック
 73
               1
 44
1.0
  0
POINT
  5
A1
100
AcDbEntity
  8
Defpoints
370
               0
 62
               0
100
AcDbPoint
 10
283.18334500659728
 20
322.88770030283433
 30
0.0
  0
POINT
  5
A2
100
AcDbEntity
  8
Defpoints
370
               0
 62
               0
100
AcDbPoint
 10
121.18334500660808
 20
269.18770032799932
 30
0.0
  0
POINT
  5
A3
100
AcDbEntity
  8
Defpoints
370
               0
 62
               0
100
AcDbPoint
 10
121.18334500660808
 20
217.76101261057218
 30
0.0
  0
ENDBLK
  5
A4
100
AcDbEntity
  8
DIMENTION
100
AcDbBlockEnd
  0
BLOCK
  5
A5
100
AcDbEntity
  8
DIMENTION
100
AcDbBlockBegin
  2
*D12
 70
               1
 10
0.0
 20
0.0
 30
0.0
  3
*D12
  1

  0
LINE
  5
A6
100
AcDbEntity
  8
DIMENTION
370
              -2
 62
               0
100
AcDbLine
 10
226.88334500007784
 20
374.18770032798022
 30
0.0
 11
62.677489245134439
 21
374.18770032798022
 31
0.0
  0
LINE
  5
A7
100
AcDbEntity
  8
DIMENTION
370
              -2
 62
               0
100
AcDbLine
 10
85.177489226507987
 20
399.18770032800342
 30
0.0
 11
62.677489245134439
 21
399.18770032800342
 31
0.0
  0
LINE
  5
A8
100
AcDbEntity
  8
DIMENTION
370
              -2
 62
               0
100
AcDbLine
 10
72.677489207881536
 20
399.18770032800342
 30
0.0
 11
72.677489207881536
 21
374.18770032798022
 31
0.0
  0
LINE
  5
A9
100
AcDbEntity
  8
DIMENTION
370
              -2
 62
               0
100
AcDbLine
 10
72.677489207881536
 20
374.18770032798022
 30
0.0
 11
72.677489207881536
 21
344.18770032146097
 31
0.0
  0
LINE
  5
AA
100
AcDbEntity
  8
DIMENTION
370
              -2
 62
               0
100
AcDbLine
 10
72.677489207881536
 20
374.18770032798022
 30
0.0
 11
76.931182637725598
 21
358.31270032798022
 31
0.0
  0
LINE
  5
AB
100
AcDbEntity
  8
DIMENTION
370
              -2
 62
               0
100
AcDbLine
 10
72.677489207881536
 20
374.18770032798022
 30
0.0
 11
68.423795778037459
 21
358.31270032798022
 31
0.0
  0
LINE
  5
AC
100
AcDbEntity
  8
DIMENTION
370
              -2
 62
               0
100
AcDbLine
 10
72.677489207881536
 20
399.18770032800342
 30
0.0
 11
72.677489207881536
 21
429.18770033452267
 31
0.0
  0
LINE
  5
AD
100
AcDbEntity
  8
DIMENTION
370
              -2
 62
               0
100
AcDbLine
 10
72.677489207881536
 20
399.18770032800342
 30
0.0
 11
68.423795778037459
 21
415.06270032800342
 31
0.0
  0
LINE
  5
AE
100
AcDbEntity
  8
DIMENTION
370
              -2
 62
               0
100
AcDbLine
 10
72.677489207881536
 20
399.18770032800342
 30
0.0
 11
76.931182637725612
 21
415.06270032800342
 31
0.0
  0
MTEXT
  5
AF
100
AcDbEntity
  8
DIMENTION
 62
               0
100
AcDbMText
 10
51.010822543077524
 20
376.10436699465845
 30
0.0
 40
16.933333333333334
 41
0.0
 71
               1
 72
               1
  1
25
  7
ＭＳ Ｐゴシック
 11
0.0
 21
1.0
 31
0.0
 73
               1
 44
1.0
  0
POINT
  5
B0
100
AcDbEntity
  8
Defpoints
370
               0
 62
               0
100
AcDbPoint
 10
90.177489207881536
 20
399.18770032800342
 30
0.0
  0
POINT
  5
B1
100
AcDbEntity
  8
Defpoints
370
               0
 62
               0
100
AcDbPoint
 10
231.88334498145139
 20
374.18770032798022
 30
0.0
  0
POINT
  5
B2
100
AcDbEntity
  8
Defpoints
370
               0
 62
               0
100
AcDbPoint
 10
72.677489207881536
 20
374.18770032798022
 30
0.0
  0
ENDBLK
  5
B3
100
AcDbEntity
  8
DIMENTION
100
AcDbBlockEnd
  0
BLOCK
  5
B4
100
AcDbEntity
  8
DIMENTION
100
AcDbBlockBegin
  2
*D13
 70
               1
 10
0.0
 20
0.0
 30
0.0
  3
*D13
  1

  0
LINE
  5
B5
100
AcDbEntity
  8
DIMENTION
370
              -2
 62
               0
100
AcDbLine
 10
-513.9794814635012
 20
-107.4244221928266
 30
0.0
 11
-424.71665499339713
 21
-49.522235206487409
 31
0.0
  0
LINE
  5
B6
100
AcDbEntity
  8
DIMENTION
370
              -2
 62
               0
100
AcDbLine
 10
-513.9794814635012
 20
-107.4244221928266
 30
0.0
 11
-502.77083202963451
 21
-95.404617258312101
 31
0.0
  0
LINE
  5
B7
100
AcDbEntity
  8
DIMENTION
370
              -2
 62
               0
100
AcDbLine
 10
-513.9794814635012
 20
-107.4244221928266
 30
0.0
 11
-498.26260384440133
 21
-102.61929048793684
 31
0.0
  0
LINE
  5
B8
100
AcDbEntity
  8
DIMENTION
370
              -2
 62
               0
100
AcDbLine
 10
-424.71665499339713
 20
-49.522235206487409
 30
0.0
 11
-324.25499022939351
 21
-49.522235206487409
 31
0.0
  0
MTEXT
  5
B9
100
AcDbEntity
  8
DIMENTION
 62
               0
100
AcDbMText
 10
-419.71665501202358
 20
-27.855568541683397
 30
0.0
 40
16.933333333333334
 41
0.0
 71
               1
 72
               1
  1
φ120 カゴ
  7
ＭＳ Ｐゴシック
 73
               1
 44
1.0
  0
POINT
  5
BA
100
AcDbEntity
  8
Defpoints
370
               0
 62
               0
100
AcDbPoint
 10
-614.65381880923667
 20
-172.72892280340167
 30
0.0
  0
POINT
  5
BB
100
AcDbEntity
  8
Defpoints
370
               0
 62
               0
100
AcDbPoint
 10
-513.9794814635012
 20
-107.4244221928266
 30
0.0
  0
ENDBLK
  5
BC
100
AcDbEntity
  8
DIMENTION
100
AcDbBlockEnd
  0
BLOCK
  5
BD
100
AcDbEntity
  8
DIMENTION
100
AcDbBlockBegin
  2
*D14
 70
               1
 10
0.0
 20
0.0
 30
0.0
  3
*D14
  1

  0
LINE
  5
BE
100
AcDbEntity
  8
DIMENTION
370
              -2
 62
               0
100
AcDbLine
 10
245.68334500659728
 20
-317.11249904282852
 30
0.0
 11
245.68334500659728
 21
-414.4999999627471
 31
0.0
  0
LINE
  5
BF
100
AcDbEntity
  8
DIMENTION
370
              -2
 62
               0
100
AcDbLine
 10
320.68334500659728
 20
-317.11249904282852
 30
0.0
 11
320.68334500659728
 21
-414.4999999627471
 31
0.0
  0
LINE
  5
C0
100
AcDbEntity
  8
DIMENTION
370
              -2
 62
               0
100
AcDbLine
 10
320.68334500659728
 20
-404.5
 30
0.0
 11
544.13000053829603
 21
-404.5
 31
0.0
  0
LINE
  5
C1
100
AcDbEntity
  8
DIMENTION
370
              -2
 62
               0
100
AcDbLine
 10
245.68334500659728
 20
-404.5
 30
0.0
 11
320.68334500659728
 21
-404.5
 31
0.0
  0
LINE
  5
C2
100
AcDbEntity
  8
DIMENTION
370
              -2
 62
               0
100
AcDbLine
 10
245.68334500659728
 20
-404.5
 30
0.0
 11
261.55834500659728
 21
-400.24630657015598
 31
0.0
  0
LINE
  5
C3
100
AcDbEntity
  8
DIMENTION
370
              -2
 62
               0
100
AcDbLine
 10
245.68334500659728
 20
-404.5
 30
0.0
 11
261.55834500659728
 21
-408.75369342984413
 31
0.0
  0
LINE
  5
C4
100
AcDbEntity
  8
DIMENTION
370
              -2
 62
               0
100
AcDbLine
 10
320.68334500659728
 20
-404.5
 30
0.0
 11
304.80834500659728
 21
-408.75369342984413
 31
0.0
  0
LINE
  5
C5
100
AcDbEntity
  8
DIMENTION
370
              -2
 62
               0
100
AcDbLine
 10
320.68334500659728
 20
-404.5
 30
0.0
 11
304.80834500659728
 21
-400.24630657015598
 31
0.0
  0
MTEXT
  5
C6
100
AcDbEntity
  8
DIMENTION
 62
               0
100
AcDbMText
 10
329.5
 20
-382.83333333519602
 30
0.0
 40
16.933333333333334
 41
0.0
 71
               1
 72
               1
  1
φ75 排水用抜き穴寸法
  7
ＭＳ Ｐゴシック
 73
               1
 44
1.0
  0
POINT
  5
C7
100
AcDbEntity
  8
Defpoints
370
               0
 62
               0
100
AcDbPoint
 10
320.68334500659728
 20
-312.11249906145497
 30
0.0
  0
POINT
  5
C8
100
AcDbEntity
  8
Defpoints
370
               0
 62
               0
100
AcDbPoint
 10
245.68334500659728
 20
-312.11249906145497
 30
0.0
  0
POINT
  5
C9
100
AcDbEntity
  8
Defpoints
370
               0
 62
               0
100
AcDbPoint
 10
245.68334500659728
 20
-404.5
 30
0.0
  0
ENDBLK
  5
CA
100
AcDbEntity
  8
DIMENTION
100
AcDbBlockEnd
  0
BLOCK
  5
CB
100
AcDbEntity
  8
DIMENTION
100
AcDbBlockBegin
  2
*D15
 70
               1
 10
0.0
 20
0.0
 30
0.0
  3
*D15
  1

  0
LINE
  5
CC
100
AcDbEntity
  8
DIMENTION
370
              -2
 62
               0
100
AcDbLine
 10
303.55784498797084
 20
-281.91249906145447
 30
0.0
 11
386.9999999627471
 21
-281.91249906145447
 31
0.0
  0
LINE
  5
CD
100
AcDbEntity
  8
DIMENTION
370
              -2
 62
               0
100
AcDbLine
 10
332.79999998137356
 20
-372.11249906145338
 30
0.0
 11
386.9999999627471
 21
-372.11249906145338
 31
0.0
  0
LINE
  5
CE
100
AcDbEntity
  8
DIMENTION
370
              -2
 62
               0
100
AcDbLine
 10
377.0
 20
-281.91249906145447
 30
0.0
 11
377.0
 21
-372.11249906145338
 31
0.0
  0
LINE
  5
CF
100
AcDbEntity
  8
DIMENTION
370
              -2
 62
               0
100
AcDbLine
 10
377.0
 20
-281.91249906145447
 30
0.0
 11
381.25369342984408
 21
-297.78749906145447
 31
0.0
  0
LINE
  5
D0
100
AcDbEntity
  8
DIMENTION
370
              -2
 62
               0
100
AcDbLine
 10
377.0
 20
-281.91249906145447
 30
0.0
 11
372.74630657015592
 21
-297.78749906145447
 31
0.0
  0
LINE
  5
D1
100
AcDbEntity
  8
DIMENTION
370
              -2
 62
               0
100
AcDbLine
 10
377.0
 20
-372.11249906145338
 30
0.0
 11
372.74630657015592
 21
-356.23749906145338
 31
0.0
  0
LINE
  5
D2
100
AcDbEntity
  8
DIMENTION
370
              -2
 62
               0
100
AcDbLine
 10
377.0
 20
-372.11249906145338
 30
0.0
 11
381.25369342984408
 21
-356.23749906145338
 31
0.0
  0
MTEXT
  5
D3
100
AcDbEntity
  8
DIMENTION
 62
               0
100
AcDbMText
 10
355.33333333519602
 20
-337.59583239478729
 30
0.0
 40
16.933333333333334
 41
0.0
 71
               1
 72
               1
  1
90
  7
ＭＳ Ｐゴシック
 11
0.0
 21
1.0
 31
0.0
 73
               1
 44
1.0
  0
POINT
  5
D4
100
AcDbEntity
  8
Defpoints
370
               0
 62
               0
100
AcDbPoint
 10
327.80000000000001
 20
-372.11249906145338
 30
0.0
  0
POINT
  5
D5
100
AcDbEntity
  8
Defpoints
370
               0
 62
               0
100
AcDbPoint
 10
298.55784500659729
 20
-281.91249906145447
 30
0.0
  0
POINT
  5
D6
100
AcDbEntity
  8
Defpoints
370
               0
 62
               0
100
AcDbPoint
 10
377.0
 20
-281.91249906145447
 30
0.0
  0
ENDBLK
  5
D7
100
AcDbEntity
  8
DIMENTION
100
AcDbBlockEnd
  0
BLOCK
  5
D8
100
AcDbEntity
  8
DIMENTION
100
AcDbBlockBegin
  2
*D16
 70
               1
 10
0.0
 20
0.0
 30
0.0
  3
*D16
  1

  0
LINE
  5
D9
100
AcDbEntity
  8
DIMENTION
370
              -2
 62
               0
100
AcDbLine
 10
665.99999998137355
 20
463.18870303071606
 30
0.0
 11
803.19266455630793
 21
463.18870303071606
 31
0.0
  0
LINE
  5
DA
100
AcDbEntity
  8
DIMENTION
370
              -2
 62
               0
100
AcDbLine
 10
746.17748918925508
 20
399.18770032800342
 30
0.0
 11
803.19266455630793
 21
399.18770032800342
 31
0.0
  0
LINE
  5
DB
100
AcDbEntity
  8
DIMENTION
370
              -2
 62
               0
100
AcDbLine
 10
793.19266459356083
 20
463.18870303071606
 30
0.0
 11
793.19266459356083
 21
399.18770032800342
 31
0.0
  0
LINE
  5
DC
100
AcDbEntity
  8
DIMENTION
370
              -2
 62
               0
100
AcDbLine
 10
793.19266459356083
 20
463.18870303071606
 30
0.0
 11
797.44635802340485
 21
447.31370303071606
 31
0.0
  0
LINE
  5
DD
100
AcDbEntity
  8
DIMENTION
370
              -2
 62
               0
100
AcDbLine
 10
793.19266459356083
 20
463.18870303071606
 30
0.0
 11
788.93897116371681
 21
447.31370303071606
 31
0.0
  0
LINE
  5
DE
100
AcDbEntity
  8
DIMENTION
370
              -2
 62
               0
100
AcDbLine
 10
793.19266459356083
 20
399.18770032800342
 30
0.0
 11
788.93897116371681
 21
415.06270032800342
 31
0.0
  0
LINE
  5
DF
100
AcDbEntity
  8
DIMENTION
370
              -2
 62
               0
100
AcDbLine
 10
793.19266459356083
 20
399.18770032800342
 30
0.0
 11
797.44635802340485
 21
415.06270032800342
 31
0.0
  0
MTEXT
  5
E0
100
AcDbEntity
  8
DIMENTION
 62
               0
100
AcDbMText
 10
771.52599792875674
 20
420.60486834602636
 30
0.0
 40
16.933333333333334
 41
0.0
 71
               1
 72
               1
  1
64
  7
ＭＳ Ｐゴシック
 11
0.0
 21
1.0
 31
0.0
 73
               1
 44
1.0
  0
POINT
  5
E1
100
AcDbEntity
  8
Defpoints
370
               0
 62
               0
100
AcDbPoint
 10
741.17748920788154
 20
399.18770032800342
 30
0.0
  0
POINT
  5
E2
100
AcDbEntity
  8
Defpoints
370
               0
 62
               0
100
AcDbPoint
 10
661.0
 20
463.18870303071606
 30
0.0
  0
POINT
  5
E3
100
AcDbEntity
  8
Defpoints
370
               0
 62
               0
100
AcDbPoint
 10
793.19266459356083
 20
463.18870303071606
 30
0.0
  0
ENDBLK
  5
E4
100
AcDbEntity
  8
DIMENTION
100
AcDbBlockEnd
  0
BLOCK
  5
E5
100
AcDbEntity
  8
DIMENTION
100
AcDbBlockBegin
  2
*D17
 70
               1
 10
0.0
 20
0.0
 30
0.0
  3
*D17
  1

  0
LINE
  5
E6
100
AcDbEntity
  8
DIMENTION
370
              -2
 62
               0
100
AcDbLine
 10
121.18334500659603
 20
534.18770030937287
 30
0.0
 11
121.18334500659603
 21
570.9999999627471
 31
0.0
  0
LINE
  5
E7
100
AcDbEntity
  8
DIMENTION
370
              -2
 62
               0
100
AcDbLine
 10
537.68334501202128
 20
491.99999998137355
 30
0.0
 11
537.68334501202128
 21
570.9999999627471
 31
0.0
  0
LINE
  5
E8
100
AcDbEntity
  8
DIMENTION
370
              -2
 62
               0
100
AcDbLine
 10
121.18334500659603
 20
561.0
 30
0.0
 11
537.68334501202128
 21
561.0
 31
0.0
  0
LINE
  5
E9
100
AcDbEntity
  8
DIMENTION
370
              -2
 62
               0
100
AcDbLine
 10
121.18334500659603
 20
561.0
 30
0.0
 11
137.05834500659603
 21
565.25369342984402
 31
0.0
  0
LINE
  5
EA
100
AcDbEntity
  8
DIMENTION
370
              -2
 62
               0
100
AcDbLine
 10
121.18334500659603
 20
561.0
 30
0.0
 11
137.05834500659603
 21
556.74630657015587
 31
0.0
  0
LINE
  5
EB
100
AcDbEntity
  8
DIMENTION
370
              -2
 62
               0
100
AcDbLine
 10
537.68334501202128
 20
561.0
 30
0.0
 11
521.80834501202128
 21
556.74630657015587
 31
0.0
  0
LINE
  5
EC
100
AcDbEntity
  8
DIMENTION
370
              -2
 62
               0
100
AcDbLine
 10
537.68334501202128
 20
561.0
 30
0.0
 11
521.80834501202128
 21
565.25369342984402
 31
0.0
  0
MTEXT
  5
ED
100
AcDbEntity
  8
DIMENTION
 62
               0
100
AcDbMText
 10
313.55834500930865
 20
582.66666666480398
 30
0.0
 40
16.933333333333334
 41
0.0
 71
               1
 72
               1
  1
416
  7
ＭＳ Ｐゴシック
 73
               1
 44
1.0
  0
POINT
  5
EE
100
AcDbEntity
  8
Defpoints
370
               0
 62
               0
100
AcDbPoint
 10
537.68334501202128
 20
487.0
 30
0.0
  0
POINT
  5
EF
100
AcDbEntity
  8
Defpoints
370
               0
 62
               0
100
AcDbPoint
 10
121.18334500659603
 20
529.18770032799932
 30
0.0
  0
POINT
  5
F0
100
AcDbEntity
  8
Defpoints
370
               0
 62
               0
100
AcDbPoint
 10
121.18334500659603
 20
561.0
 30
0.0
  0
ENDBLK
  5
F1
100
AcDbEntity
  8
DIMENTION
100
AcDbBlockEnd
  0
BLOCK
  5
F2
100
AcDbEntity
  8
DIMENTION
100
AcDbBlockBegin
  2
*D18
 70
               1
 10
0.0
 20
0.0
 30
0.0
  3
*D18
  1

  0
LINE
  5
F3
100
AcDbEntity
  8
DIMENTION
370
              -2
 62
               0
100
AcDbLine
 10
720.18334500660285
 20
-18.112499080080312
 30
0.0
 11
720.18334500660285
 21
47.999999962747097
 31
0.0
  0
LINE
  5
F4
100
AcDbEntity
  8
DIMENTION
370
              -2
 62
               0
100
AcDbLine
 10
178.68334500660285
 20
-18.395341792554888
 30
0.0
 11
178.68334500660285
 21
47.999999962747097
 31
0.0
  0
LINE
  5
F5
100
AcDbEntity
  8
DIMENTION
370
              -2
 62
               0
100
AcDbLine
 10
720.18334500660285
 20
38.0
 30
0.0
 11
178.68334500660285
 21
38.0
 31
0.0
  0
LINE
  5
F6
100
AcDbEntity
  8
DIMENTION
370
              -2
 62
               0
100
AcDbLine
 10
720.18334500660285
 20
38.0
 30
0.0
 11
704.30834500660285
 21
33.74630657015593
 31
0.0
  0
LINE
  5
F7
100
AcDbEntity
  8
DIMENTION
370
              -2
 62
               0
100
AcDbLine
 10
720.18334500660285
 20
38.0
 30
0.0
 11
704.30834500660285
 21
42.253693429844077
 31
0.0
  0
LINE
  5
F8
100
AcDbEntity
  8
DIMENTION
370
              -2
 62
               0
100
AcDbLine
 10
178.68334500660285
 20
38.0
 30
0.0
 11
194.55834500660285
 21
42.253693429844077
 31
0.0
  0
LINE
  5
F9
100
AcDbEntity
  8
DIMENTION
370
              -2
 62
               0
100
AcDbLine
 10
178.68334500660285
 20
38.0
 30
0.0
 11
194.55834500660285
 21
33.74630657015593
 31
0.0
  0
MTEXT
  5
FA
100
AcDbEntity
  8
DIMENTION
 62
               0
100
AcDbMText
 10
433.55834500660285
 20
59.666666664804019
 30
0.0
 40
16.933333333333334
 41
0.0
 71
               1
 72
               1
  1
542
  7
ＭＳ Ｐゴシック
 73
               1
 44
1.0
  0
POINT
  5
FB
100
AcDbEntity
  8
Defpoints
370
               0
 62
               0
100
AcDbPoint
 10
178.68334500660285
 20
-23.395341773928436
 30
0.0
  0
POINT
  5
FC
100
AcDbEntity
  8
Defpoints
370
               0
 62
               0
100
AcDbPoint
 10
720.18334500660285
 20
-23.11249906145386
 30
0.0
  0
POINT
  5
FD
100
AcDbEntity
  8
Defpoints
370
               0
 62
               0
100
AcDbPoint
 10
720.18334500660285
 20
38.0
 30
0.0
  0
ENDBLK
  5
FE
100
AcDbEntity
  8
DIMENTION
100
AcDbBlockEnd
  0
BLOCK
  5
FF
100
AcDbEntity
  8
DIMENTION
100
AcDbBlockBegin
  2
*D19
 70
               1
 10
0.0
 20
0.0
 30
0.0
  3
*D19
  1

  0
LINE
  5
100
100
AcDbEntity
  8
DIMENTION
370
              -2
 62
               0
100
AcDbLine
 10
178.68334500660285
 20
-18.395341792554888
 30
0.0
 11
178.68334500660285
 21
47.999999962747097
 31
0.0
  0
LINE
  5
101
100
AcDbEntity
  8
DIMENTION
370
              -2
 62
               0
100
AcDbLine
 10
101.18452659422792
 20
-42.400000018626443
 30
0.0
 11
101.18452659422792
 21
47.999999962747097
 31
0.0
  0
LINE
  5
102
100
AcDbEntity
  8
DIMENTION
370
              -2
 62
               0
100
AcDbLine
 10
178.68334500660285
 20
38.0
 30
0.0
 11
101.18452659422792
 21
38.0
 31
0.0
  0
LINE
  5
103
100
AcDbEntity
  8
DIMENTION
370
              -2
 62
               0
100
AcDbLine
 10
178.68334500660285
 20
38.0
 30
0.0
 11
162.80834500660285
 21
33.74630657015593
 31
0.0
  0
LINE
  5
104
100
AcDbEntity
  8
DIMENTION
370
              -2
 62
               0
100
AcDbLine
 10
178.68334500660285
 20
38.0
 30
0.0
 11
162.80834500660285
 21
42.253693429844077
 31
0.0
  0
LINE
  5
105
100
AcDbEntity
  8
DIMENTION
370
              -2
 62
               0
100
AcDbLine
 10
101.18452659422792
 20
38.0
 30
0.0
 11
117.05952659422792
 21
42.253693429844077
 31
0.0
  0
LINE
  5
106
100
AcDbEntity
  8
DIMENTION
370
              -2
 62
               0
100
AcDbLine
 10
101.18452659422792
 20
38.0
 30
0.0
 11
117.05952659422792
 21
33.74630657015593
 31
0.0
  0
MTEXT
  5
107
100
AcDbEntity
  8
DIMENTION
 62
               0
100
AcDbMText
 10
129.35060246708204
 20
59.666666664804019
 30
0.0
 40
16.933333333333334
 41
0.0
 71
               1
 72
               1
  1
78
  7
ＭＳ Ｐゴシック
 73
               1
 44
1.0
  0
POINT
  5
108
100
AcDbEntity
  8
Defpoints
370
               0
 62
               0
100
AcDbPoint
 10
101.18452659422792
 20
-47.399999999999991
 30
0.0
  0
POINT
  5
109
100
AcDbEntity
  8
Defpoints
370
               0
 62
               0
100
AcDbPoint
 10
178.68334500660285
 20
-23.395341773928436
 30
0.0
  0
POINT
  5
10A
100
AcDbEntity
  8
Defpoints
370
               0
 62
               0
100
AcDbPoint
 10
178.68334500660285
 20
38.0
 30
0.0
  0
ENDBLK
  5
10B
100
AcDbEntity
  8
DIMENTION
100
AcDbBlockEnd
  0
BLOCK
  5
10C
100
AcDbEntity
  8
DIMENTION
100
AcDbBlockBegin
  2
*D20
 70
               1
 10
0.0
 20
0.0
 30
0.0
  3
*D20
  1

  0
LINE
  5
10D
100
AcDbEntity
  8
DIMENTION
370
              -2
 62
               0
100
AcDbLine
 10
121.18334500660796
 20
-240.6124990428265
 30
0.0
 11
121.18334500660796
 21
-456.81229963474379
 31
0.0
  0
LINE
  5
10E
100
AcDbEntity
  8
DIMENTION
370
              -2
 62
               0
100
AcDbLine
 10
-30.866654993414954
 20
-227.11249904282695
 30
0.0
 11
-30.866654993414954
 21
-456.81229963474379
 31
0.0
  0
LINE
  5
10F
100
AcDbEntity
  8
DIMENTION
370
              -2
 62
               0
100
AcDbLine
 10
121.18334500660796
 20
-446.8122996719967
 30
0.0
 11
-30.866654993414954
 21
-446.8122996719967
 31
0.0
  0
LINE
  5
110
100
AcDbEntity
  8
DIMENTION
370
              -2
 62
               0
100
AcDbLine
 10
121.18334500660796
 20
-446.8122996719967
 30
0.0
 11
105.30834500660796
 21
-451.06599310184072
 31
0.0
  0
LINE
  5
111
100
AcDbEntity
  8
DIMENTION
370
              -2
 62
               0
100
AcDbLine
 10
121.18334500660796
 20
-446.8122996719967
 30
0.0
 11
105.30834500660796
 21
-442.55860624215268
 31
0.0
  0
LINE
  5
112
100
AcDbEntity
  8
DIMENTION
370
              -2
 62
               0
100
AcDbLine
 10
-30.866654993414954
 20
-446.8122996719967
 30
0.0
 11
-14.991654993414954
 21
-442.55860624215268
 31
0.0
  0
LINE
  5
113
100
AcDbEntity
  8
DIMENTION
370
              -2
 62
               0
100
AcDbLine
 10
-30.866654993414954
 20
-446.8122996719967
 30
0.0
 11
-14.991654993414954
 21
-451.06599310184072
 31
0.0
  0
MTEXT
  5
114
100
AcDbEntity
  8
DIMENTION
 62
               0
100
AcDbMText
 10
29.283345006596505
 20
-425.14563300719271
 30
0.0
 40
16.933333333333334
 41
0.0
 71
               1
 72
               1
  1
152
  7
ＭＳ Ｐゴシック
 73
               1
 44
1.0
  0
POINT
  5
115
100
AcDbEntity
  8
Defpoints
370
               0
 62
               0
100
AcDbPoint
 10
-30.866654993414954
 20
-222.11249906145341
 30
0.0
  0
POINT
  5
116
100
AcDbEntity
  8
Defpoints
370
               0
 62
               0
100
AcDbPoint
 10
121.18334500660796
 20
-235.61249906145295
 30
0.0
  0
POINT
  5
117
100
AcDbEntity
  8
Defpoints
370
               0
 62
               0
100
AcDbPoint
 10
121.18334500660796
 20
-446.8122996719967
 30
0.0
  0
ENDBLK
  5
118
100
AcDbEntity
  8
DIMENTION
100
AcDbBlockEnd
  0
BLOCK
  5
119
100
AcDbEntity
  8
DIMENTION
100
AcDbBlockBegin
  2
*D21
 70
               1
 10
0.0
 20
0.0
 30
0.0
  3
*D21
  1

  0
LINE
  5
11A
100
AcDbEntity
  8
DIMENTION
370
              -2
 62
               0
100
AcDbLine
 10
-35.866654974788844
 20
-195.61249906145432
 30
0.0
 11
-85.999999962747097
 21
-195.61249906145432
 31
0.0
  0
LINE
  5
11B
100
AcDbEntity
  8
DIMENTION
370
              -2
 62
               0
100
AcDbLine
 10
143.37580166928115
 20
-372.11249906145338
 30
0.0
 11
-85.999999962747097
 21
-372.11249906145338
 31
0.0
  0
LINE
  5
11C
100
AcDbEntity
  8
DIMENTION
370
              -2
 62
               0
100
AcDbLine
 10
-76.0
 20
-195.61249906145432
 30
0.0
 11
-76.0
 21
-372.11249906145338
 31
0.0
  0
LINE
  5
11D
100
AcDbEntity
  8
DIMENTION
370
              -2
 62
               0
100
AcDbLine
 10
-76.0
 20
-195.61249906145432
 30
0.0
 11
-71.746306570155937
 21
-211.48749906145432
 31
0.0
  0
LINE
  5
11E
100
AcDbEntity
  8
DIMENTION
370
              -2
 62
               0
100
AcDbLine
 10
-76.0
 20
-195.61249906145432
 30
0.0
 11
-80.253693429844077
 21
-211.48749906145432
 31
0.0
  0
LINE
  5
11F
100
AcDbEntity
  8
DIMENTION
370
              -2
 62
               0
100
AcDbLine
 10
-76.0
 20
-372.11249906145338
 30
0.0
 11
-80.253693429844077
 21
-356.23749906145338
 31
0.0
  0
LINE
  5
120
100
AcDbEntity
  8
DIMENTION
370
              -2
 62
               0
100
AcDbLine
 10
-76.0
 20
-372.11249906145338
 30
0.0
 11
-71.746306570155923
 21
-356.23749906145338
 31
0.0
  0
MTEXT
  5
121
100
AcDbEntity
  8
DIMENTION
 62
               0
100
AcDbMText
 10
-97.666666664804012
 20
-299.73749906145383
 30
0.0
 40
16.933333333333334
 41
0.0
 71
               1
 72
               1
  1
177
  7
ＭＳ Ｐゴシック
 11
0.0
 21
1.0
 31
0.0
 73
               1
 44
1.0
  0
POINT
  5
122
100
AcDbEntity
  8
Defpoints
370
               0
 62
               0
100
AcDbPoint
 10
148.37580165065469
 20
-372.11249906145338
 30
0.0
  0
POINT
  5
123
100
AcDbEntity
  8
Defpoints
370
               0
 62
               0
100
AcDbPoint
 10
-30.866654993415295
 20
-195.61249906145432
 30
0.0
  0
POINT
  5
124
100
AcDbEntity
  8
Defpoints
370
               0
 62
               0
100
AcDbPoint
 10
-76.0
 20
-195.61249906145432
 30
0.0
  0
ENDBLK
  5
125
100
AcDbEntity
  8
DIMENTION
100
AcDbBlockEnd
  0
BLOCK
  5
126
100
AcDbEntity
  8
DIMENTION
100
AcDbBlockBegin
  2
*D22
 70
               1
 10
0.0
 20
0.0
 30
0.0
  3
*D22
  1

  0
LINE
  5
127
100
AcDbEntity
  8
DIMENTION
370
              -2
 62
               0
100
AcDbLine
 10
426.18334501201514
 20
-336.11249904282943
 30
0.0
 11
426.18334501201514
 21
-366.9999999627471
 31
0.0
  0
LINE
  5
128
100
AcDbEntity
  8
DIMENTION
370
              -2
 62
               0
100
AcDbLine
 10
643.18334501201548
 20
-336.11249904282965
 30
0.0
 11
643.18334501201548
 21
-366.9999999627471
 31
0.0
  0
LINE
  5
129
100
AcDbEntity
  8
DIMENTION
370
              -2
 62
               0
100
AcDbLine
 10
426.18334501201514
 20
-357.0
 30
0.0
 11
643.18334501201548
 21
-357.0
 31
0.0
  0
LINE
  5
12A
100
AcDbEntity
  8
DIMENTION
370
              -2
 62
               0
100
AcDbLine
 10
426.18334501201514
 20
-357.0
 30
0.0
 11
442.05834501201514
 21
-352.74630657015598
 31
0.0
  0
LINE
  5
12B
100
AcDbEntity
  8
DIMENTION
370
              -2
 62
               0
100
AcDbLine
 10
426.18334501201514
 20
-357.0
 30
0.0
 11
442.05834501201514
 21
-361.25369342984413
 31
0.0
  0
LINE
  5
12C
100
AcDbEntity
  8
DIMENTION
370
              -2
 62
               0
100
AcDbLine
 10
643.18334501201548
 20
-357.0
 30
0.0
 11
627.30834501201548
 21
-361.25369342984413
 31
0.0
  0
LINE
  5
12D
100
AcDbEntity
  8
DIMENTION
370
              -2
 62
               0
100
AcDbLine
 10
643.18334501201548
 20
-357.0
 30
0.0
 11
627.30834501201548
 21
-352.74630657015598
 31
0.0
  0
MTEXT
  5
12E
100
AcDbEntity
  8
DIMENTION
 62
               0
100
AcDbMText
 10
518.80834501201537
 20
-335.33333333519602
 30
0.0
 40
16.933333333333334
 41
0.0
 71
               1
 72
               1
  1
217
  7
ＭＳ Ｐゴシック
 73
               1
 44
1.0
  0
POINT
  5
12F
100
AcDbEntity
  8
Defpoints
370
               0
 62
               0
100
AcDbPoint
 10
643.18334501201548
 20
-331.11249906145611
 30
0.0
  0
POINT
  5
130
100
AcDbEntity
  8
Defpoints
370
               0
 62
               0
100
AcDbPoint
 10
426.18334501201514
 20
-331.11249906145588
 30
0.0
  0
POINT
  5
131
100
AcDbEntity
  8
Defpoints
370
               0
 62
               0
100
AcDbPoint
 10
426.18334501201514
 20
-357.0
 30
0.0
  0
ENDBLK
  5
132
100
AcDbEntity
  8
DIMENTION
100
AcDbBlockEnd
  0
BLOCK
  5
133
100
AcDbEntity
  8
DIMENTION
100
AcDbBlockBegin
  2
*D23
 70
               1
 10
0.0
 20
0.0
 30
0.0
  3
*D23
  1

  0
LINE
  5
134
100
AcDbEntity
  8
DIMENTION
370
              -2
 62
               0
100
AcDbLine
 10
421.18334503064159
 20
-331.11249906145588
 30
0.0
 11
407.20000003725289
 21
-331.11249906145588
 31
0.0
  0
LINE
  5
135
100
AcDbEntity
  8
DIMENTION
370
              -2
 62
               0
100
AcDbLine
 10
421.18334503064159
 20
-372.11249906145338
 30
0.0
 11
407.20000003725289
 21
-372.11249906145338
 31
0.0
  0
LINE
  5
136
100
AcDbEntity
  8
DIMENTION
370
              -2
 62
               0
100
AcDbLine
 10
417.19999999999999
 20
-331.11249906145588
 30
0.0
 11
417.19999999999999
 21
-372.11249906145338
 31
0.0
  0
LINE
  5
137
100
AcDbEntity
  8
DIMENTION
370
              -2
 62
               0
100
AcDbLine
 10
417.19999999999999
 20
-331.11249906145588
 30
0.0
 11
421.45369342984407
 21
-346.98749906145588
 31
0.0
  0
LINE
  5
138
100
AcDbEntity
  8
DIMENTION
370
              -2
 62
               0
100
AcDbLine
 10
417.19999999999999
 20
-331.11249906145588
 30
0.0
 11
412.94630657015591
 21
-346.98749906145588
 31
0.0
  0
LINE
  5
139
100
AcDbEntity
  8
DIMENTION
370
              -2
 62
               0
100
AcDbLine
 10
417.19999999999999
 20
-372.11249906145338
 30
0.0
 11
412.94630657015591
 21
-356.23749906145338
 31
0.0
  0
LINE
  5
13A
100
AcDbEntity
  8
DIMENTION
370
              -2
 62
               0
100
AcDbLine
 10
417.19999999999999
 20
-372.11249906145338
 30
0.0
 11
421.45369342984407
 21
-356.23749906145338
 31
0.0
  0
MTEXT
  5
13B
100
AcDbEntity
  8
DIMENTION
 62
               0
100
AcDbMText
 10
395.53333333519601
 20
-362.195832394788
 30
0.0
 40
16.933333333333334
 41
0.0
 71
               1
 72
               1
  1
41
  7
ＭＳ Ｐゴシック
 11
0.0
 21
1.0
 31
0.0
 73
               1
 44
1.0
  0
POINT
  5
13C
100
AcDbEntity
  8
Defpoints
370
               0
 62
               0
100
AcDbPoint
 10
426.18334501201514
 20
-372.11249906145338
 30
0.0
  0
POINT
  5
13D
100
AcDbEntity
  8
Defpoints
370
               0
 62
               0
100
AcDbPoint
 10
426.18334501201514
 20
-331.11249906145588
 30
0.0
  0
POINT
  5
13E
100
AcDbEntity
  8
Defpoints
370
               0
 62
               0
100
AcDbPoint
 10
417.19999999999999
 20
-331.11249906145588
 30
0.0
  0
ENDBLK
  5
13F
100
AcDbEntity
  8
DIMENTION
100
AcDbBlockEnd
  0
BLOCK
  5
140
100
AcDbEntity
  8
CENTER
100
AcDbBlockBegin
  2
*U24
 70
               1
 10
0.0
 20
0.0
 30
0.0
  3
*U24
  1

  0
LINE
  5
141
100
AcDbEntity
  8
CENTER
 62
               0
100
AcDbLine
 10
-553.86315460540379
 20
-207.08354341437962
 30
0.0
 11
-548.86315462403024
 21
-207.08354341437962
 31
0.0
  0
LINE
  5
142
100
AcDbEntity
  8
CENTER
 62
               0
100
AcDbLine
 10
-551.36315461471702
 20
-209.58354340506639
 30
0.0
 11
-551.36315461471702
 21
-204.58354342369284
 31
0.0
  0
LINE
  5
143
100
AcDbEntity
  8
CENTER
 62
               0
100
AcDbLine
 10
-637.76315463986282
 20
-207.08354341437962
 30
0.0
 11
-558.86315458677734
 21
-207.08354341437962
 31
0.0
  0
LINE
  5
144
100
AcDbEntity
  8
CENTER
 62
               0
100
AcDbLine
 10
-543.8631546426567
 20
-207.08354341437962
 30
0.0
 11
-464.96315458957122
 21
-207.08354341437962
 31
0.0
  0
LINE
  5
145
100
AcDbEntity
  8
CENTER
 62
               0
100
AcDbLine
 10
-551.36315461471702
 20
-120.68354338923382
 30
0.0
 11
-551.36315461471702
 21
-199.5835434423193
 31
0.0
  0
LINE
  5
146
100
AcDbEntity
  8
CENTER
 62
               0
100
AcDbLine
 10
-551.36315461471702
 20
-214.58354338643994
 30
0.0
 11
-551.36315461471702
 21
-293.48354343952542
 31
0.0
  0
ENDBLK
  5
147
100
AcDbEntity
  8
CENTER
100
AcDbBlockEnd
  0
BLOCK
  5
148
100
AcDbEntity
  8
DIMENTION
100
AcDbBlockBegin
  2
*D25
 70
               1
 10
0.0
 20
0.0
 30
0.0
  3
*D25
  1

  0
LINE
  5
149
100
AcDbEntity
  8
DIMENTION
370
              -2
 62
               0
100
AcDbLine
 10
-589.31665013635495
 20
-9.0000000186264515
 30
0.0
 11
-589.31665013635495
 21
1.499999962747097
 31
0.0
  0
LINE
  5
14A
100
AcDbEntity
  8
DIMENTION
370
              -2
 62
               0
100
AcDbLine
 10
-564.31665013636848
 20
-48.676672491595497
 30
0.0
 11
-564.31665013636848
 21
1.499999962747097
 31
0.0
  0
LINE
  5
14B
100
AcDbEntity
  8
DIMENTION
370
              -2
 62
               0
100
AcDbLine
 10
-564.31665013636848
 20
-8.5
 30
0.0
 11
-589.31665013635495
 21
-8.5
 31
0.0
  0
LINE
  5
14C
100
AcDbEntity
  8
DIMENTION
370
              -2
 62
               0
100
AcDbLine
 10
-589.31665013635495
 20
-8.5
 30
0.0
 11
-619.31665014287421
 21
-8.5
 31
0.0
  0
LINE
  5
14D
100
AcDbEntity
  8
DIMENTION
370
              -2
 62
               0
100
AcDbLine
 10
-589.31665013635495
 20
-8.5
 30
0.0
 11
-605.19165013635495
 21
-12.753693429844077
 31
0.0
  0
LINE
  5
14E
100
AcDbEntity
  8
DIMENTION
370
              -2
 62
               0
100
AcDbLine
 10
-589.31665013635495
 20
-8.5
 30
0.0
 11
-605.19165013635495
 21
-4.2463065701559231
 31
0.0
  0
LINE
  5
14F
100
AcDbEntity
  8
DIMENTION
370
              -2
 62
               0
100
AcDbLine
 10
-564.31665013636848
 20
-8.5
 30
0.0
 11
-534.31665012984922
 21
-8.5
 31
0.0
  0
LINE
  5
150
100
AcDbEntity
  8
DIMENTION
370
              -2
 62
               0
100
AcDbLine
 10
-564.31665013636848
 20
-8.5
 30
0.0
 11
-548.44165013636848
 21
-4.2463065701559231
 31
0.0
  0
LINE
  5
151
100
AcDbEntity
  8
DIMENTION
370
              -2
 62
               0
100
AcDbLine
 10
-564.31665013636848
 20
-8.5
 30
0.0
 11
-548.44165013636848
 21
-12.753693429844077
 31
0.0
  0
MTEXT
  5
152
100
AcDbEntity
  8
DIMENTION
 62
               0
100
AcDbMText
 10
-587.39998346969514
 20
13.166666664804019
 30
0.0
 40
16.933333333333334
 41
0.0
 71
               1
 72
               1
  1
25
  7
ＭＳ Ｐゴシック
 73
               1
 44
1.0
  0
POINT
  5
153
100
AcDbEntity
  8
Defpoints
370
               0
 62
               0
100
AcDbPoint
 10
-564.31665013636848
 20
-53.676672472969045
 30
0.0
  0
POINT
  5
154
100
AcDbEntity
  8
Defpoints
370
               0
 62
               0
100
AcDbPoint
 10
-589.31665013635495
 20
-14.0
 30
0.0
  0
POINT
  5
155
100
AcDbEntity
  8
Defpoints
370
               0
 62
               0
100
AcDbPoint
 10
-589.31665013635495
 20
-8.5
 30
0.0
  0
ENDBLK
  5
156
100
AcDbEntity
  8
DIMENTION
100
AcDbBlockEnd
  0
ENDSEC
  0
SECTION
  2
ENTITIES
  0
LINE
  5
157
100
AcDbEntity
  8
FRAME
100
AcDbLine
 10
-1025.7534955216515
 20
-636.59312908373511
 30
0.0
 11
-1025.7534955216515
 21
723.40687091626478
 31
0.0
  0
LINE
  5
158
100
AcDbEntity
  8
FRAME
100
AcDbLine
 10
999.24650447834847
 20
-636.59312908373511
 30
0.0
 11
-1025.7534955216515
 21
-636.59312908373511
 31
0.0
  0
LINE
  5
159
100
AcDbEntity
  8
FRAME
100
AcDbLine
 10
999.24650447834847
 20
723.40687091626478
 30
0.0
 11
999.24650447834847
 21
-636.59312908373511
 31
0.0
  0
LINE
  5
15A
100
AcDbEntity
  8
FRAME
100
AcDbLine
 10
-1025.7534955216515
 20
723.40687091626478
 30
0.0
 11
999.24650447834847
 21
723.40687091626478
 31
0.0
  0
LINE
  5
15B
100
AcDbEntity
  8
OBJECT
100
AcDbLine
 10
619.12650447834847
 20
-636.59312908373511
 30
0.0
 11
619.12650447834847
 21
-566.59312908373511
 31
0.0
  0
LINE
  5
15C
100
AcDbEntity
  8
OBJECT
100
AcDbLine
 10
509.12650447834847
 20
-636.59312908373511
 30
0.0
 11
509.12650447834847
 21
-566.59312908373511
 31
0.0
  0
LINE
  5
15D
100
AcDbEntity
  8
OBJECT
100
AcDbLine
 10
209.12650447834852
 20
-636.59312908373511
 30
0.0
 11
209.12650447834852
 21
-566.59312908373511
 31
0.0
  0
LINE
  5
15E
100
AcDbEntity
  8
OBJECT
100
AcDbLine
 10
-350.75349552165142
 20
-636.59312908373511
 30
0.0
 11
-350.75349552165142
 21
-566.59312908373511
 31
0.0
  0
MTEXT
  5
15F
100
AcDbEntity
  8
OBJECT
100
AcDbMText
 10
-338.37349552165142
 20
-569.15812908373516
 30
0.0
 40
14.11112
 41
109.36099999999999
 71
               1
 72
               1
  1
品　名
  7
ＭＳ Ｐゴシック
 73
               1
 44
1.0
  0
MTEXT
  5
160
100
AcDbEntity
  8
OBJECT
100
AcDbMText
 10
219.12650447834852
 20
-571.65812908373516
 30
0.0
 40
14.11112
 41
0.0
 71
               1
 72
               1
  1
形　式
  7
ＭＳ Ｐゴシック
 73
               1
 44
1.0
  0
MTEXT
  5
161
100
AcDbEntity
  8
OBJECT
100
AcDbMText
 10
521.62650447834847
 20
-571.65812908373516
 30
0.0
 40
14.11112
 41
0.0
 71
               1
 72
               1
  1
尺　度
  7
ＭＳ Ｐゴシック
 73
               1
 44
1.0
  0
MTEXT
  5
162
100
AcDbEntity
  8
OBJECT
100
AcDbMText
 10
631.62650447834847
 20
-571.65812908373516
 30
0.0
 40
14.11112
 41
0.0
 71
               1
 72
               1
  1
図　番
  7
ＭＳ Ｐゴシック
 73
               1
 44
1.0
  0
LINE
  5
163
100
AcDbEntity
  8
OBJECT
100
AcDbLine
 10
-560.75349552165142
 20
-636.59312908373511
 30
0.0
 11
-560.75349552165142
 21
-566.59312908373511
 31
0.0
  0
MTEXT
  5
164
100
AcDbEntity
  8
OBJECT
100
AcDbMText
 10
544.60250447834846
 20
-599.10012908373517
 30
0.0
 40
19.755520000000001
 41
0.0
 71
               1
 72
               1
  1
1/5
  7
ＭＳ Ｐゴシック
 73
               1
 44
1.0
  0
LINE
  5
165
100
AcDbEntity
  8
FRAME
100
AcDbLine
 10
-1025.7534955216515
 20
-566.59312908373511
 30
0.0
 11
999.24650447834847
 21
-566.59312908373511
 31
0.0
  0
MTEXT
  5
166
100
AcDbEntity
  8
OBJECT
100
AcDbMText
 10
-555.87349552165142
 20
-570.64752908373509
 30
0.0
 40
14.11112
 41
0.0
 71
               1
 72
               1
  1
検  図
  7
ＭＳ Ｐゴシック
 73
               1
 44
1.0
  0
MTEXT
  5
167
100
AcDbEntity
  8
OBJECT
100
AcDbMText
 10
-555.87349552165142
 20
-593.18812908373513
 30
0.0
 40
14.11112
 41
0.0
 71
               1
 72
               1
  1
担  当
  7
ＭＳ Ｐゴシック
 73
               1
 44
1.0
  0
MTEXT
  5
168
100
AcDbEntity
  8
OBJECT
100
AcDbMText
 10
-555.87349552165142
 20
-615.62312908373519
 30
0.0
 40
14.11112
 41
0.0
 71
               1
 72
               1
  1
年月日
  7
ＭＳ Ｐゴシック
 73
               1
 44
1.0
  0
MTEXT
  5
169
100
AcDbEntity
  8
TEXT
100
AcDbMText
 10
-7.2541900846403351
 20
-588.55212908373517
 30
0.0
 40
25.399999999999999
 41
0.0
 71
               1
 72
               1
  1
箸乾燥機
  7
ＭＳ Ｐゴシック
 73
               1
 44
1.0
  0
LINE
  5
16A
100
AcDbEntity
  8
OBJECT
100
AcDbLine
 10
-560.75349552165142
 20
-591.06312908373513
 30
0.0
 11
-350.75349552165142
 21
-591.06312908373513
 31
0.0
  0
LINE
  5
16B
100
AcDbEntity
  8
OBJECT
100
AcDbLine
 10
-560.75349552165142
 20
-613.25812908373518
 30
0.0
 11
-350.75349552165142
 21
-613.25812908373518
 31
0.0
  0
INSERT
  5
16C
100
AcDbEntity
  8
FRAME
100
AcDbBlockReference
  2
*U6
 10
-12.953495521651462
 20
67.006870916264774
 30
0.0
  0
MTEXT
  5
16D
100
AcDbEntity
  8
DIMENTION
100
AcDbMText
 10
310.21003810248908
 20
-590.38334631759847
 30
0.0
 40
28.222222222222225
 41
0.0
 71
               1
 72
               1
  1
HK31A
  7
ＭＳ Ｐゴシック
 73
               1
 44
1.0
  0
MTEXT
  5
16E
100
AcDbEntity
  8
DIMENTION
100
AcDbMText
 10
-454.24103968772681
 20
-594.32646525543066
 30
0.0
 40
14.111111111111112
 41
0.0
 71
               1
 72
               1
  1
吉田
  7
ＭＳ Ｐゴシック
 73
               1
 44
1.0
  0
MTEXT
  5
16F
100
AcDbEntity
  8
DIMENTION
100
AcDbMText
 10
-471.24103968772681
 20
-616.2431319220974
 30
0.0
 40
14.111111111111112
 41
0.0
 71
               1
 72
               1
  1
2020.04.01
  7
ＭＳ Ｐゴシック
 73
               1
 44
1.0
  0
MTEXT
  5
170
100
AcDbEntity
  8
OBJECT
100
AcDbMText
 10
-455.15195703634731
 20
-570.59312908373511
 30
0.0
 40
14.111111111111112
 41
0.0
 71
               1
 72
               1
  1
大谷
  7
ＭＳ Ｐゴシック
 73
               1
 44
1.0
  0
LINE
  5
171
100
AcDbEntity
  8
OBJECT
100
AcDbLine
 10
-489.81665013635222
 20
-54.762498060073682
 30
0.0
 11
-489.81665013635222
 21
-39.762498060073682
 31
0.0
  0
LINE
  5
172
100
AcDbEntity
  8
OBJECT
100
AcDbLine
 10
-688.81665013635211
 20
-54.762498060073
 30
0.0
 11
-688.81665013635211
 21
-39.762498060073
 31
0.0
  0
LINE
  5
173
100
AcDbEntity
  8
OBJECT
100
AcDbLine
 10
-489.31665013635222
 20
-39.555726215080455
 30
0.0
 11
-489.31665013635234
 21
-54.969269949232427
 31
0.0
  0
LINE
  5
174
100
AcDbEntity
  8
OBJECT
100
AcDbLine
 10
-487.81665013635222
 20
-39.555726215080455
 30
0.0
 11
-487.81665013635234
 21
-54.969269949232427
 31
0.0
  0
LINE
  5
175
100
AcDbEntity
  8
OBJECT
100
AcDbLine
 10
-690.81665013635222
 20
-39.555726215079318
 30
0.0
 11
-690.81665013635234
 21
-54.96926994923129
 31
0.0
  0
LINE
  5
176
100
AcDbEntity
  8
OBJECT
100
AcDbLine
 10
-689.31665013635222
 20
-39.555726215079318
 30
0.0
 11
-689.31665013635234
 21
-54.96926994923129
 31
0.0
  0
LINE
  5
177
100
AcDbEntity
  8
OBJECT
100
AcDbLine
 10
-487.81665013635012
 20
-27.262498060073227
 30
0.0
 11
-489.31665013635012
 21
-27.262498060073227
 31
0.0
  0
LINE
  5
178
100
AcDbEntity
  8
OBJECT
100
AcDbLine
 10
-489.31665013635012
 20
-27.262498060073227
 30
0.0
 11
-489.31665013635222
 21
-39.555726215080455
 31
0.0
  0
LINE
  5
179
100
AcDbEntity
  8
OBJECT
100
AcDbLine
 10
-487.81665013635012
 20
-27.262498060073227
 30
0.0
 11
-487.81665013635222
 21
-39.555726215080455
 31
0.0
  0
LINE
  5
17A
100
AcDbEntity
  8
OBJECT
100
AcDbLine
 10
-689.31665013635018
 20
-27.26249806007209
 30
0.0
 11
-690.81665013635018
 21
-27.26249806007209
 31
0.0
  0
LINE
  5
17B
100
AcDbEntity
  8
OBJECT
100
AcDbLine
 10
-690.81665013635018
 20
-27.26249806007209
 30
0.0
 11
-690.81665013635222
 21
-39.555726215079318
 31
0.0
  0
LINE
  5
17C
100
AcDbEntity
  8
OBJECT
100
AcDbLine
 10
-689.31665013635018
 20
-27.26249806007209
 30
0.0
 11
-689.31665013635222
 21
-39.555726215079318
 31
0.0
  0
LINE
  5
17D
100
AcDbEntity
  8
OBJECT
100
AcDbLine
 10
-487.81665013635035
 20
-67.262498060073455
 30
0.0
 11
-489.31665013635035
 21
-67.262498060073227
 31
0.0
  0
LINE
  5
17E
100
AcDbEntity
  8
OBJECT
100
AcDbLine
 10
-489.31665013635234
 20
-54.969269949232427
 30
0.0
 11
-489.31665013635035
 21
-67.262498060073227
 31
0.0
  0
LINE
  5
17F
100
AcDbEntity
  8
OBJECT
100
AcDbLine
 10
-487.81665013635234
 20
-54.969269949232427
 30
0.0
 11
-487.81665013635035
 21
-67.262498060073455
 31
0.0
  0
LINE
  5
180
100
AcDbEntity
  8
OBJECT
100
AcDbLine
 10
-689.3166501363504
 20
-67.26249806007209
 30
0.0
 11
-690.8166501363504
 21
-67.26249806007209
 31
0.0
  0
LINE
  5
181
100
AcDbEntity
  8
OBJECT
100
AcDbLine
 10
-690.81665013635234
 20
-54.96926994923129
 30
0.0
 11
-690.8166501363504
 21
-67.26249806007209
 31
0.0
  0
LINE
  5
182
100
AcDbEntity
  8
OBJECT
100
AcDbLine
 10
-689.31665013635234
 20
-54.96926994923129
 30
0.0
 11
-689.3166501363504
 21
-67.26249806007209
 31
0.0
  0
CIRCLE
  5
183
100
AcDbEntity
  8
OBJECT
100
AcDbCircle
 10
-499.31665013634949
 20
-61.262498060073
 30
0.0
 40
2.1000000000000227
  0
CIRCLE
  5
184
100
AcDbEntity
  8
OBJECT
100
AcDbCircle
 10
-499.31665013634932
 20
-33.262498060073
 30
0.0
 40
2.1000000000000227
  0
CIRCLE
  5
185
100
AcDbEntity
  8
OBJECT
100
AcDbCircle
 10
-679.31665013634949
 20
-33.26249806007209
 30
0.0
 40
2.1000000000000227
  0
CIRCLE
  5
186
100
AcDbEntity
  8
OBJECT
100
AcDbCircle
 10
-679.31665013634961
 20
-61.26249806007209
 30
0.0
 40
2.1000000000000227
  0
LINE
  5
187
100
AcDbEntity
  8
OBJECT
100
AcDbLine
 10
-489.31665013634995
 20
-67.262498060073227
 30
0.0
 11
-689.31665013634995
 21
-67.26249806007209
 31
0.0
  0
LINE
  5
188
100
AcDbEntity
  8
OBJECT
100
AcDbLine
 10
-489.31665013634972
 20
-27.262498060073227
 30
0.0
 11
-689.31665013634972
 21
-27.26249806007209
 31
0.0
  0
ARC
  5
189
100
AcDbEntity
  8
OBJECT
100
AcDbCircle
 10
-465.5166501363496
 20
-28.462498060073045
 30
0.0
 40
1.1999999999999886
100
AcDbArc
 50
0.0
 51
90.0
  0
CIRCLE
  5
18A
100
AcDbEntity
  8
OBJECT
100
AcDbCircle
 10
-679.31665013634949
 20
-33.262498060071863
 30
0.0
 40
2.0
  0
CIRCLE
  5
18B
100
AcDbEntity
  8
OBJECT
100
AcDbCircle
 10
-499.31665013634932
 20
-33.262498060073
 30
0.0
 40
2.0
  0
CIRCLE
  5
18C
100
AcDbEntity
  8
OBJECT
100
AcDbCircle
 10
-499.31665013634949
 20
-61.262498060073
 30
0.0
 40
2.0
  0
CIRCLE
  5
18D
100
AcDbEntity
  8
OBJECT
100
AcDbCircle
 10
-679.31665013634961
 20
-61.262498060071863
 30
0.0
 40
2.0
  0
LINE
  5
18E
100
AcDbEntity
  8
OBJECT
100
AcDbLine
 10
-713.11665013634956
 20
-27.262498060071636
 30
0.0
 11
-690.81665013635018
 21
-27.262498060071863
 31
0.0
  0
LINE
  5
18F
100
AcDbEntity
  8
OBJECT
100
AcDbLine
 10
-487.81665013635012
 20
-27.262498060073
 30
0.0
 11
-465.5166501363496
 21
-27.262498060073
 31
0.0
  0
LINE
  5
190
100
AcDbEntity
  8
OBJECT
100
AcDbLine
 10
-464.31665013634955
 20
-28.462498060073045
 30
0.0
 11
-464.31665013635063
 21
-212.1124980600961
 31
0.0
  0
LINE
  5
191
100
AcDbEntity
  8
OBJECT
100
AcDbLine
 10
-714.31665013635063
 20
-212.11249806009792
 30
0.0
 11
-714.31665013634961
 21
-28.462498060071681
 31
0.0
  0
ARC
  5
192
100
AcDbEntity
  8
OBJECT
100
AcDbCircle
 10
-713.11665013634956
 20
-28.462498060071681
 30
0.0
 40
1.2000000000000455
100
AcDbArc
 50
90.0
 51
180.0
  0
LINE
  5
193
100
AcDbEntity
  8
OBJECT
100
AcDbLine
 10
-717.81665013637848
 20
-212.11249806012384
 30
0.0
 11
-717.81665013637848
 21
-211.11249806009792
 31
0.0
  0
ARC
  5
194
100
AcDbEntity
  8
OBJECT
100
AcDbCircle
 10
-716.81665013637962
 20
-24.612498060099966
 30
0.0
 40
0.9999999999999879
100
AcDbArc
 50
123.46304096605796
 51
146.53726831262048
  0
ARC
  5
195
100
AcDbEntity
  8
OBJECT
100
AcDbCircle
 10
-461.81665013637962
 20
-24.612498060098375
 30
0.0
 40
1.0000000000000444
100
AcDbArc
 50
33.462731685269453
 51
56.536959031822931
  0
LINE
  5
196
100
AcDbEntity
  8
OBJECT
100
AcDbLine
 10
-460.81665013637848
 20
-211.11249806009656
 30
0.0
 11
-460.81665013637848
 21
-212.11249806009656
 31
0.0
  0
LINE
  5
197
100
AcDbEntity
  8
OBJECT
100
AcDbLine
 10
-718.03380742388038
 20
-23.112498060097238
 30
0.0
 11
-713.72069315873978
 21
-27.42561232523795
 31
0.0
  0
LINE
  5
198
100
AcDbEntity
  8
OBJECT
100
AcDbLine
 10
-464.91260711396683
 20
-27.425612325234994
 30
0.0
 11
-460.59949284882919
 21
-23.112498060097238
 31
0.0
  0
LINE
  5
199
100
AcDbEntity
  8
OBJECT
100
AcDbLine
 10
-460.31665013635461
 20
-23.112498060097238
 30
0.0
 11
-460.31665013635461
 21
-23.395340772571814
 31
0.0
  0
LINE
  5
19A
100
AcDbEntity
  8
OBJECT
100
AcDbLine
 10
-459.31665013635484
 20
-23.112498060097238
 30
0.0
 11
-459.31665013635484
 21
-210.11249806009747
 31
0.0
  0
LINE
  5
19B
100
AcDbEntity
  8
OBJECT
100
AcDbLine
 10
-460.31665013635484
 20
-210.11249806009747
 30
0.0
 11
-459.31665013635484
 21
-210.11249806009747
 31
0.0
  0
LINE
  5
19C
100
AcDbEntity
  8
OBJECT
100
AcDbLine
 10
-714.02899595934491
 20
-27.682994949581968
 30
0.0
 11
-718.31665013635507
 21
-23.395340772571814
 31
0.0
  0
LINE
  5
19D
100
AcDbEntity
  8
OBJECT
100
AcDbLine
 10
-718.31665013635495
 20
-210.11249806009769
 30
0.0
 11
-714.31665013635063
 21
-210.11249806009769
 31
0.0
  0
LINE
  5
19E
100
AcDbEntity
  8
OBJECT
100
AcDbLine
 10
-460.31665013635461
 20
-23.395340772571814
 30
0.0
 11
-464.60430431335976
 21
-27.682994949576965
 31
0.0
  0
LINE
  5
19F
100
AcDbEntity
  8
OBJECT
100
AcDbLine
 10
-464.31665013635063
 20
-210.11249806009747
 30
0.0
 11
-460.31665013635484
 21
-210.11249806009747
 31
0.0
  0
LINE
  5
1A0
100
AcDbEntity
  8
OBJECT
100
AcDbLine
 10
-718.31665013635507
 20
-23.395340772571814
 30
0.0
 11
-718.31665013635507
 21
-23.112498060097238
 31
0.0
  0
LINE
  5
1A1
100
AcDbEntity
  8
OBJECT
100
AcDbLine
 10
-719.31665013635495
 20
-210.11249806009769
 30
0.0
 11
-718.31665013635495
 21
-210.11249806009769
 31
0.0
  0
LINE
  5
1A2
100
AcDbEntity
  8
OBJECT
100
AcDbLine
 10
-719.31665013635495
 20
-210.11249806009769
 30
0.0
 11
-719.31665013635495
 21
-23.112498060097238
 31
0.0
  0
ARC
  5
1A3
100
AcDbEntity
  8
OBJECT
100
AcDbCircle
 10
-460.31665013635484
 20
-23.112498060097238
 30
0.0
 40
1.0
100
AcDbArc
 50
0.0
 51
90.0
  0
ARC
  5
1A4
100
AcDbEntity
  8
OBJECT
100
AcDbCircle
 10
-718.31665013635495
 20
-23.112498060097238
 30
0.0
 40
1.0
100
AcDbArc
 50
90.0
 51
180.0
  0
LINE
  5
1A5
100
AcDbEntity
  8
OBJECT
100
AcDbLine
 10
-460.59949284882919
 20
-23.112498060097238
 30
0.0
 11
-460.31665013635461
 21
-23.112498060097238
 31
0.0
  0
LINE
  5
1A6
100
AcDbEntity
  8
OBJECT
100
AcDbLine
 10
-718.31665013635507
 20
-23.112498060097238
 30
0.0
 11
-718.03380742388038
 21
-23.112498060097238
 31
0.0
  0
LINE
  5
1A7
100
AcDbEntity
  8
OBJECT
100
AcDbLine
 10
-718.31665013635495
 20
-22.112498060097238
 30
0.0
 11
-460.31665013635484
 21
-22.112498060097238
 31
0.0
  0
LINE
  5
1A8
100
AcDbEntity
  8
OBJECT
100
AcDbLine
 10
-719.31665013635495
 20
-212.11249806009792
 30
0.0
 11
-719.31665013635495
 21
-210.11249806009769
 31
0.0
  0
LINE
  5
1A9
100
AcDbEntity
  8
OBJECT
100
AcDbLine
 10
-718.31665013635484
 20
-212.11249806009792
 30
0.0
 11
-718.31665013635484
 21
-210.11249806009769
 31
0.0
  0
LINE
  5
1AA
100
AcDbEntity
  8
OBJECT
100
AcDbLine
 10
-459.31665013635484
 20
-210.11249806009747
 30
0.0
 11
-459.31665013635484
 21
-212.1124980600961
 31
0.0
  0
LINE
  5
1AB
100
AcDbEntity
  8
OBJECT
100
AcDbLine
 10
-460.31665013635484
 20
-210.11249806009747
 30
0.0
 11
-460.31665013635484
 21
-212.1124980600961
 31
0.0
  0
CIRCLE
  5
1AC
100
AcDbEntity
  8
OBJECT
100
AcDbCircle
 10
-466.31665013635177
 20
-297.11249806009653
 30
0.0
 40
2.1999999999999886
  0
CIRCLE
  5
1AD
100
AcDbEntity
  8
OBJECT
100
AcDbCircle
 10
-712.31665013635188
 20
-297.11249806009789
 30
0.0
 40
2.2000000000000455
  0
ARC
  5
1AE
100
AcDbEntity
  8
OBJECT
100
AcDbCircle
 10
-465.31665013635217
 20
-237.6124980600961
 30
0.0
 40
5.0
100
AcDbArc
 50
0.0
 51
4.8225204719094563
  0
LINE
  5
1AF
100
AcDbEntity
  8
OBJECT
100
AcDbLine
 10
-460.31665013635165
 20
-327.61249806009607
 30
0.0
 11
-460.31665013635222
 21
-237.6124980600961
 31
0.0
  0
LINE
  5
1B0
100
AcDbEntity
  8
OBJECT
100
AcDbLine
 10
-718.31665013635165
 20
-327.61249806009789
 30
0.0
 11
-718.31665013635211
 21
-237.61249806009792
 31
0.0
  0
ARC
  5
1B1
100
AcDbEntity
  8
OBJECT
100
AcDbCircle
 10
-713.31665013635211
 20
-237.61249806009792
 30
0.0
 40
5.0000000000000568
100
AcDbArc
 50
173.40201743042891
 51
179.99999390283472
  0
CIRCLE
  5
1B2
100
AcDbEntity
  8
OBJECT
100
AcDbCircle
 10
-712.31665013635211
 20
-252.11249806009792
 30
0.0
 40
2.2000000000000455
  0
CIRCLE
  5
1B3
100
AcDbEntity
  8
OBJECT
100
AcDbCircle
 10
-466.31665013635211
 20
-252.11249806009656
 30
0.0
 40
2.1999999999999886
  0
LINE
  5
1B4
100
AcDbEntity
  8
OBJECT
100
AcDbLine
 10
-718.31665013635165
 20
-328.61249806009789
 30
0.0
 11
-460.31665013635165
 21
-328.61249806009607
 31
0.0
  0
LINE
  5
1B5
100
AcDbEntity
  8
OBJECT
100
AcDbLine
 10
-460.31665013635165
 20
-328.61249806009607
 30
0.0
 11
-460.31665013635165
 21
-327.61249806009607
 31
0.0
  0
LINE
  5
1B6
100
AcDbEntity
  8
OBJECT
100
AcDbLine
 10
-718.31665013635165
 20
-328.61249806009789
 30
0.0
 11
-718.31665013635165
 21
-327.61249806009789
 31
0.0
  0
LINE
  5
1B7
100
AcDbEntity
  8
OBJECT
100
AcDbLine
 10
-459.31665013635075
 20
-235.6124980600961
 30
0.0
 11
-459.31665013635092
 21
-213.6124980600961
 31
0.0
  0
LINE
  5
1B8
100
AcDbEntity
  8
OBJECT
100
AcDbLine
 10
-719.31665013635086
 20
-213.61249806012384
 30
0.0
 11
-719.31665013635075
 21
-235.61249806009837
 31
0.0
  0
LINE
  5
1B9
100
AcDbEntity
  8
OBJECT
100
AcDbLine
 10
-459.31665013635075
 20
-235.6124980600961
 30
0.0
 11
-459.31665013635075
 21
-237.1124980600961
 31
0.0
  0
LINE
  5
1BA
100
AcDbEntity
  8
OBJECT
100
AcDbLine
 10
-459.31665013635075
 20
-237.1124980600961
 30
0.0
 11
-719.31665013635086
 21
-237.11249806009792
 31
0.0
  0
LINE
  5
1BB
100
AcDbEntity
  8
OBJECT
100
AcDbLine
 10
-719.31665013635086
 20
-237.11249806009792
 30
0.0
 11
-719.31665013635075
 21
-235.61249806009837
 31
0.0
  0
LINE
  5
1BC
100
AcDbEntity
  8
OBJECT
100
AcDbLine
 10
-719.31665013635097
 20
-212.11249806009792
 30
0.0
 11
-459.31665013635103
 21
-212.1124980600961
 31
0.0
  0
LINE
  5
1BD
100
AcDbEntity
  8
OBJECT
100
AcDbLine
 10
-459.31665013635103
 20
-212.1124980600961
 30
0.0
 11
-459.31665013635092
 21
-213.6124980600961
 31
0.0
  0
LINE
  5
1BE
100
AcDbEntity
  8
OBJECT
100
AcDbLine
 10
-719.31665013635086
 20
-213.61249806012384
 30
0.0
 11
-719.31665013635097
 21
-212.11249806009792
 31
0.0
  0
LINE
  5
1BF
100
AcDbEntity
  8
OBJECT
100
AcDbLine
 10
-717.8166501363537
 20
-211.11249806009792
 30
0.0
 11
-717.3166501363537
 21
-211.11249806009792
 31
0.0
  0
LINE
  5
1C0
100
AcDbEntity
  8
OBJECT
100
AcDbLine
 10
-717.8166501363537
 20
-210.11249806009769
 30
0.0
 11
-717.8166501363537
 21
-211.11249806009792
 31
0.0
  0
ARC
  5
1C1
100
AcDbEntity
  8
OBJECT
100
AcDbCircle
 10
-715.81665013635484
 20
-25.61249806009792
 30
0.0
 40
2.0000000000000147
100
AcDbArc
 50
129.26082952272026
 51
140.73938810383331
  0
ARC
  5
1C2
100
AcDbEntity
  8
OBJECT
100
AcDbCircle
 10
-462.81665013635461
 20
-25.612498060096556
 30
0.0
 40
2.0000000000000817
100
AcDbArc
 50
39.260611896146258
 51
50.73917047725638
  0
LINE
  5
1C3
100
AcDbEntity
  8
OBJECT
100
AcDbLine
 10
-460.81665013635347
 20
-211.11249806009656
 30
0.0
 11
-460.81665013635347
 21
-210.11249806009747
 31
0.0
  0
LINE
  5
1C4
100
AcDbEntity
  8
OBJECT
100
AcDbLine
 10
-461.31665013635376
 20
-211.11249806009656
 30
0.0
 11
-460.81665013635347
 21
-211.11249806009656
 31
0.0
  0
LINE
  5
1C5
100
AcDbEntity
  8
OBJECT
100
AcDbLine
 10
-461.3166501363537
 20
-212.11249806009656
 30
0.0
 11
-461.31665013635376
 21
-211.11249806009656
 31
0.0
  0
LINE
  5
1C6
100
AcDbEntity
  8
OBJECT
100
AcDbLine
 10
-717.3166501363537
 20
-211.11249806009792
 30
0.0
 11
-717.3166501363537
 21
-212.11249806009792
 31
0.0
  0
LINE
  5
1C7
100
AcDbEntity
  8
OBJECT
100
AcDbLine
 10
-701.3166499823501
 20
-354.11249806009766
 30
0.0
 11
-667.31665029035605
 21
-354.11249806009744
 31
0.0
  0
LINE
  5
1C8
100
AcDbEntity
  8
OBJECT
100
AcDbLine
 10
-669.49971207980218
 20
-365.1124980600988
 30
0.0
 11
-669.49971207980218
 21
-370.11249806009653
 31
0.0
  0
LINE
  5
1C9
100
AcDbEntity
  8
OBJECT
100
AcDbLine
 10
-674.88487688693658
 20
-365.1124980600988
 30
0.0
 11
-669.49971207980218
 21
-365.1124980600988
 31
0.0
  0
LINE
  5
1CA
100
AcDbEntity
  8
OBJECT
100
AcDbLine
 10
-674.88487688693658
 20
-365.1124980600988
 30
0.0
 11
-674.88487688693658
 21
-370.11249806009653
 31
0.0
  0
LINE
  5
1CB
100
AcDbEntity
  8
OBJECT
100
AcDbLine
 10
-678.93148532921759
 20
-365.1124980600988
 30
0.0
 11
-678.93148532921759
 21
-370.11249806009585
 31
0.0
  0
LINE
  5
1CC
100
AcDbEntity
  8
OBJECT
100
AcDbLine
 10
-689.70181494348708
 20
-365.1124980600988
 30
0.0
 11
-678.93148532921759
 21
-365.1124980600988
 31
0.0
  0
LINE
  5
1CD
100
AcDbEntity
  8
OBJECT
100
AcDbLine
 10
-689.70181494348708
 20
-365.1124980600988
 30
0.0
 11
-689.70181494348708
 21
-370.11249806009675
 31
0.0
  0
LINE
  5
1CE
100
AcDbEntity
  8
OBJECT
100
AcDbLine
 10
-693.74842338576832
 20
-365.1124980600988
 30
0.0
 11
-693.74842338576821
 21
-370.11249806009675
 31
0.0
  0
LINE
  5
1CF
100
AcDbEntity
  8
OBJECT
100
AcDbLine
 10
-699.1335881929034
 20
-365.1124980600988
 30
0.0
 11
-693.74842338576832
 21
-365.1124980600988
 31
0.0
  0
LINE
  5
1D0
100
AcDbEntity
  8
OBJECT
100
AcDbLine
 10
-699.1335881929034
 20
-365.1124980600988
 30
0.0
 11
-699.13358819290352
 21
-370.11249806009675
 31
0.0
  0
LINE
  5
1D1
100
AcDbEntity
  8
OBJECT
100
AcDbLine
 10
-697.31665013635291
 20
-372.11249806009812
 30
0.0
 11
-671.31665013635291
 21
-372.11249806009789
 31
0.0
  0
POLYLINE
  5
1D2
100
AcDbEntity
  8
OBJECT
100
AcDb2dPolyline
 66
               1
 10
0.0
 20
0.0
 30
0.0
 75
               5
  0
VERTEX
  5
1D3
100
AcDbEntity
  8
OBJECT
100
AcDbVertex
100
AcDb2dVertex
 10
-693.74842338576821
 20
-370.11249806009675
 30
0.0
  0
VERTEX
  5
1D4
100
AcDbEntity
  8
OBJECT
100
AcDbVertex
100
AcDb2dVertex
 10
-693.77233103220419
 20
-370.37347048589515
 30
0.0
  0
VERTEX
  5
1D5
100
AcDbEntity
  8
OBJECT
100
AcDbVertex
100
AcDb2dVertex
 10
-693.85344620584306
 20
-370.65193368267944
 30
0.0
  0
VERTEX
  5
1D6
100
AcDbEntity
  8
OBJECT
100
AcDbVertex
100
AcDb2dVertex
 10
-694.0441062274798
 20
-370.98841570296634
 30
0.0
  0
VERTEX
  5
1D7
100
AcDbEntity
  8
OBJECT
100
AcDbVertex
100
AcDb2dVertex
 10
-694.50521938187319
 20
-371.40592860034383
 30
0.0
  0
VERTEX
  5
1D8
100
AcDbEntity
  8
OBJECT
100
AcDbVertex
100
AcDb2dVertex
 10
-695.33478965715869
 20
-371.73186166206176
 30
0.0
  0
VERTEX
  5
1D9
100
AcDbEntity
  8
OBJECT
100
AcDbVertex
100
AcDb2dVertex
 10
-696.19864257240874
 20
-371.83967836803629
 30
0.0
  0
VERTEX
  5
1DA
100
AcDbEntity
  8
OBJECT
100
AcDbVertex
100
AcDb2dVertex
 10
-697.04309358981754
 20
-371.81365784817592
 30
0.0
  0
VERTEX
  5
1DB
100
AcDbEntity
  8
OBJECT
100
AcDbVertex
100
AcDb2dVertex
 10
-697.88908218028632
 20
-371.63541903012413
 30
0.0
  0
VERTEX
  5
1DC
100
AcDbEntity
  8
OBJECT
100
AcDbVertex
100
AcDb2dVertex
 10
-698.33367674891201
 20
-371.43228602200304
 30
0.0
  0
VERTEX
  5
1DD
100
AcDbEntity
  8
OBJECT
100
AcDbVertex
100
AcDb2dVertex
 10
-698.81852384834394
 20
-371.01364580016127
 30
0.0
  0
VERTEX
  5
1DE
100
AcDbEntity
  8
OBJECT
100
AcDbVertex
100
AcDb2dVertex
 10
-698.97623622138349
 20
-370.7668838029125
 30
0.0
  0
VERTEX
  5
1DF
100
AcDbEntity
  8
OBJECT
100
AcDbVertex
100
AcDb2dVertex
 10
-699.09552587537655
 20
-370.44098900765937
 30
0.0
  0
VERTEX
  5
1E0
100
AcDbEntity
  8
OBJECT
100
AcDbVertex
100
AcDb2dVertex
 10
-699.13143632432639
 20
-370.19108443629159
 30
0.0
  0
VERTEX
  5
1E1
100
AcDbEntity
  8
OBJECT
100
AcDbVertex
100
AcDb2dVertex
 10
-699.13358819290352
 20
-370.11249806009675
 30
0.0
  0
SEQEND
  5
1E2
100
AcDbEntity
  8
OBJECT
  0
POLYLINE
  5
1E3
100
AcDbEntity
  8
OBJECT
100
AcDb2dPolyline
 66
               1
 10
0.0
 20
0.0
 30
0.0
 75
               5
  0
VERTEX
  5
1E4
100
AcDbEntity
  8
OBJECT
100
AcDbVertex
100
AcDb2dVertex
 10
-678.93148532921759
 20
-370.11249806009585
 30
0.0
  0
VERTEX
  5
1E5
100
AcDbEntity
  8
OBJECT
100
AcDbVertex
100
AcDb2dVertex
 10
-678.93247563807722
 20
-370.15020597375394
 30
0.0
  0
VERTEX
  5
1E6
100
AcDbEntity
  8
OBJECT
100
AcDbVertex
100
AcDb2dVertex
 10
-678.98604131375669
 20
-370.39109885969162
 30
0.0
  0
VERTEX
  5
1E7
100
AcDbEntity
  8
OBJECT
100
AcDbVertex
100
AcDb2dVertex
 10
-679.15715275118714
 20
-370.67088546317916
 30
0.0
  0
VERTEX
  5
1E8
100
AcDbEntity
  8
OBJECT
100
AcDbVertex
100
AcDb2dVertex
 10
-679.55932817053258
 20
-371.01218745986159
 30
0.0
  0
VERTEX
  5
1E9
100
AcDbEntity
  8
OBJECT
100
AcDbVertex
100
AcDb2dVertex
 10
-680.53751258177363
 20
-371.43412619146727
 30
0.0
  0
VERTEX
  5
1EA
100
AcDbEntity
  8
OBJECT
100
AcDbVertex
100
AcDb2dVertex
 10
-682.40754020288409
 20
-371.77420368129708
 30
0.0
  0
VERTEX
  5
1EB
100
AcDbEntity
  8
OBJECT
100
AcDbVertex
100
AcDb2dVertex
 10
-684.31665013635222
 20
-371.84454886766605
 30
0.0
  0
VERTEX
  5
1EC
100
AcDbEntity
  8
OBJECT
100
AcDbVertex
100
AcDb2dVertex
 10
-686.34382652992235
 20
-371.76736349503165
 30
0.0
  0
VERTEX
  5
1ED
100
AcDbEntity
  8
OBJECT
100
AcDbVertex
100
AcDb2dVertex
 10
-688.31665013635643
 20
-371.36378309660256
 30
0.0
  0
VERTEX
  5
1EE
100
AcDbEntity
  8
OBJECT
100
AcDbVertex
100
AcDb2dVertex
 10
-689.21878467263878
 20
-370.91156009914164
 30
0.0
  0
VERTEX
  5
1EF
100
AcDbEntity
  8
OBJECT
100
AcDbVertex
100
AcDb2dVertex
 10
-689.46959413814989
 20
-370.67861701896788
 30
0.0
  0
VERTEX
  5
1F0
100
AcDbEntity
  8
OBJECT
100
AcDbVertex
100
AcDb2dVertex
 10
-689.64979858888535
 20
-370.3845960482405
 30
0.0
  0
VERTEX
  5
1F1
100
AcDbEntity
  8
OBJECT
100
AcDbVertex
100
AcDb2dVertex
 10
-689.70134651546357
 20
-370.13843316109194
 30
0.0
  0
VERTEX
  5
1F2
100
AcDbEntity
  8
OBJECT
100
AcDbVertex
100
AcDb2dVertex
 10
-689.70181494348708
 20
-370.11249806009675
 30
0.0
  0
SEQEND
  5
1F3
100
AcDbEntity
  8
OBJECT
  0
POLYLINE
  5
1F4
100
AcDbEntity
  8
OBJECT
100
AcDb2dPolyline
 66
               1
 10
0.0
 20
0.0
 30
0.0
 75
               5
  0
VERTEX
  5
1F5
100
AcDbEntity
  8
OBJECT
100
AcDbVertex
100
AcDb2dVertex
 10
-669.49971207980218
 20
-370.11249806009653
 30
0.0
  0
VERTEX
  5
1F6
100
AcDbEntity
  8
OBJECT
100
AcDbVertex
100
AcDb2dVertex
 10
-669.52361972623839
 20
-370.37347048589493
 30
0.0
  0
VERTEX
  5
1F7
100
AcDbEntity
  8
OBJECT
100
AcDbVertex
100
AcDb2dVertex
 10
-669.60473489987726
 20
-370.65193368267944
 30
0.0
  0
VERTEX
  5
1F8
100
AcDbEntity
  8
OBJECT
100
AcDbVertex
100
AcDb2dVertex
 10
-669.79539492151389
 20
-370.98841570296611
 30
0.0
  0
VERTEX
  5
1F9
100
AcDbEntity
  8
OBJECT
100
AcDbVertex
100
AcDb2dVertex
 10
-670.25650807590716
 20
-371.4059286003436
 30
0.0
  0
VERTEX
  5
1FA
100
AcDbEntity
  8
OBJECT
100
AcDbVertex
100
AcDb2dVertex
 10
-671.08607835119255
 20
-371.73186166206176
 30
0.0
  0
VERTEX
  5
1FB
100
AcDbEntity
  8
OBJECT
100
AcDbVertex
100
AcDb2dVertex
 10
-671.94993126644238
 20
-371.83967836803629
 30
0.0
  0
VERTEX
  5
1FC
100
AcDbEntity
  8
OBJECT
100
AcDbVertex
100
AcDb2dVertex
 10
-672.79438228385095
 20
-371.81365784817569
 30
0.0
  0
VERTEX
  5
1FD
100
AcDbEntity
  8
OBJECT
100
AcDbVertex
100
AcDb2dVertex
 10
-673.64037087431961
 20
-371.6354190301239
 30
0.0
  0
VERTEX
  5
1FE
100
AcDbEntity
  8
OBJECT
100
AcDbVertex
100
AcDb2dVertex
 10
-674.08496544294508
 20
-371.43228602200304
 30
0.0
  0
VERTEX
  5
1FF
100
AcDbEntity
  8
OBJECT
100
AcDbVertex
100
AcDb2dVertex
 10
-674.56981254237701
 20
-371.01364580016104
 30
0.0
  0
VERTEX
  5
200
100
AcDbEntity
  8
OBJECT
100
AcDbVertex
100
AcDb2dVertex
 10
-674.72752491541644
 20
-370.7668838029125
 30
0.0
  0
VERTEX
  5
201
100
AcDbEntity
  8
OBJECT
100
AcDbVertex
100
AcDb2dVertex
 10
-674.84681456940962
 20
-370.44098900765937
 30
0.0
  0
VERTEX
  5
202
100
AcDbEntity
  8
OBJECT
100
AcDbVertex
100
AcDb2dVertex
 10
-674.88272501835934
 20
-370.19108443629136
 30
0.0
  0
VERTEX
  5
203
100
AcDbEntity
  8
OBJECT
100
AcDbVertex
100
AcDb2dVertex
 10
-674.88487688693658
 20
-370.11249806009653
 30
0.0
  0
SEQEND
  5
204
100
AcDbEntity
  8
OBJECT
  0
LINE
  5
205
100
AcDbEntity
  8
OBJECT
100
AcDbLine
 10
-477.31665029035616
 20
-354.11249806009607
 30
0.0
 11
-511.31664998235021
 21
-354.11249806009653
 31
0.0
  0
LINE
  5
206
100
AcDbEntity
  8
OBJECT
100
AcDbLine
 10
-479.49971207980246
 20
-365.11249806009744
 30
0.0
 11
-479.49971207980229
 21
-370.11249806009539
 31
0.0
  0
LINE
  5
207
100
AcDbEntity
  8
OBJECT
100
AcDbLine
 10
-479.49971207980246
 20
-365.11249806009744
 30
0.0
 11
-484.88487688693681
 21
-365.11249806009744
 31
0.0
  0
LINE
  5
208
100
AcDbEntity
  8
OBJECT
100
AcDbLine
 10
-484.88487688693681
 20
-365.11249806009744
 30
0.0
 11
-484.88487688693681
 21
-370.11249806009539
 31
0.0
  0
LINE
  5
209
100
AcDbEntity
  8
OBJECT
100
AcDbLine
 10
-488.93148532921782
 20
-365.11249806009744
 30
0.0
 11
-488.93148532921776
 21
-370.11249806009539
 31
0.0
  0
LINE
  5
20A
100
AcDbEntity
  8
OBJECT
100
AcDbLine
 10
-488.93148532921782
 20
-365.11249806009744
 30
0.0
 11
-499.70181494348731
 21
-365.11249806009744
 31
0.0
  0
LINE
  5
20B
100
AcDbEntity
  8
OBJECT
100
AcDbLine
 10
-499.70181494348731
 20
-365.11249806009744
 30
0.0
 11
-499.70181494348731
 21
-370.11249806009471
 31
0.0
  0
LINE
  5
20C
100
AcDbEntity
  8
OBJECT
100
AcDbLine
 10
-503.74842338576855
 20
-365.11249806009744
 30
0.0
 11
-503.74842338576843
 21
-370.11249806009562
 31
0.0
  0
LINE
  5
20D
100
AcDbEntity
  8
OBJECT
100
AcDbLine
 10
-503.74842338576855
 20
-365.11249806009744
 30
0.0
 11
-509.13358819290374
 21
-365.11249806009744
 31
0.0
  0
LINE
  5
20E
100
AcDbEntity
  8
OBJECT
100
AcDbLine
 10
-509.13358819290374
 20
-365.11249806009744
 30
0.0
 11
-509.13358819290369
 21
-370.11249806009562
 31
0.0
  0
POLYLINE
  5
20F
100
AcDbEntity
  8
OBJECT
100
AcDb2dPolyline
 66
               1
 10
0.0
 20
0.0
 30
0.0
 75
               5
  0
VERTEX
  5
210
100
AcDbEntity
  8
OBJECT
100
AcDbVertex
100
AcDb2dVertex
 10
-499.70181494348731
 20
-370.11249806009471
 30
0.0
  0
VERTEX
  5
211
100
AcDbEntity
  8
OBJECT
100
AcDbVertex
100
AcDb2dVertex
 10
-499.70082463462762
 20
-370.15020597375258
 30
0.0
  0
VERTEX
  5
212
100
AcDbEntity
  8
OBJECT
100
AcDbVertex
100
AcDb2dVertex
 10
-499.64725895894821
 20
-370.39109885969026
 30
0.0
  0
VERTEX
  5
213
100
AcDbEntity
  8
OBJECT
100
AcDbVertex
100
AcDb2dVertex
 10
-499.47614752151765
 20
-370.6708854631778
 30
0.0
  0
VERTEX
  5
214
100
AcDbEntity
  8
OBJECT
100
AcDbVertex
100
AcDb2dVertex
 10
-499.07397210217226
 20
-371.01218745986023
 30
0.0
  0
VERTEX
  5
215
100
AcDbEntity
  8
OBJECT
100
AcDbVertex
100
AcDb2dVertex
 10
-498.09578769093116
 20
-371.43412619146591
 30
0.0
  0
VERTEX
  5
216
100
AcDbEntity
  8
OBJECT
100
AcDbVertex
100
AcDb2dVertex
 10
-496.22576006982069
 20
-371.77420368129594
 30
0.0
  0
VERTEX
  5
217
100
AcDbEntity
  8
OBJECT
100
AcDbVertex
100
AcDb2dVertex
 10
-494.31665013635256
 20
-371.84454886766468
 30
0.0
  0
VERTEX
  5
218
100
AcDbEntity
  8
OBJECT
100
AcDbVertex
100
AcDb2dVertex
 10
-492.28947374278255
 20
-371.76736349503051
 30
0.0
  0
VERTEX
  5
219
100
AcDbEntity
  8
OBJECT
100
AcDbVertex
100
AcDb2dVertex
 10
-490.31665013634836
 20
-371.36378309660142
 30
0.0
  0
VERTEX
  5
21A
100
AcDbEntity
  8
OBJECT
100
AcDbVertex
100
AcDb2dVertex
 10
-489.41451560006601
 20
-370.91156009914027
 30
0.0
  0
VERTEX
  5
21B
100
AcDbEntity
  8
OBJECT
100
AcDbVertex
100
AcDb2dVertex
 10
-489.16370613455496
 20
-370.67861701896652
 30
0.0
  0
VERTEX
  5
21C
100
AcDbEntity
  8
OBJECT
100
AcDbVertex
100
AcDb2dVertex
 10
-488.98350168381944
 20
-370.38459604823913
 30
0.0
  0
VERTEX
  5
21D
100
AcDbEntity
  8
OBJECT
100
AcDbVertex
100
AcDb2dVertex
 10
-488.93195375724127
 20
-370.1384331610908
 30
0.0
  0
VERTEX
  5
21E
100
AcDbEntity
  8
OBJECT
100
AcDbVertex
100
AcDb2dVertex
 10
-488.93148532921776
 20
-370.11249806009539
 30
0.0
  0
SEQEND
  5
21F
100
AcDbEntity
  8
OBJECT
  0
LINE
  5
220
100
AcDbEntity
  8
OBJECT
100
AcDbLine
 10
-481.31665013635308
 20
-372.11249806009653
 30
0.0
 11
-507.31665013635308
 21
-372.11249806009698
 31
0.0
  0
POLYLINE
  5
221
100
AcDbEntity
  8
OBJECT
100
AcDb2dPolyline
 66
               1
 10
0.0
 20
0.0
 30
0.0
 75
               5
  0
VERTEX
  5
222
100
AcDbEntity
  8
OBJECT
100
AcDbVertex
100
AcDb2dVertex
 10
-509.13358819290369
 20
-370.11249806009562
 30
0.0
  0
VERTEX
  5
223
100
AcDbEntity
  8
OBJECT
100
AcDbVertex
100
AcDb2dVertex
 10
-509.10968054646747
 20
-370.37347048589379
 30
0.0
  0
VERTEX
  5
224
100
AcDbEntity
  8
OBJECT
100
AcDbVertex
100
AcDb2dVertex
 10
-509.02856537282861
 20
-370.65193368267808
 30
0.0
  0
VERTEX
  5
225
100
AcDbEntity
  8
OBJECT
100
AcDbVertex
100
AcDb2dVertex
 10
-508.83790535119192
 20
-370.98841570296497
 30
0.0
  0
VERTEX
  5
226
100
AcDbEntity
  8
OBJECT
100
AcDbVertex
100
AcDb2dVertex
 10
-508.37679219679853
 20
-371.40592860034246
 30
0.0
  0
VERTEX
  5
227
100
AcDbEntity
  8
OBJECT
100
AcDbVertex
100
AcDb2dVertex
 10
-507.54722192151308
 20
-371.73186166206062
 30
0.0
  0
VERTEX
  5
228
100
AcDbEntity
  8
OBJECT
100
AcDbVertex
100
AcDb2dVertex
 10
-506.68336900626304
 20
-371.83967836803492
 30
0.0
  0
VERTEX
  5
229
100
AcDbEntity
  8
OBJECT
100
AcDbVertex
100
AcDb2dVertex
 10
-505.83891798885435
 20
-371.81365784817456
 30
0.0
  0
VERTEX
  5
22A
100
AcDbEntity
  8
OBJECT
100
AcDbVertex
100
AcDb2dVertex
 10
-504.99292939838557
 20
-371.63541903012276
 30
0.0
  0
VERTEX
  5
22B
100
AcDbEntity
  8
OBJECT
100
AcDbVertex
100
AcDb2dVertex
 10
-504.54833482975999
 20
-371.43228602200168
 30
0.0
  0
VERTEX
  5
22C
100
AcDbEntity
  8
OBJECT
100
AcDbVertex
100
AcDb2dVertex
 10
-504.06348773032801
 20
-371.01364580015991
 30
0.0
  0
VERTEX
  5
22D
100
AcDbEntity
  8
OBJECT
100
AcDbVertex
100
AcDb2dVertex
 10
-503.90577535728858
 20
-370.76688380291114
 30
0.0
  0
VERTEX
  5
22E
100
AcDbEntity
  8
OBJECT
100
AcDbVertex
100
AcDb2dVertex
 10
-503.78648570329545
 20
-370.440989007658
 30
0.0
  0
VERTEX
  5
22F
100
AcDbEntity
  8
OBJECT
100
AcDbVertex
100
AcDb2dVertex
 10
-503.75057525434568
 20
-370.19108443629023
 30
0.0
  0
VERTEX
  5
230
100
AcDbEntity
  8
OBJECT
100
AcDbVertex
100
AcDb2dVertex
 10
-503.74842338576843
 20
-370.11249806009562
 30
0.0
  0
SEQEND
  5
231
100
AcDbEntity
  8
OBJECT
  0
POLYLINE
  5
232
100
AcDbEntity
  8
OBJECT
100
AcDb2dPolyline
 66
               1
 10
0.0
 20
0.0
 30
0.0
 75
               5
  0
VERTEX
  5
233
100
AcDbEntity
  8
OBJECT
100
AcDbVertex
100
AcDb2dVertex
 10
-484.88487688693681
 20
-370.11249806009539
 30
0.0
  0
VERTEX
  5
234
100
AcDbEntity
  8
OBJECT
100
AcDbVertex
100
AcDb2dVertex
 10
-484.86096924050082
 20
-370.37347048589379
 30
0.0
  0
VERTEX
  5
235
100
AcDbEntity
  8
OBJECT
100
AcDbVertex
100
AcDb2dVertex
 10
-484.77985406686196
 20
-370.65193368267808
 30
0.0
  0
VERTEX
  5
236
100
AcDbEntity
  8
OBJECT
100
AcDbVertex
100
AcDb2dVertex
 10
-484.58919404522527
 20
-370.98841570296497
 30
0.0
  0
VERTEX
  5
237
100
AcDbEntity
  8
OBJECT
100
AcDbVertex
100
AcDb2dVertex
 10
-484.12808089083194
 20
-371.40592860034246
 30
0.0
  0
VERTEX
  5
238
100
AcDbEntity
  8
OBJECT
100
AcDbVertex
100
AcDb2dVertex
 10
-483.29851061554655
 20
-371.7318616620604
 30
0.0
  0
VERTEX
  5
239
100
AcDbEntity
  8
OBJECT
100
AcDbVertex
100
AcDb2dVertex
 10
-482.43465770029661
 20
-371.83967836803492
 30
0.0
  0
VERTEX
  5
23A
100
AcDbEntity
  8
OBJECT
100
AcDbVertex
100
AcDb2dVertex
 10
-481.59020668288792
 20
-371.81365784817456
 30
0.0
  0
VERTEX
  5
23B
100
AcDbEntity
  8
OBJECT
100
AcDbVertex
100
AcDb2dVertex
 10
-480.74421809241926
 20
-371.63541903012276
 30
0.0
  0
VERTEX
  5
23C
100
AcDbEntity
  8
OBJECT
100
AcDbVertex
100
AcDb2dVertex
 10
-480.29962352379368
 20
-371.43228602200168
 30
0.0
  0
VERTEX
  5
23D
100
AcDbEntity
  8
OBJECT
100
AcDbVertex
100
AcDb2dVertex
 10
-479.81477642436181
 20
-371.01364580015968
 30
0.0
  0
VERTEX
  5
23E
100
AcDbEntity
  8
OBJECT
100
AcDbVertex
100
AcDb2dVertex
 10
-479.65706405132238
 20
-370.76688380291114
 30
0.0
  0
VERTEX
  5
23F
100
AcDbEntity
  8
OBJECT
100
AcDbVertex
100
AcDb2dVertex
 10
-479.53777439732926
 20
-370.440989007658
 30
0.0
  0
VERTEX
  5
240
100
AcDbEntity
  8
OBJECT
100
AcDbVertex
100
AcDb2dVertex
 10
-479.50186394837948
 20
-370.19108443629
 30
0.0
  0
VERTEX
  5
241
100
AcDbEntity
  8
OBJECT
100
AcDbVertex
100
AcDb2dVertex
 10
-479.49971207980229
 20
-370.11249806009539
 30
0.0
  0
SEQEND
  5
242
100
AcDbEntity
  8
OBJECT
  0
CIRCLE
  5
243
100
AcDbEntity
  8
OBJECT
100
AcDbCircle
 10
-712.31665013635188
 20
-297.11249806009789
 30
0.0
 40
2.0
  0
CIRCLE
  5
244
100
AcDbEntity
  8
OBJECT
100
AcDbCircle
 10
-712.31665013635211
 20
-252.11249806009792
 30
0.0
 40
2.0
  0
LINE
  5
245
100
AcDbEntity
  8
OBJECT
100
AcDbLine
 10
-719.31665013635188
 20
-310.11249806009789
 30
0.0
 11
-719.31665013635234
 21
-239.11249806009792
 31
0.0
  0
LINE
  5
246
100
AcDbEntity
  8
OBJECT
100
AcDbLine
 10
-719.31665013635234
 20
-239.11249806009792
 30
0.0
 11
-718.31665013635222
 21
-239.11249806009792
 31
0.0
  0
LINE
  5
247
100
AcDbEntity
  8
OBJECT
100
AcDbLine
 10
-718.31665013635177
 20
-310.11249806009789
 30
0.0
 11
-719.31665013635188
 21
-310.11249806009789
 31
0.0
  0
CIRCLE
  5
248
100
AcDbEntity
  8
OBJECT
100
AcDbCircle
 10
-466.31665013635211
 20
-252.11249806009656
 30
0.0
 40
2.0
  0
CIRCLE
  5
249
100
AcDbEntity
  8
OBJECT
100
AcDbCircle
 10
-466.31665013635188
 20
-297.11249806009653
 30
0.0
 40
2.0
  0
LINE
  5
24A
100
AcDbEntity
  8
OBJECT
100
AcDbLine
 10
-459.31665013635228
 20
-239.11249806009633
 30
0.0
 11
-459.31665013635177
 21
-310.11249806009607
 31
0.0
  0
LINE
  5
24B
100
AcDbEntity
  8
OBJECT
100
AcDbLine
 10
-460.31665013635222
 20
-239.1124980600961
 30
0.0
 11
-459.31665013635228
 21
-239.11249806009633
 31
0.0
  0
LINE
  5
24C
100
AcDbEntity
  8
OBJECT
100
AcDbLine
 10
-459.31665013635177
 20
-310.11249806009607
 30
0.0
 11
-460.31665013635177
 21
-310.11249806009607
 31
0.0
  0
ARC
  5
24D
100
AcDbEntity
  8
OBJECT
100
AcDbCircle
 10
-717.81665013635188
 20
-310.61249806009789
 30
0.0
 40
1.5
100
AcDbArc
 50
180.0
 51
250.52877936551354
  0
LINE
  5
24E
100
AcDbEntity
  8
OBJECT
100
AcDbLine
 10
-719.31665013635188
 20
-310.61249806009789
 30
0.0
 11
-718.31665013635177
 21
-310.61249806009789
 31
0.0
  0
ARC
  5
24F
100
AcDbEntity
  8
OBJECT
100
AcDbCircle
 10
-460.81665013635177
 20
-310.61249806009607
 30
0.0
 40
1.5000000000002252
100
AcDbArc
 50
289.47122063448762
 51
0.0
  0
LINE
  5
250
100
AcDbEntity
  8
OBJECT
100
AcDbLine
 10
-460.31665013635177
 20
-310.61249806009607
 30
0.0
 11
-459.31665013635177
 21
-310.61249806009607
 31
0.0
  0
LINE
  5
251
100
AcDbEntity
  8
OBJECT
100
AcDbLine
 10
-719.31665013635188
 20
-310.61249806009789
 30
0.0
 11
-719.31665013635188
 21
-310.11249806009789
 31
0.0
  0
ARC
  5
252
100
AcDbEntity
  8
OBJECT
100
AcDbCircle
 10
-717.81665013635234
 20
-238.61249806009792
 30
0.0
 40
1.5000000000001739
100
AcDbArc
 50
108.75565800626478
 51
179.9999938433526
  0
LINE
  5
253
100
AcDbEntity
  8
OBJECT
100
AcDbLine
 10
-719.31665013635245
 20
-239.11249806009792
 30
0.0
 11
-719.31665013635245
 21
-238.61249806009792
 31
0.0
  0
ARC
  5
254
100
AcDbEntity
  8
OBJECT
100
AcDbCircle
 10
-460.81665013635234
 20
-238.6124980600961
 30
0.0
 40
1.5
100
AcDbArc
 50
0.0
 51
71.244341993700871
  0
LINE
  5
255
100
AcDbEntity
  8
OBJECT
100
AcDbLine
 10
-459.31665013635234
 20
-239.11249806009633
 30
0.0
 11
-459.31665013635234
 21
-238.6124980600961
 31
0.0
  0
LINE
  5
256
100
AcDbEntity
  8
OBJECT
100
AcDbLine
 10
-459.31665013635183
 20
-310.61249806009607
 30
0.0
 11
-459.31665013635183
 21
-310.11249806009607
 31
0.0
  0
LINE
  5
257
100
AcDbEntity
  8
OBJECT
100
AcDbLine
 10
-489.81665013635222
 20
-54.762498060073682
 30
0.0
 11
-489.31665013635222
 21
-54.262498060073682
 31
0.0
  0
LINE
  5
258
100
AcDbEntity
  8
OBJECT
100
AcDbLine
 10
-489.31665013635222
 20
-40.262498060073682
 30
0.0
 11
-489.81665013635222
 21
-39.762498060073682
 31
0.0
  0
LINE
  5
259
100
AcDbEntity
  8
OBJECT
100
AcDbLine
 10
-688.81665013635211
 20
-54.762498060073
 30
0.0
 11
-489.81665013635222
 21
-54.762498060073682
 31
0.0
  0
LINE
  5
25A
100
AcDbEntity
  8
OBJECT
100
AcDbLine
 10
-489.81665013635222
 20
-39.762498060073682
 30
0.0
 11
-688.81665013635211
 21
-39.762498060073
 31
0.0
  0
LINE
  5
25B
100
AcDbEntity
  8
OBJECT
100
AcDbLine
 10
-688.81665013635211
 20
-39.762498060073
 30
0.0
 11
-689.31665013635211
 21
-40.262498060073
 31
0.0
  0
LINE
  5
25C
100
AcDbEntity
  8
OBJECT
100
AcDbLine
 10
-689.31665013635211
 20
-54.262498060073
 30
0.0
 11
-688.81665013635211
 21
-54.762498060073
 31
0.0
  0
LINE
  5
25D
100
AcDbEntity
  8
OBJECT
100
AcDbLine
 10
-704.31664998235021
 20
-328.61249806009789
 30
0.0
 11
-704.3166499823501
 21
-351.11249806009766
 31
0.0
  0
LINE
  5
25E
100
AcDbEntity
  8
OBJECT
100
AcDbLine
 10
-664.31665029035605
 20
-351.11249806009744
 30
0.0
 11
-664.31665029035616
 21
-328.61249806009744
 31
0.0
  0
ARC
  5
25F
100
AcDbEntity
  8
OBJECT
100
AcDbCircle
 10
-701.31664998234965
 20
-351.11249806009744
 30
0.0
 40
3.0000000000003411
100
AcDbArc
 50
180.0
 51
269.99999999999562
  0
ARC
  5
260
100
AcDbEntity
  8
OBJECT
100
AcDbCircle
 10
-667.31665029035639
 20
-351.11249806009721
 30
0.0
 40
3.0000000000002274
100
AcDbArc
 50
270.00000000000432
 51
0.0
  0
LINE
  5
261
100
AcDbEntity
  8
OBJECT
100
AcDbLine
 10
-699.31665013635802
 20
-354.11249806009766
 30
0.0
 11
-699.31665013635802
 21
-370.11249806009675
 31
0.0
  0
LINE
  5
262
100
AcDbEntity
  8
OBJECT
100
AcDbLine
 10
-669.3166501363479
 20
-370.11249806009653
 30
0.0
 11
-669.31665013634802
 21
-354.11249806009744
 31
0.0
  0
ARC
  5
263
100
AcDbEntity
  8
OBJECT
100
AcDbCircle
 10
-697.31665013635211
 20
-370.11249806009607
 30
0.0
 40
2.00000000000216
100
AcDbArc
 50
180.0
 51
269.99999999998698
  0
ARC
  5
264
100
AcDbEntity
  8
OBJECT
100
AcDbCircle
 10
-671.3166501363537
 20
-370.11249806009585
 30
0.0
 40
2.0000000000020464
100
AcDbArc
 50
270.00000000000978
 51
0.0
  0
LINE
  5
265
100
AcDbEntity
  8
OBJECT
100
AcDbLine
 10
-514.31664998235033
 20
-328.61249806009653
 30
0.0
 11
-514.31664998235021
 21
-351.11249806009653
 31
0.0
  0
LINE
  5
266
100
AcDbEntity
  8
OBJECT
100
AcDbLine
 10
-474.31665029035616
 20
-351.11249806009607
 30
0.0
 11
-474.31665029035628
 21
-328.6124980600963
 31
0.0
  0
ARC
  5
267
100
AcDbEntity
  8
OBJECT
100
AcDbCircle
 10
-511.31664998234982
 20
-351.11249806009607
 30
0.0
 40
3.0000000000003979
100
AcDbArc
 50
180.0
 51
269.99999999999676
  0
ARC
  5
268
100
AcDbEntity
  8
OBJECT
100
AcDbCircle
 10
-477.31665029035656
 20
-351.11249806009585
 30
0.0
 40
3.0000000000002274
100
AcDbArc
 50
270.00000000000432
 51
0.0
  0
LINE
  5
269
100
AcDbEntity
  8
OBJECT
100
AcDbLine
 10
-509.31665013635825
 20
-354.11249806009653
 30
0.0
 11
-509.31665013635813
 21
-370.11249806009562
 31
0.0
  0
LINE
  5
26A
100
AcDbEntity
  8
OBJECT
100
AcDbLine
 10
-479.31665013634802
 20
-370.11249806009539
 30
0.0
 11
-479.31665013634813
 21
-354.11249806009607
 31
0.0
  0
ARC
  5
26B
100
AcDbEntity
  8
OBJECT
100
AcDbCircle
 10
-507.31665013635234
 20
-370.11249806009471
 30
0.0
 40
2.0000000000021032
100
AcDbArc
 50
180.0
 51
269.99999999999022
  0
ARC
  5
26C
100
AcDbEntity
  8
OBJECT
100
AcDbCircle
 10
-481.31665013635387
 20
-370.11249806009471
 30
0.0
 40
2.000000000001819
100
AcDbArc
 50
270.00000000001148
 51
0.0
  0
LINE
  5
26D
100
AcDbEntity
  8
OBJECT
100
AcDbLine
 10
-487.81665013635234
 20
-54.969269949232427
 30
0.0
 11
-489.31665013635234
 21
-54.969269949232427
 31
0.0
  0
LINE
  5
26E
100
AcDbEntity
  8
OBJECT
100
AcDbLine
 10
-487.81665013635222
 20
-39.555726215080455
 30
0.0
 11
-489.31665013635222
 21
-39.555726215080455
 31
0.0
  0
LINE
  5
26F
100
AcDbEntity
  8
OBJECT
100
AcDbLine
 10
-689.31665013635234
 20
-54.96926994923129
 30
0.0
 11
-690.81665013635234
 21
-54.96926994923129
 31
0.0
  0
LINE
  5
270
100
AcDbEntity
  8
OBJECT
100
AcDbLine
 10
-689.31665013635222
 20
-39.555726215079318
 30
0.0
 11
-690.81665013635222
 21
-39.555726215079318
 31
0.0
  0
LINE
  5
271
100
AcDbEntity
  8
OBJECT
100
AcDbLine
 10
-465.51665013634965
 20
-28.462498060073045
 30
0.0
 11
-464.31665013634955
 21
-28.462498060073045
 31
0.0
  0
LINE
  5
272
100
AcDbEntity
  8
OBJECT
100
AcDbLine
 10
-465.5166501363496
 20
-27.262498060073
 30
0.0
 11
-465.51665013634965
 21
-28.462498060073045
 31
0.0
  0
LINE
  5
273
100
AcDbEntity
  8
OBJECT
100
AcDbLine
 10
-460.31665013635461
 20
-23.112498060097238
 30
0.0
 11
-459.31665013635484
 21
-23.112498060097238
 31
0.0
  0
LINE
  5
274
100
AcDbEntity
  8
OBJECT
100
AcDbLine
 10
-460.31665013635461
 20
-23.112498060097238
 30
0.0
 11
-460.31665013635484
 21
-22.112498060097238
 31
0.0
  0
LINE
  5
275
100
AcDbEntity
  8
OBJECT
100
AcDbLine
 10
-704.3166499823501
 20
-351.11249806009766
 30
0.0
 11
-664.31665029035605
 21
-351.11249806009744
 31
0.0
  0
LINE
  5
276
100
AcDbEntity
  8
OBJECT
100
AcDbLine
 10
-699.31665013635802
 20
-370.11249806009675
 30
0.0
 11
-699.13358819290352
 21
-370.11249806009675
 31
0.0
  0
LINE
  5
277
100
AcDbEntity
  8
OBJECT
100
AcDbLine
 10
-669.49971207980218
 20
-370.11249806009653
 30
0.0
 11
-669.3166501363479
 21
-370.11249806009653
 31
0.0
  0
LINE
  5
278
100
AcDbEntity
  8
OBJECT
100
AcDbLine
 10
-678.93148532921759
 20
-370.11249806009585
 30
0.0
 11
-674.88487688693658
 21
-370.11249806009653
 31
0.0
  0
LINE
  5
279
100
AcDbEntity
  8
OBJECT
100
AcDbLine
 10
-693.74842338576821
 20
-370.11249806009675
 30
0.0
 11
-689.70181494348708
 21
-370.11249806009675
 31
0.0
  0
LINE
  5
27A
100
AcDbEntity
  8
OBJECT
100
AcDbLine
 10
-474.31665029035616
 20
-351.11249806009607
 30
0.0
 11
-514.31664998235021
 21
-351.11249806009653
 31
0.0
  0
LINE
  5
27B
100
AcDbEntity
  8
OBJECT
100
AcDbLine
 10
-479.31665013634802
 20
-370.11249806009539
 30
0.0
 11
-479.49971207980229
 21
-370.11249806009539
 31
0.0
  0
LINE
  5
27C
100
AcDbEntity
  8
OBJECT
100
AcDbLine
 10
-484.88487688693681
 20
-370.11249806009539
 30
0.0
 11
-488.93148532921776
 21
-370.11249806009539
 31
0.0
  0
LINE
  5
27D
100
AcDbEntity
  8
OBJECT
100
AcDbLine
 10
-499.70181494348731
 20
-370.11249806009471
 30
0.0
 11
-503.74842338576843
 21
-370.11249806009562
 31
0.0
  0
LINE
  5
27E
100
AcDbEntity
  8
OBJECT
100
AcDbLine
 10
-509.13358819290369
 20
-370.11249806009562
 30
0.0
 11
-509.31665013635813
 21
-370.11249806009562
 31
0.0
  0
LINE
  5
27F
100
AcDbEntity
  8
OBJECT
100
AcDbLine
 10
178.38334500661017
 20
418.6877012545325
 30
0.0
 11
178.38334500660812
 21
379.6877003279975
 31
0.0
  0
LINE
  5
280
100
AcDbEntity
  8
OBJECT
100
AcDbLine
 10
178.38334500661017
 20
420.68770032799728
 30
0.0
 11
178.38334500661017
 21
418.6877012545325
 31
0.0
  0
LINE
  5
281
100
AcDbEntity
  8
OBJECT
100
AcDbLine
 10
178.38334500661017
 20
420.68770032799728
 30
0.0
 11
177.68334500661001
 21
421.38770032799755
 31
0.0
  0
LINE
  5
282
100
AcDbEntity
  8
OBJECT
100
AcDbLine
 10
178.38334500660812
 20
379.6877003279975
 30
0.0
 11
178.38334500660801
 21
377.68770032799728
 31
0.0
  0
LINE
  5
283
100
AcDbEntity
  8
OBJECT
100
AcDbLine
 10
177.68334500660796
 20
376.98770032799723
 30
0.0
 11
178.38334500660801
 21
377.68770032799728
 31
0.0
  0
CIRCLE
  5
284
100
AcDbEntity
  8
OBJECT
100
AcDbCircle
 10
167.78334500660844
 20
384.18770032799796
 30
0.0
 40
1.5
  0
CIRCLE
  5
285
100
AcDbEntity
  8
OBJECT
100
AcDbCircle
 10
167.78334500660981
 20
414.18770032799796
 30
0.0
 40
1.5
  0
LINE
  5
286
100
AcDbEntity
  8
OBJECT
100
AcDbLine
 10
101.68334500661354
 20
498.68770032800091
 30
0.0
 11
109.18334500661342
 21
498.68770032800069
 31
0.0
  0
LINE
  5
287
100
AcDbEntity
  8
OBJECT
100
AcDbLine
 10
101.68334500660421
 20
299.68770032800114
 30
0.0
 11
109.1833450066041
 21
299.68770032800069
 31
0.0
  0
LINE
  5
288
100
AcDbEntity
  8
OBJECT
100
AcDbLine
 10
109.18334500661342
 20
498.68770032800069
 30
0.0
 11
116.68334500661354
 21
498.68770032800023
 31
0.0
  0
LINE
  5
289
100
AcDbEntity
  8
OBJECT
100
AcDbLine
 10
109.1833450066041
 20
299.68770032800069
 30
0.0
 11
116.68334500660421
 21
299.68770032800023
 31
0.0
  0
LINE
  5
28A
100
AcDbEntity
  8
OBJECT
100
AcDbLine
 10
151.18334500661354
 20
499.18770032799864
 30
0.0
 11
151.18334500661365
 21
500.68770032799864
 31
0.0
  0
LINE
  5
28B
100
AcDbEntity
  8
OBJECT
100
AcDbLine
 10
161.18334500661365
 20
500.68770032799819
 30
0.0
 11
151.18334500661365
 21
500.68770032799864
 31
0.0
  0
LINE
  5
28C
100
AcDbEntity
  8
OBJECT
100
AcDbLine
 10
161.18334500660421
 20
297.68770032799819
 30
0.0
 11
151.1833450066041
 21
297.68770032799864
 31
0.0
  0
LINE
  5
28D
100
AcDbEntity
  8
OBJECT
100
AcDbLine
 10
151.1833450066041
 20
297.68770032799864
 30
0.0
 11
151.18334500660421
 21
299.18770032799864
 31
0.0
  0
LINE
  5
28E
100
AcDbEntity
  8
OBJECT
100
AcDbLine
 10
159.68334500660421
 20
299.18770032799819
 30
0.0
 11
151.18334500660421
 21
299.18770032799864
 31
0.0
  0
LINE
  5
28F
100
AcDbEntity
  8
OBJECT
100
AcDbLine
 10
159.68334500660421
 20
299.18770032799819
 30
0.0
 11
159.68334500661354
 21
499.18770032799819
 31
0.0
  0
LINE
  5
290
100
AcDbEntity
  8
OBJECT
100
AcDbLine
 10
159.68334500661354
 20
499.18770032799819
 30
0.0
 11
151.18334500661354
 21
499.18770032799864
 31
0.0
  0
LINE
  5
291
100
AcDbEntity
  8
OBJECT
100
AcDbLine
 10
161.18334500660421
 20
297.68770032799819
 30
0.0
 11
161.18334500661365
 21
500.68770032799819
 31
0.0
  0
LINE
  5
292
100
AcDbEntity
  8
OBJECT
100
AcDbLine
 10
151.18334500661354
 20
499.18770032799864
 30
0.0
 11
107.03726292574925
 21
499.18770032800069
 31
0.0
  0
LINE
  5
293
100
AcDbEntity
  8
OBJECT
100
AcDbLine
 10
151.18334500661365
 20
500.68770032799864
 30
0.0
 11
107.03726292574936
 21
500.68770032800069
 31
0.0
  0
LINE
  5
294
100
AcDbEntity
  8
OBJECT
100
AcDbLine
 10
151.1833450066041
 20
297.68770032799864
 30
0.0
 11
107.03726292573992
 21
297.68770032800069
 31
0.0
  0
LINE
  5
295
100
AcDbEntity
  8
OBJECT
100
AcDbLine
 10
151.18334500660421
 20
299.18770032799864
 30
0.0
 11
107.03726292573992
 21
299.18770032800069
 31
0.0
  0
LINE
  5
296
100
AcDbEntity
  8
OBJECT
100
AcDbLine
 10
107.03726292574925
 20
499.18770032800069
 30
0.0
 11
101.18334485019682
 21
499.18770032800114
 31
0.0
  0
LINE
  5
297
100
AcDbEntity
  8
OBJECT
100
AcDbLine
 10
107.03726292574936
 20
500.68770032800069
 30
0.0
 11
101.18334485019682
 21
500.68770032800114
 31
0.0
  0
LINE
  5
298
100
AcDbEntity
  8
OBJECT
100
AcDbLine
 10
107.03726292573992
 20
297.68770032800069
 30
0.0
 11
101.18334485018727
 21
297.68770032800114
 31
0.0
  0
LINE
  5
299
100
AcDbEntity
  8
OBJECT
100
AcDbLine
 10
107.03726292573992
 20
299.18770032800069
 30
0.0
 11
101.18334485018738
 21
299.18770032800114
 31
0.0
  0
LINE
  5
29A
100
AcDbEntity
  8
OBJECT
100
AcDbLine
 10
177.6833450066033
 20
275.38770032799732
 30
0.0
 11
177.68334500661467
 21
522.98770032799735
 31
0.0
  0
ARC
  5
29B
100
AcDbEntity
  8
OBJECT
100
AcDbCircle
 10
169.28334500660844
 20
384.18770032799796
 30
0.0
 40
1.7000000000002728
100
AcDbArc
 50
270.0
 51
90.0
  0
LINE
  5
29C
100
AcDbEntity
  8
OBJECT
100
AcDbLine
 10
166.28334485260552
 20
385.88770032799778
 30
0.0
 11
169.2833448213928
 21
385.88770032799778
 31
0.0
  0
ARC
  5
29D
100
AcDbEntity
  8
OBJECT
100
AcDbCircle
 10
166.28334500660844
 20
384.18770032799796
 30
0.0
 40
1.699999999999825
100
AcDbArc
 50
90.000005122640346
 51
270.0
  0
LINE
  5
29E
100
AcDbEntity
  8
OBJECT
100
AcDbLine
 10
169.28334500660833
 20
382.48770032799769
 30
0.0
 11
166.28334500660833
 21
382.48770032799791
 31
0.0
  0
LINE
  5
29F
100
AcDbEntity
  8
OBJECT
100
AcDbLine
 10
166.28334500660981
 20
415.887700327998
 30
0.0
 11
169.28334500660981
 21
415.88770032799778
 31
0.0
  0
ARC
  5
2A0
100
AcDbEntity
  8
OBJECT
100
AcDbCircle
 10
166.28334500660981
 20
414.18770032799796
 30
0.0
 40
1.6999999999998181
100
AcDbArc
 50
90.0
 51
269.99998867340946
  0
LINE
  5
2A1
100
AcDbEntity
  8
OBJECT
100
AcDbLine
 10
169.28334482139405
 20
412.48770032799769
 30
0.0
 11
166.28334485260666
 21
412.48770032799814
 31
0.0
  0
ARC
  5
2A2
100
AcDbEntity
  8
OBJECT
100
AcDbCircle
 10
169.28334500660981
 20
414.18770032799796
 30
0.0
 40
1.7000000000002828
100
AcDbArc
 50
269.99999378443232
 51
90.0
  0
LINE
  5
2A3
100
AcDbEntity
  8
OBJECT
100
AcDbLine
 10
162.38334500661472
 20
524.18770032799807
 30
0.0
 11
177.68334500661467
 21
524.18770032799739
 31
0.0
  0
LINE
  5
2A4
100
AcDbEntity
  8
OBJECT
100
AcDbLine
 10
177.68334500661467
 20
524.18770032799739
 30
0.0
 11
177.68334500661467
 21
522.98770032799735
 31
0.0
  0
ARC
  5
2A5
100
AcDbEntity
  8
OBJECT
100
AcDbCircle
 10
162.38334500661472
 20
522.98770032799803
 30
0.0
 40
1.2000000000000455
100
AcDbArc
 50
90.0
 51
179.99999385905625
  0
LINE
  5
2A6
100
AcDbEntity
  8
OBJECT
100
AcDbLine
 10
161.1833450066033
 20
275.38770032799823
 30
0.0
 11
161.18334500660444
 21
297.68770032799819
 31
0.0
  0
LINE
  5
2A7
100
AcDbEntity
  8
OBJECT
100
AcDbLine
 10
161.18334500661365
 20
500.68770032799819
 30
0.0
 11
161.18334500661467
 21
522.98770032799814
 31
0.0
  0
LINE
  5
2A8
100
AcDbEntity
  8
OBJECT
100
AcDbLine
 10
177.6833450066033
 20
274.18770032799728
 30
0.0
 11
162.38334500660335
 21
274.18770032799796
 31
0.0
  0
LINE
  5
2A9
100
AcDbEntity
  8
OBJECT
100
AcDbLine
 10
177.6833450066033
 20
275.38770032799732
 30
0.0
 11
177.6833450066033
 21
274.18770032799728
 31
0.0
  0
ARC
  5
2AA
100
AcDbEntity
  8
OBJECT
100
AcDbCircle
 10
162.38334500660335
 20
275.387700327998
 30
0.0
 40
1.2000000000000455
100
AcDbArc
 50
179.99999999998917
 51
270.0
  0
LINE
  5
2AB
100
AcDbEntity
  8
OBJECT
100
AcDbLine
 10
156.18334500660512
 20
275.68770032799955
 30
0.0
 11
156.18334500660546
 21
284.18770032800091
 31
0.0
  0
LINE
  5
2AC
100
AcDbEntity
  8
OBJECT
100
AcDbLine
 10
156.18334500660728
 20
324.18770032800091
 30
0.0
 11
156.18334500661422
 21
474.18770032800091
 31
0.0
  0
LINE
  5
2AD
100
AcDbEntity
  8
OBJECT
100
AcDbLine
 10
156.18334500661604
 20
514.1877003280008
 30
0.0
 11
156.18334500661638
 21
522.68770032799955
 31
0.0
  0
LINE
  5
2AE
100
AcDbEntity
  8
OBJECT
100
AcDbLine
 10
156.18334500660512
 20
275.68770032799955
 30
0.0
 11
161.18334500660512
 21
275.68770032799932
 31
0.0
  0
LINE
  5
2AF
100
AcDbEntity
  8
OBJECT
100
AcDbLine
 10
156.18334500661638
 20
522.68770032799955
 30
0.0
 11
161.18334500661626
 21
522.68770032799932
 31
0.0
  0
ARC
  5
2B0
100
AcDbEntity
  8
OBJECT
100
AcDbCircle
 10
179.68334500660285
 20
270.18770032800342
 30
0.0
 40
1.0
100
AcDbArc
 50
180.00000000002606
 51
270.0
  0
ARC
  5
2B1
100
AcDbEntity
  8
OBJECT
100
AcDbCircle
 10
719.18334500660262
 20
270.18770032800342
 30
0.0
 40
1.0
100
AcDbArc
 50
270.0
 51
0.0
  0
LINE
  5
2B2
100
AcDbEntity
  8
OBJECT
100
AcDbLine
 10
178.68334500660285
 20
270.47054304047754
 30
0.0
 11
178.68334500660285
 21
270.18770032800296
 31
0.0
  0
LINE
  5
2B3
100
AcDbEntity
  8
OBJECT
100
AcDbLine
 10
178.68334500660285
 20
270.47054304047754
 30
0.0
 11
178.68334500660285
 21
527.90485761552884
 31
0.0
  0
LINE
  5
2B4
100
AcDbEntity
  8
OBJECT
100
AcDbLine
 10
178.68334500660285
 20
528.18770032800342
 30
0.0
 11
178.68334500660285
 21
527.90485761552884
 31
0.0
  0
ARC
  5
2B5
100
AcDbEntity
  8
OBJECT
100
AcDbCircle
 10
179.68334500660285
 20
528.18770032800342
 30
0.0
 40
1.0
100
AcDbArc
 50
90.0
 51
179.99999385905951
  0
LINE
  5
2B6
100
AcDbEntity
  8
OBJECT
100
AcDbLine
 10
720.18334500660285
 20
270.18770032800342
 30
0.0
 11
720.18334500660285
 21
270.47054304047799
 31
0.0
  0
LINE
  5
2B7
100
AcDbEntity
  8
OBJECT
100
AcDbLine
 10
720.18334500660285
 20
527.90485761552884
 30
0.0
 11
720.18334500660285
 21
528.18770032800342
 31
0.0
  0
LINE
  5
2B8
100
AcDbEntity
  8
OBJECT
100
AcDbLine
 10
720.18334500660285
 20
527.90485761552884
 30
0.0
 11
720.18334500660285
 21
270.47054304047799
 31
0.0
  0
LINE
  5
2B9
100
AcDbEntity
  8
OBJECT
100
AcDbLine
 10
719.18334500660262
 20
269.18770032800342
 30
0.0
 11
179.68334500660285
 21
269.18770032800342
 31
0.0
  0
ARC
  5
2BA
100
AcDbEntity
  8
OBJECT
100
AcDbCircle
 10
719.18334500660262
 20
528.18770032800353
 30
0.0
 40
1.0
100
AcDbArc
 50
0.0
 51
90.0
  0
LINE
  5
2BB
100
AcDbEntity
  8
OBJECT
100
AcDbLine
 10
179.68334500660285
 20
529.18770032800342
 30
0.0
 11
719.18334500660262
 21
529.18770032800342
 31
0.0
  0
LINE
  5
2BC
100
AcDbEntity
  8
OBJECT
100
AcDbLine
 10
161.18334500660626
 20
294.18770032800091
 30
0.0
 11
155.18334500660626
 21
294.18770032800091
 31
0.0
  0
LINE
  5
2BD
100
AcDbEntity
  8
OBJECT
100
AcDbLine
 10
155.18334500660626
 20
314.18770032800091
 30
0.0
 11
159.6833450066049
 21
314.18770032800091
 31
0.0
  0
LINE
  5
2BE
100
AcDbEntity
  8
OBJECT
100
AcDbLine
 10
155.18334500660626
 20
284.18770032800091
 30
0.0
 11
156.68334500660626
 21
284.18770032800091
 31
0.0
  0
LINE
  5
2BF
100
AcDbEntity
  8
OBJECT
100
AcDbLine
 10
156.68334500660626
 20
284.18770032800091
 30
0.0
 11
156.68334500660626
 21
294.18770032800091
 31
0.0
  0
LINE
  5
2C0
100
AcDbEntity
  8
OBJECT
100
AcDbLine
 10
155.18334500660626
 20
324.18770032800091
 30
0.0
 11
156.68334500660626
 21
324.18770032800091
 31
0.0
  0
LINE
  5
2C1
100
AcDbEntity
  8
OBJECT
100
AcDbLine
 10
156.68334500660626
 20
314.18770032800091
 30
0.0
 11
156.68334500660626
 21
324.18770032800091
 31
0.0
  0
LINE
  5
2C2
100
AcDbEntity
  8
OBJECT
100
AcDbLine
 10
159.68334500661285
 20
484.18770032800114
 30
0.0
 11
155.18334500659807
 21
484.18770032800091
 31
0.0
  0
LINE
  5
2C3
100
AcDbEntity
  8
OBJECT
100
AcDbLine
 10
155.18334500659716
 20
504.18770032800091
 30
0.0
 11
161.18334500659716
 21
504.18770032800114
 31
0.0
  0
LINE
  5
2C4
100
AcDbEntity
  8
OBJECT
100
AcDbLine
 10
155.18334500659671
 20
514.18770032800091
 30
0.0
 11
156.68334500659671
 21
514.18770032800103
 31
0.0
  0
LINE
  5
2C5
100
AcDbEntity
  8
OBJECT
100
AcDbLine
 10
156.68334500659716
 20
504.18770032800114
 30
0.0
 11
156.68334500659671
 21
514.18770032800103
 31
0.0
  0
LINE
  5
2C6
100
AcDbEntity
  8
OBJECT
100
AcDbLine
 10
155.18334500659853
 20
474.18770032800091
 30
0.0
 11
156.68334500659853
 21
474.18770032800091
 31
0.0
  0
LINE
  5
2C7
100
AcDbEntity
  8
OBJECT
100
AcDbLine
 10
156.68334500659853
 20
474.18770032800091
 30
0.0
 11
156.68334500659807
 21
484.18770032800091
 31
0.0
  0
LINE
  5
2C8
100
AcDbEntity
  8
OBJECT
100
AcDbLine
 10
179.68334500659603
 20
529.18770032800217
 30
0.0
 11
122.68334500659603
 21
529.18770032799955
 31
0.0
  0
LINE
  5
2C9
100
AcDbEntity
  8
OBJECT
100
AcDbLine
 10
155.18334500659603
 20
527.68770032800091
 30
0.0
 11
178.68334500660285
 21
527.68770032800205
 31
0.0
  0
LINE
  5
2CA
100
AcDbEntity
  8
OBJECT
100
AcDbLine
 10
155.18334500659603
 20
527.68770032800091
 30
0.0
 11
155.18334500659739
 21
500.68770032799841
 31
0.0
  0
LINE
  5
2CB
100
AcDbEntity
  8
OBJECT
100
AcDbLine
 10
155.18334500659739
 20
499.18770032799841
 30
0.0
 11
155.18334500660671
 21
299.18770032799841
 31
0.0
  0
LINE
  5
2CC
100
AcDbEntity
  8
OBJECT
100
AcDbLine
 10
155.18334500660671
 20
297.68770032799841
 30
0.0
 11
155.18334500660808
 21
270.68770032800091
 31
0.0
  0
LINE
  5
2CD
100
AcDbEntity
  8
OBJECT
100
AcDbLine
 10
155.18334500660808
 20
270.68770032800091
 30
0.0
 11
178.68334500660285
 21
270.68770032800205
 31
0.0
  0
LINE
  5
2CE
100
AcDbEntity
  8
OBJECT
100
AcDbLine
 10
179.68334500660808
 20
269.18770032800205
 30
0.0
 11
122.68334500660808
 21
269.18770032799955
 31
0.0
  0
LINE
  5
2CF
100
AcDbEntity
  8
OBJECT
100
AcDbLine
 10
121.18334500660808
 20
269.18770032799932
 30
0.0
 11
121.18334500660671
 21
297.68770032800001
 31
0.0
  0
LINE
  5
2D0
100
AcDbEntity
  8
OBJECT
100
AcDbLine
 10
121.18334500660671
 20
299.18770032800001
 30
0.0
 11
121.18334500659739
 21
499.18770032800001
 31
0.0
  0
LINE
  5
2D1
100
AcDbEntity
  8
OBJECT
100
AcDbLine
 10
121.18334500659739
 20
500.68770032800001
 30
0.0
 11
121.18334500659603
 21
529.18770032799932
 31
0.0
  0
LINE
  5
2D2
100
AcDbEntity
  8
OBJECT
100
AcDbLine
 10
121.18334500659603
 20
529.18770032799932
 30
0.0
 11
122.68334500659603
 21
529.18770032799955
 31
0.0
  0
LINE
  5
2D3
100
AcDbEntity
  8
OBJECT
100
AcDbLine
 10
122.68334500660808
 20
269.18770032799955
 30
0.0
 11
121.18334500660808
 21
269.18770032799932
 31
0.0
  0
LINE
  5
2D4
100
AcDbEntity
  8
OBJECT
100
AcDbLine
 10
177.68334500659944
 20
454.18770032800182
 30
0.0
 11
178.68334500660285
 21
454.18770032800182
 31
0.0
  0
LINE
  5
2D5
100
AcDbEntity
  8
OBJECT
100
AcDbLine
 10
178.68334500660285
 20
294.18770032800182
 30
0.0
 11
177.68334500660683
 21
294.18770032800182
 31
0.0
  0
LINE
  5
2D6
100
AcDbEntity
  8
OBJECT
100
AcDbLine
 10
101.68334500661354
 20
498.68770032800091
 30
0.0
 11
101.68334500660421
 21
299.68770032800114
 31
0.0
  0
LINE
  5
2D7
100
AcDbEntity
  8
OBJECT
100
AcDbLine
 10
116.68334500660421
 20
299.68770032800023
 30
0.0
 11
116.68334500661354
 21
498.68770032800023
 31
0.0
  0
LINE
  5
2D8
100
AcDbEntity
  8
OBJECT
100
AcDbLine
 10
116.68334500661354
 20
498.68770032800023
 30
0.0
 11
116.18334500661354
 21
499.18770032800023
 31
0.0
  0
LINE
  5
2D9
100
AcDbEntity
  8
OBJECT
100
AcDbLine
 10
102.18334500661354
 20
499.18770032800091
 30
0.0
 11
101.68334500661354
 21
498.68770032800091
 31
0.0
  0
LINE
  5
2DA
100
AcDbEntity
  8
OBJECT
100
AcDbLine
 10
101.68334500660421
 20
299.68770032800114
 30
0.0
 11
102.18334500660421
 21
299.18770032800114
 31
0.0
  0
LINE
  5
2DB
100
AcDbEntity
  8
OBJECT
100
AcDbLine
 10
116.18334500660421
 20
299.18770032800023
 30
0.0
 11
116.68334500660421
 21
299.68770032800023
 31
0.0
  0
LINE
  5
2DC
100
AcDbEntity
  8
OBJECT
100
AcDbLine
 10
101.18334485019682
 20
500.68770032800114
 30
0.0
 11
101.18334485019682
 21
499.18770032800114
 31
0.0
  0
LINE
  5
2DD
100
AcDbEntity
  8
OBJECT
100
AcDbLine
 10
101.18334485018738
 20
299.18770032800114
 30
0.0
 11
101.18334485018727
 21
297.68770032800114
 31
0.0
  0
LINE
  5
2DE
100
AcDbEntity
  8
OBJECT
100
AcDbLine
 10
178.38334500660812
 20
379.6877003279975
 30
0.0
 11
177.68334500660808
 21
379.6877003279975
 31
0.0
  0
LINE
  5
2DF
100
AcDbEntity
  8
OBJECT
100
AcDbLine
 10
178.38334500661017
 20
418.6877012545325
 30
0.0
 11
177.6833450066099
 21
418.68770125453273
 31
0.0
  0
LINE
  5
2E0
100
AcDbEntity
  8
OBJECT
100
AcDbLine
 10
107.03726292574925
 20
499.18770032800069
 30
0.0
 11
107.03726292574936
 21
500.68770032800069
 31
0.0
  0
LINE
  5
2E1
100
AcDbEntity
  8
OBJECT
100
AcDbLine
 10
107.03726292573992
 20
297.68770032800069
 30
0.0
 11
107.03726292573992
 21
299.18770032800069
 31
0.0
  0
LINE
  5
2E2
100
AcDbEntity
  8
OBJECT
100
AcDbLine
 10
178.38334500660801
 20
-31.462499061430123
 30
0.0
 11
178.38334500660812
 21
-42.462499061429668
 31
0.0
  0
LINE
  5
2E3
100
AcDbEntity
  8
OBJECT
100
AcDbLine
 10
178.38334500660812
 20
-29.462499061430123
 30
0.0
 11
178.38334500660801
 21
-31.462499061430123
 31
0.0
  0
LINE
  5
2E4
100
AcDbEntity
  8
OBJECT
100
AcDbLine
 10
178.38334500660812
 20
-29.462499061430123
 30
0.0
 11
177.68334500661467
 21
-28.762499061436671
 31
0.0
  0
LINE
  5
2E5
100
AcDbEntity
  8
OBJECT
100
AcDbLine
 10
178.38334500660812
 20
-42.462499061429668
 30
0.0
 11
178.38334500660824
 21
-44.462499061428076
 31
0.0
  0
LINE
  5
2E6
100
AcDbEntity
  8
OBJECT
100
AcDbLine
 10
177.68334500661479
 20
-45.162499061421528
 30
0.0
 11
178.38334500660824
 21
-44.462499061428076
 31
0.0
  0
CIRCLE
  5
2E7
100
AcDbEntity
  8
OBJECT
100
AcDbCircle
 10
109.18334492685938
 20
-47.262499086267923
 30
0.0
 40
2.0
  0
CIRCLE
  5
2E8
100
AcDbEntity
  8
OBJECT
100
AcDbCircle
 10
109.18334492685972
 20
-47.262499086267923
 30
0.0
 40
1.7000000000000455
  0
CIRCLE
  5
2E9
100
AcDbEntity
  8
OBJECT
100
AcDbCircle
 10
109.18334492685881
 20
-47.262499086268605
 30
0.0
 40
3.4000000000000909
  0
LINE
  5
2EA
100
AcDbEntity
  8
OBJECT
100
AcDbLine
 10
151.1833450066041
 20
-27.26249906142985
 30
0.0
 11
107.03726292573992
 21
-39.555727216437077
 31
0.0
  0
LINE
  5
2EB
100
AcDbEntity
  8
OBJECT
100
AcDbLine
 10
161.18334500660421
 20
-27.26249906142985
 30
0.0
 11
151.1833450066041
 21
-27.26249906142985
 31
0.0
  0
LINE
  5
2EC
100
AcDbEntity
  8
OBJECT
100
AcDbLine
 10
161.18334500660421
 20
-28.462499061429668
 30
0.0
 11
161.18334500660421
 21
-27.26249906142985
 31
0.0
  0
LINE
  5
2ED
100
AcDbEntity
  8
OBJECT
100
AcDbLine
 10
151.18334500660455
 20
-67.26249906142985
 30
0.0
 11
161.18334500660444
 21
-67.26249906142985
 31
0.0
  0
LINE
  5
2EE
100
AcDbEntity
  8
OBJECT
100
AcDbLine
 10
107.0372630843417
 20
-54.969270950588822
 30
0.0
 11
151.18334500660455
 21
-67.26249906142985
 31
0.0
  0
ARC
  5
2EF
100
AcDbEntity
  8
OBJECT
100
AcDbCircle
 10
109.18334484140871
 20
-47.262499061430304
 30
0.0
 40
7.9999999912213076
100
AcDbArc
 50
105.56076717292309
 51
254.43922786525894
  0
CIRCLE
  5
2F0
100
AcDbEntity
  8
OBJECT
100
AcDbCircle
 10
109.18334492685892
 20
-47.262499086268605
 30
0.0
 40
2.1000000000000227
  0
LINE
  5
2F1
100
AcDbEntity
  8
OBJECT
100
AcDbLine
 10
175.93242298460007
 20
-212.11249906145295
 30
0.0
 11
177.6833450066049
 21
-209.07981315924931
 31
0.0
  0
LINE
  5
2F2
100
AcDbEntity
  8
OBJECT
100
AcDbLine
 10
177.6833450066049
 20
-209.07981315924931
 30
0.0
 11
177.6833450066033
 21
-28.46249906142944
 31
0.0
  0
LINE
  5
2F3
100
AcDbEntity
  8
OBJECT
100
AcDbLine
 10
162.38334500660335
 20
-27.262499061429622
 30
0.0
 11
177.6833450066033
 21
-27.262499061429395
 31
0.0
  0
LINE
  5
2F4
100
AcDbEntity
  8
OBJECT
100
AcDbLine
 10
177.6833450066033
 20
-27.262499061429395
 30
0.0
 11
177.6833450066033
 21
-28.46249906142944
 31
0.0
  0
ARC
  5
2F5
100
AcDbEntity
  8
OBJECT
100
AcDbCircle
 10
162.38334500660335
 20
-28.462499061429668
 30
0.0
 40
1.2000000000000455
100
AcDbArc
 50
90.0
 51
179.9999938433526
  0
LINE
  5
2F6
100
AcDbEntity
  8
OBJECT
100
AcDbLine
 10
161.1833450066049
 20
-212.11249906145295
 30
0.0
 11
161.1833450066033
 21
-28.462499061429668
 31
0.0
  0
LINE
  5
2F7
100
AcDbEntity
  8
OBJECT
100
AcDbLine
 10
718.8833450066079
 20
-235.61249906145386
 30
0.0
 11
718.88334500660767
 21
-309.61249906145497
 31
0.0
  0
LINE
  5
2F8
100
AcDbEntity
  8
OBJECT
100
AcDbLine
 10
717.68334500660808
 20
-237.11249906145386
 30
0.0
 11
717.68334500660808
 21
-239.112499061455
 31
0.0
  0
LINE
  5
2F9
100
AcDbEntity
  8
OBJECT
100
AcDbLine
 10
717.68334500660808
 20
-239.112499061455
 30
0.0
 11
717.68334500660762
 21
-309.61249906145497
 31
0.0
  0
LINE
  5
2FA
100
AcDbEntity
  8
OBJECT
100
AcDbLine
 10
718.88334500660767
 20
-309.61249906145497
 30
0.0
 11
718.88334500660767
 21
-310.61249906145497
 31
0.0
  0
LINE
  5
2FB
100
AcDbEntity
  8
OBJECT
100
AcDbLine
 10
718.88334500660767
 20
-310.61249906145497
 30
0.0
 11
717.68334500660762
 21
-310.61249906145497
 31
0.0
  0
LINE
  5
2FC
100
AcDbEntity
  8
OBJECT
100
AcDbLine
 10
717.68334500660308
 20
-235.61249906145386
 30
0.0
 11
719.18334500660262
 21
-235.61249906145386
 31
0.0
  0
LINE
  5
2FD
100
AcDbEntity
  8
OBJECT
100
AcDbLine
 10
717.68334500660308
 20
-236.11249906145386
 30
0.0
 11
717.68334500660308
 21
-235.61249906145386
 31
0.0
  0
LINE
  5
2FE
100
AcDbEntity
  8
OBJECT
100
AcDbLine
 10
181.68334500660285
 20
-210.11249906145386
 30
0.0
 11
181.68334500660285
 21
-236.11249906145386
 31
0.0
  0
LINE
  5
2FF
100
AcDbEntity
  8
OBJECT
100
AcDbLine
 10
181.68334500660285
 20
-210.11249906145386
 30
0.0
 11
179.68334500660285
 21
-210.11249906145386
 31
0.0
  0
LINE
  5
300
100
AcDbEntity
  8
OBJECT
100
AcDbLine
 10
179.68334500660285
 20
-22.11249906145386
 30
0.0
 11
719.18334500660262
 21
-22.11249906145386
 31
0.0
  0
LINE
  5
301
100
AcDbEntity
  8
OBJECT
100
AcDbLine
 10
717.68334500660308
 20
-237.11249906145386
 30
0.0
 11
181.68334500660285
 21
-237.11249906145386
 31
0.0
  0
LINE
  5
302
100
AcDbEntity
  8
OBJECT
100
AcDbLine
 10
181.68334500660285
 20
-237.11249906145386
 30
0.0
 11
181.68334500660285
 21
-236.11249906145386
 31
0.0
  0
LINE
  5
303
100
AcDbEntity
  8
OBJECT
100
AcDbLine
 10
717.68334500660308
 20
-236.11249906145386
 30
0.0
 11
717.68334500660308
 21
-237.11249906145386
 31
0.0
  0
LINE
  5
304
100
AcDbEntity
  8
OBJECT
100
AcDbLine
 10
178.68334500660285
 20
-23.11249906145386
 30
0.0
 11
178.68334500660285
 21
-23.395341773928436
 31
0.0
  0
LINE
  5
305
100
AcDbEntity
  8
OBJECT
100
AcDbLine
 10
178.68334500660285
 20
-210.11249906145386
 30
0.0
 11
179.68334500660285
 21
-210.11249906145386
 31
0.0
  0
LINE
  5
306
100
AcDbEntity
  8
OBJECT
100
AcDbLine
 10
178.68334500660285
 20
-210.11249906145386
 30
0.0
 11
178.68334500660285
 21
-23.395341773928436
 31
0.0
  0
ARC
  5
307
100
AcDbEntity
  8
OBJECT
100
AcDbCircle
 10
719.18334500660262
 20
-23.11249906145386
 30
0.0
 40
1.0
100
AcDbArc
 50
0.0
 51
90.0
  0
LINE
  5
308
100
AcDbEntity
  8
OBJECT
100
AcDbLine
 10
720.18334500660285
 20
-23.395341773928436
 30
0.0
 11
720.18334500660285
 21
-23.11249906145386
 31
0.0
  0
LINE
  5
309
100
AcDbEntity
  8
OBJECT
100
AcDbLine
 10
720.18334500660285
 20
-23.395341773928436
 30
0.0
 11
720.18334500660308
 21
-235.61249906145386
 31
0.0
  0
LINE
  5
30A
100
AcDbEntity
  8
OBJECT
100
AcDbLine
 10
720.18334500660308
 20
-235.61249906145386
 30
0.0
 11
719.18334500660262
 21
-235.61249906145386
 31
0.0
  0
ARC
  5
30B
100
AcDbEntity
  8
OBJECT
100
AcDbCircle
 10
179.68334500660285
 20
-23.11249906145386
 30
0.0
 40
1.0
100
AcDbArc
 50
90.0
 51
180.0
  0
LINE
  5
30C
100
AcDbEntity
  8
OBJECT
100
AcDbLine
 10
152.6833450065667
 20
-298.41349906145376
 30
0.0
 11
150.1833450065667
 21
-298.41349906145376
 31
0.0
  0
LINE
  5
30D
100
AcDbEntity
  8
OBJECT
100
AcDbLine
 10
150.18334500656681
 20
-297.91349906145376
 30
0.0
 11
150.1833450065667
 21
-298.41349906145376
 31
0.0
  0
LINE
  5
30E
100
AcDbEntity
  8
OBJECT
100
AcDbLine
 10
150.1833450065667
 20
-298.41349906145376
 30
0.0
 11
149.6833450065667
 21
-297.91349906145376
 31
0.0
  0
LINE
  5
30F
100
AcDbEntity
  8
OBJECT
100
AcDbLine
 10
149.6833450065667
 20
-297.91349906145376
 30
0.0
 11
149.68334500656692
 21
-269.31349906145385
 31
0.0
  0
LINE
  5
310
100
AcDbEntity
  8
OBJECT
100
AcDbLine
 10
150.18334500656681
 20
-290.11349906141447
 30
0.0
 11
150.18334500656681
 21
-297.91349906145376
 31
0.0
  0
LINE
  5
311
100
AcDbEntity
  8
OBJECT
100
AcDbLine
 10
149.68334500656692
 20
-269.31349906145385
 30
0.0
 11
150.18334500656692
 21
-268.81349906145385
 31
0.0
  0
ARC
  5
312
100
AcDbEntity
  8
OBJECT
100
AcDbCircle
 10
115.50521892869244
 20
-275.96564681305188
 30
0.0
 40
34.119999999999969
100
AcDbArc
 50
335.51838479039037
 51
2.4816152096087762
  0
LINE
  5
313
100
AcDbEntity
  8
OBJECT
100
AcDbLine
 10
149.68334500656681
 20
-291.76479797363015
 30
0.0
 11
146.68397397024501
 21
-290.43722500006822
 31
0.0
  0
ARC
  5
314
100
AcDbEntity
  8
OBJECT
100
AcDbCircle
 10
146.7851596338885
 20
-290.20861734168182
 30
0.0
 40
0.2500000000000591
100
AcDbArc
 50
155.51838479040885
 51
246.12499229944444
  0
ARC
  5
315
100
AcDbEntity
  8
OBJECT
100
AcDbCircle
 10
149.84298559220997
 20
-274.47746652766125
 30
0.0
 40
0.2500000000001412
100
AcDbArc
 50
129.68470035197123
 51
182.48160906864342
  0
LINE
  5
316
100
AcDbEntity
  8
OBJECT
100
AcDbLine
 10
151.68334500660535
 20
-265.61349906145313
 30
0.0
 11
151.68334500660558
 21
-291.61349906145313
 31
0.0
  0
LINE
  5
317
100
AcDbEntity
  8
OBJECT
100
AcDbLine
 10
150.18334500660535
 20
-267.11349906145313
 30
0.0
 11
150.18334500660558
 21
-290.11349906145313
 31
0.0
  0
ARC
  5
318
100
AcDbEntity
  8
OBJECT
100
AcDbCircle
 10
153.68334500660762
 20
-327.61249906145292
 30
0.0
 40
1.0
100
AcDbArc
 50
180.0
 51
269.99999385905949
  0
LINE
  5
319
100
AcDbEntity
  8
OBJECT
100
AcDbLine
 10
152.68334500660762
 20
-327.61249906145292
 30
0.0
 11
152.68334500660774
 21
-237.61249906145295
 31
0.0
  0
LINE
  5
31A
100
AcDbEntity
  8
OBJECT
100
AcDbLine
 10
153.68334500660774
 20
-237.61249906145295
 30
0.0
 11
153.68334500660762
 21
-327.61249906145292
 31
0.0
  0
LINE
  5
31B
100
AcDbEntity
  8
OBJECT
100
AcDbLine
 10
153.68334500660762
 20
-327.61249906145292
 30
0.0
 11
156.68334500660762
 21
-327.61249906145292
 31
0.0
  0
LINE
  5
31C
100
AcDbEntity
  8
OBJECT
100
AcDbLine
 10
156.68334500660762
 20
-328.61249906145292
 30
0.0
 11
153.68334500660762
 21
-328.61249906145292
 31
0.0
  0
LINE
  5
31D
100
AcDbEntity
  8
OBJECT
100
AcDbLine
 10
161.6833450066074
 20
-327.61249906145292
 30
0.0
 11
161.6833450066074
 21
-328.61249906145292
 31
0.0
  0
LINE
  5
31E
100
AcDbEntity
  8
OBJECT
100
AcDbLine
 10
161.6833450066074
 20
-328.61249906145292
 30
0.0
 11
156.68334500660762
 21
-328.61249906145292
 31
0.0
  0
LINE
  5
31F
100
AcDbEntity
  8
OBJECT
100
AcDbLine
 10
156.68334500660762
 20
-327.61249906145292
 30
0.0
 11
161.6833450066074
 21
-327.61249906145292
 31
0.0
  0
LINE
  5
320
100
AcDbEntity
  8
OBJECT
100
AcDbLine
 10
152.68334500660751
 20
-232.61249906145295
 30
0.0
 11
153.68334500660751
 21
-232.61249906145295
 31
0.0
  0
LINE
  5
321
100
AcDbEntity
  8
OBJECT
100
AcDbLine
 10
152.68334500660774
 20
-237.61249906145295
 30
0.0
 11
152.68334500660751
 21
-232.61249906145295
 31
0.0
  0
LINE
  5
322
100
AcDbEntity
  8
OBJECT
100
AcDbLine
 10
153.68334500660774
 20
-235.43304958968238
 30
0.0
 11
153.68334500660774
 21
-237.61249906145295
 31
0.0
  0
LINE
  5
323
100
AcDbEntity
  8
OBJECT
100
AcDbLine
 10
181.68334500660274
 20
-235.11249906145295
 30
0.0
 11
181.18334500660728
 21
-235.11249906145295
 31
0.0
  0
LINE
  5
324
100
AcDbEntity
  8
OBJECT
100
AcDbLine
 10
121.18334500660796
 20
-235.61249906145295
 30
0.0
 11
121.18334500660808
 21
-213.6124990614525
 31
0.0
  0
ARC
  5
325
100
AcDbEntity
  8
OBJECT
100
AcDbCircle
 10
122.68334500660808
 20
-213.6124990614525
 30
0.0
 40
1.5
100
AcDbArc
 50
90.0
 51
180.0
  0
LINE
  5
326
100
AcDbEntity
  8
OBJECT
100
AcDbLine
 10
179.68334500660808
 20
-212.11249906145295
 30
0.0
 11
122.68334500660808
 21
-212.1124990614525
 31
0.0
  0
LINE
  5
327
100
AcDbEntity
  8
OBJECT
100
AcDbLine
 10
122.68334500660808
 20
-213.61249906145272
 30
0.0
 11
153.68334500660808
 21
-213.61249906145272
 31
0.0
  0
LINE
  5
328
100
AcDbEntity
  8
OBJECT
100
AcDbLine
 10
122.68334500660796
 20
-235.61249906145295
 30
0.0
 11
122.68334500660808
 21
-213.61249906145272
 31
0.0
  0
LINE
  5
329
100
AcDbEntity
  8
OBJECT
100
AcDbLine
 10
126.18334500660796
 20
-235.61249906145204
 30
0.0
 11
122.68334500660796
 21
-235.61249906145295
 31
0.0
  0
LINE
  5
32A
100
AcDbEntity
  8
OBJECT
100
AcDbLine
 10
126.18334500660796
 20
-237.11249906145295
 30
0.0
 11
122.68334500660796
 21
-237.11249906145295
 31
0.0
  0
ARC
  5
32B
100
AcDbEntity
  8
OBJECT
100
AcDbCircle
 10
122.68334500660796
 20
-235.61249906145295
 30
0.0
 40
1.5
100
AcDbArc
 50
180.0
 51
269.99999385906386
  0
LINE
  5
32C
100
AcDbEntity
  8
OBJECT
100
AcDbLine
 10
129.18334500660785
 20
-237.11249906145295
 30
0.0
 11
129.18334500660785
 21
-235.61249906145204
 31
0.0
  0
LINE
  5
32D
100
AcDbEntity
  8
OBJECT
100
AcDbLine
 10
126.18334500660796
 20
-235.61249906145204
 30
0.0
 11
129.18334500660785
 21
-235.61249906145204
 31
0.0
  0
LINE
  5
32E
100
AcDbEntity
  8
OBJECT
100
AcDbLine
 10
126.18334500660796
 20
-237.11249906145295
 30
0.0
 11
129.18334500660785
 21
-237.11249906145295
 31
0.0
  0
ARC
  5
32F
100
AcDbEntity
  8
OBJECT
100
AcDbCircle
 10
155.18334500660796
 20
-235.61249906145295
 30
0.0
 40
1.5
100
AcDbArc
 50
180.0
 51
269.99999385905949
  0
LINE
  5
330
100
AcDbEntity
  8
OBJECT
100
AcDbLine
 10
153.68334500660774
 20
-235.43304958968238
 30
0.0
 11
153.68334500660808
 21
-213.61249906145272
 31
0.0
  0
LINE
  5
331
100
AcDbEntity
  8
OBJECT
100
AcDbLine
 10
179.68334500660796
 20
-237.11249906145295
 30
0.0
 11
155.6837688643468
 21
-237.11249906145295
 31
0.0
  0
LINE
  5
332
100
AcDbEntity
  8
OBJECT
100
AcDbLine
 10
155.6837688643468
 20
-237.11249906145295
 30
0.0
 11
155.18334500660796
 21
-237.11249906145295
 31
0.0
  0
ARC
  5
333
100
AcDbEntity
  8
OBJECT
100
AcDbCircle
 10
179.68334500660796
 20
-235.61249906145295
 30
0.0
 40
1.5
100
AcDbArc
 50
270.0
 51
0.0
  0
LINE
  5
334
100
AcDbEntity
  8
OBJECT
100
AcDbLine
 10
181.18334500660808
 20
-212.11249906145295
 30
0.0
 11
181.18334500660796
 21
-235.61249906145295
 31
0.0
  0
LINE
  5
335
100
AcDbEntity
  8
OBJECT
100
AcDbLine
 10
179.68334500660808
 20
-212.11249906145295
 30
0.0
 11
181.18334500660808
 21
-212.11249906145295
 31
0.0
  0
LINE
  5
336
100
AcDbEntity
  8
OBJECT
100
AcDbLine
 10
181.18334500660808
 20
-211.11249906145295
 30
0.0
 11
179.68334500660808
 21
-211.11249906145295
 31
0.0
  0
LINE
  5
337
100
AcDbEntity
  8
OBJECT
100
AcDbLine
 10
181.18334500660808
 20
-211.11249906145295
 30
0.0
 11
181.18334500660808
 21
-210.11249906145432
 31
0.0
  0
LINE
  5
338
100
AcDbEntity
  8
OBJECT
100
AcDbLine
 10
179.68334500660808
 20
-211.11249906145295
 30
0.0
 11
179.68334500660808
 21
-210.11249906145432
 31
0.0
  0
LINE
  5
339
100
AcDbEntity
  8
OBJECT
100
AcDbLine
 10
181.18334500660796
 20
-212.11249906145295
 30
0.0
 11
181.18334500660808
 21
-211.11249906145295
 31
0.0
  0
LINE
  5
33A
100
AcDbEntity
  8
OBJECT
100
AcDbLine
 10
179.68334500660796
 20
-212.11249906145295
 30
0.0
 11
179.68334500660808
 21
-211.11249906145295
 31
0.0
  0
LINE
  5
33B
100
AcDbEntity
  8
OBJECT
100
AcDbLine
 10
156.6833450066074
 20
-312.11249906145338
 30
0.0
 11
156.6833450066074
 21
-314.11249906145338
 31
0.0
  0
LINE
  5
33C
100
AcDbEntity
  8
OBJECT
100
AcDbLine
 10
163.68334500660762
 20
-314.11249906145338
 30
0.0
 11
156.6833450066074
 21
-314.11249906145338
 31
0.0
  0
LINE
  5
33D
100
AcDbEntity
  8
OBJECT
100
AcDbLine
 10
249.68334500660762
 20
-314.1124990614536
 30
0.0
 11
163.68334500660762
 21
-314.11249906145338
 31
0.0
  0
LINE
  5
33E
100
AcDbEntity
  8
OBJECT
100
AcDbLine
 10
256.68334500660706
 20
-314.1124990614536
 30
0.0
 11
249.68334500660762
 21
-314.1124990614536
 31
0.0
  0
LINE
  5
33F
100
AcDbEntity
  8
OBJECT
100
AcDbLine
 10
213.68334500660626
 20
-315.11249921545675
 30
0.0
 11
163.68334500660626
 21
-315.11249921545652
 31
0.0
  0
LINE
  5
340
100
AcDbEntity
  8
OBJECT
100
AcDbLine
 10
205.68334485260311
 20
-354.11249906145292
 30
0.0
 11
171.68334531831078
 21
-354.11249906145292
 31
0.0
  0
POLYLINE
  5
341
100
AcDbEntity
  8
OBJECT
100
AcDb2dPolyline
 66
               1
 10
0.0
 20
0.0
 30
0.0
 75
               5
  0
VERTEX
  5
342
100
AcDbEntity
  8
OBJECT
100
AcDbVertex
100
AcDb2dVertex
 10
174.6833450066049
 20
-371.84454982004934
 30
0.0
  0
VERTEX
  5
343
100
AcDbEntity
  8
OBJECT
100
AcDbVertex
100
AcDb2dVertex
 10
174.68334500660501
 20
-371.75430484077094
 30
0.0
  0
VERTEX
  5
344
100
AcDbEntity
  8
OBJECT
100
AcDbVertex
100
AcDb2dVertex
 10
174.68334500660512
 20
-371.36378409795805
 30
0.0
  0
VERTEX
  5
345
100
AcDbEntity
  8
OBJECT
100
AcDbVertex
100
AcDb2dVertex
 10
174.68334500660512
 20
-370.91156110049667
 30
0.0
  0
VERTEX
  5
346
100
AcDbEntity
  8
OBJECT
100
AcDbVertex
100
AcDb2dVertex
 10
174.68334500660512
 20
-370.67861802032337
 30
0.0
  0
VERTEX
  5
347
100
AcDbEntity
  8
OBJECT
100
AcDbVertex
100
AcDb2dVertex
 10
174.68334500660512
 20
-370.38459704959575
 30
0.0
  0
VERTEX
  5
348
100
AcDbEntity
  8
OBJECT
100
AcDbVertex
100
AcDb2dVertex
 10
174.68334500660512
 20
-370.13843416244742
 30
0.0
  0
VERTEX
  5
349
100
AcDbEntity
  8
OBJECT
100
AcDbVertex
100
AcDb2dVertex
 10
174.68334500660512
 20
-370.11249906145201
 30
0.0
  0
SEQEND
  5
34A
100
AcDbEntity
  8
OBJECT
  0
POLYLINE
  5
34B
100
AcDbEntity
  8
OBJECT
100
AcDb2dPolyline
 66
               1
 10
0.0
 20
0.0
 30
0.0
 75
               5
  0
VERTEX
  5
34C
100
AcDbEntity
  8
OBJECT
100
AcDbVertex
100
AcDb2dVertex
 10
191.01965548006285
 20
-370.11249906145201
 30
0.0
  0
VERTEX
  5
34D
100
AcDbEntity
  8
OBJECT
100
AcDbVertex
100
AcDb2dVertex
 10
191.0610647383794
 20
-370.37347148725019
 30
0.0
  0
VERTEX
  5
34E
100
AcDbEntity
  8
OBJECT
100
AcDbVertex
100
AcDb2dVertex
 10
191.20156034038678
 20
-370.6519346840347
 30
0.0
  0
VERTEX
  5
34F
100
AcDbEntity
  8
OBJECT
100
AcDbVertex
100
AcDb2dVertex
 10
191.53179318483365
 20
-370.98841670432137
 30
0.0
  0
VERTEX
  5
350
100
AcDbEntity
  8
OBJECT
100
AcDbVertex
100
AcDb2dVertex
 10
192.33046459628122
 20
-371.40592960169886
 30
0.0
  0
VERTEX
  5
351
100
AcDbEntity
  8
OBJECT
100
AcDbVertex
100
AcDb2dVertex
 10
193.76732246152449
 20
-371.73186266341702
 30
0.0
  0
VERTEX
  5
352
100
AcDbEntity
  8
OBJECT
100
AcDbVertex
100
AcDb2dVertex
 10
195.26355960100386
 20
-371.83967936939155
 30
0.0
  0
VERTEX
  5
353
100
AcDbEntity
  8
OBJECT
100
AcDbVertex
100
AcDb2dVertex
 10
196.72619166765901
 20
-371.81365884953118
 30
0.0
  0
VERTEX
  5
354
100
AcDbEntity
  8
OBJECT
100
AcDbVertex
100
AcDb2dVertex
 10
198.1914868889744
 20
-371.63542003147938
 30
0.0
  0
VERTEX
  5
355
100
AcDbEntity
  8
OBJECT
100
AcDbVertex
100
AcDb2dVertex
 10
198.96154727060298
 20
-371.4322870233583
 30
0.0
  0
VERTEX
  5
356
100
AcDbEntity
  8
OBJECT
100
AcDbVertex
100
AcDb2dVertex
 10
199.80132708072142
 20
-371.01364680151653
 30
0.0
  0
VERTEX
  5
357
100
AcDbEntity
  8
OBJECT
100
AcDbVertex
100
AcDb2dVertex
 10
200.07449292380807
 20
-370.76688480426753
 30
0.0
  0
VERTEX
  5
358
100
AcDbEntity
  8
OBJECT
100
AcDbVertex
100
AcDb2dVertex
 10
200.28110866534143
 20
-370.4409900090144
 30
0.0
  0
VERTEX
  5
359
100
AcDbEntity
  8
OBJECT
100
AcDbVertex
100
AcDb2dVertex
 10
200.34330738744507
 20
-370.19108543764685
 30
0.0
  0
VERTEX
  5
35A
100
AcDbEntity
  8
OBJECT
100
AcDbVertex
100
AcDb2dVertex
 10
200.34703453315194
 20
-370.11249906145201
 30
0.0
  0
SEQEND
  5
35B
100
AcDbEntity
  8
OBJECT
  0
POLYLINE
  5
35C
100
AcDbEntity
  8
OBJECT
100
AcDb2dPolyline
 66
               1
 10
0.0
 20
0.0
 30
0.0
 75
               5
  0
VERTEX
  5
35D
100
AcDbEntity
  8
OBJECT
100
AcDbVertex
100
AcDb2dVertex
 10
202.68334500660774
 20
-370.1124990614511
 30
0.0
  0
VERTEX
  5
35E
100
AcDbEntity
  8
OBJECT
100
AcDbVertex
100
AcDb2dVertex
 10
202.68334500660774
 20
-370.15020697516127
 30
0.0
  0
VERTEX
  5
35F
100
AcDbEntity
  8
OBJECT
100
AcDbVertex
100
AcDb2dVertex
 10
202.68334500660774
 20
-370.39109986109236
 30
0.0
  0
VERTEX
  5
360
100
AcDbEntity
  8
OBJECT
100
AcDbVertex
100
AcDb2dVertex
 10
202.68334500660762
 20
-370.67088646458785
 30
0.0
  0
VERTEX
  5
361
100
AcDbEntity
  8
OBJECT
100
AcDbVertex
100
AcDb2dVertex
 10
202.68334500660762
 20
-371.0121884612837
 30
0.0
  0
VERTEX
  5
362
100
AcDbEntity
  8
OBJECT
100
AcDbVertex
100
AcDb2dVertex
 10
202.68334500660762
 20
-371.43412719290143
 30
0.0
  0
VERTEX
  5
363
100
AcDbEntity
  8
OBJECT
100
AcDbVertex
100
AcDb2dVertex
 10
202.68334500660762
 20
-371.76143268601788
 30
0.0
  0
VERTEX
  5
364
100
AcDbEntity
  8
OBJECT
100
AcDbVertex
100
AcDb2dVertex
 10
202.6833450066074
 20
-371.84454986902131
 30
0.0
  0
VERTEX
  5
365
100
AcDbEntity
  8
OBJECT
100
AcDbVertex
100
AcDb2dVertex
 10
202.6833450066074
 20
-371.84454983607714
 30
0.0
  0
SEQEND
  5
366
100
AcDbEntity
  8
OBJECT
  0
POLYLINE
  5
367
100
AcDbEntity
  8
OBJECT
100
AcDb2dPolyline
 66
               1
 10
0.0
 20
0.0
 30
0.0
 75
               5
  0
VERTEX
  5
368
100
AcDbEntity
  8
OBJECT
100
AcDbVertex
100
AcDb2dVertex
 10
177.01965548006137
 20
-370.11249906145201
 30
0.0
  0
VERTEX
  5
369
100
AcDbEntity
  8
OBJECT
100
AcDbVertex
100
AcDb2dVertex
 10
177.06106473837781
 20
-370.37347148725019
 30
0.0
  0
VERTEX
  5
36A
100
AcDbEntity
  8
OBJECT
100
AcDbVertex
100
AcDb2dVertex
 10
177.20156034038519
 20
-370.6519346840347
 30
0.0
  0
VERTEX
  5
36B
100
AcDbEntity
  8
OBJECT
100
AcDbVertex
100
AcDb2dVertex
 10
177.53179318483205
 20
-370.98841670432137
 30
0.0
  0
VERTEX
  5
36C
100
AcDbEntity
  8
OBJECT
100
AcDbVertex
100
AcDb2dVertex
 10
178.33046459627985
 20
-371.40592960169886
 30
0.0
  0
VERTEX
  5
36D
100
AcDbEntity
  8
OBJECT
100
AcDbVertex
100
AcDb2dVertex
 10
179.76732246152312
 20
-371.73186266341725
 30
0.0
  0
VERTEX
  5
36E
100
AcDbEntity
  8
OBJECT
100
AcDbVertex
100
AcDb2dVertex
 10
181.26355960100273
 20
-371.83967936939155
 30
0.0
  0
VERTEX
  5
36F
100
AcDbEntity
  8
OBJECT
100
AcDbVertex
100
AcDb2dVertex
 10
182.72619166765787
 20
-371.81365884953118
 30
0.0
  0
VERTEX
  5
370
100
AcDbEntity
  8
OBJECT
100
AcDbVertex
100
AcDb2dVertex
 10
184.19148688897326
 20
-371.63542003147938
 30
0.0
  0
VERTEX
  5
371
100
AcDbEntity
  8
OBJECT
100
AcDbVertex
100
AcDb2dVertex
 10
184.96154727060207
 20
-371.4322870233583
 30
0.0
  0
VERTEX
  5
372
100
AcDbEntity
  8
OBJECT
100
AcDbVertex
100
AcDb2dVertex
 10
185.80132708072051
 20
-371.01364680151653
 30
0.0
  0
VERTEX
  5
373
100
AcDbEntity
  8
OBJECT
100
AcDbVertex
100
AcDb2dVertex
 10
186.07449292380716
 20
-370.76688480426753
 30
0.0
  0
VERTEX
  5
374
100
AcDbEntity
  8
OBJECT
100
AcDbVertex
100
AcDb2dVertex
 10
186.28110866534053
 20
-370.4409900090144
 30
0.0
  0
VERTEX
  5
375
100
AcDbEntity
  8
OBJECT
100
AcDbVertex
100
AcDb2dVertex
 10
186.34330738744416
 20
-370.19108543764685
 30
0.0
  0
VERTEX
  5
376
100
AcDbEntity
  8
OBJECT
100
AcDbVertex
100
AcDb2dVertex
 10
186.34703453315115
 20
-370.11249906145201
 30
0.0
  0
SEQEND
  5
377
100
AcDbEntity
  8
OBJECT
  0
LINE
  5
378
100
AcDbEntity
  8
OBJECT
100
AcDbLine
 10
201.68334500660615
 20
-372.11249906145338
 30
0.0
 11
175.68334519308939
 21
-372.11249906145338
 31
0.0
  0
LINE
  5
379
100
AcDbEntity
  8
OBJECT
100
AcDbLine
 10
186.34703453315092
 20
-365.11249906145383
 30
0.0
 11
186.34703453315115
 21
-370.11249906145201
 31
0.0
  0
LINE
  5
37A
100
AcDbEntity
  8
OBJECT
100
AcDbLine
 10
177.01965548006137
 20
-365.11249906145383
 30
0.0
 11
177.01965548006137
 21
-370.11249906145201
 31
0.0
  0
LINE
  5
37B
100
AcDbEntity
  8
OBJECT
100
AcDbLine
 10
200.34703453315194
 20
-365.11249906145406
 30
0.0
 11
200.34703453315194
 21
-370.11249906145201
 31
0.0
  0
LINE
  5
37C
100
AcDbEntity
  8
OBJECT
100
AcDbLine
 10
191.01965548006285
 20
-365.11249906145383
 30
0.0
 11
191.01965548006285
 21
-370.11249906145201
 31
0.0
  0
LINE
  5
37D
100
AcDbEntity
  8
OBJECT
100
AcDbLine
 10
203.68334500661126
 20
-365.11249906145429
 30
0.0
 11
202.68334500660774
 21
-365.11249906145406
 31
0.0
  0
LINE
  5
37E
100
AcDbEntity
  8
OBJECT
100
AcDbLine
 10
186.34703453315092
 20
-365.11249906145383
 30
0.0
 11
177.01965548006137
 21
-365.11249906145383
 31
0.0
  0
LINE
  5
37F
100
AcDbEntity
  8
OBJECT
100
AcDbLine
 10
174.68334500660512
 20
-365.11249906145406
 30
0.0
 11
174.68334500660512
 21
-370.11249906145201
 31
0.0
  0
LINE
  5
380
100
AcDbEntity
  8
OBJECT
100
AcDbLine
 10
174.68334500660512
 20
-365.11249906145406
 30
0.0
 11
173.68334500660103
 21
-365.11249906145406
 31
0.0
  0
LINE
  5
381
100
AcDbEntity
  8
OBJECT
100
AcDbLine
 10
202.68334500660774
 20
-365.11249906145406
 30
0.0
 11
202.68334500660774
 21
-370.1124990614511
 31
0.0
  0
LINE
  5
382
100
AcDbEntity
  8
OBJECT
100
AcDbLine
 10
200.34703453315194
 20
-365.11249906145406
 30
0.0
 11
191.01965548006285
 21
-365.11249906145383
 31
0.0
  0
LINE
  5
383
100
AcDbEntity
  8
OBJECT
100
AcDbLine
 10
621.68334500660762
 20
-314.11249906145474
 30
0.0
 11
707.68334500660762
 21
-314.11249906145474
 31
0.0
  0
LINE
  5
384
100
AcDbEntity
  8
OBJECT
100
AcDbLine
 10
714.68334500660762
 20
-312.11249906145474
 30
0.0
 11
714.68334500660762
 21
-314.11249906145474
 31
0.0
  0
LINE
  5
385
100
AcDbEntity
  8
OBJECT
100
AcDbLine
 10
707.68334500660762
 20
-314.11249906145474
 30
0.0
 11
714.68334500660762
 21
-314.11249906145474
 31
0.0
  0
LINE
  5
386
100
AcDbEntity
  8
OBJECT
100
AcDbLine
 10
614.68334500660785
 20
-314.11249906145474
 30
0.0
 11
621.68334500660762
 21
-314.11249906145474
 31
0.0
  0
LINE
  5
387
100
AcDbEntity
  8
OBJECT
100
AcDbLine
 10
657.68334500660626
 20
-315.11249921545789
 30
0.0
 11
707.68334500660626
 21
-315.11249921545812
 31
0.0
  0
LINE
  5
388
100
AcDbEntity
  8
OBJECT
100
AcDbLine
 10
665.68334516060918
 20
-354.11249906145429
 30
0.0
 11
699.68334469490151
 21
-354.11249906145429
 31
0.0
  0
POLYLINE
  5
389
100
AcDbEntity
  8
OBJECT
100
AcDb2dPolyline
 66
               1
 10
0.0
 20
0.0
 30
0.0
 75
               5
  0
VERTEX
  5
38A
100
AcDbEntity
  8
OBJECT
100
AcDbVertex
100
AcDb2dVertex
 10
696.68334500660717
 20
-371.84454983607873
 30
0.0
  0
VERTEX
  5
38B
100
AcDbEntity
  8
OBJECT
100
AcDbVertex
100
AcDb2dVertex
 10
696.68334500660717
 20
-371.75430484077253
 30
0.0
  0
VERTEX
  5
38C
100
AcDbEntity
  8
OBJECT
100
AcDbVertex
100
AcDb2dVertex
 10
696.68334500660762
 20
-371.36378409795941
 30
0.0
  0
VERTEX
  5
38D
100
AcDbEntity
  8
OBJECT
100
AcDbVertex
100
AcDb2dVertex
 10
696.68334500660762
 20
-370.91156110049826
 30
0.0
  0
VERTEX
  5
38E
100
AcDbEntity
  8
OBJECT
100
AcDbVertex
100
AcDb2dVertex
 10
696.68334500660762
 20
-370.67861802032473
 30
0.0
  0
VERTEX
  5
38F
100
AcDbEntity
  8
OBJECT
100
AcDbVertex
100
AcDb2dVertex
 10
696.68334500660762
 20
-370.38459704959712
 30
0.0
  0
VERTEX
  5
390
100
AcDbEntity
  8
OBJECT
100
AcDbVertex
100
AcDb2dVertex
 10
696.68334500660762
 20
-370.13843416244879
 30
0.0
  0
VERTEX
  5
391
100
AcDbEntity
  8
OBJECT
100
AcDbVertex
100
AcDb2dVertex
 10
696.68334500660762
 20
-370.11249906145338
 30
0.0
  0
SEQEND
  5
392
100
AcDbEntity
  8
OBJECT
  0
POLYLINE
  5
393
100
AcDbEntity
  8
OBJECT
100
AcDb2dPolyline
 66
               1
 10
0.0
 20
0.0
 30
0.0
 75
               5
  0
VERTEX
  5
394
100
AcDbEntity
  8
OBJECT
100
AcDbVertex
100
AcDb2dVertex
 10
694.3470345331516
 20
-370.11249906145338
 30
0.0
  0
VERTEX
  5
395
100
AcDbEntity
  8
OBJECT
100
AcDbVertex
100
AcDb2dVertex
 10
694.30562527483494
 20
-370.37347148725155
 30
0.0
  0
VERTEX
  5
396
100
AcDbEntity
  8
OBJECT
100
AcDbVertex
100
AcDb2dVertex
 10
694.16512967282802
 20
-370.65193468403629
 30
0.0
  0
VERTEX
  5
397
100
AcDbEntity
  8
OBJECT
100
AcDbVertex
100
AcDb2dVertex
 10
693.83489682838103
 20
-370.98841670432296
 30
0.0
  0
VERTEX
  5
398
100
AcDbEntity
  8
OBJECT
100
AcDbVertex
100
AcDb2dVertex
 10
693.03622541693335
 20
-371.40592960170045
 30
0.0
  0
VERTEX
  5
399
100
AcDbEntity
  8
OBJECT
100
AcDbVertex
100
AcDb2dVertex
 10
691.59936755168997
 20
-371.73186266341861
 30
0.0
  0
VERTEX
  5
39A
100
AcDbEntity
  8
OBJECT
100
AcDbVertex
100
AcDb2dVertex
 10
690.10313041221048
 20
-371.83967936939314
 30
0.0
  0
VERTEX
  5
39B
100
AcDbEntity
  8
OBJECT
100
AcDbVertex
100
AcDb2dVertex
 10
688.64049834555544
 20
-371.81365884953254
 30
0.0
  0
VERTEX
  5
39C
100
AcDbEntity
  8
OBJECT
100
AcDbVertex
100
AcDb2dVertex
 10
687.17520312424017
 20
-371.63542003148075
 30
0.0
  0
VERTEX
  5
39D
100
AcDbEntity
  8
OBJECT
100
AcDbVertex
100
AcDb2dVertex
 10
686.40514274261136
 20
-371.43228702335989
 30
0.0
  0
VERTEX
  5
39E
100
AcDbEntity
  8
OBJECT
100
AcDbVertex
100
AcDb2dVertex
 10
685.56536293249269
 20
-371.01364680151789
 30
0.0
  0
VERTEX
  5
39F
100
AcDbEntity
  8
OBJECT
100
AcDbVertex
100
AcDb2dVertex
 10
685.29219708940627
 20
-370.76688480426913
 30
0.0
  0
VERTEX
  5
3A0
100
AcDbEntity
  8
OBJECT
100
AcDbVertex
100
AcDb2dVertex
 10
685.0855813478729
 20
-370.44099000901599
 30
0.0
  0
VERTEX
  5
3A1
100
AcDbEntity
  8
OBJECT
100
AcDbVertex
100
AcDb2dVertex
 10
685.02338262576927
 20
-370.19108543764821
 30
0.0
  0
VERTEX
  5
3A2
100
AcDbEntity
  8
OBJECT
100
AcDbVertex
100
AcDb2dVertex
 10
685.01965548006228
 20
-370.11249906145338
 30
0.0
  0
SEQEND
  5
3A3
100
AcDbEntity
  8
OBJECT
  0
POLYLINE
  5
3A4
100
AcDbEntity
  8
OBJECT
100
AcDb2dPolyline
 66
               1
 10
0.0
 20
0.0
 30
0.0
 75
               5
  0
VERTEX
  5
3A5
100
AcDbEntity
  8
OBJECT
100
AcDbVertex
100
AcDb2dVertex
 10
668.6833450066049
 20
-370.11249906145247
 30
0.0
  0
VERTEX
  5
3A6
100
AcDbEntity
  8
OBJECT
100
AcDbVertex
100
AcDb2dVertex
 10
668.6833450066049
 20
-370.15020697516263
 30
0.0
  0
VERTEX
  5
3A7
100
AcDbEntity
  8
OBJECT
100
AcDbVertex
100
AcDb2dVertex
 10
668.6833450066049
 20
-370.39109986109372
 30
0.0
  0
VERTEX
  5
3A8
100
AcDbEntity
  8
OBJECT
100
AcDbVertex
100
AcDb2dVertex
 10
668.6833450066049
 20
-370.67088646458922
 30
0.0
  0
VERTEX
  5
3A9
100
AcDbEntity
  8
OBJECT
100
AcDbVertex
100
AcDb2dVertex
 10
668.6833450066049
 20
-371.01218846128506
 30
0.0
  0
VERTEX
  5
3AA
100
AcDbEntity
  8
OBJECT
100
AcDbVertex
100
AcDb2dVertex
 10
668.6833450066049
 20
-371.43412719290279
 30
0.0
  0
VERTEX
  5
3AB
100
AcDbEntity
  8
OBJECT
100
AcDbVertex
100
AcDb2dVertex
 10
668.6833450066049
 20
-371.76143268601925
 30
0.0
  0
VERTEX
  5
3AC
100
AcDbEntity
  8
OBJECT
100
AcDbVertex
100
AcDb2dVertex
 10
668.6833450066049
 20
-371.84454986902267
 30
0.0
  0
VERTEX
  5
3AD
100
AcDbEntity
  8
OBJECT
100
AcDbVertex
100
AcDb2dVertex
 10
668.6833450066049
 20
-371.8445498200507
 30
0.0
  0
SEQEND
  5
3AE
100
AcDbEntity
  8
OBJECT
  0
POLYLINE
  5
3AF
100
AcDbEntity
  8
OBJECT
100
AcDb2dPolyline
 66
               1
 10
0.0
 20
0.0
 30
0.0
 75
               5
  0
VERTEX
  5
3B0
100
AcDbEntity
  8
OBJECT
100
AcDbVertex
100
AcDb2dVertex
 10
680.34703453315046
 20
-370.11249906145338
 30
0.0
  0
VERTEX
  5
3B1
100
AcDbEntity
  8
OBJECT
100
AcDbVertex
100
AcDb2dVertex
 10
680.30562527483403
 20
-370.37347148725155
 30
0.0
  0
VERTEX
  5
3B2
100
AcDbEntity
  8
OBJECT
100
AcDbVertex
100
AcDb2dVertex
 10
680.16512967282665
 20
-370.65193468403606
 30
0.0
  0
VERTEX
  5
3B3
100
AcDbEntity
  8
OBJECT
100
AcDbVertex
100
AcDb2dVertex
 10
679.83489682837967
 20
-370.98841670432273
 30
0.0
  0
VERTEX
  5
3B4
100
AcDbEntity
  8
OBJECT
100
AcDbVertex
100
AcDb2dVertex
 10
679.03622541693198
 20
-371.40592960170022
 30
0.0
  0
VERTEX
  5
3B5
100
AcDbEntity
  8
OBJECT
100
AcDbVertex
100
AcDb2dVertex
 10
677.59936755168883
 20
-371.73186266341861
 30
0.0
  0
VERTEX
  5
3B6
100
AcDbEntity
  8
OBJECT
100
AcDbVertex
100
AcDb2dVertex
 10
676.10313041220911
 20
-371.83967936939291
 30
0.0
  0
VERTEX
  5
3B7
100
AcDbEntity
  8
OBJECT
100
AcDbVertex
100
AcDb2dVertex
 10
674.64049834555431
 20
-371.81365884953254
 30
0.0
  0
VERTEX
  5
3B8
100
AcDbEntity
  8
OBJECT
100
AcDbVertex
100
AcDb2dVertex
 10
673.17520312423881
 20
-371.63542003148075
 30
0.0
  0
VERTEX
  5
3B9
100
AcDbEntity
  8
OBJECT
100
AcDbVertex
100
AcDb2dVertex
 10
672.40514274261
 20
-371.43228702335966
 30
0.0
  0
VERTEX
  5
3BA
100
AcDbEntity
  8
OBJECT
100
AcDbVertex
100
AcDb2dVertex
 10
671.56536293249178
 20
-371.01364680151789
 30
0.0
  0
VERTEX
  5
3BB
100
AcDbEntity
  8
OBJECT
100
AcDbVertex
100
AcDb2dVertex
 10
671.29219708940514
 20
-370.7668848042689
 30
0.0
  0
VERTEX
  5
3BC
100
AcDbEntity
  8
OBJECT
100
AcDbVertex
100
AcDb2dVertex
 10
671.08558134787177
 20
-370.44099000901576
 30
0.0
  0
VERTEX
  5
3BD
100
AcDbEntity
  8
OBJECT
100
AcDbVertex
100
AcDb2dVertex
 10
671.02338262576791
 20
-370.19108543764821
 30
0.0
  0
VERTEX
  5
3BE
100
AcDbEntity
  8
OBJECT
100
AcDbVertex
100
AcDb2dVertex
 10
671.01965548006115
 20
-370.11249906145338
 30
0.0
  0
SEQEND
  5
3BF
100
AcDbEntity
  8
OBJECT
  0
LINE
  5
3C0
100
AcDbEntity
  8
OBJECT
100
AcDbLine
 10
669.68334500660626
 20
-372.11249906145474
 30
0.0
 11
695.68334482012301
 21
-372.11249906145474
 31
0.0
  0
LINE
  5
3C1
100
AcDbEntity
  8
OBJECT
100
AcDbLine
 10
671.01965548006115
 20
-365.11249906145542
 30
0.0
 11
671.01965548006115
 21
-370.11249906145338
 31
0.0
  0
LINE
  5
3C2
100
AcDbEntity
  8
OBJECT
100
AcDbLine
 10
680.34703453315046
 20
-365.11249906145542
 30
0.0
 11
680.34703453315046
 21
-370.11249906145338
 31
0.0
  0
LINE
  5
3C3
100
AcDbEntity
  8
OBJECT
100
AcDbLine
 10
685.01965548006251
 20
-365.11249906145542
 30
0.0
 11
685.01965548006228
 21
-370.11249906145338
 31
0.0
  0
LINE
  5
3C4
100
AcDbEntity
  8
OBJECT
100
AcDbLine
 10
694.3470345331516
 20
-365.11249906145542
 30
0.0
 11
694.3470345331516
 21
-370.11249906145338
 31
0.0
  0
LINE
  5
3C5
100
AcDbEntity
  8
OBJECT
100
AcDbLine
 10
667.68334500660103
 20
-365.11249906145542
 30
0.0
 11
668.6833450066049
 21
-365.11249906145542
 31
0.0
  0
LINE
  5
3C6
100
AcDbEntity
  8
OBJECT
100
AcDbLine
 10
668.6833450066049
 20
-365.11249906145542
 30
0.0
 11
668.6833450066049
 21
-370.11249906145247
 31
0.0
  0
LINE
  5
3C7
100
AcDbEntity
  8
OBJECT
100
AcDbLine
 10
696.68334500660762
 20
-365.11249906145565
 30
0.0
 11
697.68334500661126
 21
-365.11249906145565
 31
0.0
  0
LINE
  5
3C8
100
AcDbEntity
  8
OBJECT
100
AcDbLine
 10
696.68334500660762
 20
-365.11249906145565
 30
0.0
 11
696.68334500660762
 21
-370.11249906145338
 31
0.0
  0
LINE
  5
3C9
100
AcDbEntity
  8
OBJECT
100
AcDbLine
 10
685.01965548006251
 20
-365.11249906145542
 30
0.0
 11
694.3470345331516
 21
-365.11249906145542
 31
0.0
  0
LINE
  5
3CA
100
AcDbEntity
  8
OBJECT
100
AcDbLine
 10
671.01965548006115
 20
-365.11249906145542
 30
0.0
 11
680.34703453315046
 21
-365.11249906145542
 31
0.0
  0
LINE
  5
3CB
100
AcDbEntity
  8
OBJECT
100
AcDbLine
 10
155.68376886435794
 20
-310.61249906145292
 30
0.0
 11
155.68376886435794
 21
-310.11249906145292
 31
0.0
  0
LINE
  5
3CC
100
AcDbEntity
  8
OBJECT
100
AcDbLine
 10
155.18334500660796
 20
-239.11249906145295
 30
0.0
 11
155.68376886435817
 21
-239.11249906145295
 31
0.0
  0
LINE
  5
3CD
100
AcDbEntity
  8
OBJECT
100
AcDbLine
 10
155.68376886435817
 20
-239.11249906145295
 30
0.0
 11
155.68376886435817
 21
-238.61249906145272
 31
0.0
  0
LINE
  5
3CE
100
AcDbEntity
  8
OBJECT
100
AcDbLine
 10
715.6837688643584
 20
-238.61249906145477
 30
0.0
 11
715.6837688643584
 21
-239.11249906145477
 31
0.0
  0
LINE
  5
3CF
100
AcDbEntity
  8
OBJECT
100
AcDbLine
 10
715.6837688643584
 20
-239.11249906145477
 30
0.0
 11
716.18334500660808
 21
-239.11249906145477
 31
0.0
  0
LINE
  5
3D0
100
AcDbEntity
  8
OBJECT
100
AcDbLine
 10
155.68376886435794
 20
-310.11249906145292
 30
0.0
 11
155.18334500660762
 21
-310.11249906145292
 31
0.0
  0
LINE
  5
3D1
100
AcDbEntity
  8
OBJECT
100
AcDbLine
 10
155.18376886435772
 20
-310.61249906145292
 30
0.0
 11
155.18376886435772
 21
-312.1124990614527
 31
0.0
  0
LINE
  5
3D2
100
AcDbEntity
  8
OBJECT
100
AcDbLine
 10
155.18376886435772
 20
-310.61249906145292
 30
0.0
 11
155.68376886435794
 21
-310.61249906145292
 31
0.0
  0
LINE
  5
3D3
100
AcDbEntity
  8
OBJECT
100
AcDbLine
 10
716.18334500660785
 20
-312.11249906145497
 30
0.0
 11
155.18376886435772
 21
-312.1124990614527
 31
0.0
  0
LINE
  5
3D4
100
AcDbEntity
  8
OBJECT
100
AcDbLine
 10
153.68334500660785
 20
-239.11249906145295
 30
0.0
 11
155.18334500660796
 21
-239.11249906145295
 31
0.0
  0
LINE
  5
3D5
100
AcDbEntity
  8
OBJECT
100
AcDbLine
 10
155.18334500660762
 20
-310.11249906145292
 30
0.0
 11
153.68334500660762
 21
-310.11249906145292
 31
0.0
  0
LINE
  5
3D6
100
AcDbEntity
  8
OBJECT
100
AcDbLine
 10
155.68376886435806
 20
-237.11249906145295
 30
0.0
 11
179.68334500659944
 21
-237.11249906145295
 31
0.0
  0
LINE
  5
3D7
100
AcDbEntity
  8
OBJECT
100
AcDbLine
 10
179.68334500659944
 20
-237.11249906145295
 30
0.0
 11
181.68334500660285
 21
-237.11249906145295
 31
0.0
  0
LINE
  5
3D8
100
AcDbEntity
  8
OBJECT
100
AcDbLine
 10
715.6837688643584
 20
-237.11249906145477
 30
0.0
 11
715.6837688643584
 21
-238.61249906145477
 31
0.0
  0
LINE
  5
3D9
100
AcDbEntity
  8
OBJECT
100
AcDbLine
 10
155.68376886435817
 20
-238.61249906145272
 30
0.0
 11
155.68376886435806
 21
-237.11249906145295
 31
0.0
  0
ARC
  5
3DA
100
AcDbEntity
  8
OBJECT
100
AcDbCircle
 10
716.18334500660785
 20
-310.61249906145497
 30
0.0
 40
1.5
100
AcDbArc
 50
270.0
 51
0.0
  0
LINE
  5
3DB
100
AcDbEntity
  8
OBJECT
100
AcDbLine
 10
717.68334500660808
 20
-239.112499061455
 30
0.0
 11
717.68334500660785
 21
-309.61249906145497
 31
0.0
  0
LINE
  5
3DC
100
AcDbEntity
  8
OBJECT
100
AcDbLine
 10
717.68334500660785
 20
-309.61249906145497
 30
0.0
 11
717.68334500660785
 21
-310.32965634898017
 31
0.0
  0
LINE
  5
3DD
100
AcDbEntity
  8
OBJECT
100
AcDbLine
 10
717.68334500660785
 20
-310.61249906145497
 30
0.0
 11
717.68334500660785
 21
-310.32965634898017
 31
0.0
  0
LINE
  5
3DE
100
AcDbEntity
  8
OBJECT
100
AcDbLine
 10
716.18334500660808
 20
-239.11249906145477
 30
0.0
 11
717.68334500660808
 21
-239.112499061455
 31
0.0
  0
LINE
  5
3DF
100
AcDbEntity
  8
OBJECT
100
AcDbLine
 10
155.18376886435749
 20
-312.1124990614527
 30
0.0
 11
155.18376886435749
 21
-317.1124990614527
 31
0.0
  0
ARC
  5
3E0
100
AcDbEntity
  8
OBJECT
100
AcDbCircle
 10
155.1833450066074
 20
-312.11249906145292
 30
0.0
 40
1.5
100
AcDbArc
 50
90.0
 51
180.0
  0
LINE
  5
3E1
100
AcDbEntity
  8
OBJECT
100
AcDbLine
 10
155.18376886435703
 20
-327.11249906145292
 30
0.0
 11
153.68334500660694
 21
-327.11249906145292
 31
0.0
  0
LINE
  5
3E2
100
AcDbEntity
  8
OBJECT
100
AcDbLine
 10
155.18376886435703
 20
-327.11249906145292
 30
0.0
 11
155.18376886435749
 21
-317.1124990614527
 31
0.0
  0
ARC
  5
3E3
100
AcDbEntity
  8
OBJECT
100
AcDbCircle
 10
152.50421364914666
 20
-249.5134990614537
 30
0.0
 40
0.3999999999998636
100
AcDbArc
 50
90.0
 51
167.47119229086968
  0
ARC
  5
3E4
100
AcDbEntity
  8
OBJECT
100
AcDbCircle
 10
152.50421364914655
 20
-257.71349906145372
 30
0.0
 40
0.399999999999961
100
AcDbArc
 50
192.52880770916565
 51
270.0
  0
LINE
  5
3E5
100
AcDbEntity
  8
OBJECT
100
AcDbLine
 10
152.68334500660023
 20
-249.11349906145384
 30
0.0
 11
152.50421364914666
 21
-249.11349906145384
 31
0.0
  0
LINE
  5
3E6
100
AcDbEntity
  8
OBJECT
100
AcDbLine
 10
152.50421364914655
 20
-258.11349906145381
 30
0.0
 11
152.68334500660023
 21
-258.11349906145381
 31
0.0
  0
LINE
  5
3E7
100
AcDbEntity
  8
OBJECT
100
AcDbLine
 10
152.11373882507303
 20
-249.42672687832638
 30
0.0
 11
151.18334500660023
 21
-253.61349906145384
 31
0.0
  0
LINE
  5
3E8
100
AcDbEntity
  8
OBJECT
100
AcDbLine
 10
151.18334500660023
 20
-253.61349906145384
 30
0.0
 11
152.11373882507303
 21
-257.80027124458127
 31
0.0
  0
LINE
  5
3E9
100
AcDbEntity
  8
OBJECT
100
AcDbLine
 10
151.68334500660535
 20
-265.61349906145313
 30
0.0
 11
150.18334500660535
 21
-267.11349906145313
 31
0.0
  0
LINE
  5
3EA
100
AcDbEntity
  8
OBJECT
100
AcDbLine
 10
150.18334500660558
 20
-290.11349906145313
 30
0.0
 11
151.68334500660558
 21
-291.61349906145313
 31
0.0
  0
LINE
  5
3EB
100
AcDbEntity
  8
OBJECT
100
AcDbLine
 10
152.68334500660535
 20
-265.61349906145313
 30
0.0
 11
151.68334500660535
 21
-265.61349906145313
 31
0.0
  0
LINE
  5
3EC
100
AcDbEntity
  8
OBJECT
100
AcDbLine
 10
151.68334500660558
 20
-291.61349906145313
 30
0.0
 11
152.68334500660558
 21
-291.61349906145313
 31
0.0
  0
LINE
  5
3ED
100
AcDbEntity
  8
OBJECT
100
AcDbLine
 10
256.68334500660706
 20
-314.1124990614536
 30
0.0
 11
256.68334500660706
 21
-312.1124990614536
 31
0.0
  0
LINE
  5
3EE
100
AcDbEntity
  8
OBJECT
100
AcDbLine
 10
163.68334500660626
 20
-314.11249906145338
 30
0.0
 11
163.68334500660626
 21
-315.11249921545652
 31
0.0
  0
LINE
  5
3EF
100
AcDbEntity
  8
OBJECT
100
AcDbLine
 10
213.68334500660626
 20
-315.11249921545675
 30
0.0
 11
213.68334500660626
 21
-314.11249906145383
 31
0.0
  0
ARC
  5
3F0
100
AcDbEntity
  8
OBJECT
100
AcDbCircle
 10
165.68334516060918
 20
-318.11249921545652
 30
0.0
 40
3.0
100
AcDbArc
 50
0.0
 51
90.0
  0
ARC
  5
3F1
100
AcDbEntity
  8
OBJECT
100
AcDbCircle
 10
211.68334485260334
 20
-318.11249921545675
 30
0.0
 40
3.0
100
AcDbArc
 50
90.0
 51
180.0
  0
LINE
  5
3F2
100
AcDbEntity
  8
OBJECT
100
AcDbLine
 10
168.68334516060918
 20
-318.11249921545652
 30
0.0
 11
168.68334516060918
 21
-351.11249906145292
 31
0.0
  0
LINE
  5
3F3
100
AcDbEntity
  8
OBJECT
100
AcDbLine
 10
208.68334485260323
 20
-351.11249906145292
 30
0.0
 11
208.68334485260334
 21
-318.11249921545675
 31
0.0
  0
ARC
  5
3F4
100
AcDbEntity
  8
OBJECT
100
AcDbCircle
 10
171.68334516060952
 20
-351.11249906145247
 30
0.0
 40
3.0000000000003411
100
AcDbArc
 50
180.0
 51
269.99999999999562
  0
ARC
  5
3F5
100
AcDbEntity
  8
OBJECT
100
AcDbCircle
 10
205.68334485260289
 20
-351.11249906145247
 30
0.0
 40
3.0000000000004547
100
AcDbArc
 50
270.00000000000222
 51
0.0
  0
ARC
  5
3F6
100
AcDbEntity
  8
OBJECT
100
AcDbCircle
 10
175.68334500660694
 20
-370.1124990614511
 30
0.0
 40
2.0000000000021916
100
AcDbArc
 50
240.0042017354086
 51
269.99999999998698
  0
ARC
  5
3F7
100
AcDbEntity
  8
OBJECT
100
AcDbCircle
 10
201.68334500660535
 20
-370.1124990614511
 30
0.0
 40
2.0000000000022737
100
AcDbArc
 50
270.00000000001302
 51
299.97558203047703
  0
LINE
  5
3F8
100
AcDbEntity
  8
OBJECT
100
AcDbLine
 10
173.68334500660114
 20
-354.11249906145292
 30
0.0
 11
173.68334500660103
 21
-365.11249906145406
 31
0.0
  0
LINE
  5
3F9
100
AcDbEntity
  8
OBJECT
100
AcDbLine
 10
203.68334500661126
 20
-365.11249906145429
 30
0.0
 11
203.68334500661126
 21
-354.11249906145292
 31
0.0
  0
LINE
  5
3FA
100
AcDbEntity
  8
OBJECT
100
AcDbLine
 10
614.68334500660785
 20
-312.11249906145474
 30
0.0
 11
614.68334500660785
 21
-314.11249906145474
 31
0.0
  0
LINE
  5
3FB
100
AcDbEntity
  8
OBJECT
100
AcDbLine
 10
657.68334500660626
 20
-314.11249906145497
 30
0.0
 11
657.68334500660626
 21
-315.11249921545789
 31
0.0
  0
LINE
  5
3FC
100
AcDbEntity
  8
OBJECT
100
AcDbLine
 10
707.68334500660626
 20
-315.11249921545812
 30
0.0
 11
707.68334500660626
 21
-314.1124990614552
 31
0.0
  0
ARC
  5
3FD
100
AcDbEntity
  8
OBJECT
100
AcDbCircle
 10
659.68334516060918
 20
-318.11249921545812
 30
0.0
 40
3.0
100
AcDbArc
 50
0.0
 51
90.0
  0
ARC
  5
3FE
100
AcDbEntity
  8
OBJECT
100
AcDbCircle
 10
705.68334485260334
 20
-318.11249921545812
 30
0.0
 40
3.0
100
AcDbArc
 50
90.0
 51
180.0
  0
LINE
  5
3FF
100
AcDbEntity
  8
OBJECT
100
AcDbLine
 10
662.68334516060918
 20
-318.11249921545812
 30
0.0
 11
662.68334516060918
 21
-351.11249906145429
 31
0.0
  0
LINE
  5
400
100
AcDbEntity
  8
OBJECT
100
AcDbLine
 10
702.68334485260334
 20
-351.11249906145429
 30
0.0
 11
702.68334485260334
 21
-318.11249921545812
 31
0.0
  0
ARC
  5
401
100
AcDbEntity
  8
OBJECT
100
AcDbCircle
 10
665.68334516060963
 20
-351.11249906145383
 30
0.0
 40
3.0000000000004547
100
AcDbArc
 50
180.0
 51
269.9999999999913
  0
ARC
  5
402
100
AcDbEntity
  8
OBJECT
100
AcDbCircle
 10
699.68334485260289
 20
-351.11249906145406
 30
0.0
 40
3.0000000000002274
100
AcDbArc
 50
270.0
 51
0.0
  0
ARC
  5
403
100
AcDbEntity
  8
OBJECT
100
AcDbCircle
 10
669.68334500660671
 20
-370.11249906145247
 30
0.0
 40
2.0000000000021916
100
AcDbArc
 50
240.0042017354086
 51
269.99999999998698
  0
ARC
  5
404
100
AcDbEntity
  8
OBJECT
100
AcDbCircle
 10
695.68334500660535
 20
-370.1124990614527
 30
0.0
 40
2.0000000000020464
100
AcDbArc
 50
270.00000000001302
 51
299.9755820304714
  0
LINE
  5
405
100
AcDbEntity
  8
OBJECT
100
AcDbLine
 10
667.68334500660126
 20
-354.11249906145429
 30
0.0
 11
667.68334500660103
 21
-365.11249906145542
 31
0.0
  0
LINE
  5
406
100
AcDbEntity
  8
OBJECT
100
AcDbLine
 10
697.68334500661126
 20
-365.11249906145565
 30
0.0
 11
697.68334500661126
 21
-354.11249906145429
 31
0.0
  0
LINE
  5
407
100
AcDbEntity
  8
OBJECT
100
AcDbLine
 10
177.6833450066033
 20
-31.462499061430123
 30
0.0
 11
178.38334500660801
 21
-31.462499061430123
 31
0.0
  0
LINE
  5
408
100
AcDbEntity
  8
OBJECT
100
AcDbLine
 10
177.68334500660342
 20
-42.462499061429895
 30
0.0
 11
178.38334500660812
 21
-42.462499061429668
 31
0.0
  0
LINE
  5
409
100
AcDbEntity
  8
OBJECT
100
AcDbLine
 10
718.88334500660767
 20
-309.61249906145497
 30
0.0
 11
717.68334500660762
 21
-309.61249906145497
 31
0.0
  0
LINE
  5
40A
100
AcDbEntity
  8
OBJECT
100
AcDbLine
 10
181.68334500660285
 20
-236.11249906145386
 30
0.0
 11
717.68334500660308
 21
-236.11249906145386
 31
0.0
  0
LINE
  5
40B
100
AcDbEntity
  8
OBJECT
100
AcDbLine
 10
152.50421364914666
 20
-249.11349906145384
 30
0.0
 11
152.50421364914655
 21
-258.11349906145381
 31
0.0
  0
LINE
  5
40C
100
AcDbEntity
  8
OBJECT
100
AcDbLine
 10
152.11373882507303
 20
-249.42672687832638
 30
0.0
 11
152.11373882507303
 21
-257.80027124458127
 31
0.0
  0
LINE
  5
40D
100
AcDbEntity
  8
OBJECT
100
AcDbLine
 10
150.18334500656681
 20
-297.91349906145376
 30
0.0
 11
152.68334500656681
 21
-297.91349906145376
 31
0.0
  0
LINE
  5
40E
100
AcDbEntity
  8
OBJECT
100
AcDbLine
 10
149.6833450065667
 20
-297.91349906145376
 30
0.0
 11
150.18334500656681
 21
-297.91349906145376
 31
0.0
  0
LINE
  5
40F
100
AcDbEntity
  8
OBJECT
100
AcDbLine
 10
149.68334500656692
 20
-269.31349906145385
 30
0.0
 11
150.18334500656692
 21
-269.31349906145385
 31
0.0
  0
LINE
  5
410
100
AcDbEntity
  8
OBJECT
100
AcDbLine
 10
149.59322005057834
 20
-274.48829123151188
 30
0.0
 11
149.68334500656692
 21
-274.48438526453253
 31
0.0
  0
ARC
  5
411
100
AcDbEntity
  8
OBJECT
100
AcDbCircle
 10
115.50521892869244
 20
-275.96564681305188
 30
0.0
 40
34.370000000000033
100
AcDbArc
 50
335.51838479039054
 51
353.94299281511121
  0
LINE
  5
412
100
AcDbEntity
  8
OBJECT
100
AcDbLine
 10
146.55763606169478
 20
-290.10501703233774
 30
0.0
 11
146.7851596338885
 21
-290.20861734168182
 31
0.0
  0
LINE
  5
413
100
AcDbEntity
  8
OBJECT
100
AcDbLine
 10
146.7851596338885
 20
-290.20861734168182
 30
0.0
 11
146.68397397024501
 21
-290.43722500006822
 31
0.0
  0
LINE
  5
414
100
AcDbEntity
  8
OBJECT
100
AcDbLine
 10
146.7851596338885
 20
-290.20861734168182
 30
0.0
 11
149.68334500656681
 21
-291.4914038080932
 31
0.0
  0
LINE
  5
415
100
AcDbEntity
  8
OBJECT
100
AcDbLine
 10
153.68334500660774
 20
-237.61249906145295
 30
0.0
 11
152.68334500660774
 21
-237.61249906145295
 31
0.0
  0
LINE
  5
416
100
AcDbEntity
  8
OBJECT
100
AcDbLine
 10
156.68334500660762
 20
-328.61249906145292
 30
0.0
 11
156.68334500660762
 21
-327.61249906145292
 31
0.0
  0
LINE
  5
417
100
AcDbEntity
  8
OBJECT
100
AcDbLine
 10
126.18334500660796
 20
-237.11249906145295
 30
0.0
 11
126.18334500660796
 21
-235.61249906145204
 31
0.0
  0
LINE
  5
418
100
AcDbEntity
  8
OBJECT
100
AcDbLine
 10
163.68334500660762
 20
-312.11249906145338
 30
0.0
 11
163.68334500660762
 21
-314.11249906145338
 31
0.0
  0
LINE
  5
419
100
AcDbEntity
  8
OBJECT
100
AcDbLine
 10
249.68334500660762
 20
-312.1124990614536
 30
0.0
 11
249.68334500660762
 21
-314.1124990614536
 31
0.0
  0
LINE
  5
41A
100
AcDbEntity
  8
OBJECT
100
AcDbLine
 10
202.68334500660774
 20
-370.1124990614511
 30
0.0
 11
200.34703453315194
 21
-370.11249906145201
 31
0.0
  0
LINE
  5
41B
100
AcDbEntity
  8
OBJECT
100
AcDbLine
 10
177.01965548006137
 20
-370.11249906145201
 30
0.0
 11
174.68334500660512
 21
-370.11249906145201
 31
0.0
  0
LINE
  5
41C
100
AcDbEntity
  8
OBJECT
100
AcDbLine
 10
191.01965548006285
 20
-370.11249906145201
 30
0.0
 11
186.34703453315115
 21
-370.11249906145201
 31
0.0
  0
LINE
  5
41D
100
AcDbEntity
  8
OBJECT
100
AcDbLine
 10
621.68334500660762
 20
-312.11249906145474
 30
0.0
 11
621.68334500660762
 21
-314.11249906145474
 31
0.0
  0
LINE
  5
41E
100
AcDbEntity
  8
OBJECT
100
AcDbLine
 10
707.68334500660762
 20
-312.11249906145474
 30
0.0
 11
707.68334500660762
 21
-314.11249906145474
 31
0.0
  0
LINE
  5
41F
100
AcDbEntity
  8
OBJECT
100
AcDbLine
 10
694.3470345331516
 20
-370.11249906145338
 30
0.0
 11
696.68334500660762
 21
-370.11249906145338
 31
0.0
  0
LINE
  5
420
100
AcDbEntity
  8
OBJECT
100
AcDbLine
 10
668.6833450066049
 20
-370.11249906145247
 30
0.0
 11
671.01965548006115
 21
-370.11249906145338
 31
0.0
  0
LINE
  5
421
100
AcDbEntity
  8
OBJECT
100
AcDbLine
 10
680.34703453315046
 20
-370.11249906145338
 30
0.0
 11
685.01965548006228
 21
-370.11249906145338
 31
0.0
  0
LINE
  5
422
100
AcDbEntity
  8
OBJECT
100
AcDbLine
 10
716.18334500660785
 20
-312.11249906145497
 30
0.0
 11
716.18334500660785
 21
-310.61249906145474
 31
0.0
  0
LINE
  5
423
100
AcDbEntity
  8
OBJECT
100
AcDbLine
 10
717.68334500660785
 20
-310.61249906145497
 30
0.0
 11
716.18334500660785
 21
-310.61249906145474
 31
0.0
  0
LINE
  5
424
100
AcDbEntity
  8
OBJECT
100
AcDbLine
 10
155.18376886435749
 20
-317.1124990614527
 30
0.0
 11
153.6833450066074
 21
-317.1124990614527
 31
0.0
  0
LINE
  5
425
100
AcDbEntity
  8
OBJECT
100
AcDbLine
 10
-26.666654993414681
 20
-194.91249906144949
 30
0.0
 11
-15.666654993415136
 21
-194.91249906144949
 31
0.0
  0
LINE
  5
426
100
AcDbEntity
  8
OBJECT
100
AcDbLine
 10
-28.666654993414795
 20
-194.91249906144949
 30
0.0
 11
-26.666654993414681
 21
-194.91249906144949
 31
0.0
  0
LINE
  5
427
100
AcDbEntity
  8
OBJECT
100
AcDbLine
 10
-28.666654993414795
 20
-194.91249906144949
 30
0.0
 11
-29.366654993408247
 21
-195.61249906144295
 31
0.0
  0
LINE
  5
428
100
AcDbEntity
  8
OBJECT
100
AcDbLine
 10
-15.666654993415136
 20
-194.91249906144949
 30
0.0
 11
-13.666654993416728
 21
-194.91249906144949
 31
0.0
  0
LINE
  5
429
100
AcDbEntity
  8
OBJECT
100
AcDbLine
 10
-12.966654993423276
 20
-195.61249906144295
 30
0.0
 11
-13.666654993416728
 21
-194.91249906144949
 31
0.0
  0
CIRCLE
  5
42A
100
AcDbEntity
  8
OBJECT
100
AcDbCircle
 10
-10.866654968576881
 20
-264.11249914119833
 30
0.0
 40
2.0
  0
CIRCLE
  5
42B
100
AcDbEntity
  8
OBJECT
100
AcDbCircle
 10
-10.866654968576881
 20
-264.11249914119787
 30
0.0
 40
1.7000000000000455
  0
CIRCLE
  5
42C
100
AcDbEntity
  8
OBJECT
100
AcDbCircle
 10
-10.866654968576199
 20
-264.11249914119878
 30
0.0
 40
3.4000000000000909
  0
LINE
  5
42D
100
AcDbEntity
  8
OBJECT
100
AcDbLine
 10
-30.866654993414954
 20
-222.11249906145341
 30
0.0
 11
-18.573426838407727
 21
-266.25858114231767
 31
0.0
  0
LINE
  5
42E
100
AcDbEntity
  8
OBJECT
100
AcDbLine
 10
-30.866654993414954
 20
-212.11249906145341
 30
0.0
 11
-30.866654993414954
 21
-222.11249906145341
 31
0.0
  0
LINE
  5
42F
100
AcDbEntity
  8
OBJECT
100
AcDbLine
 10
-29.66665499341525
 20
-212.11249906145341
 30
0.0
 11
-30.866654993414954
 21
-212.11249906145341
 31
0.0
  0
LINE
  5
430
100
AcDbEntity
  8
OBJECT
100
AcDbLine
 10
9.1333450065851594
 20
-222.11249906145295
 30
0.0
 11
9.1333450065850457
 21
-212.11249906145318
 31
0.0
  0
LINE
  5
431
100
AcDbEntity
  8
OBJECT
100
AcDbLine
 10
-3.1598831042558686
 20
-266.25858098371589
 30
0.0
 11
9.1333450065851594
 21
-222.11249906145295
 31
0.0
  0
ARC
  5
432
100
AcDbEntity
  8
OBJECT
100
AcDbCircle
 10
-10.8666549934145
 20
-264.11249922664899
 30
0.0
 40
7.9999999912212774
100
AcDbArc
 50
195.56076717292231
 51
344.4392278652607
  0
CIRCLE
  5
433
100
AcDbEntity
  8
OBJECT
100
AcDbCircle
 10
-10.866654968576199
 20
-264.11249914119878
 30
0.0
 40
2.1000000000001364
  0
LINE
  5
434
100
AcDbEntity
  8
OBJECT
100
AcDbLine
 10
161.1833450066049
 20
-201.52034302162102
 30
0.0
 11
150.95065910440462
 21
-195.61249906145272
 31
0.0
  0
LINE
  5
435
100
AcDbEntity
  8
OBJECT
100
AcDbLine
 10
150.95065910440462
 20
-195.61249906145272
 30
0.0
 11
-29.666654993415364
 21
-195.61249906145432
 31
0.0
  0
LINE
  5
436
100
AcDbEntity
  8
OBJECT
100
AcDbLine
 10
-30.866654993415182
 20
-210.91249906145427
 30
0.0
 11
-30.866654993415295
 21
-195.61249906145432
 31
0.0
  0
LINE
  5
437
100
AcDbEntity
  8
OBJECT
100
AcDbLine
 10
-30.866654993415295
 20
-195.61249906145432
 30
0.0
 11
-29.666654993415364
 21
-195.61249906145432
 31
0.0
  0
ARC
  5
438
100
AcDbEntity
  8
OBJECT
100
AcDbCircle
 10
-29.66665499341525
 20
-210.91249906145427
 30
0.0
 40
1.1999999999999318
100
AcDbArc
 50
180.0
 51
269.99999384335263
  0
LINE
  5
439
100
AcDbEntity
  8
OBJECT
100
AcDbLine
 10
153.98334500660803
 20
-212.11249906145272
 30
0.0
 11
-29.666654993415136
 21
-212.11249906145432
 31
0.0
  0
LINE
  5
43A
100
AcDbEntity
  8
OBJECT
100
AcDbLine
 10
-26.666654993414681
 20
-195.61249906145432
 30
0.0
 11
-26.666654993414681
 21
-194.91249906144949
 31
0.0
  0
LINE
  5
43B
100
AcDbEntity
  8
OBJECT
100
AcDbLine
 10
-15.666654993414909
 20
-195.61249906145432
 30
0.0
 11
-15.666654993415136
 21
-194.91249906144949
 31
0.0
  0
LINE
  5
43C
100
AcDbEntity
  8
OBJECT
100
AcDbLine
 10
-30.866654993415182
 20
-210.91249906145427
 30
0.0
 11
-29.66665499341525
 21
-210.91249906145427
 31
0.0
  0
LINE
  5
43D
100
AcDbEntity
  8
OBJECT
100
AcDbLine
 10
-29.666654993415136
 20
-212.11249906145432
 30
0.0
 11
-29.66665499341525
 21
-210.91249906145427
 31
0.0
  0
ARC
  5
43E
100
AcDbEntity
  8
OUTLINE
100
AcDbCircle
 10
157.43334500660649
 20
-215.61249906145295
 30
0.0
 40
188.3500000000231
100
AcDbArc
 50
90.0
 51
180.0
  0
DIMENSION
  5
43F
100
AcDbEntity
  8
DIMENTION
100
AcDbDimension
  2
*D7
 10
-719.31665013635495
 20
38.499999998137355
 30
0.0
 11
-589.31665013635495
 21
38.499999998137355
 31
0.0
 71
               5
 72
               1
 41
1.0
 42
0.0
  3
CAD
100
AcDbAlignedDimension
 13
-459.31665013635484
 23
-23.112498060097238
 33
0.0
 14
-719.31665013635495
 24
-23.112498060097238
 34
0.0
100
AcDbRotatedDimension
1001
ACAD
1000
DSTYLE
1002
{
1070
             271
1070
               1
1070
             279
1070
               2
1070
             340
1005
3C
1070
             147
1040
0.4999999981373549
1002
}
  0
DIMENSION
  5
440
100
AcDbEntity
  8
DIMENTION
100
AcDbDimension
  2
*D8
 10
793.19266459356083
 20
-372.11249906145474
 30
0.0
 11
793.19266459356083
 21
-197.11249906145432
 31
0.0
 71
               5
 72
               1
 41
1.0
 42
0.0
  3
CAD
100
AcDbAlignedDimension
 13
719.18334500660262
 23
-22.11249906145386
 33
0.0
 14
695.68334482012301
 24
-372.11249906145474
 34
0.0
 50
90.0
100
AcDbRotatedDimension
1001
ACAD
1000
DSTYLE
1002
{
1070
             271
1070
               1
1070
             279
1070
               2
1070
             340
1005
3C
1070
             147
1040
0.4999999981373549
1002
}
  0
DIMENSION
  5
441
100
AcDbEntity
  8
DIMENTION
100
AcDbDimension
  2
*D9
 10
720.18334500660308
 20
-446.8122996719967
 30
0.0
 11
420.68334500660552
 21
-446.8122996719967
 31
0.0
 71
               5
 72
               1
 41
1.0
 42
0.0
  1
600
  3
CAD
100
AcDbAlignedDimension
 13
121.18334500660796
 23
-235.61249906145295
 33
0.0
 14
720.18334500660308
 24
-235.61249906145386
 34
0.0
100
AcDbRotatedDimension
1001
ACAD
1000
DSTYLE
1002
{
1070
             271
1070
               1
1070
             279
1070
               2
1070
             340
1005
3C
1070
             147
1040
0.4999999981373549
1002
}
  0
LINE
  5
442
100
AcDbEntity
  8
OBJECT
100
AcDbLine
 10
148.37580165065469
 20
-372.11249906145338
 30
0.0
 11
698.37580165065469
 21
-372.11249906145338
 31
0.0
  0
LINE
  5
443
100
AcDbEntity
  8
OBJECT
100
AcDbLine
 10
-709.62419834934531
 20
-372.11249806009812
 30
0.0
 11
-462.62419834934531
 21
-372.11249806009812
 31
0.0
  0
CIRCLE
  5
444
100
AcDbEntity
  8
OBJECT
100
AcDbCircle
 10
-589.31765013635174
 20
-278.61349806009719
 30
0.0
 40
5.0500000000006366
  0
CIRCLE
  5
445
100
AcDbEntity
  8
OBJECT
100
AcDbCircle
 10
-623.31765013635038
 20
-284.11349806010219
 30
0.0
 40
6.0
  0
CIRCLE
  5
446
100
AcDbEntity
  8
OBJECT
100
AcDbCircle
 10
-623.31765013635038
 20
-284.11349806010219
 30
0.0
 40
6.5
  0
CIRCLE
  5
447
100
AcDbEntity
  8
OBJECT
100
AcDbCircle
 10
-623.31765013635027
 20
-284.11349806010219
 30
0.0
 40
7.0
  0
LINE
  5
448
100
AcDbEntity
  8
OBJECT
100
AcDbLine
 10
-618.68786276981109
 20
-278.86325340478993
 30
0.0
 11
-618.68786276981098
 21
-256.38578266709476
 31
0.0
  0
LINE
  5
449
100
AcDbEntity
  8
OBJECT
100
AcDbLine
 10
-618.68786276981098
 20
-256.38578266709476
 30
0.0
 11
-616.21928503989238
 21
-255.1609413777318
 31
0.0
  0
LINE
  5
44A
100
AcDbEntity
  8
OBJECT
100
AcDbLine
 10
-616.21928503989238
 20
-255.1609413777318
 30
0.0
 11
-616.21928503989261
 21
-313.0660547424726
 31
0.0
  0
LINE
  5
44B
100
AcDbEntity
  8
OBJECT
100
AcDbLine
 10
-618.6878627698112
 20
-311.84121345310962
 30
0.0
 11
-616.21928503989261
 21
-313.0660547424726
 31
0.0
  0
LINE
  5
44C
100
AcDbEntity
  8
OBJECT
100
AcDbLine
 10
-618.6878627698112
 20
-311.84121345310962
 30
0.0
 11
-618.6878627698112
 21
-289.36374271541433
 31
0.0
  0
LINE
  5
44D
100
AcDbEntity
  8
OBJECT
100
AcDbLine
 10
-685.06743750288967
 20
-311.84121345310939
 30
0.0
 11
-618.6878627698112
 21
-311.84121345310962
 31
0.0
  0
LINE
  5
44E
100
AcDbEntity
  8
OBJECT
100
AcDbLine
 10
-685.06743750288945
 20
-256.38578266709453
 30
0.0
 11
-685.06743750288967
 21
-311.84121345310939
 31
0.0
  0
LINE
  5
44F
100
AcDbEntity
  8
OBJECT
100
AcDbLine
 10
-618.68786276981098
 20
-256.38578266709476
 30
0.0
 11
-685.06743750288945
 21
-256.38578266709453
 31
0.0
  0
LINE
  5
450
100
AcDbEntity
  8
OBJECT
100
AcDbLine
 10
-685.06743750288967
 20
-311.84121345310939
 30
0.0
 11
-687.53601523280804
 21
-313.06605474247237
 31
0.0
  0
LINE
  5
451
100
AcDbEntity
  8
OBJECT
100
AcDbLine
 10
-616.21928503989261
 20
-313.0660547424726
 30
0.0
 11
-687.53601523280804
 21
-313.06605474247237
 31
0.0
  0
LINE
  5
452
100
AcDbEntity
  8
OBJECT
100
AcDbLine
 10
-686.4604206504863
 20
-275.61349806010196
 30
0.0
 11
-686.46042065048618
 21
-268.7134980601021
 31
0.0
  0
LINE
  5
453
100
AcDbEntity
  8
OBJECT
100
AcDbLine
 10
-687.53601523280793
 20
-268.7134980601021
 30
0.0
 11
-687.53601523280781
 21
-255.16094137773158
 31
0.0
  0
LINE
  5
454
100
AcDbEntity
  8
OBJECT
100
AcDbLine
 10
-685.06743750288945
 20
-256.38578266709453
 30
0.0
 11
-687.53601523280781
 21
-255.16094137773158
 31
0.0
  0
LINE
  5
455
100
AcDbEntity
  8
OBJECT
100
AcDbLine
 10
-687.53601523280804
 20
-313.06605474247237
 30
0.0
 11
-687.53601523280804
 21
-299.51349806010205
 31
0.0
  0
LINE
  5
456
100
AcDbEntity
  8
OBJECT
100
AcDbLine
 10
-686.4604206504863
 20
-292.61349806010196
 30
0.0
 11
-686.4604206504863
 21
-299.51349806010182
 31
0.0
  0
LINE
  5
457
100
AcDbEntity
  8
OBJECT
100
AcDbLine
 10
-687.53601523280793
 20
-292.61349806010196
 30
0.0
 11
-687.53601523280793
 21
-275.61349806010196
 31
0.0
  0
LINE
  5
458
100
AcDbEntity
  8
OBJECT
100
AcDbLine
 10
-687.53601523280781
 20
-255.16094137773158
 30
0.0
 11
-616.21928503989238
 21
-255.1609413777318
 31
0.0
  0
LINE
  5
459
100
AcDbEntity
  8
OBJECT
100
AcDbLine
 10
-695.01765013635031
 20
-292.61349806010196
 30
0.0
 11
-695.01765013635031
 21
-299.51349806010182
 31
0.0
  0
LINE
  5
45A
100
AcDbEntity
  8
OBJECT
100
AcDbLine
 10
-695.01765013635031
 20
-292.61349806010196
 30
0.0
 11
-686.4604206504863
 21
-292.61349806010196
 31
0.0
  0
LINE
  5
45B
100
AcDbEntity
  8
OBJECT
100
AcDbLine
 10
-695.01765013635031
 20
-299.51349806010182
 30
0.0
 11
-686.4604206504863
 21
-299.51349806010182
 31
0.0
  0
LINE
  5
45C
100
AcDbEntity
  8
OBJECT
100
AcDbLine
 10
-695.0176501363502
 20
-275.61349806010196
 30
0.0
 11
-686.4604206504863
 21
-275.61349806010196
 31
0.0
  0
LINE
  5
45D
100
AcDbEntity
  8
OBJECT
100
AcDbLine
 10
-695.0176501363502
 20
-268.71349806010187
 30
0.0
 11
-686.46042065048618
 21
-268.7134980601021
 31
0.0
  0
LINE
  5
45E
100
AcDbEntity
  8
OBJECT
100
AcDbLine
 10
-695.0176501363502
 20
-275.61349806010196
 30
0.0
 11
-695.0176501363502
 21
-268.71349806010187
 31
0.0
  0
LINE
  5
45F
100
AcDbEntity
  8
OBJECT
100
AcDbLine
 10
-694.01765013635031
 20
-301.51349806010205
 30
0.0
 11
-692.01765013635031
 21
-301.51349806010205
 31
0.0
  0
LINE
  5
460
100
AcDbEntity
  8
OBJECT
100
AcDbLine
 10
-694.0176501363502
 20
-266.7134980601021
 30
0.0
 11
-692.0176501363502
 21
-266.7134980601021
 31
0.0
  0
LINE
  5
461
100
AcDbEntity
  8
OBJECT
100
AcDbLine
 10
-690.5176501363502
 20
-268.7134980601021
 30
0.0
 11
-690.5176501363502
 21
-267.7134980601021
 31
0.0
  0
LINE
  5
462
100
AcDbEntity
  8
OBJECT
100
AcDbLine
 10
-690.5176501363502
 20
-267.7134980601021
 30
0.0
 11
-690.51765013635008
 21
-252.11349806010199
 31
0.0
  0
LINE
  5
463
100
AcDbEntity
  8
OBJECT
100
AcDbLine
 10
-690.51765013635008
 20
-252.11349806010199
 30
0.0
 11
-613.01765013635008
 21
-252.11349806010222
 31
0.0
  0
LINE
  5
464
100
AcDbEntity
  8
OBJECT
100
AcDbLine
 10
-690.51765013635043
 20
-316.11349806010196
 30
0.0
 11
-690.51765013635031
 21
-300.51349806010205
 31
0.0
  0
LINE
  5
465
100
AcDbEntity
  8
OBJECT
100
AcDbLine
 10
-690.51765013635031
 20
-300.51349806010205
 30
0.0
 11
-690.51765013635031
 21
-299.51349806010205
 31
0.0
  0
LINE
  5
466
100
AcDbEntity
  8
OBJECT
100
AcDbLine
 10
-613.01765013635008
 20
-252.11349806010222
 30
0.0
 11
-613.01765013635031
 21
-316.11349806010219
 31
0.0
  0
LINE
  5
467
100
AcDbEntity
  8
OBJECT
100
AcDbLine
 10
-613.01765013635031
 20
-316.11349806010219
 30
0.0
 11
-690.51765013635043
 21
-316.11349806010196
 31
0.0
  0
LINE
  5
468
100
AcDbEntity
  8
OBJECT
100
AcDbLine
 10
-690.51765013635031
 20
-292.61349806010196
 30
0.0
 11
-690.5176501363502
 21
-275.61349806010196
 31
0.0
  0
LINE
  5
469
100
AcDbEntity
  8
OBJECT
100
AcDbLine
 10
-695.01765013635031
 20
-299.51349806010182
 30
0.0
 11
-699.01765013635054
 21
-299.51349806010182
 31
0.0
  0
LINE
  5
46A
100
AcDbEntity
  8
OBJECT
100
AcDbLine
 10
-693.01765013635054
 20
-300.51349806010182
 30
0.0
 11
-698.01765013635054
 21
-300.51349806010182
 31
0.0
  0
LINE
  5
46B
100
AcDbEntity
  8
OBJECT
100
AcDbLine
 10
-698.01765013635054
 20
-300.51349806010182
 30
0.0
 11
-698.01765013635065
 21
-316.91349806010192
 31
0.0
  0
LINE
  5
46C
100
AcDbEntity
  8
OBJECT
100
AcDbLine
 10
-698.01765013635065
 20
-316.91349806010192
 30
0.0
 11
-699.01765013635065
 21
-316.91349806010192
 31
0.0
  0
LINE
  5
46D
100
AcDbEntity
  8
OBJECT
100
AcDbLine
 10
-699.01765013635054
 20
-299.51349806010182
 30
0.0
 11
-699.01765013635065
 21
-316.91349806010192
 31
0.0
  0
LINE
  5
46E
100
AcDbEntity
  8
OBJECT
100
AcDbLine
 10
-690.51765013635054
 20
-300.51349806010205
 30
0.0
 11
-693.01765013635054
 21
-300.51349806010182
 31
0.0
  0
LINE
  5
46F
100
AcDbEntity
  8
OBJECT
100
AcDbLine
 10
-690.51765013635043
 20
-267.7134980601021
 30
0.0
 11
-693.01765013635043
 21
-267.71349806010187
 31
0.0
  0
LINE
  5
470
100
AcDbEntity
  8
OBJECT
100
AcDbLine
 10
-698.01765013635043
 20
-251.31349806010203
 30
0.0
 11
-699.01765013635043
 21
-251.31349806010203
 31
0.0
  0
LINE
  5
471
100
AcDbEntity
  8
OBJECT
100
AcDbLine
 10
-698.01765013635043
 20
-267.71349806010187
 30
0.0
 11
-698.01765013635043
 21
-251.31349806010203
 31
0.0
  0
LINE
  5
472
100
AcDbEntity
  8
OBJECT
100
AcDbLine
 10
-695.0176501363502
 20
-268.71349806010187
 30
0.0
 11
-699.01765013635043
 21
-268.71349806010187
 31
0.0
  0
LINE
  5
473
100
AcDbEntity
  8
OBJECT
100
AcDbLine
 10
-693.01765013635043
 20
-267.71349806010187
 30
0.0
 11
-698.01765013635043
 21
-267.71349806010187
 31
0.0
  0
LINE
  5
474
100
AcDbEntity
  8
OBJECT
100
AcDbLine
 10
-699.01765013635043
 20
-268.71349806010187
 30
0.0
 11
-699.01765013635043
 21
-251.31349806010203
 31
0.0
  0
LINE
  5
475
100
AcDbEntity
  8
OBJECT
100
AcDbLine
 10
-691.01765013635065
 20
-316.91349806010192
 30
0.0
 11
-691.01765013635065
 21
-317.91349806010192
 31
0.0
  0
LINE
  5
476
100
AcDbEntity
  8
OBJECT
100
AcDbLine
 10
-691.01765013635031
 20
-251.31349806010203
 30
0.0
 11
-612.31765013635038
 21
-251.31349806010226
 31
0.0
  0
LINE
  5
477
100
AcDbEntity
  8
OBJECT
100
AcDbLine
 10
-691.01765013635031
 20
-251.31349806010203
 30
0.0
 11
-691.01765013635031
 21
-250.31349806010203
 31
0.0
  0
LINE
  5
478
100
AcDbEntity
  8
OBJECT
100
AcDbLine
 10
-691.01765013635031
 20
-250.31349806010203
 30
0.0
 11
-611.31765013635038
 21
-250.31349806010226
 31
0.0
  0
LINE
  5
479
100
AcDbEntity
  8
OBJECT
100
AcDbLine
 10
-612.31765013635038
 20
-251.31349806010226
 30
0.0
 11
-612.31765013635061
 21
-316.91349806010237
 31
0.0
  0
LINE
  5
47A
100
AcDbEntity
  8
OBJECT
100
AcDbLine
 10
-691.01765013635065
 20
-316.91349806010192
 30
0.0
 11
-612.31765013635061
 21
-316.91349806010237
 31
0.0
  0
LINE
  5
47B
100
AcDbEntity
  8
OBJECT
100
AcDbLine
 10
-611.31765013635061
 20
-317.91349806010237
 30
0.0
 11
-611.31765013635038
 21
-250.31349806010226
 31
0.0
  0
LINE
  5
47C
100
AcDbEntity
  8
OBJECT
100
AcDbLine
 10
-691.01765013635065
 20
-317.91349806010192
 30
0.0
 11
-611.31765013635061
 21
-317.91349806010237
 31
0.0
  0
LINE
  5
47D
100
AcDbEntity
  8
OBJECT
100
AcDbLine
 10
-698.01765013635065
 20
-316.91349806010192
 30
0.0
 11
-691.01765013635065
 21
-316.91349806010192
 31
0.0
  0
LINE
  5
47E
100
AcDbEntity
  8
OBJECT
100
AcDbLine
 10
-699.01765013635065
 20
-317.91349806010192
 30
0.0
 11
-691.01765013635065
 21
-317.91349806010192
 31
0.0
  0
LINE
  5
47F
100
AcDbEntity
  8
OBJECT
100
AcDbLine
 10
-699.01765013635065
 20
-316.91349806010192
 30
0.0
 11
-699.01765013635065
 21
-317.91349806010192
 31
0.0
  0
LINE
  5
480
100
AcDbEntity
  8
OBJECT
100
AcDbLine
 10
-699.01765013635031
 20
-250.31349806010203
 30
0.0
 11
-691.01765013635031
 21
-250.31349806010203
 31
0.0
  0
LINE
  5
481
100
AcDbEntity
  8
OBJECT
100
AcDbLine
 10
-698.01765013635031
 20
-251.31349806010203
 30
0.0
 11
-691.01765013635031
 21
-251.31349806010203
 31
0.0
  0
LINE
  5
482
100
AcDbEntity
  8
OBJECT
100
AcDbLine
 10
-699.01765013635031
 20
-251.31349806010203
 30
0.0
 11
-699.01765013635031
 21
-250.31349806010203
 31
0.0
  0
LINE
  5
483
100
AcDbEntity
  8
OBJECT
100
AcDbLine
 10
-698.01765013635043
 20
-268.71349806010187
 30
0.0
 11
-698.01765013635054
 21
-299.51349806010182
 31
0.0
  0
LINE
  5
484
100
AcDbEntity
  8
OBJECT
100
AcDbLine
 10
-699.01765013635054
 20
-299.51349806010182
 30
0.0
 11
-699.01765013635043
 21
-268.71349806010187
 31
0.0
  0
ARC
  5
485
100
AcDbEntity
  8
OBJECT
100
AcDbCircle
 10
-589.31765013635174
 20
-278.6134980600973
 30
0.0
 40
4.5
100
AcDbArc
 50
180.0
 51
0.0
  0
ARC
  5
486
100
AcDbEntity
  8
OBJECT
100
AcDbCircle
 10
-589.31765013635174
 20
-278.6134980600973
 30
0.0
 40
4.5
100
AcDbArc
 50
0.0
 51
179.99999384335123
  0
ARC
  5
487
100
AcDbEntity
  8
OBJECT
100
AcDbCircle
 10
-579.31765013635129
 20
-293.91349806009714
 30
0.0
 40
0.5
100
AcDbArc
 50
180.0
 51
270.0
  0
LINE
  5
488
100
AcDbEntity
  8
OBJECT
100
AcDbLine
 10
-579.81765013635129
 20
-293.91349806009714
 30
0.0
 11
-579.81765013635186
 21
-265.31349806009723
 31
0.0
  0
LINE
  5
489
100
AcDbEntity
  8
OBJECT
100
AcDbLine
 10
-579.31765013635186
 20
-265.31349806009723
 30
0.0
 11
-579.31765013635129
 21
-293.91349806009714
 31
0.0
  0
ARC
  5
48A
100
AcDbEntity
  8
OBJECT
100
AcDbCircle
 10
-575.61765013635136
 20
-288.91349806009714
 30
0.0
 40
0.7000000000000455
100
AcDbArc
 50
180.0
 51
270.0
  0
LINE
  5
48B
100
AcDbEntity
  8
OBJECT
100
AcDbLine
 10
-563.01765013635145
 20
-289.61349806009673
 30
0.0
 11
-575.61765013635136
 21
-289.61349806009719
 31
0.0
  0
ARC
  5
48C
100
AcDbEntity
  8
OBJECT
100
AcDbCircle
 10
-563.01765013635145
 20
-288.91349806009691
 30
0.0
 40
0.6999999999998181
100
AcDbArc
 50
270.0
 51
0.0
  0
LINE
  5
48D
100
AcDbEntity
  8
OBJECT
100
AcDbLine
 10
-562.31765013635174
 20
-270.31349806009678
 30
0.0
 11
-562.3176501363514
 21
-288.91349806009691
 31
0.0
  0
ARC
  5
48E
100
AcDbEntity
  8
OBJECT
100
AcDbCircle
 10
-563.01765013635179
 20
-270.313498060097
 30
0.0
 40
0.7000000000000455
100
AcDbArc
 50
0.0
 51
90.0
  0
LINE
  5
48F
100
AcDbEntity
  8
OBJECT
100
AcDbLine
 10
-575.61765013635181
 20
-269.61349806009719
 30
0.0
 11
-563.01765013635179
 21
-269.61349806009673
 31
0.0
  0
ARC
  5
490
100
AcDbEntity
  8
OBJECT
100
AcDbCircle
 10
-575.61765013635181
 20
-270.313498060097
 30
0.0
 40
0.6999999999998181
100
AcDbArc
 50
90.0
 51
179.99999390284512
  0
LINE
  5
491
100
AcDbEntity
  8
OBJECT
100
AcDbLine
 10
-576.3176501363514
 20
-288.91349806009714
 30
0.0
 11
-576.31765013635174
 21
-270.313498060097
 31
0.0
  0
LINE
  5
492
100
AcDbEntity
  8
OBJECT
100
AcDbLine
 10
-579.31765013635129
 20
-293.91349806009714
 30
0.0
 11
-559.31765013635129
 21
-293.91349806009691
 31
0.0
  0
LINE
  5
493
100
AcDbEntity
  8
OBJECT
100
AcDbLine
 10
-559.31765013635186
 20
-265.31349806009678
 30
0.0
 11
-579.31765013635186
 21
-265.31349806009723
 31
0.0
  0
LINE
  5
494
100
AcDbEntity
  8
OBJECT
100
AcDbLine
 10
-559.31765013635129
 20
-293.91349806009691
 30
0.0
 11
-559.31765013635186
 21
-265.31349806009678
 31
0.0
  0
LINE
  5
495
100
AcDbEntity
  8
OBJECT
100
AcDbLine
 10
-559.31765013635129
 20
-294.41349806009691
 30
0.0
 11
-579.31765013635129
 21
-294.41349806009714
 31
0.0
  0
LINE
  5
496
100
AcDbEntity
  8
OBJECT
100
AcDbLine
 10
-576.11765013635181
 20
-270.313498060097
 30
0.0
 11
-576.11765013635181
 21
-270.47614429478006
 31
0.0
  0
LINE
  5
497
100
AcDbEntity
  8
OBJECT
100
AcDbLine
 10
-576.11765013635147
 20
-287.57992623098005
 30
0.0
 11
-576.11765013635147
 21
-288.91349806009714
 31
0.0
  0
ARC
  5
498
100
AcDbEntity
  8
OBJECT
100
AcDbCircle
 10
-575.61765013635147
 20
-288.91349806009714
 30
0.0
 40
0.5
100
AcDbArc
 50
180.0
 51
270.0
  0
LINE
  5
499
100
AcDbEntity
  8
OBJECT
100
AcDbLine
 10
-579.31765013635186
 20
-264.81349806009723
 30
0.0
 11
-559.31765013635186
 21
-264.81349806009678
 31
0.0
  0
ARC
  5
49A
100
AcDbEntity
  8
OBJECT
100
AcDbCircle
 10
-579.31765013635186
 20
-265.31349806009723
 30
0.0
 40
0.5
100
AcDbArc
 50
90.0
 51
179.99999384336132
  0
LINE
  5
49B
100
AcDbEntity
  8
OBJECT
100
AcDbLine
 10
-575.61765013635147
 20
-289.41349806009714
 30
0.0
 11
-563.01765013635145
 21
-289.41349806009691
 31
0.0
  0
ARC
  5
49C
100
AcDbEntity
  8
OBJECT
100
AcDbCircle
 10
-575.61765013635181
 20
-270.313498060097
 30
0.0
 40
0.5
100
AcDbArc
 50
90.0
 51
179.99999384336132
  0
LINE
  5
49D
100
AcDbEntity
  8
OBJECT
100
AcDbLine
 10
-563.01765013635179
 20
-269.813498060097
 30
0.0
 11
-575.61765013635181
 21
-269.813498060097
 31
0.0
  0
ARC
  5
49E
100
AcDbEntity
  8
OBJECT
100
AcDbCircle
 10
-563.01765013635145
 20
-288.91349806009691
 30
0.0
 40
0.5
100
AcDbArc
 50
270.0
 51
0.0
  0
LINE
  5
49F
100
AcDbEntity
  8
OBJECT
100
AcDbLine
 10
-562.51765013635145
 20
-288.91349806009691
 30
0.0
 11
-562.51765013635145
 21
-287.57992623097959
 31
0.0
  0
LINE
  5
4A0
100
AcDbEntity
  8
OBJECT
100
AcDbLine
 10
-562.51765013635179
 20
-270.47614429478006
 30
0.0
 11
-562.51765013635179
 21
-270.313498060097
 31
0.0
  0
LINE
  5
4A1
100
AcDbEntity
  8
OBJECT
100
AcDbLine
 10
-558.81765013635186
 20
-265.31349806009678
 30
0.0
 11
-558.81765013635129
 21
-293.91349806009691
 31
0.0
  0
ARC
  5
4A2
100
AcDbEntity
  8
OBJECT
100
AcDbCircle
 10
-559.31765013635129
 20
-293.91349806009691
 30
0.0
 40
0.5
100
AcDbArc
 50
270.0
 51
0.0
  0
ARC
  5
4A3
100
AcDbEntity
  8
OBJECT
100
AcDbCircle
 10
-563.01765013635179
 20
-270.313498060097
 30
0.0
 40
0.5
100
AcDbArc
 50
0.0
 51
90.0
  0
ARC
  5
4A4
100
AcDbEntity
  8
OBJECT
100
AcDbCircle
 10
-559.31765013635186
 20
-265.31349806009678
 30
0.0
 40
0.5
100
AcDbArc
 50
0.0
 51
90.0
  0
LINE
  5
4A5
100
AcDbEntity
  8
OBJECT
100
AcDbLine
 10
-576.11765013635136
 20
-286.20861634032497
 30
0.0
 11
-576.11765013635181
 21
-270.4774655263044
 31
0.0
  0
LINE
  5
4A6
100
AcDbEntity
  8
OBJECT
100
AcDbLine
 10
-562.51765013635179
 20
-270.47746552630394
 30
0.0
 11
-562.51765013635134
 21
-286.20861634032451
 31
0.0
  0
LINE
  5
4A7
100
AcDbEntity
  8
OBJECT
100
AcDbLine
 10
-575.86765013635159
 20
-289.09264833592795
 30
0.0
 11
-562.76765013635156
 21
-289.09264833592772
 31
0.0
  0
SPLINE
  5
4A8
100
AcDbEntity
  8
OBJECT
100
AcDbSpline
210
0.0
220
0.0
230
1.0
 70
               8
 71
               2
 72
              22
 73
              19
 74
               0
 42
0.000001
 43
0.000001
 40
0.0
 40
0.0
 40
0.0
 40
0.0078327471969864
 40
0.0078327471969864
 40
0.1721064258186144
 40
0.1721064258186144
 40
0.3198080002997666
 40
0.3198080002997666
 40
0.4613633807438321
 40
0.4613633807438321
 40
0.6015476171948093
 40
0.6015476171948093
 40
0.7370431327611291
 40
0.7370431327611291
 40
0.8655034842723205
 40
0.8655034842723205
 40
0.9928374960181075
 40
0.9928374960181075
 40
1.0
 40
1.0
 40
1.0
 10
-576.11765013635159
 20
-288.81925417039099
 30
0.0
 10
-576.11765013635159
 20
-288.82086516072627
 30
0.0
 10
-576.11765013635159
 20
-288.82247615106155
 30
0.0
 10
-576.11703599671694
 20
-288.85853412783752
 30
0.0
 10
-576.10927628981403
 20
-288.88936081770782
 30
0.0
 10
-576.10151658291113
 20
-288.92018750757813
 30
0.0
 10
-576.08892264770429
 20
-288.94648578326553
 30
0.0
 10
-576.07632871249746
 20
-288.97278405895293
 30
0.0
 10
-576.0584123794207
 20
-288.99593637841372
 30
0.0
 10
-576.04049604634395
 20
-289.01908869787451
 30
0.0
 10
-576.01842872226632
 20
-289.0373014024741
 30
0.0
 10
-575.99636139818881
 20
-289.05551410707369
 30
0.0
 10
-575.97188958848653
 20
-289.06772373961928
 30
0.0
 10
-575.94741777878437
 20
-289.07993337216487
 30
0.0
 10
-575.92243475466046
 20
-289.08597626534993
 30
0.0
 10
-575.89745173053666
 20
-289.09201915853498
 30
0.0
 10
-575.87059648698767
 20
-289.09264833498958
 30
0.0
 10
-575.86912334807471
 20
-289.09264833545876
 30
0.0
 10
-575.86765020916175
 20
-289.09264833592795
 30
0.0
  0
LINE
  5
4A9
100
AcDbEntity
  8
OBJECT
100
AcDbLine
 10
-576.11765013635147
 20
-287.57992623098005
 30
0.0
 11
-576.11765013635136
 21
-286.20861634032497
 31
0.0
  0
SPLINE
  5
4AA
100
AcDbEntity
  8
OBJECT
100
AcDbSpline
210
0.0
220
0.0
230
1.0
 70
               8
 71
               2
 72
              22
 73
              19
 74
               0
 42
0.000001
 43
0.000001
 40
0.0
 40
0.0
 40
0.0
 40
0.0038740299079836
 40
0.0038740299079836
 40
0.1103775868431011
 40
0.1103775868431011
 40
0.2316478697854828
 40
0.2316478697854828
 40
0.3912325198526513
 40
0.3912325198526513
 40
0.5814517940974292
 40
0.5814517940974292
 40
0.7490267221245817
 40
0.7490267221245817
 40
0.879657063644108
 40
0.879657063644108
 40
0.9957634513041835
 40
0.9957634513041835
 40
1.0
 40
1.0
 40
1.0
 10
-562.76765020916162
 20
-289.09264833592772
 30
0.0
 10
-562.76685295191794
 20
-289.09264833618158
 30
0.0
 10
-562.76605569467415
 20
-289.09264833643545
 30
0.0
 10
-562.74521374730864
 20
-289.09237577630586
 30
0.0
 10
-562.72250742293204
 20
-289.08818083930419
 30
0.0
 10
-562.69980109855544
 20
-289.08398590230252
 30
0.0
 10
-562.67502902837566
 20
-289.07317973600016
 30
0.0
 10
-562.65025695819588
 20
-289.0623735696978
 30
0.0
 10
-562.61889932717816
 20
-289.03934767903468
 30
0.0
 10
-562.58754169616054
 20
-289.01632178837156
 30
0.0
 10
-562.56641975356524
 20
-288.98193527859837
 30
0.0
 10
-562.54529781096994
 20
-288.94754876882519
 30
0.0
 10
-562.53543134802328
 20
-288.9204587039651
 30
0.0
 10
-562.52556488507651
 20
-288.89336863910501
 30
0.0
 10
-562.52173527086018
 20
-288.86856604952379
 30
0.0
 10
-562.51790565664385
 20
-288.84376345994258
 30
0.0
 10
-562.51765013650788
 20
-288.82099792101656
 30
0.0
 10
-562.51765013642978
 20
-288.82012605910109
 30
0.0
 10
-562.51765013635156
 20
-288.81925419718561
 30
0.0
  0
LINE
  5
4AB
100
AcDbEntity
  8
OBJECT
100
AcDbLine
 10
-562.51765013635134
 20
-286.20861634032451
 30
0.0
 11
-562.51765013635145
 21
-287.57992623097959
 31
0.0
  0
SPLINE
  5
4AC
100
AcDbEntity
  8
OBJECT
100
AcDbSpline
210
0.0
220
0.0
230
1.0
 70
               8
 71
               2
 72
              22
 73
              19
 74
               0
 42
0.000001
 43
0.000001
 40
0.0
 40
0.0
 40
0.0
 40
0.0074990522538321
 40
0.0074990522538321
 40
0.1490363612314972
 40
0.1490363612314972
 40
0.2994759646751553
 40
0.2994759646751553
 40
0.4473152514915531
 40
0.4473152514915531
 40
0.5877729843332281
 40
0.5877729843332281
 40
0.7261417360714081
 40
0.7261417360714081
 40
0.8593333228636836
 40
0.8593333228636836
 40
0.992496930502208
 40
0.992496930502208
 40
1.0
 40
1.0
 40
1.0
 10
-575.8676501866089
 20
-270.13434778426642
 30
0.0
 10
-575.86912332558825
 20
-270.13434778456269
 30
0.0
 10
-575.87059646456771
 20
-270.13434778485896
 30
0.0
 10
-575.89749279719172
 20
-270.13489246409438
 30
0.0
 10
-575.92568859107303
 20
-270.14111937504094
 30
0.0
 10
-575.95388438495422
 20
-270.14734628598751
 30
0.0
 10
-575.98096350173671
 20
-270.16151883134557
 30
0.0
 10
-576.00804261851908
 20
-270.17569137670364
 30
0.0
 10
-576.02921380571945
 20
-270.19361731381866
 30
0.0
 10
-576.05038499291982
 20
-270.21154325093369
 30
0.0
 10
-576.06703924336045
 20
-270.23362240214396
 30
0.0
 10
-576.08369349380121
 20
-270.25570155335424
 30
0.0
 10
-576.09485834992404
 20
-270.28018647709189
 30
0.0
 10
-576.10602320604698
 20
-270.30467140082953
 30
0.0
 10
-576.11154900597523
 20
-270.32966781127459
 30
0.0
 10
-576.1170748059036
 20
-270.35466422171964
 30
0.0
 10
-576.11765013635204
 20
-270.38153385304452
 30
0.0
 10
-576.11765013635204
 20
-270.3830077811848
 30
0.0
 10
-576.11765013635204
 20
-270.38448170932509
 30
0.0
  0
LINE
  5
4AD
100
AcDbEntity
  8
OBJECT
100
AcDbLine
 10
-576.11765013635181
 20
-270.4774655263044
 30
0.0
 11
-576.11765013635181
 21
-270.47614429478006
 31
0.0
  0
LINE
  5
4AE
100
AcDbEntity
  8
OBJECT
100
AcDbLine
 10
-575.86765013635193
 20
-270.13434778426642
 30
0.0
 11
-562.7676501363519
 21
-270.13434778426597
 31
0.0
  0
SPLINE
  5
4AF
100
AcDbEntity
  8
OBJECT
100
AcDbSpline
210
0.0
220
0.0
230
1.0
 70
               8
 71
               2
 72
              22
 73
              19
 74
               0
 42
0.000001
 43
0.000001
 40
0.0
 40
0.0
 40
0.0
 40
0.0075030701828835
 40
0.0075030701828835
 40
0.1491134239275194
 40
0.1491134239275194
 40
0.299613556399935
 40
0.299613556399935
 40
0.4474832191014982
 40
0.4474832191014982
 40
0.5879368368117128
 40
0.5879368368117128
 40
0.7262708350050093
 40
0.7262708350050093
 40
0.8594061756827778
 40
0.8594061756827778
 40
0.9925009470612282
 40
0.9925009470612282
 40
1.0
 40
1.0
 40
1.0
 10
-562.5176501363519
 20
-270.38448173611971
 30
0.0
 10
-562.51765013619411
 20
-270.38300780790053
 30
0.0
 10
-562.51765013603631
 20
-270.38153387968134
 30
0.0
 10
-562.51819451540121
 20
-270.35462313702953
 30
0.0
 10
-562.5244180844378
 20
-270.32641223497978
 30
0.0
 10
-562.53064165347439
 20
-270.29820133293003
 30
0.0
 10
-562.54480660418392
 20
-270.27110770394131
 30
0.0
 10
-562.55897155489345
 20
-270.24401407495259
 30
0.0
 10
-562.57688789006636
 20
-270.22283154004674
 30
0.0
 10
-562.59480422523916
 20
-270.20164900514089
 30
0.0
 10
-562.6168715525879
 20
-270.18498582636346
 30
0.0
 10
-562.63893887993663
 20
-270.16832264758602
 30
0.0
 10
-562.66341069333043
 20
-270.15715180406892
 30
0.0
 10
-562.68788250672424
 20
-270.14598096055181
 30
0.0
 10
-562.71286553418656
 20
-270.1404521947594
 30
0.0
 10
-562.73784856164878
 20
-270.134923428967
 30
0.0
 10
-562.76470380797844
 20
-270.13434778485851
 30
0.0
 10
-562.7661769470368
 20
-270.13434778456224
 30
0.0
 10
-562.76765008609505
 20
-270.13434778426597
 30
0.0
  0
LINE
  5
4B0
100
AcDbEntity
  8
OBJECT
100
AcDbLine
 10
-562.51765013635179
 20
-270.47614429478006
 30
0.0
 11
-562.51765013635179
 21
-270.47746552630394
 31
0.0
  0
CIRCLE
  5
4B1
100
AcDbEntity
  8
OBJECT
100
AcDbCircle
 10
-509.31765013635163
 20
-278.61349806009673
 30
0.0
 40
10.0
  0
CIRCLE
  5
4B2
100
AcDbEntity
  8
OBJECT
100
AcDbCircle
 10
-509.31765013635163
 20
-278.61349806009673
 30
0.0
 40
11.5
  0
CIRCLE
  5
4B3
100
AcDbEntity
  8
OBJECT
100
AcDbCircle
 10
-509.31765013635163
 20
-278.61349806009673
 30
0.0
 40
10.25
  0
CIRCLE
  5
4B4
100
AcDbEntity
  8
OBJECT
100
AcDbCircle
 10
-509.31765013635174
 20
-278.61349806009673
 30
0.0
 40
13.0
  0
LINE
  5
4B5
100
AcDbEntity
  8
OBJECT
100
AcDbLine
 10
-694.01765013635031
 20
-300.51349806010182
 30
0.0
 11
-694.01765013635031
 21
-301.51349806010205
 31
0.0
  0
LINE
  5
4B6
100
AcDbEntity
  8
OBJECT
100
AcDbLine
 10
-692.01765013635031
 20
-301.51349806010205
 30
0.0
 11
-692.01765013635031
 21
-300.51349806010182
 31
0.0
  0
LINE
  5
4B7
100
AcDbEntity
  8
OBJECT
100
AcDbLine
 10
-692.0176501363502
 20
-267.7134980601021
 30
0.0
 11
-692.0176501363502
 21
-266.7134980601021
 31
0.0
  0
LINE
  5
4B8
100
AcDbEntity
  8
OBJECT
100
AcDbLine
 10
-694.0176501363502
 20
-266.7134980601021
 30
0.0
 11
-694.0176501363502
 21
-267.71349806010187
 31
0.0
  0
LINE
  5
4B9
100
AcDbEntity
  8
OBJECT
100
AcDbLine
 10
-690.51765013635054
 20
-300.51349806010205
 30
0.0
 11
-690.51765013635054
 21
-299.51349806010182
 31
0.0
  0
LINE
  5
4BA
100
AcDbEntity
  8
OBJECT
100
AcDbLine
 10
-690.51765013635043
 20
-268.7134980601021
 30
0.0
 11
-690.51765013635043
 21
-267.7134980601021
 31
0.0
  0
LINE
  5
4BB
100
AcDbEntity
  8
OBJECT
100
AcDbLine
 10
-693.01765013635054
 20
-299.51349806010182
 30
0.0
 11
-693.01765013635054
 21
-300.51349806010182
 31
0.0
  0
LINE
  5
4BC
100
AcDbEntity
  8
OBJECT
100
AcDbLine
 10
-693.01765013635043
 20
-268.7134980601021
 30
0.0
 11
-693.01765013635043
 21
-267.71349806010187
 31
0.0
  0
CIRCLE
  5
4BD
100
AcDbEntity
  8
OBJECT
100
AcDbCircle
 10
-589.31765013635163
 20
-278.6134980600973
 30
0.0
 40
4.1867721831274594
  0
LINE
  5
4BE
100
AcDbEntity
  8
OBJECT
100
AcDbLine
 10
-579.81765013635129
 20
-293.91349806009714
 30
0.0
 11
-579.31765013635129
 21
-293.91349806009714
 31
0.0
  0
LINE
  5
4BF
100
AcDbEntity
  8
OBJECT
100
AcDbLine
 10
-579.31765013635129
 20
-294.41349806009714
 30
0.0
 11
-579.31765013635129
 21
-293.91349806009714
 31
0.0
  0
LINE
  5
4C0
100
AcDbEntity
  8
OBJECT
100
AcDbLine
 10
-579.81765013635186
 20
-265.31349806009723
 30
0.0
 11
-579.31765013635186
 21
-265.31349806009723
 31
0.0
  0
LINE
  5
4C1
100
AcDbEntity
  8
OBJECT
100
AcDbLine
 10
-559.31765013635129
 20
-294.41349806009691
 30
0.0
 11
-559.31765013635129
 21
-293.91349806009691
 31
0.0
  0
LINE
  5
4C2
100
AcDbEntity
  8
OBJECT
100
AcDbLine
 10
-576.31765013635174
 20
-270.313498060097
 30
0.0
 11
-576.11765013635181
 21
-270.313498060097
 31
0.0
  0
LINE
  5
4C3
100
AcDbEntity
  8
OBJECT
100
AcDbLine
 10
-576.3176501363514
 20
-288.91349806009714
 30
0.0
 11
-576.11765013635147
 21
-288.91349806009714
 31
0.0
  0
LINE
  5
4C4
100
AcDbEntity
  8
OBJECT
100
AcDbLine
 10
-575.61765013635136
 20
-289.61349806009719
 30
0.0
 11
-575.61765013635147
 21
-289.41349806009714
 31
0.0
  0
LINE
  5
4C5
100
AcDbEntity
  8
OBJECT
100
AcDbLine
 10
-579.31765013635186
 20
-265.31349806009723
 30
0.0
 11
-579.31765013635186
 21
-264.81349806009723
 31
0.0
  0
LINE
  5
4C6
100
AcDbEntity
  8
OBJECT
100
AcDbLine
 10
-559.31765013635186
 20
-265.31349806009678
 30
0.0
 11
-559.31765013635186
 21
-264.81349806009678
 31
0.0
  0
LINE
  5
4C7
100
AcDbEntity
  8
OBJECT
100
AcDbLine
 10
-563.01765013635145
 20
-289.61349806009673
 30
0.0
 11
-563.01765013635145
 21
-289.41349806009691
 31
0.0
  0
LINE
  5
4C8
100
AcDbEntity
  8
OBJECT
100
AcDbLine
 10
-575.61765013635181
 20
-269.813498060097
 30
0.0
 11
-575.61765013635181
 21
-269.61349806009719
 31
0.0
  0
LINE
  5
4C9
100
AcDbEntity
  8
OBJECT
100
AcDbLine
 10
-563.01765013635179
 20
-269.813498060097
 30
0.0
 11
-563.01765013635179
 21
-269.61349806009673
 31
0.0
  0
LINE
  5
4CA
100
AcDbEntity
  8
OBJECT
100
AcDbLine
 10
-562.51765013635145
 20
-288.91349806009691
 30
0.0
 11
-562.3176501363514
 21
-288.91349806009691
 31
0.0
  0
LINE
  5
4CB
100
AcDbEntity
  8
OBJECT
100
AcDbLine
 10
-562.51765013635179
 20
-270.313498060097
 30
0.0
 11
-562.31765013635174
 21
-270.31349806009678
 31
0.0
  0
LINE
  5
4CC
100
AcDbEntity
  8
OBJECT
100
AcDbLine
 10
-559.31765013635186
 20
-265.31349806009678
 30
0.0
 11
-558.81765013635186
 21
-265.31349806009678
 31
0.0
  0
LINE
  5
4CD
100
AcDbEntity
  8
OBJECT
100
AcDbLine
 10
-559.31765013635129
 20
-293.91349806009691
 30
0.0
 11
-558.81765013635129
 21
-293.91349806009691
 31
0.0
  0
LINE
  5
4CE
100
AcDbEntity
  8
OBJECT
100
AcDbLine
 10
-575.86765013635124
 20
-286.10501603098066
 30
0.0
 11
-575.86765013635124
 21
-286.43722399871137
 31
0.0
  0
SPLINE
  5
4CF
100
AcDbEntity
  8
OBJECT
100
AcDbSpline
210
0.0
220
0.0
230
1.0
 70
               8
 71
               2
 72
              22
 73
              19
 74
               0
 42
0.000001
 43
0.000001
 40
0.0
 40
0.0
 40
0.0
 40
0.006930290295741
 40
0.006930290295741
 40
0.145578244812194
 40
0.145578244812194
 40
0.3022692301473826
 40
0.3022692301473826
 40
0.4520138863511811
 40
0.4520138863511811
 40
0.5885640013918274
 40
0.5885640013918274
 40
0.7251483992974791
 40
0.7251483992974791
 40
0.8582602932805291
 40
0.8582602932805291
 40
0.9924211962705029
 40
0.9924211962705029
 40
1.0
 40
1.0
 40
1.0
 10
-576.11765013635136
 20
-286.20861634032497
 30
0.0
 10
-576.11765013635136
 20
-286.20991996956263
 30
0.0
 10
-576.11765013635136
 20
-286.2112235988003
 30
0.0
 10
-576.11713745354405
 20
-286.2350156003273
 30
0.0
 10
-576.11068409870234
 20
-286.26281285984646
 30
0.0
 10
-576.10423074386051
 20
-286.29061011936562
 30
0.0
 10
-576.08788393245698
 20
-286.3168753480694
 30
0.0
 10
-576.07153712105344
 20
-286.34314057677318
 30
0.0
 10
-576.0535900199618
 20
-286.361410711438
 30
0.0
 10
-576.03564291887017
 20
-286.37968084610281
 30
0.0
 10
-576.01397966665149
 20
-286.39395237097517
 30
0.0
 10
-575.99231641443282
 20
-286.40822389584753
 30
0.0
 10
-575.96855216753272
 20
-286.41775803160556
 30
0.0
 10
-575.94478792063273
 20
-286.42729216736359
 30
0.0
 10
-575.92063236336537
 20
-286.43201123880488
 30
0.0
 10
-575.89647680609789
 20
-286.43673031024616
 30
0.0
 10
-575.87050137337224
 20
-286.43722399871137
 30
0.0
 10
-575.8690757548618
 20
-286.43722399871137
 30
0.0
 10
-575.86765013635136
 20
-286.43722399871137
 30
0.0
  0
SPLINE
  5
4D0
100
AcDbEntity
  8
OBJECT
100
AcDbSpline
210
0.0
220
0.0
230
1.0
 70
               8
 71
               2
 72
              22
 73
              19
 74
               0
 42
0.000001
 43
0.000001
 40
0.0
 40
0.0
 40
0.0
 40
0.005001125088396
 40
0.005001125088396
 40
0.1871178462042832
 40
0.1871178462042832
 40
0.3510963254183348
 40
0.3510963254183348
 40
0.5162894387723402
 40
0.5162894387723402
 40
0.6755117143110777
 40
0.6755117143110777
 40
0.7968966543148019
 40
0.7968966543148019
 40
0.8973247420486386
 40
0.8973247420486386
 40
0.9979275275747438
 40
0.9979275275747438
 40
1.0
 40
1.0
 40
1.0
 10
-575.86765012524756
 20
-286.10501603098066
 30
0.0
 10
-575.868374904495
 20
-286.10501603096736
 30
0.0
 10
-575.86909968374232
 20
-286.10501603095406
 30
0.0
 10
-575.89687337395628
 20
-286.10513114468029
 30
0.0
 10
-575.92180152808737
 20
-286.10747907360133
 30
0.0
 10
-575.94672968221846
 20
-286.10982700252237
 30
0.0
 10
-575.96887251793976
 20
-286.11389195796937
 30
0.0
 10
-575.99101535366106
 20
-286.11795691341638
 30
0.0
 10
-576.01541214129168
 20
-286.12501657242626
 30
0.0
 10
-576.0398089289223
 20
-286.13207623143614
 30
0.0
 10
-576.05839720625318
 20
-286.14159523695128
 30
0.0
 10
-576.07698548358405
 20
-286.15111424246641
 30
0.0
 10
-576.08834590946321
 20
-286.15995246818568
 30
0.0
 10
-576.09970633534238
 20
-286.16879069390495
 30
0.0
 10
-576.10848608497213
 20
-286.18082665699626
 30
0.0
 10
-576.11726583460188
 20
-286.19286262008757
 30
0.0
 10
-576.11765013635136
 20
-286.20801564149099
 30
0.0
 10
-576.11765013635136
 20
-286.20831599090798
 30
0.0
 10
-576.11765013635136
 20
-286.20861634032497
 30
0.0
  0
LINE
  5
4D1
100
AcDbEntity
  8
OBJECT
100
AcDbLine
 10
-575.86765013635124
 20
-286.10501603098066
 30
0.0
 11
-562.76765013635134
 21
-286.10501603098044
 31
0.0
  0
LINE
  5
4D2
100
AcDbEntity
  8
OBJECT
100
AcDbLine
 10
-562.76765013635134
 20
-286.10501603098044
 30
0.0
 11
-562.76765013635134
 21
-286.43722399871115
 31
0.0
  0
LINE
  5
4D3
100
AcDbEntity
  8
OBJECT
100
AcDbLine
 10
-562.76765013635134
 20
-286.43722399871115
 30
0.0
 11
-575.86765013635124
 21
-286.43722399871137
 31
0.0
  0
SPLINE
  5
4D4
100
AcDbEntity
  8
OBJECT
100
AcDbSpline
210
0.0
220
0.0
230
1.0
 70
               8
 71
               2
 72
              22
 73
              19
 74
               0
 42
0.000001
 43
0.000001
 40
0.0
 40
0.0
 40
0.0
 40
0.0038297291517641
 40
0.0038297291517641
 40
0.0875673813600675
 40
0.0875673813600675
 40
0.1894083818590607
 40
0.1894083818590607
 40
0.3368795566728309
 40
0.3368795566728309
 40
0.5090395113829944
 40
0.5090395113829944
 40
0.6713873653299295
 40
0.6713873653299295
 40
0.8282752682479792
 40
0.8282752682479792
 40
0.990758403191956
 40
0.990758403191956
 40
1.0
 40
1.0
 40
1.0
 10
-562.51765013635134
 20
-286.20861634032451
 30
0.0
 10
-562.51765013635134
 20
-286.208061366994
 30
0.0
 10
-562.51765013635134
 20
-286.20750639366349
 30
0.0
 10
-562.5181562688955
 20
-286.19511426650922
 30
0.0
 10
-562.52451955862705
 20
-286.18450690055863
 30
0.0
 10
-562.53088284835849
 20
-286.17389953460804
 30
0.0
 10
-562.54384371868457
 20
-286.16235045555459
 30
0.0
 10
-562.55680458901077
 20
-286.15080137650114
 30
0.0
 10
-562.58014887866193
 20
-286.1401033229331
 30
0.0
 10
-562.60349316831309
 20
-286.12940526936507
 30
0.0
 10
-562.62694854567064
 20
-286.12297852994777
 30
0.0
 10
-562.65040392302831
 20
-286.11655179053048
 30
0.0
 10
-562.67284777609063
 20
-286.11276054863993
 30
0.0
 10
-562.69529162915285
 20
-286.10896930674937
 30
0.0
 10
-562.71794234784215
 20
-286.10709175890838
 30
0.0
 10
-562.74059306653146
 20
-286.10521421106739
 30
0.0
 10
-562.76497169052982
 20
-286.10501603102978
 30
0.0
 10
-562.76631090788862
 20
-286.10501603100511
 30
0.0
 10
-562.76765012524754
 20
-286.10501603098044
 30
0.0
  0
SPLINE
  5
4D5
100
AcDbEntity
  8
OBJECT
100
AcDbSpline
210
0.0
220
0.0
230
1.0
 70
               8
 71
               2
 72
              22
 73
              19
 74
               0
 42
0.000001
 43
0.000001
 40
0.0
 40
0.0
 40
0.0
 40
0.007579888693629
 40
0.007579888693629
 40
0.1910197818450643
 40
0.1910197818450643
 40
0.3431544665440168
 40
0.3431544665440168
 40
0.4801860839872613
 40
0.4801860839872613
 40
0.6154726568900595
 40
0.6154726568900595
 40
0.7460972340977906
 40
0.7460972340977906
 40
0.8700156716652929
 40
0.8700156716652929
 40
0.9930687175792162
 40
0.9930687175792162
 40
1.0
 40
1.0
 40
1.0
 10
-562.76765013635134
 20
-286.43722399871137
 30
0.0
 10
-562.7662245178409
 20
-286.43722399871137
 30
0.0
 10
-562.76479889933046
 20
-286.43722399871137
 30
0.0
 10
-562.72693232124118
 20
-286.43668447228117
 30
0.0
 10
-562.6966645292041
 20
-286.42783275840804
 30
0.0
 10
-562.66639673716702
 20
-286.41898104453492
 30
0.0
 10
-562.64346707864559
 20
-286.40701894288702
 30
0.0
 10
-562.62053742012415
 20
-286.39505684123912
 30
0.0
 10
-562.60055770261727
 20
-286.37864546405683
 30
0.0
 10
-562.58057798511049
 20
-286.36223408687454
 30
0.0
 10
-562.56497097857698
 20
-286.34242454542346
 30
0.0
 10
-562.54936397204347
 20
-286.32261500397237
 30
0.0
 10
-562.53893766368446
 20
-286.30088424862402
 30
0.0
 10
-562.52851135532546
 20
-286.27915349327566
 30
0.0
 10
-562.52335068893046
 20
-286.2570649117398
 30
0.0
 10
-562.51819002253558
 20
-286.23497633020395
 30
0.0
 10
-562.51765013635134
 20
-286.21122359880007
 30
0.0
 10
-562.51765013635134
 20
-286.20991996956229
 30
0.0
 10
-562.51765013635134
 20
-286.20861634032451
 30
0.0
  0
LINE
  5
4D6
100
AcDbEntity
  8
OBJECT
100
AcDbLine
 10
-575.8676501363517
 20
-270.48829023015503
 30
0.0
 11
-575.86765013635124
 21
-286.10501603098066
 31
0.0
  0
LINE
  5
4D7
100
AcDbEntity
  8
OBJECT
100
AcDbLine
 10
-562.76765013635179
 20
-270.48829023015458
 30
0.0
 11
-575.8676501363517
 21
-270.48829023015503
 31
0.0
  0
LINE
  5
4D8
100
AcDbEntity
  8
OBJECT
100
AcDbLine
 10
-562.76765013635134
 20
-286.10501603098044
 30
0.0
 11
-562.76765013635179
 21
-270.48829023015458
 31
0.0
  0
SPLINE
  5
4D9
100
AcDbEntity
  8
OBJECT
100
AcDbSpline
210
0.0
220
0.0
230
1.0
 70
               8
 71
               2
 72
              20
 73
              17
 74
               0
 42
0.000001
 43
0.000001
 40
0.0
 40
0.0
 40
0.0
 40
0.0004483077929793
 40
0.0004483077929793
 40
0.108765569225047
 40
0.108765569225047
 40
0.2875470657483366
 40
0.2875470657483366
 40
0.4550142656414111
 40
0.4550142656414111
 40
0.6335301657889142
 40
0.6335301657889142
 40
0.8079635519827799
 40
0.8079635519827799
 40
0.9896461880158454
 40
0.9896461880158454
 40
1.0
 40
1.0
 40
1.0
 10
-576.11765013635181
 20
-270.4774655263044
 30
0.0
 10
-576.11765013635181
 20
-270.47752180734471
 30
0.0
 10
-576.11765013635181
 20
-270.47757808838503
 30
0.0
 10
-576.11706658082051
 20
-270.48053432630934
 30
0.0
 10
-576.09129804518921
 20
-270.4823497778043
 30
0.0
 10
-576.0655295095579
 20
-270.48416522929926
 30
0.0
 10
-576.04649096784351
 20
-270.48502938694185
 30
0.0
 10
-576.02745242612912
 20
-270.48589354458443
 30
0.0
 10
-576.00447040574625
 20
-270.48652561926338
 30
0.0
 10
-575.98148838536338
 20
-270.48715769394232
 30
0.0
 10
-575.95965980767608
 20
-270.487529823817
 30
0.0
 10
-575.93783122998889
 20
-270.48790195369168
 30
0.0
 10
-575.91586644014671
 20
-270.48808632114515
 30
0.0
 10
-575.89390165030443
 20
-270.48827068859862
 30
0.0
 10
-575.87024979363559
 20
-270.48829023015503
 30
0.0
 10
-575.8689499649937
 20
-270.48829023015503
 30
0.0
 10
-575.86765013635181
 20
-270.48829023015503
 30
0.0
  0
SPLINE
  5
4DA
100
AcDbEntity
  8
OBJECT
100
AcDbSpline
210
0.0
220
0.0
230
1.0
 70
               8
 71
               2
 72
              20
 73
              17
 74
               0
 42
0.000001
 43
0.000001
 40
0.0
 40
0.0
 40
0.0
 40
0.0103607119443937
 40
0.0103607119443937
 40
0.2575679995873986
 40
0.2575679995873986
 40
0.452450656789443
 40
0.452450656789443
 40
0.6139417536071099
 40
0.6139417536071099
 40
0.8027323851476635
 40
0.8027323851476635
 40
0.9553092114051602
 40
0.9553092114051602
 40
0.9995513934456439
 40
0.9995513934456439
 40
1.0
 40
1.0
 40
1.0
 10
-562.76765013635168
 20
-270.48829023015458
 30
0.0
 10
-562.7663503093496
 20
-270.48829023015458
 30
0.0
 10
-562.76505048234765
 20
-270.48829023015458
 30
0.0
 10
-562.73062870288254
 20
-270.48826848046485
 30
0.0
 10
-562.7030241879861
 20
-270.48792320788289
 30
0.0
 10
-562.67541967308966
 20
-270.48757793530092
 30
0.0
 10
-562.65413231637797
 20
-270.48710987614845
 30
0.0
 10
-562.63284495966616
 20
-270.48664181699598
 30
0.0
 10
-562.61362764001103
 20
-270.48599123277052
 30
0.0
 10
-562.59441032035579
 20
-270.48534064854505
 30
0.0
 10
-562.56630436327032
 20
-270.48389988230076
 30
0.0
 10
-562.53819840618485
 20
-270.48245911605648
 30
0.0
 10
-562.52818999085082
 20
-270.48064481060578
 30
0.0
 10
-562.51818157551668
 20
-270.47883050515509
 30
0.0
 10
-562.51765014291198
 20
-270.4775781155555
 30
0.0
 10
-562.51765013963234
 20
-270.47752183458613
 30
0.0
 10
-562.51765013635259
 20
-270.47746555361675
 30
0.0
  0
LINE
  5
4DB
100
AcDbEntity
  8
OBJECT
100
AcDbLine
 10
-575.86765013635124
 20
-286.43722399871137
 30
0.0
 11
-575.86765013635159
 21
-289.09264833592795
 31
0.0
  0
LINE
  5
4DC
100
AcDbEntity
  8
OBJECT
100
AcDbLine
 10
-562.76765013635156
 20
-289.09264833592772
 30
0.0
 11
-562.76765013635134
 21
-286.43722399871115
 31
0.0
  0
LINE
  5
4DD
100
AcDbEntity
  8
OBJECT
100
AcDbLine
 10
-575.86765013635181
 20
-270.22759937965782
 30
0.0
 11
-562.76765013635179
 21
-270.22759937965759
 31
0.0
  0
LINE
  5
4DE
100
AcDbEntity
  8
OBJECT
100
AcDbLine
 10
-562.76765013635179
 20
-270.22759937965759
 30
0.0
 11
-562.76765013635179
 21
-270.48829023015458
 31
0.0
  0
LINE
  5
4DF
100
AcDbEntity
  8
OBJECT
100
AcDbLine
 10
-575.86765013635181
 20
-270.22759937965782
 30
0.0
 11
-575.8676501363517
 21
-270.48829023015503
 31
0.0
  0
SPLINE
  5
4E0
100
AcDbEntity
  8
OBJECT
100
AcDbSpline
210
0.0
220
0.0
230
1.0
 70
               8
 71
               2
 72
              22
 73
              19
 74
               0
 42
0.000001
 43
0.000001
 40
0.0
 40
0.0
 40
0.0
 40
0.0040583628759647
 40
0.0040583628759647
 40
0.11551128178365
 40
0.11551128178365
 40
0.2415484647555265
 40
0.2415484647555265
 40
0.4050162577688432
 40
0.4050162577688432
 40
0.5951261714505257
 40
0.5951261714505257
 40
0.7587277336579308
 40
0.7587277336579308
 40
0.8846667434215024
 40
0.8846667434215024
 40
0.9959438100255973
 40
0.9959438100255973
 40
1.0
 40
1.0
 40
1.0
 10
-575.86765010957129
 20
-270.22759937965782
 30
0.0
 10
-575.86844736677358
 20
-270.22759937957244
 30
0.0
 10
-575.86924462397587
 20
-270.22759937948706
 30
0.0
 10
-575.89008657020008
 20
-270.2278484871855
 30
0.0
 10
-575.91279356713665
 20
-270.23168260644252
 30
0.0
 10
-575.93550056407321
 20
-270.23551672569954
 30
0.0
 10
-575.96026922505678
 20
-270.24539196634225
 30
0.0
 10
-575.98503788604035
 20
-270.25526720698497
 30
0.0
 10
-576.01640819007787
 20
-270.27632169494291
 30
0.0
 10
-576.04777849411539
 20
-270.29737618290085
 30
0.0
 10
-576.06888975384561
 20
-270.3287811454943
 30
0.0
 10
-576.09000101357583
 20
-270.36018610808776
 30
0.0
 10
-576.09986627254455
 20
-270.38495277624475
 30
0.0
 10
-576.10973153151315
 20
-270.40971944440173
 30
0.0
 10
-576.11356307489757
 20
-270.43239247544034
 30
0.0
 10
-576.11739461828211
 20
-270.45506550647895
 30
0.0
 10
-576.11765013635181
 20
-270.47587186562407
 30
0.0
 10
-576.11765013635181
 20
-270.47666869596424
 30
0.0
 10
-576.11765013635181
 20
-270.4774655263044
 30
0.0
  0
SPLINE
  5
4E1
100
AcDbEntity
  8
OBJECT
100
AcDbSpline
210
0.0
220
0.0
230
1.0
 70
               8
 71
               2
 72
              22
 73
              19
 74
               0
 42
0.000001
 43
0.000001
 40
0.0
 40
0.0
 40
0.0
 40
0.0074990521575284
 40
0.0074990521575284
 40
0.1490363601122785
 40
0.1490363601122785
 40
0.2994759635813687
 40
0.2994759635813687
 40
0.4473152511634282
 40
0.4473152511634282
 40
0.5877729849049908
 40
0.5877729849049908
 40
0.7261417372564738
 40
0.7261417372564738
 40
0.8593333239913298
 40
0.8593333239913298
 40
0.9924969305981206
 40
0.9924969305981206
 40
1.0
 40
1.0
 40
1.0
 10
-562.51765013635179
 20
-270.47746552630394
 30
0.0
 10
-562.51765013635179
 20
-270.47599317599384
 30
0.0
 10
-562.51765013635179
 20
-270.47452082568373
 30
0.0
 10
-562.5181945185924
 20
-270.44763889230433
 30
0.0
 10
-562.52441809055665
 20
-270.41945819204102
 30
0.0
 10
-562.53064166252091
 20
-270.39127749177771
 30
0.0
 10
-562.54480661590094
 20
-270.36421286931454
 30
0.0
 10
-562.55897156928097
 20
-270.33714824685137
 30
0.0
 10
-562.57688790642953
 20
-270.31598839071319
 30
0.0
 10
-562.5948042435781
 20
-270.294828534575
 30
0.0
 10
-562.61687157237225
 20
-270.27818319674327
 30
0.0
 10
-562.6389389011664
 20
-270.26153785891154
 30
0.0
 10
-562.66341071542877
 20
-270.25037897670745
 30
0.0
 10
-562.68788252969125
 20
-270.23922009450337
 30
0.0
 10
-562.71286555748236
 20
-270.23369724990368
 30
0.0
 10
-562.73784858527347
 20
-270.228174405304
 30
0.0
 10
-562.76470383147409
 20
-270.22759937997296
 30
0.0
 10
-562.76617697052268
 20
-270.22759937981527
 30
0.0
 10
-562.76765010957126
 20
-270.22759937965759
 30
0.0
  0
LINE
  5
4E2
100
AcDbEntity
  8
OBJECT
100
AcDbLine
 10
-575.86765013635193
 20
-270.13434778426642
 30
0.0
 11
-575.86765013635181
 21
-270.22759937965782
 31
0.0
  0
LINE
  5
4E3
100
AcDbEntity
  8
OBJECT
100
AcDbLine
 10
-562.76765013635179
 20
-270.22759937965759
 30
0.0
 11
-562.7676501363519
 21
-270.13434778426597
 31
0.0
  0
POLYLINE
  5
4E4
100
AcDbEntity
  8
OBJECT
100
AcDb2dPolyline
 66
               1
 10
0.0
 20
0.0
 30
0.0
 70
               1
 75
               5
  0
VERTEX
  5
4E5
100
AcDbEntity
  8
OBJECT
100
AcDbVertex
100
AcDb2dVertex
 10
-657.81765013101767
 20
-264.61349806010037
 30
0.0
  0
VERTEX
  5
4E6
100
AcDbEntity
  8
OBJECT
100
AcDbVertex
100
AcDb2dVertex
 10
-661.09109124701695
 20
-264.89220821269066
 30
0.0
  0
VERTEX
  5
4E7
100
AcDbEntity
  8
OBJECT
100
AcDbVertex
100
AcDb2dVertex
 10
-664.27225915508416
 20
-265.71273659718042
 30
0.0
  0
VERTEX
  5
4E8
100
AcDbEntity
  8
OBJECT
100
AcDbVertex
100
AcDb2dVertex
 10
-667.26891782517214
 20
-267.05926283311408
 30
0.0
  0
VERTEX
  5
4E9
100
AcDbEntity
  8
OBJECT
100
AcDbVertex
100
AcDb2dVertex
 10
-669.99915997540006
 20
-268.88652140545389
 30
0.0
  0
VERTEX
  5
4EA
100
AcDbEntity
  8
OBJECT
100
AcDbVertex
100
AcDb2dVertex
 10
-672.38118566645608
 20
-271.14905310605388
 30
0.0
  0
VERTEX
  5
4EB
100
AcDbEntity
  8
OBJECT
100
AcDbVertex
100
AcDb2dVertex
 10
-674.35268796736659
 20
-273.77703232335682
 30
0.0
  0
VERTEX
  5
4EC
100
AcDbEntity
  8
OBJECT
100
AcDbVertex
100
AcDb2dVertex
 10
-675.85152535219822
 20
-276.70048620240152
 30
0.0
  0
VERTEX
  5
4ED
100
AcDbEntity
  8
OBJECT
100
AcDbVertex
100
AcDb2dVertex
 10
-676.84201587470579
 20
-279.83290134313449
 30
0.0
  0
VERTEX
  5
4EE
100
AcDbEntity
  8
OBJECT
100
AcDbVertex
100
AcDb2dVertex
 10
-677.28868240799306
 20
-283.0876801523799
 30
0.0
  0
VERTEX
  5
4EF
100
AcDbEntity
  8
OBJECT
100
AcDbVertex
100
AcDb2dVertex
 10
-677.18649085930838
 20
-286.3713751711731
 30
0.0
  0
VERTEX
  5
4F0
100
AcDbEntity
  8
OBJECT
100
AcDbVertex
100
AcDb2dVertex
 10
-676.53062827772783
 20
-289.59052728984568
 30
0.0
  0
VERTEX
  5
4F1
100
AcDbEntity
  8
OBJECT
100
AcDbVertex
100
AcDb2dVertex
 10
-675.34727597976394
 20
-292.65529048265091
 30
0.0
  0
VERTEX
  5
4F2
100
AcDbEntity
  8
OBJECT
100
AcDbVertex
100
AcDb2dVertex
 10
-673.6628278141734
 20
-295.47588092908393
 30
0.0
  0
VERTEX
  5
4F3
100
AcDbEntity
  8
OBJECT
100
AcDbVertex
100
AcDb2dVertex
 10
-671.53172876190001
 20
-297.97618349446896
 30
0.0
  0
VERTEX
  5
4F4
100
AcDbEntity
  8
OBJECT
100
AcDbVertex
100
AcDb2dVertex
 10
-669.00860376515084
 20
-300.08021209214792
 30
0.0
  0
VERTEX
  5
4F5
100
AcDbEntity
  8
OBJECT
100
AcDbVertex
100
AcDb2dVertex
 10
-666.17002321070731
 20
-301.73416388255907
 30
0.0
  0
VERTEX
  5
4F6
100
AcDbEntity
  8
OBJECT
100
AcDbVertex
100
AcDb2dVertex
 10
-663.0926845863637
 20
-302.88441736775064
 30
0.0
  0
VERTEX
  5
4F7
100
AcDbEntity
  8
OBJECT
100
AcDbVertex
100
AcDb2dVertex
 10
-659.8666509544737
 20
-303.50554786529972
 30
0.0
  0
VERTEX
  5
4F8
100
AcDbEntity
  8
OBJECT
100
AcDbVertex
100
AcDb2dVertex
 10
-657.81765013518384
 20
-303.61349806010037
 30
0.0
  0
VERTEX
  5
4F9
100
AcDbEntity
  8
OBJECT
100
AcDbVertex
100
AcDb2dVertex
 10
-654.54420901927756
 20
-303.33478790641891
 30
0.0
  0
VERTEX
  5
4FA
100
AcDbEntity
  8
OBJECT
100
AcDbVertex
100
AcDb2dVertex
 10
-651.36304111148365
 20
-302.5142595208689
 30
0.0
  0
VERTEX
  5
4FB
100
AcDbEntity
  8
OBJECT
100
AcDbVertex
100
AcDb2dVertex
 10
-648.36638244184473
 20
-301.16773328393617
 30
0.0
  0
VERTEX
  5
4FC
100
AcDbEntity
  8
OBJECT
100
AcDbVertex
100
AcDb2dVertex
 10
-645.63614029222572
 20
-299.34047471068618
 30
0.0
  0
VERTEX
  5
4FD
100
AcDbEntity
  8
OBJECT
100
AcDbVertex
100
AcDb2dVertex
 10
-643.2541146019239
 20
-297.0779430092922
 30
0.0
  0
VERTEX
  5
4FE
100
AcDbEntity
  8
OBJECT
100
AcDbVertex
100
AcDb2dVertex
 10
-641.28261230188946
 20
-294.44996379133238
 30
0.0
  0
VERTEX
  5
4FF
100
AcDbEntity
  8
OBJECT
100
AcDbVertex
100
AcDb2dVertex
 10
-639.78377491803258
 20
-291.52650991178791
 30
0.0
  0
VERTEX
  5
500
100
AcDbEntity
  8
OBJECT
100
AcDbVertex
100
AcDb2dVertex
 10
-638.79328439656865
 20
-288.39409477072479
 30
0.0
  0
VERTEX
  5
501
100
AcDbEntity
  8
OBJECT
100
AcDbVertex
100
AcDb2dVertex
 10
-638.34661786436664
 20
-285.13931596133068
 30
0.0
  0
VERTEX
  5
502
100
AcDbEntity
  8
OBJECT
100
AcDbVertex
100
AcDb2dVertex
 10
-638.44880941414613
 20
-281.85562094257136
 30
0.0
  0
VERTEX
  5
503
100
AcDbEntity
  8
OBJECT
100
AcDbVertex
100
AcDb2dVertex
 10
-639.10467199679942
 20
-278.63646882411751
 30
0.0
  0
VERTEX
  5
504
100
AcDbEntity
  8
OBJECT
100
AcDbVertex
100
AcDb2dVertex
 10
-640.28802429578491
 20
-275.57170563170655
 30
0.0
  0
VERTEX
  5
505
100
AcDbEntity
  8
OBJECT
100
AcDbVertex
100
AcDb2dVertex
 10
-641.97247246231564
 20
-272.75111518583515
 30
0.0
  0
VERTEX
  5
506
100
AcDbEntity
  8
OBJECT
100
AcDbVertex
100
AcDb2dVertex
 10
-644.10357151542257
 20
-270.25081262116043
 30
0.0
  0
VERTEX
  5
507
100
AcDbEntity
  8
OBJECT
100
AcDbVertex
100
AcDb2dVertex
 10
-646.62669651287297
 20
-268.14678402432253
 30
0.0
  0
VERTEX
  5
508
100
AcDbEntity
  8
OBJECT
100
AcDbVertex
100
AcDb2dVertex
 10
-649.4652770678681
 20
-266.49283223485747
 30
0.0
  0
VERTEX
  5
509
100
AcDbEntity
  8
OBJECT
100
AcDbVertex
100
AcDb2dVertex
 10
-652.54261569259484
 20
-265.34257875069204
 30
0.0
  0
VERTEX
  5
50A
100
AcDbEntity
  8
OBJECT
100
AcDbVertex
100
AcDb2dVertex
 10
-655.76864932469175
 20
-264.72144825421799
 30
0.0
  0
SEQEND
  5
50B
100
AcDbEntity
  8
OBJECT
  0
POLYLINE
  5
50C
100
AcDbEntity
  8
OBJECT
100
AcDb2dPolyline
 66
               1
 10
0.0
 20
0.0
 30
0.0
 70
               1
 75
               5
  0
VERTEX
  5
50D
100
AcDbEntity
  8
OBJECT
100
AcDbVertex
100
AcDb2dVertex
 10
-657.81765013129143
 20
-265.61349806010037
 30
0.0
  0
VERTEX
  5
50E
100
AcDbEntity
  8
OBJECT
100
AcDbVertex
100
AcDb2dVertex
 10
-660.92322247211087
 20
-265.87791538435283
 30
0.0
  0
VERTEX
  5
50F
100
AcDbEntity
  8
OBJECT
100
AcDbVertex
100
AcDb2dVertex
 10
-663.94125356438008
 20
-266.65636539015065
 30
0.0
  0
VERTEX
  5
510
100
AcDbEntity
  8
OBJECT
100
AcDbVertex
100
AcDb2dVertex
 10
-666.78423743087342
 20
-267.93383899860066
 30
0.0
  0
VERTEX
  5
511
100
AcDbEntity
  8
OBJECT
100
AcDbVertex
100
AcDb2dVertex
 10
-669.37446716314116
 20
-269.66739200312816
 30
0.0
  0
VERTEX
  5
512
100
AcDbEntity
  8
OBJECT
100
AcDbVertex
100
AcDb2dVertex
 10
-671.63433769055337
 20
-271.81389643703085
 30
0.0
  0
VERTEX
  5
513
100
AcDbEntity
  8
OBJECT
100
AcDbVertex
100
AcDb2dVertex
 10
-673.50473730936574
 20
-274.30710748934359
 30
0.0
  0
VERTEX
  5
514
100
AcDbEntity
  8
OBJECT
100
AcDbVertex
100
AcDb2dVertex
 10
-674.92671123856508
 20
-277.08064065664246
 30
0.0
  0
VERTEX
  5
515
100
AcDbEntity
  8
OBJECT
100
AcDbVertex
100
AcDb2dVertex
 10
-675.86640737530297
 20
-280.05241912349163
 30
0.0
  0
VERTEX
  5
516
100
AcDbEntity
  8
OBJECT
100
AcDbVertex
100
AcDb2dVertex
 10
-676.29016793252413
 20
-283.14028619892963
 30
0.0
  0
VERTEX
  5
517
100
AcDbEntity
  8
OBJECT
100
AcDbVertex
100
AcDb2dVertex
 10
-676.19321697607961
 20
-286.2555866013746
 30
0.0
  0
VERTEX
  5
518
100
AcDbEntity
  8
OBJECT
100
AcDbVertex
100
AcDb2dVertex
 10
-675.57098837304193
 20
-289.30965399601257
 30
0.0
  0
VERTEX
  5
519
100
AcDbEntity
  8
OBJECT
100
AcDbVertex
100
AcDb2dVertex
 10
-674.44832080830702
 20
-292.21724984559694
 30
0.0
  0
VERTEX
  5
51A
100
AcDbEntity
  8
OBJECT
100
AcDbVertex
100
AcDb2dVertex
 10
-672.85025459992585
 20
-294.89319462811034
 30
0.0
  0
VERTEX
  5
51B
100
AcDbEntity
  8
OBJECT
100
AcDbVertex
100
AcDb2dVertex
 10
-670.82844267853852
 20
-297.26527654911672
 30
0.0
  0
VERTEX
  5
51C
100
AcDbEntity
  8
OBJECT
100
AcDbVertex
100
AcDb2dVertex
 10
-668.43470870726378
 20
-299.2614062443505
 30
0.0
  0
VERTEX
  5
51D
100
AcDbEntity
  8
OBJECT
100
AcDbVertex
100
AcDb2dVertex
 10
-665.74169638638114
 20
-300.83053999422793
 30
0.0
  0
VERTEX
  5
51E
100
AcDbEntity
  8
OBJECT
100
AcDbVertex
100
AcDb2dVertex
 10
-662.82216999918364
 20
-301.92180612120444
 30
0.0
  0
VERTEX
  5
51F
100
AcDbEntity
  8
OBJECT
100
AcDbVertex
100
AcDb2dVertex
 10
-659.76157398944179
 20
-302.51108377272533
 30
0.0
  0
VERTEX
  5
520
100
AcDbEntity
  8
OBJECT
100
AcDbVertex
100
AcDb2dVertex
 10
-657.81765013524364
 20
-302.61349806010037
 30
0.0
  0
VERTEX
  5
521
100
AcDbEntity
  8
OBJECT
100
AcDbVertex
100
AcDb2dVertex
 10
-654.71207779451197
 20
-302.3490807348129
 30
0.0
  0
VERTEX
  5
522
100
AcDbEntity
  8
OBJECT
100
AcDbVertex
100
AcDb2dVertex
 10
-651.69404670250242
 20
-301.57063072800895
 30
0.0
  0
VERTEX
  5
523
100
AcDbEntity
  8
OBJECT
100
AcDbVertex
100
AcDb2dVertex
 10
-648.85106283643472
 20
-300.29315711861125
 30
0.0
  0
VERTEX
  5
524
100
AcDbEntity
  8
OBJECT
100
AcDbVertex
100
AcDb2dVertex
 10
-646.26083310474496
 20
-298.55960411322019
 30
0.0
  0
VERTEX
  5
525
100
AcDbEntity
  8
OBJECT
100
AcDbVertex
100
AcDb2dVertex
 10
-644.00096257804853
 20
-296.41309967856444
 30
0.0
  0
VERTEX
  5
526
100
AcDbEntity
  8
OBJECT
100
AcDbVertex
100
AcDb2dVertex
 10
-642.13056296006698
 20
-293.919888625628
 30
0.0
  0
VERTEX
  5
527
100
AcDbEntity
  8
OBJECT
100
AcDbVertex
100
AcDb2dVertex
 10
-640.70858903179237
 20
-291.14635545785529
 30
0.0
  0
VERTEX
  5
528
100
AcDbEntity
  8
OBJECT
100
AcDbVertex
100
AcDb2dVertex
 10
-639.76889289604469
 20
-288.1745769906928
 30
0.0
  0
VERTEX
  5
529
100
AcDbEntity
  8
OBJECT
100
AcDbVertex
100
AcDb2dVertex
 10
-639.34513233985308
 20
-285.0867099151136
 30
0.0
  0
VERTEX
  5
52A
100
AcDbEntity
  8
OBJECT
100
AcDbVertex
100
AcDb2dVertex
 10
-639.44208329733601
 20
-281.97140951270092
 30
0.0
  0
VERTEX
  5
52B
100
AcDbEntity
  8
OBJECT
100
AcDbVertex
100
AcDb2dVertex
 10
-640.06431190139187
 20
-278.91734211827054
 30
0.0
  0
VERTEX
  5
52C
100
AcDbEntity
  8
OBJECT
100
AcDbVertex
100
AcDb2dVertex
 10
-641.18697946709608
 20
-276.0097462690602
 30
0.0
  0
VERTEX
  5
52D
100
AcDbEntity
  8
OBJECT
100
AcDbVertex
100
AcDb2dVertex
 10
-642.78504567636878
 20
-273.33380148707954
 30
0.0
  0
VERTEX
  5
52E
100
AcDbEntity
  8
OBJECT
100
AcDbVertex
100
AcDb2dVertex
 10
-644.80685759854714
 20
-270.96171956674709
 30
0.0
  0
VERTEX
  5
52F
100
AcDbEntity
  8
OBJECT
100
AcDbVertex
100
AcDb2dVertex
 10
-647.20059157048718
 20
-268.96558987231117
 30
0.0
  0
VERTEX
  5
530
100
AcDbEntity
  8
OBJECT
100
AcDbVertex
100
AcDb2dVertex
 10
-649.89360389189278
 20
-267.3964561233314
 30
0.0
  0
VERTEX
  5
531
100
AcDbEntity
  8
OBJECT
100
AcDbVertex
100
AcDb2dVertex
 10
-652.81313027945407
 20
-266.30518999732828
 30
0.0
  0
VERTEX
  5
532
100
AcDbEntity
  8
OBJECT
100
AcDbVertex
100
AcDb2dVertex
 10
-655.87372628939238
 20
-265.71591234682739
 30
0.0
  0
SEQEND
  5
533
100
AcDbEntity
  8
OBJECT
  0
POLYLINE
  5
534
100
AcDbEntity
  8
OBJECT
100
AcDb2dPolyline
 66
               1
 10
0.0
 20
0.0
 30
0.0
 70
               1
 75
               5
  0
VERTEX
  5
535
100
AcDbEntity
  8
OBJECT
100
AcDbVertex
100
AcDb2dVertex
 10
-657.81765013443646
 20
-277.11349806010037
 30
0.0
  0
VERTEX
  5
536
100
AcDbEntity
  8
OBJECT
100
AcDbVertex
100
AcDb2dVertex
 10
-660.13468927128088
 20
-277.50809650930853
 30
0.0
  0
VERTEX
  5
537
100
AcDbEntity
  8
OBJECT
100
AcDbVertex
100
AcDb2dVertex
 10
-662.19049982216347
 20
-278.64740387638119
 30
0.0
  0
VERTEX
  5
538
100
AcDbEntity
  8
OBJECT
100
AcDbVertex
100
AcDb2dVertex
 10
-663.75330474235648
 20
-280.40297189819228
 30
0.0
  0
VERTEX
  5
539
100
AcDbEntity
  8
OBJECT
100
AcDbVertex
100
AcDb2dVertex
 10
-664.64690963217072
 20
-282.57687359759973
 30
0.0
  0
VERTEX
  5
53A
100
AcDbEntity
  8
OBJECT
100
AcDbVertex
100
AcDb2dVertex
 10
-664.77056731895073
 20
-284.92401804869053
 30
0.0
  0
VERTEX
  5
53B
100
AcDbEntity
  8
OBJECT
100
AcDbVertex
100
AcDb2dVertex
 10
-664.11033633655052
 20
-287.1797825194775
 30
0.0
  0
VERTEX
  5
53C
100
AcDbEntity
  8
OBJECT
100
AcDbVertex
100
AcDb2dVertex
 10
-662.74065271988138
 20
-289.08984667756602
 30
0.0
  0
VERTEX
  5
53D
100
AcDbEntity
  8
OBJECT
100
AcDbVertex
100
AcDb2dVertex
 10
-660.8159379066326
 20
-290.43886527841903
 30
0.0
  0
VERTEX
  5
53E
100
AcDbEntity
  8
OBJECT
100
AcDbVertex
100
AcDb2dVertex
 10
-658.55318889157434
 20
-291.07474670812064
 30
0.0
  0
VERTEX
  5
53F
100
AcDbEntity
  8
OBJECT
100
AcDbVertex
100
AcDb2dVertex
 10
-657.8176501359319
 20
-291.11349806010037
 30
0.0
  0
VERTEX
  5
540
100
AcDbEntity
  8
OBJECT
100
AcDbVertex
100
AcDb2dVertex
 10
-655.50061099921913
 20
-290.71889961011982
 30
0.0
  0
VERTEX
  5
541
100
AcDbEntity
  8
OBJECT
100
AcDbVertex
100
AcDb2dVertex
 10
-653.44480044871625
 20
-289.57959224236208
 30
0.0
  0
VERTEX
  5
542
100
AcDbEntity
  8
OBJECT
100
AcDbVertex
100
AcDb2dVertex
 10
-651.88199552910828
 20
-287.82402422002986
 30
0.0
  0
VERTEX
  5
543
100
AcDbEntity
  8
OBJECT
100
AcDbVertex
100
AcDb2dVertex
 10
-650.98839064001868
 20
-285.65012252032454
 30
0.0
  0
VERTEX
  5
544
100
AcDbEntity
  8
OBJECT
100
AcDbVertex
100
AcDb2dVertex
 10
-650.86473295402084
 20
-283.30297806919259
 30
0.0
  0
VERTEX
  5
545
100
AcDbEntity
  8
OBJECT
100
AcDbVertex
100
AcDb2dVertex
 10
-651.5249639371732
 20
-281.04721359862572
 30
0.0
  0
VERTEX
  5
546
100
AcDbEntity
  8
OBJECT
100
AcDbVertex
100
AcDb2dVertex
 10
-652.89464755447898
 20
-279.13714944099377
 30
0.0
  0
VERTEX
  5
547
100
AcDbEntity
  8
OBJECT
100
AcDbVertex
100
AcDb2dVertex
 10
-654.81936236817728
 20
-277.7881308407824
 30
0.0
  0
VERTEX
  5
548
100
AcDbEntity
  8
OBJECT
100
AcDbVertex
100
AcDb2dVertex
 10
-657.08211138344768
 20
-277.15224941183499
 30
0.0
  0
SEQEND
  5
549
100
AcDbEntity
  8
OBJECT
  0
LINE
  5
54A
100
AcDbEntity
  8
OBJECT
100
AcDbLine
 10
-652.68734798635069
 20
-298.20888737210055
 30
0.0
 11
-654.50837245311095
 21
-290.28185936814396
 31
0.0
  0
LINE
  5
54B
100
AcDbEntity
  8
OBJECT
100
AcDbLine
 10
-656.38775769589529
 20
-290.9658996530344
 30
0.0
 11
-652.68734798635069
 21
-298.20888737210055
 31
0.0
  0
LINE
  5
54C
100
AcDbEntity
  8
OBJECT
100
AcDbLine
 10
-681.81765013635072
 20
-308.11349806010014
 30
0.0
 11
-681.81765013635004
 21
-260.11349806010014
 31
0.0
  0
LINE
  5
54D
100
AcDbEntity
  8
OBJECT
100
AcDbLine
 10
-681.81765013635004
 20
-260.11349806010014
 30
0.0
 11
-633.81765013635004
 21
-260.11349806010082
 31
0.0
  0
LINE
  5
54E
100
AcDbEntity
  8
OBJECT
100
AcDbLine
 10
-633.81765013635004
 20
-260.11349806010082
 30
0.0
 11
-633.81765013635072
 21
-308.11349806010082
 31
0.0
  0
LINE
  5
54F
100
AcDbEntity
  8
OBJECT
100
AcDbLine
 10
-633.81765013635072
 20
-308.11349806010082
 30
0.0
 11
-681.81765013635072
 21
-308.11349806010014
 31
0.0
  0
POLYLINE
  5
550
100
AcDbEntity
  8
OBJECT
100
AcDb2dPolyline
 66
               1
 10
0.0
 20
0.0
 30
0.0
 70
               1
 75
               5
  0
VERTEX
  5
551
100
AcDbEntity
  8
OBJECT
100
AcDbVertex
100
AcDb2dVertex
 10
-640.8176501304697
 20
-269.11349806010082
 30
0.0
  0
VERTEX
  5
552
100
AcDbEntity
  8
OBJECT
100
AcDbVertex
100
AcDb2dVertex
 10
-641.47966131272597
 20
-269.00075564780661
 30
0.0
  0
VERTEX
  5
553
100
AcDbEntity
  8
OBJECT
100
AcDbVertex
100
AcDb2dVertex
 10
-642.06703575670326
 20
-268.67523925878083
 30
0.0
  0
VERTEX
  5
554
100
AcDbEntity
  8
OBJECT
100
AcDbVertex
100
AcDb2dVertex
 10
-642.51355144952458
 20
-268.17364839659683
 30
0.0
  0
VERTEX
  5
555
100
AcDbEntity
  8
OBJECT
100
AcDbVertex
100
AcDb2dVertex
 10
-642.76886713398494
 20
-267.55253362601832
 30
0.0
  0
VERTEX
  5
556
100
AcDbEntity
  8
OBJECT
100
AcDbVertex
100
AcDb2dVertex
 10
-642.80419790342467
 20
-266.88192092580096
 30
0.0
  0
VERTEX
  5
557
100
AcDbEntity
  8
OBJECT
100
AcDbVertex
100
AcDb2dVertex
 10
-642.61556048160037
 20
-266.23741679078728
 30
0.0
  0
VERTEX
  5
558
100
AcDbEntity
  8
OBJECT
100
AcDbVertex
100
AcDb2dVertex
 10
-642.22422230686448
 20
-265.69168417314711
 30
0.0
  0
VERTEX
  5
559
100
AcDbEntity
  8
OBJECT
100
AcDbVertex
100
AcDb2dVertex
 10
-641.67430378982135
 20
-265.30625028572274
 30
0.0
  0
VERTEX
  5
55A
100
AcDbEntity
  8
OBJECT
100
AcDbVertex
100
AcDb2dVertex
 10
-641.02780407171758
 20
-265.12456987551252
 30
0.0
  0
VERTEX
  5
55B
100
AcDbEntity
  8
OBJECT
100
AcDbVertex
100
AcDb2dVertex
 10
-640.81765013089694
 20
-265.11349806010082
 30
0.0
  0
VERTEX
  5
55C
100
AcDbEntity
  8
OBJECT
100
AcDbVertex
100
AcDb2dVertex
 10
-640.15563894927959
 20
-265.22624047614624
 30
0.0
  0
VERTEX
  5
55D
100
AcDbEntity
  8
OBJECT
100
AcDbVertex
100
AcDb2dVertex
 10
-639.56826450714698
 20
-265.55175686850055
 30
0.0
  0
VERTEX
  5
55E
100
AcDbEntity
  8
OBJECT
100
AcDbVertex
100
AcDb2dVertex
 10
-639.12174881716783
 20
-266.05334773321476
 30
0.0
  0
VERTEX
  5
55F
100
AcDbEntity
  8
OBJECT
100
AcDbVertex
100
AcDb2dVertex
 10
-638.86643313622722
 20
-266.67446250524006
 30
0.0
  0
VERTEX
  5
560
100
AcDbEntity
  8
OBJECT
100
AcDbVertex
100
AcDb2dVertex
 10
-638.83110237058759
 20
-267.34507520565774
 30
0.0
  0
VERTEX
  5
561
100
AcDbEntity
  8
OBJECT
100
AcDbVertex
100
AcDb2dVertex
 10
-639.01973979606419
 20
-267.9895793396023
 30
0.0
  0
VERTEX
  5
562
100
AcDbEntity
  8
OBJECT
100
AcDbVertex
100
AcDb2dVertex
 10
-639.41107797389259
 20
-268.53531195502489
 30
0.0
  0
VERTEX
  5
563
100
AcDbEntity
  8
OBJECT
100
AcDbVertex
100
AcDb2dVertex
 10
-639.96099649311986
 20
-268.92074583933311
 30
0.0
  0
VERTEX
  5
564
100
AcDbEntity
  8
OBJECT
100
AcDbVertex
100
AcDb2dVertex
 10
-640.60749621225295
 20
-269.10242624587988
 30
0.0
  0
SEQEND
  5
565
100
AcDbEntity
  8
OBJECT
  0
LINE
  5
566
100
AcDbEntity
  8
OBJECT
100
AcDbLine
 10
-671.81765013635049
 20
-305.71349806010028
 30
0.0
 11
-671.81765013635049
 21
-301.51349806010023
 31
0.0
  0
LINE
  5
567
100
AcDbEntity
  8
OBJECT
100
AcDbLine
 10
-669.61765013635068
 20
-305.71349806010028
 30
0.0
 11
-671.81765013635049
 21
-305.71349806010028
 31
0.0
  0
LINE
  5
568
100
AcDbEntity
  8
OBJECT
100
AcDbLine
 10
-669.61765013635068
 20
-301.51349806010023
 30
0.0
 11
-669.61765013635068
 21
-305.71349806010028
 31
0.0
  0
LINE
  5
569
100
AcDbEntity
  8
OBJECT
100
AcDbLine
 10
-671.81765013635049
 20
-301.51349806010023
 30
0.0
 11
-669.61765013635068
 21
-301.51349806010023
 31
0.0
  0
LINE
  5
56A
100
AcDbEntity
  8
OBJECT
100
AcDbLine
 10
-675.81765013635049
 20
-297.51349806010023
 30
0.0
 11
-673.61765013635068
 21
-297.51349806010023
 31
0.0
  0
LINE
  5
56B
100
AcDbEntity
  8
OBJECT
100
AcDbLine
 10
-675.81765013635049
 20
-301.71349806010028
 30
0.0
 11
-675.81765013635049
 21
-297.51349806010023
 31
0.0
  0
LINE
  5
56C
100
AcDbEntity
  8
OBJECT
100
AcDbLine
 10
-673.61765013635068
 20
-301.71349806010028
 30
0.0
 11
-675.81765013635049
 21
-301.71349806010028
 31
0.0
  0
LINE
  5
56D
100
AcDbEntity
  8
OBJECT
100
AcDbLine
 10
-673.61765013635068
 20
-297.51349806010023
 30
0.0
 11
-673.61765013635068
 21
-301.71349806010028
 31
0.0
  0
POLYLINE
  5
56E
100
AcDbEntity
  8
OBJECT
100
AcDb2dPolyline
 66
               1
 10
0.0
 20
0.0
 30
0.0
 70
               1
 75
               5
  0
VERTEX
  5
56F
100
AcDbEntity
  8
OBJECT
100
AcDbVertex
100
AcDb2dVertex
 10
-673.8176501304697
 20
-269.11349806010014
 30
0.0
  0
VERTEX
  5
570
100
AcDbEntity
  8
OBJECT
100
AcDbVertex
100
AcDb2dVertex
 10
-674.47966131272597
 20
-269.00075564780616
 30
0.0
  0
VERTEX
  5
571
100
AcDbEntity
  8
OBJECT
100
AcDbVertex
100
AcDb2dVertex
 10
-675.06703575670326
 20
-268.67523925878015
 30
0.0
  0
VERTEX
  5
572
100
AcDbEntity
  8
OBJECT
100
AcDbVertex
100
AcDb2dVertex
 10
-675.51355144952458
 20
-268.17364839659615
 30
0.0
  0
VERTEX
  5
573
100
AcDbEntity
  8
OBJECT
100
AcDbVertex
100
AcDb2dVertex
 10
-675.76886713398494
 20
-267.55253362601786
 30
0.0
  0
VERTEX
  5
574
100
AcDbEntity
  8
OBJECT
100
AcDbVertex
100
AcDb2dVertex
 10
-675.80419790342467
 20
-266.88192092580027
 30
0.0
  0
VERTEX
  5
575
100
AcDbEntity
  8
OBJECT
100
AcDbVertex
100
AcDb2dVertex
 10
-675.61556048160037
 20
-266.23741679078682
 30
0.0
  0
VERTEX
  5
576
100
AcDbEntity
  8
OBJECT
100
AcDbVertex
100
AcDb2dVertex
 10
-675.22422230686448
 20
-265.69168417314665
 30
0.0
  0
VERTEX
  5
577
100
AcDbEntity
  8
OBJECT
100
AcDbVertex
100
AcDb2dVertex
 10
-674.67430378982135
 20
-265.30625028572229
 30
0.0
  0
VERTEX
  5
578
100
AcDbEntity
  8
OBJECT
100
AcDbVertex
100
AcDb2dVertex
 10
-674.02780407171758
 20
-265.12456987551184
 30
0.0
  0
VERTEX
  5
579
100
AcDbEntity
  8
OBJECT
100
AcDbVertex
100
AcDb2dVertex
 10
-673.81765013089694
 20
-265.11349806010014
 30
0.0
  0
VERTEX
  5
57A
100
AcDbEntity
  8
OBJECT
100
AcDbVertex
100
AcDb2dVertex
 10
-673.15563894927959
 20
-265.22624047614579
 30
0.0
  0
VERTEX
  5
57B
100
AcDbEntity
  8
OBJECT
100
AcDbVertex
100
AcDb2dVertex
 10
-672.56826450714698
 20
-265.55175686850009
 30
0.0
  0
VERTEX
  5
57C
100
AcDbEntity
  8
OBJECT
100
AcDbVertex
100
AcDb2dVertex
 10
-672.12174881716783
 20
-266.05334773321431
 30
0.0
  0
VERTEX
  5
57D
100
AcDbEntity
  8
OBJECT
100
AcDbVertex
100
AcDb2dVertex
 10
-671.86643313622722
 20
-266.6744625052396
 30
0.0
  0
VERTEX
  5
57E
100
AcDbEntity
  8
OBJECT
100
AcDbVertex
100
AcDb2dVertex
 10
-671.83110237058759
 20
-267.34507520565728
 30
0.0
  0
VERTEX
  5
57F
100
AcDbEntity
  8
OBJECT
100
AcDbVertex
100
AcDb2dVertex
 10
-672.01973979606419
 20
-267.98957933960162
 30
0.0
  0
VERTEX
  5
580
100
AcDbEntity
  8
OBJECT
100
AcDbVertex
100
AcDb2dVertex
 10
-672.41107797389259
 20
-268.53531195502444
 30
0.0
  0
VERTEX
  5
581
100
AcDbEntity
  8
OBJECT
100
AcDbVertex
100
AcDb2dVertex
 10
-672.96099649311986
 20
-268.92074583933265
 30
0.0
  0
VERTEX
  5
582
100
AcDbEntity
  8
OBJECT
100
AcDbVertex
100
AcDb2dVertex
 10
-673.60749621225295
 20
-269.10242624587943
 30
0.0
  0
SEQEND
  5
583
100
AcDbEntity
  8
OBJECT
  0
POLYLINE
  5
584
100
AcDbEntity
  8
OBJECT
100
AcDb2dPolyline
 66
               1
 10
0.0
 20
0.0
 30
0.0
 70
               1
 75
               5
  0
VERTEX
  5
585
100
AcDbEntity
  8
OBJECT
100
AcDbVertex
100
AcDb2dVertex
 10
-640.81765013047038
 20
-303.11349806010082
 30
0.0
  0
VERTEX
  5
586
100
AcDbEntity
  8
OBJECT
100
AcDbVertex
100
AcDb2dVertex
 10
-641.47966131272642
 20
-303.00075564780661
 30
0.0
  0
VERTEX
  5
587
100
AcDbEntity
  8
OBJECT
100
AcDbVertex
100
AcDb2dVertex
 10
-642.06703575670372
 20
-302.67523925878083
 30
0.0
  0
VERTEX
  5
588
100
AcDbEntity
  8
OBJECT
100
AcDbVertex
100
AcDb2dVertex
 10
-642.51355144952504
 20
-302.17364839659683
 30
0.0
  0
VERTEX
  5
589
100
AcDbEntity
  8
OBJECT
100
AcDbVertex
100
AcDb2dVertex
 10
-642.76886713398562
 20
-301.55253362601832
 30
0.0
  0
VERTEX
  5
58A
100
AcDbEntity
  8
OBJECT
100
AcDbVertex
100
AcDb2dVertex
 10
-642.80419790342512
 20
-300.88192092580096
 30
0.0
  0
VERTEX
  5
58B
100
AcDbEntity
  8
OBJECT
100
AcDbVertex
100
AcDb2dVertex
 10
-642.61556048160082
 20
-300.23741679078728
 30
0.0
  0
VERTEX
  5
58C
100
AcDbEntity
  8
OBJECT
100
AcDbVertex
100
AcDb2dVertex
 10
-642.22422230686516
 20
-299.69168417314711
 30
0.0
  0
VERTEX
  5
58D
100
AcDbEntity
  8
OBJECT
100
AcDbVertex
100
AcDb2dVertex
 10
-641.67430378982181
 20
-299.30625028572274
 30
0.0
  0
VERTEX
  5
58E
100
AcDbEntity
  8
OBJECT
100
AcDbVertex
100
AcDb2dVertex
 10
-641.02780407171804
 20
-299.12456987551252
 30
0.0
  0
VERTEX
  5
58F
100
AcDbEntity
  8
OBJECT
100
AcDbVertex
100
AcDb2dVertex
 10
-640.81765013089762
 20
-299.11349806010082
 30
0.0
  0
VERTEX
  5
590
100
AcDbEntity
  8
OBJECT
100
AcDbVertex
100
AcDb2dVertex
 10
-640.15563894928027
 20
-299.22624047614624
 30
0.0
  0
VERTEX
  5
591
100
AcDbEntity
  8
OBJECT
100
AcDbVertex
100
AcDb2dVertex
 10
-639.56826450714743
 20
-299.55175686850055
 30
0.0
  0
VERTEX
  5
592
100
AcDbEntity
  8
OBJECT
100
AcDbVertex
100
AcDb2dVertex
 10
-639.12174881716851
 20
-300.05334773321476
 30
0.0
  0
VERTEX
  5
593
100
AcDbEntity
  8
OBJECT
100
AcDbVertex
100
AcDb2dVertex
 10
-638.8664331362279
 20
-300.67446250524006
 30
0.0
  0
VERTEX
  5
594
100
AcDbEntity
  8
OBJECT
100
AcDbVertex
100
AcDb2dVertex
 10
-638.83110237058827
 20
-301.34507520565774
 30
0.0
  0
VERTEX
  5
595
100
AcDbEntity
  8
OBJECT
100
AcDbVertex
100
AcDb2dVertex
 10
-639.01973979606464
 20
-301.9895793396023
 30
0.0
  0
VERTEX
  5
596
100
AcDbEntity
  8
OBJECT
100
AcDbVertex
100
AcDb2dVertex
 10
-639.41107797389304
 20
-302.53531195502489
 30
0.0
  0
VERTEX
  5
597
100
AcDbEntity
  8
OBJECT
100
AcDbVertex
100
AcDb2dVertex
 10
-639.96099649312055
 20
-302.92074583933311
 30
0.0
  0
VERTEX
  5
598
100
AcDbEntity
  8
OBJECT
100
AcDbVertex
100
AcDb2dVertex
 10
-640.60749621225341
 20
-303.10242624587988
 30
0.0
  0
SEQEND
  5
599
100
AcDbEntity
  8
OBJECT
  0
LINE
  5
59A
100
AcDbEntity
  8
OBJECT
100
AcDbLine
 10
-678.91765013634995
 20
-265.01349806010001
 30
0.0
 11
-676.21765013635013
 21
-265.01349806010023
 31
0.0
  0
LINE
  5
59B
100
AcDbEntity
  8
OBJECT
100
AcDbLine
 10
-678.91765013634995
 20
-268.71349806010005
 30
0.0
 11
-678.91765013634995
 21
-265.01349806010001
 31
0.0
  0
LINE
  5
59C
100
AcDbEntity
  8
OBJECT
100
AcDbLine
 10
-676.21765013635013
 20
-268.71349806010028
 30
0.0
 11
-678.91765013634995
 21
-268.71349806010005
 31
0.0
  0
LINE
  5
59D
100
AcDbEntity
  8
OBJECT
100
AcDbLine
 10
-676.21765013635013
 20
-265.01349806010023
 30
0.0
 11
-676.21765013635013
 21
-268.71349806010028
 31
0.0
  0
POLYLINE
  5
59E
100
AcDbEntity
  8
OBJECT
100
AcDb2dPolyline
 66
               1
 10
0.0
 20
0.0
 30
0.0
 75
               5
  0
VERTEX
  5
59F
100
AcDbEntity
  8
OBJECT
100
AcDbVertex
100
AcDb2dVertex
 10
-657.81765013393033
 20
-292.96349806010051
 30
0.0
  0
VERTEX
  5
5A0
100
AcDbEntity
  8
OBJECT
100
AcDbVertex
100
AcDb2dVertex
 10
-659.81765013399286
 20
-292.73454788071001
 30
0.0
  0
VERTEX
  5
5A1
100
AcDbEntity
  8
OBJECT
100
AcDbVertex
100
AcDb2dVertex
 10
-661.23626955137161
 20
-292.27559114517987
 30
0.0
  0
VERTEX
  5
5A2
100
AcDbEntity
  8
OBJECT
100
AcDbVertex
100
AcDb2dVertex
 10
-662.55852341047193
 20
-291.5865577145338
 30
0.0
  0
VERTEX
  5
5A3
100
AcDbEntity
  8
OBJECT
100
AcDbVertex
100
AcDb2dVertex
 10
-663.74525629337859
 20
-290.68390196560119
 30
0.0
  0
VERTEX
  5
5A4
100
AcDbEntity
  8
OBJECT
100
AcDbVertex
100
AcDb2dVertex
 10
-664.76489918841798
 20
-289.59603676115341
 30
0.0
  0
VERTEX
  5
5A5
100
AcDbEntity
  8
OBJECT
100
AcDbVertex
100
AcDb2dVertex
 10
-665.58595040657519
 20
-288.35144958718126
 30
0.0
  0
VERTEX
  5
5A6
100
AcDbEntity
  8
OBJECT
100
AcDbVertex
100
AcDb2dVertex
 10
-666.18802533590406
 20
-286.98740115844919
 30
0.0
  0
VERTEX
  5
5A7
100
AcDbEntity
  8
OBJECT
100
AcDbVertex
100
AcDb2dVertex
 10
-666.55082759276092
 20
-285.54120032216395
 30
0.0
  0
VERTEX
  5
5A8
100
AcDbEntity
  8
OBJECT
100
AcDbVertex
100
AcDb2dVertex
 10
-666.66745517529307
 20
-284.05475478214373
 30
0.0
  0
VERTEX
  5
5A9
100
AcDbEntity
  8
OBJECT
100
AcDbVertex
100
AcDb2dVertex
 10
-666.53110526852015
 20
-282.5699884573047
 30
0.0
  0
VERTEX
  5
5AA
100
AcDbEntity
  8
OBJECT
100
AcDbVertex
100
AcDb2dVertex
 10
-666.14913662903359
 20
-281.12873126481543
 30
0.0
  0
VERTEX
  5
5AB
100
AcDbEntity
  8
OBJECT
100
AcDbVertex
100
AcDb2dVertex
 10
-665.52900697630184
 20
-279.77279559146825
 30
0.0
  0
VERTEX
  5
5AC
100
AcDbEntity
  8
OBJECT
100
AcDbVertex
100
AcDb2dVertex
 10
-664.69150618137655
 20
-278.53921756193256
 30
0.0
  0
VERTEX
  5
5AD
100
AcDbEntity
  8
OBJECT
100
AcDbVertex
100
AcDb2dVertex
 10
-663.65751169687746
 20
-277.46498400144503
 30
0.0
  0
VERTEX
  5
5AE
100
AcDbEntity
  8
OBJECT
100
AcDbVertex
100
AcDb2dVertex
 10
-662.45890060806164
 20
-276.5781617000672
 30
0.0
  0
VERTEX
  5
5AF
100
AcDbEntity
  8
OBJECT
100
AcDbVertex
100
AcDb2dVertex
 10
-661.12761632628849
 20
-275.90674193750681
 30
0.0
  0
VERTEX
  5
5B0
100
AcDbEntity
  8
OBJECT
100
AcDbVertex
100
AcDb2dVertex
 10
-659.70302925147098
 20
-275.46665785154653
 30
0.0
  0
VERTEX
  5
5B1
100
AcDbEntity
  8
OBJECT
100
AcDbVertex
100
AcDb2dVertex
 10
-657.81765013582026
 20
-275.26349806010046
 30
0.0
  0
VERTEX
  5
5B2
100
AcDbEntity
  8
OBJECT
100
AcDbVertex
100
AcDb2dVertex
 10
-655.8176501358339
 20
-275.49244824015784
 30
0.0
  0
VERTEX
  5
5B3
100
AcDbEntity
  8
OBJECT
100
AcDbVertex
100
AcDb2dVertex
 10
-654.39903071860817
 20
-275.95140497616069
 30
0.0
  0
VERTEX
  5
5B4
100
AcDbEntity
  8
OBJECT
100
AcDbVertex
100
AcDb2dVertex
 10
-653.07677685973749
 20
-276.64043840724742
 30
0.0
  0
VERTEX
  5
5B5
100
AcDbEntity
  8
OBJECT
100
AcDbVertex
100
AcDb2dVertex
 10
-651.89004397713188
 20
-277.54309415657542
 30
0.0
  0
VERTEX
  5
5B6
100
AcDbEntity
  8
OBJECT
100
AcDbVertex
100
AcDb2dVertex
 10
-650.87040108245492
 20
-278.63095936136335
 30
0.0
  0
VERTEX
  5
5B7
100
AcDbEntity
  8
OBJECT
100
AcDbVertex
100
AcDb2dVertex
 10
-650.04934986471289
 20
-279.87554653560903
 30
0.0
  0
VERTEX
  5
5B8
100
AcDbEntity
  8
OBJECT
100
AcDbVertex
100
AcDb2dVertex
 10
-649.44727493583878
 20
-281.23959496454188
 30
0.0
  0
VERTEX
  5
5B9
100
AcDbEntity
  8
OBJECT
100
AcDbVertex
100
AcDb2dVertex
 10
-649.08447267946349
 20
-282.68579580094809
 30
0.0
  0
VERTEX
  5
5BA
100
AcDbEntity
  8
OBJECT
100
AcDbVertex
100
AcDb2dVertex
 10
-648.96784509742724
 20
-284.17224134100718
 30
0.0
  0
VERTEX
  5
5BB
100
AcDbEntity
  8
OBJECT
100
AcDbVertex
100
AcDb2dVertex
 10
-649.1041950046947
 20
-285.65700766580073
 30
0.0
  0
VERTEX
  5
5BC
100
AcDbEntity
  8
OBJECT
100
AcDbVertex
100
AcDb2dVertex
 10
-649.48616364466193
 20
-287.09826485816268
 30
0.0
  0
VERTEX
  5
5BD
100
AcDbEntity
  8
OBJECT
100
AcDbVertex
100
AcDb2dVertex
 10
-650.10629329784547
 20
-288.45420053130317
 30
0.0
  0
VERTEX
  5
5BE
100
AcDbEntity
  8
OBJECT
100
AcDbVertex
100
AcDb2dVertex
 10
-650.94379409318208
 20
-289.68777856055965
 30
0.0
  0
VERTEX
  5
5BF
100
AcDbEntity
  8
OBJECT
100
AcDbVertex
100
AcDb2dVertex
 10
-651.97778857803928
 20
-290.76201212070248
 30
0.0
  0
VERTEX
  5
5C0
100
AcDbEntity
  8
OBJECT
100
AcDbVertex
100
AcDb2dVertex
 10
-653.17639966715069
 20
-291.64883442168082
 30
0.0
  0
VERTEX
  5
5C1
100
AcDbEntity
  8
OBJECT
100
AcDbVertex
100
AcDb2dVertex
 10
-654.07692661363308
 20
-292.13406459411715
 30
0.0
  0
SEQEND
  5
5C2
100
AcDbEntity
  8
OBJECT
  0
POLYLINE
  5
5C3
100
AcDbEntity
  8
OBJECT
100
AcDb2dPolyline
 66
               1
 10
0.0
 20
0.0
 30
0.0
 75
               5
  0
VERTEX
  5
5C4
100
AcDbEntity
  8
OBJECT
100
AcDbVertex
100
AcDb2dVertex
 10
-655.52724341060934
 20
-292.66197962296781
 30
0.0
  0
VERTEX
  5
5C5
100
AcDbEntity
  8
OBJECT
100
AcDbVertex
100
AcDb2dVertex
 10
-655.93227102411197
 20
-292.7603382692829
 30
0.0
  0
VERTEX
  5
5C6
100
AcDbEntity
  8
OBJECT
100
AcDbVertex
100
AcDb2dVertex
 10
-657.81765013393033
 20
-292.96349806010051
 30
0.0
  0
SEQEND
  5
5C7
100
AcDbEntity
  8
OBJECT
  0
POLYLINE
  5
5C8
100
AcDbEntity
  8
OBJECT
100
AcDb2dPolyline
 66
               1
 10
0.0
 20
0.0
 30
0.0
 75
               5
  0
VERTEX
  5
5C9
100
AcDbEntity
  8
OBJECT
100
AcDbVertex
100
AcDb2dVertex
 10
-657.81765013395761
 20
-292.86349806010037
 30
0.0
  0
VERTEX
  5
5CA
100
AcDbEntity
  8
OBJECT
100
AcDbVertex
100
AcDb2dVertex
 10
-655.81765013402082
 20
-292.63186057825385
 30
0.0
  0
VERTEX
  5
5CB
100
AcDbEntity
  8
OBJECT
100
AcDbVertex
100
AcDb2dVertex
 10
-655.57221727719707
 20
-292.57047927534711
 30
0.0
  0
SEQEND
  5
5CC
100
AcDbEntity
  8
OBJECT
  0
POLYLINE
  5
5CD
100
AcDbEntity
  8
OBJECT
100
AcDb2dPolyline
 66
               1
 10
0.0
 20
0.0
 30
0.0
 75
               5
  0
VERTEX
  5
5CE
100
AcDbEntity
  8
OBJECT
100
AcDbVertex
100
AcDb2dVertex
 10
-654.10070151989135
 20
-292.03478539124842
 30
0.0
  0
VERTEX
  5
5CF
100
AcDbEntity
  8
OBJECT
100
AcDbVertex
100
AcDb2dVertex
 10
-653.11076692903976
 20
-291.48965901772192
 30
0.0
  0
VERTEX
  5
5D0
100
AcDbEntity
  8
OBJECT
100
AcDbVertex
100
AcDb2dVertex
 10
-651.93981449749117
 20
-290.59409409611715
 30
0.0
  0
VERTEX
  5
5D1
100
AcDbEntity
  8
OBJECT
100
AcDbVertex
100
AcDb2dVertex
 10
-650.93454910039918
 20
-289.51585126300085
 30
0.0
  0
VERTEX
  5
5D2
100
AcDbEntity
  8
OBJECT
100
AcDbVertex
100
AcDb2dVertex
 10
-650.1260416670184
 20
-288.28317861548805
 30
0.0
  0
VERTEX
  5
5D3
100
AcDbEntity
  8
OBJECT
100
AcDbVertex
100
AcDb2dVertex
 10
-649.53434870001297
 20
-286.93296916560473
 30
0.0
  0
VERTEX
  5
5D4
100
AcDbEntity
  8
OBJECT
100
AcDbVertex
100
AcDb2dVertex
 10
-649.1794393447708
 20
-285.50216328243266
 30
0.0
  0
VERTEX
  5
5D5
100
AcDbEntity
  8
OBJECT
100
AcDbVertex
100
AcDb2dVertex
 10
-649.06802770144168
 20
-284.03221308889249
 30
0.0
  0
VERTEX
  5
5D6
100
AcDbEntity
  8
OBJECT
100
AcDbVertex
100
AcDb2dVertex
 10
-649.20672976188439
 20
-282.56458647963962
 30
0.0
  0
VERTEX
  5
5D7
100
AcDbEntity
  8
OBJECT
100
AcDbVertex
100
AcDb2dVertex
 10
-649.58816025987517
 20
-281.14062127607588
 30
0.0
  0
VERTEX
  5
5D8
100
AcDbEntity
  8
OBJECT
100
AcDbVertex
100
AcDb2dVertex
 10
-650.20483613084843
 20
-279.80163770787306
 30
0.0
  0
VERTEX
  5
5D9
100
AcDbEntity
  8
OBJECT
100
AcDbVertex
100
AcDb2dVertex
 10
-651.03610537495024
 20
-278.58419876912978
 30
0.0
  0
VERTEX
  5
5DA
100
AcDbEntity
  8
OBJECT
100
AcDbVertex
100
AcDb2dVertex
 10
-652.06122952995679
 20
-277.52481848208447
 30
0.0
  0
VERTEX
  5
5DB
100
AcDbEntity
  8
OBJECT
100
AcDbVertex
100
AcDb2dVertex
 10
-653.24861821870604
 20
-276.65116281330609
 30
0.0
  0
VERTEX
  5
5DC
100
AcDbEntity
  8
OBJECT
100
AcDbVertex
100
AcDb2dVertex
 10
-654.5666156856139
 20
-275.99082289857859
 30
0.0
  0
VERTEX
  5
5DD
100
AcDbEntity
  8
OBJECT
100
AcDbVertex
100
AcDb2dVertex
 10
-655.97625475159884
 20
-275.55944854907841
 30
0.0
  0
VERTEX
  5
5DE
100
AcDbEntity
  8
OBJECT
100
AcDbVertex
100
AcDb2dVertex
 10
-657.8176501358264
 20
-275.36349806010037
 30
0.0
  0
VERTEX
  5
5DF
100
AcDbEntity
  8
OBJECT
100
AcDbVertex
100
AcDb2dVertex
 10
-659.81765013584027
 20
-275.59513554128023
 30
0.0
  0
VERTEX
  5
5E0
100
AcDbEntity
  8
OBJECT
100
AcDbVertex
100
AcDb2dVertex
 10
-661.21903156161534
 20
-276.05262458513891
 30
0.0
  0
VERTEX
  5
5E1
100
AcDbEntity
  8
OBJECT
100
AcDbVertex
100
AcDb2dVertex
 10
-662.52453334120219
 20
-276.73733710091017
 30
0.0
  0
VERTEX
  5
5E2
100
AcDbEntity
  8
OBJECT
100
AcDbVertex
100
AcDb2dVertex
 10
-663.69548577304909
 20
-277.63290202212431
 30
0.0
  0
VERTEX
  5
5E3
100
AcDbEntity
  8
OBJECT
100
AcDbVertex
100
AcDb2dVertex
 10
-664.70075117050055
 20
-278.71114485490568
 30
0.0
  0
VERTEX
  5
5E4
100
AcDbEntity
  8
OBJECT
100
AcDbVertex
100
AcDb2dVertex
 10
-665.50925860429243
 20
-279.94381750214905
 30
0.0
  0
VERTEX
  5
5E5
100
AcDbEntity
  8
OBJECT
100
AcDbVertex
100
AcDb2dVertex
 10
-666.10095157174783
 20
-281.29402695183524
 30
0.0
  0
VERTEX
  5
5E6
100
AcDbEntity
  8
OBJECT
100
AcDbVertex
100
AcDb2dVertex
 10
-666.45586092746703
 20
-282.72483283488884
 30
0.0
  0
VERTEX
  5
5E7
100
AcDbEntity
  8
OBJECT
100
AcDbVertex
100
AcDb2dVertex
 10
-666.56727257128614
 20
-284.19478302839195
 30
0.0
  0
VERTEX
  5
5E8
100
AcDbEntity
  8
OBJECT
100
AcDbVertex
100
AcDb2dVertex
 10
-666.42857051133251
 20
-285.66240963769098
 30
0.0
  0
VERTEX
  5
5E9
100
AcDbEntity
  8
OBJECT
100
AcDbVertex
100
AcDb2dVertex
 10
-666.04714001381649
 20
-287.08637484138183
 30
0.0
  0
VERTEX
  5
5EA
100
AcDbEntity
  8
OBJECT
100
AcDbVertex
100
AcDb2dVertex
 10
-665.43046414328956
 20
-288.42535840979042
 30
0.0
  0
VERTEX
  5
5EB
100
AcDbEntity
  8
OBJECT
100
AcDbVertex
100
AcDb2dVertex
 10
-664.59919489959339
 20
-289.64279734881063
 30
0.0
  0
VERTEX
  5
5EC
100
AcDbEntity
  8
OBJECT
100
AcDbVertex
100
AcDb2dVertex
 10
-663.57407074493995
 20
-290.70217763619769
 30
0.0
  0
VERTEX
  5
5ED
100
AcDbEntity
  8
OBJECT
100
AcDbVertex
100
AcDb2dVertex
 10
-662.38668205648196
 20
-291.5758333053717
 30
0.0
  0
VERTEX
  5
5EE
100
AcDbEntity
  8
OBJECT
100
AcDbVertex
100
AcDb2dVertex
 10
-661.0686845897942
 20
-292.23617322053849
 30
0.0
  0
VERTEX
  5
5EF
100
AcDbEntity
  8
OBJECT
100
AcDbVertex
100
AcDb2dVertex
 10
-659.65904552395295
 20
-292.66754757050865
 30
0.0
  0
VERTEX
  5
5F0
100
AcDbEntity
  8
OBJECT
100
AcDbVertex
100
AcDb2dVertex
 10
-657.81765013395761
 20
-292.86349806010037
 30
0.0
  0
SEQEND
  5
5F1
100
AcDbEntity
  8
OBJECT
  0
LINE
  5
5F2
100
AcDbEntity
  8
OBJECT
100
AcDbLine
 10
-671.71765013635058
 20
-305.61349806010037
 30
0.0
 11
-669.71765013635058
 21
-305.61349806010037
 31
0.0
  0
LINE
  5
5F3
100
AcDbEntity
  8
OBJECT
100
AcDbLine
 10
-671.71765013635058
 20
-301.61349806010037
 30
0.0
 11
-671.71765013635058
 21
-305.61349806010037
 31
0.0
  0
LINE
  5
5F4
100
AcDbEntity
  8
OBJECT
100
AcDbLine
 10
-669.71765013635058
 20
-301.61349806010037
 30
0.0
 11
-671.71765013635058
 21
-301.61349806010037
 31
0.0
  0
LINE
  5
5F5
100
AcDbEntity
  8
OBJECT
100
AcDbLine
 10
-669.71765013635058
 20
-305.61349806010037
 30
0.0
 11
-669.71765013635058
 21
-301.61349806010037
 31
0.0
  0
LINE
  5
5F6
100
AcDbEntity
  8
OBJECT
100
AcDbLine
 10
-675.71765013635058
 20
-297.61349806010014
 30
0.0
 11
-675.71765013635058
 21
-301.61349806010014
 31
0.0
  0
LINE
  5
5F7
100
AcDbEntity
  8
OBJECT
100
AcDbLine
 10
-673.71765013635058
 20
-297.61349806010014
 30
0.0
 11
-675.71765013635058
 21
-297.61349806010014
 31
0.0
  0
LINE
  5
5F8
100
AcDbEntity
  8
OBJECT
100
AcDbLine
 10
-673.71765013635058
 20
-301.61349806010014
 30
0.0
 11
-673.71765013635058
 21
-297.61349806010014
 31
0.0
  0
LINE
  5
5F9
100
AcDbEntity
  8
OBJECT
100
AcDbLine
 10
-675.71765013635058
 20
-301.61349806010014
 30
0.0
 11
-673.71765013635058
 21
-301.61349806010014
 31
0.0
  0
LINE
  5
5FA
100
AcDbEntity
  8
OBJECT
100
AcDbLine
 10
-678.81765013635004
 20
-265.11349806010014
 30
0.0
 11
-678.81765013635004
 21
-268.61349806010014
 31
0.0
  0
LINE
  5
5FB
100
AcDbEntity
  8
OBJECT
100
AcDbLine
 10
-676.31765013635004
 20
-268.61349806010014
 30
0.0
 11
-676.31765013635004
 21
-265.11349806010014
 31
0.0
  0
LINE
  5
5FC
100
AcDbEntity
  8
OBJECT
100
AcDbLine
 10
-678.81765013635004
 20
-268.61349806010014
 30
0.0
 11
-676.31765013635004
 21
-268.61349806010014
 31
0.0
  0
LINE
  5
5FD
100
AcDbEntity
  8
OBJECT
100
AcDbLine
 10
-676.31765013635004
 20
-265.11349806010014
 30
0.0
 11
-678.81765013635004
 21
-265.11349806010014
 31
0.0
  0
LINE
  5
5FE
100
AcDbEntity
  8
OBJECT
100
AcDbLine
 10
128.78334500659514
 20
-278.86325440614667
 30
0.0
 11
128.78334500659531
 21
-256.38578366845138
 31
0.0
  0
LINE
  5
5FF
100
AcDbEntity
  8
OBJECT
100
AcDbLine
 10
128.78334500659497
 20
-311.84121445446624
 30
0.0
 11
142.68334500659475
 21
-313.05730687747666
 31
0.0
  0
LINE
  5
600
100
AcDbEntity
  8
OBJECT
100
AcDbLine
 10
128.78334500659497
 20
-311.84121445446624
 30
0.0
 11
128.78334500659508
 21
-289.36374371677095
 31
0.0
  0
SPLINE
  5
601
100
AcDbEntity
  8
OBJECT
100
AcDbSpline
210
0.0
220
0.0
230
1.0
 70
               8
 71
               2
 72
              24
 73
              21
 74
               0
 42
0.000001
 43
0.000001
 40
0.0
 40
0.0
 40
0.0
 40
0.0257748458953046
 40
0.0257748458953046
 40
0.2321763567247518
 40
0.2321763567247518
 40
0.3698350093549526
 40
0.3698350093549526
 40
0.4658946089556951
 40
0.4658946089556951
 40
0.5340204505453877
 40
0.5340204505453877
 40
0.6303048693258693
 40
0.6303048693258693
 40
0.7475578398614403
 40
0.7475578398614403
 40
0.8538652711103145
 40
0.8538652711103145
 40
0.9742251600507763
 40
0.9742251600507763
 40
1.0
 40
1.0
 40
1.0
 10
128.78333677268259
 20
-289.36374499705516
 30
0.0
 10
129.16619730692372
 20
-289.30421434575862
 30
0.0
 10
129.54905784116482
 20
-289.24468369446197
 30
0.0
 10
133.25971931844609
 20
-288.60639722056726
 30
0.0
 10
135.62109802268441
 20
-287.97914641155648
 30
0.0
 10
137.9824767269227
 20
-287.3518956025456
 30
0.0
 10
139.53356695595858
 20
-286.64567175199386
 30
0.0
 10
141.08465718499446
 20
-285.93944790144212
 30
0.0
 10
141.90181238174301
 20
-285.02896687205578
 30
0.0
 10
142.71896757849154
 20
-284.11848584266932
 30
0.0
 10
141.9011830003605
 20
-283.20199363498512
 30
0.0
 10
141.08339842222949
 20
-282.2855014273008
 30
0.0
 10
139.52923344978711
 20
-281.57951424761518
 30
0.0
 10
137.97506847734473
 20
-280.87352706792944
 30
0.0
 10
136.21058047704406
 20
-280.40416816047707
 30
0.0
 10
134.44609247674336
 20
-279.9348092530247
 30
0.0
 10
133.1053271636394
 20
-279.64949036155463
 30
0.0
 10
131.76456185053544
 20
-279.36417147008456
 30
0.0
 10
129.54906588835507
 20
-278.98231574607632
 30
0.0
 10
129.16620544747536
 20
-278.9227850761115
 30
0.0
 10
128.78334500659565
 20
-278.86325440614655
 30
0.0
  0
LINE
  5
602
100
AcDbEntity
  8
OBJECT
100
AcDbLine
 10
128.78334500659531
 20
-256.38578366845138
 30
0.0
 11
142.68334500659512
 21
-255.16969124544121
 31
0.0
  0
LINE
  5
603
100
AcDbEntity
  8
OBJECT
100
AcDbLine
 10
127.28334500659511
 20
-291.11349906145881
 30
0.0
 11
127.2833450065952
 21
-277.11349906145881
 31
0.0
  0
LINE
  5
604
100
AcDbEntity
  8
OBJECT
100
AcDbLine
 10
121.78334500659511
 20
-290.11349906145881
 30
0.0
 11
121.7833450065952
 21
-278.11349906145881
 31
0.0
  0
LINE
  5
605
100
AcDbEntity
  8
OBJECT
100
AcDbLine
 10
122.2833450065952
 20
-277.61349906145881
 30
0.0
 11
122.28334500659511
 21
-290.61349906145881
 31
0.0
  0
LINE
  5
606
100
AcDbEntity
  8
OBJECT
100
AcDbLine
 10
125.38334500659511
 20
-290.61349906145881
 30
0.0
 11
125.38334500659519
 21
-277.61349906145881
 31
0.0
  0
LINE
  5
607
100
AcDbEntity
  8
OBJECT
100
AcDbLine
 10
125.88334500659519
 20
-278.11349906145881
 30
0.0
 11
125.88334500659511
 21
-290.11349906145881
 31
0.0
  0
LINE
  5
608
100
AcDbEntity
  8
OBJECT
100
AcDbLine
 10
150.68334500659512
 20
-250.31349906145888
 30
0.0
 11
150.68334500659503
 21
-264.8134990614534
 31
0.0
  0
LINE
  5
609
100
AcDbEntity
  8
OBJECT
100
AcDbLine
 10
150.68334500659483
 20
-294.41349906145342
 30
0.0
 11
150.68334500659469
 21
-317.91349906145899
 31
0.0
  0
LINE
  5
60A
100
AcDbEntity
  8
OBJECT
100
AcDbLine
 10
150.68334500659469
 20
-317.91349906145899
 30
0.0
 11
142.68334500659472
 21
-317.91349906145899
 31
0.0
  0
LINE
  5
60B
100
AcDbEntity
  8
OBJECT
100
AcDbLine
 10
142.68334500659472
 20
-317.91349906145899
 30
0.0
 11
142.68334500659512
 21
-250.31349906145888
 31
0.0
  0
LINE
  5
60C
100
AcDbEntity
  8
OBJECT
100
AcDbLine
 10
150.68334500659512
 20
-250.31349906145888
 30
0.0
 11
142.68334500659512
 21
-250.31349906145888
 31
0.0
  0
LINE
  5
60D
100
AcDbEntity
  8
OBJECT
100
AcDbLine
 10
152.68334500659472
 20
-316.11349906145904
 30
0.0
 11
150.68334500659472
 21
-316.11349906145904
 31
0.0
  0
LINE
  5
60E
100
AcDbEntity
  8
OBJECT
100
AcDbLine
 10
152.68334500659512
 20
-252.11349906145907
 30
0.0
 11
150.68334500659512
 21
-252.11349906145907
 31
0.0
  0
LINE
  5
60F
100
AcDbEntity
  8
OBJECT
100
AcDbLine
 10
138.68334500659554
 20
-251.31349906145866
 30
0.0
 11
142.68334500659512
 21
-251.31349906145866
 31
0.0
  0
LINE
  5
610
100
AcDbEntity
  8
OBJECT
100
AcDbLine
 10
138.68334500659552
 20
-255.51964589954483
 30
0.0
 11
138.68334500659554
 21
-251.31349906145866
 31
0.0
  0
LINE
  5
611
100
AcDbEntity
  8
OBJECT
100
AcDbLine
 10
138.68334500659515
 20
-316.91349906145854
 30
0.0
 11
142.68334500659472
 21
-316.91349906145854
 31
0.0
  0
LINE
  5
612
100
AcDbEntity
  8
OBJECT
100
AcDbLine
 10
138.68334500659518
 20
-312.70735222337305
 30
0.0
 11
138.68334500659515
 21
-316.91349906145854
 31
0.0
  0
LINE
  5
613
100
AcDbEntity
  8
OBJECT
100
AcDbLine
 10
128.7833450065952
 20
-277.11349906145881
 30
0.0
 11
127.2833450065952
 21
-277.11349906145881
 31
0.0
  0
LINE
  5
614
100
AcDbEntity
  8
OBJECT
100
AcDbLine
 10
127.28334500659511
 20
-291.11349906145881
 30
0.0
 11
128.78334500659511
 21
-291.11349906145881
 31
0.0
  0
LINE
  5
615
100
AcDbEntity
  8
OBJECT
100
AcDbLine
 10
122.2833450065952
 20
-277.61349906145881
 30
0.0
 11
121.7833450065952
 21
-278.11349906145881
 31
0.0
  0
LINE
  5
616
100
AcDbEntity
  8
OBJECT
100
AcDbLine
 10
121.78334500659511
 20
-290.11349906145881
 30
0.0
 11
122.28334500659511
 21
-290.61349906145881
 31
0.0
  0
LINE
  5
617
100
AcDbEntity
  8
OBJECT
100
AcDbLine
 10
125.38334500659511
 20
-290.61349906145881
 30
0.0
 11
125.88334500659511
 21
-290.11349906145881
 31
0.0
  0
LINE
  5
618
100
AcDbEntity
  8
OBJECT
100
AcDbLine
 10
125.88334500659519
 20
-278.11349906145881
 30
0.0
 11
125.38334500659519
 21
-277.61349906145881
 31
0.0
  0
LINE
  5
619
100
AcDbEntity
  8
OBJECT
100
AcDbLine
 10
125.38334500659519
 20
-277.61349906145881
 30
0.0
 11
122.2833450065952
 21
-277.61349906145881
 31
0.0
  0
LINE
  5
61A
100
AcDbEntity
  8
OBJECT
100
AcDbLine
 10
122.28334500659511
 20
-290.61349906145881
 30
0.0
 11
125.38334500659511
 21
-290.61349906145881
 31
0.0
  0
LINE
  5
61B
100
AcDbEntity
  8
OBJECT
100
AcDbLine
 10
127.2833450065952
 20
-279.11349906145881
 30
0.0
 11
125.88334500659519
 21
-279.11349906145881
 31
0.0
  0
LINE
  5
61C
100
AcDbEntity
  8
OBJECT
100
AcDbLine
 10
125.88334500659511
 20
-289.11349906145881
 30
0.0
 11
127.28334500659514
 21
-289.11349906145881
 31
0.0
  0
MTEXT
  5
61D
100
AcDbEntity
  8
DIMENTION
100
AcDbMText
 10
-589.11665499339745
 20
-387.01229967199617
 30
0.0
 40
16.933333333333334
 41
0.0
 71
               1
 72
               1
  1
電源スイッチ
  7
ＭＳ Ｐゴシック
 73
               1
 44
1.0
  0
MTEXT
  5
61E
100
AcDbEntity
  8
DIMENTION
100
AcDbMText
 10
-439.40851612447881
 20
-385.61229967199642
 30
0.0
 40
16.933333333333334
 41
0.0
 71
               1
 72
               1
  1
乾燥タイマースタートスイッチ
  7
ＭＳ Ｐゴシック
 73
               1
 44
1.0
  0
MTEXT
  5
61F
100
AcDbEntity
  8
DIMENTION
100
AcDbMText
 10
-717.0166549933972
 20
-385.91229967199661
 30
0.0
 40
16.933333333333334
 41
0.0
 71
               1
 72
               1
  1
電源ランプ
  7
ＭＳ Ｐゴシック
 73
               1
 44
1.0
  0
LINE
  5
620
100
AcDbEntity
  8
DIMENTION
100
AcDbLine
 10
-670.27016626352543
 20
-299.02819779330844
 30
0.0
 11
-758.31665499339715
 21
-409.11229967199631
 31
0.0
  0
LINE
  5
621
100
AcDbEntity
  8
DIMENTION
100
AcDbLine
 10
-670.27016626352543
 20
-299.02819779330844
 30
0.0
 11
-676.95488680116227
 21
-314.04232594411349
 31
0.0
  0
LINE
  5
622
100
AcDbEntity
  8
DIMENTION
100
AcDbLine
 10
-670.27016626352543
 20
-299.02819779330844
 30
0.0
 11
-683.566368141721
 21
-308.68845391876232
 31
0.0
  0
LINE
  5
623
100
AcDbEntity
  8
DIMENTION
100
AcDbLine
 10
-758.31665499339715
 20
-409.11229967199631
 30
0.0
 11
-833.31665499339715
 21
-409.11229967199631
 31
0.0
  0
MTEXT
  5
624
100
AcDbEntity
  8
DIMENTION
100
AcDbMText
 10
-830.81665499339715
 20
-386.31229967199647
 30
0.0
 40
16.933333333333334
 41
0.0
 71
               1
 72
               1
  1
タイマー
  7
ＭＳ Ｐゴシック
 73
               1
 44
1.0
  0
CIRCLE
  5
625
100
AcDbEntity
  8
HIDDEN
100
AcDbCircle
 10
-564.31665013636848
 20
-140.07667249811485
 30
0.0
 40
61.400000000000091
  0
CIRCLE
  5
626
100
AcDbEntity
  8
HIDDEN
100
AcDbCircle
 10
-511.31665013637758
 20
-197.11249806009837
 30
0.0
 40
13.0
  0
LINE
  5
627
100
AcDbEntity
  8
HIDDEN
100
AcDbLine
 10
-643.81665013636962
 20
-48.112498060099284
 30
0.0
 11
-643.81665013636848
 21
-212.11249806009792
 31
0.0
  0
LINE
  5
628
100
AcDbEntity
  8
HIDDEN
100
AcDbLine
 10
-484.81665013636984
 20
-48.112498060098147
 30
0.0
 11
-643.81665013636962
 21
-48.112498060099284
 31
0.0
  0
LINE
  5
629
100
AcDbEntity
  8
HIDDEN
100
AcDbLine
 10
-484.81665013636848
 20
-212.11249806009656
 30
0.0
 11
-484.81665013636984
 21
-48.112498060098147
 31
0.0
  0
CIRCLE
  5
62A
100
AcDbEntity
  8
HIDDEN
100
AcDbCircle
 10
-617.31665013636871
 20
-197.11249806009906
 30
0.0
 40
13.0
  0
CIRCLE
  5
62B
100
AcDbEntity
  8
HIDDEN
100
AcDbCircle
 10
-564.31665013636893
 20
-140.07667249811416
 30
0.0
 40
60.0
  0
CIRCLE
  5
62C
100
AcDbEntity
  8
HIDDEN
100
AcDbCircle
 10
283.18334500659728
 20
374.18770032798022
 30
0.0
 40
18.5
  0
CIRCLE
  5
62D
100
AcDbEntity
  8
HIDDEN
100
AcDbCircle
 10
283.18334500659728
 20
374.18770032798022
 30
0.0
 40
22.700000000000273
  0
CIRCLE
  5
62E
100
AcDbEntity
  8
HIDDEN
100
AcDbCircle
 10
283.18334500659728
 20
374.18770032798022
 30
0.0
 40
26.300000000000182
  0
INSERT
  5
62F
100
AcDbEntity
  8
CENTER
100
AcDbBlockReference
  2
*U10
 10
-12.953495521651462
 20
67.006870916264774
 30
0.0
  0
DIMENSION
  5
630
100
AcDbEntity
  8
DIMENTION
100
AcDbDimension
  2
*D11
 10
121.18334500660808
 20
217.76101261057218
 30
0.0
 11
202.18334500660268
 21
217.76101261057218
 31
0.0
 71
               5
 72
               1
 41
1.0
 42
0.0
  1
160
  3
CAD
100
AcDbAlignedDimension
 13
283.18334500659728
 23
322.88770030283433
 33
0.0
 14
121.18334500660808
 24
269.18770032799932
 34
0.0
100
AcDbRotatedDimension
1001
ACAD
1000
DSTYLE
1002
{
1070
             279
1070
               2
1070
             340
1005
3C
1070
             147
1040
0.4999999981373549
1002
}
  0
LINE
  5
631
100
AcDbEntity
  8
CENTER
100
AcDbLine
 10
741.17748920788154
 20
399.18770032800342
 30
0.0
 11
90.177489207881536
 21
399.18770032800342
 31
0.0
  0
DIMENSION
  5
632
100
AcDbEntity
  8
DIMENTION
100
AcDbDimension
  2
*D12
 10
72.677489207881536
 20
374.18770032798022
 30
0.0
 11
72.677489207881536
 21
386.68770032799182
 31
0.0
 71
               5
 72
               1
 41
1.0
 42
0.0
  3
CAD
100
AcDbAlignedDimension
 13
90.177489207881536
 23
399.18770032800342
 33
0.0
 14
231.88334498145139
 24
374.18770032798022
 34
0.0
 50
90.0
100
AcDbRotatedDimension
1001
ACAD
1000
DSTYLE
1002
{
1070
             279
1070
               2
1070
             340
1005
3C
1070
             147
1040
0.4999999981373549
1002
}
  0
LINE
  5
633
100
AcDbEntity
  8
DIMENTION
100
AcDbLine
 10
294.67748920788154
 20
350.53237008128747
 30
0.0
 11
370.17748920788154
 21
217.76101261057218
 31
0.0
  0
LINE
  5
634
100
AcDbEntity
  8
DIMENTION
100
AcDbLine
 10
294.67748920788154
 20
350.53237008128747
 30
0.0
 11
306.09420603116314
 21
338.71001372681667
 31
0.0
  0
LINE
  5
635
100
AcDbEntity
  8
DIMENTION
100
AcDbLine
 10
294.67748920788154
 20
350.53237008128747
 30
0.0
 11
298.65347782742111
 21
334.58555073408252
 31
0.0
  0
LINE
  5
636
100
AcDbEntity
  8
DIMENTION
100
AcDbLine
 10
370.17748920788154
 20
217.76101261057218
 30
0.0
 11
467.0
 21
217.76101261057218
 31
0.0
  0
MTEXT
  5
637
100
AcDbEntity
  8
DIMENTION
100
AcDbMText
 10
377.7774892078815
 20
240.26031816612775
 30
0.0
 40
16.933333333333334
 41
0.0
 71
               1
 72
               1
  1
排水 25A
  7
ＭＳ Ｐゴシック
 73
               1
 44
1.0
  0
LINE
  5
638
100
AcDbEntity
  8
HIDDEN
100
AcDbLine
 10
439.68334500660404
 20
-78.676673499471832
 30
0.0
 11
439.68334500660382
 21
-201.47667349947179
 31
0.0
  0
LINE
  5
639
100
AcDbEntity
  8
HIDDEN
100
AcDbLine
 10
187.68334500660416
 20
-78.67667349947115
 30
0.0
 11
187.68334500660382
 21
-201.47667349947156
 31
0.0
  0
LINE
  5
63A
100
AcDbEntity
  8
HIDDEN
100
AcDbLine
 10
439.68334500660404
 20
-78.676673499471832
 30
0.0
 11
187.68334500660416
 21
-78.67667349947115
 31
0.0
  0
LINE
  5
63B
100
AcDbEntity
  8
HIDDEN
100
AcDbLine
 10
187.68334500660382
 20
-201.47667349947133
 30
0.0
 11
439.68334500660382
 21
-201.47667349947201
 31
0.0
  0
ARC
  5
63C
100
AcDbEntity
  8
HIDDEN
100
AcDbCircle
 10
185.68334500660421
 20
-198.07667349947079
 30
0.0
 40
2.0
100
AcDbArc
 50
180.0
 51
359.99999384334831
  0
ARC
  5
63D
100
AcDbEntity
  8
HIDDEN
100
AcDbCircle
 10
185.68334500660427
 20
-82.076673499470786
 30
0.0
 40
2.0
100
AcDbArc
 50
0.0
 51
180.0
  0
LINE
  5
63E
100
AcDbEntity
  8
HIDDEN
100
AcDbLine
 10
183.68334500660427
 20
-82.076673499470786
 30
0.0
 11
183.68334500660427
 21
-198.07667349947079
 31
0.0
  0
ARC
  5
63F
100
AcDbEntity
  8
HIDDEN
100
AcDbCircle
 10
441.68334500660427
 20
-198.07667349947124
 30
0.0
 40
2.0
100
AcDbArc
 50
180.0
 51
359.99999384334831
  0
ARC
  5
640
100
AcDbEntity
  8
HIDDEN
100
AcDbCircle
 10
441.68334500660427
 20
-82.076673499471241
 30
0.0
 40
2.0
100
AcDbArc
 50
0.0
 51
180.0
  0
LINE
  5
641
100
AcDbEntity
  8
HIDDEN
100
AcDbLine
 10
443.68334500660427
 20
-198.07667349947124
 30
0.0
 11
443.68334500660427
 21
-82.076673499471241
 31
0.0
  0
DIMENSION
  5
642
100
AcDbEntity
  8
DIMENTION
100
AcDbDimension
  2
*D13
 10
-614.65381880923667
 20
-172.72892280340167
 30
0.0
 11
-419.71665501202358
 21
-49.522235206487395
 31
0.0
 70
               3
 71
               5
 72
               1
 41
1.0
 42
0.0
  3
CAD
100
AcDbDiametricDimension
 15
-513.9794814635012
 25
-107.4244221928266
 35
0.0
 40
106.39791091573602
1001
ACAD
1000
DSTYLE
1002
{
1070
             172
1070
               0
1070
             289
1070
               0
1070
             342
1005
48
1070
             340
1005
3C
1070
              73
1070
               1
1070
              74
1070
               1
1070
              75
1070
               1
1070
              76
1070
               1
1070
               3
1000
 カゴ
1070
             174
1070
               0
1070
             147
1040
0.4999999981373549
1002
}
  0
MTEXT
  5
643
100
AcDbEntity
  8
DIMENTION
100
AcDbMText
 10
735.42809096656379
 20
-585.23751298426521
 30
0.0
 40
28.222222222222225
 41
0.0
 71
               1
 72
               1
  1
A330-151
  7
ＭＳ Ｐゴシック
 73
               1
 44
1.0
  0
LWPOLYLINE
  5
644
100
AcDbEntity
  8
OBJECT
100
AcDbPolyline
 90
       12
 70
             129
 10
-374.88860001605855
 20
-271.5118336156529
 10
-398.118822617734
 20
-271.5118336156529
 10
-398.118822617734
 20
-290.2618336156529
 10
-398.118822617734
 20
-290.2618336156529
 42
0.4142140002232018
 10
-390.61882279957717
 20
-297.76183379178076
 10
-390.37541508384248
 20
-297.7618336156529
 10
-390.37541508384248
 20
-297.7618336156529
 10
-382.63200754995097
 20
-297.7618336156529
 10
-382.38859983421446
 20
-297.76183379178076
 42
0.414214000223235
 10
-374.88860001605855
 20
-290.2618336156529
 10
-374.88860001605855
 20
-290.2618336156529
 10
-374.88860001605855
 20
-271.5118336156529
  0
LWPOLYLINE
  5
645
100
AcDbEntity
  8
OBJECT
100
AcDbPolyline
 90
        5
 70
             129
 10
-377.59879265292085
 20
-255.76183361565293
 10
-379.92181491308867
 20
-255.76183361565293
 10
-379.92181491308867
 20
-271.5118336156529
 10
-377.59879265292085
 20
-271.5118336156529
 10
-377.59879265292085
 20
-255.76183361565293
  0
LWPOLYLINE
  5
646
100
AcDbEntity
  8
OBJECT
100
AcDbPolyline
 90
        5
 70
             129
 10
-393.08560772070479
 20
-255.76183361565293
 10
-395.4086299808726
 20
-255.76183361565293
 10
-395.4086299808726
 20
-271.5118336156529
 10
-393.08560772070479
 20
-271.5118336156529
 10
-393.08560772070479
 20
-255.76183361565293
  0
LINE
  5
647
100
AcDbEntity
  8
OBJECT
100
AcDbLine
 10
-390.7324722090155
 20
-298.01699694898343
 30
0.0
 11
-390.7324722090155
 21
-297.7618336156529
 31
0.0
  0
LINE
  5
648
100
AcDbEntity
  8
OBJECT
100
AcDbLine
 10
-390.7324722090155
 20
-298.01699694898343
 30
0.0
 11
-390.7324722090155
 21
-321.86249806009619
 31
0.0
  0
LINE
  5
649
100
AcDbEntity
  8
OBJECT
100
AcDbLine
 10
-381.44038316834605
 20
-298.01699694898343
 30
0.0
 11
-381.44038316834605
 21
-307.45200350257551
 31
0.0
  0
LINE
  5
64A
100
AcDbEntity
  8
OBJECT
100
AcDbLine
 10
-381.44038316834605
 20
-310.09996120606411
 30
0.0
 11
-381.44038316834605
 21
-321.86249806009619
 31
0.0
  0
SPLINE
  5
64B
100
AcDbEntity
  8
OBJECT
100
AcDbSpline
210
0.0
220
0.0
230
1.0
 70
               8
 71
               2
 72
              10
 73
               7
 74
               0
 42
0.000001
 43
0.000001
 40
0.0
 40
0.0
 40
0.0
 40
0.3377142386055046
 40
0.3377142386055046
 40
0.6710654819107966
 40
0.6710654819107966
 40
1.0
 40
1.0
 40
1.0
 10
-409.31665029035622
 20
-348.86249806009619
 30
0.0
 10
-401.84722702701976
 20
-348.86249806009619
 30
0.0
 10
-395.37851672935113
 20
-345.24518396227586
 30
0.0
 10
-388.90980643168251
 20
-341.62786986445553
 30
0.0
 10
-385.17509480001428
 20
-335.36249806009596
 30
0.0
 10
-381.44038316834605
 20
-329.09712625573638
 30
0.0
 10
-381.44038316834605
 20
-321.86249806009619
 30
0.0
  0
SPLINE
  5
64C
100
AcDbEntity
  8
OBJECT
100
AcDbSpline
210
0.0
220
0.0
230
1.0
 70
               8
 71
               2
 72
              10
 73
               7
 74
               0
 42
0.000001
 43
0.000001
 40
0.0
 40
0.0
 40
0.0
 40
0.3377142386054963
 40
0.3377142386054963
 40
0.6710654819107984
 40
0.6710654819107984
 40
1.0
 40
1.0
 40
1.0
 10
-409.31665029035622
 20
-339.86249806009619
 30
0.0
 10
-404.33703478146555
 20
-339.86249806009619
 30
0.0
 10
-400.02456124968631
 20
-337.45095532821597
 30
0.0
 10
-395.71208771790708
 20
-335.03941259633575
 30
0.0
 10
-393.22227996346129
 20
-330.86249806009596
 30
0.0
 10
-390.7324722090155
 20
-326.68558352385617
 30
0.0
 10
-390.7324722090155
 20
-321.86249806009619
 30
0.0
  0
ARC
  5
64D
100
AcDbEntity
  8
OBJECT
100
AcDbCircle
 10
-370.78859423114199
 20
-297.7618336156529
 30
0.0
 40
14.399999999999977
100
AcDbArc
 50
180.0
 51
0.0
  0
ARC
  5
64E
100
AcDbEntity
  8
OBJECT
100
AcDbCircle
 10
-370.78859423114199
 20
-297.7618336156529
 30
0.0
 40
16.299999999999955
100
AcDbArc
 50
180.0
 51
0.0
  0
LINE
  5
64F
100
AcDbEntity
  8
OBJECT
100
AcDbLine
 10
-356.38859423114201
 20
-297.7618336156529
 30
0.0
 11
-356.38859423114201
 21
-277.51183361565268
 31
0.0
  0
LINE
  5
650
100
AcDbEntity
  8
OBJECT
100
AcDbLine
 10
-354.48859423114192
 20
-297.7618336156529
 30
0.0
 11
-354.48859423114192
 21
-277.51183361565268
 31
0.0
  0
LINE
  5
651
100
AcDbEntity
  8
OBJECT
100
AcDbLine
 10
-474.31665029035622
 20
-339.86249806009619
 30
0.0
 11
-409.31665029035622
 21
-339.86249806009619
 31
0.0
  0
LINE
  5
652
100
AcDbEntity
  8
OBJECT
100
AcDbLine
 10
-409.31665029035622
 20
-348.86249806009619
 30
0.0
 11
-474.31665029035622
 21
-348.86249806009619
 31
0.0
  0
MTEXT
  5
653
100
AcDbEntity
  8
DIMENTION
100
AcDbMText
 10
-438.77953342686135
 20
-199.96249806009624
 30
0.0
 40
16.933333333333334
 41
0.0
 71
               1
 72
               1
  1
電源コード 3m\P  (アース付)
  7
ＭＳ Ｐゴシック
 73
               1
 44
1.0
  0
MTEXT
  5
654
100
AcDbEntity
  8
TEXT
100
AcDbMText
 10
-693.02035860435672
 20
299.5
 30
0.0
 40
16.933333333333334
 41
247.41966010130636
 71
               4
 72
               1
  1
単相 100 V　　50/60 Hz
  7
ＭＳ Ｐゴシック
 73
               1
 44
2.3622047244094486
  0
MTEXT
  5
655
100
AcDbEntity
  8
TEXT
100
AcDbMText
 10
-879.82590292771215
 20
218.09818056652242
 30
0.0
 40
16.933333333333334
 41
183.2083105510269
 71
               4
 72
               1
  1
質　　　　　　　　量
  7
ＭＳ Ｐゴシック
 73
               1
 44
2.3622047244094486
  0
MTEXT
  5
656
100
AcDbEntity
  8
TEXT
100
AcDbMText
 10
-879.82590292771215
 20
298.53571292265735
 30
0.0
 40
16.933333333333334
 41
186.6497061163841
 71
               4
 72
               1
  1
電　　　　　　　　源
  7
ＭＳ Ｐゴシック
 73
               1
 44
2.3622047244094486
  0
MTEXT
  5
657
100
AcDbEntity
  8
TEXT
100
AcDbMText
 10
-879.81625664429032
 20
617.5
 30
0.0
 40
16.933333333333334
 41
187.87757684475241
 71
               4
 72
               1
  1
形　　　　　　　　式
  7
ＭＳ Ｐゴシック
 73
               1
 44
2.3622047244094486
  0
MTEXT
  5
658
100
AcDbEntity
  8
TEXT
100
AcDbMText
 10
-879.82590292771215
 20
549.0
 30
0.0
 40
16.933333333333334
 41
0.0
 71
               1
 72
               1
  1
温 風 発 生 装 置
  7
ＭＳ Ｐゴシック
 73
               1
 44
1.0
  0
POLYLINE
  5
659
100
AcDbEntity
  8
TEXT
100
AcDb2dPolyline
 66
               1
 10
0.0
 20
0.0
 30
0.0
 70
               1
 75
               5
  0
VERTEX
  5
65A
100
AcDbEntity
  8
TEXT
100
AcDbVertex
100
AcDb2dVertex
 10
-891.32948214605426
 20
638.0
 30
0.0
  0
VERTEX
  5
65B
100
AcDbEntity
  8
TEXT
100
AcDbVertex
100
AcDb2dVertex
 10
-391.32948214605426
 20
638.0
 30
0.0
  0
VERTEX
  5
65C
100
AcDbEntity
  8
TEXT
100
AcDbVertex
100
AcDb2dVertex
 10
-391.32948214605426
 20
197.99999999999997
 30
0.0
  0
VERTEX
  5
65D
100
AcDbEntity
  8
TEXT
100
AcDbVertex
100
AcDb2dVertex
 10
-891.32948214605426
 20
197.99999999999997
 30
0.0
  0
SEQEND
  5
65E
100
AcDbEntity
  8
TEXT
  0
LINE
  5
65F
100
AcDbEntity
  8
TEXT
100
AcDbLine
 10
-711.32948214605426
 20
638.0
 30
0.0
 11
-711.32948214605426
 21
197.99999999999991
 31
0.0
  0
LINE
  5
660
100
AcDbEntity
  8
TEXT
100
AcDbLine
 10
-891.32948214605426
 20
598.0
 30
0.0
 11
-391.32948214605426
 21
598.0
 31
0.0
  0
MTEXT
  5
661
100
AcDbEntity
  8
TEXT
100
AcDbMText
 10
-692.9742323550829
 20
629.30594706611771
 30
0.0
 40
16.933333333333334
 41
0.0
 71
               1
 72
               1
  1
HK 31 A
  7
ＭＳ Ｐゴシック
 73
               1
 44
1.0
  0
MTEXT
  5
662
100
AcDbEntity
  8
TEXT
100
AcDbMText
 10
-692.9742323550829
 20
593.0
 30
0.0
 40
16.933333333333334
 41
0.0
 71
               1
 72
               1
  1
外気取り込み式温風加熱\P450w{\H0.9754x;\lコイルヒータ ー×2（900}{\H0.9754x;\lw}{\H0.9754x;\l）\P可変サーモスタット（70℃設定）\P}過昇防止温度ヒューズ\Pブロアファン\P
  7
ＭＳ Ｐゴシック
 73
               1
 44
1.0
  0
LINE
  5
663
100
AcDbEntity
  8
TEXT
100
AcDbLine
 10
-891.32948214605426
 20
478.0
 30
0.0
 11
-391.32948214605426
 21
478.0
 31
0.0
  0
LINE
  5
664
100
AcDbEntity
  8
TEXT
100
AcDbLine
 10
-891.32948214605426
 20
398.0
 30
0.0
 11
-391.32948214605426
 21
398.0
 31
0.0
  0
MTEXT
  5
665
100
AcDbEntity
  8
TEXT
100
AcDbMText
 10
-879.68763817823822
 20
258.0
 30
0.0
 40
16.933333333333334
 41
154.24920530306599
 71
               4
 72
               1
  1
消　 費 　電　 力
  7
ＭＳ Ｐゴシック
 73
               1
 44
2.3622047244094486
  0
MTEXT
  5
666
100
AcDbEntity
  8
TEXT
100
AcDbMText
 10
-693.10014512069313
 20
257.94374746485971
 30
0.0
 40
16.933333333333334
 41
96.277998929948353
 71
               4
 72
               1
  1
1.0kw
  7
ＭＳ Ｐゴシック
 73
               1
 44
2.3622047244094486
  0
LINE
  5
667
100
AcDbEntity
  8
TEXT
100
AcDbLine
 10
-891.32948214605426
 20
358.0
 30
0.0
 11
-391.32948214605426
 21
358.0
 31
0.0
  0
MTEXT
  5
668
100
AcDbEntity
  8
TEXT
100
AcDbMText
 10
-879.74829369314034
 20
448.0
 30
0.0
 40
16.933333333333334
 41
0.0
 71
               1
 72
               1
  1
カ ゴ 回 転 装 置
  7
ＭＳ Ｐゴシック
 73
               1
 44
1.0
  0
MTEXT
  5
669
100
AcDbEntity
  8
TEXT
100
AcDbMText
 10
-692.94223542448162
 20
470.5
 30
0.0
 40
16.631193685426904
 41
0.0
 71
               1
 72
               1
  1
ギヤードモーター{\H1.018x;\l\Pチェーンによる2ローラー駆動\Pカゴ回転数：4.3回転/分}
  7
ＭＳ Ｐゴシック
 73
               1
 44
1.0
  0
LINE
  5
66A
100
AcDbEntity
  8
TEXT
100
AcDbLine
 10
-891.32948214605426
 20
318.0
 30
0.0
 11
-391.32948214605426
 21
318.0
 31
0.0
  0
LINE
  5
66B
100
AcDbEntity
  8
TEXT
100
AcDbLine
 10
-891.32948214605426
 20
278.0
 30
0.0
 11
-391.32948214605426
 21
278.0
 31
0.0
  0
MTEXT
  5
66C
100
AcDbEntity
  8
TEXT
100
AcDbMText
 10
-879.72863532264751
 20
389.00000000000011
 30
0.0
 40
16.933333333333334
 41
0.0
 71
               1
 72
               1
  1
乾 燥 タ イ マ ー
  7
ＭＳ Ｐゴシック
 73
               1
 44
1.0
  0
MTEXT
  5
66D
100
AcDbEntity
  8
TEXT
100
AcDbMText
 10
-692.9666547799826
 20
389.6052809033223
 30
0.0
 40
16.933333333333334
 41
0.0
 71
               1
 72
               1
  1
アナログダイヤル式（0～30分）
  7
ＭＳ Ｐゴシック
 73
               1
 44
1.0
  0
MTEXT
  5
66E
100
AcDbEntity
  8
TEXT
100
AcDbMText
 10
-692.9742323550829
 20
218.71986120568781
 30
0.0
 40
16.933333333333334
 41
96.277998929948353
 71
               4
 72
               1
  1
18kg
  7
ＭＳ Ｐゴシック
 73
               1
 44
2.3622047244094486
  0
LINE
  5
66F
100
AcDbEntity
  8
HIDDEN
100
AcDbLine
 10
636.18334501200991
 20
479.18770573341646
 30
0.0
 11
646.18334501202332
 21
479.18770573341533
 31
0.0
  0
LINE
  5
670
100
AcDbEntity
  8
HIDDEN
100
AcDbLine
 10
645.1833450120165
 20
420.47054844589059
 30
0.0
 11
631.18334501200468
 21
434.47054844591537
 31
0.0
  0
LINE
  5
671
100
AcDbEntity
  8
HIDDEN
100
AcDbLine
 10
630.90050229957581
 20
434.18770573338281
 30
0.0
 11
644.90050229960582
 21
420.18770573341533
 31
0.0
  0
LINE
  5
672
100
AcDbEntity
  8
HIDDEN
100
AcDbLine
 10
566.1833450120165
 20
419.18770573342442
 30
0.0
 11
566.18334501200422
 21
429.18770573338622
 31
0.0
  0
LINE
  5
673
100
AcDbEntity
  8
HIDDEN
100
AcDbLine
 10
644.90050229960582
 20
420.18770573341533
 30
0.0
 11
645.1833450120165
 21
420.18770573341533
 31
0.0
  0
LINE
  5
674
100
AcDbEntity
  8
HIDDEN
100
AcDbLine
 10
646.1833450120165
 20
419.18770573341533
 30
0.0
 11
566.1833450120165
 21
419.18770573342442
 31
0.0
  0
LINE
  5
675
100
AcDbEntity
  8
HIDDEN
100
AcDbLine
 10
646.18334501202332
 20
479.18770573341533
 30
0.0
 11
646.1833450120165
 21
419.18770573341533
 31
0.0
  0
LINE
  5
676
100
AcDbEntity
  8
HIDDEN
100
AcDbLine
 10
645.1833450120165
 20
420.18770573341533
 30
0.0
 11
645.1833450120165
 21
420.47054844589059
 31
0.0
  0
LINE
  5
677
100
AcDbEntity
  8
HIDDEN
100
AcDbLine
 10
430.1833450120165
 20
420.4705484458915
 30
0.0
 11
430.1833450120165
 21
420.18770573343988
 31
0.0
  0
LINE
  5
678
100
AcDbEntity
  8
HIDDEN
100
AcDbLine
 10
444.18334501198649
 20
434.47054844586785
 30
0.0
 11
430.1833450120165
 21
420.4705484458915
 31
0.0
  0
LINE
  5
679
100
AcDbEntity
  8
HIDDEN
100
AcDbLine
 10
429.18334501202287
 20
479.18770573343988
 30
0.0
 11
439.18334501199149
 21
479.18770573343829
 31
0.0
  0
LINE
  5
67A
100
AcDbEntity
  8
HIDDEN
100
AcDbLine
 10
429.18334501201605
 20
419.18770573343988
 30
0.0
 11
429.18334501202287
 21
479.18770573343988
 31
0.0
  0
LINE
  5
67B
100
AcDbEntity
  8
HIDDEN
100
AcDbLine
 10
430.46618772444288
 20
420.18770573340896
 30
0.0
 11
444.4661877244456
 21
434.18770573339123
 31
0.0
  0
LINE
  5
67C
100
AcDbEntity
  8
HIDDEN
100
AcDbLine
 10
430.1833450120165
 20
420.18770573343988
 30
0.0
 11
430.46618772444288
 21
420.18770573340896
 31
0.0
  0
LINE
  5
67D
100
AcDbEntity
  8
HIDDEN
100
AcDbLine
 10
509.18334501201628
 20
419.18770573343079
 30
0.0
 11
429.18334501201605
 21
419.18770573343988
 31
0.0
  0
LINE
  5
67E
100
AcDbEntity
  8
HIDDEN
100
AcDbLine
 10
509.18334501198603
 20
429.18770573338804
 30
0.0
 11
509.18334501201628
 21
419.18770573343079
 31
0.0
  0
ARC
  5
67F
100
AcDbEntity
  8
HIDDEN
100
AcDbCircle
 10
621.18334501201514
 20
474.18770573344739
 30
0.0
 40
5.0
100
AcDbArc
 50
90.000000000054712
 51
180.00000000006253
  0
LINE
  5
680
100
AcDbEntity
  8
HIDDEN
100
AcDbLine
 10
616.18334501198831
 20
449.47054844593583
 30
0.0
 11
616.18334501201514
 21
474.18770573345284
 31
0.0
  0
LINE
  5
681
100
AcDbEntity
  8
HIDDEN
100
AcDbLine
 10
631.18334501200923
 20
434.47054844591992
 30
0.0
 11
616.18334501198831
 21
449.47054844593583
 31
0.0
  0
LINE
  5
682
100
AcDbEntity
  8
HIDDEN
100
AcDbLine
 10
621.18334501201036
 20
479.18770573344739
 30
0.0
 11
636.18334501200991
 21
479.18770573342715
 31
0.0
  0
LINE
  5
683
100
AcDbEntity
  8
HIDDEN
100
AcDbLine
 10
615.90050229951032
 20
449.1877057334583
 30
0.0
 11
630.90050229958604
 21
434.18770573339327
 31
0.0
  0
LINE
  5
684
100
AcDbEntity
  8
HIDDEN
100
AcDbLine
 10
571.18334501201559
 20
449.18770573344807
 30
0.0
 11
615.90050229951032
 21
449.1877057334583
 31
0.0
  0
ARC
  5
685
100
AcDbEntity
  8
HIDDEN
100
AcDbCircle
 10
571.1833450120165
 20
444.18770573344807
 30
0.0
 40
5.0
100
AcDbArc
 50
90.000000000010431
 51
180.00000000000526
  0
LINE
  5
686
100
AcDbEntity
  8
HIDDEN
100
AcDbLine
 10
566.1833450120165
 20
429.18770573338622
 30
0.0
 11
566.1833450120165
 21
444.18770573344875
 31
0.0
  0
ARC
  5
687
100
AcDbEntity
  8
HIDDEN
100
AcDbCircle
 10
504.18334501199331
 20
444.18770573343306
 30
0.0
 40
5.0
100
AcDbArc
 50
359.99999999999488
 51
90.000000000015632
  0
LINE
  5
688
100
AcDbEntity
  8
HIDDEN
100
AcDbLine
 10
459.46618772446425
 20
449.18770573342306
 30
0.0
 11
504.18334501199195
 21
449.18770573343306
 31
0.0
  0
LINE
  5
689
100
AcDbEntity
  8
HIDDEN
100
AcDbLine
 10
444.46618772443787
 20
434.18770573339123
 30
0.0
 11
459.46618772446425
 21
449.18770573342306
 31
0.0
  0
LINE
  5
68A
100
AcDbEntity
  8
HIDDEN
100
AcDbLine
 10
509.18334501199331
 20
444.18770573343261
 30
0.0
 11
509.18334501199149
 21
429.18770573338804
 31
0.0
  0
LINE
  5
68B
100
AcDbEntity
  8
HIDDEN
100
AcDbLine
 10
459.18334501198831
 20
449.47054844589809
 30
0.0
 11
444.18334501197489
 21
434.47054844587944
 31
0.0
  0
LINE
  5
68C
100
AcDbEntity
  8
HIDDEN
100
AcDbLine
 10
459.18334501199604
 20
474.18770573345171
 30
0.0
 11
459.18334501198831
 21
449.47054844589809
 31
0.0
  0
ARC
  5
68D
100
AcDbEntity
  8
HIDDEN
100
AcDbCircle
 10
454.18334501199604
 20
474.18770573345353
 30
0.0
 40
5.0
100
AcDbArc
 50
359.99999999997914
 51
90.000000000046896
  0
LINE
  5
68E
100
AcDbEntity
  8
HIDDEN
100
AcDbLine
 10
439.18334501198672
 20
479.18770573344079
 30
0.0
 11
454.18334501199195
 21
479.18770573345353
 31
0.0
  0
LINE
  5
68F
100
AcDbEntity
  8
HIDDEN
100
AcDbLine
 10
616.18334501202378
 20
452.18970032801042
 30
0.0
 11
459.18334501202378
 21
452.18970032800996
 31
0.0
  0
LINE
  5
690
100
AcDbEntity
  8
HIDDEN
100
AcDbLine
 10
615.88334500658709
 20
452.18770573342169
 30
0.0
 11
615.88334500658732
 21
452.18970032801064
 31
0.0
  0
LINE
  5
691
100
AcDbEntity
  8
HIDDEN
100
AcDbLine
 10
616.18334501202378
 20
452.18970032801042
 30
0.0
 11
615.88334500658732
 21
452.18970032801064
 31
0.0
  0
LINE
  5
692
100
AcDbEntity
  8
HIDDEN
100
AcDbLine
 10
616.18334501202128
 20
474.18770573342169
 30
0.0
 11
459.18334501202128
 21
474.18770573340441
 31
0.0
  0
LINE
  5
693
100
AcDbEntity
  8
HIDDEN
100
AcDbLine
 10
304.68334500659728
 20
-263.61249906145451
 30
0.0
 11
261.68334500659728
 21
-263.61249906145451
 31
0.0
  0
ARC
  5
694
100
AcDbEntity
  8
HIDDEN
100
AcDbCircle
 10
301.7833450065973
 20
-264.21249906145442
 30
0.0
 40
0.5999999999999091
100
AcDbArc
 50
90.0
 51
180.0
  0
ARC
  5
695
100
AcDbEntity
  8
HIDDEN
100
AcDbCircle
 10
264.58334500659726
 20
-264.21249906145442
 30
0.0
 40
0.6000000000000241
100
AcDbArc
 50
359.99999618179822
 51
90.0
  0
LINE
  5
696
100
AcDbEntity
  8
HIDDEN
100
AcDbLine
 10
283.18334500659728
 20
-268.11249906145451
 30
0.0
 11
265.18334500659728
 21
-268.11249906145451
 31
0.0
  0
LINE
  5
697
100
AcDbEntity
  8
HIDDEN
100
AcDbLine
 10
265.18334500659728
 20
-268.11249906145451
 30
0.0
 11
265.18334500659728
 21
-264.21249906145442
 31
0.0
  0
LINE
  5
698
100
AcDbEntity
  8
HIDDEN
100
AcDbLine
 10
301.18334500659728
 20
-268.11249906145451
 30
0.0
 11
283.18334500659728
 21
-268.11249906145451
 31
0.0
  0
LINE
  5
699
100
AcDbEntity
  8
HIDDEN
100
AcDbLine
 10
301.18334500659728
 20
-268.11249906145451
 30
0.0
 11
301.18334500659728
 21
-264.21249906145442
 31
0.0
  0
LINE
  5
69A
100
AcDbEntity
  8
HIDDEN
100
AcDbLine
 10
298.55784500659729
 20
-281.91249906145447
 30
0.0
 11
267.80884500659727
 21
-281.91249906145447
 31
0.0
  0
LINE
  5
69B
100
AcDbEntity
  8
HIDDEN
100
AcDbLine
 10
266.80884500659727
 20
-280.91249906145447
 30
0.0
 11
299.55784500659729
 21
-280.91249906145447
 31
0.0
  0
LINE
  5
69C
100
AcDbEntity
  8
HIDDEN
100
AcDbLine
 10
364.68334500660825
 20
-258.11249906145338
 30
0.0
 11
201.68334500660819
 21
-258.11249906145542
 31
0.0
  0
LINE
  5
69D
100
AcDbEntity
  8
HIDDEN
100
AcDbLine
 10
260.48334501501677
 20
-262.11249906145474
 30
0.0
 11
305.88334500659732
 21
-262.11249906145429
 31
0.0
  0
LINE
  5
69E
100
AcDbEntity
  8
HIDDEN
100
AcDbLine
 10
261.68334500659728
 20
-262.11249906145474
 30
0.0
 11
261.68334500659728
 21
-263.61249906145451
 31
0.0
  0
LINE
  5
69F
100
AcDbEntity
  8
HIDDEN
100
AcDbLine
 10
304.68334500659728
 20
-263.61249906145451
 30
0.0
 11
304.68334500659728
 21
-262.11249906145429
 31
0.0
  0
LINE
  5
6A0
100
AcDbEntity
  8
HIDDEN
100
AcDbLine
 10
266.80884500659727
 20
-280.91249906145447
 30
0.0
 11
267.80884500659727
 21
-281.91249906145447
 31
0.0
  0
LINE
  5
6A1
100
AcDbEntity
  8
HIDDEN
100
AcDbLine
 10
298.55784500659729
 20
-281.91249906145447
 30
0.0
 11
299.55784500659729
 21
-280.91249906145447
 31
0.0
  0
LINE
  5
6A2
100
AcDbEntity
  8
HIDDEN
100
AcDbLine
 10
299.55784500659729
 20
-280.91249906145447
 30
0.0
 11
299.55784500659729
 21
-268.11249906145451
 31
0.0
  0
LINE
  5
6A3
100
AcDbEntity
  8
HIDDEN
100
AcDbLine
 10
266.80884500659727
 20
-268.11249906145451
 30
0.0
 11
266.80884500659727
 21
-280.91249906145447
 31
0.0
  0
ARC
  5
6A4
100
AcDbEntity
  8
HIDDEN
100
AcDbCircle
 10
256.88334500659732
 20
-259.41249906145492
 30
0.0
 40
1.2999999999999545
100
AcDbArc
 50
0.0
 51
90.000000000005002
  0
ARC
  5
6A5
100
AcDbEntity
  8
HIDDEN
100
AcDbCircle
 10
309.48334500659735
 20
-259.41249906145424
 30
0.0
 40
1.3000000000001819
100
AcDbArc
 50
90.000000000005016
 51
179.99999999996993
  0
LINE
  5
6A6
100
AcDbEntity
  8
HIDDEN
100
AcDbLine
 10
258.18334500659728
 20
-259.41249906145492
 30
0.0
 11
258.18334500659728
 21
-259.81249906145479
 31
0.0
  0
LINE
  5
6A7
100
AcDbEntity
  8
HIDDEN
100
AcDbLine
 10
308.18334500659728
 20
-259.8124990614541
 30
0.0
 11
308.18334500659728
 21
-259.41249906145424
 31
0.0
  0
ARC
  5
6A8
100
AcDbEntity
  8
HIDDEN
100
AcDbCircle
 10
260.48334500659723
 20
-259.81249906145479
 30
0.0
 40
2.2999999999999545
100
AcDbArc
 50
180.0
 51
270.00000000000284
  0
ARC
  5
6A9
100
AcDbEntity
  8
HIDDEN
100
AcDbCircle
 10
305.88334500659732
 20
-259.81249906145433
 30
0.0
 40
2.2999999999999545
100
AcDbArc
 50
270.0
 51
0.0000000000056275
  0
LINE
  5
6AA
100
AcDbEntity
  8
CENTER
100
AcDbLine
 10
283.18334500659728
 20
-226.00000000000003
 30
0.0
 11
283.18334500659728
 21
-324.0
 31
0.0
  0
CIRCLE
  5
6AB
100
AcDbEntity
  8
HIDDEN
100
AcDbCircle
 10
283.18334500659728
 20
374.18770032798022
 30
0.0
 40
37.500000000000007
  0
LINE
  5
6AC
100
AcDbEntity
  8
HIDDEN
100
AcDbLine
 10
716.18334500660785
 20
-310.61249906145497
 30
0.0
 11
155.68376886435794
 21
-310.61249906145292
 31
0.0
  0
LINE
  5
6AD
100
AcDbEntity
  8
HIDDEN
100
AcDbLine
 10
245.68334500659728
 20
-310.61249906145497
 30
0.0
 11
245.68334500659728
 21
-312.11249906145497
 31
0.0
  0
LINE
  5
6AE
100
AcDbEntity
  8
HIDDEN
100
AcDbLine
 10
320.68334500659728
 20
-310.61249906145497
 30
0.0
 11
320.68334500659728
 21
-312.11249906145497
 31
0.0
  0
DIMENSION
  5
6AF
100
AcDbEntity
  8
DIMENTION
100
AcDbDimension
  2
*D14
 10
245.68334500659728
 20
-404.5
 30
0.0
 11
329.5
 21
-404.00000000186265
 31
0.0
 70
             128
 71
               5
 72
               1
 41
1.0
 42
0.0
  3
CAD
100
AcDbAlignedDimension
 13
320.68334500659728
 23
-312.11249906145497
 33
0.0
 14
245.68334500659728
 24
-312.11249906145497
 34
0.0
100
AcDbRotatedDimension
1001
ACAD
1000
DSTYLE
1002
{
1070
             279
1070
               2
1070
             340
1005
3C
1070
               3
1000
φ<> 排水用抜き穴寸法
1070
             174
1070
               0
1070
             147
1040
0.4999999981373549
1002
}
  0
DIMENSION
  5
6B0
100
AcDbEntity
  8
DIMENTION
100
AcDbDimension
  2
*D15
 10
377.0
 20
-281.91249906145447
 30
0.0
 11
377.0
 21
-327.01249906145392
 31
0.0
 71
               5
 72
               1
 41
1.0
 42
0.0
  1
90
  3
CAD
100
AcDbAlignedDimension
 13
327.80000000000001
 23
-372.11249906145338
 33
0.0
 14
298.55784500659729
 24
-281.91249906145447
 34
0.0
 50
90.0
100
AcDbRotatedDimension
1001
ACAD
1000
DSTYLE
1002
{
1070
             279
1070
               2
1070
             340
1005
3C
1070
             147
1040
0.4999999981373549
1002
}
  0
LINE
  5
6B1
100
AcDbEntity
  8
CENTER
100
AcDbLine
 10
661.0
 20
463.18870303071606
 30
0.0
 11
413.5
 21
463.18870303071606
 31
0.0
  0
LINE
  5
6B2
100
AcDbEntity
  8
CENTER
100
AcDbLine
 10
537.68334501202128
 20
487.0
 30
0.0
 11
537.68334501202128
 21
437.5
 31
0.0
  0
DIMENSION
  5
6B3
100
AcDbEntity
  8
DIMENTION
100
AcDbDimension
  2
*D16
 10
793.19266459356083
 20
463.18870303071606
 30
0.0
 11
793.19266459356083
 21
431.18820167935974
 31
0.0
 71
               5
 72
               1
 41
1.0
 42
0.0
  1
64
  3
CAD
100
AcDbAlignedDimension
 13
741.17748920788154
 23
399.18770032800342
 33
0.0
 14
661.0
 24
463.18870303071606
 34
0.0
 50
90.0
100
AcDbRotatedDimension
1001
ACAD
1000
DSTYLE
1002
{
1070
             279
1070
               2
1070
             340
1005
3C
1070
             147
1040
0.4999999981373549
1002
}
  0
LINE
  5
6B4
100
AcDbEntity
  8
DIMENTION
100
AcDbLine
 10
608.0
 20
474.18770573342169
 30
0.0
 11
748.0
 21
554.0
 31
0.0
  0
LINE
  5
6B5
100
AcDbEntity
  8
DIMENTION
100
AcDbLine
 10
608.0
 20
474.18770573342169
 30
0.0
 11
619.82235635447091
 21
485.6044225567033
 31
0.0
  0
LINE
  5
6B6
100
AcDbEntity
  8
DIMENTION
100
AcDbLine
 10
608.0
 20
474.18770573342169
 30
0.0
 11
623.94681934720495
 21
478.16369435296122
 31
0.0
  0
LINE
  5
6B7
100
AcDbEntity
  8
DIMENTION
100
AcDbLine
 10
748.0
 20
554.0
 30
0.0
 11
913.5
 21
554.0
 31
0.0
  0
MTEXT
  5
6B8
100
AcDbEntity
  8
DIMENTION
100
AcDbMText
 10
758.80000000000007
 20
575.29999999999995
 30
0.0
 40
16.933333333333334
 41
0.0
 71
               1
 72
               1
  1
外気吸い込み口\P（フィルター）
  7
ＭＳ Ｐゴシック
 73
               1
 44
1.0
  0
DIMENSION
  5
6B9
100
AcDbEntity
  8
DIMENTION
100
AcDbDimension
  2
*D17
 10
121.18334500659603
 20
561.0
 30
0.0
 11
329.43334500930865
 21
561.0
 31
0.0
 71
               5
 72
               1
 41
1.0
 42
0.0
  1
416
  3
CAD
100
AcDbAlignedDimension
 13
537.68334501202128
 23
487.0
 33
0.0
 14
121.18334500659603
 24
529.18770032799932
 34
0.0
100
AcDbRotatedDimension
1001
ACAD
1000
DSTYLE
1002
{
1070
             279
1070
               2
1070
             340
1005
3C
1070
             147
1040
0.4999999981373549
1002
}
  0
DIMENSION
  5
6BA
100
AcDbEntity
  8
DIMENTION
100
AcDbDimension
  2
*D18
 10
720.18334500660285
 20
38.0
 30
0.0
 11
449.43334500660285
 21
38.0
 31
0.0
 71
               5
 72
               1
 41
1.0
 42
0.0
  1
542
  3
CAD
100
AcDbAlignedDimension
 13
178.68334500660285
 23
-23.395341773928436
 33
0.0
 14
720.18334500660285
 24
-23.11249906145386
 34
0.0
100
AcDbRotatedDimension
1001
ACAD
1000
DSTYLE
1002
{
1070
             279
1070
               2
1070
             340
1005
3C
1070
             147
1040
0.4999999981373549
1002
}
  0
DIMENSION
  5
6BB
100
AcDbEntity
  8
DIMENTION
100
AcDbDimension
  2
*D19
 10
178.68334500660285
 20
38.0
 30
0.0
 11
139.93393580041538
 21
38.0
 31
0.0
 71
               5
 72
               1
 41
1.0
 42
0.0
  1
78
  3
CAD
100
AcDbAlignedDimension
 13
101.18452659422792
 23
-47.399999999999991
 33
0.0
 14
178.68334500660285
 24
-23.395341773928436
 34
0.0
100
AcDbRotatedDimension
1001
ACAD
1000
DSTYLE
1002
{
1070
             279
1070
               2
1070
             340
1005
3C
1070
             147
1040
0.4999999981373549
1002
}
  0
DIMENSION
  5
6BC
100
AcDbEntity
  8
DIMENTION
100
AcDbDimension
  2
*D20
 10
121.18334500660796
 20
-446.8122996719967
 30
0.0
 11
45.158345006596505
 21
-446.8122996719967
 31
0.0
 71
               5
 72
               1
 41
1.0
 42
0.0
  1
152
  3
CAD
100
AcDbAlignedDimension
 13
-30.866654993414954
 23
-222.11249906145341
 33
0.0
 14
121.18334500660796
 24
-235.61249906145295
 34
0.0
100
AcDbRotatedDimension
1001
ACAD
1000
DSTYLE
1002
{
1070
             279
1070
               2
1070
             340
1005
3C
1070
             147
1040
0.4999999981373549
1002
}
  0
DIMENSION
  5
6BD
100
AcDbEntity
  8
DIMENTION
100
AcDbDimension
  2
*D21
 10
-76.0
 20
-195.61249906145432
 30
0.0
 11
-76.0
 21
-283.86249906145383
 31
0.0
 71
               5
 72
               1
 41
1.0
 42
0.0
  1
177
  3
CAD
100
AcDbAlignedDimension
 13
148.37580165065469
 23
-372.11249906145338
 33
0.0
 14
-30.866654993415295
 24
-195.61249906145432
 34
0.0
 50
90.0
100
AcDbRotatedDimension
1001
ACAD
1000
DSTYLE
1002
{
1070
             279
1070
               2
1070
             340
1005
3C
1070
             147
1040
0.4999999981373549
1002
}
  0
LINE
  5
6BE
100
AcDbEntity
  8
OBJECT
100
AcDbLine
 10
643.18334501201548
 20
-331.11249906145611
 30
0.0
 11
563.18334501201548
 21
-331.11249906145611
 31
0.0
  0
LINE
  5
6BF
100
AcDbEntity
  8
OBJECT
100
AcDbLine
 10
563.18334501201548
 20
-331.11249906145611
 30
0.0
 11
563.18334501201548
 21
-312.11249906145588
 31
0.0
  0
LINE
  5
6C0
100
AcDbEntity
  8
OBJECT
100
AcDbLine
 10
643.18334501201548
 20
-331.11249906145611
 30
0.0
 11
643.18334501201548
 21
-314.11249906145292
 31
0.0
  0
LINE
  5
6C1
100
AcDbEntity
  8
OBJECT
100
AcDbLine
 10
506.18334501201525
 20
-331.11249906145588
 30
0.0
 11
426.18334501201514
 21
-331.11249906145588
 31
0.0
  0
LINE
  5
6C2
100
AcDbEntity
  8
OBJECT
100
AcDbLine
 10
426.18334501201514
 20
-331.11249906145588
 30
0.0
 11
426.18334501201514
 21
-312.11249906145588
 31
0.0
  0
LINE
  5
6C3
100
AcDbEntity
  8
OBJECT
100
AcDbLine
 10
506.18334501201525
 20
-331.11249906145588
 30
0.0
 11
506.18334501201525
 21
-312.11249906145588
 31
0.0
  0
LINE
  5
6C4
100
AcDbEntity
  8
OBJECT
100
AcDbLine
 10
506.18334501201525
 20
-330.11249906145588
 30
0.0
 11
563.18334501201548
 21
-330.11249906145588
 31
0.0
  0
DIMENSION
  5
6C5
100
AcDbEntity
  8
DIMENTION
100
AcDbDimension
  2
*D22
 10
426.18334501201514
 20
-357.0
 30
0.0
 11
534.68334501201537
 21
-357.0
 31
0.0
 71
               5
 72
               1
 41
1.0
 42
0.0
  3
CAD
100
AcDbAlignedDimension
 13
643.18334501201548
 23
-331.11249906145611
 33
0.0
 14
426.18334501201514
 24
-331.11249906145588
 34
0.0
100
AcDbRotatedDimension
1001
ACAD
1000
DSTYLE
1002
{
1070
             279
1070
               2
1070
             340
1005
3C
1070
             147
1040
0.4999999981373549
1002
}
  0
DIMENSION
  5
6C6
100
AcDbEntity
  8
DIMENTION
100
AcDbDimension
  2
*D23
 10
417.19999999999999
 20
-331.11249906145588
 30
0.0
 11
417.19999999999999
 21
-351.61249906145463
 31
0.0
 71
               5
 72
               1
 41
1.0
 42
0.0
  3
CAD
100
AcDbAlignedDimension
 13
426.18334501201514
 23
-372.11249906145338
 33
0.0
 14
426.18334501201514
 24
-331.11249906145588
 34
0.0
 50
90.0
100
AcDbRotatedDimension
1001
ACAD
1000
DSTYLE
1002
{
1070
             279
1070
               2
1070
             340
1005
3C
1070
             147
1040
0.4999999981373549
1002
}
  0
LINE
  5
6C7
100
AcDbEntity
  8
OBJECT
100
AcDbLine
 10
-609.31665554182632
 20
-332.6124980600988
 30
0.0
 11
-664.31665029035844
 21
-332.61249806009789
 31
0.0
  0
LINE
  5
6C8
100
AcDbEntity
  8
OBJECT
100
AcDbLine
 10
-609.31665554182632
 20
-332.6124980600988
 30
0.0
 11
-609.31665554182632
 21
-328.61249806009721
 31
0.0
  0
LINE
  5
6C9
100
AcDbEntity
  8
CENTER
100
AcDbLine
 10
-589.31665013635495
 20
-14.0
 30
0.0
 11
-589.31665013635495
 21
-343.0
 31
0.0
  0
INSERT
  5
6CA
100
AcDbEntity
  8
CENTER
100
AcDbBlockReference
  2
*U24
 10
-12.953495521651462
 20
67.006870916264774
 30
0.0
  0
DIMENSION
  5
6CB
100
AcDbEntity
  8
DIMENTION
100
AcDbDimension
  2
*D25
 10
-589.31665013635495
 20
-8.5
 30
0.0
 11
-576.81665013636177
 21
-8.5
 31
0.0
 71
               5
 72
               1
 41
1.0
 42
0.0
  3
CAD
100
AcDbAlignedDimension
 13
-564.31665013636848
 23
-53.676672472969045
 33
0.0
 14
-589.31665013635495
 24
-14.0
 34
0.0
100
AcDbRotatedDimension
1001
ACAD
1000
DSTYLE
1002
{
1070
             279
1070
               2
1070
             340
1005
3C
1070
             147
1040
0.4999999981373549
1002
}
  0
MTEXT
  5
6CC
100
AcDbEntity
  8
TEXT
100
AcDbMText
 10
-879.49578011376889
 20
348.60000000000002
 30
0.0
 40
16.933333333333334
 41
0.0
 71
               1
 72
               1
  1
カ 　ゴ 　寸 　法
  7
ＭＳ Ｐゴシック
 73
               1
 44
1.0
  0
MTEXT
  5
6CD
100
AcDbEntity
  8
TEXT
100
AcDbMText
 10
-692.94285726318083
 20
349.58333333333326
 30
0.0
 40
16.933333333333334
 41
0.0
 71
               1
 72
               1
  1
φ120×260  箸100本（50膳）
  7
ＭＳ Ｐゴシック
 73
               1
 44
1.0
  0
LINE
  5
6CE
100
AcDbEntity
  8
TEXT
100
AcDbLine
 10
-891.32948214605426
 20
237.99999999999997
 30
0.0
 11
-391.32948214605426
 21
237.99999999999997
 31
0.0
  0
LINE
  5
6CF
100
AcDbEntity
  8
DIMENTION
100
AcDbLine
 10
-590.92758776849701
 20
-283.39999999999998
 30
0.0
 11
-615.0
 21
-409.11229967199631
 31
0.0
  0
LINE
  5
6D0
100
AcDbEntity
  8
DIMENTION
100
AcDbLine
 10
-590.92758776849701
 20
-283.39999999999998
 30
0.0
 11
-589.78113946931194
 21
-299.79497450721999
 31
0.0
  0
LINE
  5
6D1
100
AcDbEntity
  8
DIMENTION
100
AcDbLine
 10
-590.92758776849701
 20
-283.39999999999998
 30
0.0
 11
-598.13222167088736
 21
-298.17168856724334
 31
0.0
  0
LINE
  5
6D2
100
AcDbEntity
  8
DIMENTION
100
AcDbLine
 10
-615.0
 20
-409.11229967199631
 30
0.0
 11
-722.5
 21
-409.11229967199631
 31
0.0
  0
LINE
  5
6D3
100
AcDbEntity
  8
DIMENTION
100
AcDbLine
 10
-569.31765013635129
 20
-294.41349806009703
 30
0.0
 11
-596.5
 21
-409.11229967199631
 31
0.0
  0
LINE
  5
6D4
100
AcDbEntity
  8
DIMENTION
100
AcDbLine
 10
-569.31765013635129
 20
-294.41349806009703
 30
0.0
 11
-569.03081967313005
 21
-310.84600429257625
 31
0.0
  0
LINE
  5
6D5
100
AcDbEntity
  8
DIMENTION
100
AcDbLine
 10
-569.31765013635129
 20
-294.41349806009703
 30
0.0
 11
-577.28550078486205
 21
-308.78788113688074
 31
0.0
  0
LINE
  5
6D6
100
AcDbEntity
  8
DIMENTION
100
AcDbLine
 10
-596.5
 20
-409.11229967199631
 30
0.0
 11
-470.5
 21
-409.11229967199631
 31
0.0
  0
LINE
  5
6D7
100
AcDbEntity
  8
DIMENTION
100
AcDbLine
 10
-501.5
 20
-289.00023702598969
 30
0.0
 11
-442.0
 21
-409.11229967199631
 31
0.0
  0
LINE
  5
6D8
100
AcDbEntity
  8
DIMENTION
100
AcDbLine
 10
-501.5
 20
-289.00023702598969
 30
0.0
 11
-490.71766371519766
 21
-301.40389604405914
 31
0.0
  0
LINE
  5
6D9
100
AcDbEntity
  8
DIMENTION
100
AcDbLine
 10
-501.5
 20
-289.00023702598969
 30
0.0
 11
-498.36405237424913
 21
-305.13328897791894
 31
0.0
  0
LINE
  5
6DA
100
AcDbEntity
  8
DIMENTION
100
AcDbLine
 10
-442.0
 20
-409.11229967199631
 30
0.0
 11
-182.5
 21
-409.11229967199631
 31
0.0
  0
ENDSEC
  0
SECTION
  2
OBJECTS
  0
DICTIONARY
  5
19
100
AcDbDictionary
280
               0
281
               1
  3
ACAD_GROUP
350
1A
  3
ACAD_MLINESTYLE
350
1B
  3
ACAD_LAYOUT
350
1E
  3
ACAD_PLOTSETTINGS
350
22
  3
ACAD_PLOTSTYLENAME
350
1F
  0
DICTIONARY
  5
1A
102
{ACAD_REACTORS
330
19
102
}
100
AcDbDictionary
280
               0
281
               1
  0
DICTIONARY
  5
1B
102
{ACAD_REACTORS
330
19
102
}
100
AcDbDictionary
280
               0
281
               1
  3
Standard
350
1C
  0
MLINESTYLE
  5
1C
102
{ACAD_REACTORS
330
1B
102
}
100
AcDbMlineStyle
  2
Standard
 70
               0
  3

 62
               0
 51
90.0
 52
90.0
 71
               2
 49
0.5
 62
             256
  6
ByLayer
 49
-0.5
 62
             256
  6
ByLayer
  0
ACDBDICTIONARYWDFLT
  5
1F
102
{ACAD_REACTORS
330
19
102
}
100
AcDbDictionary
281
               1
  3
Normal
350
1D
100
AcDbDictionaryWithDefault
340
1D
  0
ACDBPLACEHOLDER
  5
1D
102
{ACAD_REACTORS
330
1F
102
}
  0
LAYOUT
  5
20
102
{ACAD_REACTORS
330
1E
102
}
100
AcDbPlotSettings
  1

  2

  4

  6

 40
0.0
 41
0.0
 42
0.0
 43
0.0
 44
0.0
 45
0.0
 46
0.0
 47
0.0
 48
0.0
 49
0.0
140
0.0
141
0.0
142
1.0
143
1.0
 70
            1024
 72
               0
 73
               0
 74
               0
  7

 75
               0
147
1.0
148
0.0
149
0.0
100
AcDbLayout
  1
Model
 70
               0
 71
               0
 10
0.0
 20
0.0
 11
0.0
 21
0.0
 12
0.0
 22
0.0
 32
0.0
 14
0.0
 24
0.0
 34
0.0
 15
0.0
 25
0.0
 35
0.0
146
0.0
 13
0.0
 23
0.0
 33
0.0
 16
0.0
 26
0.0
 36
0.0
 17
0.0
 27
0.0
 37
0.0
 76
               0
330
A
331
0
345
0
346
0
  0
LAYOUT
  5
21
102
{ACAD_REACTORS
330
1E
102
}
100
AcDbPlotSettings
  1

  2

  4

  6

 40
0.0
 41
0.0
 42
0.0
 43
0.0
 44
0.0
 45
0.0
 46
0.0
 47
0.0
 48
0.0
 49
0.0
140
0.0
141
0.0
142
1.0
143
1.0
 70
               0
 72
               0
 73
               0
 74
               0
  7

 75
               0
147
1.0
148
0.0
149
0.0
100
AcDbLayout
  1
Layout1
 70
               0
 71
               0
 10
0.0
 20
0.0
 11
0.0
 21
0.0
 12
0.0
 22
0.0
 32
0.0
 14
0.0
 24
0.0
 34
0.0
 15
0.0
 25
0.0
 35
0.0
146
0.0
 13
0.0
 23
0.0
 33
0.0
 16
0.0
 26
0.0
 36
0.0
 17
0.0
 27
0.0
 37
0.0
 76
               0
330
B
331
0
345
0
346
0
  0
DICTIONARY
  5
1E
102
{ACAD_REACTORS
330
19
102
}
100
AcDbDictionary
280
               0
281
               1
  3
Layout1
350
21
  3
Model
350
20
  0
DICTIONARY
  5
22
102
{ACAD_REACTORS
330
19
102
}
100
AcDbDictionary
280
               0
281
               1
  0
ENDSEC
  0
EOF
