  0
SECTION
  2
HEADER
  9
$ACADVER
  1
AC1014
  9
$ACADMAINTVER
 70
               0
  9
$DWGCODEPAGE
  3
ANSI_932
  9
$INSBASE
 10
0.0
 20
0.0
 30
0.0
  9
$EXTMIN
 10
-2025.3999999999999
 20
-1389.0
 30
0.0
  9
$EXTMAX
 10
2024.6000000000004
 20
1330.9999999999998
 30
0.0
  9
$LIMMIN
 10
0.0
 20
0.0
  9
$LIMMAX
 10
0.0
 20
0.0
  9
$ORTHOMODE
 70
               0
  9
$REGENMODE
 70
               1
  9
$FILLMODE
 70
               1
  9
$QTEXTMODE
 70
               0
  9
$MIRRTEXT
 70
               1
  9
$DRAGMODE
 70
               2
  9
$LTSCALE
 40
254.0
  9
$OSMODE
 70
               0
  9
$ATTMODE
 70
               1
  9
$TEXTSIZE
 40
0.2
  9
$TRACEWID
 40
1.0
  9
$TEXTSTYLE
  7
STANDARD
  9
$CLAYER
  8
0
  9
$CELTYPE
  6
CONTINUOUS
  9
$CECOLOR
 62
             256
  9
$CELTSCALE
 40
1.0
  9
$DELOBJ
 70
               1
  9
$DISPSILH
 70
               0
  9
$DIMSCALE
 40
1.0
  9
$DIMASZ
 40
31.75
  9
$DIMEXO
 40
9.9999999999999982
  9
$DIMDLI
 40
7.9999999999999991
  9
$DIMRND
 40
0.0
  9
$DIMDLE
 40
0.0
  9
$DIMEXE
 40
19.999999999999996
  9
$DIMTP
 40
0.0
  9
$DIMTM
 40
0.0
  9
$DIMTXT
 40
33.866666666666667
  9
$DIMCEN
 40
0.0
  9
$DIMTSZ
 40
0.0
  9
$DIMTOL
 70
               0
  9
$DIMLIM
 70
               0
  9
$DIMTIH
 70
               0
  9
$DIMTOH
 70
               0
  9
$DIMSE1
 70
               0
  9
$DIMSE2
 70
               0
  9
$DIMTAD
 70
               1
  9
$DIMZIN
 70
              11
  9
$DIMBLK
  1
VW_OPENARROW
  9
$DIMASO
 70
               1
  9
$DIMSHO
 70
               1
  9
$DIMPOST
  1
<>
  9
$DIMAPOST
  1
[]
  9
$DIMALT
 70
               0
  9
$DIMALTD
 70
               1
  9
$DIMALTF
 40
1.0
  9
$DIMLFAC
 40
1.0
  9
$DIMTOFL
 70
               1
  9
$DIMTVP
 40
0.0
  9
$DIMTIX
 70
               1
  9
$DIMSOXD
 70
               0
  9
$DIMSAH
 70
               0
  9
$DIMBLK1
  1

  9
$DIMBLK2
  1

  9
$DIMSTYLE
  2
CAD
  9
$DIMCLRD
 70
               0
  9
$DIMCLRE
 70
               0
  9
$DIMCLRT
 70
               0
  9
$DIMTFAC
 40
0.7
  9
$DIMGAP
 40
0.099999999627471
  9
$DIMJUST
 70
               0
  9
$DIMSD1
 70
               0
  9
$DIMSD2
 70
               0
  9
$DIMTOLJ
 70
               1
  9
$DIMTZIN
 70
              11
  9
$DIMALTZ
 70
              11
  9
$DIMALTTZ
 70
              11
  9
$DIMFIT
 70
               0
  9
$DIMUPT
 70
               0
  9
$DIMUNIT
 70
               2
  9
$DIMDEC
 70
               4
  9
$DIMTDEC
 70
               4
  9
$DIMALTU
 70
               2
  9
$DIMALTTD
 70
               2
  9
$DIMTXSTY
  7
________
  9
$DIMAUNIT
 70
               0
  9
$LUNITS
 70
               2
  9
$LUPREC
 70
               4
  9
$SKETCHINC
 40
0.1
  9
$FILLETRAD
 40
0.0
  9
$AUNITS
 70
               0
  9
$AUPREC
 70
               0
  9
$MENU
  1
acad
  9
$ELEVATION
 40
0.0
  9
$PELEVATION
 40
0.0
  9
$THICKNESS
 40
0.0
  9
$LIMCHECK
 70
               0
  9
$BLIPMODE
 70
               0
  9
$CHAMFERA
 40
0.0
  9
$CHAMFERB
 40
0.0
  9
$CHAMFERC
 40
0.0
  9
$CHAMFERD
 40
0.0
  9
$SKPOLY
 70
               0
  9
$TDCREATE
 40
2458758.750810185
  9
$TDUPDATE
 40
2458758.750810185
  9
$TDINDWG
 40
0.0000000000
  9
$TDUSRTIMER
 40
0.0000000000
  9
$USRTIMER
 70
               1
  9
$ANGBASE
 50
0.0
  9
$ANGDIR
 70
               0
  9
$PDMODE
 70
               1
  9
$PDSIZE
 40
-2.0
  9
$PLINEWID
 40
0.0
  9
$COORDS
 70
               0
  9
$SPLFRAME
 70
               0
  9
$SPLINETYPE
 70
               6
  9
$SPLINESEGS
 70
               8
  9
$ATTDIA
 70
               0
  9
$ATTREQ
 70
               1
  9
$HANDLING
 70
               1
  9
$HANDSEED
  5
431
  9
$SURFTAB1
 70
               6
  9
$SURFTAB2
 70
               6
  9
$SURFTYPE
 70
               6
  9
$SURFU
 70
               6
  9
$SURFV
 70
               6
  9
$UCSNAME
  2

  9
$UCSORG
 10
0.0
 20
0.0
 30
0.0
  9
$UCSXDIR
 10
1.0
 20
0.0
 30
0.0
  9
$UCSYDIR
 10
0.0
 20
1.0
 30
0.0
  9
$PUCSNAME
  2

  9
$PUCSORG
 10
0.0
 20
0.0
 30
0.0
  9
$PUCSXDIR
 10
1.0
 20
0.0
 30
0.0
  9
$PUCSYDIR
 10
0.0
 20
1.0
 30
0.0
  9
$USERI1
 70
               0
  9
$USERI2
 70
               0
  9
$USERI3
 70
               0
  9
$USERI4
 70
               0
  9
$USERI5
 70
               0
  9
$USERR1
 40
0.0
  9
$USERR2
 40
0.0
  9
$USERR3
 40
0.0
  9
$USERR4
 40
0.0
  9
$USERR5
 40
0.0
  9
$WORLDVIEW
 70
               1
  9
$SHADEDGE
 70
               3
  9
$SHADEDIF
 70
              70
  9
$TILEMODE
 70
               1
  9
$MAXACTVP
 70
              16
  9
$PINSBASE
 10
0.0
 20
0.0
 30
0.0
  9
$PLIMCHECK
 70
               0
  9
$PEXTMIN
 10
1.0000000000000000E+20
 20
1.0000000000000000E+20
 30
1.0000000000000000E+20
  9
$PEXTMAX
 10
-1.0000000000000000E+20
 20
-1.0000000000000000E+20
 30
-1.0000000000000000E+20
  9
$PLIMMIN
 10
0.0
 20
0.0
  9
$PLIMMAX
 10
12.0
 20
9.0
  9
$UNITMODE
 70
               0
  9
$VISRETAIN
 70
               0
  9
$PLINEGEN
 70
               1
  9
$PSLTSCALE
 70
               0
  9
$TREEDEPTH
 70
            3020
  9
$PICKSTYLE
 70
               1
  9
$CMLSTYLE
  2
STANDARD
  9
$CMLJUST
 70
               0
  9
$CMLSCALE
 40
1.0
  9
$PROXYGRAPHICS
 70
               0
  9
$MEASUREMENT
 70
               1
  0
ENDSEC
  0
SECTION
  2
CLASSES
  0
CLASS
  1
LWPOLYLINE
  2
AcDbPolyline
  3
"AutoCAD"
 90
        0
280
               0
281
               1
  0
CLASS
  1
IMAGE
  2
AcDbRasterImage
  3
ISM
 90
      127
280
               0
281
               1
  0
CLASS
  1
OLE2FRAME
  2
AcDbOle2Frame
  3
""
 90
        0
280
               0
281
               1
  0
CLASS
  1
HATCH
  2
AcDbHatch
  3
"ACAD_SEDONA"
 90
        0
280
               0
281
               1
  0
CLASS
  1
DICTIONARYVAR
  2
AcDbDictionaryVar
  3
"AutoCAD"
 90
        0
280
               0
281
               0
  0
CLASS
  1
RASTERVARIABLES
  2
AcDbRasterVariables
  3
ISM
 90
        0
280
               0
281
               0
  0
CLASS
  1
IMAGEDEF
  2
AcDbRasterImageDef
  3
ISM
 90
        0
280
               0
281
               0
  0
CLASS
  1
IMAGEDEF_REACTOR
  2
AcDbRasterImageDefReactor
  3
ISM
 90
        1
280
               0
281
               0
  0
CLASS
  1
IDBUFFER
  2
AcDbIdBuffer
  3
"Acad"
 90
        0
280
               0
281
               0
  0
CLASS
  1
SPATIAL_FILTER
  2
AcDbSpatialFilter
  3
"Acad"
 90
        0
280
               0
281
               0
  0
CLASS
  1
XRECORD
  2
AcDbXrecord
  3
"<Built In>"
 90
        0
280
               0
281
               0
  0
CLASS
  1
SORTENTSTABLE
  2
AcDbSortentsTable
  3
"AutoCAD"
 90
        0
280
               0
281
               0
  0
CLASS
  1
LAYER_INDEX
  2
AcDbLayerIndex
  3
"Acad"
 90
        0
280
               0
281
               0
  0
CLASS
  1
SPATIAL_INDEX
  2
AcDbSpatialIndex
  3
"Acad"
 90
        0
280
               0
281
               0
  0
CLASS
  1
OBJECT_PTR
  2
CAseDLPNTableRecord
  3
"ASE-LPNTableRecord"
 90
        1
280
               0
281
               0
  0
CLASS
  1
LAYOUT
  2
AcDbLayout
  3
"AutoCAD 2000"
 90
        1
280
               0
281
               0
  0
CLASS
  1
PLOTSETTINGS
  2
AcDbPlotSettings
  3
"AutoCAD 2000"
 90
        1
280
               0
281
               0
  0
CLASS
  1
ACDBDICTIONARYWDFLT
  2
AcDbDictionaryWithDefault
  3
"AutoCAD 2000"
 90
        1
280
               0
281
               0
  0
CLASS
  1
ACDBPLACEHOLDER
  2
AcDbPlaceHolder
  3
"AutoCAD 2000"
 90
        1
280
               0
281
               0
  0
ENDSEC
  0
SECTION
  2
TABLES
  0
TABLE
  2
VPORT
  5
7
100
AcDbSymbolTable
 70
               1
  0
VPORT
  5
15
100
AcDbSymbolTableRecord
100
AcDbViewportTableRecord
  2
*ACTIVE
 70
               0
 10
0.0
 20
0.0
 11
1.0
 21
1.0
 12
-0.3999999999998636
 22
-29.0
 13
0.0
 23
0.0
 14
1.0
 24
1.0
 15
0.0
 25
0.0
 16
0.0
 26
0.0
 36
1.0
 17
0.0
 27
0.0
 37
0.0
 40
2720.0
 41
0.688564
 42
50.0
 43
0.0
 44
0.0
 50
0.0
 51
0.0
 71
               0
 72
             100
 73
               1
 74
               1
 75
               0
 76
               0
 77
               0
 78
               0
  0
ENDTAB
  0
TABLE
  2
LTYPE
  5
4
100
AcDbSymbolTable
 70
              23
  0
LTYPE
  5
11
100
AcDbSymbolTableRecord
100
AcDbLinetypeTableRecord
  2
BYBLOCK
 70
              64
  3

 72
              65
 73
               0
 40
0.0
  0
LTYPE
  5
12
100
AcDbSymbolTableRecord
100
AcDbLinetypeTableRecord
  2
BYLAYER
 70
              64
  3

 72
              65
 73
               0
 40
0.0
  0
LTYPE
  5
13
100
AcDbSymbolTableRecord
100
AcDbLinetypeTableRecord
  2
CONTINUOUS
 70
              64
  3
Solid line
 72
              65
 73
               0
 40
0.0
  0
LTYPE
  5
36
100
AcDbSymbolTableRecord
100
AcDbLinetypeTableRecord
  2
STYLE_01
 70
               0
  3

 72
              65
 73
               2
 40
0.0375109361329834
 49
0.0236220472440945
 74
               0
 49
-0.0138888888888889
 74
               0
  0
LTYPE
  5
37
100
AcDbSymbolTableRecord
100
AcDbLinetypeTableRecord
  2
STYLE_02
 70
               0
  3

 72
              65
 73
               6
 40
0.6527777777777778
 49
0.4027777777777778
 74
               0
 49
-0.0555555555555555
 74
               0
 49
0.0416666666666667
 74
               0
 49
-0.0555555555555556
 74
               0
 49
0.0416666666666666
 74
               0
 49
-0.0555555555555556
 74
               0
  0
LTYPE
  5
38
100
AcDbSymbolTableRecord
100
AcDbLinetypeTableRecord
  2
STYLE_03
 70
               0
  3

 72
              65
 73
               4
 40
0.5277777777777778
 49
0.4027777777777778
 74
               0
 49
-0.0416666666666666
 74
               0
 49
0.0416666666666667
 74
               0
 49
-0.0416666666666667
 74
               0
  0
LTYPE
  5
39
100
AcDbSymbolTableRecord
100
AcDbLinetypeTableRecord
  2
STYLE_04
 70
               0
  3

 72
              65
 73
               2
 40
0.1388888888888889
 49
0.0694444444444444
 74
               0
 49
-0.0694444444444444
 74
               0
  0
LTYPE
  5
3A
100
AcDbSymbolTableRecord
100
AcDbLinetypeTableRecord
  2
STYLE_05
 70
               0
  3

 72
              65
 73
               2
 40
0.047244094488189
 49
0.0236220472440945
 74
               0
 49
-0.0236220472440945
 74
               0
  0
LTYPE
  5
3B
100
AcDbSymbolTableRecord
100
AcDbLinetypeTableRecord
  2
STYLE_06
 70
               0
  3

 72
              65
 73
               2
 40
0.047244094488189
 49
0.0236220472440945
 74
               0
 49
-0.0236220472440945
 74
               0
  0
LTYPE
  5
3C
100
AcDbSymbolTableRecord
100
AcDbLinetypeTableRecord
  2
STYLE_07
 70
               0
  3

 72
              65
 73
               2
 40
0.047244094488189
 49
0.0236220472440945
 74
               0
 49
-0.0236220472440945
 74
               0
  0
LTYPE
  5
3D
100
AcDbSymbolTableRecord
100
AcDbLinetypeTableRecord
  2
STYLE_08
 70
               0
  3

 72
              65
 73
               2
 40
0.047244094488189
 49
0.0236220472440945
 74
               0
 49
-0.0236220472440945
 74
               0
  0
LTYPE
  5
3E
100
AcDbSymbolTableRecord
100
AcDbLinetypeTableRecord
  2
STYLE_09
 70
               0
  3

 72
              65
 73
               6
 40
1.5157480314960627
 49
1.1811023622047243
 74
               0
 49
-0.0590551181102361
 74
               0
 49
0.078740157480315
 74
               0
 49
-0.0590551181102361
 74
               0
 49
0.078740157480315
 74
               0
 49
-0.0590551181102361
 74
               0
  0
LTYPE
  5
3F
100
AcDbSymbolTableRecord
100
AcDbLinetypeTableRecord
  2
STYLE_10
 70
               0
  3

 72
              65
 73
               6
 40
1.1875
 49
0.75
 74
               0
 49
-0.0555572509765625
 74
               0
 49
0.138885498046875
 74
               0
 49
-0.0555572509765625
 74
               0
 49
0.125
 74
               0
 49
-0.0625
 74
               0
  0
LTYPE
  5
40
100
AcDbSymbolTableRecord
100
AcDbLinetypeTableRecord
  2
STYLE_11
 70
               0
  3

 72
              65
 73
               4
 40
1.5
 49
0.0833282470703125
 74
               0
 49
-0.0555572509765625
 74
               0
 49
1.3055572509765625
 74
               0
 49
-0.0555572509765625
 74
               0
  0
LTYPE
  5
41
100
AcDbSymbolTableRecord
100
AcDbLinetypeTableRecord
  2
STYLE_12
 70
               0
  3

 72
              65
 73
               4
 40
1.111114501953125
 49
0.7916717529296875
 74
               0
 49
-0.0833282470703125
 74
               0
 49
0.125
 74
               0
 49
-0.111114501953125
 74
               0
  0
LTYPE
  5
42
100
AcDbSymbolTableRecord
100
AcDbLinetypeTableRecord
  2
STYLE_13
 70
               0
  3

 72
              65
 73
               4
 40
2.1944427490234375
 49
1.875
 74
               0
 49
-0.0833282470703125
 74
               0
 49
0.125
 74
               0
 49
-0.111114501953125
 74
               0
  0
LTYPE
  5
43
100
AcDbSymbolTableRecord
100
AcDbLinetypeTableRecord
  2
STYLE_14
 70
               0
  3

 72
              65
 73
               2
 40
0.138885498046875
 49
0.0972137451171875
 74
               0
 49
-0.0416717529296875
 74
               0
  0
LTYPE
  5
44
100
AcDbSymbolTableRecord
100
AcDbLinetypeTableRecord
  2
STYLE_15
 70
               0
  3

 72
              65
 73
               2
 40
0.25
 49
0.2083282470703125
 74
               0
 49
-0.0416717529296875
 74
               0
  0
LTYPE
  5
45
100
AcDbSymbolTableRecord
100
AcDbLinetypeTableRecord
  2
STYLE_16
 70
               0
  3

 72
              65
 73
               2
 40
0.078740157480315
 49
0.0393700787401575
 74
               0
 49
-0.0393700787401575
 74
               0
  0
LTYPE
  5
46
100
AcDbSymbolTableRecord
100
AcDbLinetypeTableRecord
  2
STYLE_17
 70
               0
  3

 72
              65
 73
               4
 40
0.5118110236220472
 49
0.3937007874015748
 74
               0
 49
-0.0393700787401575
 74
               0
 49
0.0393700787401575
 74
               0
 49
-0.0393700787401575
 74
               0
  0
LTYPE
  5
47
100
AcDbSymbolTableRecord
100
AcDbLinetypeTableRecord
  2
STYLE_18
 70
               0
  3

 72
              65
 73
               6
 40
0.5905511811023623
 49
0.3937007874015748
 74
               0
 49
-0.0393700787401575
 74
               0
 49
0.0393700787401575
 74
               0
 49
-0.0393700787401575
 74
               0
 49
0.0393700787401575
 74
               0
 49
-0.0393700787401575
 74
               0
  0
LTYPE
  5
48
100
AcDbSymbolTableRecord
100
AcDbLinetypeTableRecord
  2
STYLE_19
 70
               0
  3

 72
              65
 73
               4
 40
0.6111111111111112
 49
0.4027777777777778
 74
               0
 49
-0.0694444444444444
 74
               0
 49
0.0694444444444444
 74
               0
 49
-0.0694444444444445
 74
               0
  0
LTYPE
  5
49
100
AcDbSymbolTableRecord
100
AcDbLinetypeTableRecord
  2
STYLE_20
 70
               0
  3

 72
              65
 73
               6
 40
0.3937007874015747
 49
0.1968503937007874
 74
               0
 49
-0.0393700787401575
 74
               0
 49
0.0393700787401575
 74
               0
 49
-0.0393700787401575
 74
               0
 49
0.0393700787401575
 74
               0
 49
-0.0393700787401575
 74
               0
  0
ENDTAB
  0
TABLE
  2
LAYER
  5
2
100
AcDbSymbolTable
 70
               9
  0
LAYER
  5
14
100
AcDbSymbolTableRecord
100
AcDbLayerTableRecord
  2
0
 70
               0
 62
               7
  6
CONTINUOUS
  0
LAYER
  5
51
100
AcDbSymbolTableRecord
100
AcDbLayerTableRecord
  2
DEFPOINTS
 70
               0
 62
               7
  6
CONTINUOUS
  0
LAYER
  5
52
100
AcDbSymbolTableRecord
100
AcDbLayerTableRecord
  2
OBJECT
 70
               0
 62
               7
  6
CONTINUOUS
  0
LAYER
  5
53
100
AcDbSymbolTableRecord
100
AcDbLayerTableRecord
  2
DIMENTION
 70
               0
 62
               7
  6
CONTINUOUS
  0
LAYER
  5
54
100
AcDbSymbolTableRecord
100
AcDbLayerTableRecord
  2
CENTER
 70
               0
 62
               7
  6
STYLE_17
  0
LAYER
  5
55
100
AcDbSymbolTableRecord
100
AcDbLayerTableRecord
  2
HIDDEN
 70
               0
 62
               7
  6
STYLE_16
  0
LAYER
  5
56
100
AcDbSymbolTableRecord
100
AcDbLayerTableRecord
  2
FRAME
 70
               0
 62
               7
  6
CONTINUOUS
  0
LAYER
  5
57
100
AcDbSymbolTableRecord
100
AcDbLayerTableRecord
  2
OUTLINE
 70
               0
 62
               7
  6
STYLE_18
  0
LAYER
  5
58
100
AcDbSymbolTableRecord
100
AcDbLayerTableRecord
  2
TEXT
 70
               0
 62
               7
  6
CONTINUOUS
  0
ENDTAB
  0
TABLE
  2
STYLE
  5
3
100
AcDbSymbolTable
 70
               3
  0
STYLE
  5
17
100
AcDbSymbolTableRecord
100
AcDbTextStyleTableRecord
  2
STANDARD
 70
               0
 40
0.0
 41
1.0
 50
0.0
 71
               0
 42
0.0
  3
txt
  4
BIGFONT.SHX
  0
STYLE
  5
34
100
AcDbSymbolTableRecord
100
AcDbTextStyleTableRecord
  2
ARIAL
 70
               0
 40
0.0
 41
1.0
 50
0.0
 71
               0
 42
0.0
  3
Arial
  4

1001
ACAD
1000
Arial
1071
        0
  0
STYLE
  5
35
100
AcDbSymbolTableRecord
100
AcDbTextStyleTableRecord
  2
________
 70
               0
 40
0.0
 41
1.0
 50
0.0
 71
               0
 42
0.0
  3
ＭＳ Ｐゴシック
  4

1001
ACAD
1000
ＭＳ Ｐゴシック
1071
        0
  0
ENDTAB
  0
TABLE
  2
VIEW
  5
5
100
AcDbSymbolTable
 70
               0
  0
ENDTAB
  0
TABLE
  2
UCS
  5
6
100
AcDbSymbolTable
 70
               0
  0
ENDTAB
  0
TABLE
  2
APPID
  5
8
100
AcDbSymbolTable
 70
               1
  0
APPID
  5
16
100
AcDbSymbolTableRecord
100
AcDbRegAppTableRecord
  2
ACAD
 70
               0
  0
ENDTAB
  0
TABLE
  2
DIMSTYLE
  5
9
100
AcDbSymbolTable
 70
               2
  0
DIMSTYLE
105
18
100
AcDbSymbolTableRecord
100
AcDbDimStyleTableRecord
  2
STANDARD
 70
               0
  3

  4

  5

  6

  7

 40
1.0
 41
0.18
 42
0.0625
 43
0.38
 44
0.18
 45
0.0
 46
0.0
 47
0.0
 48
0.0
 71
               0
 72
               0
 73
               1
 74
               1
 75
               0
 76
               0
 77
               0
 78
               0
140
0.18
141
0.09
142
0.0
143
25.399999999999999
144
1.0
145
0.0
146
1.0
147
0.09
170
               0
171
               2
172
               0
173
               0
174
               0
175
               0
176
               0
177
               0
178
               0
270
               2
271
               4
272
               4
273
               2
274
               2
275
               0
280
               0
281
               0
282
               0
283
               1
284
               0
285
               0
286
               0
287
               0
288
               0
340
17
  0
DIMSTYLE
105
50
100
AcDbSymbolTableRecord
100
AcDbDimStyleTableRecord
  2
CAD
 70
               0
  3
<>
  4
[]
  5
VW_OPENARROW
  6

  7

 40
1.0
 41
31.75
 42
9.9999999999999982
 43
7.9999999999999991
 44
19.999999999999996
 45
0.0
 46
0.0
 47
0.0
 48
0.0
 71
               0
 72
               0
 73
               0
 74
               0
 75
               0
 76
               0
 77
               1
 78
              11
140
33.866666666666667
141
0.0
142
0.0
143
1.0
144
1.0
145
0.0
146
0.7
147
0.099999999627471
170
               0
171
               1
172
               1
173
               0
174
               1
175
               0
176
               0
177
               0
178
               0
270
               2
271
               4
272
               4
273
               2
274
               2
275
               0
280
               0
281
               0
282
               0
283
               1
284
              11
285
              11
286
              11
287
               0
288
               0
340
35
  0
ENDTAB
  0
TABLE
  2
BLOCK_RECORD
  5
1
100
AcDbSymbolTable
 70
              24
  0
BLOCK_RECORD
  5
A
100
AcDbSymbolTableRecord
100
AcDbBlockTableRecord
  2
*MODEL_SPACE
  0
BLOCK_RECORD
  5
B
100
AcDbSymbolTableRecord
100
AcDbBlockTableRecord
  2
*PAPER_SPACE
  0
BLOCK_RECORD
  5
4A
100
AcDbSymbolTableRecord
100
AcDbBlockTableRecord
  2
VW_OPENARROW
  0
BLOCK_RECORD
  5
1D
100
AcDbSymbolTableRecord
100
AcDbBlockTableRecord
  2
*U1
  0
BLOCK_RECORD
  5
1E
100
AcDbSymbolTableRecord
100
AcDbBlockTableRecord
  2
*U2
  0
BLOCK_RECORD
  5
1F
100
AcDbSymbolTableRecord
100
AcDbBlockTableRecord
  2
*U3
  0
BLOCK_RECORD
  5
20
100
AcDbSymbolTableRecord
100
AcDbBlockTableRecord
  2
*U4
  0
BLOCK_RECORD
  5
21
100
AcDbSymbolTableRecord
100
AcDbBlockTableRecord
  2
*U5
  0
BLOCK_RECORD
  5
22
100
AcDbSymbolTableRecord
100
AcDbBlockTableRecord
  2
*U6
  0
BLOCK_RECORD
  5
23
100
AcDbSymbolTableRecord
100
AcDbBlockTableRecord
  2
*U7
  0
BLOCK_RECORD
  5
24
100
AcDbSymbolTableRecord
100
AcDbBlockTableRecord
  2
*U8
  0
BLOCK_RECORD
  5
25
100
AcDbSymbolTableRecord
100
AcDbBlockTableRecord
  2
*U9
  0
BLOCK_RECORD
  5
26
100
AcDbSymbolTableRecord
100
AcDbBlockTableRecord
  2
*U10
  0
BLOCK_RECORD
  5
27
100
AcDbSymbolTableRecord
100
AcDbBlockTableRecord
  2
*U11
  0
BLOCK_RECORD
  5
28
100
AcDbSymbolTableRecord
100
AcDbBlockTableRecord
  2
*D12
  0
BLOCK_RECORD
  5
29
100
AcDbSymbolTableRecord
100
AcDbBlockTableRecord
  2
*D13
  0
BLOCK_RECORD
  5
2A
100
AcDbSymbolTableRecord
100
AcDbBlockTableRecord
  2
*D14
  0
BLOCK_RECORD
  5
2B
100
AcDbSymbolTableRecord
100
AcDbBlockTableRecord
  2
*D15
  0
BLOCK_RECORD
  5
2C
100
AcDbSymbolTableRecord
100
AcDbBlockTableRecord
  2
*D16
  0
BLOCK_RECORD
  5
2D
100
AcDbSymbolTableRecord
100
AcDbBlockTableRecord
  2
*D17
  0
BLOCK_RECORD
  5
2E
100
AcDbSymbolTableRecord
100
AcDbBlockTableRecord
  2
*D18
  0
BLOCK_RECORD
  5
2F
100
AcDbSymbolTableRecord
100
AcDbBlockTableRecord
  2
*D19
  0
BLOCK_RECORD
  5
30
100
AcDbSymbolTableRecord
100
AcDbBlockTableRecord
  2
*D20
  0
BLOCK_RECORD
  5
31
100
AcDbSymbolTableRecord
100
AcDbBlockTableRecord
  2
*D21
  0
BLOCK_RECORD
  5
32
100
AcDbSymbolTableRecord
100
AcDbBlockTableRecord
  2
*U22
  0
BLOCK_RECORD
  5
33
100
AcDbSymbolTableRecord
100
AcDbBlockTableRecord
  2
*D23
  0
ENDTAB
  0
ENDSEC
  0
SECTION
  2
BLOCKS
  0
BLOCK
  5
D
100
AcDbEntity
  8
0
100
AcDbBlockBegin
  2
*MODEL_SPACE
 70
               0
 10
0.0
 20
0.0
 30
0.0
  3
*MODEL_SPACE
  1

  0
ENDBLK
  5
E
100
AcDbEntity
  8
0
100
AcDbBlockEnd
  0
BLOCK
  5
F
100
AcDbEntity
 67
               1
  8
0
100
AcDbBlockBegin
  2
*PAPER_SPACE
 70
               0
 10
0.0
 20
0.0
 30
0.0
  3
*PAPER_SPACE
  1

  0
ENDBLK
  5
10
100
AcDbEntity
 67
               1
  8
0
100
AcDbBlockEnd
  0
BLOCK
  5
4B
100
AcDbEntity
  8
0
  6
BYBLOCK
 62
               0
100
AcDbBlockBegin
  2
VW_OPENARROW
 70
               0
 10
0.0
 20
0.0
 30
0.0
  3
VW_OPENARROW
  1

  0
LINE
  5
4C
100
AcDbEntity
  8
0
  6
BYBLOCK
 62
               0
100
AcDbLine
 10
0.0
 20
0.0
 30
0.0
 11
-1.0
 21
0.0
 31
0.0
  0
LINE
  5
4D
100
AcDbEntity
  8
0
  6
BYBLOCK
 62
               0
100
AcDbLine
 10
0.0
 20
0.0
 30
0.0
 11
-0.9921874999999999
 21
-0.2658558393652545
 31
0.0
  0
LINE
  5
4E
100
AcDbEntity
  8
0
  6
BYBLOCK
 62
               0
100
AcDbLine
 10
0.0
 20
0.0
 30
0.0
 11
-0.9921874999999999
 21
0.2658558393652548
 31
0.0
  0
ENDBLK
  5
4F
100
AcDbEntity
  8
0
100
AcDbBlockEnd
  0
BLOCK
  5
59
100
AcDbEntity
  8
FRAME
100
AcDbBlockBegin
  2
*U1
 70
               1
 10
0.0
 20
0.0
 30
0.0
  3
*U1
  1

  0
ENDBLK
  5
5A
100
AcDbEntity
  8
FRAME
100
AcDbBlockEnd
  0
BLOCK
  5
5B
100
AcDbEntity
  8
FRAME
100
AcDbBlockBegin
  2
*U2
 70
               1
 10
0.0
 20
0.0
 30
0.0
  3
*U2
  1

  0
ENDBLK
  5
5C
100
AcDbEntity
  8
FRAME
100
AcDbBlockEnd
  0
BLOCK
  5
5D
100
AcDbEntity
  8
FRAME
100
AcDbBlockBegin
  2
*U3
 70
               1
 10
0.0
 20
0.0
 30
0.0
  3
*U3
  1

  0
ENDBLK
  5
5E
100
AcDbEntity
  8
FRAME
100
AcDbBlockEnd
  0
BLOCK
  5
5F
100
AcDbEntity
  8
FRAME
100
AcDbBlockBegin
  2
*U4
 70
               1
 10
0.0
 20
0.0
 30
0.0
  3
*U4
  1

  0
ENDBLK
  5
60
100
AcDbEntity
  8
FRAME
100
AcDbBlockEnd
  0
BLOCK
  5
61
100
AcDbEntity
  8
FRAME
100
AcDbBlockBegin
  2
*U5
 70
               1
 10
0.0
 20
0.0
 30
0.0
  3
*U5
  1

  0
ENDBLK
  5
62
100
AcDbEntity
  8
FRAME
100
AcDbBlockEnd
  0
BLOCK
  5
63
100
AcDbEntity
  8
FRAME
100
AcDbBlockBegin
  2
*U6
 70
               1
 10
0.0
 20
0.0
 30
0.0
  3
*U6
  1

  0
INSERT
  5
64
100
AcDbEntity
  8
FRAME
 62
               0
100
AcDbBlockReference
  2
*U1
 10
0.0
 20
0.0
 30
0.0
  0
INSERT
  5
65
100
AcDbEntity
  8
FRAME
 62
               0
100
AcDbBlockReference
  2
*U2
 10
0.0
 20
0.0
 30
0.0
  0
INSERT
  5
66
100
AcDbEntity
  8
FRAME
 62
               0
100
AcDbBlockReference
  2
*U3
 10
0.0
 20
0.0
 30
0.0
  0
INSERT
  5
67
100
AcDbEntity
  8
FRAME
 62
               0
100
AcDbBlockReference
  2
*U4
 10
0.0
 20
0.0
 30
0.0
  0
INSERT
  5
68
100
AcDbEntity
  8
FRAME
 62
               0
100
AcDbBlockReference
  2
*U5
 10
0.0
 20
0.0
 30
0.0
  0
ENDBLK
  5
69
100
AcDbEntity
  8
FRAME
100
AcDbBlockEnd
  0
BLOCK
  5
6A
100
AcDbEntity
  8
OBJECT
100
AcDbBlockBegin
  2
*U7
 70
               1
 10
0.0
 20
0.0
 30
0.0
  3
*U7
  1

  0
LWPOLYLINE
  5
6B
100
AcDbEntity
  8
OBJECT
  6
CONTINUOUS
 62
               0
100
AcDbPolyline
 90
       10
 70
             129
 10
1000.0
 20
-970.56155764550954
 42
0.3441507314088954
 10
998.48507125007268
 20
-968.62127264521882
 10
980.0
 20
-964.0000048327006
 10
948.0
 20
-964.0000048327006
 42
0.414213562373095
 10
943.0
 20
-969.0000048327006
 10
943.0
 20
-989.0000048327006
 42
0.414213562373095
 10
948.0
 20
-994.0000048327006
 10
980.0
 20
-994.0000048327006
 10
998.48507125007268
 20
-989.37873702018237
 42
0.3441507314089503
 10
1000.0
 20
-987.43845201989166
  0
LWPOLYLINE
  5
6C
100
AcDbEntity
  8
OBJECT
  6
CONTINUOUS
 62
               0
100
AcDbPolyline
 90
        5
 70
             129
 10
953.0
 20
-979.0000048327006
 42
-0.414213562373095
 10
958.0
 20
-974.0000048327006
 42
-0.414213562373095
 10
963.0
 20
-979.0000048327006
 42
-0.414213562373095
 10
958.0
 20
-984.0000048327006
 42
-0.414213562373095
 10
953.0
 20
-979.0000048327006
 42
-0.414213562373095
  0
LWPOLYLINE
  5
6D
100
AcDbEntity
  8
OBJECT
  6
CONTINUOUS
 62
               0
100
AcDbPolyline
 90
        6
 70
             128
 10
996.0
 20
-969.0000048327006
 10
952.0
 20
-969.0000048327006
 42
0.414213562373095
 10
948.0
 20
-973.0000048327006
 10
948.0
 20
-985.0000048327006
 42
0.414213562373095
 10
952.0
 20
-989.0000048327006
 10
996.0
 20
-989.0000048327006
  0
ENDBLK
  5
6E
100
AcDbEntity
  8
OBJECT
100
AcDbBlockEnd
  0
BLOCK
  5
6F
100
AcDbEntity
  8
OBJECT
100
AcDbBlockBegin
  2
*U8
 70
               1
 10
0.0
 20
0.0
 30
0.0
  3
*U8
  1

  0
LWPOLYLINE
  5
70
100
AcDbEntity
  8
OBJECT
  6
CONTINUOUS
 62
               0
100
AcDbPolyline
 90
       10
 70
             129
 10
400.0
 20
-970.56155764550954
 42
-0.3441507314089503
 10
401.51492874992732
 20
-968.62127264521882
 10
420.0
 20
-964.0000048327006
 10
452.0
 20
-964.0000048327006
 42
-0.414213562373095
 10
457.0
 20
-969.0000048327006
 10
457.0
 20
-989.0000048327006
 42
-0.414213562373095
 10
452.0
 20
-994.0000048327006
 10
420.0
 20
-994.0000048327006
 10
401.51492874992732
 20
-989.37873702018237
 42
-0.3441507314089031
 10
400.0
 20
-987.43845201989166
  0
LWPOLYLINE
  5
71
100
AcDbEntity
  8
OBJECT
  6
CONTINUOUS
 62
               0
100
AcDbPolyline
 90
        5
 70
             129
 10
437.0
 20
-979.0000048327006
 42
-0.414213562373095
 10
442.0
 20
-974.0000048327006
 42
-0.414213562373095
 10
447.0
 20
-979.0000048327006
 42
-0.414213562373095
 10
442.0
 20
-984.0000048327006
 42
-0.414213562373095
 10
437.0
 20
-979.0000048327006
 42
-0.414213562373095
  0
LWPOLYLINE
  5
72
100
AcDbEntity
  8
OBJECT
  6
CONTINUOUS
 62
               0
100
AcDbPolyline
 90
        6
 70
             128
 10
404.0
 20
-969.0000048327006
 10
448.0
 20
-969.0000048327006
 42
-0.414213562373095
 10
452.0
 20
-973.0000048327006
 10
452.0
 20
-985.0000048327006
 42
-0.414213562373095
 10
448.0
 20
-989.0000048327006
 10
404.0
 20
-989.0000048327006
  0
ENDBLK
  5
73
100
AcDbEntity
  8
OBJECT
100
AcDbBlockEnd
  0
BLOCK
  5
74
100
AcDbEntity
  8
OBJECT
100
AcDbBlockBegin
  2
*U9
 70
               1
 10
0.0
 20
0.0
 30
0.0
  3
*U9
  1

  0
LWPOLYLINE
  5
75
100
AcDbEntity
  8
OBJECT
  6
CONTINUOUS
 62
               0
100
AcDbPolyline
 90
       10
 70
             129
 10
-555.0
 20
-970.56155764550954
 42
0.3441507314088954
 10
-556.51492874992732
 20
-968.62127264521882
 10
-575.0
 20
-964.0000048327006
 10
-650.0
 20
-964.0000048327006
 42
0.414213562373095
 10
-655.0
 20
-969.0000048327006
 10
-655.0
 20
-989.0000048327006
 42
0.414213562373095
 10
-650.0
 20
-994.0000048327006
 10
-575.0
 20
-994.0000048327006
 10
-556.51492874992732
 20
-989.37873702018237
 42
0.3441507314089778
 10
-555.0
 20
-987.43845201989166
  0
LWPOLYLINE
  5
76
100
AcDbEntity
  8
OBJECT
  6
CONTINUOUS
 62
               0
100
AcDbPolyline
 90
        5
 70
             129
 10
-595.0
 20
-979.0000048327006
 42
-0.414213562373095
 10
-590.0
 20
-974.0000048327006
 42
-0.414213562373095
 10
-585.0
 20
-979.0000048327006
 42
-0.414213562373095
 10
-590.0
 20
-984.0000048327006
 42
-0.414213562373095
 10
-595.0
 20
-979.0000048327006
 42
-0.414213562373095
  0
LWPOLYLINE
  5
77
100
AcDbEntity
  8
OBJECT
  6
CONTINUOUS
 62
               0
100
AcDbPolyline
 90
        5
 70
             129
 10
-645.0
 20
-979.0000048327006
 42
-0.414213562373095
 10
-640.0
 20
-974.0000048327006
 42
-0.414213562373095
 10
-635.0
 20
-979.0000048327006
 42
-0.414213562373095
 10
-640.0
 20
-984.0000048327006
 42
-0.414213562373095
 10
-645.0
 20
-979.0000048327006
 42
-0.414213562373095
  0
LWPOLYLINE
  5
78
100
AcDbEntity
  8
OBJECT
  6
CONTINUOUS
 62
               0
100
AcDbPolyline
 90
        6
 70
             128
 10
-559.0
 20
-969.0000048327006
 10
-646.0
 20
-969.0000048327006
 42
0.414213562373095
 10
-650.0
 20
-973.0000048327006
 10
-650.0
 20
-985.0000048327006
 42
0.414213562373095
 10
-646.0
 20
-989.0000048327006
 10
-559.0
 20
-989.0000048327006
  0
ENDBLK
  5
79
100
AcDbEntity
  8
OBJECT
100
AcDbBlockEnd
  0
BLOCK
  5
7A
100
AcDbEntity
  8
OBJECT
100
AcDbBlockBegin
  2
*U10
 70
               1
 10
0.0
 20
0.0
 30
0.0
  3
*U10
  1

  0
LWPOLYLINE
  5
7B
100
AcDbEntity
  8
OBJECT
  6
CONTINUOUS
 62
               0
100
AcDbPolyline
 90
       10
 70
             129
 10
-1235.0
 20
-970.56155764550954
 42
-0.3441507314088559
 10
-1233.4850712500727
 20
-968.62127264521882
 10
-1215.0
 20
-964.0000048327006
 10
-1183.0
 20
-964.0000048327006
 42
-0.414213562373095
 10
-1178.0
 20
-969.0000048327006
 10
-1178.0
 20
-989.0000048327006
 42
-0.414213562373095
 10
-1183.0
 20
-994.0000048327006
 10
-1215.0
 20
-994.0000048327006
 10
-1233.4850712500727
 20
-989.37873702018237
 42
-0.3441507314089108
 10
-1235.0
 20
-987.43845201989166
  0
LWPOLYLINE
  5
7C
100
AcDbEntity
  8
OBJECT
  6
CONTINUOUS
 62
               0
100
AcDbPolyline
 90
        5
 70
             129
 10
-1198.0
 20
-979.0000048327006
 42
-0.414213562373095
 10
-1193.0
 20
-974.0000048327006
 42
-0.414213562373095
 10
-1188.0
 20
-979.0000048327006
 42
-0.414213562373095
 10
-1193.0
 20
-984.0000048327006
 42
-0.414213562373095
 10
-1198.0
 20
-979.0000048327006
 42
-0.414213562373095
  0
LWPOLYLINE
  5
7D
100
AcDbEntity
  8
OBJECT
  6
CONTINUOUS
 62
               0
100
AcDbPolyline
 90
        6
 70
             128
 10
-1231.0
 20
-969.0000048327006
 10
-1187.0
 20
-969.0000048327006
 42
-0.414213562373095
 10
-1183.0
 20
-973.0000048327006
 10
-1183.0
 20
-985.0000048327006
 42
-0.414213562373095
 10
-1187.0
 20
-989.0000048327006
 10
-1231.0
 20
-989.0000048327006
  0
ENDBLK
  5
7E
100
AcDbEntity
  8
OBJECT
100
AcDbBlockEnd
  0
BLOCK
  5
7F
100
AcDbEntity
  8
OBJECT
100
AcDbBlockBegin
  2
*U11
 70
               1
 10
0.0
 20
0.0
 30
0.0
  3
*U11
  1

  0
LWPOLYLINE
  5
80
100
AcDbEntity
  8
OBJECT
  6
CONTINUOUS
 62
               0
100
AcDbPolyline
 90
        6
 70
             129
 10
849.0
 20
-646.0000048327006
 10
849.0
 20
-676.0000048327006
 10
824.0
 20
-676.0000048327006
 42
-0.414213562373095
 10
814.0
 20
-666.0000048327006
 10
814.0
 20
-656.0000048327006
 42
-0.414213562373095
 10
824.0
 20
-646.0000048327006
  0
LINE
  5
81
100
AcDbEntity
  8
OBJECT
  6
CONTINUOUS
 62
               0
100
AcDbLine
 10
849.0
 20
-671.0000048327006
 30
0.0
 11
869.0
 21
-671.0000048327006
 31
0.0
  0
LINE
  5
82
100
AcDbEntity
  8
OBJECT
  6
CONTINUOUS
 62
               0
100
AcDbLine
 10
849.0
 20
-651.0000048327006
 30
0.0
 11
869.0
 21
-651.0000048327006
 31
0.0
  0
ENDBLK
  5
83
100
AcDbEntity
  8
OBJECT
100
AcDbBlockEnd
  0
BLOCK
  5
84
100
AcDbEntity
  8
DIMENTION
100
AcDbBlockBegin
  2
*D12
 70
               1
 10
0.0
 20
0.0
 30
0.0
  3
*D12
  1

  0
LINE
  5
85
100
AcDbEntity
  8
DIMENTION
  6
CONTINUOUS
 62
               0
100
AcDbLine
 10
430.0
 20
-280.0000048327006
 30
0.0
 11
280.0
 21
-280.0000048327006
 31
0.0
  0
LINE
  5
86
100
AcDbEntity
  8
DIMENTION
  6
CONTINUOUS
 62
               0
100
AcDbLine
 10
300.0
 20
-280.0000048327006
 30
0.0
 11
300.0
 21
-1100.0000048327006
 31
0.0
  0
LINE
  5
87
100
AcDbEntity
  8
DIMENTION
  6
CONTINUOUS
 62
               0
100
AcDbLine
 10
300.0
 20
-280.0000048327006
 30
0.0
 11
308.50738685968815
 21
-311.7500048327006
 31
0.0
  0
LINE
  5
88
100
AcDbEntity
  8
DIMENTION
  6
CONTINUOUS
 62
               0
100
AcDbLine
 10
300.0
 20
-280.0000048327006
 30
0.0
 11
291.49261314031185
 21
-311.7500048327006
 31
0.0
  0
LINE
  5
89
100
AcDbEntity
  8
DIMENTION
  6
CONTINUOUS
 62
               0
100
AcDbLine
 10
300.0
 20
-1100.0000048327006
 30
0.0
 11
291.49261314031185
 21
-1068.2500048327006
 31
0.0
  0
LINE
  5
8A
100
AcDbEntity
  8
DIMENTION
  6
CONTINUOUS
 62
               0
100
AcDbLine
 10
300.0
 20
-1100.0000048327006
 30
0.0
 11
308.50738685968815
 21
-1068.2500048327006
 31
0.0
  0
MTEXT
  5
8B
100
AcDbEntity
  8
DIMENTION
 62
               0
100
AcDbMText
 10
256.66666666666663
 20
-721.7500048327006
 30
0.0
 40
33.866666666666667
 41
0.0
 71
               1
 72
               1
  1
820
  7
________
 11
0.0
 21
1.0
 31
0.0
  0
POINT
  5
8C
100
AcDbEntity
  8
DEFPOINTS
 62
               0
100
AcDbPoint
 10
335.0
 20
-1100.0000048327006
 30
0.0
  0
POINT
  5
8D
100
AcDbEntity
  8
DEFPOINTS
 62
               0
100
AcDbPoint
 10
440.0
 20
-280.0000048327006
 30
0.0
  0
POINT
  5
8E
100
AcDbEntity
  8
DEFPOINTS
 62
               0
100
AcDbPoint
 10
300.0
 20
-280.0000048327006
 30
0.0
  0
ENDBLK
  5
8F
100
AcDbEntity
  8
DIMENTION
100
AcDbBlockEnd
  0
BLOCK
  5
90
100
AcDbEntity
  8
DIMENTION
100
AcDbBlockBegin
  2
*D13
 70
               1
 10
0.0
 20
0.0
 30
0.0
  3
*D13
  1

  0
LINE
  5
91
100
AcDbEntity
  8
DIMENTION
  6
CONTINUOUS
 62
               0
100
AcDbLine
 10
405.0
 20
880.0
 30
0.0
 11
280.0
 21
880.0
 31
0.0
  0
LINE
  5
92
100
AcDbEntity
  8
DIMENTION
  6
CONTINUOUS
 62
               0
100
AcDbLine
 10
626.0
 20
195.0
 30
0.0
 11
280.0
 21
195.0
 31
0.0
  0
LINE
  5
93
100
AcDbEntity
  8
DIMENTION
  6
CONTINUOUS
 62
               0
100
AcDbLine
 10
300.0
 20
880.0
 30
0.0
 11
300.0
 21
195.0
 31
0.0
  0
LINE
  5
94
100
AcDbEntity
  8
DIMENTION
  6
CONTINUOUS
 62
               0
100
AcDbLine
 10
300.0
 20
880.0
 30
0.0
 11
308.50738685968815
 21
848.25
 31
0.0
  0
LINE
  5
95
100
AcDbEntity
  8
DIMENTION
  6
CONTINUOUS
 62
               0
100
AcDbLine
 10
300.0
 20
880.0
 30
0.0
 11
291.49261314031185
 21
848.25
 31
0.0
  0
LINE
  5
96
100
AcDbEntity
  8
DIMENTION
  6
CONTINUOUS
 62
               0
100
AcDbLine
 10
300.0
 20
195.0
 30
0.0
 11
291.49261314031185
 21
226.75
 31
0.0
  0
LINE
  5
97
100
AcDbEntity
  8
DIMENTION
  6
CONTINUOUS
 62
               0
100
AcDbLine
 10
300.0
 20
195.0
 30
0.0
 11
308.50738685968815
 21
226.75
 31
0.0
  0
MTEXT
  5
98
100
AcDbEntity
  8
DIMENTION
 62
               0
100
AcDbMText
 10
256.66666666666663
 20
505.75
 30
0.0
 40
33.866666666666667
 41
0.0
 71
               1
 72
               1
  1
685
  7
________
 11
0.0
 21
1.0
 31
0.0
  0
POINT
  5
99
100
AcDbEntity
  8
DEFPOINTS
 62
               0
100
AcDbPoint
 10
636.0
 20
195.0
 30
0.0
  0
POINT
  5
9A
100
AcDbEntity
  8
DEFPOINTS
 62
               0
100
AcDbPoint
 10
415.0
 20
880.0
 30
0.0
  0
POINT
  5
9B
100
AcDbEntity
  8
DEFPOINTS
 62
               0
100
AcDbPoint
 10
300.0
 20
880.0
 30
0.0
  0
ENDBLK
  5
9C
100
AcDbEntity
  8
DIMENTION
100
AcDbBlockEnd
  0
BLOCK
  5
9D
100
AcDbEntity
  8
DIMENTION
100
AcDbBlockBegin
  2
*D14
 70
               1
 10
0.0
 20
0.0
 30
0.0
  3
*D14
  1

  0
LINE
  5
9E
100
AcDbEntity
  8
DIMENTION
  6
CONTINUOUS
 62
               0
100
AcDbLine
 10
990.0
 20
220.0
 30
0.0
 11
1120.0
 21
220.0
 31
0.0
  0
LINE
  5
9F
100
AcDbEntity
  8
DIMENTION
  6
CONTINUOUS
 62
               0
100
AcDbLine
 10
990.0
 20
860.0
 30
0.0
 11
1120.0
 21
860.0
 31
0.0
  0
LINE
  5
A0
100
AcDbEntity
  8
DIMENTION
  6
CONTINUOUS
 62
               0
100
AcDbLine
 10
1100.0
 20
220.0
 30
0.0
 11
1100.0
 21
860.0
 31
0.0
  0
LINE
  5
A1
100
AcDbEntity
  8
DIMENTION
  6
CONTINUOUS
 62
               0
100
AcDbLine
 10
1100.0
 20
220.0
 30
0.0
 11
1091.492613140312
 21
251.75
 31
0.0
  0
LINE
  5
A2
100
AcDbEntity
  8
DIMENTION
  6
CONTINUOUS
 62
               0
100
AcDbLine
 10
1100.0
 20
220.0
 30
0.0
 11
1108.507386859688
 21
251.75
 31
0.0
  0
LINE
  5
A3
100
AcDbEntity
  8
DIMENTION
  6
CONTINUOUS
 62
               0
100
AcDbLine
 10
1100.0
 20
860.0
 30
0.0
 11
1108.507386859688
 21
828.25
 31
0.0
  0
LINE
  5
A4
100
AcDbEntity
  8
DIMENTION
  6
CONTINUOUS
 62
               0
100
AcDbLine
 10
1100.0
 20
860.0
 30
0.0
 11
1091.492613140312
 21
828.25
 31
0.0
  0
MTEXT
  5
A5
100
AcDbEntity
  8
DIMENTION
 62
               0
100
AcDbMText
 10
1056.6666666666665
 20
508.25
 30
0.0
 40
33.866666666666667
 41
0.0
 71
               1
 72
               1
  1
640
  7
________
 11
0.0
 21
1.0
 31
0.0
  0
POINT
  5
A6
100
AcDbEntity
  8
DEFPOINTS
 62
               0
100
AcDbPoint
 10
980.0
 20
860.0
 30
0.0
  0
POINT
  5
A7
100
AcDbEntity
  8
DEFPOINTS
 62
               0
100
AcDbPoint
 10
980.0
 20
220.0
 30
0.0
  0
POINT
  5
A8
100
AcDbEntity
  8
DEFPOINTS
 62
               0
100
AcDbPoint
 10
1100.0
 20
220.0
 30
0.0
  0
ENDBLK
  5
A9
100
AcDbEntity
  8
DIMENTION
100
AcDbBlockEnd
  0
BLOCK
  5
AA
100
AcDbEntity
  8
DIMENTION
100
AcDbBlockBegin
  2
*D15
 70
               1
 10
0.0
 20
0.0
 30
0.0
  3
*D15
  1

  0
LINE
  5
AB
100
AcDbEntity
  8
DIMENTION
  6
CONTINUOUS
 62
               0
100
AcDbLine
 10
400.0
 20
197.5
 30
0.0
 11
400.0
 21
80.0
 31
0.0
  0
LINE
  5
AC
100
AcDbEntity
  8
DIMENTION
  6
CONTINUOUS
 62
               0
100
AcDbLine
 10
1000.0
 20
197.5
 30
0.0
 11
1000.0
 21
80.0
 31
0.0
  0
LINE
  5
AD
100
AcDbEntity
  8
DIMENTION
  6
CONTINUOUS
 62
               0
100
AcDbLine
 10
400.0
 20
100.0
 30
0.0
 11
1000.0
 21
100.0
 31
0.0
  0
LINE
  5
AE
100
AcDbEntity
  8
DIMENTION
  6
CONTINUOUS
 62
               0
100
AcDbLine
 10
400.0
 20
100.0
 30
0.0
 11
431.75
 21
108.50738685968814
 31
0.0
  0
LINE
  5
AF
100
AcDbEntity
  8
DIMENTION
  6
CONTINUOUS
 62
               0
100
AcDbLine
 10
400.0
 20
100.0
 30
0.0
 11
431.75
 21
91.49261314031186
 31
0.0
  0
LINE
  5
B0
100
AcDbEntity
  8
DIMENTION
  6
CONTINUOUS
 62
               0
100
AcDbLine
 10
1000.0
 20
100.0
 30
0.0
 11
968.25
 21
91.49261314031186
 31
0.0
  0
LINE
  5
B1
100
AcDbEntity
  8
DIMENTION
  6
CONTINUOUS
 62
               0
100
AcDbLine
 10
1000.0
 20
100.0
 30
0.0
 11
968.25
 21
108.50738685968815
 31
0.0
  0
MTEXT
  5
B2
100
AcDbEntity
  8
DIMENTION
 62
               0
100
AcDbMText
 10
668.25
 20
143.33333333333331
 30
0.0
 40
33.866666666666667
 41
0.0
 71
               1
 72
               1
  1
600
  7
________
  0
POINT
  5
B3
100
AcDbEntity
  8
DEFPOINTS
 62
               0
100
AcDbPoint
 10
1000.0
 20
207.5
 30
0.0
  0
POINT
  5
B4
100
AcDbEntity
  8
DEFPOINTS
 62
               0
100
AcDbPoint
 10
400.0
 20
207.5
 30
0.0
  0
POINT
  5
B5
100
AcDbEntity
  8
DEFPOINTS
 62
               0
100
AcDbPoint
 10
400.0
 20
100.0
 30
0.0
  0
ENDBLK
  5
B6
100
AcDbEntity
  8
DIMENTION
100
AcDbBlockEnd
  0
BLOCK
  5
B7
100
AcDbEntity
  8
DIMENTION
100
AcDbBlockBegin
  2
*D16
 70
               1
 10
0.0
 20
0.0
 30
0.0
  3
*D16
  1

  0
LINE
  5
B8
100
AcDbEntity
  8
DIMENTION
  6
CONTINUOUS
 62
               0
100
AcDbLine
 10
410.0
 20
-280.0000048327006
 30
0.0
 11
280.0
 21
-280.0000048327006
 31
0.0
  0
LINE
  5
B9
100
AcDbEntity
  8
DIMENTION
  6
CONTINUOUS
 62
               0
100
AcDbLine
 10
418.0
 20
-230.0000048327006
 30
0.0
 11
280.0
 21
-230.0000048327006
 31
0.0
  0
LINE
  5
BA
100
AcDbEntity
  8
DIMENTION
  6
CONTINUOUS
 62
               0
100
AcDbLine
 10
300.0
 20
-230.0000048327006
 30
0.0
 11
300.0
 21
-280.0000048327006
 31
0.0
  0
LINE
  5
BB
100
AcDbEntity
  8
DIMENTION
  6
CONTINUOUS
 62
               0
100
AcDbLine
 10
300.0
 20
-280.0000048327006
 30
0.0
 11
300.0
 21
-340.0000048327006
 31
0.0
  0
LINE
  5
BC
100
AcDbEntity
  8
DIMENTION
  6
CONTINUOUS
 62
               0
100
AcDbLine
 10
300.0
 20
-280.0000048327006
 30
0.0
 11
308.50738685968815
 21
-311.7500048327006
 31
0.0
  0
LINE
  5
BD
100
AcDbEntity
  8
DIMENTION
  6
CONTINUOUS
 62
               0
100
AcDbLine
 10
300.0
 20
-280.0000048327006
 30
0.0
 11
291.49261314031185
 21
-311.7500048327006
 31
0.0
  0
LINE
  5
BE
100
AcDbEntity
  8
DIMENTION
  6
CONTINUOUS
 62
               0
100
AcDbLine
 10
300.0
 20
-230.0000048327006
 30
0.0
 11
300.0
 21
-170.0000048327006
 31
0.0
  0
LINE
  5
BF
100
AcDbEntity
  8
DIMENTION
  6
CONTINUOUS
 62
               0
100
AcDbLine
 10
300.0
 20
-230.0000048327006
 30
0.0
 11
291.49261314031185
 21
-198.2500048327006
 31
0.0
  0
LINE
  5
C0
100
AcDbEntity
  8
DIMENTION
  6
CONTINUOUS
 62
               0
100
AcDbLine
 10
300.0
 20
-230.0000048327006
 30
0.0
 11
308.50738685968815
 21
-198.2500048327006
 31
0.0
  0
MTEXT
  5
C1
100
AcDbEntity
  8
DIMENTION
 62
               0
100
AcDbMText
 10
256.66666666666663
 20
-276.16667149936728
 30
0.0
 40
33.866666666666667
 41
0.0
 71
               1
 72
               1
  1
50
  7
________
 11
0.0
 21
1.0
 31
0.0
  0
POINT
  5
C2
100
AcDbEntity
  8
DEFPOINTS
 62
               0
100
AcDbPoint
 10
428.0
 20
-230.0000048327006
 30
0.0
  0
POINT
  5
C3
100
AcDbEntity
  8
DEFPOINTS
 62
               0
100
AcDbPoint
 10
420.0
 20
-280.0000048327006
 30
0.0
  0
POINT
  5
C4
100
AcDbEntity
  8
DEFPOINTS
 62
               0
100
AcDbPoint
 10
300.0
 20
-280.0000048327006
 30
0.0
  0
ENDBLK
  5
C5
100
AcDbEntity
  8
DIMENTION
100
AcDbBlockEnd
  0
BLOCK
  5
C6
100
AcDbEntity
  8
DIMENTION
100
AcDbBlockBegin
  2
*D17
 70
               1
 10
0.0
 20
0.0
 30
0.0
  3
*D17
  1

  0
LINE
  5
C7
100
AcDbEntity
  8
DIMENTION
  6
CONTINUOUS
 62
               0
100
AcDbLine
 10
420.0
 20
-260.5000048327006
 30
0.0
 11
420.0
 21
-130.0
 31
0.0
  0
LINE
  5
C8
100
AcDbEntity
  8
DIMENTION
  6
CONTINUOUS
 62
               0
100
AcDbLine
 10
980.0
 20
-260.5000048327006
 30
0.0
 11
980.0
 21
-130.0
 31
0.0
  0
LINE
  5
C9
100
AcDbEntity
  8
DIMENTION
  6
CONTINUOUS
 62
               0
100
AcDbLine
 10
420.0
 20
-150.0
 30
0.0
 11
980.0
 21
-150.0
 31
0.0
  0
LINE
  5
CA
100
AcDbEntity
  8
DIMENTION
  6
CONTINUOUS
 62
               0
100
AcDbLine
 10
420.0
 20
-150.0
 30
0.0
 11
451.75
 21
-141.49261314031185
 31
0.0
  0
LINE
  5
CB
100
AcDbEntity
  8
DIMENTION
  6
CONTINUOUS
 62
               0
100
AcDbLine
 10
420.0
 20
-150.0
 30
0.0
 11
451.75
 21
-158.50738685968815
 31
0.0
  0
LINE
  5
CC
100
AcDbEntity
  8
DIMENTION
  6
CONTINUOUS
 62
               0
100
AcDbLine
 10
980.0
 20
-150.0
 30
0.0
 11
948.25
 21
-158.50738685968815
 31
0.0
  0
LINE
  5
CD
100
AcDbEntity
  8
DIMENTION
  6
CONTINUOUS
 62
               0
100
AcDbLine
 10
980.0
 20
-150.0
 30
0.0
 11
948.25
 21
-141.49261314031185
 31
0.0
  0
MTEXT
  5
CE
100
AcDbEntity
  8
DIMENTION
 62
               0
100
AcDbMText
 10
668.25
 20
-106.66666666666667
 30
0.0
 40
33.866666666666667
 41
0.0
 71
               1
 72
               1
  1
560
  7
________
  0
POINT
  5
CF
100
AcDbEntity
  8
DEFPOINTS
 62
               0
100
AcDbPoint
 10
980.0
 20
-270.5000048327006
 30
0.0
  0
POINT
  5
D0
100
AcDbEntity
  8
DEFPOINTS
 62
               0
100
AcDbPoint
 10
420.0
 20
-270.5000048327006
 30
0.0
  0
POINT
  5
D1
100
AcDbEntity
  8
DEFPOINTS
 62
               0
100
AcDbPoint
 10
420.0
 20
-150.0
 30
0.0
  0
ENDBLK
  5
D2
100
AcDbEntity
  8
DIMENTION
100
AcDbBlockEnd
  0
BLOCK
  5
D3
100
AcDbEntity
  8
DIMENTION
100
AcDbBlockBegin
  2
*D18
 70
               1
 10
0.0
 20
0.0
 30
0.0
  3
*D18
  1

  0
LINE
  5
D4
100
AcDbEntity
  8
DIMENTION
 62
               0
100
AcDbLine
 10
-997.35119199014525
 20
344.25139876294418
 30
0.0
 11
-1370.0
 21
344.25139876294418
 31
0.0
  0
LINE
  5
D5
100
AcDbEntity
  8
DIMENTION
 62
               0
100
AcDbLine
 10
-1350.0
 20
344.25139876294418
 30
0.0
 11
-1350.0
 21
-1100.0000048327006
 31
0.0
  0
LINE
  5
D6
100
AcDbEntity
  8
DIMENTION
 62
               0
100
AcDbLine
 10
-1350.0
 20
344.25139876294418
 30
0.0
 11
-1341.492613140312
 21
312.50139876294418
 31
0.0
  0
LINE
  5
D7
100
AcDbEntity
  8
DIMENTION
 62
               0
100
AcDbLine
 10
-1350.0
 20
344.25139876294418
 30
0.0
 11
-1358.507386859688
 21
312.50139876294418
 31
0.0
  0
LINE
  5
D8
100
AcDbEntity
  8
DIMENTION
 62
               0
100
AcDbLine
 10
-1350.0
 20
-1100.0000048327006
 30
0.0
 11
-1358.507386859688
 21
-1068.2500048327006
 31
0.0
  0
LINE
  5
D9
100
AcDbEntity
  8
DIMENTION
 62
               0
100
AcDbLine
 10
-1350.0
 20
-1100.0000048327006
 30
0.0
 11
-1341.492613140312
 21
-1068.2500048327006
 31
0.0
  0
MTEXT
  5
DA
100
AcDbEntity
  8
DIMENTION
 62
               0
100
AcDbMText
 10
-1393.333333329608
 20
-420.20763636821158
 30
0.0
 40
33.866666666666667
 41
0.0
 71
               1
 72
               1
  1
1450
  7
________
 11
0.0
 21
1.0
 31
0.0
  0
POINT
  5
DB
100
AcDbEntity
  8
DEFPOINTS
 62
               0
100
AcDbPoint
 10
-1400.0
 20
-1100.0000048327006
 30
0.0
  0
POINT
  5
DC
100
AcDbEntity
  8
DEFPOINTS
 62
               0
100
AcDbPoint
 10
-987.35119199014525
 20
344.25139876294418
 30
0.0
  0
POINT
  5
DD
100
AcDbEntity
  8
DEFPOINTS
 62
               0
100
AcDbPoint
 10
-1350.0
 20
344.25139876294418
 30
0.0
  0
ENDBLK
  5
DE
100
AcDbEntity
  8
DIMENTION
100
AcDbBlockEnd
  0
BLOCK
  5
DF
100
AcDbEntity
  8
DIMENTION
100
AcDbBlockBegin
  2
*D19
 70
               1
 10
0.0
 20
0.0
 30
0.0
  3
*D19
  1

  0
LINE
  5
E0
100
AcDbEntity
  8
DIMENTION
 62
               0
100
AcDbLine
 10
990.0
 20
860.0
 30
0.0
 11
1120.0
 21
860.0
 31
0.0
  0
LINE
  5
E1
100
AcDbEntity
  8
DIMENTION
 62
               0
100
AcDbLine
 10
995.0
 20
880.0
 30
0.0
 11
1120.0
 21
880.0
 31
0.0
  0
LINE
  5
E2
100
AcDbEntity
  8
DIMENTION
 62
               0
100
AcDbLine
 10
1100.0
 20
880.0
 30
0.0
 11
1100.0
 21
860.0
 31
0.0
  0
LINE
  5
E3
100
AcDbEntity
  8
DIMENTION
 62
               0
100
AcDbLine
 10
1100.0
 20
860.0
 30
0.0
 11
1100.0
 21
800.0
 31
0.0
  0
LINE
  5
E4
100
AcDbEntity
  8
DIMENTION
 62
               0
100
AcDbLine
 10
1100.0
 20
860.0
 30
0.0
 11
1108.507386859688
 21
828.25
 31
0.0
  0
LINE
  5
E5
100
AcDbEntity
  8
DIMENTION
 62
               0
100
AcDbLine
 10
1100.0
 20
860.0
 30
0.0
 11
1091.492613140312
 21
828.25
 31
0.0
  0
LINE
  5
E6
100
AcDbEntity
  8
DIMENTION
 62
               0
100
AcDbLine
 10
1100.0
 20
880.0
 30
0.0
 11
1100.0
 21
957.33333333333337
 31
0.0
  0
LINE
  5
E7
100
AcDbEntity
  8
DIMENTION
 62
               0
100
AcDbLine
 10
1100.0
 20
880.0
 30
0.0
 11
1091.492613140312
 21
911.75
 31
0.0
  0
LINE
  5
E8
100
AcDbEntity
  8
DIMENTION
 62
               0
100
AcDbLine
 10
1100.0
 20
880.0
 30
0.0
 11
1108.507386859688
 21
911.75
 31
0.0
  0
MTEXT
  5
E9
100
AcDbEntity
  8
DIMENTION
 62
               0
100
AcDbMText
 10
1056.6666666703918
 20
915.0
 30
0.0
 40
33.866666666666667
 41
0.0
 71
               1
 72
               1
  1
20
  7
________
 11
0.0
 21
1.0
 31
0.0
  0
POINT
  5
EA
100
AcDbEntity
  8
DEFPOINTS
 62
               0
100
AcDbPoint
 10
985.0
 20
880.0
 30
0.0
  0
POINT
  5
EB
100
AcDbEntity
  8
DEFPOINTS
 62
               0
100
AcDbPoint
 10
980.0
 20
860.0
 30
0.0
  0
POINT
  5
EC
100
AcDbEntity
  8
DEFPOINTS
 62
               0
100
AcDbPoint
 10
1100.0
 20
860.0
 30
0.0
  0
ENDBLK
  5
ED
100
AcDbEntity
  8
DIMENTION
100
AcDbBlockEnd
  0
BLOCK
  5
EE
100
AcDbEntity
  8
DIMENTION
100
AcDbBlockBegin
  2
*D20
 70
               1
 10
0.0
 20
0.0
 30
0.0
  3
*D20
  1

  0
LINE
  5
EF
100
AcDbEntity
  8
DIMENTION
 62
               0
100
AcDbLine
 10
420.0
 20
870.0
 30
0.0
 11
420.0
 21
1020.0
 31
0.0
  0
LINE
  5
F0
100
AcDbEntity
  8
DIMENTION
 62
               0
100
AcDbLine
 10
980.0
 20
870.0
 30
0.0
 11
980.0
 21
1020.0
 31
0.0
  0
LINE
  5
F1
100
AcDbEntity
  8
DIMENTION
 62
               0
100
AcDbLine
 10
420.0
 20
1000.0
 30
0.0
 11
980.0
 21
1000.0
 31
0.0
  0
LINE
  5
F2
100
AcDbEntity
  8
DIMENTION
 62
               0
100
AcDbLine
 10
420.0
 20
1000.0
 30
0.0
 11
451.75
 21
1008.5073868596882
 31
0.0
  0
LINE
  5
F3
100
AcDbEntity
  8
DIMENTION
 62
               0
100
AcDbLine
 10
420.0
 20
1000.0
 30
0.0
 11
451.75
 21
991.49261314031185
 31
0.0
  0
LINE
  5
F4
100
AcDbEntity
  8
DIMENTION
 62
               0
100
AcDbLine
 10
980.0
 20
1000.0
 30
0.0
 11
948.25
 21
991.49261314031185
 31
0.0
  0
LINE
  5
F5
100
AcDbEntity
  8
DIMENTION
 62
               0
100
AcDbLine
 10
980.0
 20
1000.0
 30
0.0
 11
948.25
 21
1008.5073868596882
 31
0.0
  0
MTEXT
  5
F6
100
AcDbEntity
  8
DIMENTION
 62
               0
100
AcDbMText
 10
668.25
 20
1043.333333329608
 30
0.0
 40
33.866666666666667
 41
0.0
 71
               1
 72
               1
  1
560
  7
________
  0
POINT
  5
F7
100
AcDbEntity
  8
DEFPOINTS
 62
               0
100
AcDbPoint
 10
980.0
 20
860.0
 30
0.0
  0
POINT
  5
F8
100
AcDbEntity
  8
DEFPOINTS
 62
               0
100
AcDbPoint
 10
420.0
 20
860.0
 30
0.0
  0
POINT
  5
F9
100
AcDbEntity
  8
DEFPOINTS
 62
               0
100
AcDbPoint
 10
420.0
 20
1000.0
 30
0.0
  0
ENDBLK
  5
FA
100
AcDbEntity
  8
DIMENTION
100
AcDbBlockEnd
  0
BLOCK
  5
FB
100
AcDbEntity
  8
DIMENTION
100
AcDbBlockBegin
  2
*D21
 70
               1
 10
0.0
 20
0.0
 30
0.0
  3
*D21
  1

  0
LINE
  5
FC
100
AcDbEntity
  8
DIMENTION
 62
               0
100
AcDbLine
 10
1000.0
 20
875.0
 30
0.0
 11
1000.0
 21
1020.0
 31
0.0
  0
LINE
  5
FD
100
AcDbEntity
  8
DIMENTION
 62
               0
100
AcDbLine
 10
980.0
 20
870.0
 30
0.0
 11
980.0
 21
1020.0
 31
0.0
  0
LINE
  5
FE
100
AcDbEntity
  8
DIMENTION
 62
               0
100
AcDbLine
 10
980.0
 20
1000.0
 30
0.0
 11
1000.0
 21
1000.0
 31
0.0
  0
LINE
  5
FF
100
AcDbEntity
  8
DIMENTION
 62
               0
100
AcDbLine
 10
1000.0
 20
1000.0
 30
0.0
 11
1077.3333333333333
 21
1000.0
 31
0.0
  0
LINE
  5
100
100
AcDbEntity
  8
DIMENTION
 62
               0
100
AcDbLine
 10
1000.0
 20
1000.0
 30
0.0
 11
1031.75
 21
1008.5073868596882
 31
0.0
  0
LINE
  5
101
100
AcDbEntity
  8
DIMENTION
 62
               0
100
AcDbLine
 10
1000.0
 20
1000.0
 30
0.0
 11
1031.75
 21
991.49261314031185
 31
0.0
  0
LINE
  5
102
100
AcDbEntity
  8
DIMENTION
 62
               0
100
AcDbLine
 10
980.0
 20
1000.0
 30
0.0
 11
920.0
 21
1000.0
 31
0.0
  0
LINE
  5
103
100
AcDbEntity
  8
DIMENTION
 62
               0
100
AcDbLine
 10
980.0
 20
1000.0
 30
0.0
 11
948.25
 21
991.49261314031185
 31
0.0
  0
LINE
  5
104
100
AcDbEntity
  8
DIMENTION
 62
               0
100
AcDbLine
 10
980.0
 20
1000.0
 30
0.0
 11
948.25
 21
1008.5073868596882
 31
0.0
  0
MTEXT
  5
105
100
AcDbEntity
  8
DIMENTION
 62
               0
100
AcDbMText
 10
1035.0
 20
1043.333333329608
 30
0.0
 40
33.866666666666667
 41
0.0
 71
               1
 72
               1
  1
20
  7
________
  0
POINT
  5
106
100
AcDbEntity
  8
DEFPOINTS
 62
               0
100
AcDbPoint
 10
980.0
 20
860.0
 30
0.0
  0
POINT
  5
107
100
AcDbEntity
  8
DEFPOINTS
 62
               0
100
AcDbPoint
 10
1000.0
 20
865.0
 30
0.0
  0
POINT
  5
108
100
AcDbEntity
  8
DEFPOINTS
 62
               0
100
AcDbPoint
 10
1000.0
 20
1000.0
 30
0.0
  0
ENDBLK
  5
109
100
AcDbEntity
  8
DIMENTION
100
AcDbBlockEnd
  0
BLOCK
  5
10A
100
AcDbEntity
  8
OBJECT
100
AcDbBlockBegin
  2
*U22
 70
               1
 10
0.0
 20
0.0
 30
0.0
  3
*U22
  1

  0
LINE
  5
10B
100
AcDbEntity
  8
OUTLINE
  6
STYLE_20
 62
               0
100
AcDbLine
 10
-1195.2798000000003
 20
-257.81940483270046
 30
0.0
 11
-965.70679999999993
 21
285.68409516729935
 31
0.0
  0
LINE
  5
10C
100
AcDbEntity
  8
OUTLINE
  6
STYLE_20
 62
               0
100
AcDbLine
 10
-1256.2803000000004
 20
-281.44590483270076
 30
0.0
 11
-1011.1428999999998
 21
298.90559516729945
 31
0.0
  0
LINE
  5
10D
100
AcDbEntity
  8
OUTLINE
  6
STYLE_20
 62
               0
100
AcDbLine
 10
-974.91870000000017
 20
289.5751951672994
 30
0.0
 11
-1204.4917999999998
 21
-253.92840483270038
 31
0.0
  0
LINE
  5
10E
100
AcDbEntity
  8
OUTLINE
  6
STYLE_20
 62
               0
100
AcDbLine
 10
-974.91870000000017
 20
289.5751951672994
 30
0.0
 11
-965.70679999999993
 21
285.68409516729935
 31
0.0
  0
LINE
  5
10F
100
AcDbEntity
  8
OUTLINE
  6
STYLE_20
 62
               0
100
AcDbLine
 10
-1204.4917999999998
 20
-253.92840483270038
 30
0.0
 11
-1195.2798000000003
 21
-257.81940483270046
 31
0.0
  0
LINE
  5
110
100
AcDbEntity
  8
OUTLINE
  6
STYLE_20
 62
               0
100
AcDbLine
 10
-1007.2120999999997
 20
300.50179516729941
 30
0.0
 11
-975.89170000000013
 21
287.27209516729931
 31
0.0
  0
LINE
  5
111
100
AcDbEntity
  8
OUTLINE
  6
STYLE_20
 62
               0
100
AcDbLine
 10
-1234.8395
 20
-238.39600483270078
 30
0.0
 11
-1203.5189
 21
-251.62560483270045
 31
0.0
  0
LINE
  5
112
100
AcDbEntity
  8
OUTLINE
  6
STYLE_20
 62
               0
100
AcDbLine
 10
-979.87855762389108
 20
321.52273491755773
 30
0.0
 11
-985.40565109407589
 21
323.85735909947857
 31
0.0
  0
ARC
  5
113
100
AcDbEntity
  8
OUTLINE
  6
STYLE_20
 62
               0
100
AcDbCircle
 10
-981.82409851996181
 20
316.91677458102333
 30
0.0
 40
5.000000000001334
100
AcDbArc
 50
337.10101465854268
 51
67.100980914628906
  0
LINE
  5
114
100
AcDbEntity
  8
OUTLINE
  6
STYLE_20
 62
               0
100
AcDbLine
 10
-986.94579999999951
 20
291.94149516729931
 30
0.0
 11
-977.21813703761654
 21
314.97123639759826
 31
0.0
  0
LINE
  5
115
100
AcDbEntity
  8
OUTLINE
  6
STYLE_20
 62
               0
100
AcDbLine
 10
-991.95714749841045
 20
321.19695108963208
 30
0.0
 11
-1001.6849000000002
 21
298.16719516729927
 31
0.0
  0
ARC
  5
116
100
AcDbEntity
  8
OUTLINE
  6
STYLE_20
 62
               0
100
AcDbCircle
 10
-987.35119199014525
 20
319.2513987629427
 30
0.0
 40
5.000000000002002
100
AcDbArc
 50
67.100980914649881
 51
157.10083872352939
  0
ARC
  5
117
100
AcDbEntity
  8
OUTLINE
  6
STYLE_20
 62
               0
100
AcDbCircle
 10
-1008.3792999999996
 20
297.73819516729941
 30
0.0
 40
2.9999734665492745
100
AcDbArc
 50
67.103348838660295
 51
157.09983014288605
  0
ARC
  5
118
100
AcDbEntity
  8
OUTLINE
  6
STYLE_20
 62
               0
100
AcDbCircle
 10
-1233.6722
 20
-235.63230483270036
 30
0.0
 40
3.0000512862284219
100
AcDbArc
 50
157.09983014288679
 51
247.1023325652645
  0
LINE
  5
119
100
AcDbEntity
  8
OUTLINE
  6
STYLE_20
 62
               0
100
AcDbLine
 10
-1021.4940999999999
 20
282.10949516729943
 30
0.0
 11
-1215.6584000000003
 21
-177.56550483270075
 31
0.0
  0
ARC
  5
11A
100
AcDbEntity
  8
OUTLINE
  6
STYLE_20
 62
               0
100
AcDbCircle
 10
-1018.7304999999997
 20
280.94219516729936
 30
0.0
 40
3.0000655876162994
100
AcDbArc
 50
67.104091891585469
 51
157.1015894679534
  0
ARC
  5
11B
100
AcDbEntity
  8
OUTLINE
  6
STYLE_20
 62
               0
100
AcDbCircle
 10
-1212.8946999999998
 20
-178.73290483270057
 30
0.0
 40
3.0001434049061597
100
AcDbArc
 50
157.10057328458228
 51
247.09908695555751
  0
LINE
  5
11C
100
AcDbEntity
  8
OUTLINE
  6
STYLE_20
 62
               0
100
AcDbLine
 10
-1258.9007000000001
 20
-282.51000483270036
 30
0.0
 11
-1219.7955000000002
 21
-189.93010483270064
 31
0.0
  0
LINE
  5
11D
100
AcDbEntity
  8
OUTLINE
  6
STYLE_20
 62
               0
100
AcDbLine
 10
-1213.7622000000001
 20
-301.57620483270057
 30
0.0
 11
-1258.9007000000001
 21
-282.51000483270036
 31
0.0
  0
LINE
  5
11E
100
AcDbEntity
  8
OUTLINE
  6
STYLE_20
 62
               0
100
AcDbLine
 10
-1212.9840999999997
 20
-299.73390483270077
 30
0.0
 11
-1213.7622000000001
 21
-301.57620483270057
 31
0.0
  0
LINE
  5
11F
100
AcDbEntity
  8
OUTLINE
  6
STYLE_20
 62
               0
100
AcDbLine
 10
-1256.2803000000004
 20
-281.44590483270076
 30
0.0
 11
-1212.9840999999997
 21
-299.73390483270077
 31
0.0
  0
LINE
  5
120
100
AcDbEntity
  8
OUTLINE
  6
STYLE_20
 62
               0
100
AcDbLine
 10
-1219.7955000000002
 20
-189.93010483270064
 30
0.0
 11
-1217.9530999999997
 21
-190.70830483270038
 31
0.0
  0
LINE
  5
121
100
AcDbEntity
  8
OUTLINE
  6
STYLE_20
 62
               0
100
AcDbLine
 10
-1119.0159999999996
 20
-251.0000048327006
 30
0.0
 11
-1130.9408999999996
 21
-105.5000048327006
 31
0.0
  0
LINE
  5
122
100
AcDbEntity
  8
OUTLINE
  6
STYLE_20
 62
               0
100
AcDbLine
 10
-1107.5985000000001
 20
-250.49980483270065
 30
0.0
 11
-1121.3444
 21
-82.780804832700596
 31
0.0
  0
POINT
  5
123
100
AcDbEntity
  8
OBJECT
  6
CONTINUOUS
 62
               0
100
AcDbPoint
 10
-987.35119199014525
 20
324.25139876294418
 30
0.0
  0
ENDBLK
  5
124
100
AcDbEntity
  8
OBJECT
100
AcDbBlockEnd
  0
BLOCK
  5
125
100
AcDbEntity
  8
DIMENTION
100
AcDbBlockBegin
  2
*D23
 70
               1
 10
0.0
 20
0.0
 30
0.0
  3
*D23
  1

  0
LINE
  5
126
100
AcDbEntity
  8
DIMENTION
 62
               0
100
AcDbLine
 10
982.0
 20
-230.0000048327006
 30
0.0
 11
1120.0
 21
-230.0000048327006
 31
0.0
  0
LINE
  5
127
100
AcDbEntity
  8
DIMENTION
 62
               0
100
AcDbLine
 10
982.0
 20
-1100.0000048327006
 30
0.0
 11
1120.0
 21
-1100.0000048327006
 31
0.0
  0
LINE
  5
128
100
AcDbEntity
  8
DIMENTION
 62
               0
100
AcDbLine
 10
1100.0
 20
-230.0000048327006
 30
0.0
 11
1100.0
 21
-1100.0000048327006
 31
0.0
  0
LINE
  5
129
100
AcDbEntity
  8
DIMENTION
 62
               0
100
AcDbLine
 10
1100.0
 20
-230.0000048327006
 30
0.0
 11
1108.507386859688
 21
-261.7500048327006
 31
0.0
  0
LINE
  5
12A
100
AcDbEntity
  8
DIMENTION
 62
               0
100
AcDbLine
 10
1100.0
 20
-230.0000048327006
 30
0.0
 11
1091.492613140312
 21
-261.7500048327006
 31
0.0
  0
LINE
  5
12B
100
AcDbEntity
  8
DIMENTION
 62
               0
100
AcDbLine
 10
1100.0
 20
-1100.0000048327006
 30
0.0
 11
1091.492613140312
 21
-1068.2500048327006
 31
0.0
  0
LINE
  5
12C
100
AcDbEntity
  8
DIMENTION
 62
               0
100
AcDbLine
 10
1100.0
 20
-1100.0000048327006
 30
0.0
 11
1108.507386859688
 21
-1068.2500048327006
 31
0.0
  0
MTEXT
  5
12D
100
AcDbEntity
  8
DIMENTION
 62
               0
100
AcDbMText
 10
1056.6666666703918
 20
-696.7500048327006
 30
0.0
 40
33.866666666666667
 41
0.0
 71
               1
 72
               1
  1
870
  7
________
 11
0.0
 21
1.0
 31
0.0
  0
POINT
  5
12E
100
AcDbEntity
  8
DEFPOINTS
 62
               0
100
AcDbPoint
 10
972.0
 20
-1100.0000048327006
 30
0.0
  0
POINT
  5
12F
100
AcDbEntity
  8
DEFPOINTS
 62
               0
100
AcDbPoint
 10
972.0
 20
-230.0000048327006
 30
0.0
  0
POINT
  5
130
100
AcDbEntity
  8
DEFPOINTS
 62
               0
100
AcDbPoint
 10
1100.0
 20
-230.0000048327006
 30
0.0
  0
ENDBLK
  5
131
100
AcDbEntity
  8
DIMENTION
100
AcDbBlockEnd
  0
ENDSEC
  0
SECTION
  2
ENTITIES
  0
LINE
  5
132
100
AcDbEntity
  8
FRAME
  6
CONTINUOUS
100
AcDbLine
 10
-2025.3999999999999
 20
-1388.9999999999998
 30
0.0
 11
-2025.3999999999999
 21
1330.9999999999998
 31
0.0
  0
LINE
  5
133
100
AcDbEntity
  8
FRAME
  6
CONTINUOUS
100
AcDbLine
 10
2024.5999999999999
 20
-1388.9999999999998
 30
0.0
 11
-2025.3999999999999
 21
-1388.9999999999998
 31
0.0
  0
LINE
  5
134
100
AcDbEntity
  8
FRAME
  6
CONTINUOUS
100
AcDbLine
 10
2024.5999999999999
 20
1330.9999999999998
 30
0.0
 11
2024.5999999999999
 21
-1388.9999999999998
 31
0.0
  0
LINE
  5
135
100
AcDbEntity
  8
FRAME
  6
CONTINUOUS
100
AcDbLine
 10
-2025.3999999999999
 20
1330.9999999999998
 30
0.0
 11
2024.5999999999999
 21
1330.9999999999998
 31
0.0
  0
LINE
  5
136
100
AcDbEntity
  8
OBJECT
  6
CONTINUOUS
100
AcDbLine
 10
1264.3599999999999
 20
-1388.9999999999998
 30
0.0
 11
1264.3599999999999
 21
-1249.0
 31
0.0
  0
LINE
  5
137
100
AcDbEntity
  8
OBJECT
  6
CONTINUOUS
100
AcDbLine
 10
1044.3599999999999
 20
-1388.9999999999998
 30
0.0
 11
1044.3599999999999
 21
-1249.0
 31
0.0
  0
LINE
  5
138
100
AcDbEntity
  8
OBJECT
  6
CONTINUOUS
100
AcDbLine
 10
444.35999999999996
 20
-1388.9999999999998
 30
0.0
 11
444.35999999999996
 21
-1249.0
 31
0.0
  0
LINE
  5
139
100
AcDbEntity
  8
OBJECT
  6
CONTINUOUS
100
AcDbLine
 10
-675.39999999999998
 20
-1388.9999999999998
 30
0.0
 11
-675.39999999999998
 21
-1249.0
 31
0.0
  0
MTEXT
  5
13A
100
AcDbEntity
  8
DIMENTION
100
AcDbMText
 10
-650.63999999999999
 20
-1254.1299999999999
 30
0.0
 40
28.2224
 41
109.36099999999999
 71
               1
 72
               1
  1
品　名
  7
________
  0
MTEXT
  5
13B
100
AcDbEntity
  8
DIMENTION
100
AcDbMText
 10
464.35999999999996
 20
-1259.1299999999999
 30
0.0
 40
28.2224
 41
0.0
 71
               1
 72
               1
  1
形　式
  7
________
  0
MTEXT
  5
13C
100
AcDbEntity
  8
DIMENTION
100
AcDbMText
 10
1069.3599999999999
 20
-1259.1299999999999
 30
0.0
 40
28.2224
 41
0.0
 71
               1
 72
               1
  1
尺　度
  7
________
  0
MTEXT
  5
13D
100
AcDbEntity
  8
DIMENTION
100
AcDbMText
 10
1289.3599999999999
 20
-1259.1299999999999
 30
0.0
 40
28.2224
 41
0.0
 71
               1
 72
               1
  1
図　番
  7
________
  0
LINE
  5
13E
100
AcDbEntity
  8
OBJECT
  6
CONTINUOUS
100
AcDbLine
 10
-1095.3999999999999
 20
-1388.9999999999998
 30
0.0
 11
-1095.3999999999999
 21
-1249.0
 31
0.0
  0
MTEXT
  5
13F
100
AcDbEntity
  8
TEXT
100
AcDbMText
 10
1115.3119999999999
 20
-1314.0139999999999
 30
0.0
 40
39.511200000000002
 41
0.0
 71
               1
 72
               1
  1
1/10
  7
________
  0
LINE
  5
140
100
AcDbEntity
  8
FRAME
  6
CONTINUOUS
100
AcDbLine
 10
-2025.3999999999999
 20
-1249.0
 30
0.0
 11
2024.5999999999999
 21
-1249.0
 31
0.0
  0
MTEXT
  5
141
100
AcDbEntity
  8
DIMENTION
100
AcDbMText
 10
-1085.6399999999999
 20
-1257.1088
 30
0.0
 40
28.2224
 41
0.0
 71
               1
 72
               1
  1
検  図
  7
________
  0
MTEXT
  5
142
100
AcDbEntity
  8
DIMENTION
100
AcDbMText
 10
-1085.6399999999999
 20
-1302.1899999999998
 30
0.0
 40
28.2224
 41
0.0
 71
               1
 72
               1
  1
担  当
  7
________
  0
MTEXT
  5
143
100
AcDbEntity
  8
DIMENTION
100
AcDbMText
 10
-1085.6399999999999
 20
-1347.0599999999999
 30
0.0
 40
28.2224
 41
0.0
 71
               1
 72
               1
  1
年月日
  7
________
  0
LINE
  5
144
100
AcDbEntity
  8
OBJECT
  6
CONTINUOUS
100
AcDbLine
 10
-1095.3999999999999
 20
-1297.9399999999998
 30
0.0
 11
-675.39999999999998
 21
-1297.9399999999998
 31
0.0
  0
LINE
  5
145
100
AcDbEntity
  8
OBJECT
  6
CONTINUOUS
100
AcDbLine
 10
-1095.3999999999999
 20
-1342.3299999999999
 30
0.0
 11
-675.39999999999998
 21
-1342.3299999999999
 31
0.0
  0
MTEXT
  5
146
100
AcDbEntity
  8
TEXT
100
AcDbMText
 10
-930.0
 20
-1350.0
 30
0.0
 40
28.222222222222225
 41
0.0
 71
               1
 72
               1
  1
2019.09.26
  7
________
  0
MTEXT
  5
147
100
AcDbEntity
  8
TEXT
100
AcDbMText
 10
-930.0
 20
-1302.0
 30
0.0
 40
28.222222222222225
 41
0.0
 71
               1
 72
               1
  1
月川
  7
________
  0
MTEXT
  5
148
100
AcDbEntity
  8
TEXT
100
AcDbMText
 10
-930.0
 20
-1258.0
 30
0.0
 40
28.222222222222225
 41
0.0
 71
               1
 72
               1
  1
大谷
  7
________
  0
MTEXT
  5
149
100
AcDbEntity
  8
TEXT
100
AcDbMText
 10
744.36000000000013
 20
-1339.7293
 30
0.0
 40
50.800000000000004
 41
0.0
 71
               5
 72
               1
  1
RCK 56
  7
________
  0
MTEXT
  5
14A
100
AcDbEntity
  8
TEXT
100
AcDbMText
 10
1429.9999999999995
 20
-1270.0
 30
0.0
 40
79.02222222222224
 41
0.0
 71
               1
 72
               1
  1
A330-047B
  7
ARIAL
  0
INSERT
  5
14B
100
AcDbEntity
  8
FRAME
100
AcDbBlockReference
  2
*U6
 10
0.0
 20
19.999999999999996
 30
0.0
  0
POLYLINE
  5
14C
100
AcDbEntity
  8
OBJECT
  6
CONTINUOUS
100
AcDb2dPolyline
 66
               1
 10
0.0
 20
0.0
 30
0.0
 70
               1
 75
               5
  0
VERTEX
  5
14D
100
AcDbEntity
  8
OBJECT
  6
CONTINUOUS
100
AcDbVertex
100
AcDb2dVertex
 10
-1700.0
 20
1200.0
 30
0.0
  0
VERTEX
  5
14E
100
AcDbEntity
  8
OBJECT
  6
CONTINUOUS
100
AcDbVertex
100
AcDb2dVertex
 10
-600.0
 20
1200.0
 30
0.0
  0
VERTEX
  5
14F
100
AcDbEntity
  8
OBJECT
  6
CONTINUOUS
100
AcDbVertex
100
AcDb2dVertex
 10
-600.0
 20
680.0
 30
0.0
  0
VERTEX
  5
150
100
AcDbEntity
  8
OBJECT
  6
CONTINUOUS
100
AcDbVertex
100
AcDb2dVertex
 10
-1700.0
 20
680.0
 30
0.0
  0
SEQEND
  5
151
100
AcDbEntity
  8
OBJECT
  6
CONTINUOUS
  0
LINE
  5
152
100
AcDbEntity
  8
OBJECT
  6
CONTINUOUS
100
AcDbLine
 10
-1300.0
 20
1200.0
 30
0.0
 11
-1300.0
 21
680.0
 31
0.0
  0
MTEXT
  5
153
100
AcDbEntity
  8
TEXT
100
AcDbMText
 10
-1700.0
 20
1170.0
 30
0.0
 40
33.866666666666667
 41
399.99999999999955
 71
               4
 72
               1
  1
　形　　　　　　　式
  7
________
  0
LINE
  5
154
100
AcDbEntity
  8
OBJECT
100
AcDbLine
 10
-600.0
 20
1140.0
 30
0.0
 11
-1700.0
 21
1140.0
 31
0.0
  0
MTEXT
  5
155
100
AcDbEntity
  8
TEXT
100
AcDbMText
 10
-1300.0
 20
1170.0
 30
0.0
 40
33.866666666666667
 41
700.00000000000045
 71
               4
 72
               1
  1
　RCK56
  7
________
  0
LINE
  5
156
100
AcDbEntity
  8
OBJECT
100
AcDbLine
 10
-600.0
 20
1080.0
 30
0.0
 11
-1700.0
 21
1080.0
 31
0.0
  0
MTEXT
  5
157
100
AcDbEntity
  8
TEXT
100
AcDbMText
 10
-1700.0
 20
1110.0
 30
0.0
 40
33.866666666666667
 41
399.99999999999955
 71
               4
 72
               1
  1
　用　　　　　　　途
  7
________
  0
MTEXT
  5
158
100
AcDbEntity
  8
TEXT
100
AcDbMText
 10
-1300.0
 20
1110.0
 30
0.0
 40
33.866666666666667
 41
700.0
 71
               4
 72
               1
  1
　9リットル炊飯釜収納用（3個）
  7
________
  0
MTEXT
  5
159
100
AcDbEntity
  8
TEXT
100
AcDbMText
 10
-1300.0
 20
970.0
 30
0.0
 40
33.866666666666667
 41
700.00000000000045
 71
               4
 72
               1
  1
　450Wヒーター\P　可変サーモスタット\P　（温度設定範囲：20℃～80℃）\P　ヒューズ
  7
________
  0
MTEXT
  5
15A
100
AcDbEntity
  8
TEXT
100
AcDbMText
 10
-1700.0
 20
970.0
 30
0.0
 40
33.866666666666667
 41
399.99999999999955
 71
               4
 72
               1
  1
　保 　温　 機　 能
  7
________
  0
MTEXT
  5
15B
100
AcDbEntity
  8
DIMENTION
100
AcDbMText
 10
-1645.0
 20
550.0
 30
0.0
 40
33.866666666666667
 41
1160.0
 71
               1
 72
               1
  1
炊飯メーカーにより、炊飯釜の形状が異なります。\P各社メーカーで、釜の積み重ねに専用の木蓋が必要になります。
  7
________
  0
MTEXT
  5
15C
100
AcDbEntity
  8
DIMENTION
100
AcDbMText
 10
-1700.0
 20
550.0
 30
0.0
 40
33.866666666666667
 41
50.0
 71
               1
 72
               1
  1
※
  7
________
  0
MTEXT
  5
15D
100
AcDbEntity
  8
DIMENTION
100
AcDbMText
 10
1300.0
 20
-1100.0
 30
0.0
 40
33.866666666666667
 41
0.0
 71
               1
 72
               1
  1
注）指示なき寸法公差は±5とする
  7
________
  0
LINE
  5
15E
100
AcDbEntity
  8
CENTER
  6
STYLE_17
100
AcDbLine
 10
700.0
 20
150.0
 30
0.0
 11
700.0
 21
910.0
 31
0.0
  0
POLYLINE
  5
15F
100
AcDbEntity
  8
OBJECT
  6
CONTINUOUS
100
AcDb2dPolyline
 66
               1
 10
0.0
 20
0.0
 30
0.0
 70
               1
 75
               5
  0
VERTEX
  5
160
100
AcDbEntity
  8
OBJECT
  6
CONTINUOUS
100
AcDbVertex
100
AcDb2dVertex
 10
-1202.0
 20
-981.0000048327006
 30
0.0
  0
VERTEX
  5
161
100
AcDbEntity
  8
OBJECT
  6
CONTINUOUS
100
AcDbVertex
100
AcDb2dVertex
 10
-1132.0
 20
-981.0000048327006
 30
0.0
  0
VERTEX
  5
162
100
AcDbEntity
  8
OBJECT
  6
CONTINUOUS
100
AcDbVertex
100
AcDb2dVertex
 10
-1132.0
 20
-984.0000048327006
 30
0.0
  0
VERTEX
  5
163
100
AcDbEntity
  8
OBJECT
  6
CONTINUOUS
100
AcDbVertex
100
AcDb2dVertex
 10
-1202.0
 20
-984.0000048327006
 30
0.0
  0
SEQEND
  5
164
100
AcDbEntity
  8
OBJECT
  6
CONTINUOUS
  0
LWPOLYLINE
  5
165
100
AcDbEntity
  8
OBJECT
  6
CONTINUOUS
100
AcDbPolyline
 90
        5
 70
             129
 10
-1210.0
 20
-1050.0000048327006
 42
-0.414213562373095
 10
-1200.0
 20
-1040.0000048327006
 42
-0.414213562373095
 10
-1190.0
 20
-1050.0000048327006
 42
-0.414213562373095
 10
-1200.0
 20
-1060.0000048327006
 42
-0.414213562373095
 10
-1210.0
 20
-1050.0000048327006
 42
-0.414213562373095
  0
LWPOLYLINE
  5
166
100
AcDbEntity
  8
OBJECT
  6
CONTINUOUS
100
AcDbPolyline
 90
        5
 70
             128
 10
-1191.5
 20
-993.0000048327006
 42
0.414213562373095
 10
-1190.5
 20
-992.0000048327006
 10
-1199.5
 20
-993.0000048327006
 10
-1209.6000000000004
 20
-1046.4377048327005
 10
-1209.8000000000002
 20
-1048.2584048327008
  0
LWPOLYLINE
  5
167
100
AcDbEntity
  8
OBJECT
  6
CONTINUOUS
100
AcDbPolyline
 90
       10
 70
             128
 10
-1191.8724000000002
 20
-1055.7772048327006
 10
-1191.2289000000001
 20
-1054.8028048327005
 10
-1153.5
 20
-1001.0000048327006
 10
-1143.5
 20
-1001.0000048327006
 10
-1143.5
 20
-994.0000048327006
 10
-1143.5
 20
-994.0000048327006
 42
0.414213562373095
 10
-1146.5
 20
-991.0000048327006
 10
-1189.5
 20
-991.0000048327006
 10
-1189.5
 20
-991.0000048327006
 42
0.414213562373095
 10
-1190.5
 20
-992.0000048327006
 42
0.414213562373095
  0
POLYLINE
  5
168
100
AcDbEntity
  8
OBJECT
  6
CONTINUOUS
100
AcDb2dPolyline
 66
               1
 10
0.0
 20
0.0
 30
0.0
 70
               1
 75
               5
  0
VERTEX
  5
169
100
AcDbEntity
  8
OBJECT
  6
CONTINUOUS
100
AcDbVertex
100
AcDb2dVertex
 10
-1193.5
 20
-984.0000048327006
 30
0.0
  0
VERTEX
  5
16A
100
AcDbEntity
  8
OBJECT
  6
CONTINUOUS
100
AcDbVertex
100
AcDb2dVertex
 10
-1140.5
 20
-984.0000048327006
 30
0.0
  0
VERTEX
  5
16B
100
AcDbEntity
  8
OBJECT
  6
CONTINUOUS
100
AcDbVertex
100
AcDb2dVertex
 10
-1144.5
 20
-987.5000048327006
 30
0.0
  0
VERTEX
  5
16C
100
AcDbEntity
  8
OBJECT
  6
CONTINUOUS
100
AcDbVertex
100
AcDb2dVertex
 10
-1144.5
 20
-991.0000048327006
 30
0.0
  0
VERTEX
  5
16D
100
AcDbEntity
  8
OBJECT
  6
CONTINUOUS
100
AcDbVertex
100
AcDb2dVertex
 10
-1189.5
 20
-991.0000048327006
 30
0.0
  0
VERTEX
  5
16E
100
AcDbEntity
  8
OBJECT
  6
CONTINUOUS
100
AcDbVertex
100
AcDb2dVertex
 10
-1189.5
 20
-987.5000048327006
 30
0.0
  0
SEQEND
  5
16F
100
AcDbEntity
  8
OBJECT
  6
CONTINUOUS
  0
LINE
  5
170
100
AcDbEntity
  8
OBJECT
  6
CONTINUOUS
100
AcDbLine
 10
-1189.5
 20
-987.5000048327006
 30
0.0
 11
-1144.5
 21
-987.5000048327006
 31
0.0
  0
LINE
  5
171
100
AcDbEntity
  8
OBJECT
  6
CONTINUOUS
100
AcDbLine
 10
-1184.5
 20
-993.0000048327006
 30
0.0
 11
-1184.5
 21
-1043.0000048327006
 31
0.0
  0
LWPOLYLINE
  5
172
100
AcDbEntity
  8
OBJECT
  6
CONTINUOUS
100
AcDbPolyline
 90
        5
 70
             129
 10
-1205.5
 20
-1050.0000048327006
 42
-0.414213562373095
 10
-1200.0
 20
-1044.5000048327006
 42
-0.414213562373095
 10
-1194.5
 20
-1050.0000048327006
 42
-0.414213562373095
 10
-1200.0
 20
-1055.5000048327006
 42
-0.414213562373095
 10
-1205.5
 20
-1050.0000048327006
 42
-0.414213562373095
  0
ARC
  5
173
100
AcDbEntity
  8
OBJECT
  6
CONTINUOUS
100
AcDbCircle
 10
-1200.0
 20
-1050.0000048327006
 30
0.0
 40
39.999918075541359
100
AcDbArc
 50
93.914492226284381
 51
40.57306483683027
  0
ARC
  5
174
100
AcDbEntity
  8
OBJECT
  6
CONTINUOUS
100
AcDbCircle
 10
-1200.0
 20
-1050.0000048327006
 30
0.0
 40
46.500049303737356
100
AcDbArc
 50
91.835132132633973
 51
42.61855727825349
  0
ARC
  5
175
100
AcDbEntity
  8
OBJECT
  6
CONTINUOUS
100
AcDbCircle
 10
-1200.0
 20
-1050.0000048327006
 30
0.0
 40
49.999995167300114
100
AcDbArc
 50
90.944621105131688
 51
43.494723541341799
  0
POLYLINE
  5
176
100
AcDbEntity
  8
OBJECT
  6
CONTINUOUS
100
AcDb2dPolyline
 66
               1
 10
0.0
 20
0.0
 30
0.0
 75
               5
  0
VERTEX
  5
177
100
AcDbEntity
  8
OBJECT
  6
CONTINUOUS
100
AcDbVertex
100
AcDb2dVertex
 10
-1115.0
 20
-950.0000048327006
 30
0.0
  0
VERTEX
  5
178
100
AcDbEntity
  8
OBJECT
  6
CONTINUOUS
100
AcDbVertex
100
AcDb2dVertex
 10
-1115.0
 20
-979.0000048327006
 30
0.0
  0
VERTEX
  5
179
100
AcDbEntity
  8
OBJECT
  6
CONTINUOUS
100
AcDbVertex
100
AcDb2dVertex
 10
-575.0
 20
-979.0000048327006
 30
0.0
  0
VERTEX
  5
17A
100
AcDbEntity
  8
OBJECT
  6
CONTINUOUS
100
AcDbVertex
100
AcDb2dVertex
 10
-575.0
 20
-974.0000048327006
 30
0.0
  0
SEQEND
  5
17B
100
AcDbEntity
  8
OBJECT
  6
CONTINUOUS
  0
LINE
  5
17C
100
AcDbEntity
  8
FRAME
  6
CONTINUOUS
100
AcDbLine
 10
-400.0
 20
-1100.0000048327006
 30
0.0
 11
-1500.0
 21
-1100.0000048327006
 31
0.0
  0
POLYLINE
  5
17D
100
AcDbEntity
  8
OBJECT
  6
CONTINUOUS
100
AcDb2dPolyline
 66
               1
 10
0.0
 20
0.0
 30
0.0
 70
               1
 75
               5
  0
VERTEX
  5
17E
100
AcDbEntity
  8
OBJECT
  6
CONTINUOUS
100
AcDbVertex
100
AcDb2dVertex
 10
-702.0
 20
-981.0000048327006
 30
0.0
  0
VERTEX
  5
17F
100
AcDbEntity
  8
OBJECT
  6
CONTINUOUS
100
AcDbVertex
100
AcDb2dVertex
 10
-632.0
 20
-981.0000048327006
 30
0.0
  0
VERTEX
  5
180
100
AcDbEntity
  8
OBJECT
  6
CONTINUOUS
100
AcDbVertex
100
AcDb2dVertex
 10
-632.0
 20
-984.0000048327006
 30
0.0
  0
VERTEX
  5
181
100
AcDbEntity
  8
OBJECT
  6
CONTINUOUS
100
AcDbVertex
100
AcDb2dVertex
 10
-702.0
 20
-984.0000048327006
 30
0.0
  0
SEQEND
  5
182
100
AcDbEntity
  8
OBJECT
  6
CONTINUOUS
  0
LWPOLYLINE
  5
183
100
AcDbEntity
  8
OBJECT
  6
CONTINUOUS
100
AcDbPolyline
 90
        5
 70
             129
 10
-710.0
 20
-1050.0000048327006
 42
-0.414213562373095
 10
-700.0
 20
-1040.0000048327006
 42
-0.414213562373095
 10
-690.0
 20
-1050.0000048327006
 42
-0.414213562373095
 10
-700.0
 20
-1060.0000048327006
 42
-0.414213562373095
 10
-710.0
 20
-1050.0000048327006
 42
-0.414213562373095
  0
LWPOLYLINE
  5
184
100
AcDbEntity
  8
OBJECT
  6
CONTINUOUS
100
AcDbPolyline
 90
        5
 70
             128
 10
-691.5
 20
-993.0000048327006
 42
0.414213562373095
 10
-690.5
 20
-992.0000048327006
 10
-699.5
 20
-993.0000048327006
 10
-709.60000000000036
 20
-1046.4377048327005
 10
-709.80000000000018
 20
-1048.2584048327008
  0
LWPOLYLINE
  5
185
100
AcDbEntity
  8
OBJECT
  6
CONTINUOUS
100
AcDbPolyline
 90
       10
 70
             128
 10
-691.8724000000002
 20
-1055.7772048327006
 10
-691.22890000000007
 20
-1054.8028048327005
 10
-653.5
 20
-1001.0000048327006
 10
-643.5
 20
-1001.0000048327006
 10
-643.5
 20
-994.0000048327006
 10
-643.5
 20
-994.0000048327006
 42
0.414213562373095
 10
-646.5
 20
-991.0000048327006
 10
-689.5
 20
-991.0000048327006
 10
-689.5
 20
-991.0000048327006
 42
0.414213562373095
 10
-690.5
 20
-992.0000048327006
 42
0.414213562373095
  0
POLYLINE
  5
186
100
AcDbEntity
  8
OBJECT
  6
CONTINUOUS
100
AcDb2dPolyline
 66
               1
 10
0.0
 20
0.0
 30
0.0
 70
               1
 75
               5
  0
VERTEX
  5
187
100
AcDbEntity
  8
OBJECT
  6
CONTINUOUS
100
AcDbVertex
100
AcDb2dVertex
 10
-693.5
 20
-984.0000048327006
 30
0.0
  0
VERTEX
  5
188
100
AcDbEntity
  8
OBJECT
  6
CONTINUOUS
100
AcDbVertex
100
AcDb2dVertex
 10
-640.5
 20
-984.0000048327006
 30
0.0
  0
VERTEX
  5
189
100
AcDbEntity
  8
OBJECT
  6
CONTINUOUS
100
AcDbVertex
100
AcDb2dVertex
 10
-644.5
 20
-987.5000048327006
 30
0.0
  0
VERTEX
  5
18A
100
AcDbEntity
  8
OBJECT
  6
CONTINUOUS
100
AcDbVertex
100
AcDb2dVertex
 10
-644.5
 20
-991.0000048327006
 30
0.0
  0
VERTEX
  5
18B
100
AcDbEntity
  8
OBJECT
  6
CONTINUOUS
100
AcDbVertex
100
AcDb2dVertex
 10
-689.5
 20
-991.0000048327006
 30
0.0
  0
VERTEX
  5
18C
100
AcDbEntity
  8
OBJECT
  6
CONTINUOUS
100
AcDbVertex
100
AcDb2dVertex
 10
-689.5
 20
-987.5000048327006
 30
0.0
  0
SEQEND
  5
18D
100
AcDbEntity
  8
OBJECT
  6
CONTINUOUS
  0
LINE
  5
18E
100
AcDbEntity
  8
OBJECT
  6
CONTINUOUS
100
AcDbLine
 10
-689.5
 20
-987.5000048327006
 30
0.0
 11
-644.5
 21
-987.5000048327006
 31
0.0
  0
LINE
  5
18F
100
AcDbEntity
  8
OBJECT
  6
CONTINUOUS
100
AcDbLine
 10
-684.5
 20
-993.0000048327006
 30
0.0
 11
-684.5
 21
-1043.0000048327006
 31
0.0
  0
LWPOLYLINE
  5
190
100
AcDbEntity
  8
OBJECT
  6
CONTINUOUS
100
AcDbPolyline
 90
        5
 70
             129
 10
-705.5
 20
-1050.0000048327006
 42
-0.414213562373095
 10
-700.0
 20
-1044.5000048327006
 42
-0.414213562373095
 10
-694.5
 20
-1050.0000048327006
 42
-0.414213562373095
 10
-700.0
 20
-1055.5000048327006
 42
-0.414213562373095
 10
-705.5
 20
-1050.0000048327006
 42
-0.414213562373095
  0
ARC
  5
191
100
AcDbEntity
  8
OBJECT
  6
CONTINUOUS
100
AcDbCircle
 10
-700.0
 20
-1050.0000048327006
 30
0.0
 40
39.999918075541359
100
AcDbArc
 50
93.914492226284381
 51
40.57306483683027
  0
ARC
  5
192
100
AcDbEntity
  8
OBJECT
  6
CONTINUOUS
100
AcDbCircle
 10
-700.0
 20
-1050.0000048327006
 30
0.0
 40
46.500049303737356
100
AcDbArc
 50
91.835132132633973
 51
42.618557278254251
  0
ARC
  5
193
100
AcDbEntity
  8
OBJECT
  6
CONTINUOUS
100
AcDbCircle
 10
-700.0
 20
-1050.0000048327006
 30
0.0
 40
49.999995167300114
100
AcDbArc
 50
90.944621105131688
 51
43.494723541341799
  0
LINE
  5
194
100
AcDbEntity
  8
CENTER
  6
STYLE_13
100
AcDbLine
 10
700.0
 20
-1140.0
 30
0.0
 11
700.0
 21
-180.0
 31
0.0
  0
LINE
  5
195
100
AcDbEntity
  8
FRAME
  6
CONTINUOUS
100
AcDbLine
 10
200.0
 20
-1100.0000048327006
 30
0.0
 11
1200.0
 21
-1100.0000048327006
 31
0.0
  0
LINE
  5
196
100
AcDbEntity
  8
OBJECT
  6
CONTINUOUS
100
AcDbLine
 10
420.0
 20
-280.0000048327006
 30
0.0
 11
420.0
 21
-944.0000048327006
 31
0.0
  0
LINE
  5
197
100
AcDbEntity
  8
OBJECT
  6
CONTINUOUS
100
AcDbLine
 10
980.0
 20
-280.0000048327006
 30
0.0
 11
980.0
 21
-944.0000048327006
 31
0.0
  0
POLYLINE
  5
198
100
AcDbEntity
  8
OBJECT
  6
CONTINUOUS
100
AcDb2dPolyline
 66
               1
 10
0.0
 20
0.0
 30
0.0
 70
               1
 75
               5
  0
VERTEX
  5
199
100
AcDbEntity
  8
OBJECT
  6
CONTINUOUS
100
AcDbVertex
100
AcDb2dVertex
 10
-1195.0
 20
-979.0000048327006
 30
0.0
  0
VERTEX
  5
19A
100
AcDbEntity
  8
OBJECT
  6
CONTINUOUS
100
AcDbVertex
100
AcDb2dVertex
 10
-577.0
 20
-979.0000048327006
 30
0.0
  0
VERTEX
  5
19B
100
AcDbEntity
  8
OBJECT
  6
CONTINUOUS
100
AcDbVertex
100
AcDb2dVertex
 10
-577.0
 20
-981.0000048327006
 30
0.0
  0
VERTEX
  5
19C
100
AcDbEntity
  8
OBJECT
  6
CONTINUOUS
100
AcDbVertex
100
AcDb2dVertex
 10
-1195.0
 20
-981.0000048327006
 30
0.0
  0
SEQEND
  5
19D
100
AcDbEntity
  8
OBJECT
  6
CONTINUOUS
  0
LINE
  5
19E
100
AcDbEntity
  8
OBJECT
  6
CONTINUOUS
100
AcDbLine
 10
-575.0
 20
-944.0000048327006
 30
0.0
 11
-575.0
 21
-280.0000048327006
 31
0.0
  0
LINE
  5
19F
100
AcDbEntity
  8
OBJECT
  6
CONTINUOUS
100
AcDbLine
 10
420.00070000000005
 20
240.0
 30
0.0
 11
420.0
 21
860.0
 31
0.0
  0
LINE
  5
1A0
100
AcDbEntity
  8
OBJECT
  6
CONTINUOUS
100
AcDbLine
 10
980.0
 20
860.0
 30
0.0
 11
980.0
 21
242.5003999999999
 31
0.0
  0
POLYLINE
  5
1A1
100
AcDbEntity
  8
OBJECT
  6
CONTINUOUS
100
AcDb2dPolyline
 66
               1
 10
0.0
 20
0.0
 30
0.0
 70
               1
 75
               5
  0
VERTEX
  5
1A2
100
AcDbEntity
  8
OBJECT
  6
CONTINUOUS
100
AcDbVertex
100
AcDb2dVertex
 10
585.0
 20
399.0
 30
0.0
  0
VERTEX
  5
1A3
100
AcDbEntity
  8
OBJECT
  6
CONTINUOUS
100
AcDbVertex
100
AcDb2dVertex
 10
585.0
 20
599.0
 30
0.0
  0
VERTEX
  5
1A4
100
AcDbEntity
  8
OBJECT
  6
CONTINUOUS
100
AcDbVertex
100
AcDb2dVertex
 10
815.0
 20
599.0
 30
0.0
  0
VERTEX
  5
1A5
100
AcDbEntity
  8
OBJECT
  6
CONTINUOUS
100
AcDbVertex
100
AcDb2dVertex
 10
815.0
 20
399.0
 30
0.0
  0
SEQEND
  5
1A6
100
AcDbEntity
  8
OBJECT
  6
CONTINUOUS
  0
INSERT
  5
1A7
100
AcDbEntity
  8
OBJECT
100
AcDbBlockReference
  2
*U7
 10
0.0
 20
19.999999999999996
 30
0.0
  0
INSERT
  5
1A8
100
AcDbEntity
  8
OBJECT
100
AcDbBlockReference
  2
*U8
 10
0.0
 20
19.999999999999996
 30
0.0
  0
INSERT
  5
1A9
100
AcDbEntity
  8
OBJECT
100
AcDbBlockReference
  2
*U9
 10
0.0
 20
19.999999999999996
 30
0.0
  0
INSERT
  5
1AA
100
AcDbEntity
  8
OBJECT
100
AcDbBlockReference
  2
*U10
 10
0.0
 20
19.999999999999996
 30
0.0
  0
LINE
  5
1AB
100
AcDbEntity
  8
HIDDEN
  6
STYLE_16
100
AcDbLine
 10
-969.0
 20
-979.0000048327006
 30
0.0
 11
-969.0
 21
-924.0000048327006
 31
0.0
  0
LINE
  5
1AC
100
AcDbEntity
  8
HIDDEN
  6
STYLE_16
100
AcDbLine
 10
-739.0
 20
-924.0000048327006
 30
0.0
 11
-739.0
 21
-979.0000048327006
 31
0.0
  0
LINE
  5
1AD
100
AcDbEntity
  8
HIDDEN
  6
STYLE_16
100
AcDbLine
 10
-969.0
 20
-924.0000048327006
 30
0.0
 11
-739.0
 21
-924.0000048327006
 31
0.0
  0
LINE
  5
1AE
100
AcDbEntity
  8
HIDDEN
  6
STYLE_16
100
AcDbLine
 10
-739.0
 20
-944.0000048327006
 30
0.0
 11
-969.0
 21
-944.0000048327006
 31
0.0
  0
LWPOLYLINE
  5
1AF
100
AcDbEntity
  8
OBJECT
  6
CONTINUOUS
100
AcDbPolyline
 90
        9
 70
             129
 10
1000.0
 20
829.56155281280894
 42
-0.3441507314089503
 10
998.48507125007268
 20
827.62126781251823
 10
980.0
 20
823.0
 10
980.0
 20
860.0
 10
900.0
 20
860.0
 10
904.62126781251823
 20
878.48507125007268
 42
-0.3441507314089108
 10
906.56155281280894
 20
880.0
 10
985.0
 20
880.0
 42
-0.414213562373095
 10
1000.0
 20
865.0
  0
LWPOLYLINE
  5
1B0
100
AcDbEntity
  8
OBJECT
  6
CONTINUOUS
100
AcDbPolyline
 90
        9
 70
             129
 10
400.0
 20
829.56155281280894
 42
0.3441507314089031
 10
401.51492874992732
 20
827.62126781251823
 10
420.0
 20
823.0
 10
420.0
 20
860.0
 10
500.0
 20
860.0
 10
495.37873218748183
 20
878.48507125007268
 42
0.3441507314089303
 10
493.43844718719117
 20
880.0
 10
415.0
 20
880.0
 42
0.414213562373095
 10
400.0
 20
865.0
  0
LWPOLYLINE
  5
1B1
100
AcDbEntity
  8
OBJECT
  6
CONTINUOUS
100
AcDbPolyline
 90
       14
 70
             128
 10
418.0
 20
299.5
 10
401.51490000000013
 20
295.37870000000021
 10
401.51490000000013
 20
295.37870000000021
 10
401.51490000000013
 20
295.37870000000021
 42
0.3441753471598165
 10
400.0
 20
293.4384
 10
400.0
 20
215.0
 10
400.0
 20
215.0
 10
400.0
 20
215.0
 42
0.414213562373095
 10
415.0
 20
200.0
 10
450.4384
 20
200.0
 10
450.4384
 20
200.0
 10
450.4384
 20
200.0
 42
0.3441434864435452
 10
452.37869999999998
 20
201.51490000000013
 10
456.5
 20
218.0
  0
LWPOLYLINE
  5
1B2
100
AcDbEntity
  8
OBJECT
  6
CONTINUOUS
100
AcDbPolyline
 90
       14
 70
             128
 10
982.0
 20
299.5
 10
998.48509999999987
 20
295.37870000000021
 10
998.48509999999987
 20
295.37870000000021
 10
998.48509999999987
 20
295.37870000000021
 42
-0.3441434864435221
 10
1000.0
 20
293.4384
 10
1000.0
 20
215.0
 10
1000.0
 20
215.0
 10
1000.0
 20
215.0
 42
-0.414213562373095
 10
985.0
 20
200.0
 10
949.5616
 20
200.0
 10
949.5616
 20
200.0
 10
949.5616
 20
200.0
 42
-0.3441753471598885
 10
947.62130000000002
 20
201.51490000000013
 10
943.5
 20
218.0
  0
CIRCLE
  5
1B3
100
AcDbEntity
  8
OBJECT
  6
CONTINUOUS
100
AcDbCircle
 10
700.0
 20
500.0
 30
0.0
 40
237.5
  0
ARC
  5
1B4
100
AcDbEntity
  8
OBJECT
  6
CONTINUOUS
100
AcDbCircle
 10
430.0
 20
230.0
 30
0.0
 40
9.9999809689818342
100
AcDbArc
 50
179.33134180264148
 51
270.0
  0
LINE
  5
1B5
100
AcDbEntity
  8
OBJECT
  6
CONTINUOUS
100
AcDbLine
 10
420.00070000000005
 20
230.11669999999958
 30
0.0
 11
420.00070000000005
 21
240.0
 31
0.0
  0
LINE
  5
1B6
100
AcDbEntity
  8
OBJECT
  6
CONTINUOUS
100
AcDbLine
 10
430.0
 20
220.0
 30
0.0
 11
442.5
 21
220.0
 31
0.0
  0
ARC
  5
1B7
100
AcDbEntity
  8
OBJECT
  6
CONTINUOUS
100
AcDbCircle
 10
970.0
 20
230.0003999999999
 30
0.0
 40
9.9999809689822943
100
AcDbArc
 50
269.33134180263886
 51
0.0
  0
LINE
  5
1B8
100
AcDbEntity
  8
OBJECT
  6
CONTINUOUS
100
AcDbLine
 10
969.88329999999996
 20
220.0010999999995
 30
0.0
 11
960.0
 21
220.0010999999995
 31
0.0
  0
LINE
  5
1B9
100
AcDbEntity
  8
OBJECT
  6
CONTINUOUS
100
AcDbLine
 10
980.0
 20
230.0003999999999
 30
0.0
 11
980.0
 21
242.5003999999999
 31
0.0
  0
LINE
  5
1BA
100
AcDbEntity
  8
OBJECT
  6
CONTINUOUS
100
AcDbLine
 10
779.0
 20
225.0
 30
0.0
 11
779.0
 21
210.0
 31
0.0
  0
LINE
  5
1BB
100
AcDbEntity
  8
OBJECT
  6
CONTINUOUS
100
AcDbLine
 10
621.0
 20
225.0
 30
0.0
 11
621.0
 21
210.0
 31
0.0
  0
LINE
  5
1BC
100
AcDbEntity
  8
OBJECT
  6
CONTINUOUS
100
AcDbLine
 10
636.0
 20
195.0
 30
0.0
 11
764.0
 21
195.0
 31
0.0
  0
LINE
  5
1BD
100
AcDbEntity
  8
OBJECT
  6
CONTINUOUS
100
AcDbLine
 10
636.0
 20
203.0
 30
0.0
 11
764.0
 21
203.0
 31
0.0
  0
LINE
  5
1BE
100
AcDbEntity
  8
OBJECT
  6
CONTINUOUS
100
AcDbLine
 10
771.0
 20
225.0
 30
0.0
 11
771.0
 21
210.0
 31
0.0
  0
LINE
  5
1BF
100
AcDbEntity
  8
OBJECT
  6
CONTINUOUS
100
AcDbLine
 10
629.0
 20
225.0
 30
0.0
 11
629.0
 21
210.0
 31
0.0
  0
ARC
  5
1C0
100
AcDbEntity
  8
OBJECT
  6
CONTINUOUS
100
AcDbCircle
 10
636.0
 20
210.0
 30
0.0
 40
15.0
100
AcDbArc
 50
180.0
 51
270.0
  0
ARC
  5
1C1
100
AcDbEntity
  8
OBJECT
  6
CONTINUOUS
100
AcDbCircle
 10
764.0
 20
210.0
 30
0.0
 40
15.0
100
AcDbArc
 50
270.0
 51
0.0
  0
ARC
  5
1C2
100
AcDbEntity
  8
OBJECT
  6
CONTINUOUS
100
AcDbCircle
 10
636.0
 20
210.0
 30
0.0
 40
7.0
100
AcDbArc
 50
180.0
 51
270.0
  0
ARC
  5
1C3
100
AcDbEntity
  8
OBJECT
  6
CONTINUOUS
100
AcDbCircle
 10
764.0
 20
210.0
 30
0.0
 40
7.0
100
AcDbArc
 50
270.0
 51
0.0
  0
LINE
  5
1C4
100
AcDbEntity
  8
OBJECT
  6
CONTINUOUS
100
AcDbLine
 10
771.0
 20
220.0
 30
0.0
 11
629.0
 21
220.0
 31
0.0
  0
POLYLINE
  5
1C5
100
AcDbEntity
  8
OBJECT
  6
CONTINUOUS
100
AcDb2dPolyline
 66
               1
 10
0.0
 20
0.0
 30
0.0
 70
               1
 75
               5
  0
VERTEX
  5
1C6
100
AcDbEntity
  8
OBJECT
  6
CONTINUOUS
100
AcDbVertex
100
AcDb2dVertex
 10
540.0
 20
862.0
 30
0.0
  0
VERTEX
  5
1C7
100
AcDbEntity
  8
OBJECT
  6
CONTINUOUS
100
AcDbVertex
100
AcDb2dVertex
 10
860.0
 20
862.0
 30
0.0
  0
VERTEX
  5
1C8
100
AcDbEntity
  8
OBJECT
  6
CONTINUOUS
100
AcDbVertex
100
AcDb2dVertex
 10
860.0
 20
762.0
 30
0.0
  0
VERTEX
  5
1C9
100
AcDbEntity
  8
OBJECT
  6
CONTINUOUS
100
AcDbVertex
100
AcDb2dVertex
 10
540.0
 20
762.0
 30
0.0
  0
SEQEND
  5
1CA
100
AcDbEntity
  8
OBJECT
  6
CONTINUOUS
  0
CIRCLE
  5
1CB
100
AcDbEntity
  8
OBJECT
  6
CONTINUOUS
100
AcDbCircle
 10
700.0
 20
787.0
 30
0.0
 40
6.0
  0
CIRCLE
  5
1CC
100
AcDbEntity
  8
OBJECT
  6
CONTINUOUS
100
AcDbCircle
 10
825.0
 20
787.0
 30
0.0
 40
6.0
  0
CIRCLE
  5
1CD
100
AcDbEntity
  8
OBJECT
  6
CONTINUOUS
100
AcDbCircle
 10
575.0
 20
787.0
 30
0.0
 40
6.0
  0
LWPOLYLINE
  5
1CE
100
AcDbEntity
  8
OBJECT
  6
CONTINUOUS
100
AcDbPolyline
 90
       18
 70
             128
 10
860.0
 20
810.0
 10
955.0
 20
810.0
 10
955.0
 20
810.0
 10
955.0
 20
810.0
 42
-0.414213562373095
 10
975.0
 20
790.0
 10
975.0
 20
245.0
 10
975.0
 20
245.0
 10
975.0
 20
245.0
 42
-0.414213562373095
 10
955.0
 20
225.0
 10
445.0
 20
225.0
 10
445.0
 20
225.0
 10
445.0
 20
225.0
 42
-0.414213562373095
 10
425.0
 20
245.0
 10
425.0
 20
790.0
 10
425.0
 20
790.0
 10
425.0
 20
790.0
 42
-0.414213562373095
 10
445.0
 20
810.0
 10
540.0
 20
810.0
  0
LINE
  5
1CF
100
AcDbEntity
  8
OBJECT
  6
CONTINUOUS
100
AcDbLine
 10
860.0
 20
860.0
 30
0.0
 11
980.0
 21
860.0
 31
0.0
  0
LINE
  5
1D0
100
AcDbEntity
  8
OBJECT
  6
CONTINUOUS
100
AcDbLine
 10
420.0
 20
860.0
 30
0.0
 11
540.0
 21
860.0
 31
0.0
  0
CIRCLE
  5
1D1
100
AcDbEntity
  8
OBJECT
  6
CONTINUOUS
100
AcDbCircle
 10
920.0
 20
280.0
 30
0.0
 40
29.999981780827671
  0
CIRCLE
  5
1D2
100
AcDbEntity
  8
OBJECT
  6
CONTINUOUS
100
AcDbCircle
 10
700.0
 20
500.0
 30
0.0
 40
252.5
  0
CIRCLE
  5
1D3
100
AcDbEntity
  8
OBJECT
  6
CONTINUOUS
100
AcDbCircle
 10
950.0
 20
672.0
 30
0.0
 40
6.0
  0
CIRCLE
  5
1D4
100
AcDbEntity
  8
OBJECT
  6
CONTINUOUS
100
AcDbCircle
 10
950.0
 20
632.0
 30
0.0
 40
6.0
  0
CIRCLE
  5
1D5
100
AcDbEntity
  8
OBJECT
  6
CONTINUOUS
100
AcDbCircle
 10
450.0
 20
672.0
 30
0.0
 40
6.0
  0
CIRCLE
  5
1D6
100
AcDbEntity
  8
OBJECT
  6
CONTINUOUS
100
AcDbCircle
 10
450.0
 20
632.0
 30
0.0
 40
6.0
  0
CIRCLE
  5
1D7
100
AcDbEntity
  8
OBJECT
  6
CONTINUOUS
100
AcDbCircle
 10
830.0
 20
-430.0000048327006
 30
0.0
 40
22.0
  0
SPLINE
  5
1D8
100
AcDbEntity
  8
OBJECT
  6
CONTINUOUS
100
AcDbSpline
210
0.0
220
0.0
230
1.0
 70
               8
 71
               2
 72
              10
 73
               7
 74
               0
 42
0.000001
 43
0.000001
 40
0.0
 40
0.0
 40
0.0
 40
0.4118058773033173
 40
0.4118058773033173
 40
0.7511947917529858
 40
0.7511947917529858
 40
1.0
 40
1.0
 40
1.0
 10
908.0
 20
-565.0000048327006
 30
0.0
 10
908.0
 20
-604.38860483270037
 30
0.0
 10
897.54994999999963
 20
-638.50005483270047
 30
0.0
 10
887.09989999999925
 20
-672.61150483270058
 30
0.0
 10
868.99994999999944
 20
-692.30575483270059
 30
0.0
 10
850.89999999999964
 20
-712.0000048327006
 30
0.0
 10
830.0
 20
-712.0000048327006
 30
0.0
  0
SPLINE
  5
1D9
100
AcDbEntity
  8
OBJECT
  6
CONTINUOUS
100
AcDbSpline
210
0.0
220
0.0
230
1.0
 70
               8
 71
               2
 72
              10
 73
               7
 74
               0
 42
0.000001
 43
0.000001
 40
0.0
 40
0.0
 40
0.0
 40
0.4071176974875049
 40
0.4071176974875049
 40
0.745771246538177
 40
0.745771246538177
 40
1.0
 40
1.0
 40
1.0
 10
744.0
 20
-565.0000048327006
 30
0.0
 10
744.0
 20
-606.5322048327007
 30
0.0
 10
755.52185000000009
 20
-642.5000548327007
 30
0.0
 10
767.04370000000017
 20
-678.4679048327007
 30
0.0
 10
787.00004999999965
 20
-699.23395483270065
 30
0.0
 10
806.95639999999912
 20
-720.0000048327006
 30
0.0
 10
830.0
 20
-720.0000048327006
 30
0.0
  0
SPLINE
  5
1DA
100
AcDbEntity
  8
OBJECT
  6
CONTINUOUS
100
AcDbSpline
210
0.0
220
0.0
230
1.0
 70
               8
 71
               2
 72
              10
 73
               7
 74
               0
 42
0.000001
 43
0.000001
 40
0.0
 40
0.0
 40
0.0
 40
0.384504394999197
 40
0.384504394999197
 40
0.720352838234267
 40
0.720352838234267
 40
1.0
 40
1.0
 40
1.0
 10
752.0
 20
-545.30570483270048
 30
0.0
 10
752.0
 20
-569.87520483270055
 30
0.0
 10
760.30645000000004
 20
-591.15285483270054
 30
0.0
 10
768.61290000000008
 20
-612.43050483270054
 30
0.0
 10
783.00004999999965
 20
-624.71525483270057
 30
0.0
 10
797.38719999999921
 20
-637.0000048327006
 30
0.0
 10
814.0
 20
-637.0000048327006
 30
0.0
  0
SPLINE
  5
1DB
100
AcDbEntity
  8
OBJECT
  6
CONTINUOUS
100
AcDbSpline
210
0.0
220
0.0
230
1.0
 70
               8
 71
               2
 72
              10
 73
               7
 74
               0
 42
0.000001
 43
0.000001
 40
0.0
 40
0.0
 40
0.0
 40
0.3812170135693202
 40
0.3812170135693202
 40
0.7167477984069021
 40
0.7167477984069021
 40
1.0
 40
1.0
 40
1.0
 10
744.0
 20
-544.23390483270032
 30
0.0
 10
744.0
 20
-571.23420483270047
 30
0.0
 10
753.37824999999975
 20
-594.61700483270056
 30
0.0
 10
762.75649999999951
 20
-617.99980483270065
 30
0.0
 10
779.00004999999965
 20
-631.49990483270062
 30
0.0
 10
795.24359999999979
 20
-645.0000048327006
 30
0.0
 10
814.0
 20
-645.0000048327006
 30
0.0
  0
LINE
  5
1DC
100
AcDbEntity
  8
OBJECT
  6
CONTINUOUS
100
AcDbLine
 10
814.0
 20
-637.0000048327006
 30
0.0
 11
814.0
 21
-645.0000048327006
 31
0.0
  0
SPLINE
  5
1DD
100
AcDbEntity
  8
OBJECT
  6
CONTINUOUS
100
AcDbSpline
210
0.0
220
0.0
230
1.0
 70
               8
 71
               2
 72
              10
 73
               7
 74
               0
 42
0.000001
 43
0.000001
 40
0.0
 40
0.0
 40
0.0
 40
0.2935757965800578
 40
0.2935757965800578
 40
0.7011835690966246
 40
0.7011835690966246
 40
1.0
 40
1.0
 40
1.0
 10
753.62229999999909
 20
-595.2200048327004
 30
0.0
 10
756.11739999999918
 20
-617.82870483270062
 30
0.0
 10
762.45000000000073
 20
-638.50010483270034
 30
0.0
 10
772.90010000000075
 20
-672.61150483270058
 30
0.0
 10
791.0
 20
-692.30580483270069
 30
0.0
 10
809.10000000000036
 20
-712.0000048327006
 30
0.0
 10
830.0
 20
-712.0000048327006
 30
0.0
  0
INSERT
  5
1DE
100
AcDbEntity
  8
OBJECT
100
AcDbBlockReference
  2
*U11
 10
0.0
 20
19.999999999999996
 30
0.0
  0
SPLINE
  5
1DF
100
AcDbEntity
  8
OBJECT
  6
CONTINUOUS
100
AcDbSpline
210
0.0
220
0.0
230
1.0
 70
               8
 71
               2
 72
              10
 73
               7
 74
               0
 42
0.000001
 43
0.000001
 40
0.0
 40
0.0
 40
0.0
 40
0.4071180155700955
 40
0.4071180155700955
 40
0.7457715899193522
 40
0.7457715899193522
 40
1.0
 40
1.0
 40
1.0
 10
916.0
 20
-565.0000048327006
 30
0.0
 10
916.0
 20
-606.5322048327007
 30
0.0
 10
904.47810000000027
 20
-642.50010483270034
 30
0.0
 10
892.95629999999983
 20
-678.4679048327007
 30
0.0
 10
872.99989999999889
 20
-699.23400483270052
 30
0.0
 10
853.04359999999906
 20
-720.0000048327006
 30
0.0
 10
830.0
 20
-720.0000048327006
 30
0.0
  0
SPLINE
  5
1E0
100
AcDbEntity
  8
OBJECT
  6
CONTINUOUS
100
AcDbSpline
210
0.0
220
0.0
230
1.0
 70
               8
 71
               2
 72
              10
 73
               7
 74
               0
 42
0.000001
 43
0.000001
 40
0.0
 40
0.0
 40
0.0
 40
0.1456872507972033
 40
0.1456872507972033
 40
0.5316566310613018
 40
0.5316566310613018
 40
1.0
 40
1.0
 40
1.0
 10
850.96049999999923
 20
-423.3157048327007
 30
0.0
 10
860.30349999999999
 20
-428.23180483270062
 30
0.0
 10
868.99989999999889
 20
-437.69430483270071
 30
0.0
 10
887.09989999999925
 20
-457.38850483270062
 30
0.0
 10
897.54989999999998
 20
-491.5000048327006
 30
0.0
 10
908.0
 20
-525.61140483270037
 30
0.0
 10
908.0
 20
-565.0000048327006
 30
0.0
  0
SPLINE
  5
1E1
100
AcDbEntity
  8
OBJECT
  6
CONTINUOUS
100
AcDbSpline
210
0.0
220
0.0
230
1.0
 70
               8
 71
               2
 72
              10
 73
               7
 74
               0
 42
0.000001
 43
0.000001
 40
0.0
 40
0.0
 40
0.0
 40
0.2054989706671467
 40
0.2054989706671467
 40
0.5662729894987618
 40
0.5662729894987618
 40
1.0
 40
1.0
 40
1.0
 10
841.74539999999979
 20
-411.39680483270058
 30
0.0
 10
858.21930000000066
 20
-415.38580483270061
 30
0.0
 10
872.99989999999889
 20
-430.76610483270042
 30
0.0
 10
892.95629999999983
 20
-451.5321048327005
 30
0.0
 10
904.47810000000027
 20
-487.5000048327006
 30
0.0
 10
916.0
 20
-523.46780483270049
 30
0.0
 10
916.0
 20
-565.0000048327006
 30
0.0
  0
SPLINE
  5
1E2
100
AcDbEntity
  8
OBJECT
  6
CONTINUOUS
100
AcDbSpline
210
0.0
220
0.0
230
1.0
 70
               8
 71
               2
 72
              12
 73
               9
 74
               0
 42
0.000001
 43
0.000001
 40
0.0
 40
0.0
 40
0.0
 40
0.0082403734690907
 40
0.0082403734690907
 40
0.4599055537269532
 40
0.4599055537269532
 40
0.8443661665071283
 40
0.8443661665071283
 40
1.0
 40
1.0
 40
1.0
 10
752.5002000000004
 20
-544.23390483270032
 30
0.0
 10
752.2501000000002
 20
-544.7698048327004
 30
0.0
 10
752.0
 20
-545.30570483270048
 30
0.0
 10
752.0
 20
-511.19420483270051
 30
0.0
 10
762.45000000000073
 20
-481.65280483270044
 30
0.0
 10
772.90010000000075
 20
-452.11140483270037
 30
0.0
 10
791.0
 20
-435.05570483270048
 30
0.0
 10
799.83079999999973
 20
-426.73440483270042
 30
0.0
 10
809.32810000000063
 20
-422.47300483270055
 30
0.0
  0
SPLINE
  5
1E3
100
AcDbEntity
  8
OBJECT
  6
CONTINUOUS
100
AcDbSpline
210
0.0
220
0.0
230
1.0
 70
               8
 71
               2
 72
              10
 73
               7
 74
               0
 42
0.000001
 43
0.000001
 40
0.0
 40
0.0
 40
0.0
 40
0.2220738154987765
 40
0.2220738154987765
 40
0.5819429115088212
 40
0.5819429115088212
 40
1.0
 40
1.0
 40
1.0
 10
818.71429999999964
 20
-411.11540483270073
 30
0.0
 10
801.98649999999907
 20
-414.47860483270051
 30
0.0
 10
787.0
 20
-427.98390483270032
 30
0.0
 10
767.04370000000017
 20
-445.96780483270049
 30
0.0
 10
755.52180000000044
 20
-477.11690483270058
 30
0.0
 10
744.0
 20
-508.26600483270067
 30
0.0
 10
744.0
 20
-544.23390483270032
 30
0.0
  0
LINE
  5
1E4
100
AcDbEntity
  8
OBJECT
  6
CONTINUOUS
100
AcDbLine
 10
792.22719999999936
 20
-981.0000048327006
 30
0.0
 11
891.65940000000046
 21
-650.11090483270073
 31
0.0
  0
LINE
  5
1E5
100
AcDbEntity
  8
OBJECT
  6
CONTINUOUS
100
AcDbLine
 10
907.69759999999951
 20
-631.5000048327006
 30
0.0
 11
802.67289999999957
 21
-981.0000048327006
 31
0.0
  0
POLYLINE
  5
1E6
100
AcDbEntity
  8
OBJECT
  6
CONTINUOUS
100
AcDb2dPolyline
 66
               1
 10
0.0
 20
0.0
 30
0.0
 70
               1
 75
               5
  0
VERTEX
  5
1E7
100
AcDbEntity
  8
OBJECT
  6
CONTINUOUS
100
AcDbVertex
100
AcDb2dVertex
 10
870.0
 20
-631.0000048327006
 30
0.0
  0
VERTEX
  5
1E8
100
AcDbEntity
  8
OBJECT
  6
CONTINUOUS
100
AcDbVertex
100
AcDb2dVertex
 10
870.0
 20
-634.0000048327006
 30
0.0
  0
VERTEX
  5
1E9
100
AcDbEntity
  8
OBJECT
  6
CONTINUOUS
100
AcDbVertex
100
AcDb2dVertex
 10
849.0
 20
-634.0000048327006
 30
0.0
  0
VERTEX
  5
1EA
100
AcDbEntity
  8
OBJECT
  6
CONTINUOUS
100
AcDbVertex
100
AcDb2dVertex
 10
849.0
 20
-631.0000048327006
 30
0.0
  0
SEQEND
  5
1EB
100
AcDbEntity
  8
OBJECT
  6
CONTINUOUS
  0
POLYLINE
  5
1EC
100
AcDbEntity
  8
OBJECT
  6
CONTINUOUS
100
AcDb2dPolyline
 66
               1
 10
0.0
 20
0.0
 30
0.0
 70
               1
 75
               5
  0
VERTEX
  5
1ED
100
AcDbEntity
  8
OBJECT
  6
CONTINUOUS
100
AcDbVertex
100
AcDb2dVertex
 10
870.0
 20
-648.0000048327006
 30
0.0
  0
VERTEX
  5
1EE
100
AcDbEntity
  8
OBJECT
  6
CONTINUOUS
100
AcDbVertex
100
AcDb2dVertex
 10
870.0
 20
-651.0000048327006
 30
0.0
  0
VERTEX
  5
1EF
100
AcDbEntity
  8
OBJECT
  6
CONTINUOUS
100
AcDbVertex
100
AcDb2dVertex
 10
849.0
 20
-651.0000048327006
 30
0.0
  0
VERTEX
  5
1F0
100
AcDbEntity
  8
OBJECT
  6
CONTINUOUS
100
AcDbVertex
100
AcDb2dVertex
 10
849.0
 20
-648.0000048327006
 30
0.0
  0
SEQEND
  5
1F1
100
AcDbEntity
  8
OBJECT
  6
CONTINUOUS
  0
LWPOLYLINE
  5
1F2
100
AcDbEntity
  8
OBJECT
  6
CONTINUOUS
100
AcDbPolyline
 90
       10
 70
             128
 10
802.67289999999957
 20
-981.0000048327006
 10
802.67289999999957
 20
-986.0000048327006
 10
802.67289999999957
 20
-986.0000048327006
 10
802.67289999999957
 20
-986.0000048327006
 42
-0.414213562373095
 10
797.67289999999957
 20
-991.0000048327006
 10
797.67289999999957
 20
-991.0000048327006
 10
797.67289999999957
 20
-991.0000048327006
 42
-0.414213562373095
 10
792.67289999999957
 20
-986.0000048327006
 10
792.67289999999957
 20
-981.0000048327006
 10
792.67289999999957
 20
-981.0000048327006
  0
POLYLINE
  5
1F3
100
AcDbEntity
  8
OBJECT
  6
CONTINUOUS
100
AcDb2dPolyline
 66
               1
 10
0.0
 20
0.0
 30
0.0
 70
               1
 75
               5
  0
VERTEX
  5
1F4
100
AcDbEntity
  8
OBJECT
  6
CONTINUOUS
100
AcDbVertex
100
AcDb2dVertex
 10
809.0
 20
176.85890000000018
 30
0.0
  0
VERTEX
  5
1F5
100
AcDbEntity
  8
OBJECT
  6
CONTINUOUS
100
AcDbVertex
100
AcDb2dVertex
 10
809.0
 20
189.85890000000018
 30
0.0
  0
VERTEX
  5
1F6
100
AcDbEntity
  8
OBJECT
  6
CONTINUOUS
100
AcDbVertex
100
AcDb2dVertex
 10
853.0
 20
189.85890000000018
 30
0.0
  0
VERTEX
  5
1F7
100
AcDbEntity
  8
OBJECT
  6
CONTINUOUS
100
AcDbVertex
100
AcDb2dVertex
 10
853.0
 20
176.85890000000018
 30
0.0
  0
SEQEND
  5
1F8
100
AcDbEntity
  8
OBJECT
  6
CONTINUOUS
  0
POLYLINE
  5
1F9
100
AcDbEntity
  8
OBJECT
  6
CONTINUOUS
100
AcDb2dPolyline
 66
               1
 10
0.0
 20
0.0
 30
0.0
 75
               5
  0
VERTEX
  5
1FA
100
AcDbEntity
  8
OBJECT
  6
CONTINUOUS
100
AcDbVertex
100
AcDb2dVertex
 10
826.0
 20
195.64649999999983
 30
0.0
  0
VERTEX
  5
1FB
100
AcDbEntity
  8
OBJECT
  6
CONTINUOUS
100
AcDbVertex
100
AcDb2dVertex
 10
826.0
 20
189.85890000000018
 30
0.0
  0
VERTEX
  5
1FC
100
AcDbEntity
  8
OBJECT
  6
CONTINUOUS
100
AcDbVertex
100
AcDb2dVertex
 10
836.0
 20
189.85890000000018
 30
0.0
  0
VERTEX
  5
1FD
100
AcDbEntity
  8
OBJECT
  6
CONTINUOUS
100
AcDbVertex
100
AcDb2dVertex
 10
836.0
 20
195.45809999999983
 30
0.0
  0
SEQEND
  5
1FE
100
AcDbEntity
  8
OBJECT
  6
CONTINUOUS
  0
LINE
  5
1FF
100
AcDbEntity
  8
OBJECT
  6
CONTINUOUS
100
AcDbLine
 10
835.0
 20
215.64649999999983
 30
0.0
 11
835.0
 21
220.0
 31
0.0
  0
LINE
  5
200
100
AcDbEntity
  8
OBJECT
  6
CONTINUOUS
100
AcDbLine
 10
826.0
 20
220.14649999999983
 30
0.0
 11
826.0
 21
215.64649999999983
 31
0.0
  0
LINE
  5
201
100
AcDbEntity
  8
OBJECT
  6
CONTINUOUS
100
AcDbLine
 10
771.0
 20
215.64649999999983
 30
0.0
 11
760.0
 21
215.64649999999983
 31
0.0
  0
LINE
  5
202
100
AcDbEntity
  8
OBJECT
  6
CONTINUOUS
100
AcDbLine
 10
830.0
 20
205.64649999999983
 30
0.0
 11
900.0
 21
205.64649999999983
 31
0.0
  0
LINE
  5
203
100
AcDbEntity
  8
OBJECT
  6
CONTINUOUS
100
AcDbLine
 10
760.0
 20
205.64649999999983
 30
0.0
 11
769.48149999999987
 21
205.64649999999983
 31
0.0
  0
LINE
  5
204
100
AcDbEntity
  8
OBJECT
  6
CONTINUOUS
100
AcDbLine
 10
830.0
 20
205.64649999999983
 30
0.0
 11
778.35429999999997
 21
205.64649999999983
 31
0.0
  0
LINE
  5
205
100
AcDbEntity
  8
OBJECT
  6
CONTINUOUS
100
AcDbLine
 10
830.0
 20
195.64649999999983
 30
0.0
 11
900.0
 21
195.64649999999983
 31
0.0
  0
LINE
  5
206
100
AcDbEntity
  8
OBJECT
  6
CONTINUOUS
100
AcDbLine
 10
773.0
 20
195.64649999999983
 30
0.0
 11
830.0
 21
195.64649999999983
 31
0.0
  0
ARC
  5
207
100
AcDbEntity
  8
OBJECT
  6
CONTINUOUS
100
AcDbCircle
 10
900.0
 20
200.5
 30
0.0
 40
5.1464999999998327
100
AcDbArc
 50
270.0
 51
90.0
  0
ARC
  5
208
100
AcDbEntity
  8
OBJECT
  6
CONTINUOUS
100
AcDbCircle
 10
760.0
 20
210.5
 30
0.0
 40
5.1464999999998327
100
AcDbArc
 50
90.0
 51
270.0
  0
ARC
  5
209
100
AcDbEntity
  8
OBJECT
  6
CONTINUOUS
100
AcDbCircle
 10
900.0
 20
210.5
 30
0.0
 40
5.1464999999998327
100
AcDbArc
 50
270.0
 51
26.565051177076871
  0
POLYLINE
  5
20A
100
AcDbEntity
  8
OBJECT
  6
CONTINUOUS
100
AcDb2dPolyline
 66
               1
 10
0.0
 20
0.0
 30
0.0
 70
               1
 75
               5
  0
VERTEX
  5
20B
100
AcDbEntity
  8
OBJECT
  6
CONTINUOUS
100
AcDbVertex
100
AcDb2dVertex
 10
490.0
 20
225.0
 30
0.0
  0
VERTEX
  5
20C
100
AcDbEntity
  8
OBJECT
  6
CONTINUOUS
100
AcDbVertex
100
AcDb2dVertex
 10
510.0
 20
225.0
 30
0.0
  0
VERTEX
  5
20D
100
AcDbEntity
  8
OBJECT
  6
CONTINUOUS
100
AcDbVertex
100
AcDb2dVertex
 10
510.0
 20
215.0
 30
0.0
  0
VERTEX
  5
20E
100
AcDbEntity
  8
OBJECT
  6
CONTINUOUS
100
AcDbVertex
100
AcDb2dVertex
 10
490.0
 20
215.0
 30
0.0
  0
SEQEND
  5
20F
100
AcDbEntity
  8
OBJECT
  6
CONTINUOUS
  0
LWPOLYLINE
  5
210
100
AcDbEntity
  8
OBJECT
  6
CONTINUOUS
100
AcDbPolyline
 90
       34
 70
             128
 10
510.0
 20
222.0
 10
513.0
 20
222.0
 10
513.0
 20
222.0
 10
513.0
 20
222.0
 42
-0.414213562373095
 10
515.0
 20
220.0
 10
515.0
 20
209.5
 10
515.0
 20
209.5
 10
515.0
 20
209.5
 42
0.414213562373095
 10
516.5
 20
208.0
 10
516.5
 20
208.0
 10
516.5
 20
208.0
 10
516.5
 20
208.0
 42
0.414213562373095
 10
518.0
 20
209.5
 10
518.0
 20
220.0
 10
518.0
 20
220.0
 10
518.0
 20
220.0
 42
0.414213562373095
 10
513.0
 20
225.0
 10
487.0
 20
225.0
 10
487.0
 20
225.0
 10
487.0
 20
225.0
 42
0.414213562373095
 10
482.0
 20
220.0
 10
482.0
 20
209.5
 10
482.0
 20
209.5
 10
482.0
 20
209.5
 42
0.414213562373095
 10
483.5
 20
208.0
 10
483.5
 20
208.0
 10
483.5
 20
208.0
 10
483.5
 20
208.0
 42
0.414213562373095
 10
485.0
 20
209.5
 10
485.0
 20
220.0
 10
485.0
 20
220.0
 10
485.0
 20
220.0
 42
-0.414213562373095
 10
487.0
 20
222.0
 10
490.0
 20
222.0
  0
LWPOLYLINE
  5
211
100
AcDbEntity
  8
OBJECT
  6
CONTINUOUS
100
AcDbPolyline
 90
       15
 70
             128
 10
483.20830000000001
 20
222.5
 10
444.5311999999999
 20
222.5
 10
444.5311999999999
 20
222.5
 10
444.5311999999999
 20
222.5
 10
444.5311999999999
 20
222.5
 10
444.5311999999999
 20
222.5
 42
-0.414213562373095
 10
422.5
 20
244.5311999999999
 10
422.5
 20
244.8109000000004
 10
422.5
 20
790.1890999999996
 10
422.5
 20
790.1890999999996
 10
422.5
 20
790.1890999999996
 10
422.5
 20
790.1890999999996
 10
422.5
 20
790.4688000000001
 42
-0.414213562373095
 10
444.5311999999999
 20
812.5
 10
540.0
 20
812.5
  0
LINE
  5
212
100
AcDbEntity
  8
OBJECT
  6
CONTINUOUS
100
AcDbLine
 10
490.0
 20
220.0
 30
0.0
 11
485.0
 21
220.0
 31
0.0
  0
LINE
  5
213
100
AcDbEntity
  8
OBJECT
  6
CONTINUOUS
100
AcDbLine
 10
518.0
 20
220.0
 30
0.0
 11
621.0
 21
220.0
 31
0.0
  0
LINE
  5
214
100
AcDbEntity
  8
OBJECT
  6
CONTINUOUS
100
AcDbLine
 10
510.0
 20
220.0
 30
0.0
 11
515.0
 21
220.0
 31
0.0
  0
POLYLINE
  5
215
100
AcDbEntity
  8
OBJECT
  6
CONTINUOUS
100
AcDb2dPolyline
 66
               1
 10
0.0
 20
0.0
 30
0.0
 70
               1
 75
               5
  0
VERTEX
  5
216
100
AcDbEntity
  8
OBJECT
  6
CONTINUOUS
100
AcDbVertex
100
AcDb2dVertex
 10
890.0
 20
224.99999999999989
 30
0.0
  0
VERTEX
  5
217
100
AcDbEntity
  8
OBJECT
  6
CONTINUOUS
100
AcDbVertex
100
AcDb2dVertex
 10
910.0
 20
224.99999999999989
 30
0.0
  0
VERTEX
  5
218
100
AcDbEntity
  8
OBJECT
  6
CONTINUOUS
100
AcDbVertex
100
AcDb2dVertex
 10
910.0
 20
214.99999999999989
 30
0.0
  0
VERTEX
  5
219
100
AcDbEntity
  8
OBJECT
  6
CONTINUOUS
100
AcDbVertex
100
AcDb2dVertex
 10
890.0
 20
214.99999999999989
 30
0.0
  0
SEQEND
  5
21A
100
AcDbEntity
  8
OBJECT
  6
CONTINUOUS
  0
LWPOLYLINE
  5
21B
100
AcDbEntity
  8
OBJECT
  6
CONTINUOUS
100
AcDbPolyline
 90
       34
 70
             128
 10
910.0
 20
222.0
 10
913.0
 20
222.0
 10
913.0
 20
222.0
 10
913.0
 20
222.0
 42
-0.414213562373095
 10
915.0
 20
220.0
 10
915.0
 20
209.5
 10
915.0
 20
209.5
 10
915.0
 20
209.5
 42
0.414213562373095
 10
916.5
 20
208.0
 10
916.5
 20
208.0
 10
916.5
 20
208.0
 10
916.5
 20
208.0
 42
0.414213562373095
 10
918.0
 20
209.5
 10
918.0
 20
220.0
 10
918.0
 20
220.0
 10
918.0
 20
220.0
 42
0.414213562373095
 10
913.0
 20
225.0
 10
887.0
 20
225.0
 10
887.0
 20
225.0
 10
887.0
 20
225.0
 42
0.414213562373095
 10
882.0
 20
220.0
 10
882.0
 20
209.5
 10
882.0
 20
209.5
 10
882.0
 20
209.5
 42
0.414213562373095
 10
883.5
 20
208.0
 10
883.5
 20
208.0
 10
883.5
 20
208.0
 10
883.5
 20
208.0
 42
0.414213562373095
 10
885.0
 20
209.5
 10
885.0
 20
220.0
 10
885.0
 20
220.0
 10
885.0
 20
220.0
 42
-0.414213562373095
 10
887.0
 20
222.0
 10
890.0
 20
222.0
  0
LINE
  5
21C
100
AcDbEntity
  8
OBJECT
  6
CONTINUOUS
100
AcDbLine
 10
890.0
 20
220.0
 30
0.0
 11
885.0
 21
220.0
 31
0.0
  0
LINE
  5
21D
100
AcDbEntity
  8
OBJECT
  6
CONTINUOUS
100
AcDbLine
 10
910.0
 20
220.0
 30
0.0
 11
915.0
 21
220.0
 31
0.0
  0
LINE
  5
21E
100
AcDbEntity
  8
OBJECT
  6
CONTINUOUS
100
AcDbLine
 10
882.0
 20
215.64649999999983
 30
0.0
 11
779.0
 21
215.64649999999983
 31
0.0
  0
LINE
  5
21F
100
AcDbEntity
  8
OBJECT
  6
CONTINUOUS
100
AcDbLine
 10
890.0
 20
215.64649999999983
 30
0.0
 11
885.0
 21
215.64649999999983
 31
0.0
  0
LINE
  5
220
100
AcDbEntity
  8
OBJECT
  6
CONTINUOUS
100
AcDbLine
 10
882.0
 20
220.0
 30
0.0
 11
779.0
 21
220.0
 31
0.0
  0
LINE
  5
221
100
AcDbEntity
  8
OBJECT
  6
CONTINUOUS
100
AcDbLine
 10
890.0
 20
220.0
 30
0.0
 11
885.0
 21
220.0
 31
0.0
  0
LWPOLYLINE
  5
222
100
AcDbEntity
  8
OBJECT
  6
CONTINUOUS
100
AcDbPolyline
 90
       15
 70
             128
 10
916.79169999999999
 20
222.5
 10
955.46879999999987
 20
222.5
 10
955.46879999999987
 20
222.5
 10
955.46879999999987
 20
222.5
 10
955.46879999999987
 20
222.5
 10
955.46879999999987
 20
222.5
 42
0.414213562373095
 10
977.5
 20
244.53120000000013
 10
977.5
 20
244.8109000000004
 10
977.5
 20
790.1890999999996
 10
977.5
 20
790.1890999999996
 10
977.5
 20
790.1890999999996
 10
977.5
 20
790.1890999999996
 10
977.5
 20
790.46879999999987
 42
0.414213562373095
 10
955.46879999999987
 20
812.5
 10
860.0
 20
812.5
  0
LINE
  5
223
100
AcDbEntity
  8
OBJECT
  6
CONTINUOUS
100
AcDbLine
 10
910.0
 20
220.0
 30
0.0
 11
915.0
 21
220.0
 31
0.0
  0
LINE
  5
224
100
AcDbEntity
  8
OBJECT
  6
CONTINUOUS
100
AcDbLine
 10
472.0
 20
433.5
 30
0.0
 11
472.0
 21
566.5
 31
0.0
  0
LINE
  5
225
100
AcDbEntity
  8
OBJECT
  6
CONTINUOUS
100
AcDbLine
 10
928.0
 20
566.5
 30
0.0
 11
928.0
 21
433.5
 31
0.0
  0
LINE
  5
226
100
AcDbEntity
  8
OBJECT
  6
CONTINUOUS
100
AcDbLine
 10
545.0
 20
320.05209999999988
 30
0.0
 11
545.0
 21
679.94790000000012
 31
0.0
  0
LINE
  5
227
100
AcDbEntity
  8
OBJECT
  6
CONTINUOUS
100
AcDbLine
 10
835.57749999999987
 20
305.0
 30
0.0
 11
564.42250000000013
 21
305.0
 31
0.0
  0
LINE
  5
228
100
AcDbEntity
  8
OBJECT
  6
CONTINUOUS
100
AcDbLine
 10
855.0
 20
679.94790000000012
 30
0.0
 11
855.0
 21
320.05209999999988
 31
0.0
  0
LINE
  5
229
100
AcDbEntity
  8
OBJECT
  6
CONTINUOUS
100
AcDbLine
 10
564.42250000000013
 20
695.0
 30
0.0
 11
835.57749999999987
 21
695.0
 31
0.0
  0
LINE
  5
22A
100
AcDbEntity
  8
OBJECT
  6
CONTINUOUS
100
AcDbLine
 10
515.0
 20
351.06630000000041
 30
0.0
 11
515.0
 21
648.93369999999959
 31
0.0
  0
LINE
  5
22B
100
AcDbEntity
  8
OBJECT
  6
CONTINUOUS
100
AcDbLine
 10
885.0
 20
648.93369999999959
 30
0.0
 11
885.0
 21
351.06630000000041
 31
0.0
  0
LINE
  5
22C
100
AcDbEntity
  8
OBJECT
  6
CONTINUOUS
100
AcDbLine
 10
512.0
 20
354.8716000000004
 30
0.0
 11
512.0
 21
645.1283999999996
 31
0.0
  0
LINE
  5
22D
100
AcDbEntity
  8
OBJECT
  6
CONTINUOUS
100
AcDbLine
 10
888.0
 20
645.1283999999996
 30
0.0
 11
888.0
 21
354.8716000000004
 31
0.0
  0
LINE
  5
22E
100
AcDbEntity
  8
OBJECT
  6
CONTINUOUS
100
AcDbLine
 10
923.0
 20
581.71439999999984
 30
0.0
 11
923.0
 21
418.28560000000016
 31
0.0
  0
LINE
  5
22F
100
AcDbEntity
  8
OBJECT
  6
CONTINUOUS
100
AcDbLine
 10
477.0
 20
418.28560000000016
 30
0.0
 11
477.0
 21
581.71439999999984
 31
0.0
  0
POLYLINE
  5
230
100
AcDbEntity
  8
OBJECT
  6
CONTINUOUS
100
AcDb2dPolyline
 66
               1
 10
0.0
 20
0.0
 30
0.0
 70
               1
 75
               5
  0
VERTEX
  5
231
100
AcDbEntity
  8
OBJECT
  6
CONTINUOUS
100
AcDbVertex
100
AcDb2dVertex
 10
417.0
 20
751.5
 30
0.0
  0
VERTEX
  5
232
100
AcDbEntity
  8
OBJECT
  6
CONTINUOUS
100
AcDbVertex
100
AcDb2dVertex
 10
420.0
 20
751.5
 30
0.0
  0
VERTEX
  5
233
100
AcDbEntity
  8
OBJECT
  6
CONTINUOUS
100
AcDbVertex
100
AcDb2dVertex
 10
420.0
 20
728.5
 30
0.0
  0
VERTEX
  5
234
100
AcDbEntity
  8
OBJECT
  6
CONTINUOUS
100
AcDbVertex
100
AcDb2dVertex
 10
397.0
 20
728.5
 30
0.0
  0
VERTEX
  5
235
100
AcDbEntity
  8
OBJECT
  6
CONTINUOUS
100
AcDbVertex
100
AcDb2dVertex
 10
397.0
 20
701.5
 30
0.0
  0
VERTEX
  5
236
100
AcDbEntity
  8
OBJECT
  6
CONTINUOUS
100
AcDbVertex
100
AcDb2dVertex
 10
393.0
 20
691.5
 30
0.0
  0
VERTEX
  5
237
100
AcDbEntity
  8
OBJECT
  6
CONTINUOUS
100
AcDbVertex
100
AcDb2dVertex
 10
390.0
 20
691.5
 30
0.0
  0
VERTEX
  5
238
100
AcDbEntity
  8
OBJECT
  6
CONTINUOUS
100
AcDbVertex
100
AcDb2dVertex
 10
394.0
 20
701.5
 30
0.0
  0
VERTEX
  5
239
100
AcDbEntity
  8
OBJECT
  6
CONTINUOUS
100
AcDbVertex
100
AcDb2dVertex
 10
394.0
 20
731.5
 30
0.0
  0
VERTEX
  5
23A
100
AcDbEntity
  8
OBJECT
  6
CONTINUOUS
100
AcDbVertex
100
AcDb2dVertex
 10
417.0
 20
731.5
 30
0.0
  0
SEQEND
  5
23B
100
AcDbEntity
  8
OBJECT
  6
CONTINUOUS
  0
POLYLINE
  5
23C
100
AcDbEntity
  8
OBJECT
  6
CONTINUOUS
100
AcDb2dPolyline
 66
               1
 10
0.0
 20
0.0
 30
0.0
 70
               1
 75
               5
  0
VERTEX
  5
23D
100
AcDbEntity
  8
OBJECT
  6
CONTINUOUS
100
AcDbVertex
100
AcDb2dVertex
 10
417.0
 20
228.5
 30
0.0
  0
VERTEX
  5
23E
100
AcDbEntity
  8
OBJECT
  6
CONTINUOUS
100
AcDbVertex
100
AcDb2dVertex
 10
420.0
 20
228.5
 30
0.0
  0
VERTEX
  5
23F
100
AcDbEntity
  8
OBJECT
  6
CONTINUOUS
100
AcDbVertex
100
AcDb2dVertex
 10
420.0
 20
251.5
 30
0.0
  0
VERTEX
  5
240
100
AcDbEntity
  8
OBJECT
  6
CONTINUOUS
100
AcDbVertex
100
AcDb2dVertex
 10
397.0
 20
251.5
 30
0.0
  0
VERTEX
  5
241
100
AcDbEntity
  8
OBJECT
  6
CONTINUOUS
100
AcDbVertex
100
AcDb2dVertex
 10
397.0
 20
278.5
 30
0.0
  0
VERTEX
  5
242
100
AcDbEntity
  8
OBJECT
  6
CONTINUOUS
100
AcDbVertex
100
AcDb2dVertex
 10
393.0
 20
288.5
 30
0.0
  0
VERTEX
  5
243
100
AcDbEntity
  8
OBJECT
  6
CONTINUOUS
100
AcDbVertex
100
AcDb2dVertex
 10
390.0
 20
288.5
 30
0.0
  0
VERTEX
  5
244
100
AcDbEntity
  8
OBJECT
  6
CONTINUOUS
100
AcDbVertex
100
AcDb2dVertex
 10
394.0
 20
278.5
 30
0.0
  0
VERTEX
  5
245
100
AcDbEntity
  8
OBJECT
  6
CONTINUOUS
100
AcDbVertex
100
AcDb2dVertex
 10
394.0
 20
248.5
 30
0.0
  0
VERTEX
  5
246
100
AcDbEntity
  8
OBJECT
  6
CONTINUOUS
100
AcDbVertex
100
AcDb2dVertex
 10
417.0
 20
248.5
 30
0.0
  0
SEQEND
  5
247
100
AcDbEntity
  8
OBJECT
  6
CONTINUOUS
  0
POLYLINE
  5
248
100
AcDbEntity
  8
OBJECT
  6
CONTINUOUS
100
AcDb2dPolyline
 66
               1
 10
0.0
 20
0.0
 30
0.0
 70
               1
 75
               5
  0
VERTEX
  5
249
100
AcDbEntity
  8
OBJECT
  6
CONTINUOUS
100
AcDbVertex
100
AcDb2dVertex
 10
390.0
 20
521.5
 30
0.0
  0
VERTEX
  5
24A
100
AcDbEntity
  8
OBJECT
  6
CONTINUOUS
100
AcDbVertex
100
AcDb2dVertex
 10
420.0
 20
521.5
 30
0.0
  0
VERTEX
  5
24B
100
AcDbEntity
  8
OBJECT
  6
CONTINUOUS
100
AcDbVertex
100
AcDb2dVertex
 10
420.0
 20
461.5
 30
0.0
  0
VERTEX
  5
24C
100
AcDbEntity
  8
OBJECT
  6
CONTINUOUS
100
AcDbVertex
100
AcDb2dVertex
 10
390.0
 20
461.5
 30
0.0
  0
SEQEND
  5
24D
100
AcDbEntity
  8
OBJECT
  6
CONTINUOUS
  0
LINE
  5
24E
100
AcDbEntity
  8
OBJECT
  6
CONTINUOUS
100
AcDbLine
 10
393.0
 20
521.5
 30
0.0
 11
393.0
 21
461.5
 31
0.0
  0
POLYLINE
  5
24F
100
AcDbEntity
  8
OBJECT
  6
CONTINUOUS
100
AcDb2dPolyline
 66
               1
 10
0.0
 20
0.0
 30
0.0
 70
               1
 75
               5
  0
VERTEX
  5
250
100
AcDbEntity
  8
OBJECT
  6
CONTINUOUS
100
AcDbVertex
100
AcDb2dVertex
 10
417.0
 20
-860.5000048327006
 30
0.0
  0
VERTEX
  5
251
100
AcDbEntity
  8
OBJECT
  6
CONTINUOUS
100
AcDbVertex
100
AcDb2dVertex
 10
420.0
 20
-860.5000048327006
 30
0.0
  0
VERTEX
  5
252
100
AcDbEntity
  8
OBJECT
  6
CONTINUOUS
100
AcDbVertex
100
AcDb2dVertex
 10
420.0
 20
-837.5000048327006
 30
0.0
  0
VERTEX
  5
253
100
AcDbEntity
  8
OBJECT
  6
CONTINUOUS
100
AcDbVertex
100
AcDb2dVertex
 10
397.0
 20
-837.5000048327006
 30
0.0
  0
VERTEX
  5
254
100
AcDbEntity
  8
OBJECT
  6
CONTINUOUS
100
AcDbVertex
100
AcDb2dVertex
 10
397.0
 20
-810.5000048327006
 30
0.0
  0
VERTEX
  5
255
100
AcDbEntity
  8
OBJECT
  6
CONTINUOUS
100
AcDbVertex
100
AcDb2dVertex
 10
393.0
 20
-800.5000048327006
 30
0.0
  0
VERTEX
  5
256
100
AcDbEntity
  8
OBJECT
  6
CONTINUOUS
100
AcDbVertex
100
AcDb2dVertex
 10
390.0
 20
-800.5000048327006
 30
0.0
  0
VERTEX
  5
257
100
AcDbEntity
  8
OBJECT
  6
CONTINUOUS
100
AcDbVertex
100
AcDb2dVertex
 10
394.0
 20
-810.5000048327006
 30
0.0
  0
VERTEX
  5
258
100
AcDbEntity
  8
OBJECT
  6
CONTINUOUS
100
AcDbVertex
100
AcDb2dVertex
 10
394.0
 20
-840.5000048327006
 30
0.0
  0
VERTEX
  5
259
100
AcDbEntity
  8
OBJECT
  6
CONTINUOUS
100
AcDbVertex
100
AcDb2dVertex
 10
417.0
 20
-840.5000048327006
 30
0.0
  0
SEQEND
  5
25A
100
AcDbEntity
  8
OBJECT
  6
CONTINUOUS
  0
POLYLINE
  5
25B
100
AcDbEntity
  8
OBJECT
  6
CONTINUOUS
100
AcDb2dPolyline
 66
               1
 10
0.0
 20
0.0
 30
0.0
 70
               1
 75
               5
  0
VERTEX
  5
25C
100
AcDbEntity
  8
OBJECT
  6
CONTINUOUS
100
AcDbVertex
100
AcDb2dVertex
 10
390.0
 20
-569.0000048327006
 30
0.0
  0
VERTEX
  5
25D
100
AcDbEntity
  8
OBJECT
  6
CONTINUOUS
100
AcDbVertex
100
AcDb2dVertex
 10
420.0
 20
-569.0000048327006
 30
0.0
  0
VERTEX
  5
25E
100
AcDbEntity
  8
OBJECT
  6
CONTINUOUS
100
AcDbVertex
100
AcDb2dVertex
 10
420.0
 20
-629.0000048327006
 30
0.0
  0
VERTEX
  5
25F
100
AcDbEntity
  8
OBJECT
  6
CONTINUOUS
100
AcDbVertex
100
AcDb2dVertex
 10
390.0
 20
-629.0000048327006
 30
0.0
  0
SEQEND
  5
260
100
AcDbEntity
  8
OBJECT
  6
CONTINUOUS
  0
LINE
  5
261
100
AcDbEntity
  8
OBJECT
  6
CONTINUOUS
100
AcDbLine
 10
417.0
 20
-569.0000048327006
 30
0.0
 11
417.0
 21
-629.0000048327006
 31
0.0
  0
LINE
  5
262
100
AcDbEntity
  8
OBJECT
  6
CONTINUOUS
100
AcDbLine
 10
457.5
 20
-987.5000048327006
 30
0.0
 11
502.5
 21
-987.5000048327006
 31
0.0
  0
POLYLINE
  5
263
100
AcDbEntity
  8
OBJECT
  6
CONTINUOUS
100
AcDb2dPolyline
 66
               1
 10
0.0
 20
0.0
 30
0.0
 70
               1
 75
               5
  0
VERTEX
  5
264
100
AcDbEntity
  8
OBJECT
  6
CONTINUOUS
100
AcDbVertex
100
AcDb2dVertex
 10
465.0
 20
-1041.7500048327006
 30
0.0
  0
VERTEX
  5
265
100
AcDbEntity
  8
OBJECT
  6
CONTINUOUS
100
AcDbVertex
100
AcDb2dVertex
 10
467.5
 20
-1041.7500048327006
 30
0.0
  0
VERTEX
  5
266
100
AcDbEntity
  8
OBJECT
  6
CONTINUOUS
100
AcDbVertex
100
AcDb2dVertex
 10
467.5
 20
-1058.2500048327006
 30
0.0
  0
VERTEX
  5
267
100
AcDbEntity
  8
OBJECT
  6
CONTINUOUS
100
AcDbVertex
100
AcDb2dVertex
 10
465.0
 20
-1058.2500048327006
 30
0.0
  0
SEQEND
  5
268
100
AcDbEntity
  8
OBJECT
  6
CONTINUOUS
  0
POLYLINE
  5
269
100
AcDbEntity
  8
OBJECT
  6
CONTINUOUS
100
AcDb2dPolyline
 66
               1
 10
0.0
 20
0.0
 30
0.0
 70
               1
 75
               5
  0
VERTEX
  5
26A
100
AcDbEntity
  8
OBJECT
  6
CONTINUOUS
100
AcDbVertex
100
AcDb2dVertex
 10
459.5
 20
-1044.5000048327006
 30
0.0
  0
VERTEX
  5
26B
100
AcDbEntity
  8
OBJECT
  6
CONTINUOUS
100
AcDbVertex
100
AcDb2dVertex
 10
462.0
 20
-1044.5000048327006
 30
0.0
  0
VERTEX
  5
26C
100
AcDbEntity
  8
OBJECT
  6
CONTINUOUS
100
AcDbVertex
100
AcDb2dVertex
 10
462.0
 20
-1055.5000048327006
 30
0.0
  0
VERTEX
  5
26D
100
AcDbEntity
  8
OBJECT
  6
CONTINUOUS
100
AcDbVertex
100
AcDb2dVertex
 10
459.5
 20
-1055.5000048327006
 30
0.0
  0
SEQEND
  5
26E
100
AcDbEntity
  8
OBJECT
  6
CONTINUOUS
  0
LWPOLYLINE
  5
26F
100
AcDbEntity
  8
OBJECT
  6
CONTINUOUS
100
AcDbPolyline
 90
       10
 70
             129
 10
487.5
 20
-1045.5000048327006
 42
-0.414213562373095
 10
489.5
 20
-1047.5000048327006
 10
489.5
 20
-1060.5000048327006
 42
-0.414213562373095
 10
487.5
 20
-1062.5000048327006
 10
486.5
 20
-1062.5000048327006
 10
486.5
 20
-1055.5000048327006
 10
471.5
 20
-1055.5000048327006
 42
-0.414213562373095
 10
469.5
 20
-1053.5000048327006
 10
469.5
 20
-1047.5000048327006
 42
-0.414213562373095
 10
471.5
 20
-1045.5000048327006
  0
POLYLINE
  5
270
100
AcDbEntity
  8
OBJECT
  6
CONTINUOUS
100
AcDb2dPolyline
 66
               1
 10
0.0
 20
0.0
 30
0.0
 70
               1
 75
               5
  0
VERTEX
  5
271
100
AcDbEntity
  8
OBJECT
  6
CONTINUOUS
100
AcDbVertex
100
AcDb2dVertex
 10
475.0
 20
-981.0000048327006
 30
0.0
  0
VERTEX
  5
272
100
AcDbEntity
  8
OBJECT
  6
CONTINUOUS
100
AcDbVertex
100
AcDb2dVertex
 10
545.0
 20
-981.0000048327006
 30
0.0
  0
VERTEX
  5
273
100
AcDbEntity
  8
OBJECT
  6
CONTINUOUS
100
AcDbVertex
100
AcDb2dVertex
 10
545.0
 20
-984.0000048327006
 30
0.0
  0
VERTEX
  5
274
100
AcDbEntity
  8
OBJECT
  6
CONTINUOUS
100
AcDbVertex
100
AcDb2dVertex
 10
475.0
 20
-984.0000048327006
 30
0.0
  0
SEQEND
  5
275
100
AcDbEntity
  8
OBJECT
  6
CONTINUOUS
  0
POLYLINE
  5
276
100
AcDbEntity
  8
OBJECT
  6
CONTINUOUS
100
AcDb2dPolyline
 66
               1
 10
0.0
 20
0.0
 30
0.0
 70
               1
 75
               5
  0
VERTEX
  5
277
100
AcDbEntity
  8
OBJECT
  6
CONTINUOUS
100
AcDbVertex
100
AcDb2dVertex
 10
483.5
 20
-984.0000048327006
 30
0.0
  0
VERTEX
  5
278
100
AcDbEntity
  8
OBJECT
  6
CONTINUOUS
100
AcDbVertex
100
AcDb2dVertex
 10
536.5
 20
-984.0000048327006
 30
0.0
  0
VERTEX
  5
279
100
AcDbEntity
  8
OBJECT
  6
CONTINUOUS
100
AcDbVertex
100
AcDb2dVertex
 10
532.5
 20
-987.5000048327006
 30
0.0
  0
VERTEX
  5
27A
100
AcDbEntity
  8
OBJECT
  6
CONTINUOUS
100
AcDbVertex
100
AcDb2dVertex
 10
532.5
 20
-991.0000048327006
 30
0.0
  0
VERTEX
  5
27B
100
AcDbEntity
  8
OBJECT
  6
CONTINUOUS
100
AcDbVertex
100
AcDb2dVertex
 10
487.5
 20
-991.0000048327006
 30
0.0
  0
VERTEX
  5
27C
100
AcDbEntity
  8
OBJECT
  6
CONTINUOUS
100
AcDbVertex
100
AcDb2dVertex
 10
487.5
 20
-987.5000048327006
 30
0.0
  0
SEQEND
  5
27D
100
AcDbEntity
  8
OBJECT
  6
CONTINUOUS
  0
LINE
  5
27E
100
AcDbEntity
  8
OBJECT
  6
CONTINUOUS
100
AcDbLine
 10
487.5
 20
-987.5000048327006
 30
0.0
 11
532.5
 21
-987.5000048327006
 31
0.0
  0
SPLINE
  5
27F
100
AcDbEntity
  8
OBJECT
  6
CONTINUOUS
100
AcDbSpline
210
0.0
220
0.0
230
1.0
 70
               9
 71
               2
 72
              28
 73
              25
 74
               0
 42
0.000001
 43
0.000001
 40
0.0
 40
0.0
 40
0.0
 40
0.1364451216774349
 40
0.1364451216774349
 40
0.206088985866959
 40
0.206088985866959
 40
0.2868044973790079
 40
0.2868044973790079
 40
0.3351288113064328
 40
0.3351288113064328
 40
0.3436566314112725
 40
0.3436566314112725
 40
0.525583460314519
 40
0.525583460314519
 40
0.6108616613629158
 40
0.6108616613629158
 40
0.7927884902661623
 40
0.7927884902661623
 40
0.8013163103710019
 40
0.8013163103710019
 40
0.8496406242984268
 40
0.8496406242984268
 40
0.9303561358104757
 40
0.9303561358104757
 40
1.0
 40
1.0
 40
1.0
 10
534.0
 20
-991.0000048327006
 30
0.0
 10
510.0
 20
-991.0000048327006
 30
0.0
 10
486.0
 20
-991.0000048327006
 30
0.0
 10
486.0
 20
-1003.2500048327006
 30
0.0
 10
486.0
 20
-1015.5000048327006
 30
0.0
 10
486.0
 20
-1030.5000048327006
 30
0.0
 10
492.0
 20
-1043.0000048327006
 30
0.0
 10
492.0
 20
-1051.5000048327006
 30
0.0
 10
492.0
 20
-1060.0000048327006
 30
0.0
 10
493.5
 20
-1060.0000048327006
 30
0.0
 10
495.0
 20
-1060.0000048327006
 30
0.0
 10
495.0
 20
-1028.0000048327006
 30
0.0
 10
495.0
 20
-996.0000048327006
 30
0.0
 10
510.0
 20
-996.0000048327006
 30
0.0
 10
525.0
 20
-996.0000048327006
 30
0.0
 10
525.0
 20
-1028.0000048327006
 30
0.0
 10
525.0
 20
-1060.0000048327006
 30
0.0
 10
526.5
 20
-1060.0000048327006
 30
0.0
 10
528.0
 20
-1060.0000048327006
 30
0.0
 10
528.0
 20
-1051.5000048327006
 30
0.0
 10
528.0
 20
-1043.0000048327006
 30
0.0
 10
534.0
 20
-1030.5000048327006
 30
0.0
 10
534.0
 20
-1015.5000048327006
 30
0.0
 10
534.0
 20
-1003.2500048327006
 30
0.0
 10
534.0
 20
-991.0000048327006
 30
0.0
  0
POLYLINE
  5
280
100
AcDbEntity
  8
OBJECT
  6
CONTINUOUS
100
AcDb2dPolyline
 66
               1
 10
0.0
 20
0.0
 30
0.0
 70
               1
 75
               5
  0
VERTEX
  5
281
100
AcDbEntity
  8
OBJECT
  6
CONTINUOUS
100
AcDbVertex
100
AcDb2dVertex
 10
528.0
 20
-993.0000048327006
 30
0.0
  0
VERTEX
  5
282
100
AcDbEntity
  8
OBJECT
  6
CONTINUOUS
100
AcDbVertex
100
AcDb2dVertex
 10
492.0
 20
-993.0000048327006
 30
0.0
  0
VERTEX
  5
283
100
AcDbEntity
  8
OBJECT
  6
CONTINUOUS
100
AcDbVertex
100
AcDb2dVertex
 10
492.0
 20
-1060.0000048327006
 30
0.0
  0
VERTEX
  5
284
100
AcDbEntity
  8
OBJECT
  6
CONTINUOUS
100
AcDbVertex
100
AcDb2dVertex
 10
495.0
 20
-1060.0000048327006
 30
0.0
  0
VERTEX
  5
285
100
AcDbEntity
  8
OBJECT
  6
CONTINUOUS
100
AcDbVertex
100
AcDb2dVertex
 10
495.0
 20
-996.0000048327006
 30
0.0
  0
VERTEX
  5
286
100
AcDbEntity
  8
OBJECT
  6
CONTINUOUS
100
AcDbVertex
100
AcDb2dVertex
 10
525.0
 20
-996.0000048327006
 30
0.0
  0
VERTEX
  5
287
100
AcDbEntity
  8
OBJECT
  6
CONTINUOUS
100
AcDbVertex
100
AcDb2dVertex
 10
525.0
 20
-1060.0000048327006
 30
0.0
  0
VERTEX
  5
288
100
AcDbEntity
  8
OBJECT
  6
CONTINUOUS
100
AcDbVertex
100
AcDb2dVertex
 10
528.0
 20
-1060.0000048327006
 30
0.0
  0
SEQEND
  5
289
100
AcDbEntity
  8
OBJECT
  6
CONTINUOUS
  0
SPLINE
  5
28A
100
AcDbEntity
  8
OBJECT
  6
CONTINUOUS
100
AcDbSpline
210
0.0
220
0.0
230
1.0
 70
              13
 71
               2
 72
              28
 73
              25
 74
               0
 42
0.000001
 43
0.000001
 40
0.0
 40
0.0
 40
0.0
 40
0.011666436947165
 40
0.011666436947165
 40
0.0307673121208428
 40
0.0307673121208428
 40
0.0826383042797589
 40
0.0826383042797589
 40
0.1017391794534368
 40
0.1017391794534368
 40
0.1134056164006006
 40
0.1134056164006006
 40
0.5000000000000007
 40
0.5000000000000007
 40
0.5116664369471643
 40
0.5116664369471643
 40
0.5307673121208422
 40
0.5307673121208422
 40
0.5826383042797583
 40
0.5826383042797583
 40
0.6017391794534361
 40
0.6017391794534361
 40
0.6134056164006001
 40
0.6134056164006001
 40
1.0
 40
1.0
 40
1.0
 10
522.5
 20
-1003.205443056888
 30
0.0
 41
1.0
 10
522.5
 20
-1001.5000048327004
 30
0.0
 41
0.7609173743274019
 10
520.81598100221333
 20
-1001.2305617930547
 30
0.0
 41
1.0
 10
518.53299050110672
 20
-1000.8652833128776
 30
0.0
 41
1.0
 10
516.25
 20
-1000.5000048327006
 30
0.0
 41
1.0
 10
510.0
 20
-999.5000048327006
 30
0.0
 41
1.0
 10
503.75
 20
-1000.5000048327006
 30
0.0
 41
1.0
 10
501.46700949889333
 20
-1000.8652833128776
 30
0.0
 41
1.0
 10
499.18401899778667
 20
-1001.2305617930547
 30
0.0
 41
1.0
 10
497.50000000000017
 20
-1001.5000048327006
 30
0.0
 41
0.7609173743274694
 10
497.5
 20
-1003.205443056888
 30
0.0
 41
1.0
 10
497.5
 20
-1050.0000048327006
 30
0.0
 41
1.0
 10
497.5
 20
-1096.7945666085132
 30
0.0
 41
1.0
 10
497.5
 20
-1098.5000048327006
 30
0.0
 41
0.7609173743274202
 10
499.18401899778667
 20
-1098.7694478723465
 30
0.0
 41
1.0
 10
501.46700949889333
 20
-1099.1347263525236
 30
0.0
 41
1.0
 10
503.75
 20
-1099.5000048327006
 30
0.0
 41
1.0
 10
510.0
 20
-1100.5000048327006
 30
0.0
 41
1.0
 10
516.25
 20
-1099.5000048327006
 30
0.0
 41
1.0
 10
518.53299050110672
 20
-1099.1347263525236
 30
0.0
 41
1.0
 10
520.81598100221333
 20
-1098.7694478723465
 30
0.0
 41
1.0
 10
522.49999999999977
 20
-1098.5000048327006
 30
0.0
 41
0.7609173743274694
 10
522.5
 20
-1096.7945666085132
 30
0.0
 41
1.0
 10
522.5
 20
-1050.0000048327006
 30
0.0
 41
1.0
 10
522.5
 20
-1003.205443056888
 30
0.0
 41
1.0
  0
POLYLINE
  5
28B
100
AcDbEntity
  8
OBJECT
  6
CONTINUOUS
100
AcDb2dPolyline
 66
               1
 10
0.0
 20
0.0
 30
0.0
 70
               1
 75
               5
  0
VERTEX
  5
28C
100
AcDbEntity
  8
OBJECT
  6
CONTINUOUS
100
AcDbVertex
100
AcDb2dVertex
 10
495.0
 20
-1041.7500048327006
 30
0.0
  0
VERTEX
  5
28D
100
AcDbEntity
  8
OBJECT
  6
CONTINUOUS
100
AcDbVertex
100
AcDb2dVertex
 10
497.5
 20
-1041.7500048327006
 30
0.0
  0
VERTEX
  5
28E
100
AcDbEntity
  8
OBJECT
  6
CONTINUOUS
100
AcDbVertex
100
AcDb2dVertex
 10
497.5
 20
-1058.2500048327006
 30
0.0
  0
VERTEX
  5
28F
100
AcDbEntity
  8
OBJECT
  6
CONTINUOUS
100
AcDbVertex
100
AcDb2dVertex
 10
495.0
 20
-1058.2500048327006
 30
0.0
  0
SEQEND
  5
290
100
AcDbEntity
  8
OBJECT
  6
CONTINUOUS
  0
POLYLINE
  5
291
100
AcDbEntity
  8
OBJECT
  6
CONTINUOUS
100
AcDb2dPolyline
 66
               1
 10
0.0
 20
0.0
 30
0.0
 70
               1
 75
               5
  0
VERTEX
  5
292
100
AcDbEntity
  8
OBJECT
  6
CONTINUOUS
100
AcDbVertex
100
AcDb2dVertex
 10
522.5
 20
-1041.7500048327006
 30
0.0
  0
VERTEX
  5
293
100
AcDbEntity
  8
OBJECT
  6
CONTINUOUS
100
AcDbVertex
100
AcDb2dVertex
 10
525.0
 20
-1041.7500048327006
 30
0.0
  0
VERTEX
  5
294
100
AcDbEntity
  8
OBJECT
  6
CONTINUOUS
100
AcDbVertex
100
AcDb2dVertex
 10
525.0
 20
-1058.2500048327006
 30
0.0
  0
VERTEX
  5
295
100
AcDbEntity
  8
OBJECT
  6
CONTINUOUS
100
AcDbVertex
100
AcDb2dVertex
 10
522.5
 20
-1058.2500048327006
 30
0.0
  0
SEQEND
  5
296
100
AcDbEntity
  8
OBJECT
  6
CONTINUOUS
  0
POLYLINE
  5
297
100
AcDbEntity
  8
OBJECT
  6
CONTINUOUS
100
AcDb2dPolyline
 66
               1
 10
0.0
 20
0.0
 30
0.0
 70
               1
 75
               5
  0
VERTEX
  5
298
100
AcDbEntity
  8
OBJECT
  6
CONTINUOUS
100
AcDbVertex
100
AcDb2dVertex
 10
528.0
 20
-1044.5000048327006
 30
0.0
  0
VERTEX
  5
299
100
AcDbEntity
  8
OBJECT
  6
CONTINUOUS
100
AcDbVertex
100
AcDb2dVertex
 10
530.5
 20
-1044.5000048327006
 30
0.0
  0
VERTEX
  5
29A
100
AcDbEntity
  8
OBJECT
  6
CONTINUOUS
100
AcDbVertex
100
AcDb2dVertex
 10
530.5
 20
-1055.5000048327006
 30
0.0
  0
VERTEX
  5
29B
100
AcDbEntity
  8
OBJECT
  6
CONTINUOUS
100
AcDbVertex
100
AcDb2dVertex
 10
528.0
 20
-1055.5000048327006
 30
0.0
  0
SEQEND
  5
29C
100
AcDbEntity
  8
OBJECT
  6
CONTINUOUS
  0
POLYLINE
  5
29D
100
AcDbEntity
  8
OBJECT
  6
CONTINUOUS
100
AcDb2dPolyline
 66
               1
 10
0.0
 20
0.0
 30
0.0
 70
               1
 75
               5
  0
VERTEX
  5
29E
100
AcDbEntity
  8
OBJECT
  6
CONTINUOUS
100
AcDbVertex
100
AcDb2dVertex
 10
489.5
 20
-1044.5000048327006
 30
0.0
  0
VERTEX
  5
29F
100
AcDbEntity
  8
OBJECT
  6
CONTINUOUS
100
AcDbVertex
100
AcDb2dVertex
 10
492.0
 20
-1044.5000048327006
 30
0.0
  0
VERTEX
  5
2A0
100
AcDbEntity
  8
OBJECT
  6
CONTINUOUS
100
AcDbVertex
100
AcDb2dVertex
 10
492.0
 20
-1055.5000048327006
 30
0.0
  0
VERTEX
  5
2A1
100
AcDbEntity
  8
OBJECT
  6
CONTINUOUS
100
AcDbVertex
100
AcDb2dVertex
 10
489.5
 20
-1055.5000048327006
 30
0.0
  0
SEQEND
  5
2A2
100
AcDbEntity
  8
OBJECT
  6
CONTINUOUS
  0
POLYLINE
  5
2A3
100
AcDbEntity
  8
OBJECT
  6
CONTINUOUS
100
AcDb2dPolyline
 66
               1
 10
0.0
 20
0.0
 30
0.0
 70
               1
 75
               5
  0
VERTEX
  5
2A4
100
AcDbEntity
  8
OBJECT
  6
CONTINUOUS
100
AcDbVertex
100
AcDb2dVertex
 10
489.5
 20
-1037.5000048327006
 30
0.0
  0
VERTEX
  5
2A5
100
AcDbEntity
  8
OBJECT
  6
CONTINUOUS
100
AcDbVertex
100
AcDb2dVertex
 10
489.5
 20
-1062.5000048327006
 30
0.0
  0
VERTEX
  5
2A6
100
AcDbEntity
  8
OBJECT
  6
CONTINUOUS
100
AcDbVertex
100
AcDb2dVertex
 10
486.5
 20
-1062.5000048327006
 30
0.0
  0
VERTEX
  5
2A7
100
AcDbEntity
  8
OBJECT
  6
CONTINUOUS
100
AcDbVertex
100
AcDb2dVertex
 10
486.5
 20
-1040.5000048327006
 30
0.0
  0
VERTEX
  5
2A8
100
AcDbEntity
  8
OBJECT
  6
CONTINUOUS
100
AcDbVertex
100
AcDb2dVertex
 10
469.5
 20
-1040.5000048327006
 30
0.0
  0
VERTEX
  5
2A9
100
AcDbEntity
  8
OBJECT
  6
CONTINUOUS
100
AcDbVertex
100
AcDb2dVertex
 10
469.5
 20
-1037.5000048327006
 30
0.0
  0
SEQEND
  5
2AA
100
AcDbEntity
  8
OBJECT
  6
CONTINUOUS
  0
LINE
  5
2AB
100
AcDbEntity
  8
OBJECT
  6
CONTINUOUS
100
AcDbLine
 10
471.5
 20
-1048.5000048327006
 30
0.0
 11
486.5
 21
-1048.5000048327006
 31
0.0
  0
ARC
  5
2AC
100
AcDbEntity
  8
OBJECT
  6
CONTINUOUS
100
AcDbCircle
 10
471.5
 20
-1050.5000048327006
 30
0.0
 40
2.0
100
AcDbArc
 50
90.0
 51
180.0
  0
SPLINE
  5
2AD
100
AcDbEntity
  8
OBJECT
  6
CONTINUOUS
100
AcDbSpline
210
0.0
220
0.0
230
1.0
 70
              12
 71
               2
 72
              33
 73
              30
 74
               0
 42
0.000001
 43
0.000001
 40
0.0
 40
0.0
 40
0.0
 40
0.0692872537027545
 40
0.0692872537027545
 40
0.0953250349395368
 40
0.0953250349395368
 40
0.0953253178401119
 40
0.0953253178401119
 40
0.1112282550692393
 40
0.1112282550692393
 40
0.1112283776841933
 40
0.638222396086482
 40
0.6382225187014373
 40
0.6382225187014373
 40
0.6541254559305638
 40
0.6541254559305638
 40
0.6541257388311389
 40
0.6541257388311389
 40
0.6801635200679213
 40
0.6801635200679213
 40
0.7508711437855159
 40
0.7508711437855159
 40
0.7769089250222983
 40
0.7769089250222983
 40
0.7769092079228733
 40
0.7769092079228733
 40
0.7928121451520017
 40
0.7928121451520017
 40
0.792812267766957
 40
1.0
 40
1.0
 40
1.0
 10
486.0007999999998
 20
-1000.4610048327004
 30
0.0
 41
1.0
 10
479.87540000000081
 20
-999.51990483270038
 30
0.0
 41
1.0
 10
473.75
 20
-1000.5000048327006
 30
0.0
 41
1.0
 10
471.46699999999964
 20
-1000.8652548327007
 30
0.0
 41
1.0
 10
469.18399999999929
 20
-1001.2305048327007
 30
0.0
 41
1.0
 10
469.18397519538587
 20
-1001.2305088023227
 30
0.0
 41
1.0
 10
469.1839503907724
 20
-1001.2305127719445
 30
0.0
 41
1.0
 10
467.5
 20
-1001.5000048327006
 30
0.0
 41
0.7609286446881213
 10
467.5
 20
-1003.2053830574334
 30
0.0
 41
1.0
 10
467.5
 20
-1003.2053939450669
 30
0.0
 41
1.0
 10
467.5
 20
-1050.0000048327004
 30
0.0
 41
1.0
 10
467.5
 20
-1096.7946157203339
 30
0.0
 41
1.0
 10
467.5
 20
-1096.7946266079675
 30
0.0
 41
1.0
 10
467.5
 20
-1098.5000048327004
 30
0.0
 41
0.760928644688155
 10
469.1839503907724
 20
-1098.7694968934566
 30
0.0
 41
1.0
 10
469.18397519538587
 20
-1098.7695008630785
 30
0.0
 41
1.0
 10
469.18399999999929
 20
-1098.7695048327005
 30
0.0
 41
1.0
 10
471.46699999999964
 20
-1099.1347548327005
 30
0.0
 41
1.0
 10
473.75
 20
-1099.5000048327006
 30
0.0
 41
1.0
 10
480.0
 20
-1100.4979472195319
 30
0.0
 41
1.0
 10
486.25
 20
-1099.5000048327006
 30
0.0
 41
1.0
 10
488.53300000000036
 20
-1099.1347548327005
 30
0.0
 41
1.0
 10
490.81600000000071
 20
-1098.7695048327005
 30
0.0
 41
1.0
 10
490.81602480461413
 20
-1098.7695008630785
 30
0.0
 41
1.0
 10
490.8160496092276
 20
-1098.7694968934566
 30
0.0
 41
1.0
 10
492.50000000000006
 20
-1098.5000048327006
 30
0.0
 41
0.7609286446881093
 10
492.5
 20
-1096.7946266079675
 30
0.0
 41
1.0
 10
492.5
 20
-1096.7946157203339
 30
0.0
 41
1.0
 10
492.5
 20
-1078.3973048327005
 30
0.0
 41
1.0
 10
492.5
 20
-1060.0000048327006
 30
0.0
 41
1.0
  0
POLYLINE
  5
2AE
100
AcDbEntity
  8
OBJECT
  6
CONTINUOUS
100
AcDb2dPolyline
 66
               1
 10
0.0
 20
0.0
 30
0.0
 75
               5
  0
VERTEX
  5
2AF
100
AcDbEntity
  8
OBJECT
  6
CONTINUOUS
100
AcDbVertex
100
AcDb2dVertex
 10
486.0
 20
-993.0000048327006
 30
0.0
  0
VERTEX
  5
2B0
100
AcDbEntity
  8
OBJECT
  6
CONTINUOUS
100
AcDbVertex
100
AcDb2dVertex
 10
462.0
 20
-993.0000048327006
 30
0.0
  0
VERTEX
  5
2B1
100
AcDbEntity
  8
OBJECT
  6
CONTINUOUS
100
AcDbVertex
100
AcDb2dVertex
 10
462.0
 20
-1060.0000048327006
 30
0.0
  0
VERTEX
  5
2B2
100
AcDbEntity
  8
OBJECT
  6
CONTINUOUS
100
AcDbVertex
100
AcDb2dVertex
 10
465.0
 20
-1060.0000048327006
 30
0.0
  0
VERTEX
  5
2B3
100
AcDbEntity
  8
OBJECT
  6
CONTINUOUS
100
AcDbVertex
100
AcDb2dVertex
 10
465.0
 20
-996.0000048327006
 30
0.0
  0
VERTEX
  5
2B4
100
AcDbEntity
  8
OBJECT
  6
CONTINUOUS
100
AcDbVertex
100
AcDb2dVertex
 10
486.0
 20
-996.0000048327006
 30
0.0
  0
SEQEND
  5
2B5
100
AcDbEntity
  8
OBJECT
  6
CONTINUOUS
  0
SPLINE
  5
2B6
100
AcDbEntity
  8
OBJECT
  6
CONTINUOUS
100
AcDbSpline
210
0.0
220
0.0
230
1.0
 70
               8
 71
               2
 72
              18
 73
              15
 74
               0
 42
0.000001
 43
0.000001
 40
0.0
 40
0.0
 40
0.0
 40
0.1596637333355709
 40
0.1596637333355709
 40
0.2900557822262871
 40
0.2900557822262871
 40
0.4411769333255019
 40
0.4411769333255019
 40
0.5316530488823255
 40
0.5316530488823255
 40
0.5476194222158826
 40
0.5476194222158826
 40
0.8882353866651005
 40
0.8882353866651005
 40
1.0
 40
1.0
 40
1.0
 10
486.0
 20
-991.0000048327006
 30
0.0
 10
471.0
 20
-991.0000048327006
 30
0.0
 10
456.0
 20
-991.0000048327006
 30
0.0
 10
456.0
 20
-1003.2500048327006
 30
0.0
 10
456.0
 20
-1015.5000048327006
 30
0.0
 10
456.0
 20
-1030.5000048327006
 30
0.0
 10
462.0
 20
-1043.0000048327006
 30
0.0
 10
462.0
 20
-1051.5000048327006
 30
0.0
 10
462.0
 20
-1060.0000048327006
 30
0.0
 10
463.5
 20
-1060.0000048327006
 30
0.0
 10
465.0
 20
-1060.0000048327006
 30
0.0
 10
465.0
 20
-1028.0000048327006
 30
0.0
 10
465.0
 20
-996.0000048327006
 30
0.0
 10
475.5
 20
-996.0000048327006
 30
0.0
 10
486.0
 20
-996.0000048327006
 30
0.0
  0
LINE
  5
2B7
100
AcDbEntity
  8
OBJECT
  6
CONTINUOUS
100
AcDbLine
 10
445.0
 20
-984.0000048327006
 30
0.0
 11
445.0
 21
-981.0000048327006
 31
0.0
  0
LINE
  5
2B8
100
AcDbEntity
  8
OBJECT
  6
CONTINUOUS
100
AcDbLine
 10
475.0
 20
-984.0000048327006
 30
0.0
 11
445.0
 21
-984.0000048327006
 31
0.0
  0
LINE
  5
2B9
100
AcDbEntity
  8
OBJECT
  6
CONTINUOUS
100
AcDbLine
 10
457.5
 20
-987.5000048327006
 30
0.0
 11
453.5
 21
-984.0000048327006
 31
0.0
  0
LINE
  5
2BA
100
AcDbEntity
  8
OBJECT
  6
CONTINUOUS
100
AcDbLine
 10
457.5
 20
-991.0000048327006
 30
0.0
 11
457.5
 21
-987.5000048327006
 31
0.0
  0
LINE
  5
2BB
100
AcDbEntity
  8
OBJECT
  6
CONTINUOUS
100
AcDbLine
 10
942.5
 20
-987.5000048327006
 30
0.0
 11
897.5
 21
-987.5000048327006
 31
0.0
  0
POLYLINE
  5
2BC
100
AcDbEntity
  8
OBJECT
  6
CONTINUOUS
100
AcDb2dPolyline
 66
               1
 10
0.0
 20
0.0
 30
0.0
 70
               1
 75
               5
  0
VERTEX
  5
2BD
100
AcDbEntity
  8
OBJECT
  6
CONTINUOUS
100
AcDbVertex
100
AcDb2dVertex
 10
932.5
 20
-1041.7500048327006
 30
0.0
  0
VERTEX
  5
2BE
100
AcDbEntity
  8
OBJECT
  6
CONTINUOUS
100
AcDbVertex
100
AcDb2dVertex
 10
935.0
 20
-1041.7500048327006
 30
0.0
  0
VERTEX
  5
2BF
100
AcDbEntity
  8
OBJECT
  6
CONTINUOUS
100
AcDbVertex
100
AcDb2dVertex
 10
935.0
 20
-1058.2500048327006
 30
0.0
  0
VERTEX
  5
2C0
100
AcDbEntity
  8
OBJECT
  6
CONTINUOUS
100
AcDbVertex
100
AcDb2dVertex
 10
932.5
 20
-1058.2500048327006
 30
0.0
  0
SEQEND
  5
2C1
100
AcDbEntity
  8
OBJECT
  6
CONTINUOUS
  0
POLYLINE
  5
2C2
100
AcDbEntity
  8
OBJECT
  6
CONTINUOUS
100
AcDb2dPolyline
 66
               1
 10
0.0
 20
0.0
 30
0.0
 70
               1
 75
               5
  0
VERTEX
  5
2C3
100
AcDbEntity
  8
OBJECT
  6
CONTINUOUS
100
AcDbVertex
100
AcDb2dVertex
 10
938.0
 20
-1044.5000048327006
 30
0.0
  0
VERTEX
  5
2C4
100
AcDbEntity
  8
OBJECT
  6
CONTINUOUS
100
AcDbVertex
100
AcDb2dVertex
 10
940.5
 20
-1044.5000048327006
 30
0.0
  0
VERTEX
  5
2C5
100
AcDbEntity
  8
OBJECT
  6
CONTINUOUS
100
AcDbVertex
100
AcDb2dVertex
 10
940.5
 20
-1055.5000048327006
 30
0.0
  0
VERTEX
  5
2C6
100
AcDbEntity
  8
OBJECT
  6
CONTINUOUS
100
AcDbVertex
100
AcDb2dVertex
 10
938.0
 20
-1055.5000048327006
 30
0.0
  0
SEQEND
  5
2C7
100
AcDbEntity
  8
OBJECT
  6
CONTINUOUS
  0
POLYLINE
  5
2C8
100
AcDbEntity
  8
OBJECT
  6
CONTINUOUS
100
AcDb2dPolyline
 66
               1
 10
0.0
 20
0.0
 30
0.0
 70
               1
 75
               5
  0
VERTEX
  5
2C9
100
AcDbEntity
  8
OBJECT
  6
CONTINUOUS
100
AcDbVertex
100
AcDb2dVertex
 10
925.0
 20
-981.0000048327006
 30
0.0
  0
VERTEX
  5
2CA
100
AcDbEntity
  8
OBJECT
  6
CONTINUOUS
100
AcDbVertex
100
AcDb2dVertex
 10
855.0
 20
-981.0000048327006
 30
0.0
  0
VERTEX
  5
2CB
100
AcDbEntity
  8
OBJECT
  6
CONTINUOUS
100
AcDbVertex
100
AcDb2dVertex
 10
855.0
 20
-984.0000048327006
 30
0.0
  0
VERTEX
  5
2CC
100
AcDbEntity
  8
OBJECT
  6
CONTINUOUS
100
AcDbVertex
100
AcDb2dVertex
 10
925.0
 20
-984.0000048327006
 30
0.0
  0
SEQEND
  5
2CD
100
AcDbEntity
  8
OBJECT
  6
CONTINUOUS
  0
POLYLINE
  5
2CE
100
AcDbEntity
  8
OBJECT
  6
CONTINUOUS
100
AcDb2dPolyline
 66
               1
 10
0.0
 20
0.0
 30
0.0
 70
               1
 75
               5
  0
VERTEX
  5
2CF
100
AcDbEntity
  8
OBJECT
  6
CONTINUOUS
100
AcDbVertex
100
AcDb2dVertex
 10
916.5
 20
-984.0000048327006
 30
0.0
  0
VERTEX
  5
2D0
100
AcDbEntity
  8
OBJECT
  6
CONTINUOUS
100
AcDbVertex
100
AcDb2dVertex
 10
863.5
 20
-984.0000048327006
 30
0.0
  0
VERTEX
  5
2D1
100
AcDbEntity
  8
OBJECT
  6
CONTINUOUS
100
AcDbVertex
100
AcDb2dVertex
 10
867.5
 20
-987.5000048327006
 30
0.0
  0
VERTEX
  5
2D2
100
AcDbEntity
  8
OBJECT
  6
CONTINUOUS
100
AcDbVertex
100
AcDb2dVertex
 10
867.5
 20
-991.0000048327006
 30
0.0
  0
VERTEX
  5
2D3
100
AcDbEntity
  8
OBJECT
  6
CONTINUOUS
100
AcDbVertex
100
AcDb2dVertex
 10
912.5
 20
-991.0000048327006
 30
0.0
  0
VERTEX
  5
2D4
100
AcDbEntity
  8
OBJECT
  6
CONTINUOUS
100
AcDbVertex
100
AcDb2dVertex
 10
912.5
 20
-987.5000048327006
 30
0.0
  0
SEQEND
  5
2D5
100
AcDbEntity
  8
OBJECT
  6
CONTINUOUS
  0
LINE
  5
2D6
100
AcDbEntity
  8
OBJECT
  6
CONTINUOUS
100
AcDbLine
 10
912.5
 20
-987.5000048327006
 30
0.0
 11
867.5
 21
-987.5000048327006
 31
0.0
  0
SPLINE
  5
2D7
100
AcDbEntity
  8
OBJECT
  6
CONTINUOUS
100
AcDbSpline
210
0.0
220
0.0
230
1.0
 70
               9
 71
               2
 72
              28
 73
              25
 74
               0
 42
0.000001
 43
0.000001
 40
0.0
 40
0.0
 40
0.0
 40
0.1364451216774349
 40
0.1364451216774349
 40
0.206088985866959
 40
0.206088985866959
 40
0.2868044973790079
 40
0.2868044973790079
 40
0.3351288113064328
 40
0.3351288113064328
 40
0.3436566314112725
 40
0.3436566314112725
 40
0.525583460314519
 40
0.525583460314519
 40
0.6108616613629158
 40
0.6108616613629158
 40
0.7927884902661623
 40
0.7927884902661623
 40
0.8013163103710019
 40
0.8013163103710019
 40
0.8496406242984268
 40
0.8496406242984268
 40
0.9303561358104757
 40
0.9303561358104757
 40
1.0
 40
1.0
 40
1.0
 10
866.0
 20
-991.0000048327006
 30
0.0
 10
890.0
 20
-991.0000048327006
 30
0.0
 10
914.0
 20
-991.0000048327006
 30
0.0
 10
914.0
 20
-1003.2500048327006
 30
0.0
 10
914.0
 20
-1015.5000048327006
 30
0.0
 10
914.0
 20
-1030.5000048327006
 30
0.0
 10
908.0
 20
-1043.0000048327006
 30
0.0
 10
908.0
 20
-1051.5000048327006
 30
0.0
 10
908.0
 20
-1060.0000048327006
 30
0.0
 10
906.5
 20
-1060.0000048327006
 30
0.0
 10
905.0
 20
-1060.0000048327006
 30
0.0
 10
905.0
 20
-1028.0000048327006
 30
0.0
 10
905.0
 20
-996.0000048327006
 30
0.0
 10
890.0
 20
-996.0000048327006
 30
0.0
 10
875.0
 20
-996.0000048327006
 30
0.0
 10
875.0
 20
-1028.0000048327006
 30
0.0
 10
875.0
 20
-1060.0000048327006
 30
0.0
 10
873.5
 20
-1060.0000048327006
 30
0.0
 10
872.0
 20
-1060.0000048327006
 30
0.0
 10
872.0
 20
-1051.5000048327006
 30
0.0
 10
872.0
 20
-1043.0000048327006
 30
0.0
 10
866.0
 20
-1030.5000048327006
 30
0.0
 10
866.0
 20
-1015.5000048327006
 30
0.0
 10
866.0
 20
-1003.2500048327006
 30
0.0
 10
866.0
 20
-991.0000048327006
 30
0.0
  0
POLYLINE
  5
2D8
100
AcDbEntity
  8
OBJECT
  6
CONTINUOUS
100
AcDb2dPolyline
 66
               1
 10
0.0
 20
0.0
 30
0.0
 70
               1
 75
               5
  0
VERTEX
  5
2D9
100
AcDbEntity
  8
OBJECT
  6
CONTINUOUS
100
AcDbVertex
100
AcDb2dVertex
 10
872.0
 20
-993.0000048327006
 30
0.0
  0
VERTEX
  5
2DA
100
AcDbEntity
  8
OBJECT
  6
CONTINUOUS
100
AcDbVertex
100
AcDb2dVertex
 10
908.0
 20
-993.0000048327006
 30
0.0
  0
VERTEX
  5
2DB
100
AcDbEntity
  8
OBJECT
  6
CONTINUOUS
100
AcDbVertex
100
AcDb2dVertex
 10
908.0
 20
-1060.0000048327006
 30
0.0
  0
VERTEX
  5
2DC
100
AcDbEntity
  8
OBJECT
  6
CONTINUOUS
100
AcDbVertex
100
AcDb2dVertex
 10
905.0
 20
-1060.0000048327006
 30
0.0
  0
VERTEX
  5
2DD
100
AcDbEntity
  8
OBJECT
  6
CONTINUOUS
100
AcDbVertex
100
AcDb2dVertex
 10
905.0
 20
-996.0000048327006
 30
0.0
  0
VERTEX
  5
2DE
100
AcDbEntity
  8
OBJECT
  6
CONTINUOUS
100
AcDbVertex
100
AcDb2dVertex
 10
875.0
 20
-996.0000048327006
 30
0.0
  0
VERTEX
  5
2DF
100
AcDbEntity
  8
OBJECT
  6
CONTINUOUS
100
AcDbVertex
100
AcDb2dVertex
 10
875.0
 20
-1060.0000048327006
 30
0.0
  0
VERTEX
  5
2E0
100
AcDbEntity
  8
OBJECT
  6
CONTINUOUS
100
AcDbVertex
100
AcDb2dVertex
 10
872.0
 20
-1060.0000048327006
 30
0.0
  0
SEQEND
  5
2E1
100
AcDbEntity
  8
OBJECT
  6
CONTINUOUS
  0
SPLINE
  5
2E2
100
AcDbEntity
  8
OBJECT
  6
CONTINUOUS
100
AcDbSpline
210
0.0
220
0.0
230
1.0
 70
              13
 71
               2
 72
              28
 73
              25
 74
               0
 42
0.000001
 43
0.000001
 40
0.0
 40
0.0
 40
0.0
 40
0.0116664369471646
 40
0.0116664369471646
 40
0.0307673121208426
 40
0.0307673121208426
 40
0.0826383042797587
 40
0.0826383042797587
 40
0.1017391794534366
 40
0.1017391794534366
 40
0.1134056164006005
 40
0.1134056164006005
 40
0.5
 40
0.5
 40
0.5116664369471642
 40
0.5116664369471642
 40
0.5307673121208421
 40
0.5307673121208421
 40
0.5826383042797582
 40
0.5826383042797582
 40
0.6017391794534359
 40
0.6017391794534359
 40
0.613405616400601
 40
0.613405616400601
 40
1.0
 40
1.0
 40
1.0
 10
877.5
 20
-1003.2054430568883
 30
0.0
 41
1.0
 10
877.49999999999989
 20
-1001.5000048327007
 30
0.0
 41
0.7609173743274019
 10
879.18401899778667
 20
-1001.2305617930549
 30
0.0
 41
1.0
 10
881.46700949889328
 20
-1000.8652833128778
 30
0.0
 41
1.0
 10
883.75
 20
-1000.5000048327006
 30
0.0
 41
1.0
 10
890.0
 20
-999.5000048327006
 30
0.0
 41
1.0
 10
896.25
 20
-1000.5000048327006
 30
0.0
 41
1.0
 10
898.53299050110672
 20
-1000.8652833128776
 30
0.0
 41
1.0
 10
900.81598100221333
 20
-1001.2305617930548
 30
0.0
 41
1.0
 10
902.5
 20
-1001.5000048327006
 30
0.0
 41
0.7609173743274019
 10
902.5
 20
-1003.2054430568882
 30
0.0
 41
1.0
 10
902.5
 20
-1050.0000048327006
 30
0.0
 41
1.0
 10
902.5
 20
-1096.7945666085132
 30
0.0
 41
1.0
 10
902.49999999999966
 20
-1098.5000048327008
 30
0.0
 41
0.7609173743274513
 10
900.81598100221333
 20
-1098.7694478723465
 30
0.0
 41
1.0
 10
898.53299050110672
 20
-1099.1347263525236
 30
0.0
 41
1.0
 10
896.25
 20
-1099.5000048327006
 30
0.0
 41
1.0
 10
890.0
 20
-1100.5000048327006
 30
0.0
 41
1.0
 10
883.75
 20
-1099.5000048327006
 30
0.0
 41
1.0
 10
881.46700949889328
 20
-1099.1347263525236
 30
0.0
 41
1.0
 10
879.18401899778667
 20
-1098.7694478723465
 30
0.0
 41
1.0
 10
877.5
 20
-1098.5000048327006
 30
0.0
 41
0.7609173743274202
 10
877.5
 20
-1096.7945666085132
 30
0.0
 41
1.0
 10
877.5
 20
-1050.0000048327006
 30
0.0
 41
1.0
 10
877.5
 20
-1003.2054430568883
 30
0.0
 41
1.0
  0
POLYLINE
  5
2E3
100
AcDbEntity
  8
OBJECT
  6
CONTINUOUS
100
AcDb2dPolyline
 66
               1
 10
0.0
 20
0.0
 30
0.0
 70
               1
 75
               5
  0
VERTEX
  5
2E4
100
AcDbEntity
  8
OBJECT
  6
CONTINUOUS
100
AcDbVertex
100
AcDb2dVertex
 10
902.5
 20
-1041.7500048327006
 30
0.0
  0
VERTEX
  5
2E5
100
AcDbEntity
  8
OBJECT
  6
CONTINUOUS
100
AcDbVertex
100
AcDb2dVertex
 10
905.0
 20
-1041.7500048327006
 30
0.0
  0
VERTEX
  5
2E6
100
AcDbEntity
  8
OBJECT
  6
CONTINUOUS
100
AcDbVertex
100
AcDb2dVertex
 10
905.0
 20
-1058.2500048327006
 30
0.0
  0
VERTEX
  5
2E7
100
AcDbEntity
  8
OBJECT
  6
CONTINUOUS
100
AcDbVertex
100
AcDb2dVertex
 10
902.5
 20
-1058.2500048327006
 30
0.0
  0
SEQEND
  5
2E8
100
AcDbEntity
  8
OBJECT
  6
CONTINUOUS
  0
POLYLINE
  5
2E9
100
AcDbEntity
  8
OBJECT
  6
CONTINUOUS
100
AcDb2dPolyline
 66
               1
 10
0.0
 20
0.0
 30
0.0
 70
               1
 75
               5
  0
VERTEX
  5
2EA
100
AcDbEntity
  8
OBJECT
  6
CONTINUOUS
100
AcDbVertex
100
AcDb2dVertex
 10
875.0
 20
-1041.7500048327006
 30
0.0
  0
VERTEX
  5
2EB
100
AcDbEntity
  8
OBJECT
  6
CONTINUOUS
100
AcDbVertex
100
AcDb2dVertex
 10
877.5
 20
-1041.7500048327006
 30
0.0
  0
VERTEX
  5
2EC
100
AcDbEntity
  8
OBJECT
  6
CONTINUOUS
100
AcDbVertex
100
AcDb2dVertex
 10
877.5
 20
-1058.2500048327006
 30
0.0
  0
VERTEX
  5
2ED
100
AcDbEntity
  8
OBJECT
  6
CONTINUOUS
100
AcDbVertex
100
AcDb2dVertex
 10
875.0
 20
-1058.2500048327006
 30
0.0
  0
SEQEND
  5
2EE
100
AcDbEntity
  8
OBJECT
  6
CONTINUOUS
  0
POLYLINE
  5
2EF
100
AcDbEntity
  8
OBJECT
  6
CONTINUOUS
100
AcDb2dPolyline
 66
               1
 10
0.0
 20
0.0
 30
0.0
 70
               1
 75
               5
  0
VERTEX
  5
2F0
100
AcDbEntity
  8
OBJECT
  6
CONTINUOUS
100
AcDbVertex
100
AcDb2dVertex
 10
869.5
 20
-1044.5000048327006
 30
0.0
  0
VERTEX
  5
2F1
100
AcDbEntity
  8
OBJECT
  6
CONTINUOUS
100
AcDbVertex
100
AcDb2dVertex
 10
872.0
 20
-1044.5000048327006
 30
0.0
  0
VERTEX
  5
2F2
100
AcDbEntity
  8
OBJECT
  6
CONTINUOUS
100
AcDbVertex
100
AcDb2dVertex
 10
872.0
 20
-1055.5000048327006
 30
0.0
  0
VERTEX
  5
2F3
100
AcDbEntity
  8
OBJECT
  6
CONTINUOUS
100
AcDbVertex
100
AcDb2dVertex
 10
869.5
 20
-1055.5000048327006
 30
0.0
  0
SEQEND
  5
2F4
100
AcDbEntity
  8
OBJECT
  6
CONTINUOUS
  0
POLYLINE
  5
2F5
100
AcDbEntity
  8
OBJECT
  6
CONTINUOUS
100
AcDb2dPolyline
 66
               1
 10
0.0
 20
0.0
 30
0.0
 70
               1
 75
               5
  0
VERTEX
  5
2F6
100
AcDbEntity
  8
OBJECT
  6
CONTINUOUS
100
AcDbVertex
100
AcDb2dVertex
 10
908.0
 20
-1044.5000048327006
 30
0.0
  0
VERTEX
  5
2F7
100
AcDbEntity
  8
OBJECT
  6
CONTINUOUS
100
AcDbVertex
100
AcDb2dVertex
 10
910.5
 20
-1044.5000048327006
 30
0.0
  0
VERTEX
  5
2F8
100
AcDbEntity
  8
OBJECT
  6
CONTINUOUS
100
AcDbVertex
100
AcDb2dVertex
 10
910.5
 20
-1055.5000048327006
 30
0.0
  0
VERTEX
  5
2F9
100
AcDbEntity
  8
OBJECT
  6
CONTINUOUS
100
AcDbVertex
100
AcDb2dVertex
 10
908.0
 20
-1055.5000048327006
 30
0.0
  0
SEQEND
  5
2FA
100
AcDbEntity
  8
OBJECT
  6
CONTINUOUS
  0
SPLINE
  5
2FB
100
AcDbEntity
  8
OBJECT
  6
CONTINUOUS
100
AcDbSpline
210
0.0
220
0.0
230
1.0
 70
              12
 71
               2
 72
              33
 73
              30
 74
               0
 42
0.000001
 43
0.000001
 40
0.0
 40
0.0
 40
0.0
 40
0.0692872537027547
 40
0.0692872537027547
 40
0.095325034939527
 40
0.095325034939527
 40
0.0953253178401101
 40
0.0953253178401101
 40
0.1112282550692387
 40
0.1112282550692387
 40
0.1112283776841914
 40
0.6382223960864812
 40
0.6382225187014365
 40
0.6382225187014365
 40
0.6541254559305665
 40
0.6541254559305665
 40
0.6541257388311496
 40
0.6541257388311496
 40
0.6801635200679218
 40
0.6801635200679218
 40
0.7508711437855166
 40
0.7508711437855166
 40
0.7769089250222989
 40
0.7769089250222989
 40
0.7769092079228738
 40
0.7769092079228738
 40
0.7928121451520012
 40
0.7928121451520012
 40
0.7928122677669565
 40
1.0
 40
1.0
 40
1.0
 10
913.9992000000002
 20
-1000.4610048327004
 30
0.0
 41
1.0
 10
920.12459999999919
 20
-999.51990483270038
 30
0.0
 41
1.0
 10
926.25
 20
-1000.5000048327006
 30
0.0
 41
1.0
 10
928.53299999999945
 20
-1000.8652548327007
 30
0.0
 41
1.0
 10
930.81599999999889
 20
-1001.2305048327007
 30
0.0
 41
1.0
 10
930.81602480461311
 20
-1001.2305088023227
 30
0.0
 41
1.0
 10
930.81604960922721
 20
-1001.2305127719447
 30
0.0
 41
1.0
 10
932.5
 20
-1001.5000048327004
 30
0.0
 41
0.7609286446880392
 10
932.5
 20
-1003.2053830574337
 30
0.0
 41
1.0
 10
932.5
 20
-1003.205393945067
 30
0.0
 41
1.0
 10
932.5
 20
-1050.0000048327004
 30
0.0
 41
1.0
 10
932.5
 20
-1096.7946157203339
 30
0.0
 41
1.0
 10
932.5
 20
-1096.7946266079675
 30
0.0
 41
1.0
 10
932.49999999999966
 20
-1098.5000048327008
 30
0.0
 41
0.7609286446881531
 10
930.81604960922721
 20
-1098.7694968934566
 30
0.0
 41
1.0
 10
930.81602480461311
 20
-1098.7695008630785
 30
0.0
 41
1.0
 10
930.81599999999889
 20
-1098.7695048327005
 30
0.0
 41
1.0
 10
928.53299999999945
 20
-1099.1347548327005
 30
0.0
 41
1.0
 10
926.25
 20
-1099.5000048327006
 30
0.0
 41
1.0
 10
920.0
 20
-1100.4979472195319
 30
0.0
 41
1.0
 10
913.75
 20
-1099.5000048327006
 30
0.0
 41
1.0
 10
911.46699999999964
 20
-1099.1347548327005
 30
0.0
 41
1.0
 10
909.18399999999929
 20
-1098.7695048327005
 30
0.0
 41
1.0
 10
909.18397519538587
 20
-1098.7695008630785
 30
0.0
 41
1.0
 10
909.18395039077245
 20
-1098.7694968934566
 30
0.0
 41
1.0
 10
907.50000000000011
 20
-1098.5000048327004
 30
0.0
 41
0.7609286446881275
 10
907.5
 20
-1096.7946266079675
 30
0.0
 41
1.0
 10
907.5
 20
-1096.7946157203339
 30
0.0
 41
1.0
 10
907.5
 20
-1078.3973048327005
 30
0.0
 41
1.0
 10
907.5
 20
-1060.0000048327006
 30
0.0
 41
1.0
  0
POLYLINE
  5
2FC
100
AcDbEntity
  8
OBJECT
  6
CONTINUOUS
100
AcDb2dPolyline
 66
               1
 10
0.0
 20
0.0
 30
0.0
 75
               5
  0
VERTEX
  5
2FD
100
AcDbEntity
  8
OBJECT
  6
CONTINUOUS
100
AcDbVertex
100
AcDb2dVertex
 10
914.0
 20
-993.0000048327006
 30
0.0
  0
VERTEX
  5
2FE
100
AcDbEntity
  8
OBJECT
  6
CONTINUOUS
100
AcDbVertex
100
AcDb2dVertex
 10
938.0
 20
-993.0000048327006
 30
0.0
  0
VERTEX
  5
2FF
100
AcDbEntity
  8
OBJECT
  6
CONTINUOUS
100
AcDbVertex
100
AcDb2dVertex
 10
938.0
 20
-1060.0000048327006
 30
0.0
  0
VERTEX
  5
300
100
AcDbEntity
  8
OBJECT
  6
CONTINUOUS
100
AcDbVertex
100
AcDb2dVertex
 10
935.0
 20
-1060.0000048327006
 30
0.0
  0
VERTEX
  5
301
100
AcDbEntity
  8
OBJECT
  6
CONTINUOUS
100
AcDbVertex
100
AcDb2dVertex
 10
935.0
 20
-996.0000048327006
 30
0.0
  0
VERTEX
  5
302
100
AcDbEntity
  8
OBJECT
  6
CONTINUOUS
100
AcDbVertex
100
AcDb2dVertex
 10
914.0
 20
-996.0000048327006
 30
0.0
  0
SEQEND
  5
303
100
AcDbEntity
  8
OBJECT
  6
CONTINUOUS
  0
SPLINE
  5
304
100
AcDbEntity
  8
OBJECT
  6
CONTINUOUS
100
AcDbSpline
210
0.0
220
0.0
230
1.0
 70
               8
 71
               2
 72
              18
 73
              15
 74
               0
 42
0.000001
 43
0.000001
 40
0.0
 40
0.0
 40
0.0
 40
0.1596637333355709
 40
0.1596637333355709
 40
0.2900557822262871
 40
0.2900557822262871
 40
0.4411769333255019
 40
0.4411769333255019
 40
0.5316530488823255
 40
0.5316530488823255
 40
0.5476194222158826
 40
0.5476194222158826
 40
0.8882353866651005
 40
0.8882353866651005
 40
1.0
 40
1.0
 40
1.0
 10
914.0
 20
-991.0000048327006
 30
0.0
 10
929.0
 20
-991.0000048327006
 30
0.0
 10
944.0
 20
-991.0000048327006
 30
0.0
 10
944.0
 20
-1003.2500048327006
 30
0.0
 10
944.0
 20
-1015.5000048327006
 30
0.0
 10
944.0
 20
-1030.5000048327006
 30
0.0
 10
938.0
 20
-1043.0000048327006
 30
0.0
 10
938.0
 20
-1051.5000048327006
 30
0.0
 10
938.0
 20
-1060.0000048327006
 30
0.0
 10
936.5
 20
-1060.0000048327006
 30
0.0
 10
935.0
 20
-1060.0000048327006
 30
0.0
 10
935.0
 20
-1028.0000048327006
 30
0.0
 10
935.0
 20
-996.0000048327006
 30
0.0
 10
924.5
 20
-996.0000048327006
 30
0.0
 10
914.0
 20
-996.0000048327006
 30
0.0
  0
LINE
  5
305
100
AcDbEntity
  8
OBJECT
  6
CONTINUOUS
100
AcDbLine
 10
955.0
 20
-984.0000048327006
 30
0.0
 11
955.0
 21
-981.0000048327006
 31
0.0
  0
LINE
  5
306
100
AcDbEntity
  8
OBJECT
  6
CONTINUOUS
100
AcDbLine
 10
925.0
 20
-984.0000048327006
 30
0.0
 11
955.0
 21
-984.0000048327006
 31
0.0
  0
LINE
  5
307
100
AcDbEntity
  8
OBJECT
  6
CONTINUOUS
100
AcDbLine
 10
942.5
 20
-987.5000048327006
 30
0.0
 11
946.5
 21
-984.0000048327006
 31
0.0
  0
LINE
  5
308
100
AcDbEntity
  8
OBJECT
  6
CONTINUOUS
100
AcDbLine
 10
942.5
 20
-991.0000048327006
 30
0.0
 11
942.5
 21
-987.5000048327006
 31
0.0
  0
LWPOLYLINE
  5
309
100
AcDbEntity
  8
OBJECT
  6
CONTINUOUS
100
AcDbPolyline
 90
       10
 70
             129
 10
867.5
 20
-1045.5000048327006
 42
-0.414213562373095
 10
869.5
 20
-1047.5000048327006
 10
869.5
 20
-1060.5000048327006
 42
-0.414213562373095
 10
867.5
 20
-1062.5000048327006
 10
866.5
 20
-1062.5000048327006
 10
866.5
 20
-1055.5000048327006
 10
851.5
 20
-1055.5000048327006
 42
-0.414213562373095
 10
849.5
 20
-1053.5000048327006
 10
849.5
 20
-1047.5000048327006
 42
-0.414213562373095
 10
851.5
 20
-1045.5000048327006
  0
POLYLINE
  5
30A
100
AcDbEntity
  8
OBJECT
  6
CONTINUOUS
100
AcDb2dPolyline
 66
               1
 10
0.0
 20
0.0
 30
0.0
 70
               1
 75
               5
  0
VERTEX
  5
30B
100
AcDbEntity
  8
OBJECT
  6
CONTINUOUS
100
AcDbVertex
100
AcDb2dVertex
 10
869.5
 20
-1037.5000048327006
 30
0.0
  0
VERTEX
  5
30C
100
AcDbEntity
  8
OBJECT
  6
CONTINUOUS
100
AcDbVertex
100
AcDb2dVertex
 10
869.5
 20
-1062.5000048327006
 30
0.0
  0
VERTEX
  5
30D
100
AcDbEntity
  8
OBJECT
  6
CONTINUOUS
100
AcDbVertex
100
AcDb2dVertex
 10
866.5
 20
-1062.5000048327006
 30
0.0
  0
VERTEX
  5
30E
100
AcDbEntity
  8
OBJECT
  6
CONTINUOUS
100
AcDbVertex
100
AcDb2dVertex
 10
866.5
 20
-1040.5000048327006
 30
0.0
  0
VERTEX
  5
30F
100
AcDbEntity
  8
OBJECT
  6
CONTINUOUS
100
AcDbVertex
100
AcDb2dVertex
 10
849.5
 20
-1040.5000048327006
 30
0.0
  0
VERTEX
  5
310
100
AcDbEntity
  8
OBJECT
  6
CONTINUOUS
100
AcDbVertex
100
AcDb2dVertex
 10
849.5
 20
-1037.5000048327006
 30
0.0
  0
SEQEND
  5
311
100
AcDbEntity
  8
OBJECT
  6
CONTINUOUS
  0
LINE
  5
312
100
AcDbEntity
  8
OBJECT
  6
CONTINUOUS
100
AcDbLine
 10
851.5
 20
-1048.5000048327006
 30
0.0
 11
866.5
 21
-1048.5000048327006
 31
0.0
  0
ARC
  5
313
100
AcDbEntity
  8
OBJECT
  6
CONTINUOUS
100
AcDbCircle
 10
851.5
 20
-1050.5000048327006
 30
0.0
 40
2.0
100
AcDbArc
 50
90.0
 51
180.0
  0
LINE
  5
314
100
AcDbEntity
  8
OBJECT
  6
CONTINUOUS
100
AcDbLine
 10
425.0
 20
-270.0000048327006
 30
0.0
 11
425.0
 21
-233.0000048327006
 31
0.0
  0
LINE
  5
315
100
AcDbEntity
  8
OBJECT
  6
CONTINUOUS
100
AcDbLine
 10
975.0
 20
-233.0000048327006
 30
0.0
 11
975.0
 21
-270.0000048327006
 31
0.0
  0
LINE
  5
316
100
AcDbEntity
  8
OBJECT
  6
CONTINUOUS
100
AcDbLine
 10
428.0
 20
-230.0000048327006
 30
0.0
 11
972.0
 21
-230.0000048327006
 31
0.0
  0
ARC
  5
317
100
AcDbEntity
  8
OBJECT
  6
CONTINUOUS
100
AcDbCircle
 10
428.0
 20
-233.0000048327006
 30
0.0
 40
3.0
100
AcDbArc
 50
90.0
 51
180.0
  0
ARC
  5
318
100
AcDbEntity
  8
OBJECT
  6
CONTINUOUS
100
AcDbCircle
 10
972.0
 20
-233.0000048327006
 30
0.0
 40
3.0
100
AcDbArc
 50
0.0
 51
90.0
  0
LINE
  5
319
100
AcDbEntity
  8
OBJECT
  6
CONTINUOUS
100
AcDbLine
 10
422.5
 20
-270.0000048327006
 30
0.0
 11
422.5
 21
-280.0000048327006
 31
0.0
  0
LINE
  5
31A
100
AcDbEntity
  8
OBJECT
  6
CONTINUOUS
100
AcDbLine
 10
977.5
 20
-270.0000048327006
 30
0.0
 11
977.5
 21
-280.0000048327006
 31
0.0
  0
LWPOLYLINE
  5
31B
100
AcDbEntity
  8
OBJECT
  6
CONTINUOUS
100
AcDbPolyline
 90
        8
 70
             129
 10
621.0
 20
-247.0000048327006
 42
-0.414213562373095
 10
626.0
 20
-242.0000048327006
 10
774.0
 20
-242.0000048327006
 42
-0.414213562373095
 10
779.0
 20
-247.0000048327006
 10
779.0
 20
-253.0000048327006
 42
-0.414213562373095
 10
774.0
 20
-258.0000048327006
 10
626.0
 20
-258.0000048327006
 42
-0.414213562373095
 10
621.0
 20
-253.0000048327006
  0
LINE
  5
31C
100
AcDbEntity
  8
OBJECT
  6
CONTINUOUS
100
AcDbLine
 10
450.5
 20
-227.0000048327006
 30
0.0
 11
949.5
 21
-227.0000048327006
 31
0.0
  0
LINE
  5
31D
100
AcDbEntity
  8
OBJECT
  6
CONTINUOUS
100
AcDbLine
 10
487.0
 20
-249.0000048327006
 30
0.0
 11
487.0
 21
-241.0000048327006
 31
0.0
  0
LINE
  5
31E
100
AcDbEntity
  8
OBJECT
  6
CONTINUOUS
100
AcDbLine
 10
490.0
 20
-257.5000048327006
 30
0.0
 11
487.0
 21
-249.0000048327006
 31
0.0
  0
LINE
  5
31F
100
AcDbEntity
  8
OBJECT
  6
CONTINUOUS
100
AcDbLine
 10
490.0
 20
-266.0000048327006
 30
0.0
 11
490.0
 21
-252.0000048327006
 31
0.0
  0
LINE
  5
320
100
AcDbEntity
  8
OBJECT
  6
CONTINUOUS
100
AcDbLine
 10
510.0
 20
-266.0000048327006
 30
0.0
 11
490.0
 21
-266.0000048327006
 31
0.0
  0
LINE
  5
321
100
AcDbEntity
  8
OBJECT
  6
CONTINUOUS
100
AcDbLine
 10
510.0
 20
-252.0000048327006
 30
0.0
 11
510.0
 21
-266.0000048327006
 31
0.0
  0
LINE
  5
322
100
AcDbEntity
  8
OBJECT
  6
CONTINUOUS
100
AcDbLine
 10
513.0
 20
-249.0000048327006
 30
0.0
 11
510.0
 21
-257.5000048327006
 31
0.0
  0
LINE
  5
323
100
AcDbEntity
  8
OBJECT
  6
CONTINUOUS
100
AcDbLine
 10
513.0
 20
-241.0000048327006
 30
0.0
 11
513.0
 21
-249.0000048327006
 31
0.0
  0
LINE
  5
324
100
AcDbEntity
  8
OBJECT
  6
CONTINUOUS
100
AcDbLine
 10
487.0
 20
-241.0000048327006
 30
0.0
 11
513.0
 21
-241.0000048327006
 31
0.0
  0
LINE
  5
325
100
AcDbEntity
  8
OBJECT
  6
CONTINUOUS
100
AcDbLine
 10
490.0
 20
-252.0000048327006
 30
0.0
 11
510.0
 21
-252.0000048327006
 31
0.0
  0
CIRCLE
  5
326
100
AcDbEntity
  8
OBJECT
  6
CONTINUOUS
100
AcDbCircle
 10
506.0
 20
-246.0000048327006
 30
0.0
 40
2.5
  0
CIRCLE
  5
327
100
AcDbEntity
  8
OBJECT
  6
CONTINUOUS
100
AcDbCircle
 10
494.0
 20
-246.0000048327006
 30
0.0
 40
2.5
  0
LINE
  5
328
100
AcDbEntity
  8
OBJECT
  6
CONTINUOUS
100
AcDbLine
 10
518.0
 20
-272.0000048327006
 30
0.0
 11
518.0
 21
-307.5000048327006
 31
0.0
  0
LINE
  5
329
100
AcDbEntity
  8
OBJECT
  6
CONTINUOUS
100
AcDbLine
 10
515.0
 20
-272.0000048327006
 30
0.0
 11
515.0
 21
-307.5000048327006
 31
0.0
  0
LWPOLYLINE
  5
32A
100
AcDbEntity
  8
OBJECT
  6
CONTINUOUS
100
AcDbPolyline
 90
        6
 70
             129
 10
488.5
 20
-293.0000048327006
 10
511.5
 20
-293.0000048327006
 10
511.5
 20
-343.0000048327006
 42
-0.414213562373095
 10
507.5
 20
-347.0000048327006
 10
492.5
 20
-347.0000048327006
 42
-0.414213562373095
 10
488.5
 20
-343.0000048327006
  0
LINE
  5
32B
100
AcDbEntity
  8
OBJECT
  6
CONTINUOUS
100
AcDbLine
 10
491.0
 20
-332.0000048327006
 30
0.0
 11
509.0
 21
-332.0000048327006
 31
0.0
  0
LINE
  5
32C
100
AcDbEntity
  8
OBJECT
  6
CONTINUOUS
100
AcDbLine
 10
516.26579999999922
 20
-259.6607048327005
 30
0.0
 11
518.0
 21
-272.0000048327006
 31
0.0
  0
LINE
  5
32D
100
AcDbEntity
  8
OBJECT
  6
CONTINUOUS
100
AcDbLine
 10
515.0
 20
-272.0000048327006
 30
0.0
 11
513.34709999999905
 21
-259.60350483270076
 31
0.0
  0
LINE
  5
32E
100
AcDbEntity
  8
OBJECT
  6
CONTINUOUS
100
AcDbLine
 10
482.0
 20
-272.0000048327006
 30
0.0
 11
482.0
 21
-307.5000048327006
 31
0.0
  0
LINE
  5
32F
100
AcDbEntity
  8
OBJECT
  6
CONTINUOUS
100
AcDbLine
 10
485.0
 20
-272.0000048327006
 30
0.0
 11
485.0
 21
-307.5000048327006
 31
0.0
  0
LINE
  5
330
100
AcDbEntity
  8
OBJECT
  6
CONTINUOUS
100
AcDbLine
 10
483.73420000000078
 20
-259.6607048327005
 30
0.0
 11
482.0
 21
-272.0000048327006
 31
0.0
  0
LINE
  5
331
100
AcDbEntity
  8
OBJECT
  6
CONTINUOUS
100
AcDbLine
 10
485.0
 20
-272.0000048327006
 30
0.0
 11
486.65289999999914
 21
-259.60350483270076
 31
0.0
  0
ARC
  5
332
100
AcDbEntity
  8
OBJECT
  6
CONTINUOUS
100
AcDbCircle
 10
511.5
 20
-307.5000048327006
 30
0.0
 40
3.5
100
AcDbArc
 50
270.0
 51
0.0
  0
ARC
  5
333
100
AcDbEntity
  8
OBJECT
  6
CONTINUOUS
100
AcDbCircle
 10
488.5
 20
-307.5000048327006
 30
0.0
 40
3.5
100
AcDbArc
 50
180.0
 51
270.0
  0
ARC
  5
334
100
AcDbEntity
  8
OBJECT
  6
CONTINUOUS
100
AcDbCircle
 10
488.5
 20
-307.5000048327006
 30
0.0
 40
6.5
100
AcDbArc
 50
180.0
 51
270.0
  0
ARC
  5
335
100
AcDbEntity
  8
OBJECT
  6
CONTINUOUS
100
AcDbCircle
 10
511.5
 20
-307.5000048327006
 30
0.0
 40
6.5
100
AcDbArc
 50
270.0
 51
0.0
  0
ARC
  5
336
100
AcDbEntity
  8
OBJECT
  6
CONTINUOUS
100
AcDbCircle
 10
509.82909999999902
 20
-260.56530483270035
 30
0.0
 40
6.4999544652252998
100
AcDbArc
 50
7.9998324838945196
 51
88.494257026693788
  0
ARC
  5
337
100
AcDbEntity
  8
OBJECT
  6
CONTINUOUS
100
AcDbCircle
 10
490.17089999999916
 20
-260.56530483270035
 30
0.0
 40
6.4999444559164186
100
AcDbArc
 50
91.505742973300116
 51
172.00016751610372
  0
ARC
  5
338
100
AcDbEntity
  8
OBJECT
  6
CONTINUOUS
100
AcDbCircle
 10
489.6265999999996
 20
-260.0000048327006
 30
0.0
 40
3.0000000016666664
100
AcDbArc
 50
90.001909859302899
 51
172.40523042508053
  0
ARC
  5
339
100
AcDbEntity
  8
OBJECT
  6
CONTINUOUS
100
AcDbCircle
 10
510.3734000000004
 20
-260.0000048327006
 30
0.0
 40
3.0000173232819507
100
AcDbArc
 50
7.59476957491903
 51
89.998090140677022
  0
LINE
  5
33A
100
AcDbEntity
  8
OBJECT
  6
CONTINUOUS
100
AcDbLine
 10
422.5
 20
-270.0000048327006
 30
0.0
 11
482.28110000000015
 21
-270.0000048327006
 31
0.0
  0
LINE
  5
33B
100
AcDbEntity
  8
OBJECT
  6
CONTINUOUS
100
AcDbLine
 10
482.0
 20
-280.0000048327006
 30
0.0
 11
420.0
 21
-280.0000048327006
 31
0.0
  0
LINE
  5
33C
100
AcDbEntity
  8
OBJECT
  6
CONTINUOUS
100
AcDbLine
 10
980.0
 20
-280.0000048327006
 30
0.0
 11
485.0
 21
-280.0000048327006
 31
0.0
  0
LINE
  5
33D
100
AcDbEntity
  8
OBJECT
  6
CONTINUOUS
100
AcDbLine
 10
440.0
 20
-280.0000048327006
 30
0.0
 11
482.0
 21
-280.0000048327006
 31
0.0
  0
LINE
  5
33E
100
AcDbEntity
  8
OBJECT
  6
CONTINUOUS
100
AcDbLine
 10
485.26670000000013
 20
-270.0000048327006
 30
0.0
 11
514.73329999999987
 21
-270.0000048327006
 31
0.0
  0
LINE
  5
33F
100
AcDbEntity
  8
OBJECT
  6
CONTINUOUS
100
AcDbLine
 10
485.0
 20
-280.0000048327006
 30
0.0
 11
515.0
 21
-280.0000048327006
 31
0.0
  0
LINE
  5
340
100
AcDbEntity
  8
OBJECT
  6
CONTINUOUS
100
AcDbLine
 10
887.0
 20
-249.0000048327006
 30
0.0
 11
887.0
 21
-241.0000048327006
 31
0.0
  0
LINE
  5
341
100
AcDbEntity
  8
OBJECT
  6
CONTINUOUS
100
AcDbLine
 10
890.0
 20
-257.5000048327006
 30
0.0
 11
887.0
 21
-249.0000048327006
 31
0.0
  0
LINE
  5
342
100
AcDbEntity
  8
OBJECT
  6
CONTINUOUS
100
AcDbLine
 10
890.0
 20
-266.0000048327006
 30
0.0
 11
890.0
 21
-252.0000048327006
 31
0.0
  0
LINE
  5
343
100
AcDbEntity
  8
OBJECT
  6
CONTINUOUS
100
AcDbLine
 10
910.0
 20
-266.0000048327006
 30
0.0
 11
890.0
 21
-266.0000048327006
 31
0.0
  0
LINE
  5
344
100
AcDbEntity
  8
OBJECT
  6
CONTINUOUS
100
AcDbLine
 10
910.0
 20
-252.0000048327006
 30
0.0
 11
910.0
 21
-266.0000048327006
 31
0.0
  0
LINE
  5
345
100
AcDbEntity
  8
OBJECT
  6
CONTINUOUS
100
AcDbLine
 10
913.0
 20
-249.0000048327006
 30
0.0
 11
910.0
 21
-257.5000048327006
 31
0.0
  0
LINE
  5
346
100
AcDbEntity
  8
OBJECT
  6
CONTINUOUS
100
AcDbLine
 10
913.0
 20
-241.0000048327006
 30
0.0
 11
913.0
 21
-249.0000048327006
 31
0.0
  0
LINE
  5
347
100
AcDbEntity
  8
OBJECT
  6
CONTINUOUS
100
AcDbLine
 10
887.0
 20
-241.0000048327006
 30
0.0
 11
913.0
 21
-241.0000048327006
 31
0.0
  0
LINE
  5
348
100
AcDbEntity
  8
OBJECT
  6
CONTINUOUS
100
AcDbLine
 10
890.0
 20
-252.0000048327006
 30
0.0
 11
910.0
 21
-252.0000048327006
 31
0.0
  0
CIRCLE
  5
349
100
AcDbEntity
  8
OBJECT
  6
CONTINUOUS
100
AcDbCircle
 10
906.0
 20
-246.0000048327006
 30
0.0
 40
2.5
  0
CIRCLE
  5
34A
100
AcDbEntity
  8
OBJECT
  6
CONTINUOUS
100
AcDbCircle
 10
894.0
 20
-246.0000048327006
 30
0.0
 40
2.5
  0
LINE
  5
34B
100
AcDbEntity
  8
OBJECT
  6
CONTINUOUS
100
AcDbLine
 10
918.0
 20
-272.0000048327006
 30
0.0
 11
918.0
 21
-307.5000048327006
 31
0.0
  0
LINE
  5
34C
100
AcDbEntity
  8
OBJECT
  6
CONTINUOUS
100
AcDbLine
 10
915.0
 20
-272.0000048327006
 30
0.0
 11
915.0
 21
-307.5000048327006
 31
0.0
  0
LWPOLYLINE
  5
34D
100
AcDbEntity
  8
OBJECT
  6
CONTINUOUS
100
AcDbPolyline
 90
        6
 70
             129
 10
888.5
 20
-293.0000048327006
 10
911.5
 20
-293.0000048327006
 10
911.5
 20
-343.0000048327006
 42
-0.414213562373095
 10
907.5
 20
-347.0000048327006
 10
892.5
 20
-347.0000048327006
 42
-0.414213562373095
 10
888.5
 20
-343.0000048327006
  0
LINE
  5
34E
100
AcDbEntity
  8
OBJECT
  6
CONTINUOUS
100
AcDbLine
 10
891.0
 20
-332.0000048327006
 30
0.0
 11
909.0
 21
-332.0000048327006
 31
0.0
  0
LINE
  5
34F
100
AcDbEntity
  8
OBJECT
  6
CONTINUOUS
100
AcDbLine
 10
916.26579999999922
 20
-259.6607048327005
 30
0.0
 11
918.0
 21
-272.0000048327006
 31
0.0
  0
LINE
  5
350
100
AcDbEntity
  8
OBJECT
  6
CONTINUOUS
100
AcDbLine
 10
915.0
 20
-272.0000048327006
 30
0.0
 11
913.34709999999905
 21
-259.60350483270076
 31
0.0
  0
LINE
  5
351
100
AcDbEntity
  8
OBJECT
  6
CONTINUOUS
100
AcDbLine
 10
882.0
 20
-272.0000048327006
 30
0.0
 11
882.0
 21
-307.5000048327006
 31
0.0
  0
LINE
  5
352
100
AcDbEntity
  8
OBJECT
  6
CONTINUOUS
100
AcDbLine
 10
885.0
 20
-272.0000048327006
 30
0.0
 11
885.0
 21
-307.5000048327006
 31
0.0
  0
LINE
  5
353
100
AcDbEntity
  8
OBJECT
  6
CONTINUOUS
100
AcDbLine
 10
883.73419999999896
 20
-259.6607048327005
 30
0.0
 11
882.0
 21
-272.0000048327006
 31
0.0
  0
LINE
  5
354
100
AcDbEntity
  8
OBJECT
  6
CONTINUOUS
100
AcDbLine
 10
885.0
 20
-272.0000048327006
 30
0.0
 11
886.65289999999914
 21
-259.60350483270076
 31
0.0
  0
ARC
  5
355
100
AcDbEntity
  8
OBJECT
  6
CONTINUOUS
100
AcDbCircle
 10
911.5
 20
-307.5000048327006
 30
0.0
 40
3.5
100
AcDbArc
 50
270.0
 51
0.0
  0
ARC
  5
356
100
AcDbEntity
  8
OBJECT
  6
CONTINUOUS
100
AcDbCircle
 10
888.5
 20
-307.5000048327006
 30
0.0
 40
3.5
100
AcDbArc
 50
180.0
 51
270.0
  0
ARC
  5
357
100
AcDbEntity
  8
OBJECT
  6
CONTINUOUS
100
AcDbCircle
 10
888.5
 20
-307.5000048327006
 30
0.0
 40
6.5
100
AcDbArc
 50
180.0
 51
270.0
  0
ARC
  5
358
100
AcDbEntity
  8
OBJECT
  6
CONTINUOUS
100
AcDbCircle
 10
911.5
 20
-307.5000048327006
 30
0.0
 40
6.5
100
AcDbArc
 50
270.0
 51
0.0
  0
ARC
  5
359
100
AcDbEntity
  8
OBJECT
  6
CONTINUOUS
100
AcDbCircle
 10
909.82909999999902
 20
-260.56530483270035
 30
0.0
 40
6.4999544652252998
100
AcDbArc
 50
7.9998324838945196
 51
88.494257026693788
  0
ARC
  5
35A
100
AcDbEntity
  8
OBJECT
  6
CONTINUOUS
100
AcDbCircle
 10
890.17089999999916
 20
-260.56530483270035
 30
0.0
 40
6.4999444559164186
100
AcDbArc
 50
91.505742973300116
 51
172.00016751610372
  0
ARC
  5
35B
100
AcDbEntity
  8
OBJECT
  6
CONTINUOUS
100
AcDbCircle
 10
889.6265999999996
 20
-260.0000048327006
 30
0.0
 40
3.0000000016666664
100
AcDbArc
 50
90.001909859302899
 51
172.40523042508053
  0
ARC
  5
35C
100
AcDbEntity
  8
OBJECT
  6
CONTINUOUS
100
AcDbCircle
 10
910.3734000000004
 20
-260.0000048327006
 30
0.0
 40
3.0000173232819507
100
AcDbArc
 50
7.59476957491903
 51
89.998090140711767
  0
LINE
  5
35D
100
AcDbEntity
  8
OBJECT
  6
CONTINUOUS
100
AcDbLine
 10
885.26670000000013
 20
-270.0000048327006
 30
0.0
 11
914.73329999999987
 21
-270.0000048327006
 31
0.0
  0
LINE
  5
35E
100
AcDbEntity
  8
OBJECT
  6
CONTINUOUS
100
AcDbLine
 10
885.0
 20
-280.0000048327006
 30
0.0
 11
915.0
 21
-280.0000048327006
 31
0.0
  0
LINE
  5
35F
100
AcDbEntity
  8
OBJECT
  6
CONTINUOUS
100
AcDbLine
 10
517.71889999999985
 20
-270.0000048327006
 30
0.0
 11
882.28110000000015
 21
-270.0000048327006
 31
0.0
  0
LINE
  5
360
100
AcDbEntity
  8
OBJECT
  6
CONTINUOUS
100
AcDbLine
 10
518.0
 20
-280.0000048327006
 30
0.0
 11
882.0
 21
-280.0000048327006
 31
0.0
  0
LINE
  5
361
100
AcDbEntity
  8
OBJECT
  6
CONTINUOUS
100
AcDbLine
 10
917.71889999999985
 20
-270.0000048327006
 30
0.0
 11
977.5
 21
-270.0000048327006
 31
0.0
  0
LINE
  5
362
100
AcDbEntity
  8
OBJECT
  6
CONTINUOUS
100
AcDbLine
 10
885.26670000000013
 20
-270.0000048327006
 30
0.0
 11
914.73329999999987
 21
-270.0000048327006
 31
0.0
  0
LINE
  5
363
100
AcDbEntity
  8
OBJECT
  6
CONTINUOUS
100
AcDbLine
 10
918.0
 20
-280.0000048327006
 30
0.0
 11
960.0
 21
-280.0000048327006
 31
0.0
  0
LINE
  5
364
100
AcDbEntity
  8
OBJECT
  6
CONTINUOUS
100
AcDbLine
 10
885.0
 20
-280.0000048327006
 30
0.0
 11
915.0
 21
-280.0000048327006
 31
0.0
  0
POLYLINE
  5
365
100
AcDbEntity
  8
OBJECT
  6
CONTINUOUS
100
AcDb2dPolyline
 66
               1
 10
0.0
 20
0.0
 30
0.0
 70
               1
 75
               5
  0
VERTEX
  5
366
100
AcDbEntity
  8
OBJECT
  6
CONTINUOUS
100
AcDbVertex
100
AcDb2dVertex
 10
643.0
 20
-981.0000048327006
 30
0.0
  0
VERTEX
  5
367
100
AcDbEntity
  8
OBJECT
  6
CONTINUOUS
100
AcDbVertex
100
AcDb2dVertex
 10
757.0
 20
-981.0000048327006
 30
0.0
  0
VERTEX
  5
368
100
AcDbEntity
  8
OBJECT
  6
CONTINUOUS
100
AcDbVertex
100
AcDb2dVertex
 10
757.0
 20
-1041.0000048327006
 30
0.0
  0
VERTEX
  5
369
100
AcDbEntity
  8
OBJECT
  6
CONTINUOUS
100
AcDbVertex
100
AcDb2dVertex
 10
643.0
 20
-1041.0000048327006
 30
0.0
  0
SEQEND
  5
36A
100
AcDbEntity
  8
OBJECT
  6
CONTINUOUS
  0
CIRCLE
  5
36B
100
AcDbEntity
  8
OBJECT
  6
CONTINUOUS
100
AcDbCircle
 10
725.0
 20
-1011.0000048327006
 30
0.0
 40
22.5
  0
CIRCLE
  5
36C
100
AcDbEntity
  8
OBJECT
  6
CONTINUOUS
100
AcDbCircle
 10
665.0
 20
-1011.0000048327006
 30
0.0
 40
7.5
  0
POLYLINE
  5
36D
100
AcDbEntity
  8
OBJECT
  6
CONTINUOUS
100
AcDb2dPolyline
 66
               1
 10
0.0
 20
0.0
 30
0.0
 75
               5
  0
VERTEX
  5
36E
100
AcDbEntity
  8
OBJECT
  6
CONTINUOUS
100
AcDbVertex
100
AcDb2dVertex
 10
803.27390000000014
 20
-979.0000048327006
 30
0.0
  0
VERTEX
  5
36F
100
AcDbEntity
  8
OBJECT
  6
CONTINUOUS
100
AcDbVertex
100
AcDb2dVertex
 10
978.0
 20
-979.0000048327006
 30
0.0
  0
VERTEX
  5
370
100
AcDbEntity
  8
OBJECT
  6
CONTINUOUS
100
AcDbVertex
100
AcDb2dVertex
 10
978.0
 20
-981.0000048327006
 30
0.0
  0
VERTEX
  5
371
100
AcDbEntity
  8
OBJECT
  6
CONTINUOUS
100
AcDbVertex
100
AcDb2dVertex
 10
802.67289999999957
 20
-981.0000048327006
 30
0.0
  0
SEQEND
  5
372
100
AcDbEntity
  8
OBJECT
  6
CONTINUOUS
  0
POLYLINE
  5
373
100
AcDbEntity
  8
OBJECT
  6
CONTINUOUS
100
AcDb2dPolyline
 66
               1
 10
0.0
 20
0.0
 30
0.0
 75
               5
  0
VERTEX
  5
374
100
AcDbEntity
  8
OBJECT
  6
CONTINUOUS
100
AcDbVertex
100
AcDb2dVertex
 10
792.82819999999992
 20
-979.0000048327006
 30
0.0
  0
VERTEX
  5
375
100
AcDbEntity
  8
OBJECT
  6
CONTINUOUS
100
AcDbVertex
100
AcDb2dVertex
 10
422.0
 20
-979.0000048327006
 30
0.0
  0
VERTEX
  5
376
100
AcDbEntity
  8
OBJECT
  6
CONTINUOUS
100
AcDbVertex
100
AcDb2dVertex
 10
422.0
 20
-981.0000048327006
 30
0.0
  0
VERTEX
  5
377
100
AcDbEntity
  8
OBJECT
  6
CONTINUOUS
100
AcDbVertex
100
AcDb2dVertex
 10
792.22719999999936
 20
-981.0000048327006
 30
0.0
  0
SEQEND
  5
378
100
AcDbEntity
  8
OBJECT
  6
CONTINUOUS
  0
POLYLINE
  5
379
100
AcDbEntity
  8
OBJECT
  6
CONTINUOUS
100
AcDb2dPolyline
 66
               1
 10
0.0
 20
0.0
 30
0.0
 75
               5
  0
VERTEX
  5
37A
100
AcDbEntity
  8
OBJECT
  6
CONTINUOUS
100
AcDbVertex
100
AcDb2dVertex
 10
792.82819999999992
 20
-979.0000048327006
 30
0.0
  0
VERTEX
  5
37B
100
AcDbEntity
  8
OBJECT
  6
CONTINUOUS
100
AcDbVertex
100
AcDb2dVertex
 10
420.0
 20
-979.0000048327006
 30
0.0
  0
VERTEX
  5
37C
100
AcDbEntity
  8
OBJECT
  6
CONTINUOUS
100
AcDbVertex
100
AcDb2dVertex
 10
420.0
 20
-974.0000048327006
 30
0.0
  0
SEQEND
  5
37D
100
AcDbEntity
  8
OBJECT
  6
CONTINUOUS
  0
POLYLINE
  5
37E
100
AcDbEntity
  8
OBJECT
  6
CONTINUOUS
100
AcDb2dPolyline
 66
               1
 10
0.0
 20
0.0
 30
0.0
 75
               5
  0
VERTEX
  5
37F
100
AcDbEntity
  8
OBJECT
  6
CONTINUOUS
100
AcDbVertex
100
AcDb2dVertex
 10
803.27390000000014
 20
-979.0000048327006
 30
0.0
  0
VERTEX
  5
380
100
AcDbEntity
  8
OBJECT
  6
CONTINUOUS
100
AcDbVertex
100
AcDb2dVertex
 10
980.0
 20
-979.0000048327006
 30
0.0
  0
VERTEX
  5
381
100
AcDbEntity
  8
OBJECT
  6
CONTINUOUS
100
AcDbVertex
100
AcDb2dVertex
 10
980.0
 20
-974.0000048327006
 30
0.0
  0
SEQEND
  5
382
100
AcDbEntity
  8
OBJECT
  6
CONTINUOUS
  0
LINE
  5
383
100
AcDbEntity
  8
OBJECT
  6
CONTINUOUS
100
AcDbLine
 10
394.0
 20
-569.0000048327006
 30
0.0
 11
394.0
 21
-629.0000048327006
 31
0.0
  0
POLYLINE
  5
384
100
AcDbEntity
  8
OBJECT
  6
CONTINUOUS
100
AcDb2dPolyline
 66
               1
 10
0.0
 20
0.0
 30
0.0
 75
               5
  0
VERTEX
  5
385
100
AcDbEntity
  8
OBJECT
  6
CONTINUOUS
100
AcDbVertex
100
AcDb2dVertex
 10
-1215.0
 20
-974.07750483270047
 30
0.0
  0
VERTEX
  5
386
100
AcDbEntity
  8
OBJECT
  6
CONTINUOUS
100
AcDbVertex
100
AcDb2dVertex
 10
-1215.0
 20
-979.0000048327006
 30
0.0
  0
VERTEX
  5
387
100
AcDbEntity
  8
OBJECT
  6
CONTINUOUS
100
AcDbVertex
100
AcDb2dVertex
 10
-1115.0
 20
-979.0000048327006
 30
0.0
  0
VERTEX
  5
388
100
AcDbEntity
  8
OBJECT
  6
CONTINUOUS
100
AcDbVertex
100
AcDb2dVertex
 10
-1115.0
 20
-280.0000048327006
 30
0.0
  0
VERTEX
  5
389
100
AcDbEntity
  8
OBJECT
  6
CONTINUOUS
100
AcDbVertex
100
AcDb2dVertex
 10
-1215.0
 20
-280.0000048327006
 30
0.0
  0
VERTEX
  5
38A
100
AcDbEntity
  8
OBJECT
  6
CONTINUOUS
100
AcDbVertex
100
AcDb2dVertex
 10
-1215.0
 20
-944.54230483270067
 30
0.0
  0
SEQEND
  5
38B
100
AcDbEntity
  8
OBJECT
  6
CONTINUOUS
  0
LINE
  5
38C
100
AcDbEntity
  8
OBJECT
  6
CONTINUOUS
100
AcDbLine
 10
-1115.0
 20
-280.0000048327006
 30
0.0
 11
-575.0
 21
-280.0000048327006
 31
0.0
  0
LINE
  5
38D
100
AcDbEntity
  8
OBJECT
  6
CONTINUOUS
100
AcDbLine
 10
-1162.0
 20
-233.0000048327006
 30
0.0
 11
-583.0
 21
-233.0000048327006
 31
0.0
  0
LINE
  5
38E
100
AcDbEntity
  8
OBJECT
  6
CONTINUOUS
100
AcDbLine
 10
-577.5
 20
-270.0000048327006
 30
0.0
 11
-1167.5
 21
-270.0000048327006
 31
0.0
  0
LINE
  5
38F
100
AcDbEntity
  8
OBJECT
  6
CONTINUOUS
100
AcDbLine
 10
-577.5
 20
-270.0000048327006
 30
0.0
 11
-577.5
 21
-280.0000048327006
 31
0.0
  0
LINE
  5
390
100
AcDbEntity
  8
OBJECT
  6
CONTINUOUS
100
AcDbLine
 10
-1167.5
 20
-270.0000048327006
 30
0.0
 11
-1167.5
 21
-280.0000048327006
 31
0.0
  0
LINE
  5
391
100
AcDbEntity
  8
OBJECT
  6
CONTINUOUS
100
AcDbLine
 10
-580.0
 20
-236.0000048327006
 30
0.0
 11
-580.0
 21
-270.0000048327006
 31
0.0
  0
LINE
  5
392
100
AcDbEntity
  8
OBJECT
  6
CONTINUOUS
100
AcDbLine
 10
-1165.0
 20
-236.0000048327006
 30
0.0
 11
-1165.0
 21
-270.0000048327006
 31
0.0
  0
ARC
  5
393
100
AcDbEntity
  8
OBJECT
  6
CONTINUOUS
100
AcDbCircle
 10
-583.0
 20
-236.0000048327006
 30
0.0
 40
3.0
100
AcDbArc
 50
0.0
 51
90.0
  0
ARC
  5
394
100
AcDbEntity
  8
OBJECT
  6
CONTINUOUS
100
AcDbCircle
 10
-1162.0
 20
-236.0000048327006
 30
0.0
 40
3.0
100
AcDbArc
 50
90.0
 51
180.0
  0
ARC
  5
395
100
AcDbEntity
  8
OBJECT
  6
CONTINUOUS
100
AcDbCircle
 10
450.5
 20
-230.0000048327006
 30
0.0
 40
3.0
100
AcDbArc
 50
90.0
 51
180.0
  0
ARC
  5
396
100
AcDbEntity
  8
OBJECT
  6
CONTINUOUS
100
AcDbCircle
 10
949.5
 20
-230.0000048327006
 30
0.0
 40
3.0
100
AcDbArc
 50
0.0
 51
90.0
  0
LINE
  5
397
100
AcDbEntity
  8
OBJECT
  6
CONTINUOUS
100
AcDbLine
 10
-602.5
 20
-230.0000048327006
 30
0.0
 11
-1101.5
 21
-230.0000048327006
 31
0.0
  0
ARC
  5
398
100
AcDbEntity
  8
OBJECT
  6
CONTINUOUS
100
AcDbCircle
 10
-602.5
 20
-233.0000048327006
 30
0.0
 40
3.0
100
AcDbArc
 50
0.0
 51
90.0
  0
ARC
  5
399
100
AcDbEntity
  8
OBJECT
  6
CONTINUOUS
100
AcDbCircle
 10
-1101.5
 20
-233.0000048327006
 30
0.0
 40
3.0
100
AcDbArc
 50
90.0
 51
180.0
  0
POLYLINE
  5
39A
100
AcDbEntity
  8
OBJECT
  6
CONTINUOUS
100
AcDb2dPolyline
 66
               1
 10
0.0
 20
0.0
 30
0.0
 70
               1
 75
               5
  0
VERTEX
  5
39B
100
AcDbEntity
  8
OBJECT
  6
CONTINUOUS
100
AcDbVertex
100
AcDb2dVertex
 10
-1114.5
 20
-231.0000048327006
 30
0.0
  0
VERTEX
  5
39C
100
AcDbEntity
  8
OBJECT
  6
CONTINUOUS
100
AcDbVertex
100
AcDb2dVertex
 10
-1114.5
 20
-233.0000048327006
 30
0.0
  0
VERTEX
  5
39D
100
AcDbEntity
  8
OBJECT
  6
CONTINUOUS
100
AcDbVertex
100
AcDb2dVertex
 10
-1213.0
 20
-233.0000048327006
 30
0.0
  0
VERTEX
  5
39E
100
AcDbEntity
  8
OBJECT
  6
CONTINUOUS
100
AcDbVertex
100
AcDb2dVertex
 10
-1213.0
 20
-280.0000048327006
 30
0.0
  0
VERTEX
  5
39F
100
AcDbEntity
  8
OBJECT
  6
CONTINUOUS
100
AcDbVertex
100
AcDb2dVertex
 10
-1215.0
 20
-280.0000048327006
 30
0.0
  0
VERTEX
  5
3A0
100
AcDbEntity
  8
OBJECT
  6
CONTINUOUS
100
AcDbVertex
100
AcDb2dVertex
 10
-1215.0
 20
-231.0000048327006
 30
0.0
  0
SEQEND
  5
3A1
100
AcDbEntity
  8
OBJECT
  6
CONTINUOUS
  0
POLYLINE
  5
3A2
100
AcDbEntity
  8
OBJECT
  6
CONTINUOUS
100
AcDb2dPolyline
 66
               1
 10
0.0
 20
0.0
 30
0.0
 70
               1
 75
               5
  0
VERTEX
  5
3A3
100
AcDbEntity
  8
OBJECT
  6
CONTINUOUS
100
AcDbVertex
100
AcDb2dVertex
 10
-531.71240000000034
 20
-408.0000048327006
 30
0.0
  0
VERTEX
  5
3A4
100
AcDbEntity
  8
OBJECT
  6
CONTINUOUS
100
AcDbVertex
100
AcDb2dVertex
 10
-544.71240000000034
 20
-408.0000048327006
 30
0.0
  0
VERTEX
  5
3A5
100
AcDbEntity
  8
OBJECT
  6
CONTINUOUS
100
AcDbVertex
100
AcDb2dVertex
 10
-544.71240000000034
 20
-452.0000048327006
 30
0.0
  0
VERTEX
  5
3A6
100
AcDbEntity
  8
OBJECT
  6
CONTINUOUS
100
AcDbVertex
100
AcDb2dVertex
 10
-531.71240000000034
 20
-452.0000048327006
 30
0.0
  0
SEQEND
  5
3A7
100
AcDbEntity
  8
OBJECT
  6
CONTINUOUS
  0
LWPOLYLINE
  5
3A8
100
AcDbEntity
  8
OBJECT
  6
CONTINUOUS
100
AcDbPolyline
 90
        6
 70
             129
 10
-487.71240000000034
 20
-543.5000048327006
 10
-487.71240000000034
 20
-573.5000048327006
 10
-512.71240000000034
 20
-573.5000048327006
 42
-0.414213562373095
 10
-522.71240000000034
 20
-563.5000048327006
 10
-522.71240000000034
 20
-553.5000048327006
 42
-0.414213562373095
 10
-512.71240000000034
 20
-543.5000048327006
  0
POLYLINE
  5
3A9
100
AcDbEntity
  8
OBJECT
  6
CONTINUOUS
100
AcDb2dPolyline
 66
               1
 10
0.0
 20
0.0
 30
0.0
 70
               1
 75
               5
  0
VERTEX
  5
3AA
100
AcDbEntity
  8
OBJECT
  6
CONTINUOUS
100
AcDbVertex
100
AcDb2dVertex
 10
-466.71240000000034
 20
-547.0000048327006
 30
0.0
  0
VERTEX
  5
3AB
100
AcDbEntity
  8
OBJECT
  6
CONTINUOUS
100
AcDbVertex
100
AcDb2dVertex
 10
-466.71240000000034
 20
-550.0000048327006
 30
0.0
  0
VERTEX
  5
3AC
100
AcDbEntity
  8
OBJECT
  6
CONTINUOUS
100
AcDbVertex
100
AcDb2dVertex
 10
-487.71240000000034
 20
-550.0000048327006
 30
0.0
  0
VERTEX
  5
3AD
100
AcDbEntity
  8
OBJECT
  6
CONTINUOUS
100
AcDbVertex
100
AcDb2dVertex
 10
-487.71240000000034
 20
-547.0000048327006
 30
0.0
  0
SEQEND
  5
3AE
100
AcDbEntity
  8
OBJECT
  6
CONTINUOUS
  0
POLYLINE
  5
3AF
100
AcDbEntity
  8
OBJECT
  6
CONTINUOUS
100
AcDb2dPolyline
 66
               1
 10
0.0
 20
0.0
 30
0.0
 70
               1
 75
               5
  0
VERTEX
  5
3B0
100
AcDbEntity
  8
OBJECT
  6
CONTINUOUS
100
AcDbVertex
100
AcDb2dVertex
 10
-466.71240000000034
 20
-567.0000048327006
 30
0.0
  0
VERTEX
  5
3B1
100
AcDbEntity
  8
OBJECT
  6
CONTINUOUS
100
AcDbVertex
100
AcDb2dVertex
 10
-466.71240000000034
 20
-570.0000048327006
 30
0.0
  0
VERTEX
  5
3B2
100
AcDbEntity
  8
OBJECT
  6
CONTINUOUS
100
AcDbVertex
100
AcDb2dVertex
 10
-487.71240000000034
 20
-570.0000048327006
 30
0.0
  0
VERTEX
  5
3B3
100
AcDbEntity
  8
OBJECT
  6
CONTINUOUS
100
AcDbVertex
100
AcDb2dVertex
 10
-487.71240000000034
 20
-567.0000048327006
 30
0.0
  0
SEQEND
  5
3B4
100
AcDbEntity
  8
OBJECT
  6
CONTINUOUS
  0
POLYLINE
  5
3B5
100
AcDbEntity
  8
OBJECT
  6
CONTINUOUS
100
AcDb2dPolyline
 66
               1
 10
0.0
 20
0.0
 30
0.0
 75
               5
  0
VERTEX
  5
3B6
100
AcDbEntity
  8
OBJECT
  6
CONTINUOUS
100
AcDbVertex
100
AcDb2dVertex
 10
-552.04889999999978
 20
-425.0000048327006
 30
0.0
  0
VERTEX
  5
3B7
100
AcDbEntity
  8
OBJECT
  6
CONTINUOUS
100
AcDbVertex
100
AcDb2dVertex
 10
-544.71240000000034
 20
-425.0000048327006
 30
0.0
  0
VERTEX
  5
3B8
100
AcDbEntity
  8
OBJECT
  6
CONTINUOUS
100
AcDbVertex
100
AcDb2dVertex
 10
-544.71240000000034
 20
-435.0000048327006
 30
0.0
  0
VERTEX
  5
3B9
100
AcDbEntity
  8
OBJECT
  6
CONTINUOUS
100
AcDbVertex
100
AcDb2dVertex
 10
-551.81009999999969
 20
-435.0000048327006
 30
0.0
  0
SEQEND
  5
3BA
100
AcDbEntity
  8
OBJECT
  6
CONTINUOUS
  0
POLYLINE
  5
3BB
100
AcDbEntity
  8
OBJECT
  6
CONTINUOUS
100
AcDb2dPolyline
 66
               1
 10
0.0
 20
0.0
 30
0.0
 75
               5
  0
VERTEX
  5
3BC
100
AcDbEntity
  8
OBJECT
  6
CONTINUOUS
100
AcDbVertex
100
AcDb2dVertex
 10
-575.0
 20
-425.0000048327006
 30
0.0
  0
VERTEX
  5
3BD
100
AcDbEntity
  8
OBJECT
  6
CONTINUOUS
100
AcDbVertex
100
AcDb2dVertex
 10
-562.71240000000034
 20
-425.0000048327006
 30
0.0
  0
VERTEX
  5
3BE
100
AcDbEntity
  8
OBJECT
  6
CONTINUOUS
100
AcDbVertex
100
AcDb2dVertex
 10
-562.71240000000034
 20
-435.0000048327006
 30
0.0
  0
VERTEX
  5
3BF
100
AcDbEntity
  8
OBJECT
  6
CONTINUOUS
100
AcDbVertex
100
AcDb2dVertex
 10
-574.60000000000036
 20
-435.0000048327006
 30
0.0
  0
SEQEND
  5
3C0
100
AcDbEntity
  8
OBJECT
  6
CONTINUOUS
  0
LWPOLYLINE
  5
3C1
100
AcDbEntity
  8
OBJECT
  6
CONTINUOUS
100
AcDbPolyline
 90
        6
 70
             128
 10
-522.69260000000031
 20
-552.86920483270069
 42
-0.3784005756993413
 10
-549.69130000000041
 20
-523.73500483270072
 10
-552.3116
 20
-413.99690483270069
 10
-552.3116
 20
-413.99690483270069
 10
-552.3116
 20
-413.99690483270069
 42
0.1106643221610256
 10
-552.84029999999984
 20
-411.87570483270065
 42
0.1106643221610256
  0
ARC
  5
3C2
100
AcDbEntity
  8
OBJECT
  6
CONTINUOUS
100
AcDbCircle
 10
-519.69970000000012
 20
-523.01870483270068
 30
0.0
 40
40.000023694118191
100
AcDbArc
 50
214.37935543850486
 51
265.68053639885659
  0
LINE
  5
3C3
100
AcDbEntity
  8
OBJECT
  6
CONTINUOUS
100
AcDbLine
 10
-603.0
 20
-1039.0000048327006
 30
0.0
 11
-603.0
 21
-991.0000048327006
 31
0.0
  0
LINE
  5
3C4
100
AcDbEntity
  8
OBJECT
  6
CONTINUOUS
100
AcDbLine
 10
-651.22500000000036
 20
-1039.0000048327006
 30
0.0
 11
-603.0
 21
-1039.0000048327006
 31
0.0
  0
LINE
  5
3C5
100
AcDbEntity
  8
OBJECT
  6
CONTINUOUS
100
AcDbLine
 10
-753.0
 20
-991.0000048327006
 30
0.0
 11
-753.0
 21
-1039.0000048327006
 31
0.0
  0
LINE
  5
3C6
100
AcDbEntity
  8
OBJECT
  6
CONTINUOUS
100
AcDbLine
 10
-593.0
 20
-1033.5000048327006
 30
0.0
 11
-593.0
 21
-991.0000048327006
 31
0.0
  0
LINE
  5
3C7
100
AcDbEntity
  8
OBJECT
  6
CONTINUOUS
100
AcDbLine
 10
-603.0
 20
-1033.5000048327006
 30
0.0
 11
-593.0
 21
-1033.5000048327006
 31
0.0
  0
LWPOLYLINE
  5
3C8
100
AcDbEntity
  8
OBJECT
  6
CONTINUOUS
100
AcDbPolyline
 90
       25
 70
             128
 10
-646.5
 20
-991.0000048327006
 10
-572.71240000000034
 20
-991.0000048327006
 10
-572.71240000000034
 20
-991.0000048327006
 10
-572.71240000000034
 20
-991.0000048327006
 10
-572.71240000000034
 20
-991.0000048327006
 10
-572.71240000000034
 20
-991.0000048327006
 10
-572.71240000000034
 20
-991.0000048327006
 10
-572.71240000000034
 20
-991.0000048327006
 42
0.414213562373095
 10
-552.71240000000034
 20
-971.0000048327006
 10
-552.71240000000034
 20
-413.0000048327006
 10
-552.71240000000034
 20
-413.0000048327006
 10
-552.71240000000034
 20
-413.0000048327006
 10
-552.71240000000034
 20
-413.0000048327006
 10
-552.71240000000034
 20
-413.0000048327006
 10
-552.71240000000034
 20
-413.0000048327006
 10
-552.71240000000034
 20
-413.0000048327006
 42
0.414213562373095
 10
-557.71240000000034
 20
-408.0000048327006
 10
-557.71240000000034
 20
-408.0000048327006
 10
-557.71240000000034
 20
-408.0000048327006
 10
-557.71240000000034
 20
-408.0000048327006
 10
-557.71240000000034
 20
-408.0000048327006
 10
-557.71240000000034
 20
-408.0000048327006
 10
-557.71240000000034
 20
-408.0000048327006
 42
0.414213562373095
 10
-562.71240000000034
 20
-413.0000048327006
 10
-562.71240000000034
 20
-949.0000048327006
  0
LWPOLYLINE
  5
3C9
100
AcDbEntity
  8
OBJECT
  6
CONTINUOUS
100
AcDbPolyline
 90
       13
 70
             128
 10
-689.5
 20
-991.0000048327006
 10
-760.5
 20
-991.0000048327006
 10
-760.5
 20
-991.0000048327006
 10
-760.5
 20
-991.0000048327006
 42
-0.414213562373095
 10
-767.5
 20
-984.0000048327006
 10
-767.5
 20
-981.0000048327006
 10
-757.5
 20
-981.0000048327006
 10
-572.71240000000034
 20
-981.0000048327006
 10
-572.71240000000034
 20
-981.0000048327006
 10
-572.71240000000034
 20
-981.0000048327006
 42
0.414213562373095
 10
-562.71240000000034
 20
-971.0000048327006
 10
-562.71240000000034
 20
-970.97810483270041
 10
-562.71240000000034
 20
-969.0000048327006
  0
LWPOLYLINE
  5
3CA
100
AcDbEntity
  8
OBJECT
  6
CONTINUOUS
100
AcDbPolyline
 90
       12
 70
             128
 10
-569.18329999999969
 20
-258.0000048327006
 10
-555.0
 20
-258.0000048327006
 10
-555.0
 20
-258.0000048327006
 10
-555.0
 20
-258.0000048327006
 42
0.414213562373095
 10
-550.0
 20
-253.0000048327006
 10
-550.0
 20
-247.0000048327006
 10
-550.0
 20
-247.0000048327006
 10
-550.0
 20
-247.0000048327006
 42
0.414213562373095
 10
-555.0
 20
-242.0000048327006
 10
-580.0
 20
-242.0000048327006
 10
-580.0
 20
-258.0000048327006
 10
-580.0
 20
-258.0000048327006
  0
LINE
  5
3CB
100
AcDbEntity
  8
OBJECT
  6
CONTINUOUS
100
AcDbLine
 10
-565.5
 20
-272.0000048327006
 30
0.0
 11
-565.5
 21
-312.5000048327006
 31
0.0
  0
LINE
  5
3CC
100
AcDbEntity
  8
OBJECT
  6
CONTINUOUS
100
AcDbLine
 10
-572.5
 20
-254.5000048327006
 30
0.0
 11
-565.5
 21
-272.0000048327006
 31
0.0
  0
LINE
  5
3CD
100
AcDbEntity
  8
OBJECT
  6
CONTINUOUS
100
AcDbLine
 10
-568.5
 20
-272.0000048327006
 30
0.0
 11
-568.5
 21
-312.5000048327006
 31
0.0
  0
LINE
  5
3CE
100
AcDbEntity
  8
OBJECT
  6
CONTINUOUS
100
AcDbLine
 10
-575.5
 20
-255.5000048327006
 30
0.0
 11
-568.5
 21
-272.0000048327006
 31
0.0
  0
ARC
  5
3CF
100
AcDbEntity
  8
OBJECT
  6
CONTINUOUS
100
AcDbCircle
 10
-567.0
 20
-312.5000048327006
 30
0.0
 40
1.5
100
AcDbArc
 50
270.0
 51
0.0
  0
ARC
  5
3D0
100
AcDbEntity
  8
OBJECT
  6
CONTINUOUS
100
AcDbCircle
 10
-567.0
 20
-312.5000048327006
 30
0.0
 40
1.5
100
AcDbArc
 50
180.0
 51
270.0
  0
ARC
  5
3D1
100
AcDbEntity
  8
OBJECT
  6
CONTINUOUS
100
AcDbCircle
 10
-573.5
 20
-255.5000048327006
 30
0.0
 40
1.4142135623730951
100
AcDbArc
 50
45.0
 51
195.62430070987477
  0
LWPOLYLINE
  5
3D2
100
AcDbEntity
  8
OBJECT
  6
CONTINUOUS
100
AcDbPolyline
 90
        6
 70
             128
 10
-572.05869999999959
 20
-263.61160483270078
 42
-0.2044249814691301
 10
-580.0
 20
-267.0000048327006
 10
-580.0
 20
-241.0000048327006
 10
-577.0
 20
-241.0000048327006
 10
-577.0
 20
-256.0000048327006
 10
-575.28790000000026
 20
-256.0000048327006
  0
LWPOLYLINE
  5
3D3
100
AcDbEntity
  8
OBJECT
  6
CONTINUOUS
100
AcDbPolyline
 90
        7
 70
             128
 10
-570.03589999999986
 20
-260.6602048327004
 10
-570.03591959889718
 20
-260.66024673790139
 42
0.1098061926788611
 10
-569.0
 20
-256.00008560760148
 10
-569.0
 20
-256.0000048327006
 10
-569.0
 20
-250.0000048327006
 10
-572.0
 20
-250.0000048327006
 10
-572.0
 20
-255.7500048327006
  0
LINE
  5
3D4
100
AcDbEntity
  8
OBJECT
  6
CONTINUOUS
100
AcDbLine
 10
-561.0
 20
-293.0000048327006
 30
0.0
 11
-565.5
 21
-293.0000048327006
 31
0.0
  0
LINE
  5
3D5
100
AcDbEntity
  8
OBJECT
  6
CONTINUOUS
100
AcDbLine
 10
-561.0
 20
-348.0000048327006
 30
0.0
 11
-561.0
 21
-293.0000048327006
 31
0.0
  0
LINE
  5
3D6
100
AcDbEntity
  8
OBJECT
  6
CONTINUOUS
100
AcDbLine
 10
-564.5
 20
-348.0000048327006
 30
0.0
 11
-561.0
 21
-348.0000048327006
 31
0.0
  0
LINE
  5
3D7
100
AcDbEntity
  8
OBJECT
  6
CONTINUOUS
100
AcDbLine
 10
-564.5
 20
-333.0000048327006
 30
0.0
 11
-564.5
 21
-348.0000048327006
 31
0.0
  0
LINE
  5
3D8
100
AcDbEntity
  8
OBJECT
  6
CONTINUOUS
100
AcDbLine
 10
-568.5
 20
-293.0000048327006
 30
0.0
 11
-575.0
 21
-293.0000048327006
 31
0.0
  0
LINE
  5
3D9
100
AcDbEntity
  8
OBJECT
  6
CONTINUOUS
100
AcDbLine
 10
-575.0
 20
-333.0000048327006
 30
0.0
 11
-564.5
 21
-333.0000048327006
 31
0.0
  0
LWPOLYLINE
  5
3DA
100
AcDbEntity
  8
OBJECT
  6
CONTINUOUS
100
AcDbPolyline
 90
        6
 70
             129
 10
-585.0
 20
-580.0000048327006
 10
-640.0
 20
-580.0000048327006
 42
0.414213562373095
 10
-645.0
 20
-585.0000048327006
 10
-645.0
 20
-635.0000048327006
 42
0.414213562373095
 10
-640.0
 20
-640.0000048327006
 10
-585.0
 20
-640.0000048327006
  0
LINE
  5
3DB
100
AcDbEntity
  8
OBJECT
  6
CONTINUOUS
100
AcDbLine
 10
-605.0
 20
-580.0000048327006
 30
0.0
 11
-605.0
 21
-640.0000048327006
 31
0.0
  0
CIRCLE
  5
3DC
100
AcDbEntity
  8
OBJECT
  6
CONTINUOUS
100
AcDbCircle
 10
-595.0
 20
-590.0000048327006
 30
0.0
 40
6.0
  0
CIRCLE
  5
3DD
100
AcDbEntity
  8
OBJECT
  6
CONTINUOUS
100
AcDbCircle
 10
-595.0
 20
-630.0000048327006
 30
0.0
 40
6.0
  0
LINE
  5
3DE
100
AcDbEntity
  8
OBJECT
  6
CONTINUOUS
100
AcDbLine
 10
-635.0
 20
-580.0000048327006
 30
0.0
 11
-635.0
 21
-640.0000048327006
 31
0.0
  0
LWPOLYLINE
  5
3DF
100
AcDbEntity
  8
OBJECT
  6
CONTINUOUS
100
AcDbPolyline
 90
        6
 70
             129
 10
-1105.0
 20
-640.0000048327006
 10
-1050.0
 20
-640.0000048327006
 42
0.414213562373095
 10
-1045.0
 20
-635.0000048327006
 10
-1045.0
 20
-585.0000048327006
 42
0.414213562373095
 10
-1050.0
 20
-580.0000048327006
 10
-1105.0
 20
-580.0000048327006
  0
LINE
  5
3E0
100
AcDbEntity
  8
OBJECT
  6
CONTINUOUS
100
AcDbLine
 10
-1085.0
 20
-640.0000048327006
 30
0.0
 11
-1085.0
 21
-580.0000048327006
 31
0.0
  0
CIRCLE
  5
3E1
100
AcDbEntity
  8
OBJECT
  6
CONTINUOUS
100
AcDbCircle
 10
-1095.0
 20
-630.0000048327006
 30
0.0
 40
6.0
  0
CIRCLE
  5
3E2
100
AcDbEntity
  8
OBJECT
  6
CONTINUOUS
100
AcDbCircle
 10
-1095.0
 20
-590.0000048327006
 30
0.0
 40
6.0
  0
LINE
  5
3E3
100
AcDbEntity
  8
OBJECT
  6
CONTINUOUS
100
AcDbLine
 10
-1055.0
 20
-640.0000048327006
 30
0.0
 11
-1055.0
 21
-580.0000048327006
 31
0.0
  0
LWPOLYLINE
  5
3E4
100
AcDbEntity
  8
OBJECT
  6
CONTINUOUS
100
AcDbPolyline
 90
        6
 70
             129
 10
-815.0
 20
-860.0000048327006
 10
-815.0
 20
-805.0000048327006
 42
0.414213562373095
 10
-820.0
 20
-800.0000048327006
 10
-870.0
 20
-800.0000048327006
 42
0.414213562373095
 10
-875.0
 20
-805.0000048327006
 10
-875.0
 20
-860.0000048327006
  0
LINE
  5
3E5
100
AcDbEntity
  8
OBJECT
  6
CONTINUOUS
100
AcDbLine
 10
-815.0
 20
-840.0000048327006
 30
0.0
 11
-875.0
 21
-840.0000048327006
 31
0.0
  0
CIRCLE
  5
3E6
100
AcDbEntity
  8
OBJECT
  6
CONTINUOUS
100
AcDbCircle
 10
-825.0
 20
-850.0000048327006
 30
0.0
 40
6.0
  0
CIRCLE
  5
3E7
100
AcDbEntity
  8
OBJECT
  6
CONTINUOUS
100
AcDbCircle
 10
-865.0
 20
-850.0000048327006
 30
0.0
 40
6.0
  0
LINE
  5
3E8
100
AcDbEntity
  8
OBJECT
  6
CONTINUOUS
100
AcDbLine
 10
-815.0
 20
-810.0000048327006
 30
0.0
 11
-875.0
 21
-810.0000048327006
 31
0.0
  0
LINE
  5
3E9
100
AcDbEntity
  8
OBJECT
  6
CONTINUOUS
100
AcDbLine
 10
771.0
 20
222.5
 30
0.0
 11
629.0
 21
222.5
 31
0.0
  0
LINE
  5
3EA
100
AcDbEntity
  8
OBJECT
  6
CONTINUOUS
100
AcDbLine
 10
518.0
 20
222.5
 30
0.0
 11
621.0
 21
222.5
 31
0.0
  0
LINE
  5
3EB
100
AcDbEntity
  8
OBJECT
  6
CONTINUOUS
100
AcDbLine
 10
882.0
 20
222.5
 30
0.0
 11
779.0
 21
222.5
 31
0.0
  0
LINE
  5
3EC
100
AcDbEntity
  8
OBJECT
  6
CONTINUOUS
100
AcDbLine
 10
482.0
 20
220.0
 30
0.0
 11
442.5
 21
220.0
 31
0.0
  0
LINE
  5
3ED
100
AcDbEntity
  8
OBJECT
  6
CONTINUOUS
100
AcDbLine
 10
918.0
 20
220.0005000000001
 30
0.0
 11
960.0
 21
220.0010999999995
 31
0.0
  0
MTEXT
  5
3EE
100
AcDbEntity
  8
DIMENTION
100
AcDbMText
 10
-80.0
 20
95.0
 30
0.0
 40
33.866666666666667
 41
0.0
 71
               1
 72
               1
  1
450Wヒーターユニット
  7
________
  0
LINE
  5
3EF
100
AcDbEntity
  8
DIMENTION
  6
CONTINUOUS
100
AcDbLine
 10
0.0
 20
-945.0
 30
0.0
 11
-450.0
 21
-945.0
 31
0.0
  0
LINE
  5
3F0
100
AcDbEntity
  8
DIMENTION
  6
CONTINUOUS
100
AcDbLine
 10
-450.0
 20
-945.0
 30
0.0
 11
-653.90089949344781
 21
-1030.6383817288161
 31
0.0
  0
LINE
  5
3F1
100
AcDbEntity
  8
DIMENTION
  6
CONTINUOUS
100
AcDbLine
 10
-653.90089949344781
 20
-1030.6383817288161
 30
0.0
 11
-635.71222666130268
 21
-1016.9322336501584
 31
0.0
  0
LINE
  5
3F2
100
AcDbEntity
  8
DIMENTION
  6
CONTINUOUS
100
AcDbLine
 10
-653.90089949344781
 20
-1030.6383817288161
 30
0.0
 11
-631.29597272035744
 21
-1027.8628457207399
 31
0.0
  0
MTEXT
  5
3F3
100
AcDbEntity
  8
DIMENTION
100
AcDbMText
 10
-450.0
 20
-945.86111111111109
 30
0.0
 40
33.866666666666667
 41
474.00900000000001
 71
               4
 72
               1
  1
φ100 ウレタンキャスター\P 2個ストッパー付
  7
________
  0
LINE
  5
3F4
100
AcDbEntity
  8
DIMENTION
  6
CONTINUOUS
100
AcDbLine
 10
0.0
 20
-995.0
 30
0.0
 11
-450.0
 21
-995.0
 31
0.0
  0
LINE
  5
3F5
100
AcDbEntity
  8
DIMENTION
  6
CONTINUOUS
100
AcDbLine
 10
-450.0
 20
-995.0
 30
0.0
 11
-450.0
 21
-945.0
 31
0.0
  0
LINE
  5
3F6
100
AcDbEntity
  8
DIMENTION
  6
CONTINUOUS
100
AcDbLine
 10
-325.0
 20
-450.0
 30
0.0
 11
-450.0
 21
-450.0
 31
0.0
  0
LINE
  5
3F7
100
AcDbEntity
  8
DIMENTION
  6
CONTINUOUS
100
AcDbLine
 10
-450.0
 20
-450.0
 30
0.0
 11
-585.0
 21
-610.0000048327006
 31
0.0
  0
LINE
  5
3F8
100
AcDbEntity
  8
DIMENTION
  6
CONTINUOUS
100
AcDbLine
 10
-585.0
 20
-610.0000048327006
 30
0.0
 11
-575.01623485596497
 21
-589.53025280446013
 31
0.0
  0
LINE
  5
3F9
100
AcDbEntity
  8
DIMENTION
  6
CONTINUOUS
100
AcDbLine
 10
-585.0
 20
-610.0000048327006
 30
0.0
 11
-566.11892974572777
 21
-597.26456213909387
 31
0.0
  0
MTEXT
  5
3FA
100
AcDbEntity
  8
DIMENTION
100
AcDbMText
 10
-450.0
 20
-405.0
 30
0.0
 40
33.866666666666667
 41
159.97959999999998
 71
               1
 72
               1
  1
蓋掛け
  7
________
  0
DIMENSION
  5
3FB
100
AcDbEntity
  8
DIMENTION
  6
CONTINUOUS
100
AcDbDimension
  2
*D12
 10
300.0
 20
-280.0000048327006
 30
0.0
 11
300.0
 21
-690.0000048327006
 31
0.0
  3
CAD
100
AcDbAlignedDimension
 13
335.0
 23
-1100.0000048327006
 33
0.0
 14
440.0
 24
-280.0000048327006
 34
0.0
 50
90.0
100
AcDbRotatedDimension
1001
ACAD
1000
DSTYLE
1002
{
1070
             271
1070
               0
1070
             340
1005
35
1070
              76
1070
               1
1070
             147
1040
0.9999999999999999
1002
}
  0
DIMENSION
  5
3FC
100
AcDbEntity
  8
DIMENTION
  6
CONTINUOUS
100
AcDbDimension
  2
*D13
 10
300.0
 20
880.0
 30
0.0
 11
299.0
 21
537.5
 31
0.0
 70
             128
  3
CAD
100
AcDbAlignedDimension
 13
636.0
 23
195.0
 33
0.0
 14
415.0
 24
880.0
 34
0.0
 50
90.0
100
AcDbRotatedDimension
1001
ACAD
1000
DSTYLE
1002
{
1070
             271
1070
               0
1070
             340
1005
35
1070
             147
1040
0.9999999999999999
1002
}
  0
DIMENSION
  5
3FD
100
AcDbEntity
  8
DIMENTION
  6
CONTINUOUS
100
AcDbDimension
  2
*D14
 10
1100.0
 20
220.0
 30
0.0
 11
1100.0
 21
540.0
 31
0.0
  3
CAD
100
AcDbAlignedDimension
 13
980.0
 23
860.0
 33
0.0
 14
980.0
 24
220.0
 34
0.0
 50
90.0
100
AcDbRotatedDimension
1001
ACAD
1000
DSTYLE
1002
{
1070
             271
1070
               0
1070
             340
1005
35
1070
             147
1040
0.9999999999999999
1002
}
  0
DIMENSION
  5
3FE
100
AcDbEntity
  8
DIMENTION
  6
CONTINUOUS
100
AcDbDimension
  2
*D15
 10
400.0
 20
100.0
 30
0.0
 11
700.0
 21
100.0
 31
0.0
  3
CAD
100
AcDbAlignedDimension
 13
1000.0
 23
207.5
 33
0.0
 14
400.0
 24
207.5
 34
0.0
100
AcDbRotatedDimension
1001
ACAD
1000
DSTYLE
1002
{
1070
             271
1070
               0
1070
             340
1005
35
1070
             147
1040
0.9999999999999999
1002
}
  0
LINE
  5
3FF
100
AcDbEntity
  8
DIMENTION
  6
CONTINUOUS
100
AcDbLine
 10
1149.6406787029955
 20
-800.0
 30
0.0
 11
1000.0
 21
-959.0000048327006
 31
0.0
  0
LINE
  5
400
100
AcDbEntity
  8
DIMENTION
  6
CONTINUOUS
100
AcDbLine
 10
1000.0
 20
-959.0000048327006
 30
0.0
 11
1015.9357012970214
 21
-930.25123867913317
 31
0.0
  0
LINE
  5
401
100
AcDbEntity
  8
DIMENTION
  6
CONTINUOUS
100
AcDbLine
 10
1000.0
 20
-959.0000048327006
 30
0.0
 11
1028.175105227125
 21
-942.07069366476367
 31
0.0
  0
MTEXT
  5
402
100
AcDbEntity
  8
DIMENTION
100
AcDbMText
 10
1150.0
 20
-755.0
 30
0.0
 40
33.866666666666667
 41
0.0
 71
               1
 72
               1
  1
ダンパーゴム4個
  7
________
  0
LINE
  5
403
100
AcDbEntity
  8
DIMENTION
  6
CONTINUOUS
100
AcDbLine
 10
1150.0
 20
-400.0
 30
0.0
 11
904.47810000000027
 21
-487.5000048327006
 31
0.0
  0
LINE
  5
404
100
AcDbEntity
  8
DIMENTION
  6
CONTINUOUS
100
AcDbLine
 10
904.47810000000027
 20
-487.5000048327006
 30
0.0
 11
923.3591702542725
 21
-474.76456213909381
 31
0.0
  0
LINE
  5
405
100
AcDbEntity
  8
DIMENTION
  6
CONTINUOUS
100
AcDbLine
 10
904.47810000000027
 20
-487.5000048327006
 30
0.0
 11
927.19730783764203
 21
-485.91132305873231
 31
0.0
  0
MTEXT
  5
406
100
AcDbEntity
  8
DIMENTION
100
AcDbMText
 10
1150.0
 20
-355.0
 30
0.0
 40
33.866666666666667
 41
0.0
 71
               1
 72
               1
  1
電源コード　3m
  7
________
  0
LINE
  5
407
100
AcDbEntity
  8
DIMENTION
  6
CONTINUOUS
100
AcDbLine
 10
300.0
 20
50.0
 30
0.0
 11
-80.0
 21
50.0
 31
0.0
  0
LINE
  5
408
100
AcDbEntity
  8
DIMENTION
  6
CONTINUOUS
100
AcDbLine
 10
1100.0
 20
50.0
 30
0.0
 11
938.48923662111088
 21
256.37486431746947
 31
0.0
  0
LINE
  5
409
100
AcDbEntity
  8
DIMENTION
  6
CONTINUOUS
100
AcDbLine
 10
938.48923662111088
 20
256.37486431746947
 30
0.0
 11
956.67790945325601
 21
242.66871623881187
 31
0.0
  0
LINE
  5
40A
100
AcDbEntity
  8
DIMENTION
  6
CONTINUOUS
100
AcDbLine
 10
938.48923662111088
 20
256.37486431746947
 30
0.0
 11
947.38801531554361
 21
235.41065547724813
 31
0.0
  0
MTEXT
  5
40B
100
AcDbEntity
  8
DIMENTION
100
AcDbMText
 10
1100.0
 20
95.0
 30
0.0
 40
33.866666666666667
 41
0.0
 71
               1
 72
               1
  1
温度計
  7
________
  0
DIMENSION
  5
40C
100
AcDbEntity
  8
DIMENTION
  6
CONTINUOUS
100
AcDbDimension
  2
*D16
 10
300.0
 20
-280.0000048327006
 30
0.0
 11
300.0
 21
-255.0000048327006
 31
0.0
  3
CAD
100
AcDbAlignedDimension
 13
428.0
 23
-230.0000048327006
 33
0.0
 14
420.0
 24
-280.0000048327006
 34
0.0
 50
90.0
100
AcDbRotatedDimension
1001
ACAD
1000
DSTYLE
1002
{
1070
             271
1070
               0
1070
             340
1005
35
1070
             147
1040
0.9999999999999999
1002
}
  0
DIMENSION
  5
40D
100
AcDbEntity
  8
DIMENTION
  6
CONTINUOUS
100
AcDbDimension
  2
*D17
 10
420.0
 20
-150.0
 30
0.0
 11
700.0
 21
-150.0
 31
0.0
  3
CAD
100
AcDbAlignedDimension
 13
980.0
 23
-270.5000048327006
 33
0.0
 14
420.0
 24
-270.5000048327006
 34
0.0
100
AcDbRotatedDimension
1001
ACAD
1000
DSTYLE
1002
{
1070
             271
1070
               0
1070
             340
1005
35
1070
             147
1040
0.9999999999999999
1002
}
  0
POINT
  5
40E
100
AcDbEntity
  8
OBJECT
  6
CONTINUOUS
100
AcDbPoint
 10
2024.6000000000004
 20
-1389.0
 30
0.0
  0
LINE
  5
40F
100
AcDbEntity
  8
OBJECT
100
AcDbLine
 10
-1700.0
 20
860.0
 30
0.0
 11
-600.0
 21
860.0
 31
0.0
  0
LINE
  5
410
100
AcDbEntity
  8
OBJECT
100
AcDbLine
 10
-1700.0
 20
740.0
 30
0.0
 11
-600.0
 21
740.0
 31
0.0
  0
LINE
  5
411
100
AcDbEntity
  8
OBJECT
100
AcDbLine
 10
-1700.0
 20
800.0
 30
0.0
 11
-600.0
 21
800.0
 31
0.0
  0
MTEXT
  5
412
100
AcDbEntity
  8
TEXT
100
AcDbMText
 10
-1700.0
 20
830.0
 30
0.0
 40
33.866666666666667
 41
399.99999999999955
 71
               4
 72
               1
  1
　電　　　　　　　源
  7
________
  0
MTEXT
  5
413
100
AcDbEntity
  8
TEXT
100
AcDbMText
 10
-1300.0
 20
830.0
 30
0.0
 40
33.866666666666667
 41
700.0
 71
               4
 72
               1
  1
　単相100V　　50/60 Hz
  7
________
  0
MTEXT
  5
414
100
AcDbEntity
  8
TEXT
100
AcDbMText
 10
-1700.0
 20
770.0
 30
0.0
 40
33.866666666666667
 41
399.99999999999955
 71
               4
 72
               1
  1
　全 収 納 質 量
  7
________
  0
MTEXT
  5
415
100
AcDbEntity
  8
TEXT
100
AcDbMText
 10
-1300.0
 20
770.0
 30
0.0
 40
33.866666666666667
 41
700.0
 71
               4
 72
               1
  1
　60ｋｇ以下
  7
________
  0
MTEXT
  5
416
100
AcDbEntity
  8
TEXT
100
AcDbMText
 10
-1700.0
 20
710.0
 30
0.0
 40
33.866666666666667
 41
399.99999999999955
 71
               4
 72
               1
  1
　質　　　　　　　量
  7
________
  0
MTEXT
  5
417
100
AcDbEntity
  8
TEXT
100
AcDbMText
 10
-1300.0
 20
710.0
 30
0.0
 40
33.866666666666667
 41
700.0
 71
               4
 72
               1
  1
　本体のみ60ｋｇ
  7
________
  0
POINT
  5
418
100
AcDbEntity
  8
OBJECT
  6
CONTINUOUS
100
AcDbPoint
 10
-700.0
 20
-1100.0
 30
0.0
  0
DIMENSION
  5
419
100
AcDbEntity
  8
DIMENTION
100
AcDbDimension
  2
*D18
 10
-1350.0
 20
344.25139876294418
 30
0.0
 11
-1350.0
 21
-377.87430303487815
 31
0.0
  1
1450
  3
CAD
100
AcDbAlignedDimension
 13
-1400.0
 23
-1100.0000048327006
 33
0.0
 14
-987.35119199014525
 24
344.25139876294418
 34
0.0
 50
90.0
100
AcDbRotatedDimension
1001
ACAD
1000
DSTYLE
1002
{
1070
             340
1005
35
1070
              76
1070
               1
1070
             147
1040
0.9999999962747097
1002
}
  0
DIMENSION
  5
41A
100
AcDbEntity
  8
DIMENTION
100
AcDbDimension
  2
*D19
 10
1100.0
 20
860.0
 30
0.0
 11
1100.9999999962747
 21
915.0
 31
0.0
 70
             128
  3
CAD
100
AcDbAlignedDimension
 13
985.0
 23
880.0
 33
0.0
 14
980.0
 24
860.0
 34
0.0
 50
90.0
100
AcDbRotatedDimension
1001
ACAD
1000
DSTYLE
1002
{
1070
             340
1005
35
1070
             174
1070
               0
1070
             147
1040
0.9999999962747097
1002
}
  0
DIMENSION
  5
41B
100
AcDbEntity
  8
DIMENTION
100
AcDbDimension
  2
*D20
 10
420.0
 20
1000.0
 30
0.0
 11
700.0
 21
1000.0
 31
0.0
  3
CAD
100
AcDbAlignedDimension
 13
980.0
 23
860.0
 33
0.0
 14
420.0
 24
860.0
 34
0.0
100
AcDbRotatedDimension
1001
ACAD
1000
DSTYLE
1002
{
1070
             340
1005
35
1070
             147
1040
0.9999999962747097
1002
}
  0
DIMENSION
  5
41C
100
AcDbEntity
  8
DIMENTION
100
AcDbDimension
  2
*D21
 10
1000.0
 20
1000.0
 30
0.0
 11
1035.0
 21
1000.9999999962747
 31
0.0
 70
             128
  3
CAD
100
AcDbAlignedDimension
 13
980.0
 23
860.0
 33
0.0
 14
1000.0
 24
865.0
 34
0.0
100
AcDbRotatedDimension
1001
ACAD
1000
DSTYLE
1002
{
1070
             340
1005
35
1070
             174
1070
               0
1070
             147
1040
0.9999999962747097
1002
}
  0
LINE
  5
41D
100
AcDbEntity
  8
DIMENTION
100
AcDbLine
 10
642.5
 20
499.0
 30
0.0
 11
300.0
 21
50.0
 31
0.0
  0
LINE
  5
41E
100
AcDbEntity
  8
DIMENTION
100
AcDbLine
 10
642.5
 20
499.0
 30
0.0
 11
629.65666048893718
 21
468.74298822778485
 31
0.0
  0
LINE
  5
41F
100
AcDbEntity
  8
DIMENTION
100
AcDbLine
 10
642.5
 20
499.0
 30
0.0
 11
616.24883582788357
 21
479.21832891818832
 31
0.0
  0
LINE
  5
420
100
AcDbEntity
  8
DIMENTION
100
AcDbLine
 10
1100.0
 20
50.0
 30
0.0
 11
1230.0
 21
50.0
 31
0.0
  0
MTEXT
  5
421
100
AcDbEntity
  8
TEXT
100
AcDbMText
 10
-1455.0
 20
620.0
 30
0.0
 40
33.866666666666667
 41
855.0
 71
               4
 72
               1
  1
電気用品型式認可番号　JET1293-81037-1001
  7
________
  0
MTEXT
  5
422
100
AcDbEntity
  8
TEXT
100
AcDbMText
 10
-80.000000000000028
 20
-1270.0
 30
0.0
 40
39.51111111111112
 41
0.0
 71
               1
 72
               1
  1
ライスウォーマー\Pディスペンサー
  7
________
  0
LINE
  5
423
100
AcDbEntity
  8
DIMENTION
100
AcDbLine
 10
658.45980567087952
 20
-1007.3290569799967
 30
0.0
 11
200.0
 21
-750.0
 31
0.0
  0
LINE
  5
424
100
AcDbEntity
  8
DIMENTION
100
AcDbLine
 10
658.45980567087952
 20
-1007.3290569799967
 30
0.0
 11
626.70980567087952
 21
-998.82167012030857
 31
0.0
  0
LINE
  5
425
100
AcDbEntity
  8
DIMENTION
100
AcDbLine
 10
658.45980567087952
 20
-1007.3290569799967
 30
0.0
 11
635.21719253056767
 21
-984.08644383968488
 31
0.0
  0
LINE
  5
426
100
AcDbEntity
  8
DIMENTION
100
AcDbLine
 10
708.87657093720418
 20
-995.30653372982749
 30
0.0
 11
200.0
 21
-500.0
 31
0.0
  0
LINE
  5
427
100
AcDbEntity
  8
DIMENTION
100
AcDbLine
 10
708.87657093720418
 20
-995.30653372982749
 30
0.0
 11
680.4102996958685
 21
-978.87152436581744
 31
0.0
  0
LINE
  5
428
100
AcDbEntity
  8
DIMENTION
100
AcDbLine
 10
708.87657093720418
 20
-995.30653372982749
 30
0.0
 11
692.44156157319412
 21
-966.84026248849182
 31
0.0
  0
MTEXT
  5
429
100
AcDbEntity
  8
DIMENTION
100
AcDbMText
 10
-140.0
 20
-455.0
 30
0.0
 40
33.866666666666667
 41
340.0
 71
               1
 72
               1
  1
可変サーモスタット
  7
________
  0
LINE
  5
42A
100
AcDbEntity
  8
DIMENTION
100
AcDbLine
 10
200.0
 20
-500.0
 30
0.0
 11
-140.0
 21
-500.0
 31
0.0
  0
MTEXT
  5
42B
100
AcDbEntity
  8
DIMENTION
100
AcDbMText
 10
45.0
 20
-705.0
 30
0.0
 40
33.866666666666667
 41
155.0
 71
               1
 72
               1
  1
ヒューズ
  7
________
  0
LINE
  5
42C
100
AcDbEntity
  8
DIMENTION
100
AcDbLine
 10
200.0
 20
-750.0
 30
0.0
 11
45.0
 21
-750.0
 31
0.0
  0
LINE
  5
42D
100
AcDbEntity
  8
DIMENTION
100
AcDbLine
 10
1150.0
 20
-400.0
 30
0.0
 11
1420.0
 21
-400.0
 31
0.0
  0
LINE
  5
42E
100
AcDbEntity
  8
DIMENTION
100
AcDbLine
 10
1149.6406787029955
 20
-800.0
 30
0.0
 11
1450.0
 21
-800.0
 31
0.0
  0
INSERT
  5
42F
100
AcDbEntity
  8
OBJECT
100
AcDbBlockReference
  2
*U22
 10
0.0
 20
19.999999999999996
 30
0.0
  0
DIMENSION
  5
430
100
AcDbEntity
  8
DIMENTION
100
AcDbDimension
  2
*D23
 10
1100.0
 20
-230.0000048327006
 30
0.0
 11
1100.0
 21
-665.0000048327006
 31
0.0
  3
CAD
100
AcDbAlignedDimension
 13
972.0
 23
-1100.0000048327006
 33
0.0
 14
972.0
 24
-230.0000048327006
 34
0.0
 50
90.0
100
AcDbRotatedDimension
1001
ACAD
1000
DSTYLE
1002
{
1070
             340
1005
35
1070
             147
1040
0.9999999962747097
1002
}
  0
ENDSEC
  0
SECTION
  2
OBJECTS
  0
DICTIONARY
  5
19
100
AcDbDictionary
  3
ACAD_GROUP
350
1A
  3
ACAD_MLINESTYLE
350
1B
  0
DICTIONARY
  5
1A
102
{ACAD_REACTORS
330
19
102
}
100
AcDbDictionary
  0
DICTIONARY
  5
1B
102
{ACAD_REACTORS
330
19
102
}
100
AcDbDictionary
  3
STANDARD
350
1C
  0
MLINESTYLE
  5
1C
102
{ACAD_REACTORS
330
1B
102
}
100
AcDbMlineStyle
  2
STANDARD
 70
               0
  3

 62
               0
 51
90.0
 52
90.0
 71
               2
 49
0.5
 62
             256
  6
BYLAYER
 49
-0.5
 62
             256
  6
BYLAYER
  0
ENDSEC
  0
EOF
