  0
SECTION
  2
HEADER
  9
$ACADVER
  1
AC1014
  9
$ACADMAINTVER
 70
               0
  9
$DWGCODEPAGE
  3
ANSI_932
  9
$INSBASE
 10
0.0
 20
0.0
 30
0.0
  9
$EXTMIN
 10
-2025.3999999999999
 20
-1389.0
 30
0.0
  9
$EXTMAX
 10
2024.6000000000004
 20
1330.9999999999998
 30
0.0
  9
$LIMMIN
 10
0.0
 20
0.0
  9
$LIMMAX
 10
0.0
 20
0.0
  9
$ORTHOMODE
 70
               0
  9
$REGENMODE
 70
               1
  9
$FILLMODE
 70
               1
  9
$QTEXTMODE
 70
               0
  9
$MIRRTEXT
 70
               1
  9
$DRAGMODE
 70
               2
  9
$LTSCALE
 40
254.0
  9
$OSMODE
 70
               0
  9
$ATTMODE
 70
               1
  9
$TEXTSIZE
 40
0.2
  9
$TRACEWID
 40
1.0
  9
$TEXTSTYLE
  7
STANDARD
  9
$CLAYER
  8
0
  9
$CELTYPE
  6
CONTINUOUS
  9
$CECOLOR
 62
             256
  9
$CELTSCALE
 40
1.0
  9
$DELOBJ
 70
               1
  9
$DISPSILH
 70
               0
  9
$DIMSCALE
 40
1.0
  9
$DIMASZ
 40
31.75
  9
$DIMEXO
 40
9.9999999999999982
  9
$DIMDLI
 40
7.9999999999999991
  9
$DIMRND
 40
0.0
  9
$DIMDLE
 40
0.0
  9
$DIMEXE
 40
19.999999999999996
  9
$DIMTP
 40
0.0
  9
$DIMTM
 40
0.0
  9
$DIMTXT
 40
33.866666666666667
  9
$DIMCEN
 40
0.0
  9
$DIMTSZ
 40
0.0
  9
$DIMTOL
 70
               0
  9
$DIMLIM
 70
               0
  9
$DIMTIH
 70
               0
  9
$DIMTOH
 70
               0
  9
$DIMSE1
 70
               0
  9
$DIMSE2
 70
               0
  9
$DIMTAD
 70
               1
  9
$DIMZIN
 70
              11
  9
$DIMBLK
  1
VW_OPENARROW
  9
$DIMASO
 70
               1
  9
$DIMSHO
 70
               1
  9
$DIMPOST
  1
<>
  9
$DIMAPOST
  1
[]
  9
$DIMALT
 70
               0
  9
$DIMALTD
 70
               1
  9
$DIMALTF
 40
1.0
  9
$DIMLFAC
 40
1.0
  9
$DIMTOFL
 70
               1
  9
$DIMTVP
 40
0.0
  9
$DIMTIX
 70
               1
  9
$DIMSOXD
 70
               0
  9
$DIMSAH
 70
               0
  9
$DIMBLK1
  1

  9
$DIMBLK2
  1

  9
$DIMSTYLE
  2
CAD
  9
$DIMCLRD
 70
               0
  9
$DIMCLRE
 70
               0
  9
$DIMCLRT
 70
               0
  9
$DIMTFAC
 40
0.7
  9
$DIMGAP
 40
0.099999999627471
  9
$DIMJUST
 70
               0
  9
$DIMSD1
 70
               0
  9
$DIMSD2
 70
               0
  9
$DIMTOLJ
 70
               1
  9
$DIMTZIN
 70
              11
  9
$DIMALTZ
 70
              11
  9
$DIMALTTZ
 70
              11
  9
$DIMFIT
 70
               0
  9
$DIMUPT
 70
               0
  9
$DIMUNIT
 70
               2
  9
$DIMDEC
 70
               4
  9
$DIMTDEC
 70
               4
  9
$DIMALTU
 70
               2
  9
$DIMALTTD
 70
               2
  9
$DIMTXSTY
  7
________
  9
$DIMAUNIT
 70
               0
  9
$LUNITS
 70
               2
  9
$LUPREC
 70
               4
  9
$SKETCHINC
 40
0.1
  9
$FILLETRAD
 40
0.0
  9
$AUNITS
 70
               0
  9
$AUPREC
 70
               0
  9
$MENU
  1
acad
  9
$ELEVATION
 40
0.0
  9
$PELEVATION
 40
0.0
  9
$THICKNESS
 40
0.0
  9
$LIMCHECK
 70
               0
  9
$BLIPMODE
 70
               0
  9
$CHAMFERA
 40
0.0
  9
$CHAMFERB
 40
0.0
  9
$CHAMFERC
 40
0.0
  9
$CHAMFERD
 40
0.0
  9
$SKPOLY
 70
               0
  9
$TDCREATE
 40
2458758.752719908
  9
$TDUPDATE
 40
2458758.752719908
  9
$TDINDWG
 40
0.0000000000
  9
$TDUSRTIMER
 40
0.0000000000
  9
$USRTIMER
 70
               1
  9
$ANGBASE
 50
0.0
  9
$ANGDIR
 70
               0
  9
$PDMODE
 70
               1
  9
$PDSIZE
 40
-2.0
  9
$PLINEWID
 40
0.0
  9
$COORDS
 70
               0
  9
$SPLFRAME
 70
               0
  9
$SPLINETYPE
 70
               6
  9
$SPLINESEGS
 70
               8
  9
$ATTDIA
 70
               0
  9
$ATTREQ
 70
               1
  9
$HANDLING
 70
               1
  9
$HANDSEED
  5
42D
  9
$SURFTAB1
 70
               6
  9
$SURFTAB2
 70
               6
  9
$SURFTYPE
 70
               6
  9
$SURFU
 70
               6
  9
$SURFV
 70
               6
  9
$UCSNAME
  2

  9
$UCSORG
 10
0.0
 20
0.0
 30
0.0
  9
$UCSXDIR
 10
1.0
 20
0.0
 30
0.0
  9
$UCSYDIR
 10
0.0
 20
1.0
 30
0.0
  9
$PUCSNAME
  2

  9
$PUCSORG
 10
0.0
 20
0.0
 30
0.0
  9
$PUCSXDIR
 10
1.0
 20
0.0
 30
0.0
  9
$PUCSYDIR
 10
0.0
 20
1.0
 30
0.0
  9
$USERI1
 70
               0
  9
$USERI2
 70
               0
  9
$USERI3
 70
               0
  9
$USERI4
 70
               0
  9
$USERI5
 70
               0
  9
$USERR1
 40
0.0
  9
$USERR2
 40
0.0
  9
$USERR3
 40
0.0
  9
$USERR4
 40
0.0
  9
$USERR5
 40
0.0
  9
$WORLDVIEW
 70
               1
  9
$SHADEDGE
 70
               3
  9
$SHADEDIF
 70
              70
  9
$TILEMODE
 70
               1
  9
$MAXACTVP
 70
              16
  9
$PINSBASE
 10
0.0
 20
0.0
 30
0.0
  9
$PLIMCHECK
 70
               0
  9
$PEXTMIN
 10
1.0000000000000000E+20
 20
1.0000000000000000E+20
 30
1.0000000000000000E+20
  9
$PEXTMAX
 10
-1.0000000000000000E+20
 20
-1.0000000000000000E+20
 30
-1.0000000000000000E+20
  9
$PLIMMIN
 10
0.0
 20
0.0
  9
$PLIMMAX
 10
12.0
 20
9.0
  9
$UNITMODE
 70
               0
  9
$VISRETAIN
 70
               0
  9
$PLINEGEN
 70
               1
  9
$PSLTSCALE
 70
               0
  9
$TREEDEPTH
 70
            3020
  9
$PICKSTYLE
 70
               1
  9
$CMLSTYLE
  2
STANDARD
  9
$CMLJUST
 70
               0
  9
$CMLSCALE
 40
1.0
  9
$PROXYGRAPHICS
 70
               0
  9
$MEASUREMENT
 70
               1
  0
ENDSEC
  0
SECTION
  2
CLASSES
  0
CLASS
  1
LWPOLYLINE
  2
AcDbPolyline
  3
"AutoCAD"
 90
        0
280
               0
281
               1
  0
CLASS
  1
IMAGE
  2
AcDbRasterImage
  3
ISM
 90
      127
280
               0
281
               1
  0
CLASS
  1
OLE2FRAME
  2
AcDbOle2Frame
  3
""
 90
        0
280
               0
281
               1
  0
CLASS
  1
HATCH
  2
AcDbHatch
  3
"ACAD_SEDONA"
 90
        0
280
               0
281
               1
  0
CLASS
  1
DICTIONARYVAR
  2
AcDbDictionaryVar
  3
"AutoCAD"
 90
        0
280
               0
281
               0
  0
CLASS
  1
RASTERVARIABLES
  2
AcDbRasterVariables
  3
ISM
 90
        0
280
               0
281
               0
  0
CLASS
  1
IMAGEDEF
  2
AcDbRasterImageDef
  3
ISM
 90
        0
280
               0
281
               0
  0
CLASS
  1
IMAGEDEF_REACTOR
  2
AcDbRasterImageDefReactor
  3
ISM
 90
        1
280
               0
281
               0
  0
CLASS
  1
IDBUFFER
  2
AcDbIdBuffer
  3
"Acad"
 90
        0
280
               0
281
               0
  0
CLASS
  1
SPATIAL_FILTER
  2
AcDbSpatialFilter
  3
"Acad"
 90
        0
280
               0
281
               0
  0
CLASS
  1
XRECORD
  2
AcDbXrecord
  3
"<Built In>"
 90
        0
280
               0
281
               0
  0
CLASS
  1
SORTENTSTABLE
  2
AcDbSortentsTable
  3
"AutoCAD"
 90
        0
280
               0
281
               0
  0
CLASS
  1
LAYER_INDEX
  2
AcDbLayerIndex
  3
"Acad"
 90
        0
280
               0
281
               0
  0
CLASS
  1
SPATIAL_INDEX
  2
AcDbSpatialIndex
  3
"Acad"
 90
        0
280
               0
281
               0
  0
CLASS
  1
OBJECT_PTR
  2
CAseDLPNTableRecord
  3
"ASE-LPNTableRecord"
 90
        1
280
               0
281
               0
  0
CLASS
  1
LAYOUT
  2
AcDbLayout
  3
"AutoCAD 2000"
 90
        1
280
               0
281
               0
  0
CLASS
  1
PLOTSETTINGS
  2
AcDbPlotSettings
  3
"AutoCAD 2000"
 90
        1
280
               0
281
               0
  0
CLASS
  1
ACDBDICTIONARYWDFLT
  2
AcDbDictionaryWithDefault
  3
"AutoCAD 2000"
 90
        1
280
               0
281
               0
  0
CLASS
  1
ACDBPLACEHOLDER
  2
AcDbPlaceHolder
  3
"AutoCAD 2000"
 90
        1
280
               0
281
               0
  0
ENDSEC
  0
SECTION
  2
TABLES
  0
TABLE
  2
VPORT
  5
7
100
AcDbSymbolTable
 70
               1
  0
VPORT
  5
15
100
AcDbSymbolTableRecord
100
AcDbViewportTableRecord
  2
*ACTIVE
 70
               0
 10
0.0
 20
0.0
 11
1.0
 21
1.0
 12
-0.3999999999998636
 22
-29.0
 13
0.0
 23
0.0
 14
1.0
 24
1.0
 15
0.0
 25
0.0
 16
0.0
 26
0.0
 36
1.0
 17
0.0
 27
0.0
 37
0.0
 40
2720.0
 41
0.688564
 42
50.0
 43
0.0
 44
0.0
 50
0.0
 51
0.0
 71
               0
 72
             100
 73
               1
 74
               1
 75
               0
 76
               0
 77
               0
 78
               0
  0
ENDTAB
  0
TABLE
  2
LTYPE
  5
4
100
AcDbSymbolTable
 70
              23
  0
LTYPE
  5
11
100
AcDbSymbolTableRecord
100
AcDbLinetypeTableRecord
  2
BYBLOCK
 70
              64
  3

 72
              65
 73
               0
 40
0.0
  0
LTYPE
  5
12
100
AcDbSymbolTableRecord
100
AcDbLinetypeTableRecord
  2
BYLAYER
 70
              64
  3

 72
              65
 73
               0
 40
0.0
  0
LTYPE
  5
13
100
AcDbSymbolTableRecord
100
AcDbLinetypeTableRecord
  2
CONTINUOUS
 70
              64
  3
Solid line
 72
              65
 73
               0
 40
0.0
  0
LTYPE
  5
34
100
AcDbSymbolTableRecord
100
AcDbLinetypeTableRecord
  2
STYLE_01
 70
               0
  3

 72
              65
 73
               2
 40
0.0375109361329834
 49
0.0236220472440945
 74
               0
 49
-0.0138888888888889
 74
               0
  0
LTYPE
  5
35
100
AcDbSymbolTableRecord
100
AcDbLinetypeTableRecord
  2
STYLE_02
 70
               0
  3

 72
              65
 73
               6
 40
0.6527777777777778
 49
0.4027777777777778
 74
               0
 49
-0.0555555555555555
 74
               0
 49
0.0416666666666667
 74
               0
 49
-0.0555555555555556
 74
               0
 49
0.0416666666666666
 74
               0
 49
-0.0555555555555556
 74
               0
  0
LTYPE
  5
36
100
AcDbSymbolTableRecord
100
AcDbLinetypeTableRecord
  2
STYLE_03
 70
               0
  3

 72
              65
 73
               4
 40
0.5277777777777778
 49
0.4027777777777778
 74
               0
 49
-0.0416666666666666
 74
               0
 49
0.0416666666666667
 74
               0
 49
-0.0416666666666667
 74
               0
  0
LTYPE
  5
37
100
AcDbSymbolTableRecord
100
AcDbLinetypeTableRecord
  2
STYLE_04
 70
               0
  3

 72
              65
 73
               2
 40
0.1388888888888889
 49
0.0694444444444444
 74
               0
 49
-0.0694444444444444
 74
               0
  0
LTYPE
  5
38
100
AcDbSymbolTableRecord
100
AcDbLinetypeTableRecord
  2
STYLE_05
 70
               0
  3

 72
              65
 73
               2
 40
0.047244094488189
 49
0.0236220472440945
 74
               0
 49
-0.0236220472440945
 74
               0
  0
LTYPE
  5
39
100
AcDbSymbolTableRecord
100
AcDbLinetypeTableRecord
  2
STYLE_06
 70
               0
  3

 72
              65
 73
               2
 40
0.047244094488189
 49
0.0236220472440945
 74
               0
 49
-0.0236220472440945
 74
               0
  0
LTYPE
  5
3A
100
AcDbSymbolTableRecord
100
AcDbLinetypeTableRecord
  2
STYLE_07
 70
               0
  3

 72
              65
 73
               2
 40
0.047244094488189
 49
0.0236220472440945
 74
               0
 49
-0.0236220472440945
 74
               0
  0
LTYPE
  5
3B
100
AcDbSymbolTableRecord
100
AcDbLinetypeTableRecord
  2
STYLE_08
 70
               0
  3

 72
              65
 73
               2
 40
0.047244094488189
 49
0.0236220472440945
 74
               0
 49
-0.0236220472440945
 74
               0
  0
LTYPE
  5
3C
100
AcDbSymbolTableRecord
100
AcDbLinetypeTableRecord
  2
STYLE_09
 70
               0
  3

 72
              65
 73
               6
 40
1.5157480314960627
 49
1.1811023622047243
 74
               0
 49
-0.0590551181102361
 74
               0
 49
0.078740157480315
 74
               0
 49
-0.0590551181102361
 74
               0
 49
0.078740157480315
 74
               0
 49
-0.0590551181102361
 74
               0
  0
LTYPE
  5
3D
100
AcDbSymbolTableRecord
100
AcDbLinetypeTableRecord
  2
STYLE_10
 70
               0
  3

 72
              65
 73
               6
 40
1.1875
 49
0.75
 74
               0
 49
-0.0555572509765625
 74
               0
 49
0.138885498046875
 74
               0
 49
-0.0555572509765625
 74
               0
 49
0.125
 74
               0
 49
-0.0625
 74
               0
  0
LTYPE
  5
3E
100
AcDbSymbolTableRecord
100
AcDbLinetypeTableRecord
  2
STYLE_11
 70
               0
  3

 72
              65
 73
               4
 40
1.5
 49
0.0833282470703125
 74
               0
 49
-0.0555572509765625
 74
               0
 49
1.3055572509765625
 74
               0
 49
-0.0555572509765625
 74
               0
  0
LTYPE
  5
3F
100
AcDbSymbolTableRecord
100
AcDbLinetypeTableRecord
  2
STYLE_12
 70
               0
  3

 72
              65
 73
               4
 40
1.111114501953125
 49
0.7916717529296875
 74
               0
 49
-0.0833282470703125
 74
               0
 49
0.125
 74
               0
 49
-0.111114501953125
 74
               0
  0
LTYPE
  5
40
100
AcDbSymbolTableRecord
100
AcDbLinetypeTableRecord
  2
STYLE_13
 70
               0
  3

 72
              65
 73
               4
 40
2.1944427490234375
 49
1.875
 74
               0
 49
-0.0833282470703125
 74
               0
 49
0.125
 74
               0
 49
-0.111114501953125
 74
               0
  0
LTYPE
  5
41
100
AcDbSymbolTableRecord
100
AcDbLinetypeTableRecord
  2
STYLE_14
 70
               0
  3

 72
              65
 73
               2
 40
0.138885498046875
 49
0.0972137451171875
 74
               0
 49
-0.0416717529296875
 74
               0
  0
LTYPE
  5
42
100
AcDbSymbolTableRecord
100
AcDbLinetypeTableRecord
  2
STYLE_15
 70
               0
  3

 72
              65
 73
               2
 40
0.25
 49
0.2083282470703125
 74
               0
 49
-0.0416717529296875
 74
               0
  0
LTYPE
  5
43
100
AcDbSymbolTableRecord
100
AcDbLinetypeTableRecord
  2
STYLE_16
 70
               0
  3

 72
              65
 73
               2
 40
0.078740157480315
 49
0.0393700787401575
 74
               0
 49
-0.0393700787401575
 74
               0
  0
LTYPE
  5
44
100
AcDbSymbolTableRecord
100
AcDbLinetypeTableRecord
  2
STYLE_17
 70
               0
  3

 72
              65
 73
               4
 40
0.5118110236220472
 49
0.3937007874015748
 74
               0
 49
-0.0393700787401575
 74
               0
 49
0.0393700787401575
 74
               0
 49
-0.0393700787401575
 74
               0
  0
LTYPE
  5
45
100
AcDbSymbolTableRecord
100
AcDbLinetypeTableRecord
  2
STYLE_18
 70
               0
  3

 72
              65
 73
               6
 40
0.5905511811023623
 49
0.3937007874015748
 74
               0
 49
-0.0393700787401575
 74
               0
 49
0.0393700787401575
 74
               0
 49
-0.0393700787401575
 74
               0
 49
0.0393700787401575
 74
               0
 49
-0.0393700787401575
 74
               0
  0
LTYPE
  5
46
100
AcDbSymbolTableRecord
100
AcDbLinetypeTableRecord
  2
STYLE_19
 70
               0
  3

 72
              65
 73
               4
 40
0.6111111111111112
 49
0.4027777777777778
 74
               0
 49
-0.0694444444444444
 74
               0
 49
0.0694444444444444
 74
               0
 49
-0.0694444444444445
 74
               0
  0
LTYPE
  5
47
100
AcDbSymbolTableRecord
100
AcDbLinetypeTableRecord
  2
STYLE_20
 70
               0
  3

 72
              65
 73
               6
 40
0.3937007874015747
 49
0.1968503937007874
 74
               0
 49
-0.0393700787401575
 74
               0
 49
0.0393700787401575
 74
               0
 49
-0.0393700787401575
 74
               0
 49
0.0393700787401575
 74
               0
 49
-0.0393700787401575
 74
               0
  0
ENDTAB
  0
TABLE
  2
LAYER
  5
2
100
AcDbSymbolTable
 70
              11
  0
LAYER
  5
14
100
AcDbSymbolTableRecord
100
AcDbLayerTableRecord
  2
0
 70
               0
 62
               7
  6
CONTINUOUS
  0
LAYER
  5
4F
100
AcDbSymbolTableRecord
100
AcDbLayerTableRecord
  2
DEFPOINTS
 70
               0
 62
               7
  6
CONTINUOUS
  0
LAYER
  5
50
100
AcDbSymbolTableRecord
100
AcDbLayerTableRecord
  2
OBJECT
 70
               0
 62
               7
  6
CONTINUOUS
  0
LAYER
  5
51
100
AcDbSymbolTableRecord
100
AcDbLayerTableRecord
  2
DIMENTION
 70
               0
 62
               7
  6
CONTINUOUS
  0
LAYER
  5
52
100
AcDbSymbolTableRecord
100
AcDbLayerTableRecord
  2
CENTER
 70
               0
 62
               7
  6
STYLE_17
  0
LAYER
  5
53
100
AcDbSymbolTableRecord
100
AcDbLayerTableRecord
  2
HIDDEN
 70
               0
 62
               7
  6
STYLE_16
  0
LAYER
  5
54
100
AcDbSymbolTableRecord
100
AcDbLayerTableRecord
  2
FRAME
 70
               0
 62
               7
  6
CONTINUOUS
  0
LAYER
  5
55
100
AcDbSymbolTableRecord
100
AcDbLayerTableRecord
  2
OUTLINE
 70
               0
 62
               7
  6
STYLE_18
  0
LAYER
  5
56
100
AcDbSymbolTableRecord
100
AcDbLayerTableRecord
  2
TEXT
 70
               0
 62
               7
  6
CONTINUOUS
  0
LAYER
  5
57
100
AcDbSymbolTableRecord
100
AcDbLayerTableRecord
  2
__
 70
               0
 62
               7
  6
CONTINUOUS
  0
LAYER
  5
58
100
AcDbSymbolTableRecord
100
AcDbLayerTableRecord
  2
__-1
 70
               0
 62
               7
  6
CONTINUOUS
  0
ENDTAB
  0
TABLE
  2
STYLE
  5
3
100
AcDbSymbolTable
 70
               3
  0
STYLE
  5
17
100
AcDbSymbolTableRecord
100
AcDbTextStyleTableRecord
  2
STANDARD
 70
               0
 40
0.0
 41
1.0
 50
0.0
 71
               0
 42
0.0
  3
txt
  4
BIGFONT.SHX
  0
STYLE
  5
32
100
AcDbSymbolTableRecord
100
AcDbTextStyleTableRecord
  2
ARIAL
 70
               0
 40
0.0
 41
1.0
 50
0.0
 71
               0
 42
0.0
  3
Arial
  4

1001
ACAD
1000
Arial
1071
        0
  0
STYLE
  5
33
100
AcDbSymbolTableRecord
100
AcDbTextStyleTableRecord
  2
________
 70
               0
 40
0.0
 41
1.0
 50
0.0
 71
               0
 42
0.0
  3
ＭＳ Ｐゴシック
  4

1001
ACAD
1000
ＭＳ Ｐゴシック
1071
        0
  0
ENDTAB
  0
TABLE
  2
VIEW
  5
5
100
AcDbSymbolTable
 70
               0
  0
ENDTAB
  0
TABLE
  2
UCS
  5
6
100
AcDbSymbolTable
 70
               0
  0
ENDTAB
  0
TABLE
  2
APPID
  5
8
100
AcDbSymbolTable
 70
               1
  0
APPID
  5
16
100
AcDbSymbolTableRecord
100
AcDbRegAppTableRecord
  2
ACAD
 70
               0
  0
ENDTAB
  0
TABLE
  2
DIMSTYLE
  5
9
100
AcDbSymbolTable
 70
               2
  0
DIMSTYLE
105
18
100
AcDbSymbolTableRecord
100
AcDbDimStyleTableRecord
  2
STANDARD
 70
               0
  3

  4

  5

  6

  7

 40
1.0
 41
0.18
 42
0.0625
 43
0.38
 44
0.18
 45
0.0
 46
0.0
 47
0.0
 48
0.0
 71
               0
 72
               0
 73
               1
 74
               1
 75
               0
 76
               0
 77
               0
 78
               0
140
0.18
141
0.09
142
0.0
143
25.399999999999999
144
1.0
145
0.0
146
1.0
147
0.09
170
               0
171
               2
172
               0
173
               0
174
               0
175
               0
176
               0
177
               0
178
               0
270
               2
271
               4
272
               4
273
               2
274
               2
275
               0
280
               0
281
               0
282
               0
283
               1
284
               0
285
               0
286
               0
287
               0
288
               0
340
17
  0
DIMSTYLE
105
4E
100
AcDbSymbolTableRecord
100
AcDbDimStyleTableRecord
  2
CAD
 70
               0
  3
<>
  4
[]
  5
VW_OPENARROW
  6

  7

 40
1.0
 41
31.75
 42
9.9999999999999982
 43
7.9999999999999991
 44
19.999999999999996
 45
0.0
 46
0.0
 47
0.0
 48
0.0
 71
               0
 72
               0
 73
               0
 74
               0
 75
               0
 76
               0
 77
               1
 78
              11
140
33.866666666666667
141
0.0
142
0.0
143
1.0
144
1.0
145
0.0
146
0.7
147
0.099999999627471
170
               0
171
               1
172
               1
173
               0
174
               1
175
               0
176
               0
177
               0
178
               0
270
               2
271
               4
272
               4
273
               2
274
               2
275
               0
280
               0
281
               0
282
               0
283
               1
284
              11
285
              11
286
              11
287
               0
288
               0
340
33
  0
ENDTAB
  0
TABLE
  2
BLOCK_RECORD
  5
1
100
AcDbSymbolTable
 70
              22
  0
BLOCK_RECORD
  5
A
100
AcDbSymbolTableRecord
100
AcDbBlockTableRecord
  2
*MODEL_SPACE
  0
BLOCK_RECORD
  5
B
100
AcDbSymbolTableRecord
100
AcDbBlockTableRecord
  2
*PAPER_SPACE
  0
BLOCK_RECORD
  5
48
100
AcDbSymbolTableRecord
100
AcDbBlockTableRecord
  2
VW_OPENARROW
  0
BLOCK_RECORD
  5
1D
100
AcDbSymbolTableRecord
100
AcDbBlockTableRecord
  2
*U1
  0
BLOCK_RECORD
  5
1E
100
AcDbSymbolTableRecord
100
AcDbBlockTableRecord
  2
*U2
  0
BLOCK_RECORD
  5
1F
100
AcDbSymbolTableRecord
100
AcDbBlockTableRecord
  2
*U3
  0
BLOCK_RECORD
  5
20
100
AcDbSymbolTableRecord
100
AcDbBlockTableRecord
  2
*U4
  0
BLOCK_RECORD
  5
21
100
AcDbSymbolTableRecord
100
AcDbBlockTableRecord
  2
*U5
  0
BLOCK_RECORD
  5
22
100
AcDbSymbolTableRecord
100
AcDbBlockTableRecord
  2
*U6
  0
BLOCK_RECORD
  5
23
100
AcDbSymbolTableRecord
100
AcDbBlockTableRecord
  2
*D7
  0
BLOCK_RECORD
  5
24
100
AcDbSymbolTableRecord
100
AcDbBlockTableRecord
  2
*D8
  0
BLOCK_RECORD
  5
25
100
AcDbSymbolTableRecord
100
AcDbBlockTableRecord
  2
*D9
  0
BLOCK_RECORD
  5
26
100
AcDbSymbolTableRecord
100
AcDbBlockTableRecord
  2
*D10
  0
BLOCK_RECORD
  5
27
100
AcDbSymbolTableRecord
100
AcDbBlockTableRecord
  2
*D11
  0
BLOCK_RECORD
  5
28
100
AcDbSymbolTableRecord
100
AcDbBlockTableRecord
  2
*D12
  0
BLOCK_RECORD
  5
29
100
AcDbSymbolTableRecord
100
AcDbBlockTableRecord
  2
*D13
  0
BLOCK_RECORD
  5
2A
100
AcDbSymbolTableRecord
100
AcDbBlockTableRecord
  2
*D14
  0
BLOCK_RECORD
  5
2B
100
AcDbSymbolTableRecord
100
AcDbBlockTableRecord
  2
*D15
  0
BLOCK_RECORD
  5
2C
100
AcDbSymbolTableRecord
100
AcDbBlockTableRecord
  2
*U16
  0
BLOCK_RECORD
  5
2D
100
AcDbSymbolTableRecord
100
AcDbBlockTableRecord
  2
*U17
  0
BLOCK_RECORD
  5
2E
100
AcDbSymbolTableRecord
100
AcDbBlockTableRecord
  2
*U18
  0
BLOCK_RECORD
  5
2F
100
AcDbSymbolTableRecord
100
AcDbBlockTableRecord
  2
*U19
  0
BLOCK_RECORD
  5
30
100
AcDbSymbolTableRecord
100
AcDbBlockTableRecord
  2
*D20
  0
BLOCK_RECORD
  5
31
100
AcDbSymbolTableRecord
100
AcDbBlockTableRecord
  2
*D21
  0
ENDTAB
  0
ENDSEC
  0
SECTION
  2
BLOCKS
  0
BLOCK
  5
D
100
AcDbEntity
  8
0
100
AcDbBlockBegin
  2
*MODEL_SPACE
 70
               0
 10
0.0
 20
0.0
 30
0.0
  3
*MODEL_SPACE
  1

  0
ENDBLK
  5
E
100
AcDbEntity
  8
0
100
AcDbBlockEnd
  0
BLOCK
  5
F
100
AcDbEntity
 67
               1
  8
0
100
AcDbBlockBegin
  2
*PAPER_SPACE
 70
               0
 10
0.0
 20
0.0
 30
0.0
  3
*PAPER_SPACE
  1

  0
ENDBLK
  5
10
100
AcDbEntity
 67
               1
  8
0
100
AcDbBlockEnd
  0
BLOCK
  5
49
100
AcDbEntity
  8
0
  6
BYBLOCK
 62
               0
100
AcDbBlockBegin
  2
VW_OPENARROW
 70
               0
 10
0.0
 20
0.0
 30
0.0
  3
VW_OPENARROW
  1

  0
LINE
  5
4A
100
AcDbEntity
  8
0
  6
BYBLOCK
 62
               0
100
AcDbLine
 10
0.0
 20
0.0
 30
0.0
 11
-1.0
 21
0.0
 31
0.0
  0
LINE
  5
4B
100
AcDbEntity
  8
0
  6
BYBLOCK
 62
               0
100
AcDbLine
 10
0.0
 20
0.0
 30
0.0
 11
-0.9921874999999999
 21
-0.2658558393652545
 31
0.0
  0
LINE
  5
4C
100
AcDbEntity
  8
0
  6
BYBLOCK
 62
               0
100
AcDbLine
 10
0.0
 20
0.0
 30
0.0
 11
-0.9921874999999999
 21
0.2658558393652548
 31
0.0
  0
ENDBLK
  5
4D
100
AcDbEntity
  8
0
100
AcDbBlockEnd
  0
BLOCK
  5
59
100
AcDbEntity
  8
FRAME
100
AcDbBlockBegin
  2
*U1
 70
               1
 10
0.0
 20
0.0
 30
0.0
  3
*U1
  1

  0
ENDBLK
  5
5A
100
AcDbEntity
  8
FRAME
100
AcDbBlockEnd
  0
BLOCK
  5
5B
100
AcDbEntity
  8
FRAME
100
AcDbBlockBegin
  2
*U2
 70
               1
 10
0.0
 20
0.0
 30
0.0
  3
*U2
  1

  0
ENDBLK
  5
5C
100
AcDbEntity
  8
FRAME
100
AcDbBlockEnd
  0
BLOCK
  5
5D
100
AcDbEntity
  8
FRAME
100
AcDbBlockBegin
  2
*U3
 70
               1
 10
0.0
 20
0.0
 30
0.0
  3
*U3
  1

  0
ENDBLK
  5
5E
100
AcDbEntity
  8
FRAME
100
AcDbBlockEnd
  0
BLOCK
  5
5F
100
AcDbEntity
  8
FRAME
100
AcDbBlockBegin
  2
*U4
 70
               1
 10
0.0
 20
0.0
 30
0.0
  3
*U4
  1

  0
ENDBLK
  5
60
100
AcDbEntity
  8
FRAME
100
AcDbBlockEnd
  0
BLOCK
  5
61
100
AcDbEntity
  8
FRAME
100
AcDbBlockBegin
  2
*U5
 70
               1
 10
0.0
 20
0.0
 30
0.0
  3
*U5
  1

  0
ENDBLK
  5
62
100
AcDbEntity
  8
FRAME
100
AcDbBlockEnd
  0
BLOCK
  5
63
100
AcDbEntity
  8
FRAME
100
AcDbBlockBegin
  2
*U6
 70
               1
 10
0.0
 20
0.0
 30
0.0
  3
*U6
  1

  0
INSERT
  5
64
100
AcDbEntity
  8
FRAME
 62
               0
100
AcDbBlockReference
  2
*U1
 10
0.0
 20
0.0
 30
0.0
  0
INSERT
  5
65
100
AcDbEntity
  8
FRAME
 62
               0
100
AcDbBlockReference
  2
*U2
 10
0.0
 20
0.0
 30
0.0
  0
INSERT
  5
66
100
AcDbEntity
  8
FRAME
 62
               0
100
AcDbBlockReference
  2
*U3
 10
0.0
 20
0.0
 30
0.0
  0
INSERT
  5
67
100
AcDbEntity
  8
FRAME
 62
               0
100
AcDbBlockReference
  2
*U4
 10
0.0
 20
0.0
 30
0.0
  0
INSERT
  5
68
100
AcDbEntity
  8
FRAME
 62
               0
100
AcDbBlockReference
  2
*U5
 10
0.0
 20
0.0
 30
0.0
  0
ENDBLK
  5
69
100
AcDbEntity
  8
FRAME
100
AcDbBlockEnd
  0
BLOCK
  5
6A
100
AcDbEntity
  8
DIMENTION
100
AcDbBlockBegin
  2
*D7
 70
               1
 10
0.0
 20
0.0
 30
0.0
  3
*D7
  1

  0
LINE
  5
6B
100
AcDbEntity
  8
DIMENTION
  6
CONTINUOUS
 62
               0
100
AcDbLine
 10
390.0
 20
-280.0000048327006
 30
0.0
 11
280.0
 21
-280.0000048327006
 31
0.0
  0
LINE
  5
6C
100
AcDbEntity
  8
DIMENTION
  6
CONTINUOUS
 62
               0
100
AcDbLine
 10
300.0
 20
-280.0000048327006
 30
0.0
 11
300.0
 21
-1100.0000048327006
 31
0.0
  0
LINE
  5
6D
100
AcDbEntity
  8
DIMENTION
  6
CONTINUOUS
 62
               0
100
AcDbLine
 10
300.0
 20
-280.0000048327006
 30
0.0
 11
308.50738685968815
 21
-311.7500048327006
 31
0.0
  0
LINE
  5
6E
100
AcDbEntity
  8
DIMENTION
  6
CONTINUOUS
 62
               0
100
AcDbLine
 10
300.0
 20
-280.0000048327006
 30
0.0
 11
291.49261314031185
 21
-311.7500048327006
 31
0.0
  0
LINE
  5
6F
100
AcDbEntity
  8
DIMENTION
  6
CONTINUOUS
 62
               0
100
AcDbLine
 10
300.0
 20
-1100.0000048327006
 30
0.0
 11
291.49261314031185
 21
-1068.2500048327006
 31
0.0
  0
LINE
  5
70
100
AcDbEntity
  8
DIMENTION
  6
CONTINUOUS
 62
               0
100
AcDbLine
 10
300.0
 20
-1100.0000048327006
 30
0.0
 11
308.50738685968815
 21
-1068.2500048327006
 31
0.0
  0
MTEXT
  5
71
100
AcDbEntity
  8
DIMENTION
 62
               0
100
AcDbMText
 10
256.66666666666663
 20
-721.7500048327006
 30
0.0
 40
33.866666666666667
 41
0.0
 71
               1
 72
               1
  1
820
  7
________
 11
0.0
 21
1.0
 31
0.0
  0
POINT
  5
72
100
AcDbEntity
  8
DEFPOINTS
 62
               0
100
AcDbPoint
 10
335.0
 20
-1100.0000048327006
 30
0.0
  0
POINT
  5
73
100
AcDbEntity
  8
DEFPOINTS
 62
               0
100
AcDbPoint
 10
400.0
 20
-280.0000048327006
 30
0.0
  0
POINT
  5
74
100
AcDbEntity
  8
DEFPOINTS
 62
               0
100
AcDbPoint
 10
300.0
 20
-280.0000048327006
 30
0.0
  0
ENDBLK
  5
75
100
AcDbEntity
  8
DIMENTION
100
AcDbBlockEnd
  0
BLOCK
  5
76
100
AcDbEntity
  8
DIMENTION
100
AcDbBlockBegin
  2
*D8
 70
               1
 10
0.0
 20
0.0
 30
0.0
  3
*D8
  1

  0
LINE
  5
77
100
AcDbEntity
  8
DIMENTION
  6
CONTINUOUS
 62
               0
100
AcDbLine
 10
390.0
 20
-280.0000048327006
 30
0.0
 11
280.0
 21
-280.0000048327006
 31
0.0
  0
LINE
  5
78
100
AcDbEntity
  8
DIMENTION
  6
CONTINUOUS
 62
               0
100
AcDbLine
 10
418.0
 20
-230.0000048327006
 30
0.0
 11
280.0
 21
-230.0000048327006
 31
0.0
  0
LINE
  5
79
100
AcDbEntity
  8
DIMENTION
  6
CONTINUOUS
 62
               0
100
AcDbLine
 10
300.0
 20
-230.0000048327006
 30
0.0
 11
300.0
 21
-280.0000048327006
 31
0.0
  0
LINE
  5
7A
100
AcDbEntity
  8
DIMENTION
  6
CONTINUOUS
 62
               0
100
AcDbLine
 10
300.0
 20
-280.0000048327006
 30
0.0
 11
300.0
 21
-340.0000048327006
 31
0.0
  0
LINE
  5
7B
100
AcDbEntity
  8
DIMENTION
  6
CONTINUOUS
 62
               0
100
AcDbLine
 10
300.0
 20
-280.0000048327006
 30
0.0
 11
308.50738685968815
 21
-311.7500048327006
 31
0.0
  0
LINE
  5
7C
100
AcDbEntity
  8
DIMENTION
  6
CONTINUOUS
 62
               0
100
AcDbLine
 10
300.0
 20
-280.0000048327006
 30
0.0
 11
291.49261314031185
 21
-311.7500048327006
 31
0.0
  0
LINE
  5
7D
100
AcDbEntity
  8
DIMENTION
  6
CONTINUOUS
 62
               0
100
AcDbLine
 10
300.0
 20
-230.0000048327006
 30
0.0
 11
300.0
 21
-170.0000048327006
 31
0.0
  0
LINE
  5
7E
100
AcDbEntity
  8
DIMENTION
  6
CONTINUOUS
 62
               0
100
AcDbLine
 10
300.0
 20
-230.0000048327006
 30
0.0
 11
291.49261314031185
 21
-198.2500048327006
 31
0.0
  0
LINE
  5
7F
100
AcDbEntity
  8
DIMENTION
  6
CONTINUOUS
 62
               0
100
AcDbLine
 10
300.0
 20
-230.0000048327006
 30
0.0
 11
308.50738685968815
 21
-198.2500048327006
 31
0.0
  0
MTEXT
  5
80
100
AcDbEntity
  8
DIMENTION
 62
               0
100
AcDbMText
 10
256.66666666666663
 20
-276.16667149936728
 30
0.0
 40
33.866666666666667
 41
0.0
 71
               1
 72
               1
  1
50
  7
________
 11
0.0
 21
1.0
 31
0.0
  0
POINT
  5
81
100
AcDbEntity
  8
DEFPOINTS
 62
               0
100
AcDbPoint
 10
428.0
 20
-230.0000048327006
 30
0.0
  0
POINT
  5
82
100
AcDbEntity
  8
DEFPOINTS
 62
               0
100
AcDbPoint
 10
400.0
 20
-280.0000048327006
 30
0.0
  0
POINT
  5
83
100
AcDbEntity
  8
DEFPOINTS
 62
               0
100
AcDbPoint
 10
300.0
 20
-280.0000048327006
 30
0.0
  0
ENDBLK
  5
84
100
AcDbEntity
  8
DIMENTION
100
AcDbBlockEnd
  0
BLOCK
  5
85
100
AcDbEntity
  8
DIMENTION
100
AcDbBlockBegin
  2
*D9
 70
               1
 10
0.0
 20
0.0
 30
0.0
  3
*D9
  1

  0
LINE
  5
86
100
AcDbEntity
  8
DIMENTION
  6
CONTINUOUS
 62
               0
100
AcDbLine
 10
400.0
 20
-270.0000048327006
 30
0.0
 11
400.0
 21
-80.0
 31
0.0
  0
LINE
  5
87
100
AcDbEntity
  8
DIMENTION
  6
CONTINUOUS
 62
               0
100
AcDbLine
 10
1000.0
 20
-270.0000048327006
 30
0.0
 11
1000.0
 21
-80.0
 31
0.0
  0
LINE
  5
88
100
AcDbEntity
  8
DIMENTION
  6
CONTINUOUS
 62
               0
100
AcDbLine
 10
400.0
 20
-100.0
 30
0.0
 11
1000.0
 21
-100.0
 31
0.0
  0
LINE
  5
89
100
AcDbEntity
  8
DIMENTION
  6
CONTINUOUS
 62
               0
100
AcDbLine
 10
400.0
 20
-100.0
 30
0.0
 11
431.75
 21
-91.49261314031186
 31
0.0
  0
LINE
  5
8A
100
AcDbEntity
  8
DIMENTION
  6
CONTINUOUS
 62
               0
100
AcDbLine
 10
400.0
 20
-100.0
 30
0.0
 11
431.75
 21
-108.50738685968815
 31
0.0
  0
LINE
  5
8B
100
AcDbEntity
  8
DIMENTION
  6
CONTINUOUS
 62
               0
100
AcDbLine
 10
1000.0
 20
-100.0
 30
0.0
 11
968.25
 21
-108.50738685968815
 31
0.0
  0
LINE
  5
8C
100
AcDbEntity
  8
DIMENTION
  6
CONTINUOUS
 62
               0
100
AcDbLine
 10
1000.0
 20
-100.0
 30
0.0
 11
968.25
 21
-91.492613140311846
 31
0.0
  0
MTEXT
  5
8D
100
AcDbEntity
  8
DIMENTION
 62
               0
100
AcDbMText
 10
668.25
 20
-56.666666666666657
 30
0.0
 40
33.866666666666667
 41
0.0
 71
               1
 72
               1
  1
600
  7
________
  0
POINT
  5
8E
100
AcDbEntity
  8
DEFPOINTS
 62
               0
100
AcDbPoint
 10
1000.0
 20
-280.0000048327006
 30
0.0
  0
POINT
  5
8F
100
AcDbEntity
  8
DEFPOINTS
 62
               0
100
AcDbPoint
 10
400.0
 20
-280.0000048327006
 30
0.0
  0
POINT
  5
90
100
AcDbEntity
  8
DEFPOINTS
 62
               0
100
AcDbPoint
 10
400.0
 20
-100.0
 30
0.0
  0
ENDBLK
  5
91
100
AcDbEntity
  8
DIMENTION
100
AcDbBlockEnd
  0
BLOCK
  5
92
100
AcDbEntity
  8
DIMENTION
100
AcDbBlockBegin
  2
*D10
 70
               1
 10
0.0
 20
0.0
 30
0.0
  3
*D10
  1

  0
LINE
  5
93
100
AcDbEntity
  8
DIMENTION
 62
               0
100
AcDbLine
 10
1020.0
 20
285.0
 30
0.0
 11
1020.0
 21
130.0
 31
0.0
  0
LINE
  5
94
100
AcDbEntity
  8
DIMENTION
 62
               0
100
AcDbLine
 10
380.0
 20
285.0
 30
0.0
 11
380.0
 21
130.0
 31
0.0
  0
LINE
  5
95
100
AcDbEntity
  8
DIMENTION
 62
               0
100
AcDbLine
 10
1020.0
 20
150.0
 30
0.0
 11
380.0
 21
150.0
 31
0.0
  0
LINE
  5
96
100
AcDbEntity
  8
DIMENTION
 62
               0
100
AcDbLine
 10
1020.0
 20
150.0
 30
0.0
 11
988.25
 21
141.49261314031185
 31
0.0
  0
LINE
  5
97
100
AcDbEntity
  8
DIMENTION
 62
               0
100
AcDbLine
 10
1020.0
 20
150.0
 30
0.0
 11
988.25
 21
158.50738685968815
 31
0.0
  0
LINE
  5
98
100
AcDbEntity
  8
DIMENTION
 62
               0
100
AcDbLine
 10
380.0
 20
150.0
 30
0.0
 11
411.75
 21
158.50738685968815
 31
0.0
  0
LINE
  5
99
100
AcDbEntity
  8
DIMENTION
 62
               0
100
AcDbLine
 10
380.0
 20
150.0
 30
0.0
 11
411.75
 21
141.49261314031185
 31
0.0
  0
MTEXT
  5
9A
100
AcDbEntity
  8
DIMENTION
 62
               0
100
AcDbMText
 10
668.25
 20
193.33333332960805
 30
0.0
 40
33.866666666666667
 41
0.0
 71
               1
 72
               1
  1
640
  7
________
  0
POINT
  5
9B
100
AcDbEntity
  8
DEFPOINTS
 62
               0
100
AcDbPoint
 10
380.0
 20
295.0
 30
0.0
  0
POINT
  5
9C
100
AcDbEntity
  8
DEFPOINTS
 62
               0
100
AcDbPoint
 10
1020.0
 20
295.0
 30
0.0
  0
POINT
  5
9D
100
AcDbEntity
  8
DEFPOINTS
 62
               0
100
AcDbPoint
 10
1020.0
 20
150.0
 30
0.0
  0
ENDBLK
  5
9E
100
AcDbEntity
  8
DIMENTION
100
AcDbBlockEnd
  0
BLOCK
  5
9F
100
AcDbEntity
  8
DIMENTION
100
AcDbBlockBegin
  2
*D11
 70
               1
 10
0.0
 20
0.0
 30
0.0
  3
*D11
  1

  0
LINE
  5
A0
100
AcDbEntity
  8
DIMENTION
 62
               0
100
AcDbLine
 10
999.88329999999996
 20
300.0010999999995
 30
0.0
 11
1120.0
 21
300.0010999999995
 31
0.0
  0
LINE
  5
A1
100
AcDbEntity
  8
DIMENTION
 62
               0
100
AcDbLine
 10
1010.0
 20
980.0
 30
0.0
 11
1120.0
 21
980.0
 31
0.0
  0
LINE
  5
A2
100
AcDbEntity
  8
DIMENTION
 62
               0
100
AcDbLine
 10
1100.0
 20
300.0010999999995
 30
0.0
 11
1100.0
 21
980.0
 31
0.0
  0
LINE
  5
A3
100
AcDbEntity
  8
DIMENTION
 62
               0
100
AcDbLine
 10
1100.0
 20
300.0010999999995
 30
0.0
 11
1091.492613140312
 21
331.7510999999995
 31
0.0
  0
LINE
  5
A4
100
AcDbEntity
  8
DIMENTION
 62
               0
100
AcDbLine
 10
1100.0
 20
300.0010999999995
 30
0.0
 11
1108.507386859688
 21
331.7510999999995
 31
0.0
  0
LINE
  5
A5
100
AcDbEntity
  8
DIMENTION
 62
               0
100
AcDbLine
 10
1100.0
 20
980.0
 30
0.0
 11
1108.507386859688
 21
948.25
 31
0.0
  0
LINE
  5
A6
100
AcDbEntity
  8
DIMENTION
 62
               0
100
AcDbLine
 10
1100.0
 20
980.0
 30
0.0
 11
1091.492613140312
 21
948.25
 31
0.0
  0
MTEXT
  5
A7
100
AcDbEntity
  8
DIMENTION
 62
               0
100
AcDbMText
 10
1056.6666666703918
 20
608.25054999999975
 30
0.0
 40
33.866666666666667
 41
0.0
 71
               1
 72
               1
  1
680
  7
________
 11
0.0
 21
1.0
 31
0.0
  0
POINT
  5
A8
100
AcDbEntity
  8
DEFPOINTS
 62
               0
100
AcDbPoint
 10
1000.0
 20
980.0
 30
0.0
  0
POINT
  5
A9
100
AcDbEntity
  8
DEFPOINTS
 62
               0
100
AcDbPoint
 10
989.88329999999996
 20
300.0010999999995
 30
0.0
  0
POINT
  5
AA
100
AcDbEntity
  8
DEFPOINTS
 62
               0
100
AcDbPoint
 10
1100.0
 20
300.0010999999995
 30
0.0
  0
ENDBLK
  5
AB
100
AcDbEntity
  8
DIMENTION
100
AcDbBlockEnd
  0
BLOCK
  5
AC
100
AcDbEntity
  8
DIMENTION
100
AcDbBlockBegin
  2
*D12
 70
               1
 10
0.0
 20
0.0
 30
0.0
  3
*D12
  1

  0
LINE
  5
AD
100
AcDbEntity
  8
DIMENTION
 62
               0
100
AcDbLine
 10
1015.0
 20
1000.0
 30
0.0
 11
1120.0
 21
1000.0
 31
0.0
  0
LINE
  5
AE
100
AcDbEntity
  8
DIMENTION
 62
               0
100
AcDbLine
 10
1010.0
 20
980.0
 30
0.0
 11
1120.0
 21
980.0
 31
0.0
  0
LINE
  5
AF
100
AcDbEntity
  8
DIMENTION
 62
               0
100
AcDbLine
 10
1100.0
 20
980.0
 30
0.0
 11
1100.0
 21
1000.0
 31
0.0
  0
LINE
  5
B0
100
AcDbEntity
  8
DIMENTION
 62
               0
100
AcDbLine
 10
1100.0
 20
1000.0
 30
0.0
 11
1100.0
 21
1077.3333333333333
 31
0.0
  0
LINE
  5
B1
100
AcDbEntity
  8
DIMENTION
 62
               0
100
AcDbLine
 10
1100.0
 20
1000.0
 30
0.0
 11
1091.492613140312
 21
1031.75
 31
0.0
  0
LINE
  5
B2
100
AcDbEntity
  8
DIMENTION
 62
               0
100
AcDbLine
 10
1100.0
 20
1000.0
 30
0.0
 11
1108.507386859688
 21
1031.75
 31
0.0
  0
LINE
  5
B3
100
AcDbEntity
  8
DIMENTION
 62
               0
100
AcDbLine
 10
1100.0
 20
980.0
 30
0.0
 11
1100.0
 21
920.0
 31
0.0
  0
LINE
  5
B4
100
AcDbEntity
  8
DIMENTION
 62
               0
100
AcDbLine
 10
1100.0
 20
980.0
 30
0.0
 11
1108.507386859688
 21
948.25
 31
0.0
  0
LINE
  5
B5
100
AcDbEntity
  8
DIMENTION
 62
               0
100
AcDbLine
 10
1100.0
 20
980.0
 30
0.0
 11
1091.492613140312
 21
948.25
 31
0.0
  0
MTEXT
  5
B6
100
AcDbEntity
  8
DIMENTION
 62
               0
100
AcDbMText
 10
1056.6666666703918
 20
1035.0
 30
0.0
 40
33.866666666666667
 41
0.0
 71
               1
 72
               1
  1
20
  7
________
 11
0.0
 21
1.0
 31
0.0
  0
POINT
  5
B7
100
AcDbEntity
  8
DEFPOINTS
 62
               0
100
AcDbPoint
 10
1000.0
 20
980.0
 30
0.0
  0
POINT
  5
B8
100
AcDbEntity
  8
DEFPOINTS
 62
               0
100
AcDbPoint
 10
1005.0
 20
1000.0
 30
0.0
  0
POINT
  5
B9
100
AcDbEntity
  8
DEFPOINTS
 62
               0
100
AcDbPoint
 10
1100.0
 20
1000.0
 30
0.0
  0
ENDBLK
  5
BA
100
AcDbEntity
  8
DIMENTION
100
AcDbBlockEnd
  0
BLOCK
  5
BB
100
AcDbEntity
  8
DIMENTION
100
AcDbBlockBegin
  2
*D13
 70
               1
 10
0.0
 20
0.0
 30
0.0
  3
*D13
  1

  0
LINE
  5
BC
100
AcDbEntity
  8
DIMENTION
 62
               0
100
AcDbLine
 10
1000.0
 20
990.0
 30
0.0
 11
1000.0
 21
1120.0
 31
0.0
  0
LINE
  5
BD
100
AcDbEntity
  8
DIMENTION
 62
               0
100
AcDbLine
 10
400.0
 20
990.0
 30
0.0
 11
400.0
 21
1120.0
 31
0.0
  0
LINE
  5
BE
100
AcDbEntity
  8
DIMENTION
 62
               0
100
AcDbLine
 10
1000.0
 20
1100.0
 30
0.0
 11
400.0
 21
1100.0
 31
0.0
  0
LINE
  5
BF
100
AcDbEntity
  8
DIMENTION
 62
               0
100
AcDbLine
 10
1000.0
 20
1100.0
 30
0.0
 11
968.25
 21
1091.492613140312
 31
0.0
  0
LINE
  5
C0
100
AcDbEntity
  8
DIMENTION
 62
               0
100
AcDbLine
 10
1000.0
 20
1100.0
 30
0.0
 11
968.25
 21
1108.5073868596883
 31
0.0
  0
LINE
  5
C1
100
AcDbEntity
  8
DIMENTION
 62
               0
100
AcDbLine
 10
400.0
 20
1100.0
 30
0.0
 11
431.75
 21
1108.507386859688
 31
0.0
  0
LINE
  5
C2
100
AcDbEntity
  8
DIMENTION
 62
               0
100
AcDbLine
 10
400.0
 20
1100.0
 30
0.0
 11
431.75
 21
1091.492613140312
 31
0.0
  0
MTEXT
  5
C3
100
AcDbEntity
  8
DIMENTION
 62
               0
100
AcDbMText
 10
668.25
 20
1143.333333329608
 30
0.0
 40
33.866666666666667
 41
0.0
 71
               1
 72
               1
  1
600
  7
________
  0
POINT
  5
C4
100
AcDbEntity
  8
DEFPOINTS
 62
               0
100
AcDbPoint
 10
400.0
 20
980.0
 30
0.0
  0
POINT
  5
C5
100
AcDbEntity
  8
DEFPOINTS
 62
               0
100
AcDbPoint
 10
1000.0
 20
980.0
 30
0.0
  0
POINT
  5
C6
100
AcDbEntity
  8
DEFPOINTS
 62
               0
100
AcDbPoint
 10
1000.0
 20
1100.0
 30
0.0
  0
ENDBLK
  5
C7
100
AcDbEntity
  8
DIMENTION
100
AcDbBlockEnd
  0
BLOCK
  5
C8
100
AcDbEntity
  8
DIMENTION
100
AcDbBlockBegin
  2
*D14
 70
               1
 10
0.0
 20
0.0
 30
0.0
  3
*D14
  1

  0
LINE
  5
C9
100
AcDbEntity
  8
DIMENTION
 62
               0
100
AcDbLine
 10
1000.0
 20
990.0
 30
0.0
 11
1000.0
 21
1120.0
 31
0.0
  0
LINE
  5
CA
100
AcDbEntity
  8
DIMENTION
 62
               0
100
AcDbLine
 10
1020.0
 20
995.0
 30
0.0
 11
1020.0
 21
1120.0
 31
0.0
  0
LINE
  5
CB
100
AcDbEntity
  8
DIMENTION
 62
               0
100
AcDbLine
 10
1020.0
 20
1100.0
 30
0.0
 11
1000.0
 21
1100.0
 31
0.0
  0
LINE
  5
CC
100
AcDbEntity
  8
DIMENTION
 62
               0
100
AcDbLine
 10
1000.0
 20
1100.0
 30
0.0
 11
940.0
 21
1100.0
 31
0.0
  0
LINE
  5
CD
100
AcDbEntity
  8
DIMENTION
 62
               0
100
AcDbLine
 10
1000.0
 20
1100.0
 30
0.0
 11
968.25
 21
1091.492613140312
 31
0.0
  0
LINE
  5
CE
100
AcDbEntity
  8
DIMENTION
 62
               0
100
AcDbLine
 10
1000.0
 20
1100.0
 30
0.0
 11
968.25
 21
1108.5073868596883
 31
0.0
  0
LINE
  5
CF
100
AcDbEntity
  8
DIMENTION
 62
               0
100
AcDbLine
 10
1020.0
 20
1100.0
 30
0.0
 11
1102.3333333333333
 21
1100.0
 31
0.0
  0
LINE
  5
D0
100
AcDbEntity
  8
DIMENTION
 62
               0
100
AcDbLine
 10
1020.0
 20
1100.0
 30
0.0
 11
1051.75
 21
1108.507386859688
 31
0.0
  0
LINE
  5
D1
100
AcDbEntity
  8
DIMENTION
 62
               0
100
AcDbLine
 10
1020.0
 20
1100.0
 30
0.0
 11
1051.75
 21
1091.492613140312
 31
0.0
  0
MTEXT
  5
D2
100
AcDbEntity
  8
DIMENTION
 62
               0
100
AcDbMText
 10
1060.0
 20
1143.333333329608
 30
0.0
 40
33.866666666666667
 41
0.0
 71
               1
 72
               1
  1
20
  7
________
  0
POINT
  5
D3
100
AcDbEntity
  8
DEFPOINTS
 62
               0
100
AcDbPoint
 10
1020.0
 20
985.0
 30
0.0
  0
POINT
  5
D4
100
AcDbEntity
  8
DEFPOINTS
 62
               0
100
AcDbPoint
 10
1000.0
 20
980.0
 30
0.0
  0
POINT
  5
D5
100
AcDbEntity
  8
DEFPOINTS
 62
               0
100
AcDbPoint
 10
1000.0
 20
1100.0
 30
0.0
  0
ENDBLK
  5
D6
100
AcDbEntity
  8
DIMENTION
100
AcDbBlockEnd
  0
BLOCK
  5
D7
100
AcDbEntity
  8
DIMENTION
100
AcDbBlockBegin
  2
*D15
 70
               1
 10
0.0
 20
0.0
 30
0.0
  3
*D15
  1

  0
LINE
  5
D8
100
AcDbEntity
  8
DIMENTION
 62
               0
100
AcDbLine
 10
385.0
 20
1000.0
 30
0.0
 11
280.0
 21
1000.0
 31
0.0
  0
LINE
  5
D9
100
AcDbEntity
  8
DIMENTION
 62
               0
100
AcDbLine
 10
626.0
 20
275.0
 30
0.0
 11
280.0
 21
275.0
 31
0.0
  0
LINE
  5
DA
100
AcDbEntity
  8
DIMENTION
 62
               0
100
AcDbLine
 10
300.0
 20
1000.0
 30
0.0
 11
300.0
 21
275.0
 31
0.0
  0
LINE
  5
DB
100
AcDbEntity
  8
DIMENTION
 62
               0
100
AcDbLine
 10
300.0
 20
1000.0
 30
0.0
 11
308.50738685968815
 21
968.25
 31
0.0
  0
LINE
  5
DC
100
AcDbEntity
  8
DIMENTION
 62
               0
100
AcDbLine
 10
300.0
 20
1000.0
 30
0.0
 11
291.49261314031185
 21
968.25
 31
0.0
  0
LINE
  5
DD
100
AcDbEntity
  8
DIMENTION
 62
               0
100
AcDbLine
 10
300.0
 20
275.0
 30
0.0
 11
291.49261314031185
 21
306.75
 31
0.0
  0
LINE
  5
DE
100
AcDbEntity
  8
DIMENTION
 62
               0
100
AcDbLine
 10
300.0
 20
275.0
 30
0.0
 11
308.50738685968815
 21
306.75
 31
0.0
  0
MTEXT
  5
DF
100
AcDbEntity
  8
DIMENTION
 62
               0
100
AcDbMText
 10
256.66666667039192
 20
605.75
 30
0.0
 40
33.866666666666667
 41
0.0
 71
               1
 72
               1
  1
725
  7
________
 11
0.0
 21
1.0
 31
0.0
  0
POINT
  5
E0
100
AcDbEntity
  8
DEFPOINTS
 62
               0
100
AcDbPoint
 10
636.0
 20
275.0
 30
0.0
  0
POINT
  5
E1
100
AcDbEntity
  8
DEFPOINTS
 62
               0
100
AcDbPoint
 10
395.0
 20
1000.0
 30
0.0
  0
POINT
  5
E2
100
AcDbEntity
  8
DEFPOINTS
 62
               0
100
AcDbPoint
 10
300.0
 20
1000.0
 30
0.0
  0
ENDBLK
  5
E3
100
AcDbEntity
  8
DIMENTION
100
AcDbBlockEnd
  0
BLOCK
  5
E4
100
AcDbEntity
  8
OBJECT
100
AcDbBlockBegin
  2
*U16
 70
               1
 10
0.0
 20
0.0
 30
0.0
  3
*U16
  1

  0
LWPOLYLINE
  5
E5
100
AcDbEntity
  8
OBJECT
  6
CONTINUOUS
 62
               0
100
AcDbPolyline
 90
       10
 70
             129
 10
-555.0
 20
-970.56155764550954
 42
0.3441507314088954
 10
-556.51492874992732
 20
-968.62127264521882
 10
-575.0
 20
-964.0000048327006
 10
-650.0
 20
-964.0000048327006
 42
0.414213562373095
 10
-655.0
 20
-969.0000048327006
 10
-655.0
 20
-989.0000048327006
 42
0.414213562373095
 10
-650.0
 20
-994.0000048327006
 10
-575.0
 20
-994.0000048327006
 10
-556.51492874992732
 20
-989.37873702018237
 42
0.3441507314089778
 10
-555.0
 20
-987.43845201989166
  0
LWPOLYLINE
  5
E6
100
AcDbEntity
  8
OBJECT
  6
CONTINUOUS
 62
               0
100
AcDbPolyline
 90
        5
 70
             129
 10
-595.0
 20
-979.0000048327006
 42
-0.414213562373095
 10
-590.0
 20
-974.0000048327006
 42
-0.414213562373095
 10
-585.0
 20
-979.0000048327006
 42
-0.414213562373095
 10
-590.0
 20
-984.0000048327006
 42
-0.414213562373095
 10
-595.0
 20
-979.0000048327006
 42
-0.414213562373095
  0
LWPOLYLINE
  5
E7
100
AcDbEntity
  8
OBJECT
  6
CONTINUOUS
 62
               0
100
AcDbPolyline
 90
        5
 70
             129
 10
-645.0
 20
-979.0000048327006
 42
-0.414213562373095
 10
-640.0
 20
-974.0000048327006
 42
-0.414213562373095
 10
-635.0
 20
-979.0000048327006
 42
-0.414213562373095
 10
-640.0
 20
-984.0000048327006
 42
-0.414213562373095
 10
-645.0
 20
-979.0000048327006
 42
-0.414213562373095
  0
LWPOLYLINE
  5
E8
100
AcDbEntity
  8
OBJECT
  6
CONTINUOUS
 62
               0
100
AcDbPolyline
 90
        6
 70
             128
 10
-559.0
 20
-969.0000048327006
 10
-646.0
 20
-969.0000048327006
 42
0.414213562373095
 10
-650.0
 20
-973.0000048327006
 10
-650.0
 20
-985.0000048327006
 42
0.414213562373095
 10
-646.0
 20
-989.0000048327006
 10
-559.0
 20
-989.0000048327006
  0
ENDBLK
  5
E9
100
AcDbEntity
  8
OBJECT
100
AcDbBlockEnd
  0
BLOCK
  5
EA
100
AcDbEntity
  8
OBJECT
100
AcDbBlockBegin
  2
*U17
 70
               1
 10
0.0
 20
0.0
 30
0.0
  3
*U17
  1

  0
LWPOLYLINE
  5
EB
100
AcDbEntity
  8
OBJECT
  6
CONTINUOUS
 62
               0
100
AcDbPolyline
 90
       10
 70
             129
 10
-1275.0
 20
-970.56155764550954
 42
-0.3441507314089778
 10
-1273.4850712500727
 20
-968.62127264521882
 10
-1255.0
 20
-964.0000048327006
 10
-1223.0
 20
-964.0000048327006
 42
-0.414213562373095
 10
-1218.0
 20
-969.0000048327006
 10
-1218.0
 20
-989.0000048327006
 42
-0.414213562373095
 10
-1223.0
 20
-994.0000048327006
 10
-1255.0
 20
-994.0000048327006
 10
-1273.4850712500727
 20
-989.37873702018237
 42
-0.3441507314089108
 10
-1275.0
 20
-987.43845201989166
  0
LWPOLYLINE
  5
EC
100
AcDbEntity
  8
OBJECT
  6
CONTINUOUS
 62
               0
100
AcDbPolyline
 90
        5
 70
             129
 10
-1238.0
 20
-979.0000048327006
 42
-0.414213562373095
 10
-1233.0
 20
-974.0000048327006
 42
-0.414213562373095
 10
-1228.0
 20
-979.0000048327006
 42
-0.414213562373095
 10
-1233.0
 20
-984.0000048327006
 42
-0.414213562373095
 10
-1238.0
 20
-979.0000048327006
 42
-0.414213562373095
  0
LWPOLYLINE
  5
ED
100
AcDbEntity
  8
OBJECT
  6
CONTINUOUS
 62
               0
100
AcDbPolyline
 90
        6
 70
             128
 10
-1271.0
 20
-969.0000048327006
 10
-1227.0
 20
-969.0000048327006
 42
-0.414213562373095
 10
-1223.0
 20
-973.0000048327006
 10
-1223.0
 20
-985.0000048327006
 42
-0.414213562373095
 10
-1227.0
 20
-989.0000048327006
 10
-1271.0
 20
-989.0000048327006
  0
ENDBLK
  5
EE
100
AcDbEntity
  8
OBJECT
100
AcDbBlockEnd
  0
BLOCK
  5
EF
100
AcDbEntity
  8
OUTLINE
100
AcDbBlockBegin
  2
*U18
 70
               1
 10
0.0
 20
0.0
 30
0.0
  3
*U18
  1

  0
LINE
  5
F0
100
AcDbEntity
  8
OUTLINE
  6
STYLE_20
 62
               0
100
AcDbLine
 10
-1159.0159999999996
 20
-251.0000048327006
 30
0.0
 11
-1170.9408999999996
 21
-105.5000048327006
 31
0.0
  0
LINE
  5
F1
100
AcDbEntity
  8
OUTLINE
  6
STYLE_20
 62
               0
100
AcDbLine
 10
-1147.5985000000001
 20
-250.49980483270065
 30
0.0
 11
-1161.3444
 21
-82.780804832700596
 31
0.0
  0
LINE
  5
F2
100
AcDbEntity
  8
OUTLINE
  6
STYLE_20
 62
               0
100
AcDbLine
 10
-1235.8693000000003
 20
-257.61710483270053
 30
0.0
 11
-998.48209999999926
 21
325.94709516729927
 31
0.0
  0
LINE
  5
F3
100
AcDbEntity
  8
OUTLINE
  6
STYLE_20
 62
               0
100
AcDbLine
 10
-1296.5498000000007
 20
-282.05340483270061
 30
0.0
 11
-1044.0900999999994
 21
338.56239516729943
 31
0.0
  0
LINE
  5
F4
100
AcDbEntity
  8
OUTLINE
  6
STYLE_20
 62
               0
100
AcDbLine
 10
-1007.7396543631967
 20
329.7130612462347
 30
0.0
 11
-1245.1322999999993
 21
-253.8491048327005
 31
0.0
  0
LINE
  5
F5
100
AcDbEntity
  8
OUTLINE
  6
STYLE_20
 62
               0
100
AcDbLine
 10
-1007.7448999999997
 20
329.7151951672995
 30
0.0
 11
-998.48209999999926
 21
325.94709516729927
 31
0.0
  0
LINE
  5
F6
100
AcDbEntity
  8
OUTLINE
  6
STYLE_20
 62
               0
100
AcDbLine
 10
-1245.1322999999993
 20
-253.8491048327005
 30
0.0
 11
-1235.8693000000003
 21
-257.61710483270053
 31
0.0
  0
LINE
  5
F7
100
AcDbEntity
  8
OUTLINE
  6
STYLE_20
 62
               0
100
AcDbLine
 10
-1040.1808000000001
 20
340.21089516729944
 30
0.0
 11
-1008.6867999999995
 21
327.39949516729939
 31
0.0
  0
LINE
  5
F8
100
AcDbEntity
  8
OUTLINE
  6
STYLE_20
 62
               0
100
AcDbLine
 10
-1275.6841000000004
 20
-238.72200483270058
 30
0.0
 11
-1244.1902000000009
 21
-251.5331048327007
 31
0.0
  0
ARC
  5
F9
100
AcDbEntity
  8
OUTLINE
  6
STYLE_20
 62
               0
100
AcDbCircle
 10
-1041.3112000000001
 20
337.43189516729944
 30
0.0
 40
3.0001075247397382
100
AcDbArc
 50
67.865227727525408
 51
157.86273905900381
  0
ARC
  5
FA
100
AcDbEntity
  8
OUTLINE
  6
STYLE_20
 62
               0
100
AcDbCircle
 10
-1274.5537000000004
 20
-235.94300483270058
 30
0.0
 40
3.0001452048179869
100
AcDbArc
 50
157.86345871019907
 51
247.86522772752582
  0
LINE
  5
FB
100
AcDbEntity
  8
OUTLINE
  6
STYLE_20
 62
               0
100
AcDbLine
 10
-1054.2168999999994
 20
321.63019516729946
 30
0.0
 11
-1257.3148000000001
 21
-177.64150483270055
 31
0.0
  0
ARC
  5
FC
100
AcDbEntity
  8
OUTLINE
  6
STYLE_20
 62
               0
100
AcDbCircle
 10
-1051.4377000000004
 20
320.49979516729945
 30
0.0
 40
2.9999772165802314
100
AcDbArc
 50
67.866277229223144
 51
157.86666680547697
  0
ARC
  5
FD
100
AcDbEntity
  8
OUTLINE
  6
STYLE_20
 62
               0
100
AcDbCircle
 10
-1254.5358999999989
 20
-178.77220483270048
 30
0.0
 40
3.0001279472726305
100
AcDbArc
 50
157.85920106653694
 51
247.86057983869591
  0
LINE
  5
FE
100
AcDbEntity
  8
OUTLINE
  6
STYLE_20
 62
               0
100
AcDbLine
 10
-1299.1558999999997
 20
-283.15250483270052
 30
0.0
 11
-1261.2868999999992
 21
-190.06000483270054
 31
0.0
  0
LINE
  5
FF
100
AcDbEntity
  8
OUTLINE
  6
STYLE_20
 62
               0
100
AcDbLine
 10
-1253.7677000000003
 20
-301.61600483270058
 30
0.0
 11
-1299.1558999999997
 21
-283.15250483270052
 31
0.0
  0
LINE
  5
100
100
AcDbEntity
  8
OUTLINE
  6
STYLE_20
 62
               0
100
AcDbLine
 10
-1253.0139999999992
 20
-299.76330483270067
 30
0.0
 11
-1253.7677000000003
 21
-301.61600483270058
 31
0.0
  0
LINE
  5
101
100
AcDbEntity
  8
OUTLINE
  6
STYLE_20
 62
               0
100
AcDbLine
 10
-1296.5498000000007
 20
-282.05340483270061
 30
0.0
 11
-1253.0139999999992
 21
-299.76330483270067
 31
0.0
  0
LINE
  5
102
100
AcDbEntity
  8
OUTLINE
  6
STYLE_20
 62
               0
100
AcDbLine
 10
-1261.2868999999992
 20
-190.06000483270054
 30
0.0
 11
-1259.4344999999994
 21
-190.81370483270052
 31
0.0
  0
LINE
  5
103
100
AcDbEntity
  8
OUTLINE
  6
STYLE_20
 62
               0
100
AcDbLine
 10
-1025.2029000000002
 20
361.1072951672993
 30
0.0
 11
-1034.6231000000007
 21
337.94999516729945
 31
0.0
  0
ARC
  5
104
100
AcDbEntity
  8
OUTLINE
  6
STYLE_20
 62
               0
100
AcDbCircle
 10
-1020.5713585909325
 20
359.22309696357115
 30
0.0
 40
5.0001378675838151
100
AcDbArc
 50
67.864310233111979
 51
157.86258312453413
  0
POLYLINE
  5
105
100
AcDbEntity
  8
OUTLINE
  6
STYLE_20
 62
               0
100
AcDb2dPolyline
 66
               1
 10
0.0
 20
0.0
 30
0.0
 75
               5
  0
VERTEX
  5
106
100
AcDbEntity
  8
OUTLINE
  6
STYLE_20
 62
               0
100
AcDbVertex
100
AcDb2dVertex
 10
-1013.1297072103007
 20
361.59395742352558
 30
0.0
  0
VERTEX
  5
107
100
AcDbEntity
  8
OUTLINE
  6
STYLE_20
 62
               0
100
AcDbVertex
100
AcDb2dVertex
 10
-1013.1298000000006
 20
361.59399516729945
 30
0.0
  0
VERTEX
  5
108
100
AcDbEntity
  8
OUTLINE
  6
STYLE_20
 62
               0
100
AcDbVertex
100
AcDb2dVertex
 10
-1018.6872999999996
 20
363.85469516729927
 30
0.0
  0
VERTEX
  5
109
100
AcDbEntity
  8
OUTLINE
  6
STYLE_20
 62
               0
100
AcDbVertex
100
AcDb2dVertex
 10
-1018.6872999999996
 20
363.85469516729927
 30
0.0
  0
SEQEND
  5
10A
100
AcDbEntity
  8
OUTLINE
  6
STYLE_20
 62
               0
  0
ARC
  5
10B
100
AcDbEntity
  8
OUTLINE
  6
STYLE_20
 62
               0
100
AcDbCircle
 10
-1015.0136469554436
 20
356.96245971364033
 30
0.0
 40
5.000000000000087
100
AcDbArc
 50
337.86749451181822
 51
67.865137812669786
  0
LINE
  5
10C
100
AcDbEntity
  8
OUTLINE
  6
STYLE_20
 62
               0
100
AcDbLine
 10
-1010.3822
 20
355.07839516729928
 30
0.0
 11
-1010.382071758966
 21
355.07871047359413
 31
0.0
  0
LINE
  5
10D
100
AcDbEntity
  8
OUTLINE
  6
STYLE_20
 62
               0
100
AcDbLine
 10
-1019.8026545482098
 20
331.92129801733199
 30
0.0
 11
-1010.3822
 21
355.07839516729928
 31
0.0
  0
ENDBLK
  5
10E
100
AcDbEntity
  8
OUTLINE
100
AcDbBlockEnd
  0
BLOCK
  5
10F
100
AcDbEntity
  8
OBJECT
100
AcDbBlockBegin
  2
*U19
 70
               1
 10
0.0
 20
0.0
 30
0.0
  3
*U19
  1

  0
POLYLINE
  5
110
100
AcDbEntity
  8
OBJECT
  6
CONTINUOUS
 62
               0
100
AcDb2dPolyline
 66
               1
 10
0.0
 20
0.0
 30
0.0
 70
               1
 75
               5
  0
VERTEX
  5
111
100
AcDbEntity
  8
OBJECT
  6
CONTINUOUS
 62
               0
100
AcDbVertex
100
AcDb2dVertex
 10
-1242.0
 20
-1001.0000048327006
 30
0.0
  0
VERTEX
  5
112
100
AcDbEntity
  8
OBJECT
  6
CONTINUOUS
 62
               0
100
AcDbVertex
100
AcDb2dVertex
 10
-1172.0
 20
-1001.0000048327006
 30
0.0
  0
VERTEX
  5
113
100
AcDbEntity
  8
OBJECT
  6
CONTINUOUS
 62
               0
100
AcDbVertex
100
AcDb2dVertex
 10
-1172.0
 20
-1004.0000048327006
 30
0.0
  0
VERTEX
  5
114
100
AcDbEntity
  8
OBJECT
  6
CONTINUOUS
 62
               0
100
AcDbVertex
100
AcDb2dVertex
 10
-1242.0
 20
-1004.0000048327006
 30
0.0
  0
SEQEND
  5
115
100
AcDbEntity
  8
OBJECT
  6
CONTINUOUS
 62
               0
  0
LWPOLYLINE
  5
116
100
AcDbEntity
  8
OBJECT
  6
CONTINUOUS
 62
               0
100
AcDbPolyline
 90
        5
 70
             129
 10
-1250.0
 20
-1070.0000048327006
 42
-0.414213562373095
 10
-1240.0
 20
-1060.0000048327006
 42
-0.414213562373095
 10
-1230.0
 20
-1070.0000048327006
 42
-0.414213562373095
 10
-1240.0
 20
-1080.0000048327006
 42
-0.414213562373095
 10
-1250.0
 20
-1070.0000048327006
 42
-0.414213562373095
  0
LWPOLYLINE
  5
117
100
AcDbEntity
  8
OBJECT
  6
CONTINUOUS
 62
               0
100
AcDbPolyline
 90
        5
 70
             128
 10
-1231.5
 20
-1013.0000048327006
 42
0.414213562373095
 10
-1230.5
 20
-1012.0000048327006
 10
-1239.5
 20
-1013.0000048327006
 10
-1249.6000000000004
 20
-1066.4377048327005
 10
-1249.7999999999993
 20
-1068.2584048327008
  0
LWPOLYLINE
  5
118
100
AcDbEntity
  8
OBJECT
  6
CONTINUOUS
 62
               0
100
AcDbPolyline
 90
       10
 70
             128
 10
-1231.8724000000002
 20
-1075.7772048327006
 10
-1231.2289000000001
 20
-1074.8028048327005
 10
-1193.5
 20
-1021.0000048327006
 10
-1183.5
 20
-1021.0000048327006
 10
-1183.5
 20
-1014.0000048327006
 10
-1183.5
 20
-1014.0000048327006
 42
0.414213562373095
 10
-1186.5
 20
-1011.0000048327006
 10
-1229.5
 20
-1011.0000048327006
 10
-1229.5
 20
-1011.0000048327006
 42
0.414213562373095
 10
-1230.5
 20
-1012.0000048327006
 42
0.414213562373095
  0
POLYLINE
  5
119
100
AcDbEntity
  8
OBJECT
  6
CONTINUOUS
 62
               0
100
AcDb2dPolyline
 66
               1
 10
0.0
 20
0.0
 30
0.0
 70
               1
 75
               5
  0
VERTEX
  5
11A
100
AcDbEntity
  8
OBJECT
  6
CONTINUOUS
 62
               0
100
AcDbVertex
100
AcDb2dVertex
 10
-1233.5
 20
-1004.0000048327006
 30
0.0
  0
VERTEX
  5
11B
100
AcDbEntity
  8
OBJECT
  6
CONTINUOUS
 62
               0
100
AcDbVertex
100
AcDb2dVertex
 10
-1180.5
 20
-1004.0000048327006
 30
0.0
  0
VERTEX
  5
11C
100
AcDbEntity
  8
OBJECT
  6
CONTINUOUS
 62
               0
100
AcDbVertex
100
AcDb2dVertex
 10
-1184.5
 20
-1007.5000048327006
 30
0.0
  0
VERTEX
  5
11D
100
AcDbEntity
  8
OBJECT
  6
CONTINUOUS
 62
               0
100
AcDbVertex
100
AcDb2dVertex
 10
-1184.5
 20
-1011.0000048327006
 30
0.0
  0
VERTEX
  5
11E
100
AcDbEntity
  8
OBJECT
  6
CONTINUOUS
 62
               0
100
AcDbVertex
100
AcDb2dVertex
 10
-1229.5
 20
-1011.0000048327006
 30
0.0
  0
VERTEX
  5
11F
100
AcDbEntity
  8
OBJECT
  6
CONTINUOUS
 62
               0
100
AcDbVertex
100
AcDb2dVertex
 10
-1229.5
 20
-1007.5000048327006
 30
0.0
  0
SEQEND
  5
120
100
AcDbEntity
  8
OBJECT
  6
CONTINUOUS
 62
               0
  0
LINE
  5
121
100
AcDbEntity
  8
OBJECT
  6
CONTINUOUS
 62
               0
100
AcDbLine
 10
-1229.5
 20
-1007.5000048327006
 30
0.0
 11
-1184.5
 21
-1007.5000048327006
 31
0.0
  0
LINE
  5
122
100
AcDbEntity
  8
OBJECT
  6
CONTINUOUS
 62
               0
100
AcDbLine
 10
-1224.5
 20
-1013.0000048327006
 30
0.0
 11
-1224.5
 21
-1063.0000048327006
 31
0.0
  0
LWPOLYLINE
  5
123
100
AcDbEntity
  8
OBJECT
  6
CONTINUOUS
 62
               0
100
AcDbPolyline
 90
        5
 70
             129
 10
-1245.5
 20
-1070.0000048327006
 42
-0.414213562373095
 10
-1240.0
 20
-1064.5000048327006
 42
-0.414213562373095
 10
-1234.5
 20
-1070.0000048327006
 42
-0.414213562373095
 10
-1240.0
 20
-1075.5000048327006
 42
-0.414213562373095
 10
-1245.5
 20
-1070.0000048327006
 42
-0.414213562373095
  0
ARC
  5
124
100
AcDbEntity
  8
OBJECT
  6
CONTINUOUS
 62
               0
100
AcDbCircle
 10
-1240.0
 20
-1070.0000048327006
 30
0.0
 40
39.999918075541359
100
AcDbArc
 50
93.914492226284381
 51
40.57306483683027
  0
ARC
  5
125
100
AcDbEntity
  8
OBJECT
  6
CONTINUOUS
 62
               0
100
AcDbCircle
 10
-1240.0
 20
-1070.0000048327006
 30
0.0
 40
46.500049303737327
100
AcDbArc
 50
91.835132132632879
 51
42.618557278253505
  0
ARC
  5
126
100
AcDbEntity
  8
OBJECT
  6
CONTINUOUS
 62
               0
100
AcDbCircle
 10
-1240.0
 20
-1070.0000048327006
 30
0.0
 40
49.999995167300114
100
AcDbArc
 50
90.944621105131688
 51
43.494723541342523
  0
POLYLINE
  5
127
100
AcDbEntity
  8
OBJECT
  6
CONTINUOUS
 62
               0
100
AcDb2dPolyline
 66
               1
 10
0.0
 20
0.0
 30
0.0
 75
               5
  0
VERTEX
  5
128
100
AcDbEntity
  8
OBJECT
  6
CONTINUOUS
 62
               0
100
AcDbVertex
100
AcDb2dVertex
 10
-1155.0
 20
-970.0000048327006
 30
0.0
  0
VERTEX
  5
129
100
AcDbEntity
  8
OBJECT
  6
CONTINUOUS
 62
               0
100
AcDbVertex
100
AcDb2dVertex
 10
-1155.0
 20
-999.0000048327006
 30
0.0
  0
VERTEX
  5
12A
100
AcDbEntity
  8
OBJECT
  6
CONTINUOUS
 62
               0
100
AcDbVertex
100
AcDb2dVertex
 10
-575.0
 20
-999.0000048327006
 30
0.0
  0
VERTEX
  5
12B
100
AcDbEntity
  8
OBJECT
  6
CONTINUOUS
 62
               0
100
AcDbVertex
100
AcDb2dVertex
 10
-575.0
 20
-994.0000048327006
 30
0.0
  0
SEQEND
  5
12C
100
AcDbEntity
  8
OBJECT
  6
CONTINUOUS
 62
               0
  0
POLYLINE
  5
12D
100
AcDbEntity
  8
OBJECT
  6
CONTINUOUS
 62
               0
100
AcDb2dPolyline
 66
               1
 10
0.0
 20
0.0
 30
0.0
 70
               1
 75
               5
  0
VERTEX
  5
12E
100
AcDbEntity
  8
OBJECT
  6
CONTINUOUS
 62
               0
100
AcDbVertex
100
AcDb2dVertex
 10
-702.0
 20
-1001.0000048327006
 30
0.0
  0
VERTEX
  5
12F
100
AcDbEntity
  8
OBJECT
  6
CONTINUOUS
 62
               0
100
AcDbVertex
100
AcDb2dVertex
 10
-632.0
 20
-1001.0000048327006
 30
0.0
  0
VERTEX
  5
130
100
AcDbEntity
  8
OBJECT
  6
CONTINUOUS
 62
               0
100
AcDbVertex
100
AcDb2dVertex
 10
-632.0
 20
-1004.0000048327006
 30
0.0
  0
VERTEX
  5
131
100
AcDbEntity
  8
OBJECT
  6
CONTINUOUS
 62
               0
100
AcDbVertex
100
AcDb2dVertex
 10
-702.0
 20
-1004.0000048327006
 30
0.0
  0
SEQEND
  5
132
100
AcDbEntity
  8
OBJECT
  6
CONTINUOUS
 62
               0
  0
LWPOLYLINE
  5
133
100
AcDbEntity
  8
OBJECT
  6
CONTINUOUS
 62
               0
100
AcDbPolyline
 90
        5
 70
             129
 10
-710.0
 20
-1070.0000048327006
 42
-0.414213562373095
 10
-700.0
 20
-1060.0000048327006
 42
-0.414213562373095
 10
-690.0
 20
-1070.0000048327006
 42
-0.414213562373095
 10
-700.0
 20
-1080.0000048327006
 42
-0.414213562373095
 10
-710.0
 20
-1070.0000048327006
 42
-0.414213562373095
  0
LWPOLYLINE
  5
134
100
AcDbEntity
  8
OBJECT
  6
CONTINUOUS
 62
               0
100
AcDbPolyline
 90
        5
 70
             128
 10
-691.5
 20
-1013.0000048327006
 42
0.414213562373095
 10
-690.5
 20
-1012.0000048327006
 10
-699.5
 20
-1013.0000048327006
 10
-709.60000000000036
 20
-1066.4377048327005
 10
-709.79999999999927
 20
-1068.2584048327008
  0
LWPOLYLINE
  5
135
100
AcDbEntity
  8
OBJECT
  6
CONTINUOUS
 62
               0
100
AcDbPolyline
 90
       10
 70
             128
 10
-691.8724000000002
 20
-1075.7772048327006
 10
-691.22890000000007
 20
-1074.8028048327005
 10
-653.5
 20
-1021.0000048327006
 10
-643.5
 20
-1021.0000048327006
 10
-643.5
 20
-1014.0000048327006
 10
-643.5
 20
-1014.0000048327006
 42
0.414213562373095
 10
-646.5
 20
-1011.0000048327006
 10
-689.5
 20
-1011.0000048327006
 10
-689.5
 20
-1011.0000048327006
 42
0.414213562373095
 10
-690.5
 20
-1012.0000048327006
 42
0.414213562373095
  0
POLYLINE
  5
136
100
AcDbEntity
  8
OBJECT
  6
CONTINUOUS
 62
               0
100
AcDb2dPolyline
 66
               1
 10
0.0
 20
0.0
 30
0.0
 70
               1
 75
               5
  0
VERTEX
  5
137
100
AcDbEntity
  8
OBJECT
  6
CONTINUOUS
 62
               0
100
AcDbVertex
100
AcDb2dVertex
 10
-693.5
 20
-1004.0000048327006
 30
0.0
  0
VERTEX
  5
138
100
AcDbEntity
  8
OBJECT
  6
CONTINUOUS
 62
               0
100
AcDbVertex
100
AcDb2dVertex
 10
-640.5
 20
-1004.0000048327006
 30
0.0
  0
VERTEX
  5
139
100
AcDbEntity
  8
OBJECT
  6
CONTINUOUS
 62
               0
100
AcDbVertex
100
AcDb2dVertex
 10
-644.5
 20
-1007.5000048327006
 30
0.0
  0
VERTEX
  5
13A
100
AcDbEntity
  8
OBJECT
  6
CONTINUOUS
 62
               0
100
AcDbVertex
100
AcDb2dVertex
 10
-644.5
 20
-1011.0000048327006
 30
0.0
  0
VERTEX
  5
13B
100
AcDbEntity
  8
OBJECT
  6
CONTINUOUS
 62
               0
100
AcDbVertex
100
AcDb2dVertex
 10
-689.5
 20
-1011.0000048327006
 30
0.0
  0
VERTEX
  5
13C
100
AcDbEntity
  8
OBJECT
  6
CONTINUOUS
 62
               0
100
AcDbVertex
100
AcDb2dVertex
 10
-689.5
 20
-1007.5000048327006
 30
0.0
  0
SEQEND
  5
13D
100
AcDbEntity
  8
OBJECT
  6
CONTINUOUS
 62
               0
  0
LINE
  5
13E
100
AcDbEntity
  8
OBJECT
  6
CONTINUOUS
 62
               0
100
AcDbLine
 10
-689.5
 20
-1007.5000048327006
 30
0.0
 11
-644.5
 21
-1007.5000048327006
 31
0.0
  0
LINE
  5
13F
100
AcDbEntity
  8
OBJECT
  6
CONTINUOUS
 62
               0
100
AcDbLine
 10
-684.5
 20
-1013.0000048327006
 30
0.0
 11
-684.5
 21
-1063.0000048327006
 31
0.0
  0
LWPOLYLINE
  5
140
100
AcDbEntity
  8
OBJECT
  6
CONTINUOUS
 62
               0
100
AcDbPolyline
 90
        5
 70
             129
 10
-705.5
 20
-1070.0000048327006
 42
-0.414213562373095
 10
-700.0
 20
-1064.5000048327006
 42
-0.414213562373095
 10
-694.5
 20
-1070.0000048327006
 42
-0.414213562373095
 10
-700.0
 20
-1075.5000048327006
 42
-0.414213562373095
 10
-705.5
 20
-1070.0000048327006
 42
-0.414213562373095
  0
ARC
  5
141
100
AcDbEntity
  8
OBJECT
  6
CONTINUOUS
 62
               0
100
AcDbCircle
 10
-700.0
 20
-1070.0000048327006
 30
0.0
 40
39.999918075541359
100
AcDbArc
 50
93.914492226284381
 51
40.57306483683027
  0
ARC
  5
142
100
AcDbEntity
  8
OBJECT
  6
CONTINUOUS
 62
               0
100
AcDbCircle
 10
-700.0
 20
-1070.0000048327006
 30
0.0
 40
46.500049303737391
100
AcDbArc
 50
91.835132132635096
 51
42.61855727825349
  0
ARC
  5
143
100
AcDbEntity
  8
OBJECT
  6
CONTINUOUS
 62
               0
100
AcDbCircle
 10
-700.0
 20
-1070.0000048327006
 30
0.0
 40
49.999995167300114
100
AcDbArc
 50
90.944621105131688
 51
43.494723541342523
  0
POLYLINE
  5
144
100
AcDbEntity
  8
OBJECT
  6
CONTINUOUS
 62
               0
100
AcDb2dPolyline
 66
               1
 10
0.0
 20
0.0
 30
0.0
 70
               1
 75
               5
  0
VERTEX
  5
145
100
AcDbEntity
  8
OBJECT
  6
CONTINUOUS
 62
               0
100
AcDbVertex
100
AcDb2dVertex
 10
-1215.0
 20
-999.0000048327006
 30
0.0
  0
VERTEX
  5
146
100
AcDbEntity
  8
OBJECT
  6
CONTINUOUS
 62
               0
100
AcDbVertex
100
AcDb2dVertex
 10
-597.0
 20
-999.0000048327006
 30
0.0
  0
VERTEX
  5
147
100
AcDbEntity
  8
OBJECT
  6
CONTINUOUS
 62
               0
100
AcDbVertex
100
AcDb2dVertex
 10
-597.0
 20
-1001.0000048327006
 30
0.0
  0
VERTEX
  5
148
100
AcDbEntity
  8
OBJECT
  6
CONTINUOUS
 62
               0
100
AcDbVertex
100
AcDb2dVertex
 10
-1215.0
 20
-1001.0000048327006
 30
0.0
  0
SEQEND
  5
149
100
AcDbEntity
  8
OBJECT
  6
CONTINUOUS
 62
               0
  0
LINE
  5
14A
100
AcDbEntity
  8
OBJECT
  6
CONTINUOUS
 62
               0
100
AcDbLine
 10
-575.0
 20
-964.0000048327006
 30
0.0
 11
-575.0
 21
-300.0000048327006
 31
0.0
  0
INSERT
  5
14B
100
AcDbEntity
  8
OBJECT
 62
               0
100
AcDbBlockReference
  2
*U16
 10
0.0
 20
0.0
 30
0.0
  0
INSERT
  5
14C
100
AcDbEntity
  8
OBJECT
 62
               0
100
AcDbBlockReference
  2
*U17
 10
0.0
 20
0.0
 30
0.0
  0
LINE
  5
14D
100
AcDbEntity
  8
HIDDEN
  6
STYLE_16
 62
               0
100
AcDbLine
 10
-989.0
 20
-999.0000048327006
 30
0.0
 11
-989.0
 21
-944.0000048327006
 31
0.0
  0
LINE
  5
14E
100
AcDbEntity
  8
HIDDEN
  6
STYLE_16
 62
               0
100
AcDbLine
 10
-759.0
 20
-944.0000048327006
 30
0.0
 11
-759.0
 21
-999.0000048327006
 31
0.0
  0
LINE
  5
14F
100
AcDbEntity
  8
HIDDEN
  6
STYLE_16
 62
               0
100
AcDbLine
 10
-989.0
 20
-944.0000048327006
 30
0.0
 11
-759.0
 21
-944.0000048327006
 31
0.0
  0
LINE
  5
150
100
AcDbEntity
  8
HIDDEN
  6
STYLE_16
 62
               0
100
AcDbLine
 10
-759.0
 20
-964.0000048327006
 30
0.0
 11
-989.0
 21
-964.0000048327006
 31
0.0
  0
POLYLINE
  5
151
100
AcDbEntity
  8
OBJECT
  6
CONTINUOUS
 62
               0
100
AcDb2dPolyline
 66
               1
 10
0.0
 20
0.0
 30
0.0
 75
               5
  0
VERTEX
  5
152
100
AcDbEntity
  8
OBJECT
  6
CONTINUOUS
 62
               0
100
AcDbVertex
100
AcDb2dVertex
 10
-1255.0
 20
-994.07750483270047
 30
0.0
  0
VERTEX
  5
153
100
AcDbEntity
  8
OBJECT
  6
CONTINUOUS
 62
               0
100
AcDbVertex
100
AcDb2dVertex
 10
-1255.0
 20
-999.0000048327006
 30
0.0
  0
VERTEX
  5
154
100
AcDbEntity
  8
OBJECT
  6
CONTINUOUS
 62
               0
100
AcDbVertex
100
AcDb2dVertex
 10
-1155.0
 20
-999.0000048327006
 30
0.0
  0
VERTEX
  5
155
100
AcDbEntity
  8
OBJECT
  6
CONTINUOUS
 62
               0
100
AcDbVertex
100
AcDb2dVertex
 10
-1155.0
 20
-300.0000048327006
 30
0.0
  0
VERTEX
  5
156
100
AcDbEntity
  8
OBJECT
  6
CONTINUOUS
 62
               0
100
AcDbVertex
100
AcDb2dVertex
 10
-1255.0
 20
-300.0000048327006
 30
0.0
  0
VERTEX
  5
157
100
AcDbEntity
  8
OBJECT
  6
CONTINUOUS
 62
               0
100
AcDbVertex
100
AcDb2dVertex
 10
-1255.0
 20
-964.54230483270067
 30
0.0
  0
SEQEND
  5
158
100
AcDbEntity
  8
OBJECT
  6
CONTINUOUS
 62
               0
  0
LINE
  5
159
100
AcDbEntity
  8
OBJECT
  6
CONTINUOUS
 62
               0
100
AcDbLine
 10
-1155.0
 20
-300.0000048327006
 30
0.0
 11
-577.5
 21
-300.0000048327006
 31
0.0
  0
LINE
  5
15A
100
AcDbEntity
  8
OBJECT
  6
CONTINUOUS
 62
               0
100
AcDbLine
 10
-1182.0
 20
-253.0000048327006
 30
0.0
 11
-583.0
 21
-253.0000048327006
 31
0.0
  0
LINE
  5
15B
100
AcDbEntity
  8
OBJECT
  6
CONTINUOUS
 62
               0
100
AcDbLine
 10
-580.0
 20
-290.0000048327006
 30
0.0
 11
-1205.0
 21
-290.0000048327006
 31
0.0
  0
LINE
  5
15C
100
AcDbEntity
  8
OBJECT
  6
CONTINUOUS
 62
               0
100
AcDbLine
 10
-577.5
 20
-290.0000048327006
 30
0.0
 11
-577.5
 21
-300.0000048327006
 31
0.0
  0
LINE
  5
15D
100
AcDbEntity
  8
OBJECT
  6
CONTINUOUS
 62
               0
100
AcDbLine
 10
-580.0
 20
-256.0000048327006
 30
0.0
 11
-580.0
 21
-290.0000048327006
 31
0.0
  0
LINE
  5
15E
100
AcDbEntity
  8
OBJECT
  6
CONTINUOUS
 62
               0
100
AcDbLine
 10
-1205.0
 20
-256.0000048327006
 30
0.0
 11
-1205.0
 21
-290.0000048327006
 31
0.0
  0
ARC
  5
15F
100
AcDbEntity
  8
OBJECT
  6
CONTINUOUS
 62
               0
100
AcDbCircle
 10
-583.0
 20
-256.0000048327006
 30
0.0
 40
3.0
100
AcDbArc
 50
0.0
 51
90.0
  0
ARC
  5
160
100
AcDbEntity
  8
OBJECT
  6
CONTINUOUS
 62
               0
100
AcDbCircle
 10
-1202.0
 20
-256.0000048327006
 30
0.0
 40
3.0
100
AcDbArc
 50
90.0
 51
180.0
  0
LINE
  5
161
100
AcDbEntity
  8
OBJECT
  6
CONTINUOUS
 62
               0
100
AcDbLine
 10
-602.5
 20
-250.0000048327006
 30
0.0
 11
-1141.5
 21
-250.0000048327006
 31
0.0
  0
ARC
  5
162
100
AcDbEntity
  8
OBJECT
  6
CONTINUOUS
 62
               0
100
AcDbCircle
 10
-602.5
 20
-253.0000048327006
 30
0.0
 40
3.0
100
AcDbArc
 50
0.0
 51
90.0
  0
ARC
  5
163
100
AcDbEntity
  8
OBJECT
  6
CONTINUOUS
 62
               0
100
AcDbCircle
 10
-1141.5
 20
-253.0000048327006
 30
0.0
 40
3.0
100
AcDbArc
 50
90.0
 51
180.0
  0
POLYLINE
  5
164
100
AcDbEntity
  8
OBJECT
  6
CONTINUOUS
 62
               0
100
AcDb2dPolyline
 66
               1
 10
0.0
 20
0.0
 30
0.0
 70
               1
 75
               5
  0
VERTEX
  5
165
100
AcDbEntity
  8
OBJECT
  6
CONTINUOUS
 62
               0
100
AcDbVertex
100
AcDb2dVertex
 10
-1154.5
 20
-251.0000048327006
 30
0.0
  0
VERTEX
  5
166
100
AcDbEntity
  8
OBJECT
  6
CONTINUOUS
 62
               0
100
AcDbVertex
100
AcDb2dVertex
 10
-1154.5
 20
-253.0000048327006
 30
0.0
  0
VERTEX
  5
167
100
AcDbEntity
  8
OBJECT
  6
CONTINUOUS
 62
               0
100
AcDbVertex
100
AcDb2dVertex
 10
-1253.0
 20
-253.0000048327006
 30
0.0
  0
VERTEX
  5
168
100
AcDbEntity
  8
OBJECT
  6
CONTINUOUS
 62
               0
100
AcDbVertex
100
AcDb2dVertex
 10
-1253.0
 20
-300.0000048327006
 30
0.0
  0
VERTEX
  5
169
100
AcDbEntity
  8
OBJECT
  6
CONTINUOUS
 62
               0
100
AcDbVertex
100
AcDb2dVertex
 10
-1255.0
 20
-300.0000048327006
 30
0.0
  0
VERTEX
  5
16A
100
AcDbEntity
  8
OBJECT
  6
CONTINUOUS
 62
               0
100
AcDbVertex
100
AcDb2dVertex
 10
-1255.0
 20
-251.0000048327006
 30
0.0
  0
SEQEND
  5
16B
100
AcDbEntity
  8
OBJECT
  6
CONTINUOUS
 62
               0
  0
POLYLINE
  5
16C
100
AcDbEntity
  8
OBJECT
  6
CONTINUOUS
 62
               0
100
AcDb2dPolyline
 66
               1
 10
0.0
 20
0.0
 30
0.0
 70
               1
 75
               5
  0
VERTEX
  5
16D
100
AcDbEntity
  8
OBJECT
  6
CONTINUOUS
 62
               0
100
AcDbVertex
100
AcDb2dVertex
 10
-531.71240000000034
 20
-428.0000048327006
 30
0.0
  0
VERTEX
  5
16E
100
AcDbEntity
  8
OBJECT
  6
CONTINUOUS
 62
               0
100
AcDbVertex
100
AcDb2dVertex
 10
-544.71240000000034
 20
-428.0000048327006
 30
0.0
  0
VERTEX
  5
16F
100
AcDbEntity
  8
OBJECT
  6
CONTINUOUS
 62
               0
100
AcDbVertex
100
AcDb2dVertex
 10
-544.71240000000034
 20
-472.0000048327006
 30
0.0
  0
VERTEX
  5
170
100
AcDbEntity
  8
OBJECT
  6
CONTINUOUS
 62
               0
100
AcDbVertex
100
AcDb2dVertex
 10
-531.71240000000034
 20
-472.0000048327006
 30
0.0
  0
SEQEND
  5
171
100
AcDbEntity
  8
OBJECT
  6
CONTINUOUS
 62
               0
  0
LWPOLYLINE
  5
172
100
AcDbEntity
  8
OBJECT
  6
CONTINUOUS
 62
               0
100
AcDbPolyline
 90
        6
 70
             129
 10
-487.71240000000034
 20
-563.5000048327006
 10
-487.71240000000034
 20
-593.5000048327006
 10
-512.71240000000034
 20
-593.5000048327006
 42
-0.414213562373095
 10
-522.71240000000034
 20
-583.5000048327006
 10
-522.71240000000034
 20
-573.5000048327006
 42
-0.414213562373095
 10
-512.71240000000034
 20
-563.5000048327006
  0
POLYLINE
  5
173
100
AcDbEntity
  8
OBJECT
  6
CONTINUOUS
 62
               0
100
AcDb2dPolyline
 66
               1
 10
0.0
 20
0.0
 30
0.0
 70
               1
 75
               5
  0
VERTEX
  5
174
100
AcDbEntity
  8
OBJECT
  6
CONTINUOUS
 62
               0
100
AcDbVertex
100
AcDb2dVertex
 10
-466.71240000000034
 20
-567.0000048327006
 30
0.0
  0
VERTEX
  5
175
100
AcDbEntity
  8
OBJECT
  6
CONTINUOUS
 62
               0
100
AcDbVertex
100
AcDb2dVertex
 10
-466.71240000000034
 20
-570.0000048327006
 30
0.0
  0
VERTEX
  5
176
100
AcDbEntity
  8
OBJECT
  6
CONTINUOUS
 62
               0
100
AcDbVertex
100
AcDb2dVertex
 10
-487.71240000000034
 20
-570.0000048327006
 30
0.0
  0
VERTEX
  5
177
100
AcDbEntity
  8
OBJECT
  6
CONTINUOUS
 62
               0
100
AcDbVertex
100
AcDb2dVertex
 10
-487.71240000000034
 20
-567.0000048327006
 30
0.0
  0
SEQEND
  5
178
100
AcDbEntity
  8
OBJECT
  6
CONTINUOUS
 62
               0
  0
POLYLINE
  5
179
100
AcDbEntity
  8
OBJECT
  6
CONTINUOUS
 62
               0
100
AcDb2dPolyline
 66
               1
 10
0.0
 20
0.0
 30
0.0
 70
               1
 75
               5
  0
VERTEX
  5
17A
100
AcDbEntity
  8
OBJECT
  6
CONTINUOUS
 62
               0
100
AcDbVertex
100
AcDb2dVertex
 10
-466.71240000000034
 20
-587.0000048327006
 30
0.0
  0
VERTEX
  5
17B
100
AcDbEntity
  8
OBJECT
  6
CONTINUOUS
 62
               0
100
AcDbVertex
100
AcDb2dVertex
 10
-466.71240000000034
 20
-590.0000048327006
 30
0.0
  0
VERTEX
  5
17C
100
AcDbEntity
  8
OBJECT
  6
CONTINUOUS
 62
               0
100
AcDbVertex
100
AcDb2dVertex
 10
-487.71240000000034
 20
-590.0000048327006
 30
0.0
  0
VERTEX
  5
17D
100
AcDbEntity
  8
OBJECT
  6
CONTINUOUS
 62
               0
100
AcDbVertex
100
AcDb2dVertex
 10
-487.71240000000034
 20
-587.0000048327006
 30
0.0
  0
SEQEND
  5
17E
100
AcDbEntity
  8
OBJECT
  6
CONTINUOUS
 62
               0
  0
POLYLINE
  5
17F
100
AcDbEntity
  8
OBJECT
  6
CONTINUOUS
 62
               0
100
AcDb2dPolyline
 66
               1
 10
0.0
 20
0.0
 30
0.0
 75
               5
  0
VERTEX
  5
180
100
AcDbEntity
  8
OBJECT
  6
CONTINUOUS
 62
               0
100
AcDbVertex
100
AcDb2dVertex
 10
-552.04889999999978
 20
-445.0000048327006
 30
0.0
  0
VERTEX
  5
181
100
AcDbEntity
  8
OBJECT
  6
CONTINUOUS
 62
               0
100
AcDbVertex
100
AcDb2dVertex
 10
-544.71240000000034
 20
-445.0000048327006
 30
0.0
  0
VERTEX
  5
182
100
AcDbEntity
  8
OBJECT
  6
CONTINUOUS
 62
               0
100
AcDbVertex
100
AcDb2dVertex
 10
-544.71240000000034
 20
-455.0000048327006
 30
0.0
  0
VERTEX
  5
183
100
AcDbEntity
  8
OBJECT
  6
CONTINUOUS
 62
               0
100
AcDbVertex
100
AcDb2dVertex
 10
-551.8101000000006
 20
-455.0000048327006
 30
0.0
  0
SEQEND
  5
184
100
AcDbEntity
  8
OBJECT
  6
CONTINUOUS
 62
               0
  0
POLYLINE
  5
185
100
AcDbEntity
  8
OBJECT
  6
CONTINUOUS
 62
               0
100
AcDb2dPolyline
 66
               1
 10
0.0
 20
0.0
 30
0.0
 75
               5
  0
VERTEX
  5
186
100
AcDbEntity
  8
OBJECT
  6
CONTINUOUS
 62
               0
100
AcDbVertex
100
AcDb2dVertex
 10
-575.0
 20
-445.0000048327006
 30
0.0
  0
VERTEX
  5
187
100
AcDbEntity
  8
OBJECT
  6
CONTINUOUS
 62
               0
100
AcDbVertex
100
AcDb2dVertex
 10
-562.71240000000034
 20
-445.0000048327006
 30
0.0
  0
VERTEX
  5
188
100
AcDbEntity
  8
OBJECT
  6
CONTINUOUS
 62
               0
100
AcDbVertex
100
AcDb2dVertex
 10
-562.71240000000034
 20
-455.0000048327006
 30
0.0
  0
VERTEX
  5
189
100
AcDbEntity
  8
OBJECT
  6
CONTINUOUS
 62
               0
100
AcDbVertex
100
AcDb2dVertex
 10
-574.60000000000036
 20
-455.0000048327006
 30
0.0
  0
SEQEND
  5
18A
100
AcDbEntity
  8
OBJECT
  6
CONTINUOUS
 62
               0
  0
LWPOLYLINE
  5
18B
100
AcDbEntity
  8
OBJECT
  6
CONTINUOUS
 62
               0
100
AcDbPolyline
 90
        6
 70
             128
 10
-522.69260000000031
 20
-572.86920483270069
 42
-0.3784005756993413
 10
-549.69130000000041
 20
-543.73500483270072
 10
-552.31160000000091
 20
-433.99690483270069
 10
-552.31160000000091
 20
-433.99690483270069
 10
-552.31160000000091
 20
-433.99690483270069
 42
0.1106643221612329
 10
-552.84029999999984
 20
-431.87570483270065
 42
0.1106643221612329
  0
ARC
  5
18C
100
AcDbEntity
  8
OBJECT
  6
CONTINUOUS
 62
               0
100
AcDbCircle
 10
-519.69969999999921
 20
-543.01870483270068
 30
0.0
 40
40.000023694118937
100
AcDbArc
 50
214.37935543850409
 51
265.68053639885522
  0
LINE
  5
18D
100
AcDbEntity
  8
OBJECT
  6
CONTINUOUS
 62
               0
100
AcDbLine
 10
-603.0
 20
-1059.0000048327006
 30
0.0
 11
-603.0
 21
-1011.0000048327006
 31
0.0
  0
LINE
  5
18E
100
AcDbEntity
  8
OBJECT
  6
CONTINUOUS
 62
               0
100
AcDbLine
 10
-651.22500000000036
 20
-1059.0000048327006
 30
0.0
 11
-603.0
 21
-1059.0000048327006
 31
0.0
  0
LINE
  5
18F
100
AcDbEntity
  8
OBJECT
  6
CONTINUOUS
 62
               0
100
AcDbLine
 10
-753.0
 20
-1011.0000048327006
 30
0.0
 11
-753.0
 21
-1059.0000048327006
 31
0.0
  0
LINE
  5
190
100
AcDbEntity
  8
OBJECT
  6
CONTINUOUS
 62
               0
100
AcDbLine
 10
-593.0
 20
-1053.5000048327006
 30
0.0
 11
-593.0
 21
-1011.0000048327006
 31
0.0
  0
LINE
  5
191
100
AcDbEntity
  8
OBJECT
  6
CONTINUOUS
 62
               0
100
AcDbLine
 10
-603.0
 20
-1053.5000048327006
 30
0.0
 11
-593.0
 21
-1053.5000048327006
 31
0.0
  0
LWPOLYLINE
  5
192
100
AcDbEntity
  8
OBJECT
  6
CONTINUOUS
 62
               0
100
AcDbPolyline
 90
       25
 70
             128
 10
-646.5
 20
-1011.0000048327006
 10
-572.71240000000034
 20
-1011.0000048327006
 10
-572.71240000000034
 20
-1011.0000048327006
 10
-572.71240000000034
 20
-1011.0000048327006
 10
-572.71240000000034
 20
-1011.0000048327006
 10
-572.71240000000034
 20
-1011.0000048327006
 10
-572.71240000000034
 20
-1011.0000048327006
 10
-572.71240000000034
 20
-1011.0000048327006
 42
0.414213562373095
 10
-552.71240000000034
 20
-991.0000048327006
 10
-552.71240000000034
 20
-433.0000048327006
 10
-552.71240000000034
 20
-433.0000048327006
 10
-552.71240000000034
 20
-433.0000048327006
 10
-552.71240000000034
 20
-433.0000048327006
 10
-552.71240000000034
 20
-433.0000048327006
 10
-552.71240000000034
 20
-433.0000048327006
 10
-552.71240000000034
 20
-433.0000048327006
 42
0.414213562373095
 10
-557.71240000000034
 20
-428.0000048327006
 10
-557.71240000000034
 20
-428.0000048327006
 10
-557.71240000000034
 20
-428.0000048327006
 10
-557.71240000000034
 20
-428.0000048327006
 10
-557.71240000000034
 20
-428.0000048327006
 10
-557.71240000000034
 20
-428.0000048327006
 10
-557.71240000000034
 20
-428.0000048327006
 42
0.414213562373095
 10
-562.71240000000034
 20
-433.0000048327006
 10
-562.71240000000034
 20
-969.0000048327006
  0
LWPOLYLINE
  5
193
100
AcDbEntity
  8
OBJECT
  6
CONTINUOUS
 62
               0
100
AcDbPolyline
 90
       13
 70
             128
 10
-689.5
 20
-1011.0000048327006
 10
-760.5
 20
-1011.0000048327006
 10
-760.5
 20
-1011.0000048327006
 10
-760.5
 20
-1011.0000048327006
 42
-0.414213562373095
 10
-767.5
 20
-1004.0000048327006
 10
-767.5
 20
-1001.0000048327006
 10
-757.5
 20
-1001.0000048327006
 10
-572.71240000000034
 20
-1001.0000048327006
 10
-572.71240000000034
 20
-1001.0000048327006
 10
-572.71240000000034
 20
-1001.0000048327006
 42
0.414213562373095
 10
-562.71240000000034
 20
-991.0000048327006
 10
-562.71240000000034
 20
-990.97810483270041
 10
-562.71240000000034
 20
-989.0000048327006
  0
LWPOLYLINE
  5
194
100
AcDbEntity
  8
OBJECT
  6
CONTINUOUS
 62
               0
100
AcDbPolyline
 90
       12
 70
             128
 10
-569.1833000000006
 20
-278.0000048327006
 10
-555.0
 20
-278.0000048327006
 10
-555.0
 20
-278.0000048327006
 10
-555.0
 20
-278.0000048327006
 42
0.414213562373095
 10
-550.0
 20
-273.0000048327006
 10
-550.0
 20
-267.0000048327006
 10
-550.0
 20
-267.0000048327006
 10
-550.0
 20
-267.0000048327006
 42
0.414213562373095
 10
-555.0
 20
-262.0000048327006
 10
-580.0
 20
-262.0000048327006
 10
-580.0
 20
-278.0000048327006
 10
-580.0
 20
-278.0000048327006
  0
LINE
  5
195
100
AcDbEntity
  8
OBJECT
  6
CONTINUOUS
 62
               0
100
AcDbLine
 10
-565.5
 20
-292.0000048327006
 30
0.0
 11
-565.5
 21
-332.5000048327006
 31
0.0
  0
LINE
  5
196
100
AcDbEntity
  8
OBJECT
  6
CONTINUOUS
 62
               0
100
AcDbLine
 10
-572.5
 20
-274.5000048327006
 30
0.0
 11
-565.5
 21
-292.0000048327006
 31
0.0
  0
LINE
  5
197
100
AcDbEntity
  8
OBJECT
  6
CONTINUOUS
 62
               0
100
AcDbLine
 10
-568.5
 20
-292.0000048327006
 30
0.0
 11
-568.5
 21
-332.5000048327006
 31
0.0
  0
LINE
  5
198
100
AcDbEntity
  8
OBJECT
  6
CONTINUOUS
 62
               0
100
AcDbLine
 10
-575.5
 20
-275.5000048327006
 30
0.0
 11
-568.5
 21
-292.0000048327006
 31
0.0
  0
ARC
  5
199
100
AcDbEntity
  8
OBJECT
  6
CONTINUOUS
 62
               0
100
AcDbCircle
 10
-567.0
 20
-332.5000048327006
 30
0.0
 40
1.5
100
AcDbArc
 50
270.0
 51
0.0
  0
ARC
  5
19A
100
AcDbEntity
  8
OBJECT
  6
CONTINUOUS
 62
               0
100
AcDbCircle
 10
-567.0
 20
-332.5000048327006
 30
0.0
 40
1.5
100
AcDbArc
 50
180.0
 51
270.0
  0
ARC
  5
19B
100
AcDbEntity
  8
OBJECT
  6
CONTINUOUS
 62
               0
100
AcDbCircle
 10
-573.5
 20
-275.5000048327006
 30
0.0
 40
1.4142135623730951
100
AcDbArc
 50
45.0
 51
195.62430070987477
  0
LWPOLYLINE
  5
19C
100
AcDbEntity
  8
OBJECT
  6
CONTINUOUS
 62
               0
100
AcDbPolyline
 90
        6
 70
             128
 10
-572.05869999999959
 20
-283.61160483270055
 42
-0.2044249814691457
 10
-580.0
 20
-287.0000048327006
 10
-580.0
 20
-261.0000048327006
 10
-577.0
 20
-261.0000048327006
 10
-577.0
 20
-276.0000048327006
 10
-575.28789999999935
 20
-276.0000048327006
  0
LWPOLYLINE
  5
19D
100
AcDbEntity
  8
OBJECT
  6
CONTINUOUS
 62
               0
100
AcDbPolyline
 90
        7
 70
             128
 10
-570.03590000000077
 20
-280.66020483270063
 10
-570.03591959889854
 20
-280.66024673790253
 42
0.1098061926789454
 10
-569.0
 20
-276.00008560759966
 10
-569.0
 20
-276.0000048327006
 10
-569.0
 20
-270.0000048327006
 10
-572.0
 20
-270.0000048327006
 10
-572.0
 20
-275.7500048327006
  0
LINE
  5
19E
100
AcDbEntity
  8
OBJECT
  6
CONTINUOUS
 62
               0
100
AcDbLine
 10
-561.0
 20
-313.0000048327006
 30
0.0
 11
-565.5
 21
-313.0000048327006
 31
0.0
  0
LINE
  5
19F
100
AcDbEntity
  8
OBJECT
  6
CONTINUOUS
 62
               0
100
AcDbLine
 10
-561.0
 20
-368.0000048327006
 30
0.0
 11
-561.0
 21
-313.0000048327006
 31
0.0
  0
LINE
  5
1A0
100
AcDbEntity
  8
OBJECT
  6
CONTINUOUS
 62
               0
100
AcDbLine
 10
-564.5
 20
-368.0000048327006
 30
0.0
 11
-561.0
 21
-368.0000048327006
 31
0.0
  0
LINE
  5
1A1
100
AcDbEntity
  8
OBJECT
  6
CONTINUOUS
 62
               0
100
AcDbLine
 10
-564.5
 20
-353.0000048327006
 30
0.0
 11
-564.5
 21
-368.0000048327006
 31
0.0
  0
LINE
  5
1A2
100
AcDbEntity
  8
OBJECT
  6
CONTINUOUS
 62
               0
100
AcDbLine
 10
-568.5
 20
-313.0000048327006
 30
0.0
 11
-575.0
 21
-313.0000048327006
 31
0.0
  0
LINE
  5
1A3
100
AcDbEntity
  8
OBJECT
  6
CONTINUOUS
 62
               0
100
AcDbLine
 10
-575.0
 20
-353.0000048327006
 30
0.0
 11
-564.5
 21
-353.0000048327006
 31
0.0
  0
LWPOLYLINE
  5
1A4
100
AcDbEntity
  8
OBJECT
  6
CONTINUOUS
 62
               0
100
AcDbPolyline
 90
        6
 70
             129
 10
-585.0
 20
-600.0000048327006
 10
-640.0
 20
-600.0000048327006
 42
0.414213562373095
 10
-645.0
 20
-605.0000048327006
 10
-645.0
 20
-655.0000048327006
 42
0.414213562373095
 10
-640.0
 20
-660.0000048327006
 10
-585.0
 20
-660.0000048327006
  0
LINE
  5
1A5
100
AcDbEntity
  8
OBJECT
  6
CONTINUOUS
 62
               0
100
AcDbLine
 10
-605.0
 20
-600.0000048327006
 30
0.0
 11
-605.0
 21
-660.0000048327006
 31
0.0
  0
CIRCLE
  5
1A6
100
AcDbEntity
  8
OBJECT
  6
CONTINUOUS
 62
               0
100
AcDbCircle
 10
-595.0
 20
-610.0000048327006
 30
0.0
 40
6.0
  0
CIRCLE
  5
1A7
100
AcDbEntity
  8
OBJECT
  6
CONTINUOUS
 62
               0
100
AcDbCircle
 10
-595.0
 20
-650.0000048327006
 30
0.0
 40
6.0
  0
LINE
  5
1A8
100
AcDbEntity
  8
OBJECT
  6
CONTINUOUS
 62
               0
100
AcDbLine
 10
-635.0
 20
-600.0000048327006
 30
0.0
 11
-635.0
 21
-660.0000048327006
 31
0.0
  0
LWPOLYLINE
  5
1A9
100
AcDbEntity
  8
OBJECT
  6
CONTINUOUS
 62
               0
100
AcDbPolyline
 90
        6
 70
             129
 10
-1145.0
 20
-660.0000048327006
 10
-1090.0
 20
-660.0000048327006
 42
0.414213562373095
 10
-1085.0
 20
-655.0000048327006
 10
-1085.0
 20
-605.0000048327006
 42
0.414213562373095
 10
-1090.0
 20
-600.0000048327006
 10
-1145.0
 20
-600.0000048327006
  0
LINE
  5
1AA
100
AcDbEntity
  8
OBJECT
  6
CONTINUOUS
 62
               0
100
AcDbLine
 10
-1125.0
 20
-660.0000048327006
 30
0.0
 11
-1125.0
 21
-600.0000048327006
 31
0.0
  0
CIRCLE
  5
1AB
100
AcDbEntity
  8
OBJECT
  6
CONTINUOUS
 62
               0
100
AcDbCircle
 10
-1135.0
 20
-650.0000048327006
 30
0.0
 40
6.0
  0
CIRCLE
  5
1AC
100
AcDbEntity
  8
OBJECT
  6
CONTINUOUS
 62
               0
100
AcDbCircle
 10
-1135.0
 20
-610.0000048327006
 30
0.0
 40
6.0
  0
LINE
  5
1AD
100
AcDbEntity
  8
OBJECT
  6
CONTINUOUS
 62
               0
100
AcDbLine
 10
-1095.0
 20
-660.0000048327006
 30
0.0
 11
-1095.0
 21
-600.0000048327006
 31
0.0
  0
LWPOLYLINE
  5
1AE
100
AcDbEntity
  8
OBJECT
  6
CONTINUOUS
 62
               0
100
AcDbPolyline
 90
        6
 70
             129
 10
-835.0
 20
-880.0000048327006
 10
-835.0
 20
-825.0000048327006
 42
0.414213562373095
 10
-840.0
 20
-820.0000048327006
 10
-890.0
 20
-820.0000048327006
 42
0.414213562373095
 10
-895.0
 20
-825.0000048327006
 10
-895.0
 20
-880.0000048327006
  0
LINE
  5
1AF
100
AcDbEntity
  8
OBJECT
  6
CONTINUOUS
 62
               0
100
AcDbLine
 10
-835.0
 20
-860.0000048327006
 30
0.0
 11
-895.0
 21
-860.0000048327006
 31
0.0
  0
CIRCLE
  5
1B0
100
AcDbEntity
  8
OBJECT
  6
CONTINUOUS
 62
               0
100
AcDbCircle
 10
-845.0
 20
-870.0000048327006
 30
0.0
 40
6.0
  0
CIRCLE
  5
1B1
100
AcDbEntity
  8
OBJECT
  6
CONTINUOUS
 62
               0
100
AcDbCircle
 10
-885.0
 20
-870.0000048327006
 30
0.0
 40
6.0
  0
LINE
  5
1B2
100
AcDbEntity
  8
OBJECT
  6
CONTINUOUS
 62
               0
100
AcDbLine
 10
-835.0
 20
-830.0000048327006
 30
0.0
 11
-895.0
 21
-830.0000048327006
 31
0.0
  0
INSERT
  5
1B3
100
AcDbEntity
  8
OUTLINE
 62
               0
100
AcDbBlockReference
  2
*U18
 10
0.0
 20
0.0
 30
0.0
  0
ENDBLK
  5
1B4
100
AcDbEntity
  8
OBJECT
100
AcDbBlockEnd
  0
BLOCK
  5
1B5
100
AcDbEntity
  8
DIMENTION
100
AcDbBlockBegin
  2
*D20
 70
               1
 10
0.0
 20
0.0
 30
0.0
  3
*D20
  1

  0
LINE
  5
1B6
100
AcDbEntity
  8
DIMENTION
 62
               0
100
AcDbLine
 10
-1030.5713585909325
 20
384.2232348311544
 30
0.0
 11
-1420.0
 21
384.2232348311544
 31
0.0
  0
LINE
  5
1B7
100
AcDbEntity
  8
DIMENTION
 62
               0
100
AcDbLine
 10
-1400.0
 20
384.2232348311544
 30
0.0
 11
-1400.0
 21
-1100.0000048327006
 31
0.0
  0
LINE
  5
1B8
100
AcDbEntity
  8
DIMENTION
 62
               0
100
AcDbLine
 10
-1400.0
 20
384.2232348311544
 30
0.0
 11
-1391.492613140312
 21
352.4732348311544
 31
0.0
  0
LINE
  5
1B9
100
AcDbEntity
  8
DIMENTION
 62
               0
100
AcDbLine
 10
-1400.0
 20
384.2232348311544
 30
0.0
 11
-1408.507386859688
 21
352.4732348311544
 31
0.0
  0
LINE
  5
1BA
100
AcDbEntity
  8
DIMENTION
 62
               0
100
AcDbLine
 10
-1400.0
 20
-1100.0000048327006
 30
0.0
 11
-1408.507386859688
 21
-1068.2500048327006
 31
0.0
  0
LINE
  5
1BB
100
AcDbEntity
  8
DIMENTION
 62
               0
100
AcDbLine
 10
-1400.0
 20
-1100.0000048327006
 30
0.0
 11
-1391.492613140312
 21
-1068.2500048327006
 31
0.0
  0
MTEXT
  5
1BC
100
AcDbEntity
  8
DIMENTION
 62
               0
100
AcDbMText
 10
-1443.333333329608
 20
-400.22171833410647
 30
0.0
 40
33.866666666666667
 41
0.0
 71
               1
 72
               1
  1
1490
  7
________
 11
0.0
 21
1.0
 31
0.0
  0
POINT
  5
1BD
100
AcDbEntity
  8
DEFPOINTS
 62
               0
100
AcDbPoint
 10
-1400.0
 20
-1100.0000048327006
 30
0.0
  0
POINT
  5
1BE
100
AcDbEntity
  8
DEFPOINTS
 62
               0
100
AcDbPoint
 10
-1020.5713585909325
 20
384.2232348311544
 30
0.0
  0
POINT
  5
1BF
100
AcDbEntity
  8
DEFPOINTS
 62
               0
100
AcDbPoint
 10
-1400.0
 20
384.2232348311544
 30
0.0
  0
ENDBLK
  5
1C0
100
AcDbEntity
  8
DIMENTION
100
AcDbBlockEnd
  0
BLOCK
  5
1C1
100
AcDbEntity
  8
DIMENTION
100
AcDbBlockBegin
  2
*D21
 70
               1
 10
0.0
 20
0.0
 30
0.0
  3
*D21
  1

  0
LINE
  5
1C2
100
AcDbEntity
  8
DIMENTION
 62
               0
100
AcDbLine
 10
1002.0
 20
-230.0000048327006
 30
0.0
 11
1120.0
 21
-230.0000048327006
 31
0.0
  0
LINE
  5
1C3
100
AcDbEntity
  8
DIMENTION
 62
               0
100
AcDbLine
 10
1100.0
 20
-230.0000048327006
 30
0.0
 11
1100.0
 21
-1100.0000048327006
 31
0.0
  0
LINE
  5
1C4
100
AcDbEntity
  8
DIMENTION
 62
               0
100
AcDbLine
 10
1100.0
 20
-230.0000048327006
 30
0.0
 11
1108.507386859688
 21
-261.7500048327006
 31
0.0
  0
LINE
  5
1C5
100
AcDbEntity
  8
DIMENTION
 62
               0
100
AcDbLine
 10
1100.0
 20
-230.0000048327006
 30
0.0
 11
1091.492613140312
 21
-261.7500048327006
 31
0.0
  0
LINE
  5
1C6
100
AcDbEntity
  8
DIMENTION
 62
               0
100
AcDbLine
 10
1100.0
 20
-1100.0000048327006
 30
0.0
 11
1091.492613140312
 21
-1068.2500048327006
 31
0.0
  0
LINE
  5
1C7
100
AcDbEntity
  8
DIMENTION
 62
               0
100
AcDbLine
 10
1100.0
 20
-1100.0000048327006
 30
0.0
 11
1108.507386859688
 21
-1068.2500048327006
 31
0.0
  0
MTEXT
  5
1C8
100
AcDbEntity
  8
DIMENTION
 62
               0
100
AcDbMText
 10
1056.6666666703918
 20
-696.7500048327006
 30
0.0
 40
33.866666666666667
 41
0.0
 71
               1
 72
               1
  1
870
  7
________
 11
0.0
 21
1.0
 31
0.0
  0
POINT
  5
1C9
100
AcDbEntity
  8
DEFPOINTS
 62
               0
100
AcDbPoint
 10
992.0
 20
-1100.0000048327006
 30
0.0
  0
POINT
  5
1CA
100
AcDbEntity
  8
DEFPOINTS
 62
               0
100
AcDbPoint
 10
992.0
 20
-230.0000048327006
 30
0.0
  0
POINT
  5
1CB
100
AcDbEntity
  8
DEFPOINTS
 62
               0
100
AcDbPoint
 10
1100.0
 20
-230.0000048327006
 30
0.0
  0
ENDBLK
  5
1CC
100
AcDbEntity
  8
DIMENTION
100
AcDbBlockEnd
  0
ENDSEC
  0
SECTION
  2
ENTITIES
  0
LINE
  5
1CD
100
AcDbEntity
  8
FRAME
  6
CONTINUOUS
100
AcDbLine
 10
-2025.3999999999999
 20
-1388.9999999999998
 30
0.0
 11
-2025.3999999999999
 21
1330.9999999999998
 31
0.0
  0
LINE
  5
1CE
100
AcDbEntity
  8
FRAME
  6
CONTINUOUS
100
AcDbLine
 10
2024.5999999999999
 20
-1388.9999999999998
 30
0.0
 11
-2025.3999999999999
 21
-1388.9999999999998
 31
0.0
  0
LINE
  5
1CF
100
AcDbEntity
  8
FRAME
  6
CONTINUOUS
100
AcDbLine
 10
2024.5999999999999
 20
1330.9999999999998
 30
0.0
 11
2024.5999999999999
 21
-1388.9999999999998
 31
0.0
  0
LINE
  5
1D0
100
AcDbEntity
  8
FRAME
  6
CONTINUOUS
100
AcDbLine
 10
-2025.3999999999999
 20
1330.9999999999998
 30
0.0
 11
2024.5999999999999
 21
1330.9999999999998
 31
0.0
  0
LINE
  5
1D1
100
AcDbEntity
  8
OBJECT
  6
CONTINUOUS
100
AcDbLine
 10
1264.3599999999999
 20
-1388.9999999999998
 30
0.0
 11
1264.3599999999999
 21
-1249.0
 31
0.0
  0
LINE
  5
1D2
100
AcDbEntity
  8
OBJECT
  6
CONTINUOUS
100
AcDbLine
 10
1044.3599999999999
 20
-1388.9999999999998
 30
0.0
 11
1044.3599999999999
 21
-1249.0
 31
0.0
  0
LINE
  5
1D3
100
AcDbEntity
  8
OBJECT
  6
CONTINUOUS
100
AcDbLine
 10
444.35999999999996
 20
-1388.9999999999998
 30
0.0
 11
444.35999999999996
 21
-1249.0
 31
0.0
  0
LINE
  5
1D4
100
AcDbEntity
  8
OBJECT
  6
CONTINUOUS
100
AcDbLine
 10
-675.39999999999998
 20
-1388.9999999999998
 30
0.0
 11
-675.39999999999998
 21
-1249.0
 31
0.0
  0
MTEXT
  5
1D5
100
AcDbEntity
  8
DIMENTION
100
AcDbMText
 10
-650.63999999999999
 20
-1254.1299999999999
 30
0.0
 40
28.2224
 41
109.36099999999999
 71
               1
 72
               1
  1
品　名
  7
________
  0
MTEXT
  5
1D6
100
AcDbEntity
  8
DIMENTION
100
AcDbMText
 10
464.35999999999996
 20
-1259.1299999999999
 30
0.0
 40
28.2224
 41
0.0
 71
               1
 72
               1
  1
形　式
  7
________
  0
MTEXT
  5
1D7
100
AcDbEntity
  8
DIMENTION
100
AcDbMText
 10
1069.3599999999999
 20
-1259.1299999999999
 30
0.0
 40
28.2224
 41
0.0
 71
               1
 72
               1
  1
尺　度
  7
________
  0
MTEXT
  5
1D8
100
AcDbEntity
  8
DIMENTION
100
AcDbMText
 10
1289.3599999999999
 20
-1259.1299999999999
 30
0.0
 40
28.2224
 41
0.0
 71
               1
 72
               1
  1
図　番
  7
________
  0
LINE
  5
1D9
100
AcDbEntity
  8
OBJECT
  6
CONTINUOUS
100
AcDbLine
 10
-1095.3999999999999
 20
-1388.9999999999998
 30
0.0
 11
-1095.3999999999999
 21
-1249.0
 31
0.0
  0
MTEXT
  5
1DA
100
AcDbEntity
  8
TEXT
100
AcDbMText
 10
1115.3119999999999
 20
-1314.0139999999999
 30
0.0
 40
39.511200000000002
 41
0.0
 71
               1
 72
               1
  1
1/10
  7
________
  0
LINE
  5
1DB
100
AcDbEntity
  8
FRAME
  6
CONTINUOUS
100
AcDbLine
 10
-2025.3999999999999
 20
-1249.0
 30
0.0
 11
2024.5999999999999
 21
-1249.0
 31
0.0
  0
MTEXT
  5
1DC
100
AcDbEntity
  8
DIMENTION
100
AcDbMText
 10
-1085.6399999999999
 20
-1257.1088
 30
0.0
 40
28.2224
 41
0.0
 71
               1
 72
               1
  1
検  図
  7
________
  0
MTEXT
  5
1DD
100
AcDbEntity
  8
DIMENTION
100
AcDbMText
 10
-1085.6399999999999
 20
-1302.1899999999998
 30
0.0
 40
28.2224
 41
0.0
 71
               1
 72
               1
  1
担  当
  7
________
  0
MTEXT
  5
1DE
100
AcDbEntity
  8
DIMENTION
100
AcDbMText
 10
-1085.6399999999999
 20
-1347.0599999999999
 30
0.0
 40
28.2224
 41
0.0
 71
               1
 72
               1
  1
年月日
  7
________
  0
LINE
  5
1DF
100
AcDbEntity
  8
OBJECT
  6
CONTINUOUS
100
AcDbLine
 10
-1095.3999999999999
 20
-1297.9399999999998
 30
0.0
 11
-675.39999999999998
 21
-1297.9399999999998
 31
0.0
  0
LINE
  5
1E0
100
AcDbEntity
  8
OBJECT
  6
CONTINUOUS
100
AcDbLine
 10
-1095.3999999999999
 20
-1342.3299999999999
 30
0.0
 11
-675.39999999999998
 21
-1342.3299999999999
 31
0.0
  0
MTEXT
  5
1E1
100
AcDbEntity
  8
TEXT
100
AcDbMText
 10
-930.0
 20
-1350.0
 30
0.0
 40
28.222222222222225
 41
0.0
 71
               1
 72
               1
  1
2019.09.26
  7
________
  0
MTEXT
  5
1E2
100
AcDbEntity
  8
TEXT
100
AcDbMText
 10
-930.0
 20
-1302.0
 30
0.0
 40
28.222222222222225
 41
0.0
 71
               1
 72
               1
  1
月川
  7
________
  0
MTEXT
  5
1E3
100
AcDbEntity
  8
TEXT
100
AcDbMText
 10
-930.0
 20
-1258.0
 30
0.0
 40
28.222222222222225
 41
0.0
 71
               1
 72
               1
  1
大谷
  7
________
  0
MTEXT
  5
1E4
100
AcDbEntity
  8
TEXT
100
AcDbMText
 10
744.36000000000013
 20
-1339.7293
 30
0.0
 40
50.800000000000004
 41
0.0
 71
               5
 72
               1
  1
RCK 60
  7
________
  0
MTEXT
  5
1E5
100
AcDbEntity
  8
TEXT
100
AcDbMText
 10
1429.9999999999995
 20
-1270.0
 30
0.0
 40
79.02222222222224
 41
0.0
 71
               1
 72
               1
  1
A330-082B
  7
ARIAL
  0
INSERT
  5
1E6
100
AcDbEntity
  8
FRAME
100
AcDbBlockReference
  2
*U6
 10
0.0
 20
19.999999999999996
 30
0.0
  0
POLYLINE
  5
1E7
100
AcDbEntity
  8
OBJECT
  6
CONTINUOUS
100
AcDb2dPolyline
 66
               1
 10
0.0
 20
0.0
 30
0.0
 70
               1
 75
               5
  0
VERTEX
  5
1E8
100
AcDbEntity
  8
OBJECT
  6
CONTINUOUS
100
AcDbVertex
100
AcDb2dVertex
 10
-1700.0
 20
1200.0
 30
0.0
  0
VERTEX
  5
1E9
100
AcDbEntity
  8
OBJECT
  6
CONTINUOUS
100
AcDbVertex
100
AcDb2dVertex
 10
-600.0
 20
1200.0
 30
0.0
  0
VERTEX
  5
1EA
100
AcDbEntity
  8
OBJECT
  6
CONTINUOUS
100
AcDbVertex
100
AcDb2dVertex
 10
-600.0
 20
680.0
 30
0.0
  0
VERTEX
  5
1EB
100
AcDbEntity
  8
OBJECT
  6
CONTINUOUS
100
AcDbVertex
100
AcDb2dVertex
 10
-1700.0
 20
680.0
 30
0.0
  0
SEQEND
  5
1EC
100
AcDbEntity
  8
OBJECT
  6
CONTINUOUS
  0
LINE
  5
1ED
100
AcDbEntity
  8
OBJECT
  6
CONTINUOUS
100
AcDbLine
 10
-1300.0000000000005
 20
1200.0
 30
0.0
 11
-1300.0000000000005
 21
680.0
 31
0.0
  0
MTEXT
  5
1EE
100
AcDbEntity
  8
TEXT
100
AcDbMText
 10
-1700.0
 20
1170.0
 30
0.0
 40
33.866666666666667
 41
399.99999999999955
 71
               4
 72
               1
  1
　形　　　　　　　式
  7
________
  0
LINE
  5
1EF
100
AcDbEntity
  8
OBJECT
100
AcDbLine
 10
-600.0
 20
1140.0
 30
0.0
 11
-1700.0
 21
1140.0
 31
0.0
  0
MTEXT
  5
1F0
100
AcDbEntity
  8
TEXT
100
AcDbMText
 10
-1300.0000000000005
 20
1170.0
 30
0.0
 40
33.866666666666667
 41
700.00000000000045
 71
               4
 72
               1
  1
　RCK60
  7
________
  0
LINE
  5
1F1
100
AcDbEntity
  8
OBJECT
100
AcDbLine
 10
-600.0
 20
1080.0
 30
0.0
 11
-1700.0
 21
1080.0
 31
0.0
  0
MTEXT
  5
1F2
100
AcDbEntity
  8
TEXT
100
AcDbMText
 10
-1700.0
 20
1110.0
 30
0.0
 40
33.866666666666667
 41
399.99999999999955
 71
               4
 72
               1
  1
　用　　　　　　　途
  7
________
  0
MTEXT
  5
1F3
100
AcDbEntity
  8
TEXT
100
AcDbMText
 10
-1300.0
 20
1110.0
 30
0.0
 40
33.866666666666667
 41
700.0
 71
               4
 72
               1
  1
　10リットル炊飯釜収納用（3個）
  7
________
  0
MTEXT
  5
1F4
100
AcDbEntity
  8
TEXT
100
AcDbMText
 10
-1300.0000000000005
 20
970.0
 30
0.0
 40
33.866666666666667
 41
700.00000000000045
 71
               4
 72
               1
  1
　450Wヒーター\P　可変サーモスタット\P　（温度設定範囲：20℃～80℃）\P　ヒューズ
  7
________
  0
MTEXT
  5
1F5
100
AcDbEntity
  8
TEXT
100
AcDbMText
 10
-1700.0
 20
970.0
 30
0.0
 40
33.866666666666667
 41
399.99999999999955
 71
               4
 72
               1
  1
　保 　温　 機　 能
  7
________
  0
MTEXT
  5
1F6
100
AcDbEntity
  8
DIMENTION
100
AcDbMText
 10
-1645.0
 20
550.0
 30
0.0
 40
33.866666666666667
 41
1160.0
 71
               1
 72
               1
  1
炊飯メーカーにより、炊飯釜の形状が異なります。\P各社メーカーで、釜の積み重ねに専用の木蓋が必要になります。
  7
________
  0
MTEXT
  5
1F7
100
AcDbEntity
  8
DIMENTION
100
AcDbMText
 10
-1700.0
 20
550.0
 30
0.0
 40
33.866666666666667
 41
50.0
 71
               1
 72
               1
  1
※
  7
________
  0
MTEXT
  5
1F8
100
AcDbEntity
  8
DIMENTION
100
AcDbMText
 10
1300.0
 20
-1100.0
 30
0.0
 40
33.866666666666667
 41
0.0
 71
               1
 72
               1
  1
注）指示なき寸法公差は±5とする
  7
________
  0
LINE
  5
1F9
100
AcDbEntity
  8
FRAME
  6
CONTINUOUS
100
AcDbLine
 10
-400.0
 20
-1100.0000048327006
 30
0.0
 11
-1500.0
 21
-1100.0000048327006
 31
0.0
  0
LINE
  5
1FA
100
AcDbEntity
  8
CENTER
  6
STYLE_13
100
AcDbLine
 10
700.0
 20
-1130.0
 30
0.0
 11
700.0
 21
-170.0
 31
0.0
  0
LINE
  5
1FB
100
AcDbEntity
  8
FRAME
  6
CONTINUOUS
100
AcDbLine
 10
200.0
 20
-1100.0000048327006
 30
0.0
 11
1200.0
 21
-1100.0000048327006
 31
0.0
  0
MTEXT
  5
1FC
100
AcDbEntity
  8
DIMENTION
100
AcDbMText
 10
-80.0
 20
145.0
 30
0.0
 40
33.866666666666667
 41
0.0
 71
               1
 72
               1
  1
450Wヒーターユニット
  7
________
  0
LINE
  5
1FD
100
AcDbEntity
  8
DIMENTION
  6
CONTINUOUS
100
AcDbLine
 10
0.0
 20
-945.0
 30
0.0
 11
-450.0
 21
-945.0
 31
0.0
  0
LINE
  5
1FE
100
AcDbEntity
  8
DIMENTION
  6
CONTINUOUS
100
AcDbLine
 10
-450.0
 20
-945.0
 30
0.0
 11
-653.90089949344781
 21
-1030.6383817288161
 31
0.0
  0
LINE
  5
1FF
100
AcDbEntity
  8
DIMENTION
  6
CONTINUOUS
100
AcDbLine
 10
-653.90089949344781
 20
-1030.6383817288161
 30
0.0
 11
-635.71222666130268
 21
-1016.9322336501584
 31
0.0
  0
LINE
  5
200
100
AcDbEntity
  8
DIMENTION
  6
CONTINUOUS
100
AcDbLine
 10
-653.90089949344781
 20
-1030.6383817288161
 30
0.0
 11
-631.29597272035744
 21
-1027.8628457207399
 31
0.0
  0
MTEXT
  5
201
100
AcDbEntity
  8
DIMENTION
100
AcDbMText
 10
-450.0
 20
-945.86111111111109
 30
0.0
 40
33.866666666666667
 41
474.00900000000001
 71
               4
 72
               1
  1
φ100 ウレタンキャスター\P 2個ストッパー付
  7
________
  0
LINE
  5
202
100
AcDbEntity
  8
DIMENTION
  6
CONTINUOUS
100
AcDbLine
 10
0.0
 20
-995.0
 30
0.0
 11
-450.0
 21
-995.0
 31
0.0
  0
LINE
  5
203
100
AcDbEntity
  8
DIMENTION
  6
CONTINUOUS
100
AcDbLine
 10
-450.0
 20
-995.0
 30
0.0
 11
-450.0
 21
-945.0
 31
0.0
  0
LINE
  5
204
100
AcDbEntity
  8
DIMENTION
  6
CONTINUOUS
100
AcDbLine
 10
-325.0
 20
-450.0
 30
0.0
 11
-450.0
 21
-450.0
 31
0.0
  0
LINE
  5
205
100
AcDbEntity
  8
DIMENTION
  6
CONTINUOUS
100
AcDbLine
 10
-450.0
 20
-450.0
 30
0.0
 11
-585.0
 21
-610.0000048327006
 31
0.0
  0
LINE
  5
206
100
AcDbEntity
  8
DIMENTION
  6
CONTINUOUS
100
AcDbLine
 10
-585.0
 20
-610.0000048327006
 30
0.0
 11
-575.01623485596497
 21
-589.53025280446013
 31
0.0
  0
LINE
  5
207
100
AcDbEntity
  8
DIMENTION
  6
CONTINUOUS
100
AcDbLine
 10
-585.0
 20
-610.0000048327006
 30
0.0
 11
-566.11892974572777
 21
-597.26456213909387
 31
0.0
  0
MTEXT
  5
208
100
AcDbEntity
  8
DIMENTION
100
AcDbMText
 10
-450.0
 20
-405.0
 30
0.0
 40
33.866666666666667
 41
159.97959999999998
 71
               1
 72
               1
  1
蓋掛け
  7
________
  0
DIMENSION
  5
209
100
AcDbEntity
  8
DIMENTION
  6
CONTINUOUS
100
AcDbDimension
  2
*D7
 10
300.0
 20
-280.0000048327006
 30
0.0
 11
300.0
 21
-690.0000048327006
 31
0.0
  3
CAD
100
AcDbAlignedDimension
 13
335.0
 23
-1100.0000048327006
 33
0.0
 14
400.0
 24
-280.0000048327006
 34
0.0
 50
90.0
100
AcDbRotatedDimension
1001
ACAD
1000
DSTYLE
1002
{
1070
             271
1070
               0
1070
             340
1005
33
1070
              76
1070
               1
1070
             147
1040
0.9999999999999999
1002
}
  0
LINE
  5
20A
100
AcDbEntity
  8
DIMENTION
  6
CONTINUOUS
100
AcDbLine
 10
1149.6406787029955
 20
-800.0
 30
0.0
 11
1020.0
 21
-959.0000048327006
 31
0.0
  0
LINE
  5
20B
100
AcDbEntity
  8
DIMENTION
  6
CONTINUOUS
100
AcDbLine
 10
1020.0
 20
-959.0000048327006
 30
0.0
 11
1033.8914701782201
 21
-929.20965089945548
 31
0.0
  0
LINE
  5
20C
100
AcDbEntity
  8
DIMENTION
  6
CONTINUOUS
100
AcDbLine
 10
1020.0
 20
-959.0000048327006
 30
0.0
 11
1046.9255430368751
 21
-940.14653662789067
 31
0.0
  0
MTEXT
  5
20D
100
AcDbEntity
  8
DIMENTION
100
AcDbMText
 10
1150.0
 20
-755.0
 30
0.0
 40
33.866666666666667
 41
0.0
 71
               1
 72
               1
  1
ダンパーゴム4個
  7
________
  0
LINE
  5
20E
100
AcDbEntity
  8
DIMENTION
  6
CONTINUOUS
100
AcDbLine
 10
1150.0
 20
-400.0
 30
0.0
 11
921.82833393927172
 21
-479.73545232929331
 31
0.0
  0
LINE
  5
20F
100
AcDbEntity
  8
DIMENTION
  6
CONTINUOUS
100
AcDbLine
 10
921.82833393927172
 20
-479.73545232929331
 30
0.0
 11
940.70940419354395
 21
-467.00000963568652
 31
0.0
  0
LINE
  5
210
100
AcDbEntity
  8
DIMENTION
  6
CONTINUOUS
100
AcDbLine
 10
921.82833393927172
 20
-479.73545232929331
 30
0.0
 11
944.54754177691348
 21
-478.14677055532502
 31
0.0
  0
MTEXT
  5
211
100
AcDbEntity
  8
DIMENTION
100
AcDbMText
 10
1150.0
 20
-355.0
 30
0.0
 40
33.866666666666667
 41
0.0
 71
               1
 72
               1
  1
電源コード　3m
  7
________
  0
LINE
  5
212
100
AcDbEntity
  8
DIMENTION
  6
CONTINUOUS
100
AcDbLine
 10
1225.0
 20
100.0
 30
0.0
 11
1100.0
 21
100.0
 31
0.0
  0
LINE
  5
213
100
AcDbEntity
  8
DIMENTION
  6
CONTINUOUS
100
AcDbLine
 10
1100.0
 20
100.0
 30
0.0
 11
955.72291322131332
 21
334.45026601536574
 31
0.0
  0
LINE
  5
214
100
AcDbEntity
  8
DIMENTION
  6
CONTINUOUS
100
AcDbLine
 10
955.72291322131332
 20
334.45026601536574
 30
0.0
 11
972.10565117736235
 21
318.62963987060346
 31
0.0
  0
LINE
  5
215
100
AcDbEntity
  8
DIMENTION
  6
CONTINUOUS
100
AcDbLine
 10
955.72291322131332
 20
334.45026601536574
 30
0.0
 11
962.00046740241419
 21
312.55783289220085
 31
0.0
  0
MTEXT
  5
216
100
AcDbEntity
  8
DIMENTION
100
AcDbMText
 10
1100.0
 20
145.0
 30
0.0
 40
33.866666666666667
 41
0.0
 71
               1
 72
               1
  1
温度計
  7
________
  0
DIMENSION
  5
217
100
AcDbEntity
  8
DIMENTION
  6
CONTINUOUS
100
AcDbDimension
  2
*D8
 10
300.0
 20
-280.0000048327006
 30
0.0
 11
300.0
 21
-255.0000048327006
 31
0.0
  3
CAD
100
AcDbAlignedDimension
 13
428.0
 23
-230.0000048327006
 33
0.0
 14
400.0
 24
-280.0000048327006
 34
0.0
 50
90.0
100
AcDbRotatedDimension
1001
ACAD
1000
DSTYLE
1002
{
1070
             271
1070
               0
1070
             340
1005
33
1070
             147
1040
0.9999999999999999
1002
}
  0
DIMENSION
  5
218
100
AcDbEntity
  8
DIMENTION
  6
CONTINUOUS
100
AcDbDimension
  2
*D9
 10
400.0
 20
-100.0
 30
0.0
 11
700.0
 21
-100.0
 31
0.0
  3
CAD
100
AcDbAlignedDimension
 13
1000.0
 23
-280.0000048327006
 33
0.0
 14
400.0
 24
-280.0000048327006
 34
0.0
100
AcDbRotatedDimension
1001
ACAD
1000
DSTYLE
1002
{
1070
             271
1070
               0
1070
             340
1005
33
1070
             147
1040
0.9999999999999999
1002
}
  0
POINT
  5
219
100
AcDbEntity
  8
OBJECT
  6
CONTINUOUS
100
AcDbPoint
 10
2024.6000000000004
 20
-1389.0
 30
0.0
  0
LINE
  5
21A
100
AcDbEntity
  8
OBJECT
100
AcDbLine
 10
-1700.0
 20
860.0
 30
0.0
 11
-600.0
 21
860.0
 31
0.0
  0
LINE
  5
21B
100
AcDbEntity
  8
OBJECT
100
AcDbLine
 10
-1700.0
 20
740.0
 30
0.0
 11
-600.0
 21
740.0
 31
0.0
  0
LINE
  5
21C
100
AcDbEntity
  8
OBJECT
100
AcDbLine
 10
-1700.0
 20
800.0
 30
0.0
 11
-600.0
 21
800.0
 31
0.0
  0
MTEXT
  5
21D
100
AcDbEntity
  8
TEXT
100
AcDbMText
 10
-1700.0
 20
830.0
 30
0.0
 40
33.866666666666667
 41
399.99999999999955
 71
               4
 72
               1
  1
　電　　　　　　　源
  7
________
  0
MTEXT
  5
21E
100
AcDbEntity
  8
TEXT
100
AcDbMText
 10
-1300.0
 20
830.0
 30
0.0
 40
33.866666666666667
 41
700.0
 71
               4
 72
               1
  1
　単相100V　　50/60 Hz
  7
________
  0
MTEXT
  5
21F
100
AcDbEntity
  8
TEXT
100
AcDbMText
 10
-1700.0
 20
770.0
 30
0.0
 40
33.866666666666667
 41
399.99999999999955
 71
               4
 72
               1
  1
　全 収 納 質 量
  7
________
  0
MTEXT
  5
220
100
AcDbEntity
  8
TEXT
100
AcDbMText
 10
-1300.0
 20
770.0
 30
0.0
 40
33.866666666666667
 41
700.0
 71
               4
 72
               1
  1
　70ｋｇ以下
  7
________
  0
MTEXT
  5
221
100
AcDbEntity
  8
TEXT
100
AcDbMText
 10
-1700.0
 20
710.0
 30
0.0
 40
33.866666666666667
 41
399.99999999999955
 71
               4
 72
               1
  1
　質　　　　　　　量
  7
________
  0
MTEXT
  5
222
100
AcDbEntity
  8
TEXT
100
AcDbMText
 10
-1300.0
 20
710.0
 30
0.0
 40
33.866666666666667
 41
700.0
 71
               4
 72
               1
  1
　本体のみ65ｋｇ
  7
________
  0
LINE
  5
223
100
AcDbEntity
  8
DIMENTION
100
AcDbLine
 10
642.5
 20
599.5
 30
0.0
 11
300.0
 21
100.0
 31
0.0
  0
LINE
  5
224
100
AcDbEntity
  8
DIMENTION
100
AcDbLine
 10
642.5
 20
599.5
 30
0.0
 11
631.25779148352512
 21
568.61228595618491
 31
0.0
  0
LINE
  5
225
100
AcDbEntity
  8
DIMENTION
100
AcDbLine
 10
642.5
 20
599.5
 30
0.0
 11
617.32010480818349
 21
578.37155923146418
 31
0.0
  0
LINE
  5
226
100
AcDbEntity
  8
DIMENTION
100
AcDbLine
 10
-80.0
 20
100.0
 30
0.0
 11
300.0
 21
100.0
 31
0.0
  0
MTEXT
  5
227
100
AcDbEntity
  8
TEXT
100
AcDbMText
 10
-1455.0
 20
620.0
 30
0.0
 40
33.866666666666667
 41
855.0
 71
               4
 72
               1
  1
電気用品型式認可番号　JET1293-81037-1001
  7
________
  0
MTEXT
  5
228
100
AcDbEntity
  8
TEXT
100
AcDbMText
 10
-80.000000000000028
 20
-1270.0
 30
0.0
 40
39.51111111111112
 41
0.0
 71
               1
 72
               1
  1
ライスウォーマー\Pディスペンサー
  7
________
  0
LINE
  5
229
100
AcDbEntity
  8
DIMENTION
100
AcDbLine
 10
658.45980567087952
 20
-1007.3290569799967
 30
0.0
 11
200.0
 21
-750.0
 31
0.0
  0
LINE
  5
22A
100
AcDbEntity
  8
DIMENTION
100
AcDbLine
 10
658.45980567087952
 20
-1007.3290569799967
 30
0.0
 11
626.70980567087952
 21
-998.82167012030857
 31
0.0
  0
LINE
  5
22B
100
AcDbEntity
  8
DIMENTION
100
AcDbLine
 10
658.45980567087952
 20
-1007.3290569799967
 30
0.0
 11
635.21719253056767
 21
-984.08644383968488
 31
0.0
  0
LINE
  5
22C
100
AcDbEntity
  8
DIMENTION
100
AcDbLine
 10
708.87657093720418
 20
-995.30653372982749
 30
0.0
 11
200.0
 21
-500.0
 31
0.0
  0
LINE
  5
22D
100
AcDbEntity
  8
DIMENTION
100
AcDbLine
 10
708.87657093720418
 20
-995.30653372982749
 30
0.0
 11
680.4102996958685
 21
-978.87152436581744
 31
0.0
  0
LINE
  5
22E
100
AcDbEntity
  8
DIMENTION
100
AcDbLine
 10
708.87657093720418
 20
-995.30653372982749
 30
0.0
 11
692.44156157319412
 21
-966.84026248849182
 31
0.0
  0
MTEXT
  5
22F
100
AcDbEntity
  8
DIMENTION
100
AcDbMText
 10
-140.0
 20
-455.0
 30
0.0
 40
33.866666666666667
 41
340.0
 71
               1
 72
               1
  1
可変サーモスタット
  7
________
  0
LINE
  5
230
100
AcDbEntity
  8
DIMENTION
100
AcDbLine
 10
200.0
 20
-500.0
 30
0.0
 11
-140.0
 21
-500.0
 31
0.0
  0
MTEXT
  5
231
100
AcDbEntity
  8
DIMENTION
100
AcDbMText
 10
45.0
 20
-705.0
 30
0.0
 40
33.866666666666667
 41
155.0
 71
               1
 72
               1
  1
ヒューズ
  7
________
  0
LINE
  5
232
100
AcDbEntity
  8
DIMENTION
100
AcDbLine
 10
200.0
 20
-750.0
 30
0.0
 11
45.0
 21
-750.0
 31
0.0
  0
LINE
  5
233
100
AcDbEntity
  8
DIMENTION
100
AcDbLine
 10
1150.0
 20
-400.0
 30
0.0
 11
1420.0
 21
-400.0
 31
0.0
  0
LINE
  5
234
100
AcDbEntity
  8
DIMENTION
100
AcDbLine
 10
1149.6406787029955
 20
-800.0
 30
0.0
 11
1450.0
 21
-800.0
 31
0.0
  0
LINE
  5
235
100
AcDbEntity
  8
CENTER
  6
STYLE_17
100
AcDbLine
 10
700.0
 20
245.0
 30
0.0
 11
700.0
 21
1045.0
 31
0.0
  0
LINE
  5
236
100
AcDbEntity
  8
OBJECT
  6
CONTINUOUS
100
AcDbLine
 10
400.0
 20
319.5
 30
0.0
 11
400.0
 21
960.0
 31
0.0
  0
LINE
  5
237
100
AcDbEntity
  8
OBJECT
  6
CONTINUOUS
100
AcDbLine
 10
1000.0
 20
960.0
 30
0.0
 11
1000.0
 21
310.00040000000081
 31
0.0
  0
POLYLINE
  5
238
100
AcDbEntity
  8
OBJECT
  6
CONTINUOUS
100
AcDb2dPolyline
 66
               1
 10
0.0
 20
0.0
 30
0.0
 70
               1
 75
               5
  0
VERTEX
  5
239
100
AcDbEntity
  8
OBJECT
  6
CONTINUOUS
100
AcDbVertex
100
AcDb2dVertex
 10
585.0
 20
499.0
 30
0.0
  0
VERTEX
  5
23A
100
AcDbEntity
  8
OBJECT
  6
CONTINUOUS
100
AcDbVertex
100
AcDb2dVertex
 10
585.0
 20
699.0
 30
0.0
  0
VERTEX
  5
23B
100
AcDbEntity
  8
OBJECT
  6
CONTINUOUS
100
AcDbVertex
100
AcDb2dVertex
 10
815.0
 20
699.0
 30
0.0
  0
VERTEX
  5
23C
100
AcDbEntity
  8
OBJECT
  6
CONTINUOUS
100
AcDbVertex
100
AcDb2dVertex
 10
815.0
 20
499.0
 30
0.0
  0
SEQEND
  5
23D
100
AcDbEntity
  8
OBJECT
  6
CONTINUOUS
  0
LWPOLYLINE
  5
23E
100
AcDbEntity
  8
OBJECT
  6
CONTINUOUS
100
AcDbPolyline
 90
        9
 70
             129
 10
1020.0
 20
949.56155281280894
 42
-0.3441507314089383
 10
1018.4850712500727
 20
947.62126781251823
 10
1000.0
 20
943.0
 10
1000.0
 20
980.0
 10
920.0
 20
980.0
 10
924.62126781251823
 20
998.48507125007268
 42
-0.34415073140888
 10
926.56155281280894
 20
1000.0
 10
1005.0
 20
1000.0
 42
-0.414213562373095
 10
1020.0
 20
985.0
  0
LWPOLYLINE
  5
23F
100
AcDbEntity
  8
OBJECT
  6
CONTINUOUS
100
AcDbPolyline
 90
        9
 70
             129
 10
380.0
 20
949.56155281280894
 42
0.3441507314089108
 10
381.51492874992732
 20
947.62126781251823
 10
400.0
 20
943.0
 10
400.0
 20
980.0
 10
480.0
 20
980.0
 10
475.37873218748183
 20
998.48507125007268
 42
0.3441507314089088
 10
473.43844718719117
 20
1000.0
 10
395.0
 20
1000.0
 42
0.414213562373095
 10
380.0
 20
985.0
  0
LWPOLYLINE
  5
240
100
AcDbEntity
  8
OBJECT
  6
CONTINUOUS
100
AcDbPolyline
 90
       14
 70
             128
 10
398.0
 20
379.5
 10
381.51490000000013
 20
375.3786999999993
 10
381.51490000000013
 20
375.3786999999993
 10
381.51490000000013
 20
375.3786999999993
 42
0.3441753471601357
 10
380.0
 20
373.43839999999909
 10
380.0
 20
295.0
 10
380.0
 20
295.0
 10
380.0
 20
295.0
 42
0.414213562373095
 10
395.0
 20
280.0
 10
430.4384
 20
280.0
 10
430.4384
 20
280.0
 10
430.4384
 20
280.0
 42
0.3441434864435221
 10
432.37870000000021
 20
281.51490000000013
 10
436.5
 20
298.0
  0
LWPOLYLINE
  5
241
100
AcDbEntity
  8
OBJECT
  6
CONTINUOUS
100
AcDbPolyline
 90
       14
 70
             128
 10
1002.0
 20
379.5
 10
1018.4850999999999
 20
375.3786999999993
 10
1018.4850999999999
 20
375.3786999999993
 10
1018.4850999999999
 20
375.3786999999993
 42
-0.3441434864435221
 10
1020.0
 20
373.43839999999909
 10
1020.0
 20
295.0
 10
1020.0
 20
295.0
 10
1020.0
 20
295.0
 42
-0.414213562373095
 10
1005.0
 20
280.0
 10
969.5616
 20
280.0
 10
969.5616
 20
280.0
 10
969.5616
 20
280.0
 42
-0.3441753471597984
 10
967.62130000000002
 20
281.51490000000013
 10
963.5
 20
298.0
  0
CIRCLE
  5
242
100
AcDbEntity
  8
OBJECT
  6
CONTINUOUS
100
AcDbCircle
 10
700.0
 20
600.0
 30
0.0
 40
245.5
  0
ARC
  5
243
100
AcDbEntity
  8
OBJECT
  6
CONTINUOUS
100
AcDbCircle
 10
410.88550000000009
 20
310.8752999999997
 30
0.0
 40
10.911202729305312
100
AcDbArc
 50
183.98669804336851
 51
265.34507220328049
  0
LINE
  5
244
100
AcDbEntity
  8
OBJECT
  6
CONTINUOUS
100
AcDbLine
 10
400.00070000000005
 20
310.11670000000049
 30
0.0
 11
400.00070000000005
 21
320.0
 31
0.0
  0
LINE
  5
245
100
AcDbEntity
  8
OBJECT
  6
CONTINUOUS
100
AcDbLine
 10
410.0
 20
300.0
 30
0.0
 11
422.5
 21
300.0
 31
0.0
  0
ARC
  5
246
100
AcDbEntity
  8
OBJECT
  6
CONTINUOUS
100
AcDbCircle
 10
990.0
 20
310.00040000000081
 30
0.0
 40
9.9999809689832038
100
AcDbArc
 50
269.33134180263897
 51
0.0
  0
LINE
  5
247
100
AcDbEntity
  8
OBJECT
  6
CONTINUOUS
100
AcDbLine
 10
989.88329999999996
 20
300.0010999999995
 30
0.0
 11
980.0
 21
300.0010999999995
 31
0.0
  0
LINE
  5
248
100
AcDbEntity
  8
OBJECT
  6
CONTINUOUS
100
AcDbLine
 10
1000.0
 20
310.00040000000081
 30
0.0
 11
1000.0
 21
322.50040000000081
 31
0.0
  0
LINE
  5
249
100
AcDbEntity
  8
OBJECT
  6
CONTINUOUS
100
AcDbLine
 10
779.0
 20
305.0
 30
0.0
 11
779.0
 21
290.0
 31
0.0
  0
LINE
  5
24A
100
AcDbEntity
  8
OBJECT
  6
CONTINUOUS
100
AcDbLine
 10
621.0
 20
305.0
 30
0.0
 11
621.0
 21
290.0
 31
0.0
  0
LINE
  5
24B
100
AcDbEntity
  8
OBJECT
  6
CONTINUOUS
100
AcDbLine
 10
636.0
 20
275.0
 30
0.0
 11
764.0
 21
275.0
 31
0.0
  0
LINE
  5
24C
100
AcDbEntity
  8
OBJECT
  6
CONTINUOUS
100
AcDbLine
 10
636.0
 20
283.0
 30
0.0
 11
764.0
 21
283.0
 31
0.0
  0
LINE
  5
24D
100
AcDbEntity
  8
OBJECT
  6
CONTINUOUS
100
AcDbLine
 10
771.0
 20
305.0
 30
0.0
 11
771.0
 21
290.0
 31
0.0
  0
LINE
  5
24E
100
AcDbEntity
  8
OBJECT
  6
CONTINUOUS
100
AcDbLine
 10
629.0
 20
305.0
 30
0.0
 11
629.0
 21
290.0
 31
0.0
  0
ARC
  5
24F
100
AcDbEntity
  8
OBJECT
  6
CONTINUOUS
100
AcDbCircle
 10
636.0
 20
290.0
 30
0.0
 40
15.0
100
AcDbArc
 50
180.0
 51
270.0
  0
ARC
  5
250
100
AcDbEntity
  8
OBJECT
  6
CONTINUOUS
100
AcDbCircle
 10
764.0
 20
290.0
 30
0.0
 40
15.0
100
AcDbArc
 50
270.0
 51
0.0
  0
ARC
  5
251
100
AcDbEntity
  8
OBJECT
  6
CONTINUOUS
100
AcDbCircle
 10
636.0
 20
290.0
 30
0.0
 40
7.0
100
AcDbArc
 50
180.0
 51
270.0
  0
ARC
  5
252
100
AcDbEntity
  8
OBJECT
  6
CONTINUOUS
100
AcDbCircle
 10
764.0
 20
290.0
 30
0.0
 40
7.0
100
AcDbArc
 50
270.0
 51
0.0
  0
LINE
  5
253
100
AcDbEntity
  8
OBJECT
  6
CONTINUOUS
100
AcDbLine
 10
771.0
 20
300.0
 30
0.0
 11
629.0
 21
300.0
 31
0.0
  0
POLYLINE
  5
254
100
AcDbEntity
  8
OBJECT
  6
CONTINUOUS
100
AcDb2dPolyline
 66
               1
 10
0.0
 20
0.0
 30
0.0
 70
               1
 75
               5
  0
VERTEX
  5
255
100
AcDbEntity
  8
OBJECT
  6
CONTINUOUS
100
AcDbVertex
100
AcDb2dVertex
 10
540.0
 20
982.0
 30
0.0
  0
VERTEX
  5
256
100
AcDbEntity
  8
OBJECT
  6
CONTINUOUS
100
AcDbVertex
100
AcDb2dVertex
 10
860.0
 20
982.0
 30
0.0
  0
VERTEX
  5
257
100
AcDbEntity
  8
OBJECT
  6
CONTINUOUS
100
AcDbVertex
100
AcDb2dVertex
 10
860.0
 20
882.0
 30
0.0
  0
VERTEX
  5
258
100
AcDbEntity
  8
OBJECT
  6
CONTINUOUS
100
AcDbVertex
100
AcDb2dVertex
 10
540.0
 20
882.0
 30
0.0
  0
SEQEND
  5
259
100
AcDbEntity
  8
OBJECT
  6
CONTINUOUS
  0
CIRCLE
  5
25A
100
AcDbEntity
  8
OBJECT
  6
CONTINUOUS
100
AcDbCircle
 10
700.0
 20
907.0
 30
0.0
 40
6.0
  0
CIRCLE
  5
25B
100
AcDbEntity
  8
OBJECT
  6
CONTINUOUS
100
AcDbCircle
 10
825.0
 20
907.0
 30
0.0
 40
6.0
  0
CIRCLE
  5
25C
100
AcDbEntity
  8
OBJECT
  6
CONTINUOUS
100
AcDbCircle
 10
575.0
 20
907.0
 30
0.0
 40
6.0
  0
LWPOLYLINE
  5
25D
100
AcDbEntity
  8
OBJECT
  6
CONTINUOUS
100
AcDbPolyline
 90
       22
 70
             128
 10
860.0
 20
930.0
 10
973.54550000000017
 20
930.0
 10
973.54550000000017
 20
930.0
 10
975.0
 20
930.0
 42
-0.414213562373095
 10
995.0
 20
910.0
 10
995.0
 20
908.63249999999971
 10
995.0
 20
326.36750000000029
 10
995.0
 20
326.36750000000029
 10
995.0
 20
325.0
 42
-0.414213562373095
 10
975.0
 20
305.0
 10
973.54550000000017
 20
305.0
 10
426.45450000000005
 20
305.0
 10
426.45450000000005
 20
305.0
 10
425.0
 20
305.0
 42
-0.414213562373095
 10
405.0
 20
325.0
 10
405.0
 20
326.36750000000029
 10
405.0
 20
908.63249999999971
 10
405.0
 20
908.63249999999971
 10
405.0
 20
910.0
 42
-0.414213562373095
 10
425.0
 20
930.0
 10
426.45450000000005
 20
930.0
 10
540.0
 20
930.0
  0
LINE
  5
25E
100
AcDbEntity
  8
OBJECT
  6
CONTINUOUS
100
AcDbLine
 10
860.0
 20
980.0
 30
0.0
 11
1000.0
 21
980.0
 31
0.0
  0
LINE
  5
25F
100
AcDbEntity
  8
OBJECT
  6
CONTINUOUS
100
AcDbLine
 10
400.0
 20
980.0
 30
0.0
 11
540.0
 21
980.0
 31
0.0
  0
CIRCLE
  5
260
100
AcDbEntity
  8
OBJECT
  6
CONTINUOUS
100
AcDbCircle
 10
940.0
 20
360.0
 30
0.0
 40
29.999981780827774
  0
CIRCLE
  5
261
100
AcDbEntity
  8
OBJECT
  6
CONTINUOUS
100
AcDbCircle
 10
700.0
 20
600.0
 30
0.0
 40
260.5
  0
CIRCLE
  5
262
100
AcDbEntity
  8
OBJECT
  6
CONTINUOUS
100
AcDbCircle
 10
970.0
 20
787.0
 30
0.0
 40
6.0
  0
CIRCLE
  5
263
100
AcDbEntity
  8
OBJECT
  6
CONTINUOUS
100
AcDbCircle
 10
970.0
 20
747.0
 30
0.0
 40
6.0
  0
CIRCLE
  5
264
100
AcDbEntity
  8
OBJECT
  6
CONTINUOUS
100
AcDbCircle
 10
430.0
 20
787.0
 30
0.0
 40
6.0
  0
CIRCLE
  5
265
100
AcDbEntity
  8
OBJECT
  6
CONTINUOUS
100
AcDbCircle
 10
430.0
 20
747.0
 30
0.0
 40
6.0
  0
POLYLINE
  5
266
100
AcDbEntity
  8
OBJECT
  6
CONTINUOUS
100
AcDb2dPolyline
 66
               1
 10
0.0
 20
0.0
 30
0.0
 70
               1
 75
               5
  0
VERTEX
  5
267
100
AcDbEntity
  8
OBJECT
  6
CONTINUOUS
100
AcDbVertex
100
AcDb2dVertex
 10
829.0
 20
256.85889999999927
 30
0.0
  0
VERTEX
  5
268
100
AcDbEntity
  8
OBJECT
  6
CONTINUOUS
100
AcDbVertex
100
AcDb2dVertex
 10
829.0
 20
269.85889999999927
 30
0.0
  0
VERTEX
  5
269
100
AcDbEntity
  8
OBJECT
  6
CONTINUOUS
100
AcDbVertex
100
AcDb2dVertex
 10
873.0
 20
269.85889999999927
 30
0.0
  0
VERTEX
  5
26A
100
AcDbEntity
  8
OBJECT
  6
CONTINUOUS
100
AcDbVertex
100
AcDb2dVertex
 10
873.0
 20
256.85889999999927
 30
0.0
  0
SEQEND
  5
26B
100
AcDbEntity
  8
OBJECT
  6
CONTINUOUS
  0
POLYLINE
  5
26C
100
AcDbEntity
  8
OBJECT
  6
CONTINUOUS
100
AcDb2dPolyline
 66
               1
 10
0.0
 20
0.0
 30
0.0
 75
               5
  0
VERTEX
  5
26D
100
AcDbEntity
  8
OBJECT
  6
CONTINUOUS
100
AcDbVertex
100
AcDb2dVertex
 10
846.0
 20
275.64650000000074
 30
0.0
  0
VERTEX
  5
26E
100
AcDbEntity
  8
OBJECT
  6
CONTINUOUS
100
AcDbVertex
100
AcDb2dVertex
 10
846.0
 20
269.85889999999927
 30
0.0
  0
VERTEX
  5
26F
100
AcDbEntity
  8
OBJECT
  6
CONTINUOUS
100
AcDbVertex
100
AcDb2dVertex
 10
856.0
 20
269.85889999999927
 30
0.0
  0
VERTEX
  5
270
100
AcDbEntity
  8
OBJECT
  6
CONTINUOUS
100
AcDbVertex
100
AcDb2dVertex
 10
856.0
 20
275.45809999999983
 30
0.0
  0
SEQEND
  5
271
100
AcDbEntity
  8
OBJECT
  6
CONTINUOUS
  0
LINE
  5
272
100
AcDbEntity
  8
OBJECT
  6
CONTINUOUS
100
AcDbLine
 10
855.0
 20
295.64650000000074
 30
0.0
 11
855.0
 21
300.0
 31
0.0
  0
LINE
  5
273
100
AcDbEntity
  8
OBJECT
  6
CONTINUOUS
100
AcDbLine
 10
846.0
 20
300.14650000000074
 30
0.0
 11
846.0
 21
295.64650000000074
 31
0.0
  0
LINE
  5
274
100
AcDbEntity
  8
OBJECT
  6
CONTINUOUS
100
AcDbLine
 10
799.0
 20
295.64650000000074
 30
0.0
 11
788.0
 21
295.64650000000074
 31
0.0
  0
LINE
  5
275
100
AcDbEntity
  8
OBJECT
  6
CONTINUOUS
100
AcDbLine
 10
850.0
 20
285.64650000000074
 30
0.0
 11
920.0
 21
285.64650000000074
 31
0.0
  0
LINE
  5
276
100
AcDbEntity
  8
OBJECT
  6
CONTINUOUS
100
AcDbLine
 10
788.0
 20
285.64650000000074
 30
0.0
 11
797.48149999999987
 21
285.64650000000074
 31
0.0
  0
LINE
  5
277
100
AcDbEntity
  8
OBJECT
  6
CONTINUOUS
100
AcDbLine
 10
850.0
 20
285.64650000000074
 30
0.0
 11
798.35429999999997
 21
285.64650000000074
 31
0.0
  0
LINE
  5
278
100
AcDbEntity
  8
OBJECT
  6
CONTINUOUS
100
AcDbLine
 10
850.0
 20
275.64650000000074
 30
0.0
 11
920.0
 21
275.64650000000074
 31
0.0
  0
LINE
  5
279
100
AcDbEntity
  8
OBJECT
  6
CONTINUOUS
100
AcDbLine
 10
790.38499999999999
 20
275.64650000000074
 30
0.0
 11
850.0
 21
275.64650000000074
 31
0.0
  0
ARC
  5
27A
100
AcDbEntity
  8
OBJECT
  6
CONTINUOUS
100
AcDbCircle
 10
920.0
 20
280.5
 30
0.0
 40
5.1465000000007421
100
AcDbArc
 50
270.0
 51
90.0
  0
ARC
  5
27B
100
AcDbEntity
  8
OBJECT
  6
CONTINUOUS
100
AcDbCircle
 10
788.0
 20
290.5
 30
0.0
 40
5.1465000000007421
100
AcDbArc
 50
90.0
 51
270.0
  0
ARC
  5
27C
100
AcDbEntity
  8
OBJECT
  6
CONTINUOUS
100
AcDbCircle
 10
920.0
 20
290.5
 30
0.0
 40
5.1465000000007421
100
AcDbArc
 50
270.0
 51
26.565051177076871
  0
POLYLINE
  5
27D
100
AcDbEntity
  8
OBJECT
  6
CONTINUOUS
100
AcDb2dPolyline
 66
               1
 10
0.0
 20
0.0
 30
0.0
 70
               1
 75
               5
  0
VERTEX
  5
27E
100
AcDbEntity
  8
OBJECT
  6
CONTINUOUS
100
AcDbVertex
100
AcDb2dVertex
 10
470.0
 20
305.0
 30
0.0
  0
VERTEX
  5
27F
100
AcDbEntity
  8
OBJECT
  6
CONTINUOUS
100
AcDbVertex
100
AcDb2dVertex
 10
490.0
 20
305.0
 30
0.0
  0
VERTEX
  5
280
100
AcDbEntity
  8
OBJECT
  6
CONTINUOUS
100
AcDbVertex
100
AcDb2dVertex
 10
490.0
 20
295.0
 30
0.0
  0
VERTEX
  5
281
100
AcDbEntity
  8
OBJECT
  6
CONTINUOUS
100
AcDbVertex
100
AcDb2dVertex
 10
470.0
 20
295.0
 30
0.0
  0
SEQEND
  5
282
100
AcDbEntity
  8
OBJECT
  6
CONTINUOUS
  0
LWPOLYLINE
  5
283
100
AcDbEntity
  8
OBJECT
  6
CONTINUOUS
100
AcDbPolyline
 90
       34
 70
             128
 10
490.0
 20
302.0
 10
493.0
 20
302.0
 10
493.0
 20
302.0
 10
493.0
 20
302.0
 42
-0.414213562373095
 10
495.0
 20
300.0
 10
495.0
 20
289.5
 10
495.0
 20
289.5
 10
495.0
 20
289.5
 42
0.414213562373095
 10
496.5
 20
288.0
 10
496.5
 20
288.0
 10
496.5
 20
288.0
 10
496.5
 20
288.0
 42
0.414213562373095
 10
498.0
 20
289.5
 10
498.0
 20
300.0
 10
498.0
 20
300.0
 10
498.0
 20
300.0
 42
0.414213562373095
 10
493.0
 20
305.0
 10
467.0
 20
305.0
 10
467.0
 20
305.0
 10
467.0
 20
305.0
 42
0.414213562373095
 10
462.0
 20
300.0
 10
462.0
 20
289.5
 10
462.0
 20
289.5
 10
462.0
 20
289.5
 42
0.414213562373095
 10
463.5
 20
288.0
 10
463.5
 20
288.0
 10
463.5
 20
288.0
 10
463.5
 20
288.0
 42
0.414213562373095
 10
465.0
 20
289.5
 10
465.0
 20
300.0
 10
465.0
 20
300.0
 10
465.0
 20
300.0
 42
-0.414213562373095
 10
467.0
 20
302.0
 10
470.0
 20
302.0
  0
LWPOLYLINE
  5
284
100
AcDbEntity
  8
OBJECT
  6
CONTINUOUS
100
AcDbPolyline
 90
       15
 70
             128
 10
463.20830000000001
 20
302.5
 10
424.5311999999999
 20
302.5
 10
424.5311999999999
 20
302.5
 10
424.5311999999999
 20
302.5
 10
424.5311999999999
 20
302.5
 10
424.5311999999999
 20
302.5
 42
-0.414213562373095
 10
402.5
 20
324.5311999999999
 10
402.5
 20
324.8109000000004
 10
402.5
 20
910.1890999999996
 10
402.5
 20
910.1890999999996
 10
402.5
 20
910.1890999999996
 10
402.5
 20
910.1890999999996
 10
402.5
 20
910.4688000000001
 42
-0.414213562373095
 10
424.5311999999999
 20
932.5
 10
540.0
 20
932.5
  0
LINE
  5
285
100
AcDbEntity
  8
OBJECT
  6
CONTINUOUS
100
AcDbLine
 10
470.0
 20
300.0
 30
0.0
 11
465.0
 21
300.0
 31
0.0
  0
LINE
  5
286
100
AcDbEntity
  8
OBJECT
  6
CONTINUOUS
100
AcDbLine
 10
498.0
 20
300.0
 30
0.0
 11
621.0
 21
300.0
 31
0.0
  0
LINE
  5
287
100
AcDbEntity
  8
OBJECT
  6
CONTINUOUS
100
AcDbLine
 10
490.0
 20
300.0
 30
0.0
 11
495.0
 21
300.0
 31
0.0
  0
POLYLINE
  5
288
100
AcDbEntity
  8
OBJECT
  6
CONTINUOUS
100
AcDb2dPolyline
 66
               1
 10
0.0
 20
0.0
 30
0.0
 70
               1
 75
               5
  0
VERTEX
  5
289
100
AcDbEntity
  8
OBJECT
  6
CONTINUOUS
100
AcDbVertex
100
AcDb2dVertex
 10
910.0
 20
304.99999999999989
 30
0.0
  0
VERTEX
  5
28A
100
AcDbEntity
  8
OBJECT
  6
CONTINUOUS
100
AcDbVertex
100
AcDb2dVertex
 10
930.0
 20
304.99999999999989
 30
0.0
  0
VERTEX
  5
28B
100
AcDbEntity
  8
OBJECT
  6
CONTINUOUS
100
AcDbVertex
100
AcDb2dVertex
 10
930.0
 20
294.99999999999989
 30
0.0
  0
VERTEX
  5
28C
100
AcDbEntity
  8
OBJECT
  6
CONTINUOUS
100
AcDbVertex
100
AcDb2dVertex
 10
910.0
 20
294.99999999999989
 30
0.0
  0
SEQEND
  5
28D
100
AcDbEntity
  8
OBJECT
  6
CONTINUOUS
  0
LWPOLYLINE
  5
28E
100
AcDbEntity
  8
OBJECT
  6
CONTINUOUS
100
AcDbPolyline
 90
       34
 70
             128
 10
930.0
 20
302.0
 10
933.0
 20
302.0
 10
933.0
 20
302.0
 10
933.0
 20
302.0
 42
-0.414213562373095
 10
935.0
 20
300.0
 10
935.0
 20
289.5
 10
935.0
 20
289.5
 10
935.0
 20
289.5
 42
0.414213562373095
 10
936.5
 20
288.0
 10
936.5
 20
288.0
 10
936.5
 20
288.0
 10
936.5
 20
288.0
 42
0.414213562373095
 10
938.0
 20
289.5
 10
938.0
 20
300.0
 10
938.0
 20
300.0
 10
938.0
 20
300.0
 42
0.414213562373095
 10
933.0
 20
305.0
 10
907.0
 20
305.0
 10
907.0
 20
305.0
 10
907.0
 20
305.0
 42
0.414213562373095
 10
902.0
 20
300.0
 10
902.0
 20
289.5
 10
902.0
 20
289.5
 10
902.0
 20
289.5
 42
0.414213562373095
 10
903.5
 20
288.0
 10
903.5
 20
288.0
 10
903.5
 20
288.0
 10
903.5
 20
288.0
 42
0.414213562373095
 10
905.0
 20
289.5
 10
905.0
 20
300.0
 10
905.0
 20
300.0
 10
905.0
 20
300.0
 42
-0.414213562373095
 10
907.0
 20
302.0
 10
910.0
 20
302.0
  0
LINE
  5
28F
100
AcDbEntity
  8
OBJECT
  6
CONTINUOUS
100
AcDbLine
 10
910.0
 20
300.0
 30
0.0
 11
905.0
 21
300.0
 31
0.0
  0
LINE
  5
290
100
AcDbEntity
  8
OBJECT
  6
CONTINUOUS
100
AcDbLine
 10
930.0
 20
300.0
 30
0.0
 11
935.0
 21
300.0
 31
0.0
  0
LINE
  5
291
100
AcDbEntity
  8
OBJECT
  6
CONTINUOUS
100
AcDbLine
 10
902.0
 20
295.64650000000074
 30
0.0
 11
799.0
 21
295.64650000000074
 31
0.0
  0
LINE
  5
292
100
AcDbEntity
  8
OBJECT
  6
CONTINUOUS
100
AcDbLine
 10
910.0
 20
295.64650000000074
 30
0.0
 11
905.0
 21
295.64650000000074
 31
0.0
  0
LINE
  5
293
100
AcDbEntity
  8
OBJECT
  6
CONTINUOUS
100
AcDbLine
 10
902.0
 20
300.0
 30
0.0
 11
779.0
 21
300.0
 31
0.0
  0
LINE
  5
294
100
AcDbEntity
  8
OBJECT
  6
CONTINUOUS
100
AcDbLine
 10
910.0
 20
300.0
 30
0.0
 11
905.0
 21
300.0
 31
0.0
  0
LWPOLYLINE
  5
295
100
AcDbEntity
  8
OBJECT
  6
CONTINUOUS
100
AcDbPolyline
 90
       15
 70
             128
 10
936.79169999999999
 20
302.5
 10
975.4688000000001
 20
302.5
 10
975.4688000000001
 20
302.5
 10
975.4688000000001
 20
302.5
 10
975.4688000000001
 20
302.5
 10
975.4688000000001
 20
302.5
 42
0.414213562373095
 10
997.5
 20
324.5311999999999
 10
997.5
 20
324.8109000000004
 10
997.5
 20
910.1890999999996
 10
997.5
 20
910.1890999999996
 10
997.5
 20
910.1890999999996
 10
997.5
 20
910.1890999999996
 10
997.5
 20
910.4688000000001
 42
0.414213562373095
 10
975.4688000000001
 20
932.5
 10
860.0
 20
932.5
  0
LINE
  5
296
100
AcDbEntity
  8
OBJECT
  6
CONTINUOUS
100
AcDbLine
 10
930.0
 20
300.0
 30
0.0
 11
935.0
 21
300.0
 31
0.0
  0
LINE
  5
297
100
AcDbEntity
  8
OBJECT
  6
CONTINUOUS
100
AcDbLine
 10
525.0
 20
427.82200000000012
 30
0.0
 11
525.0
 21
772.17799999999988
 31
0.0
  0
LINE
  5
298
100
AcDbEntity
  8
OBJECT
  6
CONTINUOUS
100
AcDbLine
 10
818.5127
 20
385.0
 30
0.0
 11
581.4873
 21
385.0
 31
0.0
  0
LINE
  5
299
100
AcDbEntity
  8
OBJECT
  6
CONTINUOUS
100
AcDbLine
 10
875.0
 20
772.17799999999988
 30
0.0
 11
875.0
 21
427.82200000000012
 31
0.0
  0
LINE
  5
29A
100
AcDbEntity
  8
OBJECT
  6
CONTINUOUS
100
AcDbLine
 10
581.4873
 20
815.0
 30
0.0
 11
818.5127
 21
815.0
 31
0.0
  0
LINE
  5
29B
100
AcDbEntity
  8
OBJECT
  6
CONTINUOUS
100
AcDbLine
 10
495.0
 20
464.92499999999927
 30
0.0
 11
495.0
 21
735.07500000000073
 31
0.0
  0
LINE
  5
29C
100
AcDbEntity
  8
OBJECT
  6
CONTINUOUS
100
AcDbLine
 10
905.0
 20
735.07500000000073
 30
0.0
 11
905.0
 21
464.92499999999927
 31
0.0
  0
LINE
  5
29D
100
AcDbEntity
  8
OBJECT
  6
CONTINUOUS
100
AcDbLine
 10
492.0
 20
469.59200000000055
 30
0.0
 11
492.0
 21
730.40799999999945
 31
0.0
  0
LINE
  5
29E
100
AcDbEntity
  8
OBJECT
  6
CONTINUOUS
100
AcDbLine
 10
908.0
 20
726.0
 30
0.0
 11
908.0
 21
469.59200000000055
 31
0.0
  0
POLYLINE
  5
29F
100
AcDbEntity
  8
OBJECT
  6
CONTINUOUS
100
AcDb2dPolyline
 66
               1
 10
0.0
 20
0.0
 30
0.0
 70
               1
 75
               5
  0
VERTEX
  5
2A0
100
AcDbEntity
  8
OBJECT
  6
CONTINUOUS
100
AcDbVertex
100
AcDb2dVertex
 10
397.0
 20
871.5
 30
0.0
  0
VERTEX
  5
2A1
100
AcDbEntity
  8
OBJECT
  6
CONTINUOUS
100
AcDbVertex
100
AcDb2dVertex
 10
400.0
 20
871.5
 30
0.0
  0
VERTEX
  5
2A2
100
AcDbEntity
  8
OBJECT
  6
CONTINUOUS
100
AcDbVertex
100
AcDb2dVertex
 10
400.0
 20
848.5
 30
0.0
  0
VERTEX
  5
2A3
100
AcDbEntity
  8
OBJECT
  6
CONTINUOUS
100
AcDbVertex
100
AcDb2dVertex
 10
377.0
 20
848.5
 30
0.0
  0
VERTEX
  5
2A4
100
AcDbEntity
  8
OBJECT
  6
CONTINUOUS
100
AcDbVertex
100
AcDb2dVertex
 10
377.0
 20
821.5
 30
0.0
  0
VERTEX
  5
2A5
100
AcDbEntity
  8
OBJECT
  6
CONTINUOUS
100
AcDbVertex
100
AcDb2dVertex
 10
373.0
 20
811.5
 30
0.0
  0
VERTEX
  5
2A6
100
AcDbEntity
  8
OBJECT
  6
CONTINUOUS
100
AcDbVertex
100
AcDb2dVertex
 10
370.0
 20
811.5
 30
0.0
  0
VERTEX
  5
2A7
100
AcDbEntity
  8
OBJECT
  6
CONTINUOUS
100
AcDbVertex
100
AcDb2dVertex
 10
374.0
 20
821.5
 30
0.0
  0
VERTEX
  5
2A8
100
AcDbEntity
  8
OBJECT
  6
CONTINUOUS
100
AcDbVertex
100
AcDb2dVertex
 10
374.0
 20
851.5
 30
0.0
  0
VERTEX
  5
2A9
100
AcDbEntity
  8
OBJECT
  6
CONTINUOUS
100
AcDbVertex
100
AcDb2dVertex
 10
397.0
 20
851.5
 30
0.0
  0
SEQEND
  5
2AA
100
AcDbEntity
  8
OBJECT
  6
CONTINUOUS
  0
POLYLINE
  5
2AB
100
AcDbEntity
  8
OBJECT
  6
CONTINUOUS
100
AcDb2dPolyline
 66
               1
 10
0.0
 20
0.0
 30
0.0
 70
               1
 75
               5
  0
VERTEX
  5
2AC
100
AcDbEntity
  8
OBJECT
  6
CONTINUOUS
100
AcDbVertex
100
AcDb2dVertex
 10
397.0
 20
308.5
 30
0.0
  0
VERTEX
  5
2AD
100
AcDbEntity
  8
OBJECT
  6
CONTINUOUS
100
AcDbVertex
100
AcDb2dVertex
 10
400.0
 20
308.5
 30
0.0
  0
VERTEX
  5
2AE
100
AcDbEntity
  8
OBJECT
  6
CONTINUOUS
100
AcDbVertex
100
AcDb2dVertex
 10
400.0
 20
331.5
 30
0.0
  0
VERTEX
  5
2AF
100
AcDbEntity
  8
OBJECT
  6
CONTINUOUS
100
AcDbVertex
100
AcDb2dVertex
 10
377.0
 20
331.5
 30
0.0
  0
VERTEX
  5
2B0
100
AcDbEntity
  8
OBJECT
  6
CONTINUOUS
100
AcDbVertex
100
AcDb2dVertex
 10
377.0
 20
358.5
 30
0.0
  0
VERTEX
  5
2B1
100
AcDbEntity
  8
OBJECT
  6
CONTINUOUS
100
AcDbVertex
100
AcDb2dVertex
 10
373.0
 20
368.5
 30
0.0
  0
VERTEX
  5
2B2
100
AcDbEntity
  8
OBJECT
  6
CONTINUOUS
100
AcDbVertex
100
AcDb2dVertex
 10
370.0
 20
368.5
 30
0.0
  0
VERTEX
  5
2B3
100
AcDbEntity
  8
OBJECT
  6
CONTINUOUS
100
AcDbVertex
100
AcDb2dVertex
 10
374.0
 20
358.5
 30
0.0
  0
VERTEX
  5
2B4
100
AcDbEntity
  8
OBJECT
  6
CONTINUOUS
100
AcDbVertex
100
AcDb2dVertex
 10
374.0
 20
328.5
 30
0.0
  0
VERTEX
  5
2B5
100
AcDbEntity
  8
OBJECT
  6
CONTINUOUS
100
AcDbVertex
100
AcDb2dVertex
 10
397.0
 20
328.5
 30
0.0
  0
SEQEND
  5
2B6
100
AcDbEntity
  8
OBJECT
  6
CONTINUOUS
  0
POLYLINE
  5
2B7
100
AcDbEntity
  8
OBJECT
  6
CONTINUOUS
100
AcDb2dPolyline
 66
               1
 10
0.0
 20
0.0
 30
0.0
 70
               1
 75
               5
  0
VERTEX
  5
2B8
100
AcDbEntity
  8
OBJECT
  6
CONTINUOUS
100
AcDbVertex
100
AcDb2dVertex
 10
370.0
 20
621.5
 30
0.0
  0
VERTEX
  5
2B9
100
AcDbEntity
  8
OBJECT
  6
CONTINUOUS
100
AcDbVertex
100
AcDb2dVertex
 10
400.0
 20
621.5
 30
0.0
  0
VERTEX
  5
2BA
100
AcDbEntity
  8
OBJECT
  6
CONTINUOUS
100
AcDbVertex
100
AcDb2dVertex
 10
400.0
 20
561.5
 30
0.0
  0
VERTEX
  5
2BB
100
AcDbEntity
  8
OBJECT
  6
CONTINUOUS
100
AcDbVertex
100
AcDb2dVertex
 10
370.0
 20
561.5
 30
0.0
  0
SEQEND
  5
2BC
100
AcDbEntity
  8
OBJECT
  6
CONTINUOUS
  0
LINE
  5
2BD
100
AcDbEntity
  8
OBJECT
  6
CONTINUOUS
100
AcDbLine
 10
373.0
 20
621.5
 30
0.0
 11
373.0
 21
561.5
 31
0.0
  0
LINE
  5
2BE
100
AcDbEntity
  8
OBJECT
  6
CONTINUOUS
100
AcDbLine
 10
771.0
 20
302.5
 30
0.0
 11
629.0
 21
302.5
 31
0.0
  0
LINE
  5
2BF
100
AcDbEntity
  8
OBJECT
  6
CONTINUOUS
100
AcDbLine
 10
498.0
 20
302.5
 30
0.0
 11
621.0
 21
302.5
 31
0.0
  0
LINE
  5
2C0
100
AcDbEntity
  8
OBJECT
  6
CONTINUOUS
100
AcDbLine
 10
902.0
 20
302.5
 30
0.0
 11
779.0
 21
302.5
 31
0.0
  0
LINE
  5
2C1
100
AcDbEntity
  8
OBJECT
  6
CONTINUOUS
100
AcDbLine
 10
462.0
 20
300.0
 30
0.0
 11
422.5
 21
300.0
 31
0.0
  0
LINE
  5
2C2
100
AcDbEntity
  8
OBJECT
  6
CONTINUOUS
100
AcDbLine
 10
938.0
 20
300.0005000000001
 30
0.0
 11
980.0
 21
300.0010999999995
 31
0.0
  0
ARC
  5
2C3
100
AcDbEntity
  8
OBJECT
  6
CONTINUOUS
100
AcDbCircle
 10
788.0
 20
280.20700000000033
 30
0.0
 40
5.1464999999989232
100
AcDbArc
 50
90.0
 51
270.0
  0
DIMENSION
  5
2C4
100
AcDbEntity
  8
DIMENTION
100
AcDbDimension
  2
*D10
 10
1020.0
 20
150.0
 30
0.0
 11
700.0
 21
150.0
 31
0.0
  3
CAD
100
AcDbAlignedDimension
 13
380.0
 23
295.0
 33
0.0
 14
1020.0
 24
295.0
 34
0.0
100
AcDbRotatedDimension
1001
ACAD
1000
DSTYLE
1002
{
1070
             340
1005
33
1070
             147
1040
0.9999999962747097
1002
}
  0
DIMENSION
  5
2C5
100
AcDbEntity
  8
DIMENTION
100
AcDbDimension
  2
*D11
 10
1100.0
 20
300.0010999999995
 30
0.0
 11
1100.0
 21
640.00054999999975
 31
0.0
  3
CAD
100
AcDbAlignedDimension
 13
1000.0
 23
980.0
 33
0.0
 14
989.88329999999996
 24
300.0010999999995
 34
0.0
 50
90.0
100
AcDbRotatedDimension
1001
ACAD
1000
DSTYLE
1002
{
1070
             271
1070
               1
1070
             340
1005
33
1070
             147
1040
0.9999999962747097
1002
}
  0
DIMENSION
  5
2C6
100
AcDbEntity
  8
DIMENTION
100
AcDbDimension
  2
*D12
 10
1100.0
 20
1000.0
 30
0.0
 11
1100.9999999962747
 21
1035.0
 31
0.0
 70
             128
  3
CAD
100
AcDbAlignedDimension
 13
1000.0
 23
980.0
 33
0.0
 14
1005.0
 24
1000.0
 34
0.0
 50
90.0
100
AcDbRotatedDimension
1001
ACAD
1000
DSTYLE
1002
{
1070
             340
1005
33
1070
             174
1070
               0
1070
             147
1040
0.9999999962747097
1002
}
  0
DIMENSION
  5
2C7
100
AcDbEntity
  8
DIMENTION
100
AcDbDimension
  2
*D13
 10
1000.0
 20
1100.0
 30
0.0
 11
700.0
 21
1100.0
 31
0.0
  3
CAD
100
AcDbAlignedDimension
 13
400.0
 23
980.0
 33
0.0
 14
1000.0
 24
980.0
 34
0.0
100
AcDbRotatedDimension
1001
ACAD
1000
DSTYLE
1002
{
1070
             340
1005
33
1070
             147
1040
0.9999999962747097
1002
}
  0
DIMENSION
  5
2C8
100
AcDbEntity
  8
DIMENTION
100
AcDbDimension
  2
*D14
 10
1000.0
 20
1100.0
 30
0.0
 11
1060.0
 21
1100.9999999962747
 31
0.0
 70
             128
  3
CAD
100
AcDbAlignedDimension
 13
1020.0
 23
985.0
 33
0.0
 14
1000.0
 24
980.0
 34
0.0
100
AcDbRotatedDimension
1001
ACAD
1000
DSTYLE
1002
{
1070
             340
1005
33
1070
             174
1070
               0
1070
             147
1040
0.9999999962747097
1002
}
  0
DIMENSION
  5
2C9
100
AcDbEntity
  8
DIMENTION
100
AcDbDimension
  2
*D15
 10
300.0
 20
1000.0
 30
0.0
 11
300.0
 21
637.5
 31
0.0
  3
CAD
100
AcDbAlignedDimension
 13
636.0
 23
275.0
 33
0.0
 14
395.0
 24
1000.0
 34
0.0
 50
90.0
100
AcDbRotatedDimension
1001
ACAD
1000
DSTYLE
1002
{
1070
             340
1005
33
1070
             147
1040
0.9999999962747097
1002
}
  0
LINE
  5
2CA
100
AcDbEntity
  8
OBJECT
  6
CONTINUOUS
100
AcDbLine
 10
400.0
 20
-280.0000048327006
 30
0.0
 11
400.0
 21
-944.0000048327006
 31
0.0
  0
LINE
  5
2CB
100
AcDbEntity
  8
OBJECT
  6
CONTINUOUS
100
AcDbLine
 10
1000.0
 20
-280.0000048327006
 30
0.0
 11
1000.0
 21
-944.0000048327006
 31
0.0
  0
LWPOLYLINE
  5
2CC
100
AcDbEntity
  8
OBJECT
  6
CONTINUOUS
100
AcDbPolyline
 90
       10
 70
             129
 10
1020.0
 20
-950.56155764550954
 42
0.3441507314089108
 10
1018.4850712500727
 20
-948.62127264521882
 10
1000.0
 20
-944.0000048327006
 10
968.0
 20
-944.0000048327006
 42
0.414213562373095
 10
963.0
 20
-949.0000048327006
 10
963.0
 20
-969.0000048327006
 42
0.414213562373095
 10
968.0
 20
-974.0000048327006
 10
1000.0
 20
-974.0000048327006
 10
1018.4850712500727
 20
-969.37873702018237
 42
0.3441507314089657
 10
1020.0
 20
-967.43845201989166
  0
LWPOLYLINE
  5
2CD
100
AcDbEntity
  8
OBJECT
  6
CONTINUOUS
100
AcDbPolyline
 90
        5
 70
             129
 10
973.0
 20
-959.0000048327006
 42
-0.414213562373095
 10
978.0
 20
-954.0000048327006
 42
-0.414213562373095
 10
983.0
 20
-959.0000048327006
 42
-0.414213562373095
 10
978.0
 20
-964.0000048327006
 42
-0.414213562373095
 10
973.0
 20
-959.0000048327006
 42
-0.414213562373095
  0
LWPOLYLINE
  5
2CE
100
AcDbEntity
  8
OBJECT
  6
CONTINUOUS
100
AcDbPolyline
 90
        6
 70
             128
 10
1016.0
 20
-949.0000048327006
 10
972.0
 20
-949.0000048327006
 42
0.414213562373095
 10
968.0
 20
-953.0000048327006
 10
968.0
 20
-965.0000048327006
 42
0.414213562373095
 10
972.0
 20
-969.0000048327006
 10
1016.0
 20
-969.0000048327006
  0
LWPOLYLINE
  5
2CF
100
AcDbEntity
  8
OBJECT
  6
CONTINUOUS
100
AcDbPolyline
 90
       10
 70
             129
 10
380.0
 20
-950.56155764550954
 42
-0.3441507314089383
 10
381.51492874992732
 20
-948.62127264521882
 10
400.0
 20
-944.0000048327006
 10
432.0
 20
-944.0000048327006
 42
-0.414213562373095
 10
437.0
 20
-949.0000048327006
 10
437.0
 20
-969.0000048327006
 42
-0.414213562373095
 10
432.0
 20
-974.0000048327006
 10
400.0
 20
-974.0000048327006
 10
381.51492874992732
 20
-969.37873702018237
 42
-0.3441507314089108
 10
380.0
 20
-967.43845201989166
  0
LWPOLYLINE
  5
2D0
100
AcDbEntity
  8
OBJECT
  6
CONTINUOUS
100
AcDbPolyline
 90
        5
 70
             129
 10
417.0
 20
-959.0000048327006
 42
-0.414213562373095
 10
422.0
 20
-954.0000048327006
 42
-0.414213562373095
 10
427.0
 20
-959.0000048327006
 42
-0.414213562373095
 10
422.0
 20
-964.0000048327006
 42
-0.414213562373095
 10
417.0
 20
-959.0000048327006
 42
-0.414213562373095
  0
LWPOLYLINE
  5
2D1
100
AcDbEntity
  8
OBJECT
  6
CONTINUOUS
100
AcDbPolyline
 90
        6
 70
             128
 10
384.0
 20
-949.0000048327006
 10
428.0
 20
-949.0000048327006
 42
-0.414213562373095
 10
432.0
 20
-953.0000048327006
 10
432.0
 20
-965.0000048327006
 42
-0.414213562373095
 10
428.0
 20
-969.0000048327006
 10
384.0
 20
-969.0000048327006
  0
CIRCLE
  5
2D2
100
AcDbEntity
  8
OBJECT
  6
CONTINUOUS
100
AcDbCircle
 10
850.0
 20
-430.0000048327006
 30
0.0
 40
22.0
  0
SPLINE
  5
2D3
100
AcDbEntity
  8
OBJECT
  6
CONTINUOUS
100
AcDbSpline
210
0.0
220
0.0
230
1.0
 70
               8
 71
               2
 72
              10
 73
               7
 74
               0
 42
0.000001
 43
0.000001
 40
0.0
 40
0.0
 40
0.0
 40
0.4118058773033173
 40
0.4118058773033173
 40
0.7511947917529858
 40
0.7511947917529858
 40
1.0
 40
1.0
 40
1.0
 10
928.0
 20
-565.0000048327006
 30
0.0
 10
928.0
 20
-604.38860483270037
 30
0.0
 10
917.54994999999963
 20
-638.50005483270047
 30
0.0
 10
907.09989999999925
 20
-672.61150483270058
 30
0.0
 10
888.99994999999944
 20
-692.30575483270059
 30
0.0
 10
870.89999999999964
 20
-712.0000048327006
 30
0.0
 10
850.0
 20
-712.0000048327006
 30
0.0
  0
SPLINE
  5
2D4
100
AcDbEntity
  8
OBJECT
  6
CONTINUOUS
100
AcDbSpline
210
0.0
220
0.0
230
1.0
 70
               8
 71
               2
 72
              10
 73
               7
 74
               0
 42
0.000001
 43
0.000001
 40
0.0
 40
0.0
 40
0.0
 40
0.4071176974875058
 40
0.4071176974875058
 40
0.7457712465381814
 40
0.7457712465381814
 40
1.0
 40
1.0
 40
1.0
 10
764.0
 20
-565.0000048327006
 30
0.0
 10
764.0
 20
-606.5322048327007
 30
0.0
 10
775.52185000000009
 20
-642.5000548327007
 30
0.0
 10
787.04370000000017
 20
-678.4679048327007
 30
0.0
 10
807.00005000000056
 20
-699.23395483270065
 30
0.0
 10
826.95640000000094
 20
-720.0000048327006
 30
0.0
 10
850.0
 20
-720.0000048327006
 30
0.0
  0
SPLINE
  5
2D5
100
AcDbEntity
  8
OBJECT
  6
CONTINUOUS
100
AcDbSpline
210
0.0
220
0.0
230
1.0
 70
               8
 71
               2
 72
              10
 73
               7
 74
               0
 42
0.000001
 43
0.000001
 40
0.0
 40
0.0
 40
0.0
 40
0.384504394999197
 40
0.384504394999197
 40
0.720352838234267
 40
0.720352838234267
 40
1.0
 40
1.0
 40
1.0
 10
772.0
 20
-545.30570483270048
 30
0.0
 10
772.0
 20
-569.87520483270055
 30
0.0
 10
780.30645000000004
 20
-591.15285483270054
 30
0.0
 10
788.61290000000008
 20
-612.43050483270054
 30
0.0
 10
803.00004999999965
 20
-624.71525483270057
 30
0.0
 10
817.38719999999921
 20
-637.0000048327006
 30
0.0
 10
834.0
 20
-637.0000048327006
 30
0.0
  0
SPLINE
  5
2D6
100
AcDbEntity
  8
OBJECT
  6
CONTINUOUS
100
AcDbSpline
210
0.0
220
0.0
230
1.0
 70
               8
 71
               2
 72
              10
 73
               7
 74
               0
 42
0.000001
 43
0.000001
 40
0.0
 40
0.0
 40
0.0
 40
0.3812170135693202
 40
0.3812170135693202
 40
0.7167477984069021
 40
0.7167477984069021
 40
1.0
 40
1.0
 40
1.0
 10
764.0
 20
-544.23390483270032
 30
0.0
 10
764.0
 20
-571.23420483270047
 30
0.0
 10
773.37824999999975
 20
-594.61700483270056
 30
0.0
 10
782.75649999999951
 20
-617.99980483270065
 30
0.0
 10
799.00004999999965
 20
-631.49990483270062
 30
0.0
 10
815.24359999999979
 20
-645.0000048327006
 30
0.0
 10
834.0
 20
-645.0000048327006
 30
0.0
  0
LINE
  5
2D7
100
AcDbEntity
  8
OBJECT
  6
CONTINUOUS
100
AcDbLine
 10
834.0
 20
-637.0000048327006
 30
0.0
 11
834.0
 21
-645.0000048327006
 31
0.0
  0
SPLINE
  5
2D8
100
AcDbEntity
  8
OBJECT
  6
CONTINUOUS
100
AcDbSpline
210
0.0
220
0.0
230
1.0
 70
               8
 71
               2
 72
              10
 73
               7
 74
               0
 42
0.000001
 43
0.000001
 40
0.0
 40
0.0
 40
0.0
 40
0.2935757965800558
 40
0.2935757965800558
 40
0.7011835690966239
 40
0.7011835690966239
 40
1.0
 40
1.0
 40
1.0
 10
773.62230000000091
 20
-595.2200048327004
 30
0.0
 10
776.117400000001
 20
-617.82870483270062
 30
0.0
 10
782.45000000000073
 20
-638.50010483270034
 30
0.0
 10
792.90010000000075
 20
-672.61150483270058
 30
0.0
 10
811.0
 20
-692.30580483270069
 30
0.0
 10
829.10000000000036
 20
-712.0000048327006
 30
0.0
 10
850.0
 20
-712.0000048327006
 30
0.0
  0
LWPOLYLINE
  5
2D9
100
AcDbEntity
  8
OBJECT
  6
CONTINUOUS
100
AcDbPolyline
 90
        6
 70
             129
 10
869.0
 20
-626.0000048327006
 10
869.0
 20
-656.0000048327006
 10
844.0
 20
-656.0000048327006
 42
-0.414213562373095
 10
834.0
 20
-646.0000048327006
 10
834.0
 20
-636.0000048327006
 42
-0.414213562373095
 10
844.0
 20
-626.0000048327006
  0
LINE
  5
2DA
100
AcDbEntity
  8
OBJECT
  6
CONTINUOUS
100
AcDbLine
 10
869.0
 20
-651.0000048327006
 30
0.0
 11
889.0
 21
-651.0000048327006
 31
0.0
  0
LINE
  5
2DB
100
AcDbEntity
  8
OBJECT
  6
CONTINUOUS
100
AcDbLine
 10
869.0
 20
-631.0000048327006
 30
0.0
 11
889.0
 21
-631.0000048327006
 31
0.0
  0
SPLINE
  5
2DC
100
AcDbEntity
  8
OBJECT
  6
CONTINUOUS
100
AcDbSpline
210
0.0
220
0.0
230
1.0
 70
               8
 71
               2
 72
              10
 73
               7
 74
               0
 42
0.000001
 43
0.000001
 40
0.0
 40
0.0
 40
0.0
 40
0.4071180155700943
 40
0.4071180155700943
 40
0.7457715899193449
 40
0.7457715899193449
 40
1.0
 40
1.0
 40
1.0
 10
936.0
 20
-565.0000048327006
 30
0.0
 10
936.0
 20
-606.5322048327007
 30
0.0
 10
924.47810000000027
 20
-642.50010483270034
 30
0.0
 10
912.95629999999983
 20
-678.4679048327007
 30
0.0
 10
892.99990000000071
 20
-699.23400483270052
 30
0.0
 10
873.04359999999906
 20
-720.0000048327006
 30
0.0
 10
850.0
 20
-720.0000048327006
 30
0.0
  0
SPLINE
  5
2DD
100
AcDbEntity
  8
OBJECT
  6
CONTINUOUS
100
AcDbSpline
210
0.0
220
0.0
230
1.0
 70
               8
 71
               2
 72
              10
 73
               7
 74
               0
 42
0.000001
 43
0.000001
 40
0.0
 40
0.0
 40
0.0
 40
0.1456872507972114
 40
0.1456872507972114
 40
0.5316566310613029
 40
0.5316566310613029
 40
1.0
 40
1.0
 40
1.0
 10
870.96049999999923
 20
-423.3157048327007
 30
0.0
 10
880.30349999999999
 20
-428.23180483270062
 30
0.0
 10
888.99990000000071
 20
-437.69430483270071
 30
0.0
 10
907.09989999999925
 20
-457.38850483270062
 30
0.0
 10
917.54989999999998
 20
-491.5000048327006
 30
0.0
 10
928.0
 20
-525.61140483270037
 30
0.0
 10
928.0
 20
-565.0000048327006
 30
0.0
  0
SPLINE
  5
2DE
100
AcDbEntity
  8
OBJECT
  6
CONTINUOUS
100
AcDbSpline
210
0.0
220
0.0
230
1.0
 70
               8
 71
               2
 72
              10
 73
               7
 74
               0
 42
0.000001
 43
0.000001
 40
0.0
 40
0.0
 40
0.0
 40
0.2054989706671543
 40
0.2054989706671543
 40
0.5662729894987629
 40
0.5662729894987629
 40
1.0
 40
1.0
 40
1.0
 10
861.74539999999979
 20
-411.39680483270058
 30
0.0
 10
878.21930000000066
 20
-415.38580483270061
 30
0.0
 10
892.99990000000071
 20
-430.76610483270042
 30
0.0
 10
912.95629999999983
 20
-451.5321048327005
 30
0.0
 10
924.47810000000027
 20
-487.5000048327006
 30
0.0
 10
936.0
 20
-523.46780483270049
 30
0.0
 10
936.0
 20
-565.0000048327006
 30
0.0
  0
SPLINE
  5
2DF
100
AcDbEntity
  8
OBJECT
  6
CONTINUOUS
100
AcDbSpline
210
0.0
220
0.0
230
1.0
 70
               8
 71
               2
 72
              12
 73
               9
 74
               0
 42
0.000001
 43
0.000001
 40
0.0
 40
0.0
 40
0.0
 40
0.0082403734690907
 40
0.0082403734690907
 40
0.4599055537269532
 40
0.4599055537269532
 40
0.8443661665071283
 40
0.8443661665071283
 40
1.0
 40
1.0
 40
1.0
 10
772.5002000000004
 20
-544.23390483270032
 30
0.0
 10
772.2501000000002
 20
-544.7698048327004
 30
0.0
 10
772.0
 20
-545.30570483270048
 30
0.0
 10
772.0
 20
-511.19420483270051
 30
0.0
 10
782.45000000000073
 20
-481.65280483270044
 30
0.0
 10
792.90010000000075
 20
-452.11140483270037
 30
0.0
 10
811.0
 20
-435.05570483270048
 30
0.0
 10
819.83079999999973
 20
-426.73440483270042
 30
0.0
 10
829.32810000000063
 20
-422.47300483270055
 30
0.0
  0
SPLINE
  5
2E0
100
AcDbEntity
  8
OBJECT
  6
CONTINUOUS
100
AcDbSpline
210
0.0
220
0.0
230
1.0
 70
               8
 71
               2
 72
              10
 73
               7
 74
               0
 42
0.000001
 43
0.000001
 40
0.0
 40
0.0
 40
0.0
 40
0.2220738154987758
 40
0.2220738154987758
 40
0.5819429115088207
 40
0.5819429115088207
 40
1.0
 40
1.0
 40
1.0
 10
838.71429999999964
 20
-411.11540483270073
 30
0.0
 10
821.98650000000089
 20
-414.47860483270051
 30
0.0
 10
807.0
 20
-427.98390483270032
 30
0.0
 10
787.04370000000017
 20
-445.96780483270049
 30
0.0
 10
775.52180000000044
 20
-477.11690483270058
 30
0.0
 10
764.0
 20
-508.26600483270067
 30
0.0
 10
764.0
 20
-544.23390483270032
 30
0.0
  0
LINE
  5
2E1
100
AcDbEntity
  8
OBJECT
  6
CONTINUOUS
100
AcDbLine
 10
812.22719999999936
 20
-981.0000048327006
 30
0.0
 11
900.26319999999942
 21
-688.03510483270065
 31
0.0
  0
LINE
  5
2E2
100
AcDbEntity
  8
OBJECT
  6
CONTINUOUS
100
AcDbLine
 10
927.69759999999951
 20
-631.5000048327006
 30
0.0
 11
822.67289999999957
 21
-981.0000048327006
 31
0.0
  0
POLYLINE
  5
2E3
100
AcDbEntity
  8
OBJECT
  6
CONTINUOUS
100
AcDb2dPolyline
 66
               1
 10
0.0
 20
0.0
 30
0.0
 70
               1
 75
               5
  0
VERTEX
  5
2E4
100
AcDbEntity
  8
OBJECT
  6
CONTINUOUS
100
AcDbVertex
100
AcDb2dVertex
 10
890.0
 20
-631.0000048327006
 30
0.0
  0
VERTEX
  5
2E5
100
AcDbEntity
  8
OBJECT
  6
CONTINUOUS
100
AcDbVertex
100
AcDb2dVertex
 10
890.0
 20
-634.0000048327006
 30
0.0
  0
VERTEX
  5
2E6
100
AcDbEntity
  8
OBJECT
  6
CONTINUOUS
100
AcDbVertex
100
AcDb2dVertex
 10
869.0
 20
-634.0000048327006
 30
0.0
  0
VERTEX
  5
2E7
100
AcDbEntity
  8
OBJECT
  6
CONTINUOUS
100
AcDbVertex
100
AcDb2dVertex
 10
869.0
 20
-631.0000048327006
 30
0.0
  0
SEQEND
  5
2E8
100
AcDbEntity
  8
OBJECT
  6
CONTINUOUS
  0
POLYLINE
  5
2E9
100
AcDbEntity
  8
OBJECT
  6
CONTINUOUS
100
AcDb2dPolyline
 66
               1
 10
0.0
 20
0.0
 30
0.0
 70
               1
 75
               5
  0
VERTEX
  5
2EA
100
AcDbEntity
  8
OBJECT
  6
CONTINUOUS
100
AcDbVertex
100
AcDb2dVertex
 10
890.0
 20
-648.0000048327006
 30
0.0
  0
VERTEX
  5
2EB
100
AcDbEntity
  8
OBJECT
  6
CONTINUOUS
100
AcDbVertex
100
AcDb2dVertex
 10
890.0
 20
-651.0000048327006
 30
0.0
  0
VERTEX
  5
2EC
100
AcDbEntity
  8
OBJECT
  6
CONTINUOUS
100
AcDbVertex
100
AcDb2dVertex
 10
869.0
 20
-651.0000048327006
 30
0.0
  0
VERTEX
  5
2ED
100
AcDbEntity
  8
OBJECT
  6
CONTINUOUS
100
AcDbVertex
100
AcDb2dVertex
 10
869.0
 20
-648.0000048327006
 30
0.0
  0
SEQEND
  5
2EE
100
AcDbEntity
  8
OBJECT
  6
CONTINUOUS
  0
LWPOLYLINE
  5
2EF
100
AcDbEntity
  8
OBJECT
  6
CONTINUOUS
100
AcDbPolyline
 90
       10
 70
             128
 10
822.67289999999957
 20
-981.0000048327006
 10
822.67289999999957
 20
-986.0000048327006
 10
822.67289999999957
 20
-986.0000048327006
 10
822.67289999999957
 20
-986.0000048327006
 42
-0.414213562373095
 10
817.67289999999957
 20
-991.0000048327006
 10
817.67289999999957
 20
-991.0000048327006
 10
817.67289999999957
 20
-991.0000048327006
 42
-0.414213562373095
 10
812.67289999999957
 20
-986.0000048327006
 10
812.67289999999957
 20
-981.0000048327006
 10
812.67289999999957
 20
-981.0000048327006
  0
POLYLINE
  5
2F0
100
AcDbEntity
  8
OBJECT
  6
CONTINUOUS
100
AcDb2dPolyline
 66
               1
 10
0.0
 20
0.0
 30
0.0
 70
               1
 75
               5
  0
VERTEX
  5
2F1
100
AcDbEntity
  8
OBJECT
  6
CONTINUOUS
100
AcDbVertex
100
AcDb2dVertex
 10
397.0
 20
-860.5000048327006
 30
0.0
  0
VERTEX
  5
2F2
100
AcDbEntity
  8
OBJECT
  6
CONTINUOUS
100
AcDbVertex
100
AcDb2dVertex
 10
400.0
 20
-860.5000048327006
 30
0.0
  0
VERTEX
  5
2F3
100
AcDbEntity
  8
OBJECT
  6
CONTINUOUS
100
AcDbVertex
100
AcDb2dVertex
 10
400.0
 20
-837.5000048327006
 30
0.0
  0
VERTEX
  5
2F4
100
AcDbEntity
  8
OBJECT
  6
CONTINUOUS
100
AcDbVertex
100
AcDb2dVertex
 10
377.0
 20
-837.5000048327006
 30
0.0
  0
VERTEX
  5
2F5
100
AcDbEntity
  8
OBJECT
  6
CONTINUOUS
100
AcDbVertex
100
AcDb2dVertex
 10
377.0
 20
-810.5000048327006
 30
0.0
  0
VERTEX
  5
2F6
100
AcDbEntity
  8
OBJECT
  6
CONTINUOUS
100
AcDbVertex
100
AcDb2dVertex
 10
373.0
 20
-800.5000048327006
 30
0.0
  0
VERTEX
  5
2F7
100
AcDbEntity
  8
OBJECT
  6
CONTINUOUS
100
AcDbVertex
100
AcDb2dVertex
 10
370.0
 20
-800.5000048327006
 30
0.0
  0
VERTEX
  5
2F8
100
AcDbEntity
  8
OBJECT
  6
CONTINUOUS
100
AcDbVertex
100
AcDb2dVertex
 10
374.0
 20
-810.5000048327006
 30
0.0
  0
VERTEX
  5
2F9
100
AcDbEntity
  8
OBJECT
  6
CONTINUOUS
100
AcDbVertex
100
AcDb2dVertex
 10
374.0
 20
-840.5000048327006
 30
0.0
  0
VERTEX
  5
2FA
100
AcDbEntity
  8
OBJECT
  6
CONTINUOUS
100
AcDbVertex
100
AcDb2dVertex
 10
397.0
 20
-840.5000048327006
 30
0.0
  0
SEQEND
  5
2FB
100
AcDbEntity
  8
OBJECT
  6
CONTINUOUS
  0
POLYLINE
  5
2FC
100
AcDbEntity
  8
OBJECT
  6
CONTINUOUS
100
AcDb2dPolyline
 66
               1
 10
0.0
 20
0.0
 30
0.0
 70
               1
 75
               5
  0
VERTEX
  5
2FD
100
AcDbEntity
  8
OBJECT
  6
CONTINUOUS
100
AcDbVertex
100
AcDb2dVertex
 10
370.0
 20
-569.0000048327006
 30
0.0
  0
VERTEX
  5
2FE
100
AcDbEntity
  8
OBJECT
  6
CONTINUOUS
100
AcDbVertex
100
AcDb2dVertex
 10
400.0
 20
-569.0000048327006
 30
0.0
  0
VERTEX
  5
2FF
100
AcDbEntity
  8
OBJECT
  6
CONTINUOUS
100
AcDbVertex
100
AcDb2dVertex
 10
400.0
 20
-629.0000048327006
 30
0.0
  0
VERTEX
  5
300
100
AcDbEntity
  8
OBJECT
  6
CONTINUOUS
100
AcDbVertex
100
AcDb2dVertex
 10
370.0
 20
-629.0000048327006
 30
0.0
  0
SEQEND
  5
301
100
AcDbEntity
  8
OBJECT
  6
CONTINUOUS
  0
LINE
  5
302
100
AcDbEntity
  8
OBJECT
  6
CONTINUOUS
100
AcDbLine
 10
397.0
 20
-569.0000048327006
 30
0.0
 11
397.0
 21
-629.0000048327006
 31
0.0
  0
LINE
  5
303
100
AcDbEntity
  8
OBJECT
  6
CONTINUOUS
100
AcDbLine
 10
437.5
 20
-987.5000048327006
 30
0.0
 11
482.5
 21
-987.5000048327006
 31
0.0
  0
POLYLINE
  5
304
100
AcDbEntity
  8
OBJECT
  6
CONTINUOUS
100
AcDb2dPolyline
 66
               1
 10
0.0
 20
0.0
 30
0.0
 70
               1
 75
               5
  0
VERTEX
  5
305
100
AcDbEntity
  8
OBJECT
  6
CONTINUOUS
100
AcDbVertex
100
AcDb2dVertex
 10
445.0
 20
-1041.7500048327006
 30
0.0
  0
VERTEX
  5
306
100
AcDbEntity
  8
OBJECT
  6
CONTINUOUS
100
AcDbVertex
100
AcDb2dVertex
 10
447.5
 20
-1041.7500048327006
 30
0.0
  0
VERTEX
  5
307
100
AcDbEntity
  8
OBJECT
  6
CONTINUOUS
100
AcDbVertex
100
AcDb2dVertex
 10
447.5
 20
-1058.2500048327006
 30
0.0
  0
VERTEX
  5
308
100
AcDbEntity
  8
OBJECT
  6
CONTINUOUS
100
AcDbVertex
100
AcDb2dVertex
 10
445.0
 20
-1058.2500048327006
 30
0.0
  0
SEQEND
  5
309
100
AcDbEntity
  8
OBJECT
  6
CONTINUOUS
  0
POLYLINE
  5
30A
100
AcDbEntity
  8
OBJECT
  6
CONTINUOUS
100
AcDb2dPolyline
 66
               1
 10
0.0
 20
0.0
 30
0.0
 70
               1
 75
               5
  0
VERTEX
  5
30B
100
AcDbEntity
  8
OBJECT
  6
CONTINUOUS
100
AcDbVertex
100
AcDb2dVertex
 10
439.5
 20
-1044.5000048327006
 30
0.0
  0
VERTEX
  5
30C
100
AcDbEntity
  8
OBJECT
  6
CONTINUOUS
100
AcDbVertex
100
AcDb2dVertex
 10
442.0
 20
-1044.5000048327006
 30
0.0
  0
VERTEX
  5
30D
100
AcDbEntity
  8
OBJECT
  6
CONTINUOUS
100
AcDbVertex
100
AcDb2dVertex
 10
442.0
 20
-1055.5000048327006
 30
0.0
  0
VERTEX
  5
30E
100
AcDbEntity
  8
OBJECT
  6
CONTINUOUS
100
AcDbVertex
100
AcDb2dVertex
 10
439.5
 20
-1055.5000048327006
 30
0.0
  0
SEQEND
  5
30F
100
AcDbEntity
  8
OBJECT
  6
CONTINUOUS
  0
LWPOLYLINE
  5
310
100
AcDbEntity
  8
OBJECT
  6
CONTINUOUS
100
AcDbPolyline
 90
       10
 70
             129
 10
467.5
 20
-1045.5000048327006
 42
-0.414213562373095
 10
469.5
 20
-1047.5000048327006
 10
469.5
 20
-1060.5000048327006
 42
-0.414213562373095
 10
467.5
 20
-1062.5000048327006
 10
466.5
 20
-1062.5000048327006
 10
466.5
 20
-1055.5000048327006
 10
451.5
 20
-1055.5000048327006
 42
-0.414213562373095
 10
449.5
 20
-1053.5000048327006
 10
449.5
 20
-1047.5000048327006
 42
-0.414213562373095
 10
451.5
 20
-1045.5000048327006
  0
POLYLINE
  5
311
100
AcDbEntity
  8
OBJECT
  6
CONTINUOUS
100
AcDb2dPolyline
 66
               1
 10
0.0
 20
0.0
 30
0.0
 70
               1
 75
               5
  0
VERTEX
  5
312
100
AcDbEntity
  8
OBJECT
  6
CONTINUOUS
100
AcDbVertex
100
AcDb2dVertex
 10
455.0
 20
-981.0000048327006
 30
0.0
  0
VERTEX
  5
313
100
AcDbEntity
  8
OBJECT
  6
CONTINUOUS
100
AcDbVertex
100
AcDb2dVertex
 10
525.0
 20
-981.0000048327006
 30
0.0
  0
VERTEX
  5
314
100
AcDbEntity
  8
OBJECT
  6
CONTINUOUS
100
AcDbVertex
100
AcDb2dVertex
 10
525.0
 20
-984.0000048327006
 30
0.0
  0
VERTEX
  5
315
100
AcDbEntity
  8
OBJECT
  6
CONTINUOUS
100
AcDbVertex
100
AcDb2dVertex
 10
455.0
 20
-984.0000048327006
 30
0.0
  0
SEQEND
  5
316
100
AcDbEntity
  8
OBJECT
  6
CONTINUOUS
  0
POLYLINE
  5
317
100
AcDbEntity
  8
OBJECT
  6
CONTINUOUS
100
AcDb2dPolyline
 66
               1
 10
0.0
 20
0.0
 30
0.0
 70
               1
 75
               5
  0
VERTEX
  5
318
100
AcDbEntity
  8
OBJECT
  6
CONTINUOUS
100
AcDbVertex
100
AcDb2dVertex
 10
463.5
 20
-984.0000048327006
 30
0.0
  0
VERTEX
  5
319
100
AcDbEntity
  8
OBJECT
  6
CONTINUOUS
100
AcDbVertex
100
AcDb2dVertex
 10
516.5
 20
-984.0000048327006
 30
0.0
  0
VERTEX
  5
31A
100
AcDbEntity
  8
OBJECT
  6
CONTINUOUS
100
AcDbVertex
100
AcDb2dVertex
 10
512.5
 20
-987.5000048327006
 30
0.0
  0
VERTEX
  5
31B
100
AcDbEntity
  8
OBJECT
  6
CONTINUOUS
100
AcDbVertex
100
AcDb2dVertex
 10
512.5
 20
-991.0000048327006
 30
0.0
  0
VERTEX
  5
31C
100
AcDbEntity
  8
OBJECT
  6
CONTINUOUS
100
AcDbVertex
100
AcDb2dVertex
 10
467.5
 20
-991.0000048327006
 30
0.0
  0
VERTEX
  5
31D
100
AcDbEntity
  8
OBJECT
  6
CONTINUOUS
100
AcDbVertex
100
AcDb2dVertex
 10
467.5
 20
-987.5000048327006
 30
0.0
  0
SEQEND
  5
31E
100
AcDbEntity
  8
OBJECT
  6
CONTINUOUS
  0
LINE
  5
31F
100
AcDbEntity
  8
OBJECT
  6
CONTINUOUS
100
AcDbLine
 10
467.5
 20
-987.5000048327006
 30
0.0
 11
512.5
 21
-987.5000048327006
 31
0.0
  0
SPLINE
  5
320
100
AcDbEntity
  8
OBJECT
  6
CONTINUOUS
100
AcDbSpline
210
0.0
220
0.0
230
1.0
 70
               9
 71
               2
 72
              28
 73
              25
 74
               0
 42
0.000001
 43
0.000001
 40
0.0
 40
0.0
 40
0.0
 40
0.1364451216774349
 40
0.1364451216774349
 40
0.206088985866959
 40
0.206088985866959
 40
0.2868044973790079
 40
0.2868044973790079
 40
0.3351288113064328
 40
0.3351288113064328
 40
0.3436566314112725
 40
0.3436566314112725
 40
0.525583460314519
 40
0.525583460314519
 40
0.6108616613629158
 40
0.6108616613629158
 40
0.7927884902661623
 40
0.7927884902661623
 40
0.8013163103710019
 40
0.8013163103710019
 40
0.8496406242984268
 40
0.8496406242984268
 40
0.9303561358104757
 40
0.9303561358104757
 40
1.0
 40
1.0
 40
1.0
 10
514.0
 20
-991.0000048327006
 30
0.0
 10
490.0
 20
-991.0000048327006
 30
0.0
 10
466.0
 20
-991.0000048327006
 30
0.0
 10
466.0
 20
-1003.2500048327006
 30
0.0
 10
466.0
 20
-1015.5000048327006
 30
0.0
 10
466.0
 20
-1030.5000048327006
 30
0.0
 10
472.0
 20
-1043.0000048327006
 30
0.0
 10
472.0
 20
-1051.5000048327006
 30
0.0
 10
472.0
 20
-1060.0000048327006
 30
0.0
 10
473.5
 20
-1060.0000048327006
 30
0.0
 10
475.0
 20
-1060.0000048327006
 30
0.0
 10
475.0
 20
-1028.0000048327006
 30
0.0
 10
475.0
 20
-996.0000048327006
 30
0.0
 10
490.0
 20
-996.0000048327006
 30
0.0
 10
505.0
 20
-996.0000048327006
 30
0.0
 10
505.0
 20
-1028.0000048327006
 30
0.0
 10
505.0
 20
-1060.0000048327006
 30
0.0
 10
506.5
 20
-1060.0000048327006
 30
0.0
 10
508.0
 20
-1060.0000048327006
 30
0.0
 10
508.0
 20
-1051.5000048327006
 30
0.0
 10
508.0
 20
-1043.0000048327006
 30
0.0
 10
514.0
 20
-1030.5000048327006
 30
0.0
 10
514.0
 20
-1015.5000048327006
 30
0.0
 10
514.0
 20
-1003.2500048327006
 30
0.0
 10
514.0
 20
-991.0000048327006
 30
0.0
  0
POLYLINE
  5
321
100
AcDbEntity
  8
OBJECT
  6
CONTINUOUS
100
AcDb2dPolyline
 66
               1
 10
0.0
 20
0.0
 30
0.0
 70
               1
 75
               5
  0
VERTEX
  5
322
100
AcDbEntity
  8
OBJECT
  6
CONTINUOUS
100
AcDbVertex
100
AcDb2dVertex
 10
508.0
 20
-993.0000048327006
 30
0.0
  0
VERTEX
  5
323
100
AcDbEntity
  8
OBJECT
  6
CONTINUOUS
100
AcDbVertex
100
AcDb2dVertex
 10
472.0
 20
-993.0000048327006
 30
0.0
  0
VERTEX
  5
324
100
AcDbEntity
  8
OBJECT
  6
CONTINUOUS
100
AcDbVertex
100
AcDb2dVertex
 10
472.0
 20
-1060.0000048327006
 30
0.0
  0
VERTEX
  5
325
100
AcDbEntity
  8
OBJECT
  6
CONTINUOUS
100
AcDbVertex
100
AcDb2dVertex
 10
475.0
 20
-1060.0000048327006
 30
0.0
  0
VERTEX
  5
326
100
AcDbEntity
  8
OBJECT
  6
CONTINUOUS
100
AcDbVertex
100
AcDb2dVertex
 10
475.0
 20
-996.0000048327006
 30
0.0
  0
VERTEX
  5
327
100
AcDbEntity
  8
OBJECT
  6
CONTINUOUS
100
AcDbVertex
100
AcDb2dVertex
 10
505.0
 20
-996.0000048327006
 30
0.0
  0
VERTEX
  5
328
100
AcDbEntity
  8
OBJECT
  6
CONTINUOUS
100
AcDbVertex
100
AcDb2dVertex
 10
505.0
 20
-1060.0000048327006
 30
0.0
  0
VERTEX
  5
329
100
AcDbEntity
  8
OBJECT
  6
CONTINUOUS
100
AcDbVertex
100
AcDb2dVertex
 10
508.0
 20
-1060.0000048327006
 30
0.0
  0
SEQEND
  5
32A
100
AcDbEntity
  8
OBJECT
  6
CONTINUOUS
  0
SPLINE
  5
32B
100
AcDbEntity
  8
OBJECT
  6
CONTINUOUS
100
AcDbSpline
210
0.0
220
0.0
230
1.0
 70
              13
 71
               2
 72
              28
 73
              25
 74
               0
 42
0.000001
 43
0.000001
 40
0.0
 40
0.0
 40
0.0
 40
0.011666436947165
 40
0.011666436947165
 40
0.0307673121208429
 40
0.0307673121208429
 40
0.082638304279759
 40
0.082638304279759
 40
0.1017391794534372
 40
0.1017391794534372
 40
0.1134056164006016
 40
0.1134056164006016
 40
0.5000000000000007
 40
0.5000000000000007
 40
0.5116664369471649
 40
0.5116664369471649
 40
0.5307673121208427
 40
0.5307673121208427
 40
0.5826383042797588
 40
0.5826383042797588
 40
0.6017391794534367
 40
0.6017391794534367
 40
0.6134056164006005
 40
0.6134056164006005
 40
1.0
 40
1.0
 40
1.0
 10
502.5
 20
-1003.2054430568882
 30
0.0
 41
1.0
 10
502.5
 20
-1001.5000048327006
 30
0.0
 41
0.760917374327411
 10
500.81598100221333
 20
-1001.2305617930548
 30
0.0
 41
1.0
 10
498.53299050110667
 20
-1000.8652833128776
 30
0.0
 41
1.0
 10
496.25
 20
-1000.5000048327006
 30
0.0
 41
1.0
 10
490.0
 20
-999.5000048327006
 30
0.0
 41
1.0
 10
483.75
 20
-1000.5000048327006
 30
0.0
 41
1.0
 10
481.46700949889328
 20
-1000.8652833128778
 30
0.0
 41
1.0
 10
479.18401899778661
 20
-1001.2305617930549
 30
0.0
 41
1.0
 10
477.49999999999989
 20
-1001.5000048327006
 30
0.0
 41
0.7609173743273774
 10
477.5
 20
-1003.2054430568883
 30
0.0
 41
1.0
 10
477.5
 20
-1050.0000048327006
 30
0.0
 41
1.0
 10
477.5
 20
-1096.7945666085132
 30
0.0
 41
1.0
 10
477.5
 20
-1098.5000048327008
 30
0.0
 41
0.7609173743273928
 10
479.18401899778667
 20
-1098.7694478723465
 30
0.0
 41
1.0
 10
481.46700949889333
 20
-1099.1347263525236
 30
0.0
 41
1.0
 10
483.75
 20
-1099.5000048327006
 30
0.0
 41
1.0
 10
490.0
 20
-1100.5000048327006
 30
0.0
 41
1.0
 10
496.25
 20
-1099.5000048327006
 30
0.0
 41
1.0
 10
498.53299050110667
 20
-1099.1347263525236
 30
0.0
 41
1.0
 10
500.81598100221333
 20
-1098.7694478723465
 30
0.0
 41
1.0
 10
502.49999999999983
 20
-1098.5000048327006
 30
0.0
 41
0.7609173743274694
 10
502.5
 20
-1096.7945666085132
 30
0.0
 41
1.0
 10
502.5
 20
-1050.0000048327006
 30
0.0
 41
1.0
 10
502.5
 20
-1003.2054430568882
 30
0.0
 41
1.0
  0
POLYLINE
  5
32C
100
AcDbEntity
  8
OBJECT
  6
CONTINUOUS
100
AcDb2dPolyline
 66
               1
 10
0.0
 20
0.0
 30
0.0
 70
               1
 75
               5
  0
VERTEX
  5
32D
100
AcDbEntity
  8
OBJECT
  6
CONTINUOUS
100
AcDbVertex
100
AcDb2dVertex
 10
475.0
 20
-1041.7500048327006
 30
0.0
  0
VERTEX
  5
32E
100
AcDbEntity
  8
OBJECT
  6
CONTINUOUS
100
AcDbVertex
100
AcDb2dVertex
 10
477.5
 20
-1041.7500048327006
 30
0.0
  0
VERTEX
  5
32F
100
AcDbEntity
  8
OBJECT
  6
CONTINUOUS
100
AcDbVertex
100
AcDb2dVertex
 10
477.5
 20
-1058.2500048327006
 30
0.0
  0
VERTEX
  5
330
100
AcDbEntity
  8
OBJECT
  6
CONTINUOUS
100
AcDbVertex
100
AcDb2dVertex
 10
475.0
 20
-1058.2500048327006
 30
0.0
  0
SEQEND
  5
331
100
AcDbEntity
  8
OBJECT
  6
CONTINUOUS
  0
POLYLINE
  5
332
100
AcDbEntity
  8
OBJECT
  6
CONTINUOUS
100
AcDb2dPolyline
 66
               1
 10
0.0
 20
0.0
 30
0.0
 70
               1
 75
               5
  0
VERTEX
  5
333
100
AcDbEntity
  8
OBJECT
  6
CONTINUOUS
100
AcDbVertex
100
AcDb2dVertex
 10
502.5
 20
-1041.7500048327006
 30
0.0
  0
VERTEX
  5
334
100
AcDbEntity
  8
OBJECT
  6
CONTINUOUS
100
AcDbVertex
100
AcDb2dVertex
 10
505.0
 20
-1041.7500048327006
 30
0.0
  0
VERTEX
  5
335
100
AcDbEntity
  8
OBJECT
  6
CONTINUOUS
100
AcDbVertex
100
AcDb2dVertex
 10
505.0
 20
-1058.2500048327006
 30
0.0
  0
VERTEX
  5
336
100
AcDbEntity
  8
OBJECT
  6
CONTINUOUS
100
AcDbVertex
100
AcDb2dVertex
 10
502.5
 20
-1058.2500048327006
 30
0.0
  0
SEQEND
  5
337
100
AcDbEntity
  8
OBJECT
  6
CONTINUOUS
  0
POLYLINE
  5
338
100
AcDbEntity
  8
OBJECT
  6
CONTINUOUS
100
AcDb2dPolyline
 66
               1
 10
0.0
 20
0.0
 30
0.0
 70
               1
 75
               5
  0
VERTEX
  5
339
100
AcDbEntity
  8
OBJECT
  6
CONTINUOUS
100
AcDbVertex
100
AcDb2dVertex
 10
508.0
 20
-1044.5000048327006
 30
0.0
  0
VERTEX
  5
33A
100
AcDbEntity
  8
OBJECT
  6
CONTINUOUS
100
AcDbVertex
100
AcDb2dVertex
 10
510.5
 20
-1044.5000048327006
 30
0.0
  0
VERTEX
  5
33B
100
AcDbEntity
  8
OBJECT
  6
CONTINUOUS
100
AcDbVertex
100
AcDb2dVertex
 10
510.5
 20
-1055.5000048327006
 30
0.0
  0
VERTEX
  5
33C
100
AcDbEntity
  8
OBJECT
  6
CONTINUOUS
100
AcDbVertex
100
AcDb2dVertex
 10
508.0
 20
-1055.5000048327006
 30
0.0
  0
SEQEND
  5
33D
100
AcDbEntity
  8
OBJECT
  6
CONTINUOUS
  0
POLYLINE
  5
33E
100
AcDbEntity
  8
OBJECT
  6
CONTINUOUS
100
AcDb2dPolyline
 66
               1
 10
0.0
 20
0.0
 30
0.0
 70
               1
 75
               5
  0
VERTEX
  5
33F
100
AcDbEntity
  8
OBJECT
  6
CONTINUOUS
100
AcDbVertex
100
AcDb2dVertex
 10
469.5
 20
-1044.5000048327006
 30
0.0
  0
VERTEX
  5
340
100
AcDbEntity
  8
OBJECT
  6
CONTINUOUS
100
AcDbVertex
100
AcDb2dVertex
 10
472.0
 20
-1044.5000048327006
 30
0.0
  0
VERTEX
  5
341
100
AcDbEntity
  8
OBJECT
  6
CONTINUOUS
100
AcDbVertex
100
AcDb2dVertex
 10
472.0
 20
-1055.5000048327006
 30
0.0
  0
VERTEX
  5
342
100
AcDbEntity
  8
OBJECT
  6
CONTINUOUS
100
AcDbVertex
100
AcDb2dVertex
 10
469.5
 20
-1055.5000048327006
 30
0.0
  0
SEQEND
  5
343
100
AcDbEntity
  8
OBJECT
  6
CONTINUOUS
  0
POLYLINE
  5
344
100
AcDbEntity
  8
OBJECT
  6
CONTINUOUS
100
AcDb2dPolyline
 66
               1
 10
0.0
 20
0.0
 30
0.0
 70
               1
 75
               5
  0
VERTEX
  5
345
100
AcDbEntity
  8
OBJECT
  6
CONTINUOUS
100
AcDbVertex
100
AcDb2dVertex
 10
469.5
 20
-1037.5000048327006
 30
0.0
  0
VERTEX
  5
346
100
AcDbEntity
  8
OBJECT
  6
CONTINUOUS
100
AcDbVertex
100
AcDb2dVertex
 10
469.5
 20
-1062.5000048327006
 30
0.0
  0
VERTEX
  5
347
100
AcDbEntity
  8
OBJECT
  6
CONTINUOUS
100
AcDbVertex
100
AcDb2dVertex
 10
466.5
 20
-1062.5000048327006
 30
0.0
  0
VERTEX
  5
348
100
AcDbEntity
  8
OBJECT
  6
CONTINUOUS
100
AcDbVertex
100
AcDb2dVertex
 10
466.5
 20
-1040.5000048327006
 30
0.0
  0
VERTEX
  5
349
100
AcDbEntity
  8
OBJECT
  6
CONTINUOUS
100
AcDbVertex
100
AcDb2dVertex
 10
449.5
 20
-1040.5000048327006
 30
0.0
  0
VERTEX
  5
34A
100
AcDbEntity
  8
OBJECT
  6
CONTINUOUS
100
AcDbVertex
100
AcDb2dVertex
 10
449.5
 20
-1037.5000048327006
 30
0.0
  0
SEQEND
  5
34B
100
AcDbEntity
  8
OBJECT
  6
CONTINUOUS
  0
LINE
  5
34C
100
AcDbEntity
  8
OBJECT
  6
CONTINUOUS
100
AcDbLine
 10
451.5
 20
-1048.5000048327006
 30
0.0
 11
466.5
 21
-1048.5000048327006
 31
0.0
  0
ARC
  5
34D
100
AcDbEntity
  8
OBJECT
  6
CONTINUOUS
100
AcDbCircle
 10
451.5
 20
-1050.5000048327006
 30
0.0
 40
2.0
100
AcDbArc
 50
90.0
 51
180.0
  0
SPLINE
  5
34E
100
AcDbEntity
  8
OBJECT
  6
CONTINUOUS
100
AcDbSpline
210
0.0
220
0.0
230
1.0
 70
              12
 71
               2
 72
              33
 73
              30
 74
               0
 42
0.000001
 43
0.000001
 40
0.0
 40
0.0
 40
0.0
 40
0.0692872537027544
 40
0.0692872537027544
 40
0.0953250349395367
 40
0.0953250349395367
 40
0.0953253178401118
 40
0.0953253178401118
 40
0.111228255069239
 40
0.111228255069239
 40
0.1112283776841924
 40
0.6382223960864805
 40
0.6382225187014358
 40
0.6382225187014358
 40
0.6541254559305637
 40
0.6541254559305637
 40
0.6541257388311388
 40
0.6541257388311388
 40
0.680163520067921
 40
0.680163520067921
 40
0.7508711437855156
 40
0.7508711437855156
 40
0.7769089250222978
 40
0.7769089250222978
 40
0.7769092079228729
 40
0.7769092079228729
 40
0.7928121451520017
 40
0.7928121451520017
 40
0.792812267766957
 40
1.0
 40
1.0
 40
1.0
 10
466.0007999999998
 20
-1000.4610048327004
 30
0.0
 41
1.0
 10
459.87540000000081
 20
-999.51990483270038
 30
0.0
 41
1.0
 10
453.75
 20
-1000.5000048327006
 30
0.0
 41
1.0
 10
451.46699999999964
 20
-1000.8652548327007
 30
0.0
 41
1.0
 10
449.18399999999929
 20
-1001.2305048327007
 30
0.0
 41
1.0
 10
449.18397519538587
 20
-1001.2305088023227
 30
0.0
 41
1.0
 10
449.1839503907724
 20
-1001.2305127719446
 30
0.0
 41
1.0
 10
447.5
 20
-1001.5000048327006
 30
0.0
 41
0.7609286446881123
 10
447.5
 20
-1003.2053830574336
 30
0.0
 41
1.0
 10
447.5
 20
-1003.205393945067
 30
0.0
 41
1.0
 10
447.5
 20
-1050.0000048327004
 30
0.0
 41
1.0
 10
447.5
 20
-1096.7946157203339
 30
0.0
 41
1.0
 10
447.5
 20
-1096.7946266079675
 30
0.0
 41
1.0
 10
447.49999999999994
 20
-1098.5000048327004
 30
0.0
 41
0.7609286446881365
 10
449.1839503907724
 20
-1098.7694968934566
 30
0.0
 41
1.0
 10
449.18397519538587
 20
-1098.7695008630785
 30
0.0
 41
1.0
 10
449.18399999999929
 20
-1098.7695048327005
 30
0.0
 41
1.0
 10
451.46699999999964
 20
-1099.1347548327005
 30
0.0
 41
1.0
 10
453.75
 20
-1099.5000048327006
 30
0.0
 41
1.0
 10
460.0
 20
-1100.4979472195319
 30
0.0
 41
1.0
 10
466.25
 20
-1099.5000048327006
 30
0.0
 41
1.0
 10
468.53300000000036
 20
-1099.1347548327005
 30
0.0
 41
1.0
 10
470.81600000000071
 20
-1098.7695048327005
 30
0.0
 41
1.0
 10
470.81602480461413
 20
-1098.7695008630785
 30
0.0
 41
1.0
 10
470.8160496092276
 20
-1098.7694968934566
 30
0.0
 41
1.0
 10
472.50000000000017
 20
-1098.5000048327006
 30
0.0
 41
0.7609286446880782
 10
472.5
 20
-1096.7946266079675
 30
0.0
 41
1.0
 10
472.5
 20
-1096.7946157203339
 30
0.0
 41
1.0
 10
472.5
 20
-1078.3973048327005
 30
0.0
 41
1.0
 10
472.5
 20
-1060.0000048327006
 30
0.0
 41
1.0
  0
POLYLINE
  5
34F
100
AcDbEntity
  8
OBJECT
  6
CONTINUOUS
100
AcDb2dPolyline
 66
               1
 10
0.0
 20
0.0
 30
0.0
 75
               5
  0
VERTEX
  5
350
100
AcDbEntity
  8
OBJECT
  6
CONTINUOUS
100
AcDbVertex
100
AcDb2dVertex
 10
466.0
 20
-993.0000048327006
 30
0.0
  0
VERTEX
  5
351
100
AcDbEntity
  8
OBJECT
  6
CONTINUOUS
100
AcDbVertex
100
AcDb2dVertex
 10
442.0
 20
-993.0000048327006
 30
0.0
  0
VERTEX
  5
352
100
AcDbEntity
  8
OBJECT
  6
CONTINUOUS
100
AcDbVertex
100
AcDb2dVertex
 10
442.0
 20
-1060.0000048327006
 30
0.0
  0
VERTEX
  5
353
100
AcDbEntity
  8
OBJECT
  6
CONTINUOUS
100
AcDbVertex
100
AcDb2dVertex
 10
445.0
 20
-1060.0000048327006
 30
0.0
  0
VERTEX
  5
354
100
AcDbEntity
  8
OBJECT
  6
CONTINUOUS
100
AcDbVertex
100
AcDb2dVertex
 10
445.0
 20
-996.0000048327006
 30
0.0
  0
VERTEX
  5
355
100
AcDbEntity
  8
OBJECT
  6
CONTINUOUS
100
AcDbVertex
100
AcDb2dVertex
 10
466.0
 20
-996.0000048327006
 30
0.0
  0
SEQEND
  5
356
100
AcDbEntity
  8
OBJECT
  6
CONTINUOUS
  0
SPLINE
  5
357
100
AcDbEntity
  8
OBJECT
  6
CONTINUOUS
100
AcDbSpline
210
0.0
220
0.0
230
1.0
 70
               8
 71
               2
 72
              18
 73
              15
 74
               0
 42
0.000001
 43
0.000001
 40
0.0
 40
0.0
 40
0.0
 40
0.1596637333355709
 40
0.1596637333355709
 40
0.2900557822262871
 40
0.2900557822262871
 40
0.4411769333255019
 40
0.4411769333255019
 40
0.5316530488823255
 40
0.5316530488823255
 40
0.5476194222158826
 40
0.5476194222158826
 40
0.8882353866651005
 40
0.8882353866651005
 40
1.0
 40
1.0
 40
1.0
 10
466.0
 20
-991.0000048327006
 30
0.0
 10
451.0
 20
-991.0000048327006
 30
0.0
 10
436.0
 20
-991.0000048327006
 30
0.0
 10
436.0
 20
-1003.2500048327006
 30
0.0
 10
436.0
 20
-1015.5000048327006
 30
0.0
 10
436.0
 20
-1030.5000048327006
 30
0.0
 10
442.0
 20
-1043.0000048327006
 30
0.0
 10
442.0
 20
-1051.5000048327006
 30
0.0
 10
442.0
 20
-1060.0000048327006
 30
0.0
 10
443.5
 20
-1060.0000048327006
 30
0.0
 10
445.0
 20
-1060.0000048327006
 30
0.0
 10
445.0
 20
-1028.0000048327006
 30
0.0
 10
445.0
 20
-996.0000048327006
 30
0.0
 10
455.5
 20
-996.0000048327006
 30
0.0
 10
466.0
 20
-996.0000048327006
 30
0.0
  0
LINE
  5
358
100
AcDbEntity
  8
OBJECT
  6
CONTINUOUS
100
AcDbLine
 10
425.0
 20
-984.0000048327006
 30
0.0
 11
425.0
 21
-981.0000048327006
 31
0.0
  0
LINE
  5
359
100
AcDbEntity
  8
OBJECT
  6
CONTINUOUS
100
AcDbLine
 10
455.0
 20
-984.0000048327006
 30
0.0
 11
425.0
 21
-984.0000048327006
 31
0.0
  0
LINE
  5
35A
100
AcDbEntity
  8
OBJECT
  6
CONTINUOUS
100
AcDbLine
 10
437.5
 20
-987.5000048327006
 30
0.0
 11
433.5
 21
-984.0000048327006
 31
0.0
  0
LINE
  5
35B
100
AcDbEntity
  8
OBJECT
  6
CONTINUOUS
100
AcDbLine
 10
437.5
 20
-991.0000048327006
 30
0.0
 11
437.5
 21
-987.5000048327006
 31
0.0
  0
LINE
  5
35C
100
AcDbEntity
  8
OBJECT
  6
CONTINUOUS
100
AcDbLine
 10
962.5
 20
-987.5000048327006
 30
0.0
 11
917.5
 21
-987.5000048327006
 31
0.0
  0
POLYLINE
  5
35D
100
AcDbEntity
  8
OBJECT
  6
CONTINUOUS
100
AcDb2dPolyline
 66
               1
 10
0.0
 20
0.0
 30
0.0
 70
               1
 75
               5
  0
VERTEX
  5
35E
100
AcDbEntity
  8
OBJECT
  6
CONTINUOUS
100
AcDbVertex
100
AcDb2dVertex
 10
952.5
 20
-1041.7500048327006
 30
0.0
  0
VERTEX
  5
35F
100
AcDbEntity
  8
OBJECT
  6
CONTINUOUS
100
AcDbVertex
100
AcDb2dVertex
 10
955.0
 20
-1041.7500048327006
 30
0.0
  0
VERTEX
  5
360
100
AcDbEntity
  8
OBJECT
  6
CONTINUOUS
100
AcDbVertex
100
AcDb2dVertex
 10
955.0
 20
-1058.2500048327006
 30
0.0
  0
VERTEX
  5
361
100
AcDbEntity
  8
OBJECT
  6
CONTINUOUS
100
AcDbVertex
100
AcDb2dVertex
 10
952.5
 20
-1058.2500048327006
 30
0.0
  0
SEQEND
  5
362
100
AcDbEntity
  8
OBJECT
  6
CONTINUOUS
  0
POLYLINE
  5
363
100
AcDbEntity
  8
OBJECT
  6
CONTINUOUS
100
AcDb2dPolyline
 66
               1
 10
0.0
 20
0.0
 30
0.0
 70
               1
 75
               5
  0
VERTEX
  5
364
100
AcDbEntity
  8
OBJECT
  6
CONTINUOUS
100
AcDbVertex
100
AcDb2dVertex
 10
958.0
 20
-1044.5000048327006
 30
0.0
  0
VERTEX
  5
365
100
AcDbEntity
  8
OBJECT
  6
CONTINUOUS
100
AcDbVertex
100
AcDb2dVertex
 10
960.5
 20
-1044.5000048327006
 30
0.0
  0
VERTEX
  5
366
100
AcDbEntity
  8
OBJECT
  6
CONTINUOUS
100
AcDbVertex
100
AcDb2dVertex
 10
960.5
 20
-1055.5000048327006
 30
0.0
  0
VERTEX
  5
367
100
AcDbEntity
  8
OBJECT
  6
CONTINUOUS
100
AcDbVertex
100
AcDb2dVertex
 10
958.0
 20
-1055.5000048327006
 30
0.0
  0
SEQEND
  5
368
100
AcDbEntity
  8
OBJECT
  6
CONTINUOUS
  0
POLYLINE
  5
369
100
AcDbEntity
  8
OBJECT
  6
CONTINUOUS
100
AcDb2dPolyline
 66
               1
 10
0.0
 20
0.0
 30
0.0
 70
               1
 75
               5
  0
VERTEX
  5
36A
100
AcDbEntity
  8
OBJECT
  6
CONTINUOUS
100
AcDbVertex
100
AcDb2dVertex
 10
945.0
 20
-981.0000048327006
 30
0.0
  0
VERTEX
  5
36B
100
AcDbEntity
  8
OBJECT
  6
CONTINUOUS
100
AcDbVertex
100
AcDb2dVertex
 10
875.0
 20
-981.0000048327006
 30
0.0
  0
VERTEX
  5
36C
100
AcDbEntity
  8
OBJECT
  6
CONTINUOUS
100
AcDbVertex
100
AcDb2dVertex
 10
875.0
 20
-984.0000048327006
 30
0.0
  0
VERTEX
  5
36D
100
AcDbEntity
  8
OBJECT
  6
CONTINUOUS
100
AcDbVertex
100
AcDb2dVertex
 10
945.0
 20
-984.0000048327006
 30
0.0
  0
SEQEND
  5
36E
100
AcDbEntity
  8
OBJECT
  6
CONTINUOUS
  0
POLYLINE
  5
36F
100
AcDbEntity
  8
OBJECT
  6
CONTINUOUS
100
AcDb2dPolyline
 66
               1
 10
0.0
 20
0.0
 30
0.0
 70
               1
 75
               5
  0
VERTEX
  5
370
100
AcDbEntity
  8
OBJECT
  6
CONTINUOUS
100
AcDbVertex
100
AcDb2dVertex
 10
936.5
 20
-984.0000048327006
 30
0.0
  0
VERTEX
  5
371
100
AcDbEntity
  8
OBJECT
  6
CONTINUOUS
100
AcDbVertex
100
AcDb2dVertex
 10
883.5
 20
-984.0000048327006
 30
0.0
  0
VERTEX
  5
372
100
AcDbEntity
  8
OBJECT
  6
CONTINUOUS
100
AcDbVertex
100
AcDb2dVertex
 10
887.5
 20
-987.5000048327006
 30
0.0
  0
VERTEX
  5
373
100
AcDbEntity
  8
OBJECT
  6
CONTINUOUS
100
AcDbVertex
100
AcDb2dVertex
 10
887.5
 20
-991.0000048327006
 30
0.0
  0
VERTEX
  5
374
100
AcDbEntity
  8
OBJECT
  6
CONTINUOUS
100
AcDbVertex
100
AcDb2dVertex
 10
932.5
 20
-991.0000048327006
 30
0.0
  0
VERTEX
  5
375
100
AcDbEntity
  8
OBJECT
  6
CONTINUOUS
100
AcDbVertex
100
AcDb2dVertex
 10
932.5
 20
-987.5000048327006
 30
0.0
  0
SEQEND
  5
376
100
AcDbEntity
  8
OBJECT
  6
CONTINUOUS
  0
LINE
  5
377
100
AcDbEntity
  8
OBJECT
  6
CONTINUOUS
100
AcDbLine
 10
932.5
 20
-987.5000048327006
 30
0.0
 11
887.5
 21
-987.5000048327006
 31
0.0
  0
SPLINE
  5
378
100
AcDbEntity
  8
OBJECT
  6
CONTINUOUS
100
AcDbSpline
210
0.0
220
0.0
230
1.0
 70
               9
 71
               2
 72
              28
 73
              25
 74
               0
 42
0.000001
 43
0.000001
 40
0.0
 40
0.0
 40
0.0
 40
0.1364451216774349
 40
0.1364451216774349
 40
0.206088985866959
 40
0.206088985866959
 40
0.2868044973790079
 40
0.2868044973790079
 40
0.3351288113064328
 40
0.3351288113064328
 40
0.3436566314112725
 40
0.3436566314112725
 40
0.525583460314519
 40
0.525583460314519
 40
0.6108616613629158
 40
0.6108616613629158
 40
0.7927884902661623
 40
0.7927884902661623
 40
0.8013163103710019
 40
0.8013163103710019
 40
0.8496406242984268
 40
0.8496406242984268
 40
0.9303561358104757
 40
0.9303561358104757
 40
1.0
 40
1.0
 40
1.0
 10
886.0
 20
-991.0000048327006
 30
0.0
 10
910.0
 20
-991.0000048327006
 30
0.0
 10
934.0
 20
-991.0000048327006
 30
0.0
 10
934.0
 20
-1003.2500048327006
 30
0.0
 10
934.0
 20
-1015.5000048327006
 30
0.0
 10
934.0
 20
-1030.5000048327006
 30
0.0
 10
928.0
 20
-1043.0000048327006
 30
0.0
 10
928.0
 20
-1051.5000048327006
 30
0.0
 10
928.0
 20
-1060.0000048327006
 30
0.0
 10
926.5
 20
-1060.0000048327006
 30
0.0
 10
925.0
 20
-1060.0000048327006
 30
0.0
 10
925.0
 20
-1028.0000048327006
 30
0.0
 10
925.0
 20
-996.0000048327006
 30
0.0
 10
910.0
 20
-996.0000048327006
 30
0.0
 10
895.0
 20
-996.0000048327006
 30
0.0
 10
895.0
 20
-1028.0000048327006
 30
0.0
 10
895.0
 20
-1060.0000048327006
 30
0.0
 10
893.5
 20
-1060.0000048327006
 30
0.0
 10
892.0
 20
-1060.0000048327006
 30
0.0
 10
892.0
 20
-1051.5000048327006
 30
0.0
 10
892.0
 20
-1043.0000048327006
 30
0.0
 10
886.0
 20
-1030.5000048327006
 30
0.0
 10
886.0
 20
-1015.5000048327006
 30
0.0
 10
886.0
 20
-1003.2500048327006
 30
0.0
 10
886.0
 20
-991.0000048327006
 30
0.0
  0
POLYLINE
  5
379
100
AcDbEntity
  8
OBJECT
  6
CONTINUOUS
100
AcDb2dPolyline
 66
               1
 10
0.0
 20
0.0
 30
0.0
 70
               1
 75
               5
  0
VERTEX
  5
37A
100
AcDbEntity
  8
OBJECT
  6
CONTINUOUS
100
AcDbVertex
100
AcDb2dVertex
 10
892.0
 20
-993.0000048327006
 30
0.0
  0
VERTEX
  5
37B
100
AcDbEntity
  8
OBJECT
  6
CONTINUOUS
100
AcDbVertex
100
AcDb2dVertex
 10
928.0
 20
-993.0000048327006
 30
0.0
  0
VERTEX
  5
37C
100
AcDbEntity
  8
OBJECT
  6
CONTINUOUS
100
AcDbVertex
100
AcDb2dVertex
 10
928.0
 20
-1060.0000048327006
 30
0.0
  0
VERTEX
  5
37D
100
AcDbEntity
  8
OBJECT
  6
CONTINUOUS
100
AcDbVertex
100
AcDb2dVertex
 10
925.0
 20
-1060.0000048327006
 30
0.0
  0
VERTEX
  5
37E
100
AcDbEntity
  8
OBJECT
  6
CONTINUOUS
100
AcDbVertex
100
AcDb2dVertex
 10
925.0
 20
-996.0000048327006
 30
0.0
  0
VERTEX
  5
37F
100
AcDbEntity
  8
OBJECT
  6
CONTINUOUS
100
AcDbVertex
100
AcDb2dVertex
 10
895.0
 20
-996.0000048327006
 30
0.0
  0
VERTEX
  5
380
100
AcDbEntity
  8
OBJECT
  6
CONTINUOUS
100
AcDbVertex
100
AcDb2dVertex
 10
895.0
 20
-1060.0000048327006
 30
0.0
  0
VERTEX
  5
381
100
AcDbEntity
  8
OBJECT
  6
CONTINUOUS
100
AcDbVertex
100
AcDb2dVertex
 10
892.0
 20
-1060.0000048327006
 30
0.0
  0
SEQEND
  5
382
100
AcDbEntity
  8
OBJECT
  6
CONTINUOUS
  0
SPLINE
  5
383
100
AcDbEntity
  8
OBJECT
  6
CONTINUOUS
100
AcDbSpline
210
0.0
220
0.0
230
1.0
 70
              13
 71
               2
 72
              28
 73
              25
 74
               0
 42
0.000001
 43
0.000001
 40
0.0
 40
0.0
 40
0.0
 40
0.0116664369471647
 40
0.0116664369471647
 40
0.0307673121208425
 40
0.0307673121208425
 40
0.0826383042797586
 40
0.0826383042797586
 40
0.1017391794534364
 40
0.1017391794534364
 40
0.1134056164006001
 40
0.1134056164006001
 40
0.4999999999999999
 40
0.4999999999999999
 40
0.511666436947164
 40
0.511666436947164
 40
0.5307673121208417
 40
0.5307673121208417
 40
0.5826383042797578
 40
0.5826383042797578
 40
0.6017391794534356
 40
0.6017391794534356
 40
0.6134056164006001
 40
0.6134056164006001
 40
1.0
 40
1.0
 40
1.0
 10
897.5
 20
-1003.205443056888
 30
0.0
 41
1.0
 10
897.50000000000011
 20
-1001.5000048327005
 30
0.0
 41
0.7609173743274358
 10
899.18401899778667
 20
-1001.2305617930547
 30
0.0
 41
1.0
 10
901.46700949889328
 20
-1000.8652833128776
 30
0.0
 41
1.0
 10
903.75
 20
-1000.5000048327006
 30
0.0
 41
1.0
 10
910.0
 20
-999.5000048327006
 30
0.0
 41
1.0
 10
916.25
 20
-1000.5000048327006
 30
0.0
 41
1.0
 10
918.53299050110672
 20
-1000.8652833128776
 30
0.0
 41
1.0
 10
920.81598100221333
 20
-1001.2305617930547
 30
0.0
 41
1.0
 10
922.50000000000011
 20
-1001.5000048327004
 30
0.0
 41
0.7609173743274019
 10
922.5
 20
-1003.205443056888
 30
0.0
 41
1.0
 10
922.5
 20
-1050.0000048327006
 30
0.0
 41
1.0
 10
922.5
 20
-1096.7945666085132
 30
0.0
 41
1.0
 10
922.49999999999989
 20
-1098.5000048327006
 30
0.0
 41
0.7609173743274876
 10
920.81598100221333
 20
-1098.7694478723465
 30
0.0
 41
1.0
 10
918.53299050110672
 20
-1099.1347263525236
 30
0.0
 41
1.0
 10
916.25
 20
-1099.5000048327006
 30
0.0
 41
1.0
 10
910.0
 20
-1100.5000048327006
 30
0.0
 41
1.0
 10
903.75
 20
-1099.5000048327006
 30
0.0
 41
1.0
 10
901.46700949889328
 20
-1099.1347263525236
 30
0.0
 41
1.0
 10
899.18401899778667
 20
-1098.7694478723465
 30
0.0
 41
1.0
 10
897.5
 20
-1098.5000048327008
 30
0.0
 41
0.7609173743274019
 10
897.5
 20
-1096.7945666085132
 30
0.0
 41
1.0
 10
897.5
 20
-1050.0000048327006
 30
0.0
 41
1.0
 10
897.5
 20
-1003.205443056888
 30
0.0
 41
1.0
  0
POLYLINE
  5
384
100
AcDbEntity
  8
OBJECT
  6
CONTINUOUS
100
AcDb2dPolyline
 66
               1
 10
0.0
 20
0.0
 30
0.0
 70
               1
 75
               5
  0
VERTEX
  5
385
100
AcDbEntity
  8
OBJECT
  6
CONTINUOUS
100
AcDbVertex
100
AcDb2dVertex
 10
922.5
 20
-1041.7500048327006
 30
0.0
  0
VERTEX
  5
386
100
AcDbEntity
  8
OBJECT
  6
CONTINUOUS
100
AcDbVertex
100
AcDb2dVertex
 10
925.0
 20
-1041.7500048327006
 30
0.0
  0
VERTEX
  5
387
100
AcDbEntity
  8
OBJECT
  6
CONTINUOUS
100
AcDbVertex
100
AcDb2dVertex
 10
925.0
 20
-1058.2500048327006
 30
0.0
  0
VERTEX
  5
388
100
AcDbEntity
  8
OBJECT
  6
CONTINUOUS
100
AcDbVertex
100
AcDb2dVertex
 10
922.5
 20
-1058.2500048327006
 30
0.0
  0
SEQEND
  5
389
100
AcDbEntity
  8
OBJECT
  6
CONTINUOUS
  0
POLYLINE
  5
38A
100
AcDbEntity
  8
OBJECT
  6
CONTINUOUS
100
AcDb2dPolyline
 66
               1
 10
0.0
 20
0.0
 30
0.0
 70
               1
 75
               5
  0
VERTEX
  5
38B
100
AcDbEntity
  8
OBJECT
  6
CONTINUOUS
100
AcDbVertex
100
AcDb2dVertex
 10
895.0
 20
-1041.7500048327006
 30
0.0
  0
VERTEX
  5
38C
100
AcDbEntity
  8
OBJECT
  6
CONTINUOUS
100
AcDbVertex
100
AcDb2dVertex
 10
897.5
 20
-1041.7500048327006
 30
0.0
  0
VERTEX
  5
38D
100
AcDbEntity
  8
OBJECT
  6
CONTINUOUS
100
AcDbVertex
100
AcDb2dVertex
 10
897.5
 20
-1058.2500048327006
 30
0.0
  0
VERTEX
  5
38E
100
AcDbEntity
  8
OBJECT
  6
CONTINUOUS
100
AcDbVertex
100
AcDb2dVertex
 10
895.0
 20
-1058.2500048327006
 30
0.0
  0
SEQEND
  5
38F
100
AcDbEntity
  8
OBJECT
  6
CONTINUOUS
  0
POLYLINE
  5
390
100
AcDbEntity
  8
OBJECT
  6
CONTINUOUS
100
AcDb2dPolyline
 66
               1
 10
0.0
 20
0.0
 30
0.0
 70
               1
 75
               5
  0
VERTEX
  5
391
100
AcDbEntity
  8
OBJECT
  6
CONTINUOUS
100
AcDbVertex
100
AcDb2dVertex
 10
889.5
 20
-1044.5000048327006
 30
0.0
  0
VERTEX
  5
392
100
AcDbEntity
  8
OBJECT
  6
CONTINUOUS
100
AcDbVertex
100
AcDb2dVertex
 10
892.0
 20
-1044.5000048327006
 30
0.0
  0
VERTEX
  5
393
100
AcDbEntity
  8
OBJECT
  6
CONTINUOUS
100
AcDbVertex
100
AcDb2dVertex
 10
892.0
 20
-1055.5000048327006
 30
0.0
  0
VERTEX
  5
394
100
AcDbEntity
  8
OBJECT
  6
CONTINUOUS
100
AcDbVertex
100
AcDb2dVertex
 10
889.5
 20
-1055.5000048327006
 30
0.0
  0
SEQEND
  5
395
100
AcDbEntity
  8
OBJECT
  6
CONTINUOUS
  0
POLYLINE
  5
396
100
AcDbEntity
  8
OBJECT
  6
CONTINUOUS
100
AcDb2dPolyline
 66
               1
 10
0.0
 20
0.0
 30
0.0
 70
               1
 75
               5
  0
VERTEX
  5
397
100
AcDbEntity
  8
OBJECT
  6
CONTINUOUS
100
AcDbVertex
100
AcDb2dVertex
 10
928.0
 20
-1044.5000048327006
 30
0.0
  0
VERTEX
  5
398
100
AcDbEntity
  8
OBJECT
  6
CONTINUOUS
100
AcDbVertex
100
AcDb2dVertex
 10
930.5
 20
-1044.5000048327006
 30
0.0
  0
VERTEX
  5
399
100
AcDbEntity
  8
OBJECT
  6
CONTINUOUS
100
AcDbVertex
100
AcDb2dVertex
 10
930.5
 20
-1055.5000048327006
 30
0.0
  0
VERTEX
  5
39A
100
AcDbEntity
  8
OBJECT
  6
CONTINUOUS
100
AcDbVertex
100
AcDb2dVertex
 10
928.0
 20
-1055.5000048327006
 30
0.0
  0
SEQEND
  5
39B
100
AcDbEntity
  8
OBJECT
  6
CONTINUOUS
  0
SPLINE
  5
39C
100
AcDbEntity
  8
OBJECT
  6
CONTINUOUS
100
AcDbSpline
210
0.0
220
0.0
230
1.0
 70
              12
 71
               2
 72
              33
 73
              30
 74
               0
 42
0.000001
 43
0.000001
 40
0.0
 40
0.0
 40
0.0
 40
0.0692872537027545
 40
0.0692872537027545
 40
0.0953250349395368
 40
0.0953250349395368
 40
0.0953253178401116
 40
0.0953253178401116
 40
0.1112282550692385
 40
0.1112282550692385
 40
0.1112283776841918
 40
0.6382223960864805
 40
0.638222518701437
 40
0.638222518701437
 40
0.6541254559305655
 40
0.6541254559305655
 40
0.6541257388311401
 40
0.6541257388311401
 40
0.6801635200679225
 40
0.6801635200679225
 40
0.7508711437855171
 40
0.7508711437855171
 40
0.7769089250222995
 40
0.7769089250222995
 40
0.7769092079228743
 40
0.7769092079228743
 40
0.7928121451520016
 40
0.7928121451520016
 40
0.7928122677669569
 40
1.0
 40
1.0
 40
1.0
 10
933.9992000000002
 20
-1000.4610048327004
 30
0.0
 41
1.0
 10
940.12459999999919
 20
-999.51990483270038
 30
0.0
 41
1.0
 10
946.25
 20
-1000.5000048327006
 30
0.0
 41
1.0
 10
948.53300000000036
 20
-1000.8652548327007
 30
0.0
 41
1.0
 10
950.81600000000071
 20
-1001.2305048327007
 30
0.0
 41
1.0
 10
950.81602480461413
 20
-1001.2305088023227
 30
0.0
 41
1.0
 10
950.81604960922755
 20
-1001.2305127719446
 30
0.0
 41
1.0
 10
952.5
 20
-1001.5000048327006
 30
0.0
 41
0.760928644688094
 10
952.5
 20
-1003.2053830574336
 30
0.0
 41
1.0
 10
952.5
 20
-1003.205393945067
 30
0.0
 41
1.0
 10
952.5
 20
-1050.0000048327004
 30
0.0
 41
1.0
 10
952.5
 20
-1096.7946157203341
 30
0.0
 41
1.0
 10
952.5
 20
-1096.7946266079678
 30
0.0
 41
1.0
 10
952.49999999999977
 20
-1098.5000048327006
 30
0.0
 41
0.7609286446881768
 10
950.81604960922755
 20
-1098.7694968934568
 30
0.0
 41
1.0
 10
950.81602480461413
 20
-1098.7695008630785
 30
0.0
 41
1.0
 10
950.81600000000071
 20
-1098.7695048327005
 30
0.0
 41
1.0
 10
948.53300000000036
 20
-1099.1347548327005
 30
0.0
 41
1.0
 10
946.25
 20
-1099.5000048327006
 30
0.0
 41
1.0
 10
940.0
 20
-1100.4979472195319
 30
0.0
 41
1.0
 10
933.75
 20
-1099.5000048327006
 30
0.0
 41
1.0
 10
931.46699999999964
 20
-1099.1347548327005
 30
0.0
 41
1.0
 10
929.18399999999929
 20
-1098.7695048327005
 30
0.0
 41
1.0
 10
929.18397519538587
 20
-1098.7695008630785
 30
0.0
 41
1.0
 10
929.18395039077245
 20
-1098.7694968934566
 30
0.0
 41
1.0
 10
927.49999999999989
 20
-1098.5000048327004
 30
0.0
 41
0.7609286446881459
 10
927.5
 20
-1096.7946266079675
 30
0.0
 41
1.0
 10
927.5
 20
-1096.7946157203339
 30
0.0
 41
1.0
 10
927.5
 20
-1078.3973048327005
 30
0.0
 41
1.0
 10
927.5
 20
-1060.0000048327006
 30
0.0
 41
1.0
  0
POLYLINE
  5
39D
100
AcDbEntity
  8
OBJECT
  6
CONTINUOUS
100
AcDb2dPolyline
 66
               1
 10
0.0
 20
0.0
 30
0.0
 75
               5
  0
VERTEX
  5
39E
100
AcDbEntity
  8
OBJECT
  6
CONTINUOUS
100
AcDbVertex
100
AcDb2dVertex
 10
934.0
 20
-993.0000048327006
 30
0.0
  0
VERTEX
  5
39F
100
AcDbEntity
  8
OBJECT
  6
CONTINUOUS
100
AcDbVertex
100
AcDb2dVertex
 10
958.0
 20
-993.0000048327006
 30
0.0
  0
VERTEX
  5
3A0
100
AcDbEntity
  8
OBJECT
  6
CONTINUOUS
100
AcDbVertex
100
AcDb2dVertex
 10
958.0
 20
-1060.0000048327006
 30
0.0
  0
VERTEX
  5
3A1
100
AcDbEntity
  8
OBJECT
  6
CONTINUOUS
100
AcDbVertex
100
AcDb2dVertex
 10
955.0
 20
-1060.0000048327006
 30
0.0
  0
VERTEX
  5
3A2
100
AcDbEntity
  8
OBJECT
  6
CONTINUOUS
100
AcDbVertex
100
AcDb2dVertex
 10
955.0
 20
-996.0000048327006
 30
0.0
  0
VERTEX
  5
3A3
100
AcDbEntity
  8
OBJECT
  6
CONTINUOUS
100
AcDbVertex
100
AcDb2dVertex
 10
934.0
 20
-996.0000048327006
 30
0.0
  0
SEQEND
  5
3A4
100
AcDbEntity
  8
OBJECT
  6
CONTINUOUS
  0
SPLINE
  5
3A5
100
AcDbEntity
  8
OBJECT
  6
CONTINUOUS
100
AcDbSpline
210
0.0
220
0.0
230
1.0
 70
               8
 71
               2
 72
              18
 73
              15
 74
               0
 42
0.000001
 43
0.000001
 40
0.0
 40
0.0
 40
0.0
 40
0.1596637333355709
 40
0.1596637333355709
 40
0.2900557822262871
 40
0.2900557822262871
 40
0.4411769333255019
 40
0.4411769333255019
 40
0.5316530488823255
 40
0.5316530488823255
 40
0.5476194222158826
 40
0.5476194222158826
 40
0.8882353866651005
 40
0.8882353866651005
 40
1.0
 40
1.0
 40
1.0
 10
934.0
 20
-991.0000048327006
 30
0.0
 10
949.0
 20
-991.0000048327006
 30
0.0
 10
964.0
 20
-991.0000048327006
 30
0.0
 10
964.0
 20
-1003.2500048327006
 30
0.0
 10
964.0
 20
-1015.5000048327006
 30
0.0
 10
964.0
 20
-1030.5000048327006
 30
0.0
 10
958.0
 20
-1043.0000048327006
 30
0.0
 10
958.0
 20
-1051.5000048327006
 30
0.0
 10
958.0
 20
-1060.0000048327006
 30
0.0
 10
956.5
 20
-1060.0000048327006
 30
0.0
 10
955.0
 20
-1060.0000048327006
 30
0.0
 10
955.0
 20
-1028.0000048327006
 30
0.0
 10
955.0
 20
-996.0000048327006
 30
0.0
 10
944.5
 20
-996.0000048327006
 30
0.0
 10
934.0
 20
-996.0000048327006
 30
0.0
  0
LINE
  5
3A6
100
AcDbEntity
  8
OBJECT
  6
CONTINUOUS
100
AcDbLine
 10
975.0
 20
-984.0000048327006
 30
0.0
 11
975.0
 21
-981.0000048327006
 31
0.0
  0
LINE
  5
3A7
100
AcDbEntity
  8
OBJECT
  6
CONTINUOUS
100
AcDbLine
 10
945.0
 20
-984.0000048327006
 30
0.0
 11
975.0
 21
-984.0000048327006
 31
0.0
  0
LINE
  5
3A8
100
AcDbEntity
  8
OBJECT
  6
CONTINUOUS
100
AcDbLine
 10
962.5
 20
-987.5000048327006
 30
0.0
 11
966.5
 21
-984.0000048327006
 31
0.0
  0
LINE
  5
3A9
100
AcDbEntity
  8
OBJECT
  6
CONTINUOUS
100
AcDbLine
 10
962.5
 20
-991.0000048327006
 30
0.0
 11
962.5
 21
-987.5000048327006
 31
0.0
  0
LWPOLYLINE
  5
3AA
100
AcDbEntity
  8
OBJECT
  6
CONTINUOUS
100
AcDbPolyline
 90
       10
 70
             129
 10
887.5
 20
-1045.5000048327006
 42
-0.414213562373095
 10
889.5
 20
-1047.5000048327006
 10
889.5
 20
-1060.5000048327006
 42
-0.414213562373095
 10
887.5
 20
-1062.5000048327006
 10
886.5
 20
-1062.5000048327006
 10
886.5
 20
-1055.5000048327006
 10
871.5
 20
-1055.5000048327006
 42
-0.414213562373095
 10
869.5
 20
-1053.5000048327006
 10
869.5
 20
-1047.5000048327006
 42
-0.414213562373095
 10
871.5
 20
-1045.5000048327006
  0
POLYLINE
  5
3AB
100
AcDbEntity
  8
OBJECT
  6
CONTINUOUS
100
AcDb2dPolyline
 66
               1
 10
0.0
 20
0.0
 30
0.0
 70
               1
 75
               5
  0
VERTEX
  5
3AC
100
AcDbEntity
  8
OBJECT
  6
CONTINUOUS
100
AcDbVertex
100
AcDb2dVertex
 10
889.5
 20
-1037.5000048327006
 30
0.0
  0
VERTEX
  5
3AD
100
AcDbEntity
  8
OBJECT
  6
CONTINUOUS
100
AcDbVertex
100
AcDb2dVertex
 10
889.5
 20
-1062.5000048327006
 30
0.0
  0
VERTEX
  5
3AE
100
AcDbEntity
  8
OBJECT
  6
CONTINUOUS
100
AcDbVertex
100
AcDb2dVertex
 10
886.5
 20
-1062.5000048327006
 30
0.0
  0
VERTEX
  5
3AF
100
AcDbEntity
  8
OBJECT
  6
CONTINUOUS
100
AcDbVertex
100
AcDb2dVertex
 10
886.5
 20
-1040.5000048327006
 30
0.0
  0
VERTEX
  5
3B0
100
AcDbEntity
  8
OBJECT
  6
CONTINUOUS
100
AcDbVertex
100
AcDb2dVertex
 10
869.5
 20
-1040.5000048327006
 30
0.0
  0
VERTEX
  5
3B1
100
AcDbEntity
  8
OBJECT
  6
CONTINUOUS
100
AcDbVertex
100
AcDb2dVertex
 10
869.5
 20
-1037.5000048327006
 30
0.0
  0
SEQEND
  5
3B2
100
AcDbEntity
  8
OBJECT
  6
CONTINUOUS
  0
LINE
  5
3B3
100
AcDbEntity
  8
OBJECT
  6
CONTINUOUS
100
AcDbLine
 10
871.5
 20
-1048.5000048327006
 30
0.0
 11
886.5
 21
-1048.5000048327006
 31
0.0
  0
ARC
  5
3B4
100
AcDbEntity
  8
OBJECT
  6
CONTINUOUS
100
AcDbCircle
 10
871.5
 20
-1050.5000048327006
 30
0.0
 40
2.0
100
AcDbArc
 50
90.0
 51
180.0
  0
LINE
  5
3B5
100
AcDbEntity
  8
OBJECT
  6
CONTINUOUS
100
AcDbLine
 10
405.0
 20
-270.0000048327006
 30
0.0
 11
405.0
 21
-233.0000048327006
 31
0.0
  0
LINE
  5
3B6
100
AcDbEntity
  8
OBJECT
  6
CONTINUOUS
100
AcDbLine
 10
995.0
 20
-233.0000048327006
 30
0.0
 11
995.0
 21
-270.0000048327006
 31
0.0
  0
LINE
  5
3B7
100
AcDbEntity
  8
OBJECT
  6
CONTINUOUS
100
AcDbLine
 10
408.0
 20
-230.0000048327006
 30
0.0
 11
992.0
 21
-230.0000048327006
 31
0.0
  0
ARC
  5
3B8
100
AcDbEntity
  8
OBJECT
  6
CONTINUOUS
100
AcDbCircle
 10
408.0
 20
-233.0000048327006
 30
0.0
 40
3.0
100
AcDbArc
 50
90.0
 51
180.0
  0
ARC
  5
3B9
100
AcDbEntity
  8
OBJECT
  6
CONTINUOUS
100
AcDbCircle
 10
992.0
 20
-233.0000048327006
 30
0.0
 40
3.0
100
AcDbArc
 50
0.0
 51
90.0
  0
LINE
  5
3BA
100
AcDbEntity
  8
OBJECT
  6
CONTINUOUS
100
AcDbLine
 10
402.5
 20
-270.0000048327006
 30
0.0
 11
402.5
 21
-280.0000048327006
 31
0.0
  0
LINE
  5
3BB
100
AcDbEntity
  8
OBJECT
  6
CONTINUOUS
100
AcDbLine
 10
997.5
 20
-270.0000048327006
 30
0.0
 11
997.5
 21
-280.0000048327006
 31
0.0
  0
LWPOLYLINE
  5
3BC
100
AcDbEntity
  8
OBJECT
  6
CONTINUOUS
100
AcDbPolyline
 90
        8
 70
             129
 10
621.0
 20
-247.0000048327006
 42
-0.414213562373095
 10
626.0
 20
-242.0000048327006
 10
774.0
 20
-242.0000048327006
 42
-0.414213562373095
 10
779.0
 20
-247.0000048327006
 10
779.0
 20
-253.0000048327006
 42
-0.414213562373095
 10
774.0
 20
-258.0000048327006
 10
626.0
 20
-258.0000048327006
 42
-0.414213562373095
 10
621.0
 20
-253.0000048327006
  0
LINE
  5
3BD
100
AcDbEntity
  8
OBJECT
  6
CONTINUOUS
100
AcDbLine
 10
430.5
 20
-227.0000048327006
 30
0.0
 11
969.5
 21
-227.0000048327006
 31
0.0
  0
LINE
  5
3BE
100
AcDbEntity
  8
OBJECT
  6
CONTINUOUS
100
AcDbLine
 10
467.0
 20
-249.0000048327006
 30
0.0
 11
467.0
 21
-241.0000048327006
 31
0.0
  0
LINE
  5
3BF
100
AcDbEntity
  8
OBJECT
  6
CONTINUOUS
100
AcDbLine
 10
470.0
 20
-257.5000048327006
 30
0.0
 11
467.0
 21
-249.0000048327006
 31
0.0
  0
LINE
  5
3C0
100
AcDbEntity
  8
OBJECT
  6
CONTINUOUS
100
AcDbLine
 10
470.0
 20
-266.0000048327006
 30
0.0
 11
470.0
 21
-252.0000048327006
 31
0.0
  0
LINE
  5
3C1
100
AcDbEntity
  8
OBJECT
  6
CONTINUOUS
100
AcDbLine
 10
490.0
 20
-266.0000048327006
 30
0.0
 11
470.0
 21
-266.0000048327006
 31
0.0
  0
LINE
  5
3C2
100
AcDbEntity
  8
OBJECT
  6
CONTINUOUS
100
AcDbLine
 10
490.0
 20
-252.0000048327006
 30
0.0
 11
490.0
 21
-266.0000048327006
 31
0.0
  0
LINE
  5
3C3
100
AcDbEntity
  8
OBJECT
  6
CONTINUOUS
100
AcDbLine
 10
493.0
 20
-249.0000048327006
 30
0.0
 11
490.0
 21
-257.5000048327006
 31
0.0
  0
LINE
  5
3C4
100
AcDbEntity
  8
OBJECT
  6
CONTINUOUS
100
AcDbLine
 10
493.0
 20
-241.0000048327006
 30
0.0
 11
493.0
 21
-249.0000048327006
 31
0.0
  0
LINE
  5
3C5
100
AcDbEntity
  8
OBJECT
  6
CONTINUOUS
100
AcDbLine
 10
467.0
 20
-241.0000048327006
 30
0.0
 11
493.0
 21
-241.0000048327006
 31
0.0
  0
LINE
  5
3C6
100
AcDbEntity
  8
OBJECT
  6
CONTINUOUS
100
AcDbLine
 10
470.0
 20
-252.0000048327006
 30
0.0
 11
490.0
 21
-252.0000048327006
 31
0.0
  0
CIRCLE
  5
3C7
100
AcDbEntity
  8
OBJECT
  6
CONTINUOUS
100
AcDbCircle
 10
486.0
 20
-246.0000048327006
 30
0.0
 40
2.5
  0
CIRCLE
  5
3C8
100
AcDbEntity
  8
OBJECT
  6
CONTINUOUS
100
AcDbCircle
 10
474.0
 20
-246.0000048327006
 30
0.0
 40
2.5
  0
LINE
  5
3C9
100
AcDbEntity
  8
OBJECT
  6
CONTINUOUS
100
AcDbLine
 10
498.0
 20
-272.0000048327006
 30
0.0
 11
498.0
 21
-307.5000048327006
 31
0.0
  0
LINE
  5
3CA
100
AcDbEntity
  8
OBJECT
  6
CONTINUOUS
100
AcDbLine
 10
495.0
 20
-272.0000048327006
 30
0.0
 11
495.0
 21
-307.5000048327006
 31
0.0
  0
LWPOLYLINE
  5
3CB
100
AcDbEntity
  8
OBJECT
  6
CONTINUOUS
100
AcDbPolyline
 90
        6
 70
             129
 10
468.5
 20
-293.0000048327006
 10
491.5
 20
-293.0000048327006
 10
491.5
 20
-343.0000048327006
 42
-0.414213562373095
 10
487.5
 20
-347.0000048327006
 10
472.5
 20
-347.0000048327006
 42
-0.414213562373095
 10
468.5
 20
-343.0000048327006
  0
LINE
  5
3CC
100
AcDbEntity
  8
OBJECT
  6
CONTINUOUS
100
AcDbLine
 10
471.0
 20
-332.0000048327006
 30
0.0
 11
489.0
 21
-332.0000048327006
 31
0.0
  0
LINE
  5
3CD
100
AcDbEntity
  8
OBJECT
  6
CONTINUOUS
100
AcDbLine
 10
496.26579999999922
 20
-259.6607048327005
 30
0.0
 11
498.0
 21
-272.0000048327006
 31
0.0
  0
LINE
  5
3CE
100
AcDbEntity
  8
OBJECT
  6
CONTINUOUS
100
AcDbLine
 10
495.0
 20
-272.0000048327006
 30
0.0
 11
493.34710000000086
 21
-259.60350483270054
 31
0.0
  0
LINE
  5
3CF
100
AcDbEntity
  8
OBJECT
  6
CONTINUOUS
100
AcDbLine
 10
462.0
 20
-272.0000048327006
 30
0.0
 11
462.0
 21
-307.5000048327006
 31
0.0
  0
LINE
  5
3D0
100
AcDbEntity
  8
OBJECT
  6
CONTINUOUS
100
AcDbLine
 10
465.0
 20
-272.0000048327006
 30
0.0
 11
465.0
 21
-307.5000048327006
 31
0.0
  0
LINE
  5
3D1
100
AcDbEntity
  8
OBJECT
  6
CONTINUOUS
100
AcDbLine
 10
463.73420000000078
 20
-259.6607048327005
 30
0.0
 11
462.0
 21
-272.0000048327006
 31
0.0
  0
LINE
  5
3D2
100
AcDbEntity
  8
OBJECT
  6
CONTINUOUS
100
AcDbLine
 10
465.0
 20
-272.0000048327006
 30
0.0
 11
466.65289999999914
 21
-259.60350483270054
 31
0.0
  0
ARC
  5
3D3
100
AcDbEntity
  8
OBJECT
  6
CONTINUOUS
100
AcDbCircle
 10
491.5
 20
-307.5000048327006
 30
0.0
 40
3.5
100
AcDbArc
 50
270.0
 51
0.0
  0
ARC
  5
3D4
100
AcDbEntity
  8
OBJECT
  6
CONTINUOUS
100
AcDbCircle
 10
468.5
 20
-307.5000048327006
 30
0.0
 40
3.5
100
AcDbArc
 50
180.0
 51
270.0
  0
ARC
  5
3D5
100
AcDbEntity
  8
OBJECT
  6
CONTINUOUS
100
AcDbCircle
 10
468.5
 20
-307.5000048327006
 30
0.0
 40
6.5
100
AcDbArc
 50
180.0
 51
270.0
  0
ARC
  5
3D6
100
AcDbEntity
  8
OBJECT
  6
CONTINUOUS
100
AcDbCircle
 10
491.5
 20
-307.5000048327006
 30
0.0
 40
6.5
100
AcDbArc
 50
270.0
 51
0.0
  0
ARC
  5
3D7
100
AcDbEntity
  8
OBJECT
  6
CONTINUOUS
100
AcDbCircle
 10
489.82910000000084
 20
-260.56530483270058
 30
0.0
 40
6.4999544652235297
100
AcDbArc
 50
7.9998324838987376
 51
88.494257026709818
  0
ARC
  5
3D8
100
AcDbEntity
  8
OBJECT
  6
CONTINUOUS
100
AcDbCircle
 10
470.17089999999916
 20
-260.56530483270058
 30
0.0
 40
6.4999444559166459
100
AcDbArc
 50
91.505742973300073
 51
172.00016751610173
  0
ARC
  5
3D9
100
AcDbEntity
  8
OBJECT
  6
CONTINUOUS
100
AcDbCircle
 10
469.6265999999996
 20
-260.0000048327006
 30
0.0
 40
3.0000000016666664
100
AcDbArc
 50
90.001909859302899
 51
172.40523042507601
  0
ARC
  5
3DA
100
AcDbEntity
  8
OBJECT
  6
CONTINUOUS
100
AcDbCircle
 10
490.3734000000004
 20
-260.0000048327006
 30
0.0
 40
3.0000173232837839
100
AcDbArc
 50
7.594769574918744
 51
89.998090140677022
  0
LINE
  5
3DB
100
AcDbEntity
  8
OBJECT
  6
CONTINUOUS
100
AcDbLine
 10
402.5
 20
-270.0000048327006
 30
0.0
 11
462.28110000000015
 21
-270.0000048327006
 31
0.0
  0
LINE
  5
3DC
100
AcDbEntity
  8
OBJECT
  6
CONTINUOUS
100
AcDbLine
 10
462.0
 20
-280.0000048327006
 30
0.0
 11
400.0
 21
-280.0000048327006
 31
0.0
  0
LINE
  5
3DD
100
AcDbEntity
  8
OBJECT
  6
CONTINUOUS
100
AcDbLine
 10
1000.0
 20
-280.0000048327006
 30
0.0
 11
938.0
 21
-280.0000048327006
 31
0.0
  0
LINE
  5
3DE
100
AcDbEntity
  8
OBJECT
  6
CONTINUOUS
100
AcDbLine
 10
935.0
 20
-280.0000048327006
 30
0.0
 11
905.0
 21
-280.0000048327006
 31
0.0
  0
LINE
  5
3DF
100
AcDbEntity
  8
OBJECT
  6
CONTINUOUS
100
AcDbLine
 10
902.0
 20
-280.0000048327006
 30
0.0
 11
498.0
 21
-280.0000048327006
 31
0.0
  0
LINE
  5
3E0
100
AcDbEntity
  8
OBJECT
  6
CONTINUOUS
100
AcDbLine
 10
420.0
 20
-280.0000048327006
 30
0.0
 11
462.0
 21
-280.0000048327006
 31
0.0
  0
LINE
  5
3E1
100
AcDbEntity
  8
OBJECT
  6
CONTINUOUS
100
AcDbLine
 10
465.26670000000013
 20
-270.0000048327006
 30
0.0
 11
494.73329999999987
 21
-270.0000048327006
 31
0.0
  0
LINE
  5
3E2
100
AcDbEntity
  8
OBJECT
  6
CONTINUOUS
100
AcDbLine
 10
465.0
 20
-280.0000048327006
 30
0.0
 11
495.0
 21
-280.0000048327006
 31
0.0
  0
LINE
  5
3E3
100
AcDbEntity
  8
OBJECT
  6
CONTINUOUS
100
AcDbLine
 10
907.0
 20
-249.0000048327006
 30
0.0
 11
907.0
 21
-241.0000048327006
 31
0.0
  0
LINE
  5
3E4
100
AcDbEntity
  8
OBJECT
  6
CONTINUOUS
100
AcDbLine
 10
910.0
 20
-257.5000048327006
 30
0.0
 11
907.0
 21
-249.0000048327006
 31
0.0
  0
LINE
  5
3E5
100
AcDbEntity
  8
OBJECT
  6
CONTINUOUS
100
AcDbLine
 10
910.0
 20
-266.0000048327006
 30
0.0
 11
910.0
 21
-252.0000048327006
 31
0.0
  0
LINE
  5
3E6
100
AcDbEntity
  8
OBJECT
  6
CONTINUOUS
100
AcDbLine
 10
930.0
 20
-266.0000048327006
 30
0.0
 11
910.0
 21
-266.0000048327006
 31
0.0
  0
LINE
  5
3E7
100
AcDbEntity
  8
OBJECT
  6
CONTINUOUS
100
AcDbLine
 10
930.0
 20
-252.0000048327006
 30
0.0
 11
930.0
 21
-266.0000048327006
 31
0.0
  0
LINE
  5
3E8
100
AcDbEntity
  8
OBJECT
  6
CONTINUOUS
100
AcDbLine
 10
933.0
 20
-249.0000048327006
 30
0.0
 11
930.0
 21
-257.5000048327006
 31
0.0
  0
LINE
  5
3E9
100
AcDbEntity
  8
OBJECT
  6
CONTINUOUS
100
AcDbLine
 10
933.0
 20
-241.0000048327006
 30
0.0
 11
933.0
 21
-249.0000048327006
 31
0.0
  0
LINE
  5
3EA
100
AcDbEntity
  8
OBJECT
  6
CONTINUOUS
100
AcDbLine
 10
907.0
 20
-241.0000048327006
 30
0.0
 11
933.0
 21
-241.0000048327006
 31
0.0
  0
LINE
  5
3EB
100
AcDbEntity
  8
OBJECT
  6
CONTINUOUS
100
AcDbLine
 10
910.0
 20
-252.0000048327006
 30
0.0
 11
930.0
 21
-252.0000048327006
 31
0.0
  0
CIRCLE
  5
3EC
100
AcDbEntity
  8
OBJECT
  6
CONTINUOUS
100
AcDbCircle
 10
926.0
 20
-246.0000048327006
 30
0.0
 40
2.5
  0
CIRCLE
  5
3ED
100
AcDbEntity
  8
OBJECT
  6
CONTINUOUS
100
AcDbCircle
 10
914.0
 20
-246.0000048327006
 30
0.0
 40
2.5
  0
LINE
  5
3EE
100
AcDbEntity
  8
OBJECT
  6
CONTINUOUS
100
AcDbLine
 10
938.0
 20
-272.0000048327006
 30
0.0
 11
938.0
 21
-307.5000048327006
 31
0.0
  0
LINE
  5
3EF
100
AcDbEntity
  8
OBJECT
  6
CONTINUOUS
100
AcDbLine
 10
935.0
 20
-272.0000048327006
 30
0.0
 11
935.0
 21
-307.5000048327006
 31
0.0
  0
LWPOLYLINE
  5
3F0
100
AcDbEntity
  8
OBJECT
  6
CONTINUOUS
100
AcDbPolyline
 90
        6
 70
             129
 10
908.5
 20
-293.0000048327006
 10
931.5
 20
-293.0000048327006
 10
931.5
 20
-343.0000048327006
 42
-0.414213562373095
 10
927.5
 20
-347.0000048327006
 10
912.5
 20
-347.0000048327006
 42
-0.414213562373095
 10
908.5
 20
-343.0000048327006
  0
LINE
  5
3F1
100
AcDbEntity
  8
OBJECT
  6
CONTINUOUS
100
AcDbLine
 10
911.0
 20
-332.0000048327006
 30
0.0
 11
929.0
 21
-332.0000048327006
 31
0.0
  0
LINE
  5
3F2
100
AcDbEntity
  8
OBJECT
  6
CONTINUOUS
100
AcDbLine
 10
936.26579999999922
 20
-259.6607048327005
 30
0.0
 11
938.0
 21
-272.0000048327006
 31
0.0
  0
LINE
  5
3F3
100
AcDbEntity
  8
OBJECT
  6
CONTINUOUS
100
AcDbLine
 10
935.0
 20
-272.0000048327006
 30
0.0
 11
933.34710000000086
 21
-259.60350483270054
 31
0.0
  0
LINE
  5
3F4
100
AcDbEntity
  8
OBJECT
  6
CONTINUOUS
100
AcDbLine
 10
902.0
 20
-272.0000048327006
 30
0.0
 11
902.0
 21
-307.5000048327006
 31
0.0
  0
LINE
  5
3F5
100
AcDbEntity
  8
OBJECT
  6
CONTINUOUS
100
AcDbLine
 10
905.0
 20
-272.0000048327006
 30
0.0
 11
905.0
 21
-307.5000048327006
 31
0.0
  0
LINE
  5
3F6
100
AcDbEntity
  8
OBJECT
  6
CONTINUOUS
100
AcDbLine
 10
903.73420000000078
 20
-259.6607048327005
 30
0.0
 11
902.0
 21
-272.0000048327006
 31
0.0
  0
LINE
  5
3F7
100
AcDbEntity
  8
OBJECT
  6
CONTINUOUS
100
AcDbLine
 10
905.0
 20
-272.0000048327006
 30
0.0
 11
906.65289999999914
 21
-259.60350483270054
 31
0.0
  0
ARC
  5
3F8
100
AcDbEntity
  8
OBJECT
  6
CONTINUOUS
100
AcDbCircle
 10
931.5
 20
-307.5000048327006
 30
0.0
 40
3.5
100
AcDbArc
 50
270.0
 51
0.0
  0
ARC
  5
3F9
100
AcDbEntity
  8
OBJECT
  6
CONTINUOUS
100
AcDbCircle
 10
908.5
 20
-307.5000048327006
 30
0.0
 40
3.5
100
AcDbArc
 50
180.0
 51
270.0
  0
ARC
  5
3FA
100
AcDbEntity
  8
OBJECT
  6
CONTINUOUS
100
AcDbCircle
 10
908.5
 20
-307.5000048327006
 30
0.0
 40
6.5
100
AcDbArc
 50
180.0
 51
270.0
  0
ARC
  5
3FB
100
AcDbEntity
  8
OBJECT
  6
CONTINUOUS
100
AcDbCircle
 10
931.5
 20
-307.5000048327006
 30
0.0
 40
6.5
100
AcDbArc
 50
270.0
 51
0.0
  0
ARC
  5
3FC
100
AcDbEntity
  8
OBJECT
  6
CONTINUOUS
100
AcDbCircle
 10
929.82910000000084
 20
-260.56530483270058
 30
0.0
 40
6.4999544652235297
100
AcDbArc
 50
7.9998324838987376
 51
88.494257026709818
  0
ARC
  5
3FD
100
AcDbEntity
  8
OBJECT
  6
CONTINUOUS
100
AcDbCircle
 10
910.17089999999916
 20
-260.56530483270058
 30
0.0
 40
6.4999444559166459
100
AcDbArc
 50
91.505742973300073
 51
172.00016751610173
  0
ARC
  5
3FE
100
AcDbEntity
  8
OBJECT
  6
CONTINUOUS
100
AcDbCircle
 10
909.6265999999996
 20
-260.0000048327006
 30
0.0
 40
3.0000000016666664
100
AcDbArc
 50
90.001909859302899
 51
172.40523042507601
  0
ARC
  5
3FF
100
AcDbEntity
  8
OBJECT
  6
CONTINUOUS
100
AcDbCircle
 10
930.3734000000004
 20
-260.0000048327006
 30
0.0
 40
3.0000173232837839
100
AcDbArc
 50
7.594769574918744
 51
89.998090140677022
  0
LINE
  5
400
100
AcDbEntity
  8
OBJECT
  6
CONTINUOUS
100
AcDbLine
 10
905.26670000000013
 20
-270.0000048327006
 30
0.0
 11
934.73329999999987
 21
-270.0000048327006
 31
0.0
  0
LINE
  5
401
100
AcDbEntity
  8
OBJECT
  6
CONTINUOUS
100
AcDbLine
 10
905.0
 20
-280.0000048327006
 30
0.0
 11
935.0
 21
-280.0000048327006
 31
0.0
  0
LINE
  5
402
100
AcDbEntity
  8
OBJECT
  6
CONTINUOUS
100
AcDbLine
 10
497.71889999999985
 20
-270.0000048327006
 30
0.0
 11
902.28110000000015
 21
-270.0000048327006
 31
0.0
  0
LINE
  5
403
100
AcDbEntity
  8
OBJECT
  6
CONTINUOUS
100
AcDbLine
 10
518.0
 20
-280.0000048327006
 30
0.0
 11
882.0
 21
-280.0000048327006
 31
0.0
  0
LINE
  5
404
100
AcDbEntity
  8
OBJECT
  6
CONTINUOUS
100
AcDbLine
 10
937.71889999999985
 20
-270.0000048327006
 30
0.0
 11
997.5
 21
-270.0000048327006
 31
0.0
  0
LINE
  5
405
100
AcDbEntity
  8
OBJECT
  6
CONTINUOUS
100
AcDbLine
 10
905.26670000000013
 20
-270.0000048327006
 30
0.0
 11
934.73329999999987
 21
-270.0000048327006
 31
0.0
  0
LINE
  5
406
100
AcDbEntity
  8
OBJECT
  6
CONTINUOUS
100
AcDbLine
 10
905.0
 20
-280.0000048327006
 30
0.0
 11
935.0
 21
-280.0000048327006
 31
0.0
  0
POLYLINE
  5
407
100
AcDbEntity
  8
OBJECT
  6
CONTINUOUS
100
AcDb2dPolyline
 66
               1
 10
0.0
 20
0.0
 30
0.0
 70
               1
 75
               5
  0
VERTEX
  5
408
100
AcDbEntity
  8
OBJECT
  6
CONTINUOUS
100
AcDbVertex
100
AcDb2dVertex
 10
643.0
 20
-981.0000048327006
 30
0.0
  0
VERTEX
  5
409
100
AcDbEntity
  8
OBJECT
  6
CONTINUOUS
100
AcDbVertex
100
AcDb2dVertex
 10
757.0
 20
-981.0000048327006
 30
0.0
  0
VERTEX
  5
40A
100
AcDbEntity
  8
OBJECT
  6
CONTINUOUS
100
AcDbVertex
100
AcDb2dVertex
 10
757.0
 20
-1041.0000048327006
 30
0.0
  0
VERTEX
  5
40B
100
AcDbEntity
  8
OBJECT
  6
CONTINUOUS
100
AcDbVertex
100
AcDb2dVertex
 10
643.0
 20
-1041.0000048327006
 30
0.0
  0
SEQEND
  5
40C
100
AcDbEntity
  8
OBJECT
  6
CONTINUOUS
  0
CIRCLE
  5
40D
100
AcDbEntity
  8
OBJECT
  6
CONTINUOUS
100
AcDbCircle
 10
725.0
 20
-1011.0000048327006
 30
0.0
 40
22.5
  0
CIRCLE
  5
40E
100
AcDbEntity
  8
OBJECT
  6
CONTINUOUS
100
AcDbCircle
 10
665.0
 20
-1011.0000048327006
 30
0.0
 40
7.5
  0
POLYLINE
  5
40F
100
AcDbEntity
  8
OBJECT
  6
CONTINUOUS
100
AcDb2dPolyline
 66
               1
 10
0.0
 20
0.0
 30
0.0
 75
               5
  0
VERTEX
  5
410
100
AcDbEntity
  8
OBJECT
  6
CONTINUOUS
100
AcDbVertex
100
AcDb2dVertex
 10
823.27390000000014
 20
-979.0000048327006
 30
0.0
  0
VERTEX
  5
411
100
AcDbEntity
  8
OBJECT
  6
CONTINUOUS
100
AcDbVertex
100
AcDb2dVertex
 10
998.0
 20
-979.0000048327006
 30
0.0
  0
VERTEX
  5
412
100
AcDbEntity
  8
OBJECT
  6
CONTINUOUS
100
AcDbVertex
100
AcDb2dVertex
 10
998.0
 20
-981.0000048327006
 30
0.0
  0
VERTEX
  5
413
100
AcDbEntity
  8
OBJECT
  6
CONTINUOUS
100
AcDbVertex
100
AcDb2dVertex
 10
822.67289999999957
 20
-981.0000048327006
 30
0.0
  0
SEQEND
  5
414
100
AcDbEntity
  8
OBJECT
  6
CONTINUOUS
  0
POLYLINE
  5
415
100
AcDbEntity
  8
OBJECT
  6
CONTINUOUS
100
AcDb2dPolyline
 66
               1
 10
0.0
 20
0.0
 30
0.0
 75
               5
  0
VERTEX
  5
416
100
AcDbEntity
  8
OBJECT
  6
CONTINUOUS
100
AcDbVertex
100
AcDb2dVertex
 10
812.82819999999992
 20
-979.0000048327006
 30
0.0
  0
VERTEX
  5
417
100
AcDbEntity
  8
OBJECT
  6
CONTINUOUS
100
AcDbVertex
100
AcDb2dVertex
 10
402.0
 20
-979.0000048327006
 30
0.0
  0
VERTEX
  5
418
100
AcDbEntity
  8
OBJECT
  6
CONTINUOUS
100
AcDbVertex
100
AcDb2dVertex
 10
402.0
 20
-981.0000048327006
 30
0.0
  0
VERTEX
  5
419
100
AcDbEntity
  8
OBJECT
  6
CONTINUOUS
100
AcDbVertex
100
AcDb2dVertex
 10
812.22719999999936
 20
-981.0000048327006
 30
0.0
  0
SEQEND
  5
41A
100
AcDbEntity
  8
OBJECT
  6
CONTINUOUS
  0
POLYLINE
  5
41B
100
AcDbEntity
  8
OBJECT
  6
CONTINUOUS
100
AcDb2dPolyline
 66
               1
 10
0.0
 20
0.0
 30
0.0
 75
               5
  0
VERTEX
  5
41C
100
AcDbEntity
  8
OBJECT
  6
CONTINUOUS
100
AcDbVertex
100
AcDb2dVertex
 10
792.82819999999992
 20
-979.0000048327006
 30
0.0
  0
VERTEX
  5
41D
100
AcDbEntity
  8
OBJECT
  6
CONTINUOUS
100
AcDbVertex
100
AcDb2dVertex
 10
400.0
 20
-979.0000048327006
 30
0.0
  0
VERTEX
  5
41E
100
AcDbEntity
  8
OBJECT
  6
CONTINUOUS
100
AcDbVertex
100
AcDb2dVertex
 10
400.0
 20
-974.0000048327006
 30
0.0
  0
SEQEND
  5
41F
100
AcDbEntity
  8
OBJECT
  6
CONTINUOUS
  0
POLYLINE
  5
420
100
AcDbEntity
  8
OBJECT
  6
CONTINUOUS
100
AcDb2dPolyline
 66
               1
 10
0.0
 20
0.0
 30
0.0
 75
               5
  0
VERTEX
  5
421
100
AcDbEntity
  8
OBJECT
  6
CONTINUOUS
100
AcDbVertex
100
AcDb2dVertex
 10
823.27390000000014
 20
-979.0000048327006
 30
0.0
  0
VERTEX
  5
422
100
AcDbEntity
  8
OBJECT
  6
CONTINUOUS
100
AcDbVertex
100
AcDb2dVertex
 10
1000.0
 20
-979.0000048327006
 30
0.0
  0
VERTEX
  5
423
100
AcDbEntity
  8
OBJECT
  6
CONTINUOUS
100
AcDbVertex
100
AcDb2dVertex
 10
1000.0
 20
-974.0000048327006
 30
0.0
  0
SEQEND
  5
424
100
AcDbEntity
  8
OBJECT
  6
CONTINUOUS
  0
LINE
  5
425
100
AcDbEntity
  8
OBJECT
  6
CONTINUOUS
100
AcDbLine
 10
374.0
 20
-569.0000048327006
 30
0.0
 11
374.0
 21
-629.0000048327006
 31
0.0
  0
ARC
  5
426
100
AcDbEntity
  8
OBJECT
  6
CONTINUOUS
100
AcDbCircle
 10
430.5
 20
-230.0000048327006
 30
0.0
 40
3.0
100
AcDbArc
 50
90.0
 51
180.0
  0
ARC
  5
427
100
AcDbEntity
  8
OBJECT
  6
CONTINUOUS
100
AcDbCircle
 10
969.5
 20
-230.0000048327006
 30
0.0
 40
3.0
100
AcDbArc
 50
0.0
 51
90.0
  0
POINT
  5
428
100
AcDbEntity
  8
DIMENTION
  6
CONTINUOUS
100
AcDbPoint
 10
700.0
 20
-1100.0000048327006
 30
0.0
  0
INSERT
  5
429
100
AcDbEntity
  8
OBJECT
100
AcDbBlockReference
  2
*U19
 10
0.0
 20
19.999999999999996
 30
0.0
  0
POINT
  5
42A
100
AcDbEntity
  8
DIMENTION
  6
CONTINUOUS
100
AcDbPoint
 10
-1020.5713585909325
 20
384.2232348311544
 30
0.0
  0
DIMENSION
  5
42B
100
AcDbEntity
  8
DIMENTION
100
AcDbDimension
  2
*D20
 10
-1400.0
 20
384.2232348311544
 30
0.0
 11
-1400.0
 21
-357.88838500077316
 31
0.0
  1
1490
  3
CAD
100
AcDbAlignedDimension
 13
-1400.0
 23
-1100.0000048327006
 33
0.0
 14
-1020.5713585909325
 24
384.2232348311544
 34
0.0
 50
90.0
100
AcDbRotatedDimension
1001
ACAD
1000
DSTYLE
1002
{
1070
             340
1005
33
1070
              76
1070
               1
1070
             147
1040
0.9999999962747097
1002
}
  0
DIMENSION
  5
42C
100
AcDbEntity
  8
DIMENTION
100
AcDbDimension
  2
*D21
 10
1100.0
 20
-230.0000048327006
 30
0.0
 11
1100.0
 21
-665.0000048327006
 31
0.0
  3
CAD
100
AcDbAlignedDimension
 13
992.0
 23
-1100.0000048327006
 33
0.0
 14
992.0
 24
-230.0000048327006
 34
0.0
 50
90.0
100
AcDbRotatedDimension
1001
ACAD
1000
DSTYLE
1002
{
1070
             340
1005
33
1070
              76
1070
               1
1070
             147
1040
0.9999999962747097
1002
}
  0
ENDSEC
  0
SECTION
  2
OBJECTS
  0
DICTIONARY
  5
19
100
AcDbDictionary
  3
ACAD_GROUP
350
1A
  3
ACAD_MLINESTYLE
350
1B
  0
DICTIONARY
  5
1A
102
{ACAD_REACTORS
330
19
102
}
100
AcDbDictionary
  0
DICTIONARY
  5
1B
102
{ACAD_REACTORS
330
19
102
}
100
AcDbDictionary
  3
STANDARD
350
1C
  0
MLINESTYLE
  5
1C
102
{ACAD_REACTORS
330
1B
102
}
100
AcDbMlineStyle
  2
STANDARD
 70
               0
  3

 62
               0
 51
90.0
 52
90.0
 71
               2
 49
0.5
 62
             256
  6
BYLAYER
 49
-0.5
 62
             256
  6
BYLAYER
  0
ENDSEC
  0
EOF
